  0
SECTION
  2
HEADER
  9
$ACADVER
  1
AC1014
  9
$ACADMAINTVER
 70
     9
  9
$DWGCODEPAGE
  3
ANSI_932
  9
$INSBASE
 10
0.0
 20
0.0
 30
0.0
  9
$EXTMIN
 10
-53.47185013643
 20
130.547014762627
 30
0.0
  9
$EXTMAX
 10
695.091191184076
 20
546.855981820287
 30
0.0
  9
$LIMMIN
 10
-360.747566795242
 20
4.457354754526
  9
$LIMMAX
 10
-162.153696144267
 20
287.675440264018
  9
$ORTHOMODE
 70
     0
  9
$REGENMODE
 70
     1
  9
$FILLMODE
 70
     1
  9
$QTEXTMODE
 70
     0
  9
$MIRRTEXT
 70
     1
  9
$DRAGMODE
 70
     2
  9
$LTSCALE
 40
1.0
  9
$OSMODE
 70
   935
  9
$ATTMODE
 70
     1
  9
$TEXTSIZE
 40
4.0
  9
$TRACEWID
 40
1.0
  9
$TEXTSTYLE
  7
STANDARD
  9
$CLAYER
  8
寸法線
  9
$CELTYPE
  6
BYLAYER
  9
$CECOLOR
 62
   256
  9
$CELTSCALE
 40
10.0
  9
$DELOBJ
 70
     1
  9
$DISPSILH
 70
     0
  9
$DIMSCALE
 40
1.0
  9
$DIMASZ
 40
6.0
  9
$DIMEXO
 40
0.625
  9
$DIMDLI
 40
3.75
  9
$DIMRND
 40
0.0
  9
$DIMDLE
 40
0.0
  9
$DIMEXE
 40
1.25
  9
$DIMTP
 40
0.1
  9
$DIMTM
 40
0.1
  9
$DIMTXT
 40
8.0
  9
$DIMCEN
 40
2.5
  9
$DIMTSZ
 40
0.0
  9
$DIMTOL
 70
     0
  9
$DIMLIM
 70
     0
  9
$DIMTIH
 70
     0
  9
$DIMTOH
 70
     0
  9
$DIMSE1
 70
     0
  9
$DIMSE2
 70
     0
  9
$DIMTAD
 70
     1
  9
$DIMZIN
 70
     8
  9
$DIMBLK
  1
OPEN30
  9
$DIMASO
 70
     1
  9
$DIMSHO
 70
     1
  9
$DIMPOST
  1

  9
$DIMAPOST
  1

  9
$DIMALT
 70
     0
  9
$DIMALTD
 70
     2
  9
$DIMALTF
 40
0.0394
  9
$DIMLFAC
 40
1.0
  9
$DIMTOFL
 70
     1
  9
$DIMTVP
 40
1.0
  9
$DIMTIX
 70
     0
  9
$DIMSOXD
 70
     0
  9
$DIMSAH
 70
     0
  9
$DIMBLK1
  1

  9
$DIMBLK2
  1

  9
$DIMSTYLE
  2
ISO-25
  9
$DIMCLRD
 70
     0
  9
$DIMCLRE
 70
     0
  9
$DIMCLRT
 70
     0
  9
$DIMTFAC
 40
1.0
  9
$DIMGAP
 40
0.625
  9
$DIMJUST
 70
     0
  9
$DIMSD1
 70
     0
  9
$DIMSD2
 70
     0
  9
$DIMTOLJ
 70
     1
  9
$DIMTZIN
 70
     0
  9
$DIMALTZ
 70
     0
  9
$DIMALTTZ
 70
     0
  9
$DIMFIT
 70
     3
  9
$DIMUPT
 70
     0
  9
$DIMUNIT
 70
     2
  9
$DIMDEC
 70
     1
  9
$DIMTDEC
 70
     1
  9
$DIMALTU
 70
     2
  9
$DIMALTTD
 70
     2
  9
$DIMTXSTY
  7
STANDARD
  9
$DIMAUNIT
 70
     0
  9
$LUNITS
 70
     2
  9
$LUPREC
 70
     4
  9
$SKETCHINC
 40
1.0
  9
$FILLETRAD
 40
1.0
  9
$AUNITS
 70
     0
  9
$AUPREC
 70
     0
  9
$MENU
  1
.
  9
$ELEVATION
 40
0.0
  9
$PELEVATION
 40
0.0
  9
$THICKNESS
 40
0.0
  9
$LIMCHECK
 70
     0
  9
$CHAMFERA
 40
0.5
  9
$CHAMFERB
 40
0.5
  9
$CHAMFERC
 40
20.0
  9
$CHAMFERD
 40
0.0
  9
$SKPOLY
 70
     0
  9
$TDCREATE
 40
2450576.597302431
  9
$TDUPDATE
 40
2457627.674802535
  9
$TDINDWG
 40
1.5465110069
  9
$TDUSRTIMER
 40
1.5465110069
  9
$USRTIMER
 70
     1
  9
$ANGBASE
 50
0.0
  9
$ANGDIR
 70
     0
  9
$PDMODE
 70
     0
  9
$PDSIZE
 40
0.0
  9
$PLINEWID
 40
0.0
  9
$COORDS
 70
     2
  9
$SPLFRAME
 70
     0
  9
$SPLINETYPE
 70
     6
  9
$SPLINESEGS
 70
     8
  9
$ATTDIA
 70
     0
  9
$ATTREQ
 70
     1
  9
$HANDLING
 70
     1
  9
$HANDSEED
  5
5BEA
  9
$SURFTAB1
 70
     6
  9
$SURFTAB2
 70
     6
  9
$SURFTYPE
 70
     6
  9
$SURFU
 70
     6
  9
$SURFV
 70
     6
  9
$UCSNAME
  2

  9
$UCSORG
 10
0.0
 20
0.0
 30
0.0
  9
$UCSXDIR
 10
1.0
 20
0.0
 30
0.0
  9
$UCSYDIR
 10
0.0
 20
1.0
 30
0.0
  9
$PUCSNAME
  2

  9
$PUCSORG
 10
0.0
 20
0.0
 30
0.0
  9
$PUCSXDIR
 10
1.0
 20
0.0
 30
0.0
  9
$PUCSYDIR
 10
0.0
 20
1.0
 30
0.0
  9
$USERI1
 70
     0
  9
$USERI2
 70
     0
  9
$USERI3
 70
     0
  9
$USERI4
 70
     0
  9
$USERI5
 70
     0
  9
$USERR1
 40
0.0
  9
$USERR2
 40
0.0
  9
$USERR3
 40
0.0
  9
$USERR4
 40
0.0
  9
$USERR5
 40
0.0
  9
$WORLDVIEW
 70
     1
  9
$SHADEDGE
 70
     3
  9
$SHADEDIF
 70
    70
  9
$TILEMODE
 70
     0
  9
$MAXACTVP
 70
    16
  9
$PINSBASE
 10
0.0
 20
0.0
 30
0.0
  9
$PLIMCHECK
 70
     0
  9
$PEXTMIN
 10
4.746305129083
 20
2.681128228111
 30
0.0
  9
$PEXTMAX
 10
404.746305129083
 20
282.681128228111
 30
0.0
  9
$PLIMMIN
 10
-7.007122192383
 20
-7.007118782997
  9
$PLIMMAX
 10
417.718108215332
 20
293.315290427208
  9
$UNITMODE
 70
     0
  9
$VISRETAIN
 70
     0
  9
$PLINEGEN
 70
     0
  9
$PSLTSCALE
 70
     1
  9
$TREEDEPTH
 70
  3020
  9
$PICKSTYLE
 70
     1
  9
$CMLSTYLE
  2
STANDARD
  9
$CMLJUST
 70
     0
  9
$CMLSCALE
 40
1.0
  9
$PROXYGRAPHICS
 70
     1
  9
$MEASUREMENT
 70
     1
  0
ENDSEC
  0
SECTION
  2
CLASSES
  0
CLASS
  1
ACDBDICTIONARYWDFLT
  2
AcDbDictionaryWithDefault
  3
ObjectDBX Classes
 90
        0
280
     0
281
     0
  0
CLASS
  1
ACDBPLACEHOLDER
  2
AcDbPlaceHolder
  3
ObjectDBX Classes
 90
        0
280
     0
281
     0
  0
CLASS
  1
LAYOUT
  2
AcDbLayout
  3
ObjectDBX Classes
 90
        0
280
     0
281
     0
  0
CLASS
  1
VISUALSTYLE
  2
AcDbVisualStyle
  3
ObjectDBX Classes
 90
     4095
280
     0
281
     0
  0
CLASS
  1
SCALE
  2
AcDbScale
  3
ObjectDBX Classes
 90
     1153
280
     0
281
     0
  0
CLASS
  1
MATERIAL
  2
AcDbMaterial
  3
ObjectDBX Classes
 90
     1153
280
     0
281
     0
  0
CLASS
  1
TABLESTYLE
  2
AcDbTableStyle
  3
ObjectDBX Classes
 90
     4095
280
     0
281
     0
  0
CLASS
  1
MLEADERSTYLE
  2
AcDbMLeaderStyle
  3
ACDB_MLEADERSTYLE_CLASS
 90
     4095
280
     0
281
     0
  0
CLASS
  1
SUN
  2
AcDbSun
  3
SCENEOE
 90
     1153
280
     0
281
     0
  0
CLASS
  1
DICTIONARYVAR
  2
AcDbDictionaryVar
  3
ObjectDBX Classes
 90
        0
280
     0
281
     0
  0
CLASS
  1
CELLSTYLEMAP
  2
AcDbCellStyleMap
  3
ObjectDBX Classes
 90
     1152
280
     0
281
     0
  0
CLASS
  1
SORTENTSTABLE
  2
AcDbSortentsTable
  3
ObjectDBX Classes
 90
        0
280
     0
281
     0
  0
CLASS
  1
XRECORD
  2
AcDbXrecord
  3
ObjectDBX Classes
 90
        0
280
     0
281
     0
  0
CLASS
  1
LWPOLYLINE
  2
AcDbPolyline
  3
ObjectDBX Classes
 90
        0
280
     0
281
     1
  0
CLASS
  1
HATCH
  2
AcDbHatch
  3
ObjectDBX Classes
 90
        0
280
     0
281
     1
  0
ENDSEC
  0
SECTION
  2
TABLES
  0
TABLE
  2
VPORT
  5
8
102
{ACAD_XDICTIONARY
360
5BE2
102
}
330
0
100
AcDbSymbolTable
 70
     2
  0
VPORT
  5
500A
330
8
100
AcDbSymbolTableRecord
100
AcDbViewportTableRecord
  2
*ACTIVE
 70
     0
 10
0.0
 20
0.0
 11
1.0
 21
1.0
 12
320.809670523823
 22
338.701498291457
 13
0.0
 23
0.0
 14
1.0
 24
1.0
 15
0.0
 25
0.0
 16
0.0
 26
0.0
 36
1.0
 17
0.0
 27
0.0
 37
0.0
 40
433.972510034248
 41
1.759407069555
 42
50.0
 43
0.0
 44
0.0
 50
0.0
 51
0.0
 71
    16
 72
   100
 73
     1
 74
     0
 75
     0
 76
     0
 77
     0
 78
     0
  0
ENDTAB
  0
TABLE
  2
LTYPE
  5
5
330
0
100
AcDbSymbolTable
 70
     6
  0
LTYPE
  5
14
330
5
100
AcDbSymbolTableRecord
100
AcDbLinetypeTableRecord
  2
BYBLOCK
 70
     0
  3

 72
    65
 73
     0
 40
0.0
  0
LTYPE
  5
15
330
5
100
AcDbSymbolTableRecord
100
AcDbLinetypeTableRecord
  2
BYLAYER
 70
     0
  3

 72
    65
 73
     0
 40
0.0
  0
LTYPE
  5
16
330
5
100
AcDbSymbolTableRecord
100
AcDbLinetypeTableRecord
  2
CONTINUOUS
 70
     0
  3
Solid line
 72
    65
 73
     0
 40
0.0
  0
LTYPE
  5
1EC
330
5
100
AcDbSymbolTableRecord
100
AcDbLinetypeTableRecord
  2
CENTER
 70
     0
  3
____ _ ____ _ ____ _ ____ _ ____ _ ____ _ ____ 
 72
    65
 73
     4
 40
2.0
 49
1.25
 74
     0
 49
-0.25
 74
     0
 49
0.25
 74
     0
 49
-0.25
 74
     0
  0
LTYPE
  5
1ED
330
5
100
AcDbSymbolTableRecord
100
AcDbLinetypeTableRecord
  2
DASHED
 70
     0
  3
__ __ __ __ __ __ __ __ __ __ __ __ __ __ __ __
 72
    65
 73
     2
 40
0.75
 49
0.5
 74
     0
 49
-0.25
 74
     0
  0
LTYPE
  5
2B1F
330
5
100
AcDbSymbolTableRecord
100
AcDbLinetypeTableRecord
  2
DASHDOT
 70
     0
  3
一点鎖線
 72
    65
 73
     4
 40
25.6
 49
20.0
 74
     0
 49
-2.0
 74
     0
 49
1.6
 74
     0
 49
-2.0
 74
     0
  0
LTYPE
  5
31A1
330
5
100
AcDbSymbolTableRecord
100
AcDbLinetypeTableRecord
  2
CENTER2
 70
     0
  3
Center (.5x) ___ _ ___ _ ___ _ ___ _ ___ _ ___
 72
    65
 73
     4
 40
28.575
 49
19.05
 74
     0
 49
-3.175
 74
     0
 49
3.175
 74
     0
 49
-3.175
 74
     0
  0
LTYPE
  5
4002
330
5
100
AcDbSymbolTableRecord
100
AcDbLinetypeTableRecord
  2
DASHED2
 70
     0
  3
Dashed (.5x) _ _ _ _ _ _ _ _ _ _ _ _ _ _ _ _ _
 72
    65
 73
     2
 40
9.525
 49
6.35
 74
     0
 49
-3.175
 74
     0
  0
ENDTAB
  0
TABLE
  2
LAYER
  5
2
102
{ACAD_XDICTIONARY
360
29EA
102
}
330
0
100
AcDbSymbolTable
 70
    12
  0
LAYER
  5
F
330
2
100
AcDbSymbolTableRecord
100
AcDbLayerTableRecord
  2
0
 70
     0
 62
     7
  6
CONTINUOUS
  0
LAYER
  5
61
330
2
100
AcDbSymbolTableRecord
100
AcDbLayerTableRecord
  2
図枠太線
 70
     0
 62
   251
  6
CONTINUOUS
  0
LAYER
  5
62
330
2
100
AcDbSymbolTableRecord
100
AcDbLayerTableRecord
  2
図枠細線
 70
     0
 62
   252
  6
CONTINUOUS
  0
LAYER
  5
63
330
2
100
AcDbSymbolTableRecord
100
AcDbLayerTableRecord
  2
図枠ロゴマーク
 70
     0
 62
   253
  6
CONTINUOUS
  0
LAYER
  5
1EF
330
2
100
AcDbSymbolTableRecord
100
AcDbLayerTableRecord
  2
外形線
 70
     0
 62
     7
  6
CONTINUOUS
  0
LAYER
  5
1F0
330
2
100
AcDbSymbolTableRecord
100
AcDbLayerTableRecord
  2
寸法線
 70
     0
 62
     1
  6
CONTINUOUS
  0
LAYER
  5
1F1
330
2
100
AcDbSymbolTableRecord
100
AcDbLayerTableRecord
  2
中心線
 70
     0
 62
     4
  6
CENTER
  0
LAYER
  5
1F4
330
2
100
AcDbSymbolTableRecord
100
AcDbLayerTableRecord
  2
DEFPOINTS
 70
     0
 62
     7
  6
CONTINUOUS
  0
LAYER
  5
2AA2
330
2
100
AcDbSymbolTableRecord
100
AcDbLayerTableRecord
  2
下書線
 70
     0
 62
     2
  6
CONTINUOUS
  0
LAYER
  5
2AA3
330
2
100
AcDbSymbolTableRecord
100
AcDbLayerTableRecord
  2
隠れ線
 70
     0
 62
     3
  6
DASHED
  0
LAYER
  5
2AA4
330
2
100
AcDbSymbolTableRecord
100
AcDbLayerTableRecord
  2
細線
 70
     0
 62
     6
  6
CONTINUOUS
  0
LAYER
  5
2AA5
330
2
100
AcDbSymbolTableRecord
100
AcDbLayerTableRecord
  2
太線
 70
     0
 62
   190
  6
CONTINUOUS
  0
ENDTAB
  0
TABLE
  2
STYLE
  5
3
330
0
100
AcDbSymbolTable
 70
     2
  0
STYLE
  5
10
330
3
100
AcDbSymbolTableRecord
100
AcDbTextStyleTableRecord
  2
STANDARD
 70
     0
 40
0.0
 41
1.0
 50
0.0
 71
     0
 42
4.0
  3
ISOCP
  4
bigfont.shx
  0
STYLE
  5
64
330
3
100
AcDbSymbolTableRecord
100
AcDbTextStyleTableRecord
  2
EXCADSTD
 70
     0
 40
0.0
 41
1.0
 50
0.0
 71
     0
 42
0.2
  3
monotxt
  4
bigfont
  0
ENDTAB
  0
TABLE
  2
VIEW
  5
6
330
0
100
AcDbSymbolTable
 70
     0
  0
ENDTAB
  0
TABLE
  2
UCS
  5
7
330
0
100
AcDbSymbolTable
 70
     0
  0
ENDTAB
  0
TABLE
  2
APPID
  5
9
330
0
100
AcDbSymbolTable
 70
     6
  0
APPID
  5
11
330
9
100
AcDbSymbolTableRecord
100
AcDbRegAppTableRecord
  2
ACAD
 70
     0
  0
APPID
  5
3507
330
9
100
AcDbSymbolTableRecord
100
AcDbRegAppTableRecord
  2
ACAD_DIMASSOC_CALC_DIMLFAC
 70
     0
  0
APPID
  5
3508
330
9
100
AcDbSymbolTableRecord
100
AcDbRegAppTableRecord
  2
ACAD_DIMASSOC_DIMLFAC
 70
     0
  0
APPID
  5
3509
330
9
100
AcDbSymbolTableRecord
100
AcDbRegAppTableRecord
  2
ACAD_DIMASSOC_OVERRIDDEN_D
 70
     0
  0
APPID
  5
504E
330
9
100
AcDbSymbolTableRecord
100
AcDbRegAppTableRecord
  2
ACADANNOTATIVE
 70
     0
  0
APPID
  5
537C
330
9
100
AcDbSymbolTableRecord
100
AcDbRegAppTableRecord
  2
ACAD_MLEADERVER
 70
     0
  0
ENDTAB
  0
TABLE
  2
DIMSTYLE
  5
A
330
0
100
AcDbSymbolTable
 70
     2
  0
DIMSTYLE
105
1D
330
A
100
AcDbSymbolTableRecord
100
AcDbDimStyleTableRecord
  2
STANDARD
 70
     0
  3

  4

  5

  6

  7

 40
1.0
 41
0.18
 42
0.0625
 43
0.38
 44
0.18
 45
0.0
 46
0.0
 47
0.0
 48
0.0
140
0.18
141
0.09
142
0.0
143
25.4
144
1.0
145
0.0
146
1.0
147
0.09
 71
     0
 72
     0
 73
     1
 74
     1
 75
     0
 76
     0
 77
     0
 78
     0
170
     0
171
     2
172
     0
173
     0
174
     0
175
     0
176
     0
177
     0
178
     0
270
     2
271
     4
272
     4
273
     2
274
     2
340
10
275
     0
280
     0
281
     0
282
     0
283
     1
284
     0
285
     0
286
     0
287
     3
288
     0
  0
DIMSTYLE
105
24
102
{ACAD_REACTORS
330
449C
330
46B7
330
46D1
330
48E5
330
48E7
330
4A1D
330
4A2A
330
4A37
330
4F9F
330
4FA7
330
5459
102
}
330
A
100
AcDbSymbolTableRecord
100
AcDbDimStyleTableRecord
  2
ISO-25
 70
     0
  3

  4

  5

  6

  7

 40
1.0
 41
2.5
 42
0.625
 43
3.75
 44
1.25
 45
0.0
 46
0.0
 47
0.0
 48
0.0
140
2.5
141
2.5
142
0.0
143
0.0394
144
1.0
145
1.0
146
1.0
147
0.625
 71
     0
 72
     0
 73
     1
 74
     0
 75
     0
 76
     0
 77
     1
 78
     8
170
     0
171
     2
172
     1
173
     0
174
     0
175
     0
176
     0
177
     0
178
     0
270
     2
271
     4
272
     4
273
     2
274
     2
340
10
275
     0
280
     0
281
     0
282
     0
283
     1
284
     0
285
     0
286
     0
287
     3
288
     0
  0
ENDTAB
  0
TABLE
  2
BLOCK_RECORD
  5
1
330
0
100
AcDbSymbolTable
 70
    29
  0
BLOCK_RECORD
  5
1A
330
1
100
AcDbSymbolTableRecord
100
AcDbBlockTableRecord
  2
*MODEL_SPACE
  0
BLOCK_RECORD
  5
28FB
330
1
100
AcDbSymbolTableRecord
100
AcDbBlockTableRecord
  2
*PAPER_SPACE
  0
BLOCK_RECORD
  5
65
330
1
100
AcDbSymbolTableRecord
100
AcDbBlockTableRecord
  2
A$C3392
  0
BLOCK_RECORD
  5
29BF
330
1
100
AcDbSymbolTableRecord
100
AcDbBlockTableRecord
  2
A4横用_タイトル
1001
ACAD
1000
DesignCenter Data
1002
{
1070
     1
1070
     4
1002
}
  0
BLOCK_RECORD
  5
29F4
330
1
100
AcDbSymbolTableRecord
100
AcDbBlockTableRecord
  2
A4縦用_タイトル
1001
ACAD
1000
DesignCenter Data
1002
{
1070
     1
1070
     4
1002
}
  0
BLOCK_RECORD
  5
2A32
330
1
100
AcDbSymbolTableRecord
100
AcDbBlockTableRecord
  2
A3横用_タイトル
1001
ACAD
1000
DesignCenter Data
1002
{
1070
     1
1070
     4
1002
}
  0
BLOCK_RECORD
  5
2A6C
330
1
100
AcDbSymbolTableRecord
100
AcDbBlockTableRecord
  2
A3縦用_タイトル
1001
ACAD
1000
DesignCenter Data
1002
{
1070
     1
1070
     4
1002
}
  0
BLOCK_RECORD
  5
2AF4
330
1
100
AcDbSymbolTableRecord
100
AcDbBlockTableRecord
  2
_OPEN30
  0
BLOCK_RECORD
  5
449D
330
1
100
AcDbSymbolTableRecord
100
AcDbBlockTableRecord
  2
*D9
  0
BLOCK_RECORD
  5
46B8
330
1
100
AcDbSymbolTableRecord
100
AcDbBlockTableRecord
  2
*D10
  0
BLOCK_RECORD
  5
46D2
330
1
100
AcDbSymbolTableRecord
100
AcDbBlockTableRecord
  2
*D11
  0
BLOCK_RECORD
  5
4819
330
1
100
AcDbSymbolTableRecord
100
AcDbBlockTableRecord
  2
静電容量センサ
  0
BLOCK_RECORD
  5
4911
330
1
100
AcDbSymbolTableRecord
100
AcDbBlockTableRecord
  2
*D13
  0
BLOCK_RECORD
  5
4929
330
1
100
AcDbSymbolTableRecord
100
AcDbBlockTableRecord
  2
*D14
  0
BLOCK_RECORD
  5
4A1E
330
1
100
AcDbSymbolTableRecord
100
AcDbBlockTableRecord
  2
*D15
  0
BLOCK_RECORD
  5
4A2B
330
1
100
AcDbSymbolTableRecord
100
AcDbBlockTableRecord
  2
*D16
  0
BLOCK_RECORD
  5
4A38
330
1
100
AcDbSymbolTableRecord
100
AcDbBlockTableRecord
  2
*D17
  0
BLOCK_RECORD
  5
4DF8
330
1
100
AcDbSymbolTableRecord
100
AcDbBlockTableRecord
  2
エル2
  0
BLOCK_RECORD
  5
4FA8
330
1
100
AcDbSymbolTableRecord
100
AcDbBlockTableRecord
  2
*D23
  0
BLOCK_RECORD
  5
4FC0
330
1
100
AcDbSymbolTableRecord
100
AcDbBlockTableRecord
  2
*D25
  0
BLOCK_RECORD
  5
5468
330
1
100
AcDbSymbolTableRecord
100
AcDbBlockTableRecord
  2
*D28
  0
ENDTAB
  0
ENDSEC
  0
SECTION
  2
BLOCKS
  0
BLOCK
  5
1B
330
1A
100
AcDbEntity
  8
0
100
AcDbBlockBegin
  2
*MODEL_SPACE
 70
     0
 10
0.0
 20
0.0
 30
0.0
  3
*MODEL_SPACE
  1

  0
ENDBLK
  5
1C
330
1A
100
AcDbEntity
  8
0
100
AcDbBlockEnd
  0
BLOCK
  5
28FD
330
28FB
100
AcDbEntity
 67
     1
  8
0
 48
10.0
100
AcDbBlockBegin
  2
*PAPER_SPACE
 70
     0
 10
0.0
 20
0.0
 30
0.0
  3
*PAPER_SPACE
  1

  0
ENDBLK
  5
28FE
330
28FB
100
AcDbEntity
 67
     1
  8
0
 48
10.0
100
AcDbBlockEnd
  0
BLOCK
  5
93
330
65
100
AcDbEntity
  8
0
100
AcDbBlockBegin
  2
A$C3392
 70
     0
 10
0.0
 20
0.0
 30
0.0
  3
A$C3392
  1

  0
LINE
  5
66
330
65
100
AcDbEntity
  8
図枠太線
  6
CONTINUOUS
100
AcDbLine
 10
211.858584505185
 20
30.927375675439
 30
0.0
 11
211.858584505185
 21
0.927375675439
 31
0.0
  0
LINE
  5
67
330
65
100
AcDbEntity
  8
図枠細線
  6
CONTINUOUS
100
AcDbLine
 10
231.858592505185
 20
15.927377675439
 30
0.0
 11
287.858592505185
 21
15.927375675439
 31
0.0
  0
LINE
  5
68
330
65
100
AcDbEntity
  8
図枠細線
  6
CONTINUOUS
100
AcDbLine
 10
211.858592505185
 20
15.927377675439
 30
0.0
 11
231.858592505185
 21
15.927377675439
 31
0.0
  0
LINE
  5
69
330
65
100
AcDbEntity
  8
図枠太線
  6
CONTINUOUS
 62
   251
100
AcDbLine
 10
1.858584505185
 20
0.927375675439
 30
0.0
 11
1.858584505185
 21
275.927375675439
 31
0.0
  0
TEXT
  5
6A
330
65
100
AcDbEntity
  8
図枠細線
  6
CONTINUOUS
 62
   252
100
AcDbText
 10
351.358592505185
 20
28.427377675439
 30
0.0
 40
2.0
  1
ＴＩＴＬＥ
 41
0.903614457831
  7
EXCADSTD
 72
     5
 11
361.358592505185
 21
28.427377675439
 31
0.0
100
AcDbText
  0
TEXT
  5
6B
330
65
100
AcDbEntity
  8
図枠細線
  6
CONTINUOUS
 62
   252
100
AcDbText
 10
345.358592505185
 20
28.427377675439
 30
0.0
 40
2.0
  1
名称
 41
1.171875
  7
EXCADSTD
 72
     5
 11
350.358592505185
 21
28.427377675439
 31
0.0
100
AcDbText
  0
TEXT
  5
6C
330
65
100
AcDbEntity
  8
図枠細線
  6
CONTINUOUS
 62
   252
100
AcDbText
 10
274.358592505185
 20
25.927377675439
 30
0.0
 40
2.0
  1
ＤＲＡＷＮ
 41
0.882352941176
  7
EXCADSTD
 72
     5
 11
284.358592505185
 21
25.927377675439
 31
0.0
100
AcDbText
  0
TEXT
  5
6D
330
65
100
AcDbEntity
  8
図枠細線
  6
CONTINUOUS
 62
   252
100
AcDbText
 10
260.358592505185
 20
25.927377675439
 30
0.0
 40
2.0
  1
ＤＥＳＩＧＮＥＤ
 41
0.713043472041
  7
EXCADSTD
 72
     5
 11
273.478592390744
 21
25.927377675439
 31
0.0
100
AcDbText
  0
TEXT
  5
6E
330
65
100
AcDbEntity
  8
図枠細線
  6
CONTINUOUS
 62
   252
100
AcDbText
 10
246.358592505185
 20
25.927377675439
 30
0.0
 40
2.0
  1
ＣＨＥＣＫＥＤ
 41
0.831249989569
  7
EXCADSTD
 72
     5
 11
259.658592338292
 21
25.927377675439
 31
0.0
100
AcDbText
  0
TEXT
  5
6F
330
65
100
AcDbEntity
  8
図枠細線
  6
CONTINUOUS
 62
   252
100
AcDbText
 10
274.358592505185
 20
28.427377675439
 30
0.0
 40
2.0
  1
製図
 41
1.209677419355
  7
EXCADSTD
 72
     5
 11
279.358592505185
 21
28.427377675439
 31
0.0
100
AcDbText
  0
TEXT
  5
70
330
65
100
AcDbEntity
  8
図枠細線
  6
CONTINUOUS
 62
   252
100
AcDbText
 10
260.358592505185
 20
28.427377675439
 30
0.0
 40
2.0
  1
設計
 41
1.171875
  7
EXCADSTD
 72
     5
 11
265.358592505185
 21
28.427377675439
 31
0.0
100
AcDbText
  0
TEXT
  5
71
330
65
100
AcDbEntity
  8
図枠細線
  6
CONTINUOUS
 62
   252
100
AcDbText
 10
246.358592505185
 20
28.427377675439
 30
0.0
 40
2.0
  1
検図
 41
1.209677419355
  7
EXCADSTD
 72
     5
 11
251.358592505185
 21
28.427377675439
 31
0.0
100
AcDbText
  0
TEXT
  5
72
330
65
100
AcDbEntity
  8
図枠細線
  6
CONTINUOUS
 62
   252
100
AcDbText
 10
232.358592505185
 20
25.927377675439
 30
0.0
 40
2.0
  1
ＡＰＰＲＯＶＥＤ
 41
0.695652184279
  7
EXCADSTD
 72
     5
 11
245.15859269592
 21
25.927377675439
 31
0.0
100
AcDbText
  0
TEXT
  5
73
330
65
100
AcDbEntity
  8
図枠細線
  6
CONTINUOUS
 62
   252
100
AcDbText
 10
232.358592505185
 20
28.427377675439
 30
0.0
 40
2.0
  1
承認
 41
1.171875
  7
EXCADSTD
 72
     5
 11
237.358592505185
 21
28.427377675439
 31
0.0
100
AcDbText
  0
TEXT
  5
74
330
65
100
AcDbEntity
  8
図枠細線
  6
CONTINUOUS
 62
   252
100
AcDbText
 10
290.069888505185
 20
2.574868675439
 30
0.0
 40
3.5
  1
ＴＯＷＡ　ＳＥＩＤＥＮ　ＩＮＤＵＳＴＲＩＡＬ　ＣＯ．，ＬＴＤ．
 41
0.414568012377
  7
EXCADSTD
 72
     5
 11
342.692388209546
 21
2.574868675439
 31
0.0
100
AcDbText
  0
TEXT
  5
75
330
65
100
AcDbEntity
  8
図枠ロゴマーク
  6
CONTINUOUS
 62
   253
100
AcDbText
 10
290.107348505185
 20
7.519769675439
 30
0.0
 40
7.0
  1
東和制電工業株式会社
 41
0.639204545455
  7
EXCADSTD
 72
     5
 11
342.607348505185
 21
7.519769675439
 31
0.0
100
AcDbText
  0
TEXT
  5
76
330
65
100
AcDbEntity
  8
図枠細線
  6
CONTINUOUS
 62
   252
100
AcDbText
 10
232.499705505185
 20
5.759088675439
 30
0.0
 40
2.0
  1
ＰＲＯＪＥＣＴＩＯＮ
 41
0.754285710199
  7
EXCADSTD
 72
     5
 11
250.099705409817
 21
5.759088675439
 31
0.0
100
AcDbText
  0
TEXT
  5
77
330
65
100
AcDbEntity
  8
図枠細線
  6
CONTINUOUS
 62
   252
100
AcDbText
 10
232.574629505185
 20
8.681077675439
 30
0.0
 40
2.0
  1
ＴＨＩＲＤ　ＡＮＧＬＥ
 41
0.691099486738
  7
EXCADSTD
 72
     5
 11
250.174629767445
 21
8.681077675439
 31
0.0
100
AcDbText
  0
TEXT
  5
78
330
65
100
AcDbEntity
  8
図枠細線
  6
CONTINUOUS
 62
   252
100
AcDbText
 10
256.823999505185
 20
13.427377675439
 30
0.0
 40
2.0
  1
ＳＣＡＬＥ
 41
0.903614457831
  7
EXCADSTD
 72
     5
 11
266.823999505185
 21
13.427377675439
 31
0.0
100
AcDbText
  0
TEXT
  5
79
330
65
100
AcDbEntity
  8
図枠細線
  6
CONTINUOUS
 62
   252
100
AcDbText
 10
274.858592505185
 20
13.427377675439
 30
0.0
 40
2.0
  1
ＤＡＴＥ
 41
0.923076923077
  7
EXCADSTD
 72
     5
 11
282.858592505185
 21
13.427377675439
 31
0.0
100
AcDbText
  0
TEXT
  5
7A
330
65
100
AcDbEntity
  8
図枠細線
  6
CONTINUOUS
 62
   252
100
AcDbText
 10
356.358592505185
 20
13.427377675439
 30
0.0
 40
2.0
  1
ＤＲＧ．ＮＯ．
 41
0.9375
  7
EXCADSTD
 72
     5
 11
370.358592505185
 21
13.427377675439
 31
0.0
100
AcDbText
  0
TEXT
  5
7B
330
65
100
AcDbEntity
  8
図枠細線
  6
CONTINUOUS
 62
   252
100
AcDbText
 10
345.358592505185
 20
13.427377675439
 30
0.0
 40
2.0
  1
図面番号
 41
1.102941176471
  7
EXCADSTD
 72
     5
 11
355.358592505185
 21
13.427377675439
 31
0.0
100
AcDbText
  0
TEXT
  5
7C
330
65
100
AcDbEntity
  8
図枠細線
  6
CONTINUOUS
 62
   252
100
AcDbText
 10
269.358592505185
 20
13.427377675439
 30
0.0
 40
2.0
  1
日付
 41
1.171875
  7
EXCADSTD
 72
     5
 11
274.358592505185
 21
13.427377675439
 31
0.0
100
AcDbText
  0
TEXT
  5
7D
330
65
100
AcDbEntity
  8
図枠細線
  6
CONTINUOUS
 62
   252
100
AcDbText
 10
251.451512505185
 20
13.427377675439
 30
0.0
 40
2.0
  1
尺度
 41
1.171875
  7
EXCADSTD
 72
     5
 11
256.451512505185
 21
13.427377675439
 31
0.0
100
AcDbText
  0
TEXT
  5
7E
330
65
100
AcDbEntity
  8
図枠細線
  6
CONTINUOUS
 62
   252
100
AcDbText
 10
232.358592505185
 20
13.427377675439
 30
0.0
 40
2.0
  1
第三角法
 41
1.102941176471
  7
EXCADSTD
 72
     5
 11
242.358592505185
 21
13.427377675439
 31
0.0
100
AcDbText
  0
TEXT
  5
7F
330
65
100
AcDbEntity
  8
図枠細線
  6
CONTINUOUS
 62
   252
100
AcDbText
 10
212.358592505185
 20
28.427377675439
 30
0.0
 40
2.0
  1
ＮＯＴＥ
 41
0.923076923077
  7
EXCADSTD
 72
     5
 11
220.358592505185
 21
28.427377675439
 31
0.0
100
AcDbText
  0
LINE
  5
80
330
65
100
AcDbEntity
  8
図枠細線
  6
CONTINUOUS
 62
   252
100
AcDbLine
 10
287.858592505185
 20
23.427375675439
 30
0.0
 11
344.858592505185
 21
23.427375675439
 31
0.0
  0
LINE
  5
81
330
65
100
AcDbEntity
  8
図枠太線
  6
CONTINUOUS
 62
   251
100
AcDbLine
 10
287.858584505185
 20
15.927375675439
 30
0.0
 11
344.858592505185
 21
15.927375675439
 31
0.0
  0
LINE
  5
82
330
65
100
AcDbEntity
  8
図枠細線
  6
CONTINUOUS
 62
   252
100
AcDbLine
 10
344.858592505185
 20
15.927375675439
 30
0.0
 11
401.858584505185
 21
15.927375675439
 31
0.0
  0
LINE
  5
83
330
65
100
AcDbEntity
  8
図枠太線
  6
CONTINUOUS
 62
   251
100
AcDbLine
 10
344.858592505185
 20
0.927377675439
 30
0.0
 11
344.858592505185
 21
30.927375675439
 31
0.0
  0
LINE
  5
84
330
65
100
AcDbEntity
  8
図枠太線
  6
CONTINUOUS
 62
   251
100
AcDbLine
 10
287.858592505185
 20
0.927377675439
 30
0.0
 11
287.858592505185
 21
30.927375675439
 31
0.0
  0
LINE
  5
85
330
65
100
AcDbEntity
  8
図枠細線
  6
CONTINUOUS
 62
   252
100
AcDbLine
 10
268.858592505185
 20
0.927377675439
 30
0.0
 11
268.858592505185
 21
15.927375675439
 31
0.0
  0
LINE
  5
86
330
65
100
AcDbEntity
  8
図枠細線
  6
CONTINUOUS
 62
   252
100
AcDbLine
 10
250.858592505185
 20
0.927377675439
 30
0.0
 11
250.858592505185
 21
15.927375675439
 31
0.0
  0
LINE
  5
87
330
65
100
AcDbEntity
  8
図枠細線
  6
CONTINUOUS
 62
   252
100
AcDbLine
 10
273.858592505185
 20
30.927375675439
 30
0.0
 11
273.858592505185
 21
15.927375675439
 31
0.0
  0
LINE
  5
88
330
65
100
AcDbEntity
  8
図枠細線
  6
CONTINUOUS
 62
   252
100
AcDbLine
 10
259.858592505185
 20
30.927375675439
 30
0.0
 11
259.858592505185
 21
15.927375675439
 31
0.0
  0
LINE
  5
89
330
65
100
AcDbEntity
  8
図枠細線
  6
CONTINUOUS
 62
   252
100
AcDbLine
 10
245.858592505185
 20
30.927375675439
 30
0.0
 11
245.858592505185
 21
15.927375675439
 31
0.0
  0
LINE
  5
8A
330
65
100
AcDbEntity
  8
図枠太線
  6
CONTINUOUS
 62
   251
100
AcDbLine
 10
231.858592505185
 20
0.927377675439
 30
0.0
 11
231.858592505185
 21
30.927375675439
 31
0.0
  0
LINE
  5
8B
330
65
100
AcDbEntity
  8
図枠細線
  6
CONTINUOUS
 62
   252
100
AcDbLine
 10
211.858592505185
 20
25.927375675439
 30
0.0
 11
231.858592505185
 21
25.927375675439
 31
0.0
  0
LINE
  5
8C
330
65
100
AcDbEntity
  8
図枠細線
  6
CONTINUOUS
 62
   252
100
AcDbLine
 10
211.858592505185
 20
20.927375675439
 30
0.0
 11
231.858592505185
 21
20.927375675439
 31
0.0
  0
LINE
  5
8D
330
65
100
AcDbEntity
  8
図枠細線
  6
CONTINUOUS
 62
   252
100
AcDbLine
 10
211.858592505185
 20
10.927375675439
 30
0.0
 11
231.858592505185
 21
10.927375675439
 31
0.0
  0
LINE
  5
8E
330
65
100
AcDbEntity
  8
図枠細線
  6
CONTINUOUS
 62
   252
100
AcDbLine
 10
211.858592505185
 20
5.927377675439
 30
0.0
 11
231.858592505185
 21
5.927377675439
 31
0.0
  0
LINE
  5
8F
330
65
100
AcDbEntity
  8
図枠太線
  6
CONTINUOUS
 62
   251
100
AcDbLine
 10
211.858592505185
 20
30.927375675439
 30
0.0
 11
401.858584505185
 21
30.927375675439
 31
0.0
  0
LINE
  5
90
330
65
100
AcDbEntity
  8
図枠太線
  6
CONTINUOUS
 62
   251
100
AcDbLine
 10
1.858584505185
 20
275.927375675439
 30
0.0
 11
401.858584505185
 21
275.927375675439
 31
0.0
  0
LINE
  5
91
330
65
100
AcDbEntity
  8
図枠太線
  6
CONTINUOUS
 62
   251
100
AcDbLine
 10
401.858584505185
 20
0.927375675439
 30
0.0
 11
401.858584505185
 21
275.927375675439
 31
0.0
  0
LINE
  5
92
330
65
100
AcDbEntity
  8
図枠太線
  6
CONTINUOUS
 62
   251
100
AcDbLine
 10
1.858584505185
 20
0.927375675439
 30
0.0
 11
401.858584505185
 21
0.927375675439
 31
0.0
  0
ENDBLK
  5
94
330
65
100
AcDbEntity
  8
0
100
AcDbBlockEnd
  0
BLOCK
  5
29C0
330
29BF
100
AcDbEntity
  8
0
100
AcDbBlockBegin
  2
A4横用_タイトル
 70
     0
 10
0.0
 20
0.0
 30
0.0
  3
A4横用_タイトル
  1

  0
LINE
  5
29C1
330
29BF
100
AcDbEntity
  8
図枠細線
  6
CONTINUOUS
100
AcDbLine
 10
75.061011071051
 20
16.806607253358
 30
0.0
 11
144.061011071051
 21
16.806604789072
 31
0.0
  0
LINE
  5
29C2
330
29BF
100
AcDbEntity
  8
図枠細線
  6
CONTINUOUS
 62
   252
100
AcDbLine
 10
4.061011071051
 20
11.806606253358
 30
0.0
 11
75.061011071051
 21
11.806606253358
 31
0.0
  0
LINE
  5
29C3
330
29BF
100
AcDbEntity
  8
図枠細線
  6
CONTINUOUS
 62
   252
100
AcDbLine
 10
4.061011071051
 20
21.806606253358
 30
0.0
 11
75.061011071051
 21
21.806606253358
 31
0.0
  0
LINE
  5
29C4
330
29BF
100
AcDbEntity
  8
図枠細線
  6
CONTINUOUS
 62
   252
100
AcDbLine
 10
4.061011071051
 20
26.806606253358
 30
0.0
 11
75.061011071051
 21
26.806606253358
 31
0.0
  0
LINE
  5
29C5
330
29BF
100
AcDbEntity
  8
図枠細線
  6
CONTINUOUS
100
AcDbLine
 10
4.061011071051
 20
16.806608253358
 30
0.0
 11
75.061011071051
 21
16.806608253358
 31
0.0
  0
TEXT
  5
29C6
330
29BF
100
AcDbEntity
  8
図枠細線
  6
CONTINUOUS
 62
   252
100
AcDbText
 10
76.405475827713
 20
9.560308253358
 30
0.0
 40
2.0
  1
ＴＨＩＲＤ　ＡＮＧＬＥ
 41
0.691099486738
  7
EXCADSTD
 72
     5
 11
94.005476089973
 21
9.560308253358
 31
0.0
100
AcDbText
  0
TEXT
  5
29C7
330
29BF
100
AcDbEntity
  8
図枠細線
  6
CONTINUOUS
 62
   252
100
AcDbText
 10
76.705775880921
 20
14.306608253358
 30
0.0
 40
2.0
  1
第三角法
 41
1.102941176471
  7
EXCADSTD
 72
     5
 11
86.705775880921
 21
14.306608253358
 31
0.0
100
AcDbText
  0
TEXT
  5
29C8
330
29BF
100
AcDbEntity
  8
図枠細線
  6
CONTINUOUS
 62
   252
100
AcDbText
 10
76.705775880921
 20
26.806608253358
 30
0.0
 40
2.0
  1
ＡＰＰＲＯＶＥＤ
 41
0.695652184279
  7
EXCADSTD
 72
     5
 11
89.505776071656
 21
26.806608253358
 31
0.0
100
AcDbText
  0
TEXT
  5
29C9
330
29BF
100
AcDbEntity
  8
図枠細線
  6
CONTINUOUS
 62
   252
100
AcDbText
 10
76.705775880921
 20
29.306608253358
 30
0.0
 40
2.0
  1
承認
 41
1.171875
  7
EXCADSTD
 72
     5
 11
81.705775880921
 21
29.306608253358
 31
0.0
100
AcDbText
  0
LINE
  5
29CA
330
29BF
100
AcDbEntity
  8
図枠細線
  6
CONTINUOUS
 62
   252
100
AcDbLine
 10
98.061011071051
 20
31.806606253358
 30
0.0
 11
98.061011071051
 21
16.806606253358
 31
0.0
  0
TEXT
  5
29CB
330
29BF
100
AcDbEntity
  8
図枠細線
  6
CONTINUOUS
 62
   252
100
AcDbText
 10
104.216531119804
 20
14.306608253358
 30
0.0
 40
2.0
  1
ＳＣＡＬＥ
 41
0.903614457831
  7
EXCADSTD
 72
     5
 11
114.216531119804
 21
14.306608253358
 31
0.0
100
AcDbText
  0
TEXT
  5
29CC
330
29BF
100
AcDbEntity
  8
図枠細線
  6
CONTINUOUS
 62
   252
100
AcDbText
 10
98.844044119804
 20
14.306608253358
 30
0.0
 40
2.0
  1
尺度
 41
1.171875
  7
EXCADSTD
 72
     5
 11
103.844044119804
 21
14.306608253358
 31
0.0
100
AcDbText
  0
TEXT
  5
29CD
330
29BF
100
AcDbEntity
  8
図枠細線
  6
CONTINUOUS
 62
   252
100
AcDbText
 10
98.968727707497
 20
26.806608253358
 30
0.0
 40
2.0
  1
ＣＨＥＣＫＥＤ
 41
0.831249989569
  7
EXCADSTD
 72
     5
 11
112.268727540604
 21
26.806608253358
 31
0.0
100
AcDbText
  0
TEXT
  5
29CE
330
29BF
100
AcDbEntity
  8
図枠細線
  6
CONTINUOUS
 62
   252
100
AcDbText
 10
98.968727707497
 20
29.306608253358
 30
0.0
 40
2.0
  1
検図
 41
1.209677419355
  7
EXCADSTD
 72
     5
 11
103.968727707497
 21
29.306608253358
 31
0.0
100
AcDbText
  0
LINE
  5
29CF
330
29BF
100
AcDbEntity
  8
図枠細線
  6
CONTINUOUS
 62
   252
100
AcDbLine
 10
121.061011071051
 20
31.806606253358
 30
0.0
 11
121.061011071051
 21
16.806606253358
 31
0.0
  0
TEXT
  5
29D0
330
29BF
100
AcDbEntity
  8
図枠細線
  6
CONTINUOUS
 62
   252
100
AcDbText
 10
128.001465247253
 20
14.306608253358
 30
0.0
 40
2.0
  1
ＤＡＴＥ
 41
0.923076923077
  7
EXCADSTD
 72
     5
 11
136.001465247253
 21
14.306608253358
 31
0.0
100
AcDbText
  0
TEXT
  5
29D1
330
29BF
100
AcDbEntity
  8
図枠細線
  6
CONTINUOUS
 62
   252
100
AcDbText
 10
122.066415498841
 20
14.306608253358
 30
0.0
 40
2.0
  1
日付
 41
1.171875
  7
EXCADSTD
 72
     5
 11
127.066415498841
 21
14.306608253358
 31
0.0
100
AcDbText
  0
TEXT
  5
29D2
330
29BF
100
AcDbEntity
  8
図枠細線
  6
CONTINUOUS
 62
   252
100
AcDbText
 10
121.59429406571
 20
29.306608253358
 30
0.0
 40
2.0
  1
製図
 41
1.209677419355
  7
EXCADSTD
 72
     5
 11
126.59429406571
 21
29.306608253358
 31
0.0
100
AcDbText
  0
TEXT
  5
29D3
330
29BF
100
AcDbEntity
  8
図枠細線
  6
CONTINUOUS
 62
   252
100
AcDbText
 10
121.59429406571
 20
26.806608253358
 30
0.0
 40
2.0
  1
ＤＲＡＷＮ
 41
0.882352941176
  7
EXCADSTD
 72
     5
 11
131.59429406571
 21
26.806608253358
 31
0.0
100
AcDbText
  0
TEXT
  5
29D4
330
29BF
100
AcDbEntity
  8
図枠細線
  6
CONTINUOUS
 62
   252
100
AcDbText
 10
226.591229661348
 20
14.306608253358
 30
0.0
 40
2.0
  1
ＤＲＧ．ＮＯ．
 41
0.9375
  7
EXCADSTD
 72
     5
 11
240.591229661348
 21
14.306608253358
 31
0.0
100
AcDbText
  0
LINE
  5
29D5
330
29BF
100
AcDbEntity
  8
図枠太線
  6
CONTINUOUS
 62
   251
100
AcDbLine
 10
144.061003071051
 20
16.806606253358
 30
0.0
 11
214.061011071051
 21
16.806606253358
 31
0.0
  0
LINE
  5
29D6
330
29BF
100
AcDbEntity
  8
図枠細線
  6
CONTINUOUS
 62
   252
100
AcDbLine
 10
144.061011071051
 20
24.306606253358
 30
0.0
 11
214.061011071051
 21
24.306606253358
 31
0.0
  0
TEXT
  5
29D7
330
29BF
100
AcDbEntity
  8
図枠ロゴマーク
  6
CONTINUOUS
 62
   253
100
AcDbText
 10
146.433776781596
 20
8.399000253358
 30
0.0
 40
7.0
  1
東和制電工業株式会社
 41
0.80361088462
  7
EXCADSTD
 72
     5
 11
212.437017438349
 21
8.399000253358
 31
0.0
100
AcDbText
  0
TEXT
  5
29D8
330
29BF
100
AcDbEntity
  8
図枠細線
  6
CONTINUOUS
 62
   252
100
AcDbText
 10
215.156179912936
 20
14.306608253358
 30
0.0
 40
2.0
  1
図面番号
 41
1.102941176471
  7
EXCADSTD
 72
     5
 11
225.156179912936
 21
14.306608253358
 31
0.0
100
AcDbText
  0
TEXT
  5
29D9
330
29BF
100
AcDbEntity
  8
図枠細線
  6
CONTINUOUS
 62
   252
100
AcDbText
 10
221.591229661348
 20
29.306608253358
 30
0.0
 40
2.0
  1
ＴＩＴＬＥ
 41
0.903614457831
  7
EXCADSTD
 72
     5
 11
231.591229661348
 21
29.306608253358
 31
0.0
100
AcDbText
  0
TEXT
  5
29DA
330
29BF
100
AcDbEntity
  8
図枠細線
  6
CONTINUOUS
 62
   252
100
AcDbText
 10
215.156179912936
 20
29.306608253358
 30
0.0
 40
2.0
  1
名称
 41
1.171875
  7
EXCADSTD
 72
     5
 11
220.156179912936
 21
29.306608253358
 31
0.0
100
AcDbText
  0
LINE
  5
29DB
330
29BF
100
AcDbEntity
  8
図枠太線
  6
CONTINUOUS
 62
   251
100
AcDbLine
 10
4.061011071051
 20
1.806608253358
 30
0.0
 11
284.061011071051
 21
1.806608253358
 31
0.0
  0
LINE
  5
29DC
330
29BF
100
AcDbEntity
  8
図枠細線
  6
CONTINUOUS
 62
   252
100
AcDbLine
 10
4.061011071051
 20
6.806608253358
 30
0.0
 11
75.061011071051
 21
6.806608253358
 31
0.0
  0
LINE
  5
29DD
330
29BF
100
AcDbEntity
  8
図枠太線
  6
CONTINUOUS
 62
   251
100
AcDbLine
 10
75.061011071051
 20
1.806608253358
 30
0.0
 11
75.061011071051
 21
31.806606253358
 31
0.0
  0
TEXT
  5
29DE
330
29BF
100
AcDbEntity
  8
図枠細線
  6
CONTINUOUS
 62
   252
100
AcDbText
 10
76.330551827713
 20
6.638319253358
 30
0.0
 40
2.0
  1
ＰＲＯＪＥＣＴＩＯＮ
 41
0.754285710199
  7
EXCADSTD
 72
     5
 11
93.930551732346
 21
6.638319253358
 31
0.0
100
AcDbText
  0
LINE
  5
29DF
330
29BF
100
AcDbEntity
  8
図枠細線
  6
CONTINUOUS
 62
   252
100
AcDbLine
 10
98.061011071051
 20
1.806606931929
 30
0.0
 11
98.061011071051
 21
16.806604931929
 31
0.0
  0
LINE
  5
29E0
330
29BF
100
AcDbEntity
  8
図枠細線
  6
CONTINUOUS
 62
   252
100
AcDbLine
 10
121.061011071051
 20
1.806607574787
 30
0.0
 11
121.061011071051
 21
16.806605574787
 31
0.0
  0
LINE
  5
29E1
330
29BF
100
AcDbEntity
  8
図枠太線
  6
CONTINUOUS
 62
   251
100
AcDbLine
 10
284.061011071051
 20
1.806608253358
 30
0.0
 11
284.061011071051
 21
31.806606253358
 31
0.0
  0
LINE
  5
29E2
330
29BF
100
AcDbEntity
  8
図枠細線
  6
CONTINUOUS
 62
   252
100
AcDbLine
 10
214.061011071051
 20
16.806606253358
 30
0.0
 11
284.061011071051
 21
16.806606253358
 31
0.0
  0
TEXT
  5
29E3
330
29BF
100
AcDbEntity
  8
図枠細線
  6
CONTINUOUS
 62
   252
100
AcDbText
 10
146.199593676182
 20
3.454099253358
 30
0.0
 40
3.5
  1
ＴＯＷＡ　ＳＥＩＤＥＮ　ＩＮＤＵＳＴＲＩＡＬ　ＣＯ．，ＬＴＤ．
 41
0.528937826907
  7
EXCADSTD
 72
     5
 11
213.339435171588
 21
3.454099253358
 31
0.0
100
AcDbText
  0
LINE
  5
29E4
330
29BF
100
AcDbEntity
  8
図枠太線
  6
CONTINUOUS
 62
   251
100
AcDbLine
 10
144.061011071051
 20
1.806608253358
 30
0.0
 11
144.061011071051
 21
31.806606253358
 31
0.0
  0
LINE
  5
29E5
330
29BF
100
AcDbEntity
  8
図枠太線
  6
CONTINUOUS
 62
   251
100
AcDbLine
 10
214.061011071051
 20
1.806608253358
 30
0.0
 11
214.061011071051
 21
31.806606253358
 31
0.0
  0
MTEXT
  5
29E6
330
29BF
100
AcDbEntity
  8
図枠太線
100
AcDbMText
 10
5.064337346478
 20
31.010982137407
 30
0.0
 40
2.5
 41
8.67856098472
 71
     1
 72
     5
  1
{\Fmonotxt.shx,bigfont.shx|c128;図暦}
  0
LINE
  5
29E7
330
29BF
100
AcDbEntity
  8
図枠太線
  6
CONTINUOUS
 62
   251
100
AcDbLine
 10
4.061011071051
 20
1.806608253358
 30
0.0
 11
4.061011071051
 21
31.806606253358
 31
0.0
  0
TEXT
  5
29E8
330
29BF
100
AcDbEntity
  8
図枠細線
 48
10.0
100
AcDbText
 10
12.260817420402
 20
28.625419626495
 30
0.0
 40
2.0
  1
CHANGE NOTICE
100
AcDbText
  0
ENDBLK
  5
29E9
330
29BF
100
AcDbEntity
  8
0
100
AcDbBlockEnd
  0
BLOCK
  5
29F5
330
29F4
100
AcDbEntity
  8
0
100
AcDbBlockBegin
  2
A4縦用_タイトル
 70
     0
 10
0.0
 20
0.0
 30
0.0
  3
A4縦用_タイトル
  1

  0
LINE
  5
29F6
330
29F4
100
AcDbEntity
  8
図枠太線
  6
CONTINUOUS
 62
   251
100
AcDbLine
 10
2.368253864267
 20
4.525433224584
 30
0.0
 11
192.368245864267
 21
4.525433224584
 31
0.0
  0
LINE
  5
29F7
330
29F4
100
AcDbEntity
  8
図枠太線
  6
CONTINUOUS
 62
   251
100
AcDbLine
 10
78.368245864267
 20
19.525431224584
 30
0.0
 11
135.368253864267
 21
19.525431224584
 31
0.0
  0
LINE
  5
29F8
330
29F4
100
AcDbEntity
  8
図枠細線
  6
CONTINUOUS
 62
   252
100
AcDbLine
 10
78.368253864267
 20
27.025431224584
 30
0.0
 11
135.368253864267
 21
27.025431224584
 31
0.0
  0
TEXT
  5
29F9
330
29F4
100
AcDbEntity
  8
図枠ロゴマーク
  6
CONTINUOUS
 62
   253
100
AcDbText
 10
80.617009864267
 20
11.117825224584
 30
0.0
 40
7.0
  1
東和制電工業株式会社
 41
0.639204545455
  7
EXCADSTD
 72
     5
 11
133.117009864267
 21
11.117825224584
 31
0.0
100
AcDbText
  0
TEXT
  5
29FA
330
29F4
100
AcDbEntity
  8
図枠細線
  6
CONTINUOUS
 62
   252
100
AcDbText
 10
80.579549864267
 20
6.172924224584
 30
0.0
 40
3.5
  1
ＴＯＷＡ　ＳＥＩＤＥＮ　ＩＮＤＵＳＴＲＩＡＬ　ＣＯ．，ＬＴＤ．
 41
0.414568012377
  7
EXCADSTD
 72
     5
 11
133.202049568628
 21
6.172924224584
 31
0.0
100
AcDbText
  0
LINE
  5
29FB
330
29F4
100
AcDbEntity
  8
図枠太線
  6
CONTINUOUS
 62
   251
100
AcDbLine
 10
2.368253864267
 20
4.525433224584
 30
0.0
 11
2.368253864267
 21
34.525431224584
 31
0.0
  0
TEXT
  5
29FC
330
29F4
100
AcDbEntity
  8
図枠細線
  6
CONTINUOUS
 62
   252
100
AcDbText
 10
22.504308136501
 20
12.279133224584
 30
0.0
 40
2.0
  1
ＴＨＩＲＤ　ＡＮＧＬＥ
 41
0.691099486738
  7
EXCADSTD
 72
     5
 11
40.104308398762
 21
12.279133224584
 31
0.0
100
AcDbText
  0
TEXT
  5
29FD
330
29F4
100
AcDbEntity
  8
図枠細線
  6
CONTINUOUS
 62
   252
100
AcDbText
 10
22.429384136501
 20
9.357144224584
 30
0.0
 40
2.0
  1
ＰＲＯＪＥＣＴＩＯＮ
 41
0.754285710199
  7
EXCADSTD
 72
     5
 11
40.029384041134
 21
9.357144224584
 31
0.0
100
AcDbText
  0
LINE
  5
29FE
330
29F4
100
AcDbEntity
  8
図枠細線
  6
CONTINUOUS
100
AcDbLine
 10
22.368253864267
 20
19.525433224584
 30
0.0
 11
78.368253864267
 21
19.525431224584
 31
0.0
  0
TEXT
  5
29FF
330
29F4
100
AcDbEntity
  8
図枠細線
  6
CONTINUOUS
 62
   252
100
AcDbText
 10
22.868253864267
 20
17.025433224584
 30
0.0
 40
2.0
  1
第三角法
 41
1.102941176471
  7
EXCADSTD
 72
     5
 11
32.868253864267
 21
17.025433224584
 31
0.0
100
AcDbText
  0
TEXT
  5
2A00
330
29F4
100
AcDbEntity
  8
図枠細線
  6
CONTINUOUS
 62
   252
100
AcDbText
 10
22.868253864267
 20
29.525433224584
 30
0.0
 40
2.0
  1
ＡＰＰＲＯＶＥＤ
 41
0.695652184279
  7
EXCADSTD
 72
     5
 11
35.668254055002
 21
29.525433224584
 31
0.0
100
AcDbText
  0
LINE
  5
2A01
330
29F4
100
AcDbEntity
  8
図枠細線
  6
CONTINUOUS
 62
   252
100
AcDbLine
 10
2.368253864267
 20
9.525433224584
 30
0.0
 11
22.368253864267
 21
9.525433224584
 31
0.0
  0
LINE
  5
2A02
330
29F4
100
AcDbEntity
  8
図枠細線
  6
CONTINUOUS
 62
   252
100
AcDbLine
 10
2.368253864267
 20
14.525431224584
 30
0.0
 11
22.368253864267
 21
14.525431224584
 31
0.0
  0
LINE
  5
2A03
330
29F4
100
AcDbEntity
  8
図枠細線
  6
CONTINUOUS
 62
   252
100
AcDbLine
 10
2.368253864267
 20
24.525431224584
 30
0.0
 11
22.368253864267
 21
24.525431224584
 31
0.0
  0
LINE
  5
2A04
330
29F4
100
AcDbEntity
  8
図枠細線
  6
CONTINUOUS
 62
   252
100
AcDbLine
 10
2.368253864267
 20
29.525431224584
 30
0.0
 11
22.368253864267
 21
29.525431224584
 31
0.0
  0
LINE
  5
2A05
330
29F4
100
AcDbEntity
  8
図枠細線
  6
CONTINUOUS
100
AcDbLine
 10
2.368253864267
 20
19.525433224584
 30
0.0
 11
22.368253864267
 21
19.525433224584
 31
0.0
  0
TEXT
  5
2A06
330
29F4
100
AcDbEntity
  8
図枠細線
  6
CONTINUOUS
 62
   252
100
AcDbText
 10
2.868253864267
 20
32.025433224584
 30
0.0
 40
2.0
  1
ＮＯＴＥ
 41
0.923076923077
  7
EXCADSTD
 72
     5
 11
10.868253864267
 21
32.025433224584
 31
0.0
100
AcDbText
  0
LINE
  5
2A07
330
29F4
100
AcDbEntity
  8
図枠太線
  6
CONTINUOUS
 62
   251
100
AcDbLine
 10
22.368253864267
 20
4.525433224584
 30
0.0
 11
22.368253864267
 21
34.525431224584
 31
0.0
  0
TEXT
  5
2A08
330
29F4
100
AcDbEntity
  8
図枠細線
  6
CONTINUOUS
 62
   252
100
AcDbText
 10
22.868253864267
 20
32.025433224584
 30
0.0
 40
2.0
  1
承認
 41
1.171875
  7
EXCADSTD
 72
     5
 11
27.868253864267
 21
32.025433224584
 31
0.0
100
AcDbText
  0
TEXT
  5
2A09
330
29F4
100
AcDbEntity
  8
図枠細線
  6
CONTINUOUS
 62
   252
100
AcDbText
 10
60.711709035982
 20
32.025433224584
 30
0.0
 40
2.0
  1
製図
 41
1.209677419355
  7
EXCADSTD
 72
     5
 11
65.711709035982
 21
32.025433224584
 31
0.0
100
AcDbText
  0
TEXT
  5
2A0A
330
29F4
100
AcDbEntity
  8
図枠細線
  6
CONTINUOUS
 62
   252
100
AcDbText
 10
60.711709035982
 20
29.525433224584
 30
0.0
 40
2.0
  1
ＤＲＡＷＮ
 41
0.882352941176
  7
EXCADSTD
 72
     5
 11
70.711709035982
 21
29.525433224584
 31
0.0
100
AcDbText
  0
TEXT
  5
2A0B
330
29F4
100
AcDbEntity
  8
図枠細線
  6
CONTINUOUS
 62
   252
100
AcDbText
 10
60.834891743877
 20
17.025433224584
 30
0.0
 40
2.0
  1
日付
 41
1.171875
  7
EXCADSTD
 72
     5
 11
65.834891743877
 21
17.025433224584
 31
0.0
100
AcDbText
  0
TEXT
  5
2A0C
330
29F4
100
AcDbEntity
  8
図枠細線
  6
CONTINUOUS
 62
   252
100
AcDbText
 10
47.333660864267
 20
17.025433224584
 30
0.0
 40
2.0
  1
ＳＣＡＬＥ
 41
0.903614457831
  7
EXCADSTD
 72
     5
 11
57.333660864267
 21
17.025433224584
 31
0.0
100
AcDbText
  0
TEXT
  5
2A0D
330
29F4
100
AcDbEntity
  8
図枠細線
  6
CONTINUOUS
 62
   252
100
AcDbText
 10
42.281425990082
 20
29.525433224584
 30
0.0
 40
2.0
  1
ＣＨＥＣＫＥＤ
 41
0.831249989569
  7
EXCADSTD
 72
     5
 11
55.581425823189
 21
29.525433224584
 31
0.0
100
AcDbText
  0
LINE
  5
2A0E
330
29F4
100
AcDbEntity
  8
図枠細線
  6
CONTINUOUS
 62
   252
100
AcDbLine
 10
40.968253864267
 20
34.525431224584
 30
0.0
 11
40.968253864267
 21
19.525431224584
 31
0.0
  0
LINE
  5
2A0F
330
29F4
100
AcDbEntity
  8
図枠細線
  6
CONTINUOUS
 62
   252
100
AcDbLine
 10
40.968253864267
 20
4.525433224584
 30
0.0
 11
40.968253864267
 21
19.525431224584
 31
0.0
  0
TEXT
  5
2A10
330
29F4
100
AcDbEntity
  8
図枠細線
  6
CONTINUOUS
 62
   252
100
AcDbText
 10
41.961173864267
 20
17.025433224584
 30
0.0
 40
2.0
  1
尺度
 41
1.171875
  7
EXCADSTD
 72
     5
 11
46.961173864267
 21
17.025433224584
 31
0.0
100
AcDbText
  0
TEXT
  5
2A11
330
29F4
100
AcDbEntity
  8
図枠細線
  6
CONTINUOUS
 62
   252
100
AcDbText
 10
42.281425990082
 20
32.025433224584
 30
0.0
 40
2.0
  1
検図
 41
1.209677419355
  7
EXCADSTD
 72
     5
 11
47.281425990082
 21
32.025433224584
 31
0.0
100
AcDbText
  0
LINE
  5
2A12
330
29F4
100
AcDbEntity
  8
図枠細線
  6
CONTINUOUS
 62
   252
100
AcDbLine
 10
59.768253864267
 20
34.525431224584
 30
0.0
 11
59.768253864267
 21
19.525431224584
 31
0.0
  0
LINE
  5
2A13
330
29F4
100
AcDbEntity
  8
図枠細線
  6
CONTINUOUS
 62
   252
100
AcDbLine
 10
59.768253864267
 20
4.525433224584
 30
0.0
 11
59.768253864267
 21
19.525431224584
 31
0.0
  0
LINE
  5
2A14
330
29F4
100
AcDbEntity
  8
図枠太線
  6
CONTINUOUS
 62
   251
100
AcDbLine
 10
78.368253864267
 20
4.525433224584
 30
0.0
 11
78.368253864267
 21
34.525431224584
 31
0.0
  0
TEXT
  5
2A15
330
29F4
100
AcDbEntity
  8
図枠細線
  6
CONTINUOUS
 62
   252
100
AcDbText
 10
66.334891743877
 20
17.025433224584
 30
0.0
 40
2.0
  1
ＤＡＴＥ
 41
0.923076923077
  7
EXCADSTD
 72
     5
 11
74.334891743877
 21
17.025433224584
 31
0.0
100
AcDbText
  0
LINE
  5
2A16
330
29F4
100
AcDbEntity
  8
図枠細線
  6
CONTINUOUS
 62
   252
100
AcDbLine
 10
135.368253864267
 20
19.525431224584
 30
0.0
 11
192.368245864267
 21
19.525431224584
 31
0.0
  0
TEXT
  5
2A17
330
29F4
100
AcDbEntity
  8
図枠細線
  6
CONTINUOUS
 62
   252
100
AcDbText
 10
141.868253864267
 20
32.025433224584
 30
0.0
 40
2.0
  1
ＴＩＴＬＥ
 41
0.903614457831
  7
EXCADSTD
 72
     5
 11
151.868253864267
 21
32.025433224584
 31
0.0
100
AcDbText
  0
LINE
  5
2A18
330
29F4
100
AcDbEntity
  8
図枠太線
  6
CONTINUOUS
 62
   251
100
AcDbLine
 10
135.368253864267
 20
4.525433224584
 30
0.0
 11
135.368253864267
 21
34.525431224584
 31
0.0
  0
TEXT
  5
2A19
330
29F4
100
AcDbEntity
  8
図枠細線
  6
CONTINUOUS
 62
   252
100
AcDbText
 10
135.868253864267
 20
17.025433224584
 30
0.0
 40
2.0
  1
図面番号
 41
1.102941176471
  7
EXCADSTD
 72
     5
 11
145.868253864267
 21
17.025433224584
 31
0.0
100
AcDbText
  0
TEXT
  5
2A1A
330
29F4
100
AcDbEntity
  8
図枠細線
  6
CONTINUOUS
 62
   252
100
AcDbText
 10
135.868253864267
 20
32.025433224584
 30
0.0
 40
2.0
  1
名称
 41
1.171875
  7
EXCADSTD
 72
     5
 11
140.868253864267
 21
32.025433224584
 31
0.0
100
AcDbText
  0
TEXT
  5
2A1B
330
29F4
100
AcDbEntity
  8
図枠細線
  6
CONTINUOUS
 62
   252
100
AcDbText
 10
146.868253864267
 20
17.025433224584
 30
0.0
 40
2.0
  1
ＤＲＧ．ＮＯ．
 41
0.9375
  7
EXCADSTD
 72
     5
 11
160.868253864267
 21
17.025433224584
 31
0.0
100
AcDbText
  0
LINE
  5
2A1C
330
29F4
100
AcDbEntity
  8
図枠太線
  6
CONTINUOUS
 62
   251
100
AcDbLine
 10
192.368245864267
 20
4.525433224584
 30
0.0
 11
192.368245864267
 21
34.525431224584
 31
0.0
  0
ENDBLK
  5
2A1D
330
29F4
100
AcDbEntity
  8
0
100
AcDbBlockEnd
  0
BLOCK
  5
2A33
330
2A32
100
AcDbEntity
  8
0
100
AcDbBlockBegin
  2
A3横用_タイトル
 70
     0
 10
0.0
 20
0.0
 30
0.0
  3
A3横用_タイトル
  1

  0
LINE
  5
2A34
330
2A32
100
AcDbEntity
  8
図枠細線
  6
CONTINUOUS
 62
   252
100
AcDbLine
 10
205.098414535793
 20
33.525959753527
 30
0.0
 11
305.098414535793
 21
33.525959753527
 31
0.0
  0
LINE
  5
2A35
330
2A32
100
AcDbEntity
  8
図枠太線
  6
CONTINUOUS
 62
   251
100
AcDbLine
 10
205.098414535793
 20
23.525959753527
 30
0.0
 11
305.098414535793
 21
23.525959753527
 31
0.0
  0
LINE
  5
2A36
330
2A32
100
AcDbEntity
  8
図枠細線
  6
CONTINUOUS
100
AcDbLine
 10
5.098414535793
 20
23.525959753527
 30
0.0
 11
105.098414535793
 21
23.525959753527
 31
0.0
  0
LINE
  5
2A37
330
2A32
100
AcDbEntity
  8
図枠細線
  6
CONTINUOUS
 62
   252
100
AcDbLine
 10
5.098414535793
 20
36.725957753527
 30
0.0
 11
105.098414535793
 21
36.725957753527
 31
0.0
  0
LINE
  5
2A38
330
2A32
100
AcDbEntity
  8
図枠細線
  6
CONTINUOUS
 62
   252
100
AcDbLine
 10
5.098414535793
 20
30.125957753527
 30
0.0
 11
105.098414535793
 21
30.125957753527
 31
0.0
  0
LINE
  5
2A39
330
2A32
100
AcDbEntity
  8
図枠細線
  6
CONTINUOUS
 62
   252
100
AcDbLine
 10
5.098414535793
 20
16.725959753527
 30
0.0
 11
105.098414535793
 21
16.725959753527
 31
0.0
  0
LINE
  5
2A3A
330
2A32
100
AcDbEntity
  8
図枠細線
  6
CONTINUOUS
 62
   252
100
AcDbLine
 10
5.098414535793
 20
10.125959753527
 30
0.0
 11
105.098414535793
 21
10.125959753527
 31
0.0
  0
LINE
  5
2A3B
330
2A32
100
AcDbEntity
  8
図枠細線
  6
CONTINUOUS
100
AcDbLine
 10
105.098414535793
 20
23.525961753527
 30
0.0
 11
205.098414535793
 21
23.525959753527
 31
0.0
  0
LINE
  5
2A3C
330
2A32
100
AcDbEntity
  8
図枠細線
  6
CONTINUOUS
 62
   252
100
AcDbLine
 10
138.398414535793
 20
43.525959753527
 30
0.0
 11
138.398414535793
 21
18.525957753527
 31
0.0
  0
LINE
  5
2A3D
330
2A32
100
AcDbEntity
  8
図枠細線
  6
CONTINUOUS
 62
   252
100
AcDbLine
 10
171.698414535793
 20
43.525959753527
 30
0.0
 11
171.698414535793
 21
18.525957753527
 31
0.0
  0
LINE
  5
2A3E
330
2A32
100
AcDbEntity
  8
図枠細線
  6
CONTINUOUS
 62
   252
100
AcDbLine
 10
305.098414535793
 20
23.525959753527
 30
0.0
 11
405.098414535793
 21
23.525959753527
 31
0.0
  0
TEXT
  5
2A3F
330
2A32
100
AcDbEntity
  8
図枠ロゴマーク
  6
CONTINUOUS
 62
   253
100
AcDbText
 10
206.102509212755
 20
13.294257570546
 30
0.0
 40
7.0
  1
東和制電工業株式会社
 50
0.016555220185
 41
1.186384129432
  7
EXCADSTD
 72
     5
 11
303.544188309143
 21
13.322412672217
 31
0.0
100
AcDbText
  0
MTEXT
  5
2A40
330
2A32
100
AcDbEntity
  8
図枠細線
100
AcDbMText
 10
6.356764112375
 20
41.976594175478
 30
0.0
 40
2.5
 41
49.938282706292
 71
     1
 72
     5
  1
{\Fmonotxt.shx,bigfont.shx|c128;図暦　CHANGE　NOTICE}
  0
MTEXT
  5
2A41
330
2A32
100
AcDbEntity
  8
図枠細線
 48
10.0
100
AcDbMText
 10
306.544114926828
 20
41.701835800934
 30
0.0
 40
2.5
 41
28.002809618823
 71
     1
 72
     5
  1
{\Fmonotxt.shx,bigfont.shx|c128;名称　TITLE}
  0
MTEXT
  5
2A42
330
2A32
100
AcDbEntity
  8
図枠細線
 48
10.0
100
AcDbMText
 10
307.329617114284
 20
21.606206797226
 30
0.0
 40
2.5
 41
24.385612216707
 71
     1
 72
     5
  1
{\Fmonotxt.shx,bigfont.shx|c128;図面番号\PDRG.　No.}
  0
MTEXT
  5
2A43
330
2A32
100
AcDbEntity
  8
図枠細線
 48
10.0
100
AcDbMText
 10
173.726349404609
 20
21.73680662198
 30
0.0
 40
2.5
 41
25.735090160813
 71
     1
 72
     5
  1
{\Fmonotxt.shx,bigfont.shx|c128;日付 DATE}
  0
MTEXT
  5
2A44
330
2A32
100
AcDbEntity
  8
図枠細線
 48
10.0
100
AcDbMText
 10
173.48708833982
 20
41.621592044998
 30
0.0
 40
2.5
 41
24.983741184205
 71
     1
 72
     5
  1
{\Fmonotxt.shx,bigfont.shx|c128;製図　DRAWN}
  0
MTEXT
  5
2A45
330
2A32
100
AcDbEntity
  8
図枠細線
 48
10.0
100
AcDbMText
 10
139.28009927741
 20
21.866713069868
 30
0.0
 40
2.5
 41
22.629632913243
 71
     1
 72
     5
  1
{\Fmonotxt.shx,bigfont.shx|c128;尺度　SCALE}
  0
MTEXT
  5
2A46
330
2A32
100
AcDbEntity
  8
図枠細線
 48
10.0
100
AcDbMText
 10
139.910091179835
 20
41.311840415554
 30
0.0
 40
2.5
 41
28.998753428368
 71
     1
 72
     5
  1
{\Fmonotxt.shx,bigfont.shx|c128;検図  CHECKED}
  0
MTEXT
  5
2A47
330
2A32
100
AcDbEntity
  8
図枠細線
 48
10.0
100
AcDbMText
 10
114.253294667728
 20
21.916124850174
 30
0.0
 40
3.0
 41
19.692400475383
 71
     1
 72
     5
  1
{\Fmonotxt.shx,bigfont.shx|c128;第三角法}
  0
MTEXT
  5
2A48
330
2A32
100
AcDbEntity
  8
図枠細線
 48
10.0
100
AcDbMText
 10
108.986959929915
 20
15.282880185837
 30
0.0
 40
2.5
 41
27.954882823547
 71
     1
 72
     5
  1
{\Fmonotxt.shx,bigfont.shx|c128;THIRD ANGLE\PPROJECTION}
  0
MTEXT
  5
2A49
330
2A32
100
AcDbEntity
  8
図枠細線
 48
10.0
100
AcDbMText
 10
106.319432640184
 20
41.511437145487
 30
0.0
 40
2.5
 41
28.233595265074
 71
     1
 72
     5
  1
{\Fmonotxt.shx,bigfont.shx|c128;承認 APPROVED}
  0
LINE
  5
2A4A
330
2A32
100
AcDbEntity
  8
図枠太線
  6
CONTINUOUS
 62
   251
100
AcDbLine
 10
5.098414535793
 20
3.525959753527
 30
0.0
 11
405.098414535793
 21
3.525959753527
 31
0.0
  0
LINE
  5
2A4B
330
2A32
100
AcDbEntity
  8
図枠太線
 48
10.0
100
AcDbLine
 10
5.098414535793
 20
3.525959753527
 30
0.0
 11
5.098414535793
 21
43.525959753527
 31
0.0
  0
LINE
  5
2A4C
330
2A32
100
AcDbEntity
  8
図枠太線
  6
CONTINUOUS
 62
   251
100
AcDbLine
 10
105.098414535793
 20
3.525959753527
 30
0.0
 11
105.098414535793
 21
43.525959753527
 31
0.0
  0
LINE
  5
2A4D
330
2A32
100
AcDbEntity
  8
図枠細線
  6
CONTINUOUS
 62
   252
100
AcDbLine
 10
138.398414535793
 20
3.525959753527
 30
0.0
 11
138.398414535793
 21
18.525957753527
 31
0.0
  0
LINE
  5
2A4E
330
2A32
100
AcDbEntity
  8
図枠細線
  6
CONTINUOUS
 62
   252
100
AcDbLine
 10
171.698414535793
 20
3.525959753527
 30
0.0
 11
171.698414535793
 21
18.525957753527
 31
0.0
  0
LINE
  5
2A4F
330
2A32
100
AcDbEntity
  8
図枠太線
  6
CONTINUOUS
 62
   251
100
AcDbLine
 10
205.098414535793
 20
3.525959753527
 30
0.0
 11
205.098414535793
 21
43.525959753527
 31
0.0
  0
LINE
  5
2A50
330
2A32
100
AcDbEntity
  8
図枠太線
 48
10.0
100
AcDbLine
 10
405.098414535793
 20
43.525959753527
 30
0.0
 11
405.098414535793
 21
3.525959753527
 31
0.0
  0
TEXT
  5
2A51
330
2A32
100
AcDbEntity
  8
図枠細線
  6
CONTINUOUS
 62
   252
100
AcDbText
 10
208.519754474572
 20
6.482358407285
 30
0.0
 40
3.5
  1
ＴＯＷＡ　ＳＥＩＤＥＮ　ＩＮＤＵＳＴＲＩＡＬ　ＣＯ．，ＬＴＤ．
 41
0.746656297509
  7
EXCADSTD
 72
     5
 11
303.295327171727
 21
6.482358407285
 31
0.0
100
AcDbText
  0
LINE
  5
2A52
330
2A32
100
AcDbEntity
  8
図枠太線
  6
CONTINUOUS
 62
   251
100
AcDbLine
 10
305.098414535793
 20
3.525959753527
 30
0.0
 11
305.098414535793
 21
43.525959753527
 31
0.0
  0
ENDBLK
  5
2A53
330
2A32
100
AcDbEntity
  8
0
100
AcDbBlockEnd
  0
BLOCK
  5
2A6D
330
2A6C
100
AcDbEntity
  8
0
100
AcDbBlockBegin
  2
A3縦用_タイトル
 70
     0
 10
0.0
 20
0.0
 30
0.0
  3
A3縦用_タイトル
  1

  0
MTEXT
  5
2A6E
330
2A6C
100
AcDbEntity
  8
図枠細線
100
AcDbMText
 10
5.040804501593
 20
31.626098649005
 30
0.0
 40
2.5
 41
49.938282706292
 71
     1
 72
     5
  1
{\Fmonotxt.shx,bigfont.shx|c128;図暦　CHANGE　NOTICE}
  0
LINE
  5
2A6F
330
2A6C
100
AcDbEntity
  8
図枠太線
  6
CONTINUOUS
 62
   251
100
AcDbLine
 10
283.577871882961
 20
2.820844689254
 30
0.0
 11
283.577871882961
 21
32.820842689254
 31
0.0
  0
MTEXT
  5
2A70
330
2A6C
100
AcDbEntity
  8
図枠細線
 48
10.0
100
AcDbMText
 10
214.912458947454
 20
31.621488632308
 30
0.0
 40
2.5
 41
28.002809618823
 71
     1
 72
     5
  1
{\Fmonotxt.shx,bigfont.shx|c128;名称　TITLE}
  0
MTEXT
  5
2A71
330
2A6C
100
AcDbEntity
  8
図枠細線
 48
10.0
100
AcDbMText
 10
214.740030458938
 20
16.310225796722
 30
0.0
 40
2.5
 41
24.385612216707
 71
     1
 72
     5
  1
{\Fmonotxt.shx,bigfont.shx|c128;図面番号\PDRG.　No.}
  0
LINE
  5
2A72
330
2A6C
100
AcDbEntity
  8
図枠太線
  6
CONTINUOUS
 62
   251
100
AcDbLine
 10
213.577871882961
 20
2.820844689254
 30
0.0
 11
213.577871882961
 21
32.820842689254
 31
0.0
  0
LINE
  5
2A73
330
2A6C
100
AcDbEntity
  8
図枠太線
  6
CONTINUOUS
 62
   251
100
AcDbLine
 10
143.577871882961
 20
2.820844689254
 30
0.0
 11
143.577871882961
 21
32.820842689254
 31
0.0
  0
TEXT
  5
2A74
330
2A6C
100
AcDbEntity
  8
図枠細線
  6
CONTINUOUS
 62
   252
100
AcDbText
 10
145.716454488093
 20
4.468335689254
 30
0.0
 40
3.5
  1
ＴＯＷＡ　ＳＥＩＤＥＮ　ＩＮＤＵＳＴＲＩＡＬ　ＣＯ．，ＬＴＤ．
 41
0.528937826907
  7
EXCADSTD
 72
     5
 11
212.856295983498
 21
4.468335689254
 31
0.0
100
AcDbText
  0
TEXT
  5
2A75
330
2A6C
100
AcDbEntity
  8
図枠ロゴマーク
  6
CONTINUOUS
 62
   253
100
AcDbText
 10
145.950637593507
 20
9.413236689254
 30
0.0
 40
7.0
  1
東和制電工業株式会社
 41
0.80361088462
  7
EXCADSTD
 72
     5
 11
211.953878250259
 21
9.413236689254
 31
0.0
100
AcDbText
  0
LINE
  5
2A76
330
2A6C
100
AcDbEntity
  8
図枠細線
  6
CONTINUOUS
 62
   252
100
AcDbLine
 10
143.577871882961
 20
25.320842689254
 30
0.0
 11
213.577871882961
 21
25.320842689254
 31
0.0
  0
LINE
  5
2A77
330
2A6C
100
AcDbEntity
  8
図枠太線
  6
CONTINUOUS
 62
   251
100
AcDbLine
 10
143.577863882961
 20
17.820842689254
 30
0.0
 11
213.577871882961
 21
17.820842689254
 31
0.0
  0
LINE
  5
2A78
330
2A6C
100
AcDbEntity
  8
図枠細線
  6
CONTINUOUS
 62
   252
100
AcDbLine
 10
213.577871882961
 20
17.820842689254
 30
0.0
 11
283.577871882961
 21
17.820842689254
 31
0.0
  0
LINE
  5
2A79
330
2A6C
100
AcDbEntity
  8
図枠細線
  6
CONTINUOUS
 62
   252
100
AcDbLine
 10
120.577871882961
 20
32.820842689254
 30
0.0
 11
120.577871882961
 21
17.820842689254
 31
0.0
  0
MTEXT
  5
2A7A
330
2A6C
100
AcDbEntity
  8
図枠細線
 48
10.0
100
AcDbMText
 10
121.100885670352
 20
16.33785922638
 30
0.0
 40
2.0
 41
17.705978285068
 71
     1
 72
     5
  1
{\Fmonotxt.shx,bigfont.shx|c128;日付 DATE}
  0
MTEXT
  5
2A7B
330
2A6C
100
AcDbEntity
  8
図枠細線
 48
10.0
100
AcDbMText
 10
121.254842273491
 20
31.208993514037
 30
0.0
 40
2.0
 41
18.363799568758
 71
     1
 72
     5
  1
{\Fmonotxt.shx,bigfont.shx|c128;製図　DRAWN}
  0
LINE
  5
2A7C
330
2A6C
100
AcDbEntity
  8
図枠細線
  6
CONTINUOUS
 62
   252
100
AcDbLine
 10
97.577871882961
 20
32.820842689254
 30
0.0
 11
97.577871882961
 21
17.820842689254
 31
0.0
  0
MTEXT
  5
2A7D
330
2A6C
100
AcDbEntity
  8
図枠細線
 48
10.0
100
AcDbMText
 10
98.239734796872
 20
16.467764839281
 30
0.0
 40
2.0
 41
17.757791689903
 71
     1
 72
     5
  1
{\Fmonotxt.shx,bigfont.shx|c128;尺度　SCALE}
  0
MTEXT
  5
2A7E
330
2A6C
100
AcDbEntity
  8
図枠細線
 48
10.0
100
AcDbMText
 10
97.864744625154
 20
31.298433377664
 30
0.0
 40
2.0
 41
23.162655920976
 71
     1
 72
     5
  1
{\Fmonotxt.shx,bigfont.shx|c128;検図  CHECKED}
  0
LINE
  5
2A7F
330
2A6C
100
AcDbEntity
  8
図枠細線
  6
CONTINUOUS
 62
   252
100
AcDbLine
 10
97.577871882961
 20
2.820843367826
 30
0.0
 11
97.577871882961
 21
17.820841367826
 31
0.0
  0
LINE
  5
2A80
330
2A6C
100
AcDbEntity
  8
図枠細線
  6
CONTINUOUS
 62
   252
100
AcDbLine
 10
120.577871882961
 20
2.820844010683
 30
0.0
 11
120.577871882961
 21
17.820842010683
 31
0.0
  0
MTEXT
  5
2A81
330
2A6C
100
AcDbEntity
  8
図枠細線
 48
10.0
100
AcDbMText
 10
81.402399084102
 20
16.316484117426
 30
0.0
 40
2.0
 41
12.920322819369
 71
     1
 72
     5
  1
{\Fmonotxt.shx,bigfont.shx|c128;第三角法}
  0
MTEXT
  5
2A82
330
2A6C
100
AcDbEntity
  8
図枠細線
 48
10.0
100
AcDbMText
 10
75.736576535096
 20
11.080410931319
 30
0.0
 40
2.0
 41
21.072870671471
 71
     1
 72
     5
  1
{\Fmonotxt.shx,bigfont.shx|c128;THIRD ANGLE\PPROJECTION}
  0
LINE
  5
2A83
330
2A6C
100
AcDbEntity
  8
図枠太線
  6
CONTINUOUS
 62
   251
100
AcDbLine
 10
74.577871882961
 20
2.820844689254
 30
0.0
 11
74.577871882961
 21
32.820842689254
 31
0.0
  0
MTEXT
  5
2A84
330
2A6C
100
AcDbEntity
  8
図枠細線
 48
10.0
100
AcDbMText
 10
75.060214781573
 20
31.298434778555
 30
0.0
 40
2.0
 41
22.240928805967
 71
     1
 72
     5
  1
{\Fmonotxt.shx,bigfont.shx|c128;承認 APPROVED}
  0
LINE
  5
2A85
330
2A6C
100
AcDbEntity
  8
図枠細線
  6
CONTINUOUS
100
AcDbLine
 10
3.577871882961
 20
17.820844689254
 30
0.0
 11
74.577871882961
 21
17.820844689254
 31
0.0
  0
LINE
  5
2A86
330
2A6C
100
AcDbEntity
  8
図枠細線
  6
CONTINUOUS
 62
   252
100
AcDbLine
 10
3.577871882961
 20
27.820842689254
 30
0.0
 11
74.577871882961
 21
27.820842689254
 31
0.0
  0
LINE
  5
2A87
330
2A6C
100
AcDbEntity
  8
図枠細線
  6
CONTINUOUS
 62
   252
100
AcDbLine
 10
3.577871882961
 20
22.820842689254
 30
0.0
 11
74.577871882961
 21
22.820842689254
 31
0.0
  0
LINE
  5
2A88
330
2A6C
100
AcDbEntity
  8
図枠細線
  6
CONTINUOUS
 62
   252
100
AcDbLine
 10
3.577871882961
 20
12.820842689254
 30
0.0
 11
74.577871882961
 21
12.820842689254
 31
0.0
  0
LINE
  5
2A89
330
2A6C
100
AcDbEntity
  8
図枠細線
  6
CONTINUOUS
 62
   252
100
AcDbLine
 10
3.577871882961
 20
7.820844689254
 30
0.0
 11
74.577871882961
 21
7.820844689254
 31
0.0
  0
LINE
  5
2A8A
330
2A6C
100
AcDbEntity
  8
図枠細線
  6
CONTINUOUS
100
AcDbLine
 10
74.577871882961
 20
17.820843689254
 30
0.0
 11
143.577871882961
 21
17.820841224969
 31
0.0
  0
LINE
  5
2A8B
330
2A6C
100
AcDbEntity
  8
図枠太線
  6
CONTINUOUS
 62
   251
100
AcDbLine
 10
3.577871882961
 20
2.820844689254
 30
0.0
 11
283.577871882961
 21
2.820844689254
 31
0.0
  0
LINE
  5
2A8C
330
2A6C
100
AcDbEntity
  8
図枠太線
  6
CONTINUOUS
 62
   251
100
AcDbLine
 10
3.577871882961
 20
2.820844689254
 30
0.0
 11
3.577871882961
 21
32.820842689254
 31
0.0
  0
ENDBLK
  5
2A8D
330
2A6C
100
AcDbEntity
  8
0
100
AcDbBlockEnd
  0
BLOCK
  5
2AF8
330
2AF4
100
AcDbEntity
  8
0
 48
10.0
100
AcDbBlockBegin
  2
_OPEN30
 70
     0
 10
0.0
 20
0.0
 30
0.0
  3
_OPEN30
  1

  0
LINE
  5
2AF5
330
2AF4
100
AcDbEntity
  8
0
  6
BYBLOCK
 62
     0
100
AcDbLine
 10
-1.0
 20
0.26794919
 30
0.0
 11
0.0
 21
0.0
 31
0.0
  0
LINE
  5
2AF6
330
2AF4
100
AcDbEntity
  8
0
  6
BYBLOCK
 62
     0
100
AcDbLine
 10
0.0
 20
0.0
 30
0.0
 11
-1.0
 21
-0.26794919
 31
0.0
  0
LINE
  5
2AF7
330
2AF4
100
AcDbEntity
  8
0
  6
BYBLOCK
 62
     0
100
AcDbLine
 10
0.0
 20
0.0
 30
0.0
 11
-1.0
 21
0.0
 31
0.0
  0
ENDBLK
  5
2AF9
330
2AF4
100
AcDbEntity
  8
0
 48
10.0
100
AcDbBlockEnd
  0
BLOCK
  5
44A7
330
449D
100
AcDbEntity
  8
0
 48
10.0
100
AcDbBlockBegin
  2
*D9
 70
     1
 10
0.0
 20
0.0
 30
0.0
  3
*D9
  1

  0
LINE
  5
4E41
330
449D
100
AcDbEntity
  8
寸法線
 62
     0
 48
10.0
100
AcDbLine
 10
441.55567369602
 20
354.413623815478
 30
0.0
 11
441.55567369602
 21
328.288623667948
 31
0.0
  0
LINE
  5
4E42
330
449D
100
AcDbEntity
  8
寸法線
 62
     0
 48
10.0
100
AcDbLine
 10
466.55567369602
 20
354.413623815478
 30
0.0
 11
466.55567369602
 21
328.288623667948
 31
0.0
  0
LINE
  5
4E43
330
449D
100
AcDbEntity
  8
寸法線
 62
     0
 48
10.0
100
AcDbLine
 10
447.55567369602
 20
329.538623667948
 30
0.0
 11
460.55567369602
 21
329.538623667948
 31
0.0
  0
INSERT
  5
4E44
330
449D
100
AcDbEntity
  8
寸法線
 62
     0
 48
10.0
100
AcDbBlockReference
  2
_OPEN30
 10
441.55567369602
 20
329.538623667948
 30
0.0
 41
6.0
 42
6.0
 43
6.0
 50
180.0
  0
INSERT
  5
4E45
330
449D
100
AcDbEntity
  8
寸法線
 62
     0
 48
10.0
100
AcDbBlockReference
  2
_OPEN30
 10
466.55567369602
 20
329.538623667948
 30
0.0
 41
6.0
 42
6.0
 43
6.0
  0
MTEXT
  5
4E46
330
449D
100
AcDbEntity
  8
寸法線
 62
     0
 48
10.0
100
AcDbMText
 10
454.05567369602
 20
334.164411069523
 30
0.0
 40
8.0
 41
0.0
 71
     5
 72
     1
  1
\A1;25
  0
POINT
  5
4E47
330
449D
100
AcDbEntity
  8
DEFPOINTS
 62
     0
 48
10.0
100
AcDbPoint
 10
441.55567369602
 20
355.038623815478
 30
0.0
  0
POINT
  5
4E48
330
449D
100
AcDbEntity
  8
DEFPOINTS
 62
     0
 48
10.0
100
AcDbPoint
 10
466.55567369602
 20
355.038623815478
 30
0.0
  0
POINT
  5
4E49
330
449D
100
AcDbEntity
  8
DEFPOINTS
 62
     0
 48
10.0
100
AcDbPoint
 10
466.55567369602
 20
329.538623667948
 30
0.0
  0
ENDBLK
  5
44A8
330
449D
100
AcDbEntity
  8
0
 48
10.0
100
AcDbBlockEnd
  0
BLOCK
  5
46C2
330
46B8
100
AcDbEntity
  8
0
 48
10.0
100
AcDbBlockBegin
  2
*D10
 70
     1
 10
0.0
 20
0.0
 30
0.0
  3
*D10
  1

  0
LINE
  5
4E38
330
46B8
100
AcDbEntity
  8
寸法線
 62
     0
 48
10.0
100
AcDbLine
 10
291.55567369602
 20
398.664123815478
 30
0.0
 11
291.55567369602
 21
328.288623667948
 31
0.0
  0
LINE
  5
4E39
330
46B8
100
AcDbEntity
  8
寸法線
 62
     0
 48
10.0
100
AcDbLine
 10
316.55567369602
 20
395.412244276412
 30
0.0
 11
316.55567369602
 21
328.288623667948
 31
0.0
  0
LINE
  5
4E3A
330
46B8
100
AcDbEntity
  8
寸法線
 62
     0
 48
10.0
100
AcDbLine
 10
297.55567369602
 20
329.538623667948
 30
0.0
 11
310.55567369602
 21
329.538623667948
 31
0.0
  0
INSERT
  5
4E3B
330
46B8
100
AcDbEntity
  8
寸法線
 62
     0
 48
10.0
100
AcDbBlockReference
  2
_OPEN30
 10
291.55567369602
 20
329.538623667948
 30
0.0
 41
6.0
 42
6.0
 43
6.0
 50
180.0
  0
INSERT
  5
4E3C
330
46B8
100
AcDbEntity
  8
寸法線
 62
     0
 48
10.0
100
AcDbBlockReference
  2
_OPEN30
 10
316.55567369602
 20
329.538623667948
 30
0.0
 41
6.0
 42
6.0
 43
6.0
  0
MTEXT
  5
4E3D
330
46B8
100
AcDbEntity
  8
寸法線
 62
     0
 48
10.0
100
AcDbMText
 10
304.05567369602
 20
334.164411069523
 30
0.0
 40
8.0
 41
0.0
 71
     5
 72
     1
  1
\A1;25
  0
POINT
  5
4E3E
330
46B8
100
AcDbEntity
  8
DEFPOINTS
 62
     0
 48
10.0
100
AcDbPoint
 10
291.55567369602
 20
399.289123815478
 30
0.0
  0
POINT
  5
4E3F
330
46B8
100
AcDbEntity
  8
DEFPOINTS
 62
     0
 48
10.0
100
AcDbPoint
 10
316.55567369602
 20
396.037244276412
 30
0.0
  0
POINT
  5
4E40
330
46B8
100
AcDbEntity
  8
DEFPOINTS
 62
     0
 48
10.0
100
AcDbPoint
 10
316.55567369602
 20
329.538623667948
 30
0.0
  0
ENDBLK
  5
46C3
330
46B8
100
AcDbEntity
  8
0
 48
10.0
100
AcDbBlockEnd
  0
BLOCK
  5
46DC
330
46D2
100
AcDbEntity
  8
0
 48
10.0
100
AcDbBlockBegin
  2
*D11
 70
     1
 10
0.0
 20
0.0
 30
0.0
  3
*D11
  1

  0
LINE
  5
4E2F
330
46D2
100
AcDbEntity
  8
寸法線
 62
     0
 48
10.0
100
AcDbLine
 10
316.55567369602
 20
395.412244276412
 30
0.0
 11
316.55567369602
 21
328.288623667948
 31
0.0
  0
LINE
  5
4E30
330
46D2
100
AcDbEntity
  8
寸法線
 62
     0
 48
10.0
100
AcDbLine
 10
336.555673696019
 20
395.412244276411
 30
0.0
 11
336.555673696019
 21
328.288623667948
 31
0.0
  0
LINE
  5
4E31
330
46D2
100
AcDbEntity
  8
寸法線
 62
     0
 48
10.0
100
AcDbLine
 10
322.55567369602
 20
329.538623667948
 30
0.0
 11
330.555673696019
 21
329.538623667948
 31
0.0
  0
INSERT
  5
4E32
330
46D2
100
AcDbEntity
  8
寸法線
 62
     0
 48
10.0
100
AcDbBlockReference
  2
_OPEN30
 10
316.55567369602
 20
329.538623667948
 30
0.0
 41
6.0
 42
6.0
 43
6.0
 50
180.0
  0
INSERT
  5
4E33
330
46D2
100
AcDbEntity
  8
寸法線
 62
     0
 48
10.0
100
AcDbBlockReference
  2
_OPEN30
 10
336.555673696019
 20
329.538623667948
 30
0.0
 41
6.0
 42
6.0
 43
6.0
  0
MTEXT
  5
4E34
330
46D2
100
AcDbEntity
  8
寸法線
 62
     0
 48
10.0
100
AcDbMText
 10
326.55567369602
 20
334.164411069523
 30
0.0
 40
8.0
 41
0.0
 71
     5
 72
     1
  1
\A1;20
  0
POINT
  5
4E35
330
46D2
100
AcDbEntity
  8
DEFPOINTS
 62
     0
 48
10.0
100
AcDbPoint
 10
316.55567369602
 20
396.037244276412
 30
0.0
  0
POINT
  5
4E36
330
46D2
100
AcDbEntity
  8
DEFPOINTS
 62
     0
 48
10.0
100
AcDbPoint
 10
336.555673696019
 20
396.037244276411
 30
0.0
  0
POINT
  5
4E37
330
46D2
100
AcDbEntity
  8
DEFPOINTS
 62
     0
 48
10.0
100
AcDbPoint
 10
336.555673696019
 20
329.538623667948
 30
0.0
  0
ENDBLK
  5
46DD
330
46D2
100
AcDbEntity
  8
0
 48
10.0
100
AcDbBlockEnd
  0
BLOCK
  5
481A
330
4819
100
AcDbEntity
  8
0
 48
10.0
100
AcDbBlockBegin
  2
静電容量センサ
 70
     0
 10
0.0
 20
0.0
 30
0.0
  3
静電容量センサ
  1

  0
ARC
  5
481B
330
4819
100
AcDbEntity
  8
外形線
 48
10.0
100
AcDbCircle
 10
1021.898525663106
 20
1073.412780408912
 30
0.0
 40
1.0
100
AcDbArc
 50
180.0
 51
268.999999999998
  0
ARC
  5
481C
330
4819
100
AcDbEntity
  8
外形線
 48
10.0
100
AcDbCircle
 10
1021.898525663106
 20
1115.960781516243
 30
0.0
 40
1.0
100
AcDbArc
 50
91.000000000002
 51
180.0
  0
LINE
  5
481D
330
4819
100
AcDbEntity
  8
外形線
 48
10.0
100
AcDbLine
 10
1020.898525663106
 20
1115.960781516243
 30
0.0
 11
1020.898525663106
 21
1073.412780408912
 31
0.0
  0
LINE
  5
481E
330
4819
100
AcDbEntity
  8
外形線
 48
10.0
100
AcDbLine
 10
1035.026308504175
 20
1117.944859066978
 30
0.0
 11
1041.278741748243
 21
1143.02199911049
 31
0.0
  0
ARC
  5
481F
330
4819
100
AcDbEntity
  8
外形線
 48
10.0
100
AcDbCircle
 10
1046.130220379623
 20
1141.812389632491
 30
0.0
 40
5.0
100
AcDbArc
 50
91.3
 51
166.000000000004
  0
ARC
  5
4820
330
4819
100
AcDbEntity
  8
外形線
 48
10.0
100
AcDbCircle
 10
1034.056012777899
 20
1118.186780962578
 30
0.0
 40
1.0
100
AcDbArc
 50
270.0
 51
346.000000000004
  0
ARC
  5
4821
330
4819
100
AcDbEntity
  8
外形線
 48
10.0
100
AcDbCircle
 10
1034.056012777899
 20
1118.186780962578
 30
0.0
 40
1.0
100
AcDbArc
 50
270.0
 51
346.000000000004
  0
LINE
  5
4822
330
4819
100
AcDbEntity
  8
外形線
 48
10.0
100
AcDbLine
 10
1021.881073256669
 20
1116.960629211399
 30
0.0
 11
1034.056012777899
 21
1117.186780962578
 31
0.0
  0
ARC
  5
4823
330
4819
100
AcDbEntity
  8
外形線
 48
10.0
100
AcDbCircle
 10
1122.899564892808
 20
1151.93622955513
 30
0.0
 40
0.5
100
AcDbArc
 50
359.999254274584
 51
88.999999999998
  0
ARC
  5
4824
330
4819
100
AcDbEntity
  8
細線
 48
10.0
100
AcDbCircle
 10
1123.898525663106
 20
1107.819822714047
 30
0.0
 40
0.5
100
AcDbArc
 50
180.0
 51
264.089361084595
  0
ARC
  5
4825
330
4819
100
AcDbEntity
  8
外形線
 48
10.0
100
AcDbCircle
 10
1123.898525663106
 20
1100.44543233102
 30
0.0
 40
0.5
100
AcDbArc
 50
91.000000000002
 51
180.0
  0
ARC
  5
4826
330
4819
100
AcDbEntity
  8
細線
 48
10.0
100
AcDbCircle
 10
1123.898525663106
 20
1108.078641759149
 30
0.0
 40
0.5
100
AcDbArc
 50
180.0
 51
264.089361084595
  0
ARC
  5
4827
330
4819
100
AcDbEntity
  8
細線
 48
10.0
100
AcDbCircle
 10
1123.898525663106
 20
1129.71320712675
 30
0.0
 40
0.5
100
AcDbArc
 50
180.0
 51
254.206830951738
  0
ARC
  5
4828
330
4819
100
AcDbEntity
  8
細線
 48
10.0
100
AcDbCircle
 10
1123.898525663106
 20
1130.420313907937
 30
0.0
 40
0.5
100
AcDbArc
 50
180.0
 51
254.206830951738
  0
ARC
  5
4829
330
4819
100
AcDbEntity
  8
細線
 48
10.0
100
AcDbCircle
 10
1123.898525663106
 20
1142.359984147006
 30
0.0
 40
0.5
100
AcDbArc
 50
180.0
 51
248.874947125989
  0
ARC
  5
482A
330
4819
100
AcDbEntity
  8
細線
 48
10.0
100
AcDbCircle
 10
1123.898525663106
 20
1143.325909973296
 30
0.0
 40
0.5
100
AcDbArc
 50
180.0
 51
248.874947125989
  0
ARC
  5
482B
330
4819
100
AcDbEntity
  8
外形線
 48
10.0
100
AcDbCircle
 10
1123.898413585187
 20
1144.632076415673
 30
0.0
 40
0.5
100
AcDbArc
 50
180.019033969455
 51
248.025023881972
  0
LINE
  5
482C
330
4819
100
AcDbEntity
  8
外形線
 48
10.0
100
AcDbLine
 10
1123.398525663106
 20
1143.325909973296
 30
0.0
 11
1123.398525663106
 21
1144.294618045039
 31
0.0
  0
LINE
  5
482D
330
4819
100
AcDbEntity
  8
外形線
 48
10.0
100
AcDbLine
 10
1123.398525663106
 20
1142.359984147006
 30
0.0
 11
1123.398525663106
 21
1142.98307227703
 31
0.0
  0
LINE
  5
482E
330
4819
100
AcDbEntity
  8
外形線
 48
10.0
100
AcDbLine
 10
1123.398525663106
 20
1130.420313907937
 30
0.0
 11
1123.398525663106
 21
1142.017146450741
 31
0.0
  0
LINE
  5
482F
330
4819
100
AcDbEntity
  8
外形線
 48
10.0
100
AcDbLine
 10
1123.398525663106
 20
1129.71320712675
 30
0.0
 11
1123.398525663106
 21
1130.042120021904
 31
0.0
  0
LINE
  5
4830
330
4819
100
AcDbEntity
  8
外形線
 48
10.0
100
AcDbLine
 10
1123.398525663106
 20
1108.078641759149
 30
0.0
 11
1123.398525663106
 21
1130.420313907937
 31
0.0
  0
LINE
  5
4831
330
4819
100
AcDbEntity
  8
外形線
 48
10.0
100
AcDbLine
 10
1123.398525663106
 20
1107.819822714047
 30
0.0
 11
1123.398525663106
 21
1108.700149198143
 31
0.0
  0
LINE
  5
4832
330
4819
100
AcDbEntity
  8
外形線
 48
10.0
100
AcDbLine
 10
1123.398525663106
 20
1100.44543233102
 30
0.0
 11
1123.398525663106
 21
1108.078641759149
 31
0.0
  0
ARC
  5
4833
330
4819
100
AcDbEntity
  8
外形線
 48
10.0
100
AcDbCircle
 10
1123.898525663106
 20
1088.928129594135
 30
0.0
 40
0.5
100
AcDbArc
 50
180.0
 51
268.999999999998
  0
LINE
  5
4834
330
4819
100
AcDbEntity
  8
外形線
 48
10.0
100
AcDbLine
 10
1123.398525663106
 20
1088.928129594135
 30
0.0
 11
1123.398525663106
 21
1100.44543233102
 31
0.0
  0
ARC
  5
4835
330
4819
100
AcDbEntity
  8
外形線
 48
10.0
100
AcDbCircle
 10
1135.396646406818
 20
1087.727276821958
 30
0.0
 40
0.5
100
AcDbArc
 50
0.002863323129
 51
88.999999999998
  0
ARC
  5
4836
330
4819
100
AcDbEntity
  8
外形線
 48
10.0
100
AcDbCircle
 10
1135.396646406818
 20
1101.646285103198
 30
0.0
 40
0.5
100
AcDbArc
 50
271.000000000002
 51
359.997136676878
  0
ARC
  5
4837
330
4819
100
AcDbEntity
  8
細線
 48
10.0
100
AcDbCircle
 10
1135.398359871226
 20
1105.882746614783
 30
0.0
 40
0.5
100
AcDbArc
 50
359.978936747976
 51
84.089361084595
  0
ARC
  5
4838
330
4819
100
AcDbEntity
  8
細線
 48
10.0
100
AcDbCircle
 10
1135.396845195015
 20
1105.6240843805
 30
0.0
 40
0.5
100
AcDbArc
 50
359.997136676878
 51
84.089361084595
  0
ARC
  5
4839
330
4819
100
AcDbEntity
  8
細線
 48
10.0
100
AcDbCircle
 10
1135.398405428356
 20
1136.84472607817
 30
0.0
 40
0.5
100
AcDbArc
 50
359.997136676878
 51
68.874947125989
  0
ARC
  5
483A
330
4819
100
AcDbEntity
  8
細線
 48
10.0
100
AcDbCircle
 10
1135.398453699003
 20
1137.810633254114
 30
0.0
 40
0.5
100
AcDbArc
 50
359.997136676878
 51
68.874947125989
  0
ARC
  5
483B
330
4819
100
AcDbEntity
  8
外形線
 48
10.0
100
AcDbCircle
 10
1135.398508800797
 20
1138.913233296621
 30
0.0
 40
0.5
100
AcDbArc
 50
359.997136676878
 51
68.025023881972
  0
LINE
  5
483C
330
4819
100
AcDbEntity
  8
外形線
 48
10.0
100
AcDbLine
 10
1135.405372610037
 20
1101.146361255619
 30
0.0
 11
1123.889799459887
 21
1100.945356178598
 31
0.0
  0
LINE
  5
483D
330
4819
100
AcDbEntity
  8
外形線
 48
10.0
100
AcDbLine
 10
1135.405372610037
 20
1088.227200669536
 30
0.0
 11
1123.889799459887
 21
1088.428205746557
 31
0.0
  0
LINE
  5
483E
330
4819
100
AcDbEntity
  8
外形線
 48
10.0
100
AcDbLine
 10
1123.711312779708
 20
1144.168402728055
 30
0.0
 11
1135.585609606275
 21
1139.376906984239
 31
0.0
  0
LINE
  5
483F
330
4819
100
AcDbEntity
  8
細線
 48
10.0
100
AcDbLine
 10
1135.448333812772
 20
1106.121426237015
 30
0.0
 11
1123.847037045349
 21
1107.322480857532
 31
0.0
  0
LINE
  5
4840
330
4819
100
AcDbEntity
  8
細線
 48
10.0
100
AcDbLine
 10
1135.449848488983
 20
1106.380088471297
 30
0.0
 11
1123.847037045349
 21
1107.581299902634
 31
0.0
  0
LINE
  5
4841
330
4819
100
AcDbEntity
  8
細線
 48
10.0
100
AcDbLine
 10
1135.533952658586
 20
1126.609702933466
 30
0.0
 11
1123.762442899618
 21
1129.939188683612
 31
0.0
  0
LINE
  5
4842
330
4819
100
AcDbEntity
  8
細線
 48
10.0
100
AcDbLine
 10
1135.578607784566
 20
1137.311124095764
 30
0.0
 11
1123.718323306896
 21
1141.893586129411
 31
0.0
  0
LINE
  5
4843
330
4819
100
AcDbEntity
  8
細線
 48
10.0
100
AcDbLine
 10
1135.578656055213
 20
1138.277031271709
 30
0.0
 11
1123.718323306896
 21
1142.859511955701
 31
0.0
  0
LINE
  5
4844
330
4819
100
AcDbEntity
  8
外形線
 48
10.0
100
AcDbLine
 10
1108.899561566736
 20
1152.686780962578
 30
0.0
 11
1122.908291096026
 21
1152.436153402709
 31
0.0
  0
LINE
  5
4845
330
4819
100
AcDbEntity
  8
外形線
 48
10.0
100
AcDbLine
 10
1108.899561566736
 20
1152.686780962578
 30
0.0
 11
1108.399561566736
 21
1152.180676686204
 31
0.0
  0
LINE
  5
4846
330
4819
100
AcDbEntity
  8
外形線
 48
10.0
100
AcDbLine
 10
1108.399561566736
 20
1151.192885238951
 30
0.0
 11
1108.399561566736
 21
1150.692885238951
 31
0.0
  0
ARC
  5
4847
330
4819
100
AcDbEntity
  8
外形線
 48
10.0
100
AcDbCircle
 10
1098.998525663106
 20
1152.414559409545
 30
0.0
 40
4.4
100
AcDbArc
 50
271.3
 51
0.0
  0
LINE
  5
4848
330
4819
100
AcDbEntity
  8
外形線
 48
10.0
100
AcDbLine
 10
1046.016783711759
 20
1146.811102679105
 30
0.0
 11
1099.098349930826
 21
1148.015691928525
 31
0.0
  0
LINE
  5
4849
330
4819
100
AcDbEntity
  8
外形線
 48
10.0
100
AcDbLine
 10
1103.398525663105
 20
1152.686780962578
 30
0.0
 11
1103.398525663105
 21
1152.414559409545
 31
0.0
  0
LINE
  5
484A
330
4819
100
AcDbEntity
  8
外形線
 48
10.0
100
AcDbLine
 10
1106.398525663105
 20
1152.686780962578
 30
0.0
 11
1103.398525663105
 21
1152.686780962578
 31
0.0
  0
ARC
  5
484B
330
4819
100
AcDbEntity
  8
外形線
 48
10.0
100
AcDbCircle
 10
1107.898525663105
 20
1150.161780962577
 30
0.0
 40
1.500000000000156
100
AcDbArc
 50
70.528779365514
 51
179.999999999993
  0
LINE
  5
484C
330
4819
100
AcDbEntity
  8
細線
 48
10.0
100
AcDbLine
 10
1108.899561566736
 20
1152.686780962578
 30
0.0
 11
1108.899561566736
 21
1036.686780962578
 31
0.0
  0
LINE
  5
484D
330
4819
100
AcDbEntity
  8
細線
 48
10.0
100
AcDbLine
 10
1108.899561566736
 20
1152.680676686204
 30
0.0
 11
1108.899561566736
 21
1036.692885238951
 31
0.0
  0
LINE
  5
484E
330
4819
100
AcDbEntity
  8
外形線
 48
10.0
100
AcDbLine
 10
1123.398525663106
 20
1072.956444458874
 30
0.0
 11
1123.398525663106
 21
1059.660354798405
 31
0.0
  0
ARC
  5
484F
330
4819
100
AcDbEntity
  8
細線
 48
10.0
100
AcDbCircle
 10
1123.898525663106
 20
1047.013577778149
 30
0.0
 40
0.5
100
AcDbArc
 50
111.125052874011
 51
180.0
  0
ARC
  5
4850
330
4819
100
AcDbEntity
  8
細線
 48
10.0
100
AcDbCircle
 10
1123.898066965619
 20
1046.04747472476
 30
0.0
 40
0.5
100
AcDbArc
 50
111.125052874011
 51
179.923306313171
  0
ARC
  5
4851
330
4819
100
AcDbEntity
  8
細線
 48
10.0
100
AcDbCircle
 10
1123.898525663106
 20
1059.660354798405
 30
0.0
 40
0.5
100
AcDbArc
 50
105.793169048262
 51
180.0
  0
ARC
  5
4852
330
4819
100
AcDbEntity
  8
細線
 48
10.0
100
AcDbCircle
 10
1123.898525663106
 20
1058.953248017218
 30
0.0
 40
0.5
100
AcDbArc
 50
105.793169048262
 51
180.0
  0
ARC
  5
4853
330
4819
100
AcDbEntity
  8
細線
 48
10.0
100
AcDbCircle
 10
1123.898525663106
 20
1081.294920166006
 30
0.0
 40
0.5
100
AcDbArc
 50
95.910638915405
 51
180.0
  0
ARC
  5
4854
330
4819
100
AcDbEntity
  8
細線
 48
10.0
100
AcDbCircle
 10
1123.898525663106
 20
1081.553739211108
 30
0.0
 40
0.5
100
AcDbArc
 50
95.910638915405
 51
180.0
  0
LINE
  5
4855
330
4819
100
AcDbEntity
  8
外形線
 48
10.0
100
AcDbLine
 10
1123.398525663106
 20
1081.294920166006
 30
0.0
 11
1123.398525663106
 21
1088.928129594135
 31
0.0
  0
LINE
  5
4856
330
4819
100
AcDbEntity
  8
外形線
 48
10.0
100
AcDbLine
 10
1123.398525663106
 20
1081.745828707453
 30
0.0
 11
1123.398525663106
 21
1082.004647752555
 31
0.0
  0
LINE
  5
4857
330
4819
100
AcDbEntity
  8
外形線
 48
10.0
100
AcDbLine
 10
1123.398525663106
 20
1072.956444458874
 30
0.0
 11
1123.398525663106
 21
1081.294920166006
 31
0.0
  0
LINE
  5
4858
330
4819
100
AcDbEntity
  8
外形線
 48
10.0
100
AcDbLine
 10
1123.398525663106
 20
1058.953248017218
 30
0.0
 11
1123.398525663106
 21
1059.660354798405
 31
0.0
  0
LINE
  5
4859
330
4819
100
AcDbEntity
  8
外形線
 48
10.0
100
AcDbLine
 10
1123.398525663106
 20
1047.013577778149
 30
0.0
 11
1123.398525663106
 21
1058.953248017218
 31
0.0
  0
LINE
  5
485A
330
4819
100
AcDbEntity
  8
外形線
 48
10.0
100
AcDbLine
 10
1123.398067413553
 20
1046.048144003235
 30
0.0
 11
1123.398525663106
 21
1047.013577778149
 31
0.0
  0
LINE
  5
485B
330
4819
100
AcDbEntity
  8
外形線
 48
10.0
100
AcDbLine
 10
1123.396317242873
 20
1044.740639597053
 30
0.0
 11
1123.398067413553
 21
1046.048144003235
 31
0.0
  0
ARC
  5
485C
330
4819
100
AcDbEntity
  8
外形線
 48
10.0
100
AcDbCircle
 10
1123.896317242873
 20
1044.740639597053
 30
0.0
 40
0.5
100
AcDbArc
 50
111.974976118028
 51
180.0
  0
ARC
  5
485D
330
4819
100
AcDbEntity
  8
細線
 48
10.0
100
AcDbCircle
 10
1135.398494161258
 20
1063.952267566336
 30
0.0
 40
0.5
100
AcDbArc
 50
285.793169048262
 51
0.004772330144
  0
ARC
  5
485E
330
4819
100
AcDbEntity
  8
細線
 48
10.0
100
AcDbCircle
 10
1135.398525663106
 20
1063.245169695216
 30
0.0
 40
0.5
100
AcDbArc
 50
285.793169048262
 51
0.0
  0
ARC
  5
485F
330
4819
100
AcDbEntity
  8
細線
 48
10.0
100
AcDbCircle
 10
1135.398525663106
 20
1052.528882302126
 30
0.0
 40
0.5
100
AcDbArc
 50
291.125052874011
 51
0.0
  0
ARC
  5
4860
330
4819
100
AcDbEntity
  8
細線
 48
10.0
100
AcDbCircle
 10
1135.398525663106
 20
1051.562956475835
 30
0.0
 40
0.5
100
AcDbArc
 50
291.125052874011
 51
0.0
  0
ARC
  5
4861
330
4819
100
AcDbEntity
  8
外形線
 48
10.0
100
AcDbCircle
 10
1135.398525663106
 20
1050.460335432784
 30
0.0
 40
0.5
100
AcDbArc
 50
291.974976118028
 51
0.0
  0
LINE
  5
4862
330
4819
100
AcDbEntity
  8
外形線
 48
10.0
100
AcDbLine
 10
1135.898525663106
 20
1051.562956475835
 30
0.0
 11
1135.898525663106
 21
1050.460335432784
 31
0.0
  0
LINE
  5
4863
330
4819
100
AcDbEntity
  8
外形線
 48
10.0
100
AcDbLine
 10
1135.898525663106
 20
1052.528882302126
 30
0.0
 11
1135.898525663106
 21
1051.562956475835
 31
0.0
  0
LINE
  5
4864
330
4819
100
AcDbEntity
  8
外形線
 48
10.0
100
AcDbLine
 10
1135.898525663106
 20
1063.245169695216
 30
0.0
 11
1135.898525663106
 21
1052.528882302126
 31
0.0
  0
LINE
  5
4865
330
4819
100
AcDbEntity
  8
外形線
 48
10.0
100
AcDbLine
 10
1135.898494159523
 20
1063.952309212773
 30
0.0
 11
1135.898525663106
 21
1063.245169695216
 31
0.0
  0
LINE
  5
4866
330
4819
100
AcDbEntity
  8
外形線
 48
10.0
100
AcDbLine
 10
1135.896845194391
 20
1083.749502531863
 30
0.0
 11
1135.898494159523
 21
1063.952309212773
 31
0.0
  0
ARC
  5
4867
330
4819
100
AcDbEntity
  8
細線
 48
10.0
100
AcDbCircle
 10
1135.396794220963
 20
1083.49065322233
 30
0.0
 40
0.5
100
AcDbArc
 50
275.910638915405
 51
0.00199902817
  0
ARC
  5
4868
330
4819
100
AcDbEntity
  8
細線
 48
10.0
100
AcDbCircle
 10
1135.396845195015
 20
1083.749477544655
 30
0.0
 40
0.5
100
AcDbArc
 50
275.910638915405
 51
0.002863323129
  0
ARC
  5
4869
330
4819
100
AcDbEntity
  8
外形線
 48
10.0
100
AcDbCircle
 10
1122.897486448612
 20
1037.437296090646
 30
0.0
 40
0.5
100
AcDbArc
 50
271.000000000002
 51
359.984453673186
  0
LINE
  5
486A
330
4819
100
AcDbEntity
  8
外形線
 48
10.0
100
AcDbLine
 10
1135.896646406194
 20
1087.727301809166
 30
0.0
 11
1135.896794220659
 21
1083.490670667142
 31
0.0
  0
LINE
  5
486B
330
4819
100
AcDbEntity
  8
外形線
 48
10.0
100
AcDbLine
 10
1123.709216437395
 20
1045.204313284671
 30
0.0
 11
1135.585626468584
 21
1049.996661745166
 31
0.0
  0
LINE
  5
486C
330
4819
100
AcDbEntity
  8
細線
 48
10.0
100
AcDbLine
 10
1135.578728019316
 20
1052.062484284531
 30
0.0
 11
1123.718323306896
 21
1047.479975795744
 31
0.0
  0
LINE
  5
486D
330
4819
100
AcDbEntity
  8
細線
 48
10.0
100
AcDbLine
 10
1135.578728019316
 20
1051.09655845824
 30
0.0
 11
1123.717864609409
 21
1046.513872742355
 31
0.0
  0
LINE
  5
486E
330
4819
100
AcDbEntity
  8
細線
 48
10.0
100
AcDbLine
 10
1135.534608426593
 20
1062.764044470891
 30
0.0
 11
1123.762442899618
 21
1059.434373241543
 31
0.0
  0
LINE
  5
486F
330
4819
100
AcDbEntity
  8
細線
 48
10.0
100
AcDbLine
 10
1135.534576924746
 20
1063.471142342011
 30
0.0
 11
1123.762442899618
 21
1060.141480022729
 31
0.0
  0
LINE
  5
4870
330
4819
100
AcDbEntity
  8
細線
 48
10.0
100
AcDbLine
 10
1135.44828283872
 20
1082.993311365815
 30
0.0
 11
1123.847037045349
 21
1081.792262022521
 31
0.0
  0
LINE
  5
4871
330
4819
100
AcDbEntity
  8
細線
 48
10.0
100
AcDbLine
 10
1135.448333812772
 20
1083.25213568814
 30
0.0
 11
1123.847037045349
 21
1082.051081067623
 31
0.0
  0
LINE
  5
4872
330
4819
100
AcDbEntity
  8
外形線
 48
10.0
100
AcDbLine
 10
1123.399470041665
 20
1044.747733739171
 30
0.0
 11
1123.397486430207
 21
1037.437160423353
 31
0.0
  0
LINE
  5
4873
330
4819
100
AcDbEntity
  8
外形線
 48
10.0
100
AcDbLine
 10
1123.399564892765
 20
1151.936223047449
 30
0.0
 11
1123.397486430207
 21
1037.437160423353
 31
0.0
  0
LINE
  5
4874
330
4819
100
AcDbEntity
  8
外形線
 48
10.0
100
AcDbLine
 10
1108.399561566736
 20
1152.180676686204
 30
0.0
 11
1108.399561566736
 21
1037.192885238951
 31
0.0
  0
LINE
  5
4875
330
4819
100
AcDbEntity
  8
外形線
 48
10.0
100
AcDbLine
 10
1108.899561566736
 20
1036.686780962578
 30
0.0
 11
1122.906212651831
 21
1036.937372243068
 31
0.0
  0
LINE
  5
4876
330
4819
100
AcDbEntity
  8
外形線
 48
10.0
100
AcDbLine
 10
1108.899561566736
 20
1036.686780962578
 30
0.0
 11
1108.399561566736
 21
1037.192885238951
 31
0.0
  0
LINE
  5
4877
330
4819
100
AcDbEntity
  8
外形線
 48
10.0
100
AcDbLine
 10
1108.399561566736
 20
1038.192885238951
 30
0.0
 11
1108.399561566736
 21
1038.692885238951
 31
0.0
  0
LINE
  5
4878
330
4819
100
AcDbEntity
  8
外形線
 48
10.0
100
AcDbLine
 10
1035.022931603883
 20
1071.442246865485
 30
0.0
 11
1041.278741748243
 21
1046.351562814666
 31
0.0
  0
ARC
  5
4879
330
4819
100
AcDbEntity
  8
外形線
 48
10.0
100
AcDbCircle
 10
1046.130220379623
 20
1047.561172292664
 30
0.0
 40
5.0
100
AcDbArc
 50
193.999999999996
 51
268.7
  0
ARC
  5
487A
330
4819
100
AcDbEntity
  8
外形線
 48
10.0
100
AcDbCircle
 10
1034.052635877606
 20
1071.200324969886
 30
0.0
 40
1.0
100
AcDbArc
 50
13.999999999996
 51
89.000000000011
  0
ARC
  5
487B
330
4819
100
AcDbEntity
  8
外形線
 48
10.0
100
AcDbCircle
 10
1069.398525663106
 20
1041.031595836918
 30
0.0
 40
1.0
100
AcDbArc
 50
0.0
 51
88.7
  0
ARC
  5
487C
330
4819
100
AcDbEntity
  8
外形線
 48
10.0
100
AcDbCircle
 10
1071.398525663106
 20
1031.186780962577
 30
0.0
 40
1.0
100
AcDbArc
 50
180.0
 51
270.0
  0
ARC
  5
487D
330
4819
100
AcDbEntity
  8
外形線
 48
10.0
100
AcDbCircle
 10
1105.398525663105
 20
1031.186780962577
 30
0.0
 40
1.0
100
AcDbArc
 50
270.0
 51
0.0
  0
LINE
  5
487E
330
4819
100
AcDbEntity
  8
外形線
 48
10.0
100
AcDbLine
 10
1070.398525663106
 20
1031.186780962577
 30
0.0
 11
1070.398525663106
 21
1041.031595836918
 31
0.0
  0
LINE
  5
487F
330
4819
100
AcDbEntity
  8
外形線
 48
10.0
100
AcDbLine
 10
1046.016783711759
 20
1042.56245924605
 30
0.0
 11
1099.098349930826
 21
1041.35786999663
 31
0.0
  0
LINE
  5
4880
330
4819
100
AcDbEntity
  8
外形線
 48
10.0
100
AcDbLine
 10
1021.881073256668
 20
1072.412932713756
 30
0.0
 11
1034.070088284044
 21
1072.200172665042
 31
0.0
  0
LINE
  5
4881
330
4819
100
AcDbEntity
  8
外形線
 48
10.0
100
AcDbLine
 10
1106.398525663105
 20
1040.711780962577
 30
0.0
 11
1106.398525663105
 21
1031.186780962577
 31
0.0
  0
LINE
  5
4882
330
4819
100
AcDbEntity
  8
外形線
 48
10.0
100
AcDbLine
 10
1106.398525663105
 20
1040.711780962577
 30
0.0
 11
1106.398525663105
 21
1152.686780962578
 31
0.0
  0
LINE
  5
4883
330
4819
100
AcDbEntity
  8
外形線
 48
10.0
100
AcDbLine
 10
1105.398525663105
 20
1030.186780962577
 30
0.0
 11
1071.398525663106
 21
1030.186780962577
 31
0.0
  0
LINE
  5
4884
330
4819
100
AcDbEntity
  8
外形線
 48
10.0
100
AcDbLine
 10
1103.398525663106
 20
1036.95900251561
 30
0.0
 11
1103.398525663105
 21
1036.692885238951
 31
0.0
  0
LINE
  5
4885
330
4819
100
AcDbEntity
  8
外形線
 48
10.0
100
AcDbLine
 10
1106.398525663105
 20
1036.692885238951
 30
0.0
 11
1103.398525663105
 21
1036.692885238951
 31
0.0
  0
ARC
  5
4886
330
4819
100
AcDbEntity
  8
外形線
 48
10.0
100
AcDbCircle
 10
1107.898525663105
 20
1039.211780962577
 30
0.0
 40
1.499999999999659
100
AcDbArc
 50
179.99999999998
 51
289.471220634515
  0
ARC
  5
4887
330
4819
100
AcDbEntity
  8
外形線
 48
10.0
100
AcDbCircle
 10
1098.998525663106
 20
1036.95900251561
 30
0.0
 40
4.4
100
AcDbArc
 50
0.0
 51
88.7
  0
LINE
  5
4888
330
4819
100
AcDbEntity
  8
細線
 48
10.0
100
AcDbLine
 10
1103.398525663105
 20
1152.686780962578
 30
0.0
 11
1103.398525663106
 21
1036.95900251561
 31
0.0
  0
LINE
  5
4889
330
4819
100
AcDbEntity
  8
細線
 48
10.0
100
AcDbLine
 10
1034.837298404406
 20
1072.186780962578
 30
0.0
 11
1034.840933619068
 21
1117.201361012233
 31
0.0
  0
LINE
  5
488A
330
4819
100
AcDbEntity
  8
細線
 48
10.0
100
AcDbLine
 10
1042.201886517784
 20
1144.905639229587
 30
0.0
 11
1042.201886517784
 21
1044.467922695569
 31
0.0
  0
LINE
  5
488B
330
4819
100
AcDbEntity
  8
外形線
 48
10.0
100
AcDbLine
 10
1135.898508800172
 20
1138.913208309413
 30
0.0
 11
1135.896646406194
 21
1101.646260115989
 31
0.0
  0
ARC
  5
488C
330
4819
100
AcDbEntity
  8
細線
 48
10.0
100
AcDbCircle
 10
1135.397834558349
 20
1125.421480922695
 30
0.0
 40
0.5
100
AcDbArc
 50
359.997136676878
 51
74.206830951738
  0
ARC
  5
488D
330
4819
100
AcDbEntity
  8
細線
 48
10.0
100
AcDbCircle
 10
1135.397869895098
 20
1126.128577709141
 30
0.0
 40
0.5
100
AcDbArc
 50
359.997136676878
 51
74.206830951738
  0
LINE
  5
488E
330
4819
100
AcDbEntity
  8
細線
 48
10.0
100
AcDbLine
 10
1135.533917321837
 20
1125.90260614702
 30
0.0
 11
1123.762442899618
 21
1129.232081902426
 31
0.0
  0
LINE
  5
488F
330
4819
100
AcDbEntity
  8
中心線
 48
10.0
100
AcDbLine
 10
1088.398525663106
 20
1052.03299312045
 30
0.0
 11
1088.398525663106
 21
1013.722487401784
 31
0.0
  0
ENDBLK
  5
4890
330
4819
100
AcDbEntity
  8
0
 48
10.0
100
AcDbBlockEnd
  0
BLOCK
  5
491B
330
4911
100
AcDbEntity
  8
0
 48
10.0
100
AcDbBlockBegin
  2
*D13
 70
     1
 10
0.0
 20
0.0
 30
0.0
  3
*D13
  1

  0
LINE
  5
4E26
330
4911
100
AcDbEntity
  8
寸法線
 62
     0
 48
10.0
100
AcDbLine
 10
555.055673696019
 20
350.912934047206
 30
0.0
 11
555.055673696019
 21
328.288623667948
 31
0.0
  0
LINE
  5
4E27
330
4911
100
AcDbEntity
  8
寸法線
 62
     0
 48
10.0
100
AcDbLine
 10
584.55567369602
 20
370.186488517412
 30
0.0
 11
584.55567369602
 21
328.288623667948
 31
0.0
  0
LINE
  5
4E28
330
4911
100
AcDbEntity
  8
寸法線
 62
     0
 48
10.0
100
AcDbLine
 10
561.055673696019
 20
329.538623667948
 30
0.0
 11
578.55567369602
 21
329.538623667948
 31
0.0
  0
INSERT
  5
4E29
330
4911
100
AcDbEntity
  8
寸法線
 62
     0
 48
10.0
100
AcDbBlockReference
  2
_OPEN30
 10
555.055673696019
 20
329.538623667948
 30
0.0
 41
6.0
 42
6.0
 43
6.0
 50
180.0
  0
INSERT
  5
4E2A
330
4911
100
AcDbEntity
  8
寸法線
 62
     0
 48
10.0
100
AcDbBlockReference
  2
_OPEN30
 10
584.55567369602
 20
329.538623667948
 30
0.0
 41
6.0
 42
6.0
 43
6.0
  0
MTEXT
  5
4E2B
330
4911
100
AcDbEntity
  8
寸法線
 62
     0
 48
10.0
100
AcDbMText
 10
569.80567369602
 20
334.163623667948
 30
0.0
 40
8.0
 41
0.0
 71
     5
 72
     1
  1
\A1;30
  0
POINT
  5
4E2C
330
4911
100
AcDbEntity
  8
DEFPOINTS
 62
     0
 48
10.0
100
AcDbPoint
 10
555.055673696019
 20
351.537934047206
 30
0.0
  0
POINT
  5
4E2D
330
4911
100
AcDbEntity
  8
DEFPOINTS
 62
     0
 48
10.0
100
AcDbPoint
 10
584.55567369602
 20
370.811488517412
 30
0.0
  0
POINT
  5
4E2E
330
4911
100
AcDbEntity
  8
DEFPOINTS
 62
     0
 48
10.0
100
AcDbPoint
 10
584.55567369602
 20
329.538623667948
 30
0.0
  0
ENDBLK
  5
491C
330
4911
100
AcDbEntity
  8
0
 48
10.0
100
AcDbBlockEnd
  0
BLOCK
  5
4933
330
4929
100
AcDbEntity
  8
0
 48
10.0
100
AcDbBlockBegin
  2
*D14
 70
     1
 10
0.0
 20
0.0
 30
0.0
  3
*D14
  1

  0
LINE
  5
4E1D
330
4929
100
AcDbEntity
  8
寸法線
 62
     0
 48
10.0
100
AcDbLine
 10
573.356098796549
 20
473.031829770833
 30
0.0
 11
609.778297422325
 21
473.031829770833
 31
0.0
  0
LINE
  5
4E1E
330
4929
100
AcDbEntity
  8
寸法線
 62
     0
 48
10.0
100
AcDbLine
 10
573.145589214148
 20
357.037934047206
 30
0.0
 11
609.778297422325
 21
357.037934047206
 31
0.0
  0
LINE
  5
4E1F
330
4929
100
AcDbEntity
  8
寸法線
 62
     0
 48
10.0
100
AcDbLine
 10
608.528297422325
 20
467.031829770833
 30
0.0
 11
608.528297422325
 21
363.037934047206
 31
0.0
  0
INSERT
  5
4E20
330
4929
100
AcDbEntity
  8
寸法線
 62
     0
100
AcDbBlockReference
  2
_OPEN30
 10
608.528297422325
 20
473.031829770833
 30
0.0
 41
6.0
 42
6.0
 43
6.0
 50
90.0
  0
INSERT
  5
4E21
330
4929
100
AcDbEntity
  8
寸法線
 62
     0
100
AcDbBlockReference
  2
_OPEN30
 10
608.528297422325
 20
357.037934047206
 30
0.0
 41
6.0
 42
6.0
 43
6.0
 50
270.0
  0
MTEXT
  5
4E22
330
4929
100
AcDbEntity
  8
寸法線
 62
     0
 48
10.0
100
AcDbMText
 10
603.903297422325
 20
415.034881909019
 30
0.0
 40
8.0
 41
0.0
 71
     5
 72
     1
  1
\A1;φ116
 11
0.0
 21
1.0
 31
0.0
  0
POINT
  5
4E23
330
4929
100
AcDbEntity
  8
DEFPOINTS
 62
     0
100
AcDbPoint
 10
572.731098796549
 20
473.031829770833
 30
0.0
  0
POINT
  5
4E24
330
4929
100
AcDbEntity
  8
DEFPOINTS
 62
     0
100
AcDbPoint
 10
572.520589214148
 20
357.037934047206
 30
0.0
  0
POINT
  5
4E25
330
4929
100
AcDbEntity
  8
DEFPOINTS
 62
     0
100
AcDbPoint
 10
608.528297422325
 20
357.037934047206
 30
0.0
  0
ENDBLK
  5
4934
330
4929
100
AcDbEntity
  8
0
 48
10.0
100
AcDbBlockEnd
  0
BLOCK
  5
4A28
330
4A1E
100
AcDbEntity
  8
0
 48
10.0
100
AcDbBlockBegin
  2
*D15
 70
     1
 10
0.0
 20
0.0
 30
0.0
  3
*D15
  1

  0
LINE
  5
4E14
330
4A1E
100
AcDbEntity
  8
寸法線
 62
     0
 48
10.0
100
AcDbLine
 10
291.55567369602
 20
327.663623667948
 30
0.0
 11
291.55567369602
 21
308.288623667948
 31
0.0
  0
LINE
  5
4E15
330
4A1E
100
AcDbEntity
  8
寸法線
 62
     0
 48
10.0
100
AcDbLine
 10
584.5533206957
 20
370.13803788574
 30
0.0
 11
584.5533206957
 21
308.288623667948
 31
0.0
  0
LINE
  5
4E16
330
4A1E
100
AcDbEntity
  8
寸法線
 62
     0
 48
10.0
100
AcDbLine
 10
297.55567369602
 20
309.538623667948
 30
0.0
 11
578.5533206957
 21
309.538623667948
 31
0.0
  0
INSERT
  5
4E17
330
4A1E
100
AcDbEntity
  8
寸法線
 62
     0
 48
10.0
100
AcDbBlockReference
  2
_OPEN30
 10
291.55567369602
 20
309.538623667948
 30
0.0
 41
6.0
 42
6.0
 43
6.0
 50
180.0
  0
INSERT
  5
4E18
330
4A1E
100
AcDbEntity
  8
寸法線
 62
     0
 48
10.0
100
AcDbBlockReference
  2
_OPEN30
 10
584.5533206957
 20
309.538623667948
 30
0.0
 41
6.0
 42
6.0
 43
6.0
  0
MTEXT
  5
4E19
330
4A1E
100
AcDbEntity
  8
寸法線
 62
     0
 48
10.0
100
AcDbMText
 10
438.05449719586
 20
314.164411069523
 30
0.0
 40
8.0
 41
0.0
 71
     5
 72
     1
  1
\A1;293
  0
POINT
  5
4E1A
330
4A1E
100
AcDbEntity
  8
DEFPOINTS
 62
     0
 48
10.0
100
AcDbPoint
 10
291.55567369602
 20
328.288623667948
 30
0.0
  0
POINT
  5
4E1B
330
4A1E
100
AcDbEntity
  8
DEFPOINTS
 62
     0
 48
10.0
100
AcDbPoint
 10
584.5533206957
 20
370.76303788574
 30
0.0
  0
POINT
  5
4E1C
330
4A1E
100
AcDbEntity
  8
DEFPOINTS
 62
     0
 48
10.0
100
AcDbPoint
 10
584.5533206957
 20
309.538623667948
 30
0.0
  0
ENDBLK
  5
4A29
330
4A1E
100
AcDbEntity
  8
0
 48
10.0
100
AcDbBlockEnd
  0
BLOCK
  5
4A35
330
4A2B
100
AcDbEntity
  8
0
 48
10.0
100
AcDbBlockBegin
  2
*D16
 70
     1
 10
0.0
 20
0.0
 30
0.0
  3
*D16
  1

  0
LINE
  5
4E0B
330
4A2B
100
AcDbEntity
  8
寸法線
 62
     0
 48
10.0
100
AcDbLine
 10
336.55567369602
 20
395.412244276411
 30
0.0
 11
336.55567369602
 21
328.288623667948
 31
0.0
  0
LINE
  5
4E0C
330
4A2B
100
AcDbEntity
  8
寸法線
 62
     0
 48
10.0
100
AcDbLine
 10
441.55567369602
 20
354.413623815478
 30
0.0
 11
441.55567369602
 21
328.288623667948
 31
0.0
  0
LINE
  5
4E0D
330
4A2B
100
AcDbEntity
  8
寸法線
 62
     0
 48
10.0
100
AcDbLine
 10
342.55567369602
 20
329.538623667948
 30
0.0
 11
435.55567369602
 21
329.538623667948
 31
0.0
  0
INSERT
  5
4E0E
330
4A2B
100
AcDbEntity
  8
寸法線
 62
     0
 48
10.0
100
AcDbBlockReference
  2
_OPEN30
 10
336.55567369602
 20
329.538623667948
 30
0.0
 41
6.0
 42
6.0
 43
6.0
 50
180.0
  0
INSERT
  5
4E0F
330
4A2B
100
AcDbEntity
  8
寸法線
 62
     0
 48
10.0
100
AcDbBlockReference
  2
_OPEN30
 10
441.55567369602
 20
329.538623667948
 30
0.0
 41
6.0
 42
6.0
 43
6.0
  0
MTEXT
  5
4E10
330
4A2B
100
AcDbEntity
  8
寸法線
 62
     0
 48
10.0
100
AcDbMText
 10
389.05567369602
 20
334.163623667948
 30
0.0
 40
8.0
 41
0.0
 71
     5
 72
     1
  1
\A1;105
  0
POINT
  5
4E11
330
4A2B
100
AcDbEntity
  8
DEFPOINTS
 62
     0
 48
10.0
100
AcDbPoint
 10
336.55567369602
 20
396.037244276411
 30
0.0
  0
POINT
  5
4E12
330
4A2B
100
AcDbEntity
  8
DEFPOINTS
 62
     0
 48
10.0
100
AcDbPoint
 10
441.55567369602
 20
355.038623815478
 30
0.0
  0
POINT
  5
4E13
330
4A2B
100
AcDbEntity
  8
DEFPOINTS
 62
     0
 48
10.0
100
AcDbPoint
 10
441.55567369602
 20
329.538623667948
 30
0.0
  0
ENDBLK
  5
4A36
330
4A2B
100
AcDbEntity
  8
0
 48
10.0
100
AcDbBlockEnd
  0
BLOCK
  5
4A42
330
4A38
100
AcDbEntity
  8
0
 48
10.0
100
AcDbBlockBegin
  2
*D17
 70
     1
 10
0.0
 20
0.0
 30
0.0
  3
*D17
  1

  0
LINE
  5
4E02
330
4A38
100
AcDbEntity
  8
寸法線
 62
     0
 48
10.0
100
AcDbLine
 10
466.55567369602
 20
354.413623815478
 30
0.0
 11
466.55567369602
 21
328.288623667948
 31
0.0
  0
LINE
  5
4E03
330
4A38
100
AcDbEntity
  8
寸法線
 62
     0
 48
10.0
100
AcDbLine
 10
555.054874340143
 20
350.872958144676
 30
0.0
 11
555.054874340143
 21
328.288623667948
 31
0.0
  0
LINE
  5
4E04
330
4A38
100
AcDbEntity
  8
寸法線
 62
     0
 48
10.0
100
AcDbLine
 10
472.55567369602
 20
329.538623667948
 30
0.0
 11
549.054874340143
 21
329.538623667948
 31
0.0
  0
INSERT
  5
4E05
330
4A38
100
AcDbEntity
  8
寸法線
 62
     0
 48
10.0
100
AcDbBlockReference
  2
_OPEN30
 10
466.55567369602
 20
329.538623667948
 30
0.0
 41
6.0
 42
6.0
 43
6.0
 50
180.0
  0
INSERT
  5
4E06
330
4A38
100
AcDbEntity
  8
寸法線
 62
     0
 48
10.0
100
AcDbBlockReference
  2
_OPEN30
 10
555.054874340143
 20
329.538623667948
 30
0.0
 41
6.0
 42
6.0
 43
6.0
  0
MTEXT
  5
4E07
330
4A38
100
AcDbEntity
  8
寸法線
 62
     0
 48
10.0
100
AcDbMText
 10
510.805274018081
 20
334.163623667948
 30
0.0
 40
8.0
 41
0.0
 71
     5
 72
     1
  1
\A1;88
  0
POINT
  5
4E08
330
4A38
100
AcDbEntity
  8
DEFPOINTS
 62
     0
 48
10.0
100
AcDbPoint
 10
466.55567369602
 20
355.038623815478
 30
0.0
  0
POINT
  5
4E09
330
4A38
100
AcDbEntity
  8
DEFPOINTS
 62
     0
 48
10.0
100
AcDbPoint
 10
555.054874340143
 20
351.497958144676
 30
0.0
  0
POINT
  5
4E0A
330
4A38
100
AcDbEntity
  8
DEFPOINTS
 62
     0
 48
10.0
100
AcDbPoint
 10
555.054874340143
 20
329.538623667948
 30
0.0
  0
ENDBLK
  5
4A43
330
4A38
100
AcDbEntity
  8
0
 48
10.0
100
AcDbBlockEnd
  0
BLOCK
  5
4DF9
330
4DF8
100
AcDbEntity
  8
0
 48
10.0
100
AcDbBlockBegin
  2
エル2
 70
     0
 10
0.0
 20
0.0
 30
0.0
  3
エル2
  1

  0
SPLINE
  5
4DFA
330
4DF8
100
AcDbEntity
  8
寸法線
 48
10.0
100
AcDbSpline
210
0.0
220
0.0
230
1.0
 70
  1064
 71
     3
 72
    13
 73
     9
 74
     7
 42
0.000000001
 43
0.0000000001
 44
0.0000000001
 40
0.0
 40
0.0
 40
0.0
 40
0.0
 40
1.733053107167099
 40
4.534898454324925
 40
6.793163002857423
 40
8.354986571146187
 40
9.185484699869415
 40
9.787764058431359
 40
9.787764058431359
 40
9.787764058431359
 40
9.787764058431359
 10
0.3404176863031978
 20
-0.0801601613338576
 30
0.0
 10
0.855794411263654
 20
0.157912936400826
 30
0.0
 10
2.204386155944025
 20
0.7808813373508533
 30
0.0
 10
2.529358956725083
 20
5.12979989628467
 30
0.0
 10
0.6070464993675231
 20
2.001902917601772
 30
0.0
 10
0.6912230258019734
 20
0.4140194271594778
 30
0.0
 10
1.704003608216778
 20
-0.2080419689248963
 30
0.0
 10
2.151973019543756
 20
0.0160478349734519
 30
0.0
 10
2.340280507694345
 20
0.110245757923721
 30
0.0
 11
0.3404176863031978
 21
-0.0801601613338576
 31
0.0
 11
1.721275265169794
 21
0.967076879239201
 31
0.0
 11
2.03077788643197
 21
3.751775332720619
 31
0.0
 11
0.8165758350102692
 21
1.847708067763307
 31
0.0
 11
1.030847060394152
 21
0.3006525741126325
 31
0.0
 11
1.768890963108987
 21
-0.0801601613338576
 31
0.0
 11
2.340280507694345
 21
0.110245757923721
 31
0.0
  0
ENDBLK
  5
4DFB
330
4DF8
100
AcDbEntity
  8
0
 48
10.0
100
AcDbBlockEnd
  0
BLOCK
  5
4FB1
330
4FA8
100
AcDbEntity
  8
0
 48
10.0
100
AcDbBlockBegin
  2
*D23
 70
     1
 10
0.0
 20
0.0
 30
0.0
  3
*D23
  1

  0
LINE
  5
4FF7
330
4FA8
100
AcDbEntity
  8
寸法線
 62
     0
 48
10.0
100
AcDbLine
 10
178.917205439747
 20
410.287934047206
 30
0.0
 11
178.917205439747
 21
419.787934047206
 31
0.0
  0
LINE
  5
4FF8
330
4FA8
100
AcDbEntity
  8
寸法線
 62
     0
 48
10.0
100
AcDbLine
 10
178.917205439747
 20
425.787934047206
 30
0.0
 11
178.917205439747
 21
457.769304897104
 31
0.0
  0
INSERT
  5
4FF9
330
4FA8
100
AcDbEntity
  8
寸法線
 62
     0
 48
10.0
100
AcDbBlockReference
  2
_OPEN30
 10
178.917205439747
 20
404.287934047206
 30
0.0
 41
6.0
 42
6.0
 43
6.0
 50
270.0
  0
INSERT
  5
4FFA
330
4FA8
100
AcDbEntity
  8
寸法線
 62
     0
 48
10.0
100
AcDbBlockReference
  2
_OPEN30
 10
178.917205439747
 20
425.787934047206
 30
0.0
 41
6.0
 42
6.0
 43
6.0
 50
90.0
  0
MTEXT
  5
4FFB
330
4FA8
100
AcDbEntity
  8
寸法線
 62
     0
 48
10.0
100
AcDbMText
 10
174.291418038172
 20
444.778619472155
 30
0.0
 40
8.0
 41
0.0
 71
     5
 72
     1
  1
\A1;φ21.5
 11
6.123031769111886E-17
 21
1.0
 31
0.0
  0
POINT
  5
4FFC
330
4FA8
100
AcDbEntity
  8
DEFPOINTS
 62
     0
 48
10.0
100
AcDbPoint
 10
191.55567369602
 20
425.787934047206
 30
0.0
  0
POINT
  5
4FFD
330
4FA8
100
AcDbEntity
  8
DEFPOINTS
 62
     0
 48
10.0
100
AcDbPoint
 10
191.55567369602
 20
404.287934047206
 30
0.0
  0
POINT
  5
4FFE
330
4FA8
100
AcDbEntity
  8
DEFPOINTS
 62
     0
 48
10.0
100
AcDbPoint
 10
178.917205439747
 20
404.287934047206
 30
0.0
  0
ENDBLK
  5
4FB2
330
4FA8
100
AcDbEntity
  8
0
 48
10.0
100
AcDbBlockEnd
  0
BLOCK
  5
4FC9
330
4FC0
100
AcDbEntity
  8
0
 48
10.0
100
AcDbBlockBegin
  2
*D25
 70
     1
 10
0.0
 20
0.0
 30
0.0
  3
*D25
  1

  0
LINE
  5
4FFF
330
4FC0
100
AcDbEntity
  8
寸法線
 62
     0
 48
10.0
100
AcDbLine
 10
217.209052066715
 20
410.287934047206
 30
0.0
 11
217.209052066715
 21
419.787934047206
 31
0.0
  0
LINE
  5
5000
330
4FC0
100
AcDbEntity
  8
寸法線
 62
     0
 48
10.0
100
AcDbLine
 10
217.209052066715
 20
425.787934047206
 30
0.0
 11
217.209052066715
 21
457.769304897104
 31
0.0
  0
INSERT
  5
5001
330
4FC0
100
AcDbEntity
  8
寸法線
 62
     0
 48
10.0
100
AcDbBlockReference
  2
_OPEN30
 10
217.209052066715
 20
404.287934047206
 30
0.0
 41
6.0
 42
6.0
 43
6.0
 50
270.0
  0
INSERT
  5
5002
330
4FC0
100
AcDbEntity
  8
寸法線
 62
     0
 48
10.0
100
AcDbBlockReference
  2
_OPEN30
 10
217.209052066715
 20
425.787934047206
 30
0.0
 41
6.0
 42
6.0
 43
6.0
 50
90.0
  0
MTEXT
  5
5003
330
4FC0
100
AcDbEntity
  8
寸法線
 62
     0
 48
10.0
100
AcDbMText
 10
212.58326466514
 20
444.778619472155
 30
0.0
 40
8.0
 41
0.0
 71
     5
 72
     1
  1
\A1;φ21.5
 11
6.123031769111886E-17
 21
1.0
 31
0.0
  0
POINT
  5
5004
330
4FC0
100
AcDbEntity
  8
DEFPOINTS
 62
     0
 48
10.0
100
AcDbPoint
 10
228.872918225131
 20
425.787934047206
 30
0.0
  0
POINT
  5
5005
330
4FC0
100
AcDbEntity
  8
DEFPOINTS
 62
     0
 48
10.0
100
AcDbPoint
 10
228.872918225131
 20
404.287934047206
 30
0.0
  0
POINT
  5
5006
330
4FC0
100
AcDbEntity
  8
DEFPOINTS
 62
     0
 48
10.0
100
AcDbPoint
 10
217.209052066715
 20
404.287934047206
 30
0.0
  0
ENDBLK
  5
4FCA
330
4FC0
100
AcDbEntity
  8
0
 48
10.0
100
AcDbBlockEnd
  0
BLOCK
  5
5469
330
5468
100
AcDbEntity
  8
0
100
AcDbBlockBegin
  2
*D28
 70
     1
 10
0.0
 20
0.0
 30
0.0
  3
*D28
  1

  0
LINE
  5
546B
330
5468
100
AcDbEntity
  8
寸法線
 62
     0
 48
10.0
100
AcDbLine
 10
41.93067369602
 20
425.787934047206
 30
0.0
 11
27.667205439747
 21
425.787934047206
 31
0.0
  0
LINE
  5
546C
330
5468
100
AcDbEntity
  8
寸法線
 62
     0
 48
10.0
100
AcDbLine
 10
41.93067369602
 20
404.287934047206
 30
0.0
 11
27.667205439747
 21
404.287934047206
 31
0.0
  0
LINE
  5
546D
330
5468
100
AcDbEntity
  8
寸法線
 62
     0
 48
10.0
100
AcDbLine
 10
28.917205439747
 20
425.787934047206
 30
0.0
 11
28.917205439747
 21
456.904600713872
 31
0.0
  0
LINE
  5
546E
330
5468
100
AcDbEntity
  8
寸法線
 62
     0
 48
10.0
100
AcDbLine
 10
28.917205439747
 20
419.787934047206
 30
0.0
 11
28.917205439747
 21
410.287934047206
 31
0.0
  0
INSERT
  5
546F
330
5468
100
AcDbEntity
  8
寸法線
 62
     0
100
AcDbBlockReference
  2
_OPEN30
 10
28.917205439747
 20
425.787934047206
 30
0.0
 41
6.0
 42
6.0
 43
6.0
 50
90.0
  0
INSERT
  5
5470
330
5468
100
AcDbEntity
  8
寸法線
 62
     0
100
AcDbBlockReference
  2
_OPEN30
 10
28.917205439747
 20
404.287934047206
 30
0.0
 41
6.0
 42
6.0
 43
6.0
 50
270.0
  0
MTEXT
  5
5471
330
5468
100
AcDbEntity
  8
寸法線
 62
     0
 48
10.0
100
AcDbMText
 10
24.28803877308
 20
444.346267380539
 30
0.0
 40
8.0
 41
0.0
 71
     5
 72
     1
  1
\A1;φ21.5
 11
0.0
 21
1.0
 31
0.0
  0
POINT
  5
5472
330
5468
100
AcDbEntity
  8
DEFPOINTS
 62
     0
100
AcDbPoint
 10
42.55567369602
 20
425.787934047206
 30
0.0
  0
POINT
  5
5473
330
5468
100
AcDbEntity
  8
DEFPOINTS
 62
     0
100
AcDbPoint
 10
42.55567369602
 20
404.287934047206
 30
0.0
  0
POINT
  5
5474
330
5468
100
AcDbEntity
  8
DEFPOINTS
 62
     0
100
AcDbPoint
 10
28.917205439747
 20
404.287934047206
 30
0.0
  0
ENDBLK
  5
546A
330
5468
100
AcDbEntity
  8
0
100
AcDbBlockEnd
  0
ENDSEC
  0
SECTION
  2
ENTITIES
  0
LWPOLYLINE
  5
31A0
330
1A
100
AcDbEntity
  8
外形線
100
AcDbPolyline
 90
        4
 70
     1
 43
0.0
 10
466.55567369602
 20
396.038623815478
 10
469.55567369602
 20
396.038623815478
 10
469.55567369602
 20
434.038623815478
 10
466.55567369602
 20
434.038623815478
  0
LINE
  5
3E98
330
1A
100
AcDbEntity
  8
下書線
100
AcDbLine
 10
615.269967507176
 20
499.538623667948
 30
0.0
 11
11.31687905776
 21
499.538623667948
 31
0.0
  0
LINE
  5
3E99
330
1A
100
AcDbEntity
  8
下書線
 48
10.0
100
AcDbLine
 10
12.436716583765
 20
309.538623667948
 30
0.0
 11
621.420963019288
 21
309.538623667948
 31
0.0
  0
LINE
  5
3E9A
330
1A
100
AcDbEntity
  8
下書線
 48
10.0
100
AcDbLine
 10
12.141120273393
 20
329.538623667948
 30
0.0
 11
621.420963019288
 21
329.538623667948
 31
0.0
  0
LWPOLYLINE
  5
441F
102
{ACAD_REACTORS
330
447F
102
}
330
1A
100
AcDbEntity
  8
外形線
100
AcDbPolyline
 90
        4
 70
     1
 43
0.0
 10
465.05567369602
 20
355.038623815478
 10
466.55567369602
 20
355.038623815478
 10
466.55567369602
 20
475.038623815478
 10
465.05567369602
 20
475.038623815478
  0
LWPOLYLINE
  5
4420
102
{ACAD_REACTORS
330
447F
102
}
330
1A
100
AcDbEntity
  8
外形線
100
AcDbPolyline
 90
        8
 70
     1
 43
0.0
 10
455.30567369602
 20
396.038623815478
 10
464.55567369602
 20
396.038623815478
 10
465.05567369602
 20
396.538623815478
 10
465.05567369602
 20
433.538623815478
 10
464.55567369602
 20
434.038623815478
 10
455.30567369602
 20
434.038623815478
 10
454.80567369602
 20
433.538623815478
 10
454.80567369602
 20
396.538623815478
  0
LWPOLYLINE
  5
4421
102
{ACAD_REACTORS
330
447F
102
}
330
1A
100
AcDbEntity
  8
外形線
100
AcDbPolyline
 90
        4
 70
     1
 43
0.0
 10
453.30567369602
 20
355.038623815478
 10
454.80567369602
 20
355.038623815478
 10
454.80567369602
 20
475.038623815478
 10
453.30567369602
 20
475.038623815478
  0
LWPOLYLINE
  5
4422
102
{ACAD_REACTORS
330
447F
102
}
330
1A
100
AcDbEntity
  8
外形線
100
AcDbPolyline
 90
        8
 70
     1
 43
0.0
 10
443.55567369602
 20
396.038623815478
 10
452.80567369602
 20
396.038623815478
 10
453.30567369602
 20
396.538623815478
 10
453.30567369602
 20
433.538623815478
 10
452.80567369602
 20
434.038623815478
 10
443.55567369602
 20
434.038623815478
 10
443.05567369602
 20
433.538623815478
 10
443.05567369602
 20
396.538623815478
  0
LWPOLYLINE
  5
4423
102
{ACAD_REACTORS
330
447F
102
}
330
1A
100
AcDbEntity
  8
外形線
100
AcDbPolyline
 90
        4
 70
     1
 43
0.0
 10
441.55567369602
 20
355.038623815478
 10
443.05567369602
 20
355.038623815478
 10
443.05567369602
 20
475.038623815478
 10
441.55567369602
 20
475.038623815478
  0
LINE
  5
4481
330
1A
100
AcDbEntity
  8
中心線
 48
10.0
100
AcDbLine
 10
34.815035270204
 20
415.038623815478
 30
0.0
 11
584.986054757392
 21
415.038623815478
 31
0.0
  0
DIMENSION
  5
449C
330
1A
100
AcDbEntity
  8
寸法線
 48
10.0
100
AcDbDimension
  2
*D9
 10
466.55567369602
 20
329.538623667948
 30
0.0
 11
454.05567369602
 21
334.164411069523
 31
0.0
 70
    32
  3
ISO-25
100
AcDbAlignedDimension
 13
441.55567369602
 23
355.038623815478
 33
0.0
 14
466.55567369602
 24
355.038623815478
 34
0.0
100
AcDbRotatedDimension
1001
ACAD
1000
DSTYLE
1002
{
1070
     5
1000
OPEN30
1070
    41
1040
6.0
1070
    47
1040
0.1
1070
    48
1040
0.1
1070
    73
1070
     0
1070
   140
1040
8.0
1070
   271
1070
     1
1070
   272
1070
     1
1070
   341
1005
2AF4
1002
}
  0
LINE
  5
4658
102
{ACAD_REACTORS
330
46B3
102
}
330
1A
100
AcDbEntity
  8
外形線
 48
10.0
100
AcDbLine
 10
336.55567369602
 20
434.038623818
 30
0.0
 11
336.55567369602
 21
396.037244276411
 31
0.0
  0
LINE
  5
4659
102
{ACAD_REACTORS
330
46B3
102
}
330
1A
100
AcDbEntity
  8
外形線
 48
10.0
100
AcDbLine
 10
316.55567369602
 20
434.038623818
 30
0.0
 11
316.55567369602
 21
396.037244276412
 31
0.0
  0
ARC
  5
465A
102
{ACAD_REACTORS
330
46B3
102
}
330
1A
100
AcDbEntity
  8
細線
 48
10.0
100
AcDbCircle
 10
337.846199599024
 20
392.659503461383
 30
0.0
 40
21.5568
100
AcDbArc
 50
148.046790151162
 51
170.985160447973
  0
ARC
  5
465B
102
{ACAD_REACTORS
330
46B3
102
}
330
1A
100
AcDbEntity
  8
細線
 48
10.0
100
AcDbCircle
 10
315.265147793015
 20
392.659503461383
 30
0.0
 40
21.5568
100
AcDbArc
 50
9.014839552025
 51
31.953209848837
  0
ARC
  5
465C
102
{ACAD_REACTORS
330
46B3
102
}
330
1A
100
AcDbEntity
  8
外形線
 48
10.0
100
AcDbCircle
 10
320.041013718684
 20
409.892266184478
 30
0.0
 40
21.5568
100
AcDbArc
 50
308.824173789179
 51
320.004933775737
  0
ARC
  5
465D
102
{ACAD_REACTORS
330
46B3
102
}
330
1A
100
AcDbEntity
  8
外形線
 48
10.0
100
AcDbCircle
 10
333.070333673355
 20
409.892266184478
 30
0.0
 40
21.5568
100
AcDbArc
 50
219.995066224261
 51
231.175826210819
  0
ARC
  5
465E
102
{ACAD_REACTORS
330
46B3
102
}
330
1A
100
AcDbEntity
  8
細線
 48
10.0
100
AcDbCircle
 10
315.265147793016
 20
437.416364633028
 30
0.0
 40
21.5568
100
AcDbArc
 50
328.046790151162
 51
350.985160447974
  0
ARC
  5
465F
102
{ACAD_REACTORS
330
46B3
102
}
330
1A
100
AcDbEntity
  8
外形線
 48
10.0
100
AcDbCircle
 10
320.041013718684
 20
420.183601909934
 30
0.0
 40
21.5568
100
AcDbArc
 50
39.995066224263
 51
51.175826210821
  0
ARC
  5
4660
102
{ACAD_REACTORS
330
46B3
102
}
330
1A
100
AcDbEntity
  8
外形線
 48
10.0
100
AcDbCircle
 10
333.070333673355
 20
420.183601909934
 30
0.0
 40
21.5568
100
AcDbArc
 50
128.824173789179
 51
140.004933775737
  0
ARC
  5
4661
102
{ACAD_REACTORS
330
46B3
102
}
330
1A
100
AcDbEntity
  8
細線
 48
10.0
100
AcDbCircle
 10
337.846199599024
 20
437.416364633028
 30
0.0
 40
21.5568
100
AcDbArc
 50
189.014839552026
 51
211.953209848838
  0
LINE
  5
4662
102
{ACAD_REACTORS
330
46B3
102
}
330
1A
100
AcDbEntity
  8
外形線
 48
10.0
100
AcDbLine
 10
319.55567369602
 20
393.099313588794
 30
0.0
 11
333.55567369602
 21
393.099313588794
 31
0.0
  0
LINE
  5
4663
102
{ACAD_REACTORS
330
46B3
102
}
330
1A
100
AcDbEntity
  8
外形線
 48
10.0
100
AcDbLine
 10
319.55567369602
 20
436.977934047206
 30
0.0
 11
333.55567369602
 21
436.977934047206
 31
0.0
  0
ARC
  5
4664
102
{ACAD_REACTORS
330
46B3
102
}
330
1A
100
AcDbEntity
  8
細線
 48
10.0
100
AcDbCircle
 10
314.998857108651
 20
415.037934047206
 30
0.0
 40
21.55681659840436
100
AcDbArc
 50
329.410227986311
 51
30.589772013689
  0
ARC
  5
4665
102
{ACAD_REACTORS
330
46B3
102
}
330
1A
100
AcDbEntity
  8
細線
 48
10.0
100
AcDbCircle
 10
338.112490283389
 20
415.037934047206
 30
0.0
 40
21.5568165984052
100
AcDbArc
 50
149.410227986311
 51
210.589772013689
  0
LINE
  5
4677
102
{ACAD_REACTORS
330
46B3
102
}
330
1A
100
AcDbEntity
  8
外形線
100
AcDbLine
 10
291.55567369602
 20
430.788123815478
 30
0.0
 11
316.55567369602
 21
432.350623815478
 31
0.0
  0
LINE
  5
4678
102
{ACAD_REACTORS
330
46B3
102
}
330
1A
100
AcDbEntity
  8
外形線
100
AcDbLine
 10
291.55567369602
 20
430.788123815478
 30
0.0
 11
291.55567369602
 21
399.289123815478
 31
0.0
  0
LINE
  5
4679
102
{ACAD_REACTORS
330
46B3
102
}
330
1A
100
AcDbEntity
  8
細線
100
AcDbLine
 10
291.55567369602
 20
429.309123815478
 30
0.0
 11
316.55567369602
 21
430.871623815478
 31
0.0
  0
LINE
  5
467A
102
{ACAD_REACTORS
330
46B3
102
}
330
1A
100
AcDbEntity
  8
細線
100
AcDbLine
 10
291.55567369602
 20
400.768123815477
 30
0.0
 11
316.55567369602
 21
399.205623815477
 31
0.0
  0
LINE
  5
467B
102
{ACAD_REACTORS
330
46B3
102
}
330
1A
100
AcDbEntity
  8
外形線
100
AcDbLine
 10
291.55567369602
 20
399.289123815478
 30
0.0
 11
316.55567369602
 21
397.726623815478
 31
0.0
  0
LINE
  5
467C
102
{ACAD_REACTORS
330
46B3
102
}
330
1A
100
AcDbEntity
  8
細線
100
AcDbLine
 10
319.55567369602
 20
404.067934047206
 30
0.0
 11
333.55567369602
 21
404.067934047206
 31
0.0
  0
LINE
  5
467D
102
{ACAD_REACTORS
330
46B3
102
}
330
1A
100
AcDbEntity
  8
細線
100
AcDbLine
 10
319.55567369602
 20
426.007934047206
 30
0.0
 11
333.55567369602
 21
426.007934047206
 31
0.0
  0
DIMENSION
  5
46B7
330
1A
100
AcDbEntity
  8
寸法線
 48
10.0
100
AcDbDimension
  2
*D10
 10
316.55567369602
 20
329.538623667948
 30
0.0
 11
304.05567369602
 21
334.164411069523
 31
0.0
 70
    32
  3
ISO-25
100
AcDbAlignedDimension
 13
291.55567369602
 23
399.289123815478
 33
0.0
 14
316.55567369602
 24
396.037244276412
 34
0.0
100
AcDbRotatedDimension
1001
ACAD
1000
DSTYLE
1002
{
1070
     5
1000
OPEN30
1070
    41
1040
6.0
1070
    47
1040
0.1
1070
    48
1040
0.1
1070
    73
1070
     0
1070
   140
1040
8.0
1070
   271
1070
     1
1070
   272
1070
     1
1070
   341
1005
2AF4
1002
}
  0
DIMENSION
  5
46D1
330
1A
100
AcDbEntity
  8
寸法線
 48
10.0
100
AcDbDimension
  2
*D11
 10
336.555673696019
 20
329.538623667948
 30
0.0
 11
326.55567369602
 21
334.164411069523
 31
0.0
 70
    32
  3
ISO-25
100
AcDbAlignedDimension
 13
316.55567369602
 23
396.037244276412
 33
0.0
 14
336.555673696019
 24
396.037244276411
 34
0.0
100
AcDbRotatedDimension
1001
ACAD
1000
DSTYLE
1002
{
1070
     5
1000
OPEN30
1070
    41
1040
6.0
1070
    47
1040
0.1
1070
    48
1040
0.1
1070
    73
1070
     0
1070
   140
1040
8.0
1070
   271
1070
     1
1070
   272
1070
     1
1070
   341
1005
2AF4
1002
}
  0
DIMENSION
  5
48E5
330
1A
100
AcDbEntity
  8
寸法線
 48
10.0
100
AcDbDimension
  2
*D13
 10
584.55567369602
 20
329.538623667948
 30
0.0
 11
569.80567369602
 21
334.163623667948
 31
0.0
 70
    32
  1
30
  3
ISO-25
100
AcDbAlignedDimension
 13
555.055673696019
 23
351.537934047206
 33
0.0
 14
584.55567369602
 24
370.811488517412
 34
0.0
100
AcDbRotatedDimension
1001
ACAD
1000
DSTYLE
1002
{
1070
     5
1000
OPEN30
1070
    41
1040
6.0
1070
    47
1040
0.1
1070
    48
1040
0.1
1070
    73
1070
     0
1070
   140
1040
8.0
1070
   271
1070
     1
1070
   272
1070
     1
1070
   341
1005
2AF4
1002
}
  0
DIMENSION
  5
48E7
330
1A
100
AcDbEntity
  8
寸法線
 48
10.0
100
AcDbDimension
  2
*D14
 10
608.528297422325
 20
357.037934047206
 30
0.0
 11
603.903297422325
 21
415.034881909019
 31
0.0
 70
    32
  1
φ<>
  3
ISO-25
100
AcDbAlignedDimension
 13
572.731098796549
 23
473.031829770833
 33
0.0
 14
572.520589214148
 24
357.037934047206
 34
0.0
 50
90.0
100
AcDbRotatedDimension
1001
ACAD
1000
DSTYLE
1002
{
1070
     5
1000
OPEN30
1070
    41
1040
6.0
1070
    47
1040
0.1
1070
    48
1040
0.1
1070
    73
1070
     0
1070
   140
1040
8.0
1070
   271
1070
     1
1070
   272
1070
     1
1070
   341
1005
2AF4
1002
}
  0
LINE
  5
48F1
330
1A
100
AcDbEntity
  8
外形線
 48
10.0
100
AcDbLine
 10
466.55567369602
 20
434.038623818
 30
0.0
 11
466.55567369602
 21
396.037244276411
 31
0.0
  0
LINE
  5
4906
330
1A
100
AcDbEntity
  8
外形線
100
AcDbLine
 10
469.55567369602
 20
430.788123815478
 30
0.0
 11
469.55567369602
 21
399.289123815478
 31
0.0
  0
LWPOLYLINE
  5
4910
330
1A
100
AcDbEntity
  8
外形線
100
AcDbPolyline
 90
        4
 70
     1
 43
0.0
 10
466.55567369602
 20
396.037934047206
 10
469.55567369602
 20
396.037934047206
 10
469.55567369602
 20
434.037934047206
 10
466.55567369602
 20
434.037934047206
  0
LINE
  5
49FF
330
1A
100
AcDbEntity
  8
外形線
 48
10.0
100
AcDbLine
 10
336.55567369602
 20
432.038623815478
 30
0.0
 11
441.55567369602
 21
432.038623815478
 31
0.0
  0
LINE
  5
4A00
330
1A
100
AcDbEntity
  8
外形線
 48
10.0
100
AcDbLine
 10
336.55567369602
 20
398.038623815478
 30
0.0
 11
441.55567369602
 21
398.038623815478
 31
0.0
  0
LINE
  5
4A01
330
1A
100
AcDbEntity
  8
外形線
 48
10.0
100
AcDbLine
 10
441.55567369602
 20
432.038623815478
 30
0.0
 11
441.55567369602
 21
398.038623815478
 31
0.0
  0
DIMENSION
  5
4A1D
330
1A
100
AcDbEntity
  8
寸法線
 48
10.0
100
AcDbDimension
  2
*D15
 10
584.5533206957
 20
309.538623667948
 30
0.0
 11
438.05449719586
 21
314.164411069523
 31
0.0
 70
    32
  3
ISO-25
100
AcDbAlignedDimension
 13
291.55567369602
 23
328.288623667948
 33
0.0
 14
584.5533206957
 24
370.76303788574
 34
0.0
100
AcDbRotatedDimension
1001
ACAD
1000
DSTYLE
1002
{
1070
     5
1000
OPEN30
1070
    41
1040
6.0
1070
    47
1040
0.1
1070
    48
1040
0.1
1070
    73
1070
     0
1070
   140
1040
8.0
1070
   271
1070
     1
1070
   272
1070
     1
1070
   341
1005
2AF4
1002
}
  0
DIMENSION
  5
4A2A
330
1A
100
AcDbEntity
  8
寸法線
 48
10.0
100
AcDbDimension
  2
*D16
 10
441.55567369602
 20
329.538623667948
 30
0.0
 11
389.05567369602
 21
334.163623667948
 31
0.0
 70
    32
  3
ISO-25
100
AcDbAlignedDimension
 13
336.55567369602
 23
396.037244276411
 33
0.0
 14
441.55567369602
 24
355.038623815478
 34
0.0
100
AcDbRotatedDimension
1001
ACAD
1000
DSTYLE
1002
{
1070
     5
1000
OPEN30
1070
    41
1040
6.0
1070
    47
1040
0.1
1070
    48
1040
0.1
1070
    73
1070
     0
1070
   140
1040
8.0
1070
   271
1070
     1
1070
   272
1070
     1
1070
   341
1005
2AF4
1002
}
  0
DIMENSION
  5
4A37
330
1A
100
AcDbEntity
  8
寸法線
 48
10.0
100
AcDbDimension
  2
*D17
 10
555.054874340143
 20
329.538623667948
 30
0.0
 11
510.805274018081
 21
334.163623667948
 31
0.0
 70
    32
  1
88
  3
ISO-25
100
AcDbAlignedDimension
 13
466.55567369602
 23
355.038623815478
 33
0.0
 14
555.054874340143
 24
351.497958144676
 34
0.0
100
AcDbRotatedDimension
1001
ACAD
1000
DSTYLE
1002
{
1070
     5
1000
OPEN30
1070
    41
1040
6.0
1070
    47
1040
0.1
1070
    48
1040
0.1
1070
    73
1070
     0
1070
   140
1040
8.0
1070
   271
1070
     1
1070
   272
1070
     1
1070
   341
1005
2AF4
1002
}
  0
LEADER
  5
4A44
330
1A
100
AcDbEntity
  8
寸法線
 48
10.0
100
AcDbLeader
  3
ISO-25
 76
     3
 10
442.274781019757
 20
475.034520258561
 30
0.0
 10
436.412445722402
 20
499.538623667948
 30
0.0
 10
445.211465310691
 20
499.538623667948
 30
0.0
1001
ACAD
1000
DSTYLE
1002
{
1070
     5
1000
OPEN30
1070
   147
1040
0.625
1070
    77
1070
     0
1070
    41
1040
6.0
1070
    47
1040
0.1
1070
    48
1040
0.1
1070
    73
1070
     0
1070
   140
1040
8.0
1070
   271
1070
     1
1070
   272
1070
     1
1070
   341
1005
2AF4
1070
   342
1005
2AF4
1002
}
  0
LEADER
  5
4A45
330
1A
100
AcDbEntity
  8
寸法線
 48
10.0
100
AcDbLeader
  3
ISO-25
 76
     3
 10
375.120479622509
 20
432.038623815478
 30
0.0
 10
370.786767285623
 20
499.538623667948
 30
0.0
 10
382.563524823417
 20
499.538623667948
 30
0.0
213
-11.77675753779397
223
0.0
233
0.0
1001
ACAD
1000
DSTYLE
1002
{
1070
     5
1000
OPEN30
1070
   147
1040
0.625
1070
    77
1070
     0
1070
    41
1040
6.0
1070
    47
1040
0.1
1070
    48
1040
0.1
1070
    73
1070
     0
1070
   140
1040
8.0
1070
   271
1070
     1
1070
   272
1070
     1
1070
   341
1005
2AF4
1070
   342
1005
2AF4
1002
}
  0
SPLINE
  5
4CDE
330
1A
100
AcDbEntity
  8
寸法線
 48
10.0
100
AcDbSpline
210
0.0
220
0.0
230
1.0
 70
  1064
 71
     3
 72
    13
 73
     9
 74
     7
 42
0.000000001
 43
0.0000000001
 44
0.0000000001
 40
0.0
 40
0.0
 40
0.0
 40
0.0
 40
3.223685095176967
 40
8.435450993908116
 40
12.63609189519624
 40
15.54126966359041
 40
17.08609505184049
 40
18.20640635868947
 40
18.20640635868947
 40
18.20640635868947
 40
18.20640635868947
 10
162.3598095686528
 20
311.246225052211
 30
0.0
 10
163.3184716314513
 20
311.689069356033
 30
0.0
 10
165.8270128231931
 20
312.847864744705
 30
0.0
 10
166.4315009198841
 20
320.9373709927218
 30
0.0
 10
162.8557709024782
 20
315.1191102436836
 30
0.0
 10
163.0123492626612
 20
312.1654579177123
 30
0.0
 10
164.8962417150696
 20
311.0083496660668
 30
0.0
 10
165.7295181498296
 20
311.4251833786756
 30
0.0
 10
166.0797924953478
 20
311.6004027294017
 30
0.0
 11
162.3598095686528
 21
311.246225052211
 31
0.0
 11
164.9283690531518
 21
313.1942106187532
 31
0.0
 11
165.5040807742496
 21
318.3740812539494
 31
0.0
 11
163.2455204107421
 21
314.8322894664543
 31
0.0
 11
163.6440903984353
 21
311.9545820749911
 31
0.0
 11
165.0169399198542
 21
311.246225052211
 31
0.0
 11
166.0797924953478
 21
311.6004027294017
 31
0.0
  0
SPLINE
  5
4CDF
330
1A
100
AcDbEntity
  8
寸法線
 48
10.0
100
AcDbSpline
210
0.0
220
0.0
230
1.0
 70
  1064
 71
     3
 72
    13
 73
     9
 74
     7
 42
0.000000001
 43
0.0000000001
 44
0.0000000001
 40
0.0
 40
0.0
 40
0.0
 40
0.0
 40
3.223685095176967
 40
8.435450993908121
 40
12.63609189519631
 40
15.54126966359048
 40
17.08609505184051
 40
18.20640635868954
 40
18.20640635868954
 40
18.20640635868954
 40
18.20640635868954
 10
233.8771280275018
 20
330.9269892485251
 30
0.0
 10
234.8357900903003
 20
331.3698335523471
 30
0.0
 10
237.344331282042
 20
332.5286289410191
 30
0.0
 10
237.9488193787332
 20
340.6181351890359
 30
0.0
 10
234.3730893613271
 20
334.7998744399978
 30
0.0
 10
234.5296677215101
 20
331.8462221140263
 30
0.0
 10
236.4135601739185
 20
330.6891138623811
 30
0.0
 10
237.2468366086785
 20
331.1059475749897
 30
0.0
 10
237.5971109541968
 20
331.2811669257158
 30
0.0
 11
233.8771280275018
 21
330.9269892485251
 31
0.0
 11
236.4456875120007
 21
332.8749748150673
 31
0.0
 11
237.0213992330987
 21
338.0548454502635
 31
0.0
 11
234.7628388695911
 21
334.5130536627684
 31
0.0
 11
235.1614088572842
 21
331.6353462713052
 31
0.0
 11
236.534258378703
 21
330.9269892485251
 31
0.0
 11
237.5971109541968
 21
331.2811669257158
 31
0.0
  0
TEXT
  5
4CE0
330
1A
100
AcDbEntity
  8
寸法線
 48
10.0
100
AcDbText
 10
239.963158532316
 20
330.97589922015
 30
0.0
 40
5.2
  1
3
100
AcDbText
  0
TEXT
  5
4CE1
330
1A
100
AcDbEntity
  8
寸法線
 48
10.0
100
AcDbText
 10
165.759614489186
 20
330.97589922015
 30
0.0
 40
5.2
  1
2
100
AcDbText
  0
SPLINE
  5
4CE2
330
1A
100
AcDbEntity
  8
寸法線
 48
10.0
100
AcDbSpline
210
0.0
220
0.0
230
1.0
 70
  1064
 71
     3
 72
    13
 73
     9
 74
     7
 42
0.000000001
 43
0.0000000001
 44
0.0000000001
 40
0.0
 40
0.0
 40
0.0
 40
0.0
 40
3.223685095176967
 40
8.435450993908116
 40
12.63609189519627
 40
15.54126966359045
 40
17.08609505184048
 40
18.20640635868951
 40
18.20640635868951
 40
18.20640635868951
 40
18.20640635868951
 10
159.6735839843714
 20
330.9269892485251
 30
0.0
 10
160.6322460471698
 20
331.369833552347
 30
0.0
 10
163.1407872389116
 20
332.5286289410191
 30
0.0
 10
163.7452753356027
 20
340.6181351890359
 30
0.0
 10
160.1695453181966
 20
334.7998744399977
 30
0.0
 10
160.3261236783796
 20
331.8462221140263
 30
0.0
 10
162.2100161307881
 20
330.6891138623811
 30
0.0
 10
163.0432925655481
 20
331.1059475749897
 30
0.0
 10
163.3935669110663
 20
331.2811669257158
 30
0.0
 11
159.6735839843714
 21
330.9269892485251
 31
0.0
 11
162.2421434688703
 21
332.8749748150673
 31
0.0
 11
162.8178551899682
 21
338.0548454502635
 31
0.0
 11
160.5592948264606
 21
334.5130536627684
 31
0.0
 11
160.9578648141538
 21
331.6353462713052
 31
0.0
 11
162.3307143355726
 21
330.9269892485251
 31
0.0
 11
163.3935669110663
 21
331.2811669257158
 31
0.0
  0
TEXT
  5
4CE3
330
1A
100
AcDbEntity
  8
寸法線
 48
10.0
100
AcDbText
 10
90.756851541736
 20
330.97589922015
 30
0.0
 40
5.2
  1
1
100
AcDbText
  0
SPLINE
  5
4CE4
330
1A
100
AcDbEntity
  8
寸法線
 48
10.0
100
AcDbSpline
210
0.0
220
0.0
230
1.0
 70
  1064
 71
     3
 72
    13
 73
     9
 74
     7
 42
0.000000001
 43
0.0000000001
 44
0.0000000001
 40
0.0
 40
0.0
 40
0.0
 40
0.0
 40
3.223685095176967
 40
8.435450993908116
 40
12.63609189519627
 40
15.54126966359045
 40
17.08609505184048
 40
18.20640635868951
 40
18.20640635868951
 40
18.20640635868951
 40
18.20640635868951
 10
84.67082103692178
 20
330.9269892485251
 30
0.0
 10
85.62948309972025
 20
331.369833552347
 30
0.0
 10
88.13802429146203
 20
332.5286289410191
 30
0.0
 10
88.74251238815309
 20
340.6181351890359
 30
0.0
 10
85.166782370747
 20
334.7998744399977
 30
0.0
 10
85.32336073093012
 20
331.8462221140263
 30
0.0
 10
87.2072531833385
 20
330.6891138623811
 30
0.0
 10
88.04052961809849
 20
331.1059475749897
 30
0.0
 10
88.39080396361675
 20
331.2811669257158
 30
0.0
 11
84.67082103692178
 21
330.9269892485251
 31
0.0
 11
87.23938052142068
 21
332.8749748150673
 31
0.0
 11
87.81509224251857
 21
338.0548454502635
 31
0.0
 11
85.556531879011
 21
334.5130536627684
 31
0.0
 11
85.95510186670418
 21
331.6353462713052
 31
0.0
 11
87.32795138812304
 21
330.9269892485251
 31
0.0
 11
88.39080396361675
 21
331.2811669257158
 31
0.0
  0
LINE
  5
4D94
330
1A
100
AcDbEntity
  8
寸法線
 48
10.0
100
AcDbLine
 10
41.55567369602
 20
405.287934047206
 30
0.0
 11
41.55567369602
 21
328.288623667948
 31
0.0
  0
LINE
  5
4D95
330
1A
100
AcDbEntity
  8
寸法線
 48
10.0
100
AcDbLine
 10
141.55567369602
 20
404.163623815478
 30
0.0
 11
141.55567369602
 21
328.288623667948
 31
0.0
  0
LINE
  5
4D96
330
1A
100
AcDbEntity
  8
寸法線
 48
10.0
100
AcDbLine
 10
47.55567369602
 20
329.538623667948
 30
0.0
 11
135.55567369602
 21
329.538623667948
 31
0.0
  0
INSERT
  5
4D97
330
1A
100
AcDbEntity
  8
寸法線
 48
10.0
100
AcDbBlockReference
  2
_OPEN30
 10
41.55567369602
 20
329.538623667948
 30
0.0
 41
6.0
 42
6.0
 43
6.0
 50
180.0
  0
INSERT
  5
4D98
330
1A
100
AcDbEntity
  8
寸法線
 48
10.0
100
AcDbBlockReference
  2
_OPEN30
 10
141.55567369602
 20
329.538623667948
 30
0.0
 41
6.0
 42
6.0
 43
6.0
  0
LINE
  5
4D9A
330
1A
100
AcDbEntity
  8
寸法線
 48
10.0
100
AcDbLine
 10
141.55567369602
 20
404.163623815478
 30
0.0
 11
141.55567369602
 21
328.288623667948
 31
0.0
  0
LINE
  5
4D9B
330
1A
100
AcDbEntity
  8
寸法線
 48
10.0
100
AcDbLine
 10
191.55567369602
 20
403.663623815478
 30
0.0
 11
191.55567369602
 21
328.288623667948
 31
0.0
  0
LINE
  5
4D9C
330
1A
100
AcDbEntity
  8
寸法線
 48
10.0
100
AcDbLine
 10
147.55567369602
 20
329.538623667948
 30
0.0
 11
185.55567369602
 21
329.538623667948
 31
0.0
  0
INSERT
  5
4D9D
330
1A
100
AcDbEntity
  8
寸法線
 48
10.0
100
AcDbBlockReference
  2
_OPEN30
 10
141.55567369602
 20
329.538623667948
 30
0.0
 41
6.0
 42
6.0
 43
6.0
 50
180.0
  0
INSERT
  5
4D9E
330
1A
100
AcDbEntity
  8
寸法線
 48
10.0
100
AcDbBlockReference
  2
_OPEN30
 10
191.55567369602
 20
329.538623667948
 30
0.0
 41
6.0
 42
6.0
 43
6.0
  0
LINE
  5
4DA0
330
1A
100
AcDbEntity
  8
寸法線
 48
10.0
100
AcDbLine
 10
191.55567369602
 20
403.663623815478
 30
0.0
 11
191.55567369602
 21
328.288623667948
 31
0.0
  0
LINE
  5
4DA1
330
1A
100
AcDbEntity
  8
寸法線
 48
10.0
100
AcDbLine
 10
291.55567369602
 20
398.664123815478
 30
0.0
 11
291.55567369602
 21
328.288623667948
 31
0.0
  0
LINE
  5
4DA2
330
1A
100
AcDbEntity
  8
寸法線
 48
10.0
100
AcDbLine
 10
197.55567369602
 20
329.538623667948
 30
0.0
 11
285.55567369602
 21
329.538623667948
 31
0.0
  0
INSERT
  5
4DA3
330
1A
100
AcDbEntity
  8
寸法線
 48
10.0
100
AcDbBlockReference
  2
_OPEN30
 10
191.55567369602
 20
329.538623667948
 30
0.0
 41
6.0
 42
6.0
 43
6.0
 50
180.0
  0
INSERT
  5
4DA4
330
1A
100
AcDbEntity
  8
寸法線
 48
10.0
100
AcDbBlockReference
  2
_OPEN30
 10
291.55567369602
 20
329.538623667948
 30
0.0
 41
6.0
 42
6.0
 43
6.0
  0
LINE
  5
4DA6
330
1A
100
AcDbEntity
  8
寸法線
 48
10.0
100
AcDbLine
 10
41.55567369602
 20
327.663623667948
 30
0.0
 11
41.55567369602
 21
308.288623667948
 31
0.0
  0
LINE
  5
4DA7
330
1A
100
AcDbEntity
  8
寸法線
 48
10.0
100
AcDbLine
 10
291.55567369602
 20
327.663623667948
 30
0.0
 11
291.55567369602
 21
308.288623667948
 31
0.0
  0
LINE
  5
4DA8
330
1A
100
AcDbEntity
  8
寸法線
 48
10.0
100
AcDbLine
 10
47.55567369602
 20
309.538623667948
 30
0.0
 11
285.55567369602
 21
309.538623667948
 31
0.0
  0
INSERT
  5
4DA9
330
1A
100
AcDbEntity
  8
寸法線
 48
10.0
100
AcDbBlockReference
  2
_OPEN30
 10
41.55567369602
 20
309.538623667948
 30
0.0
 41
6.0
 42
6.0
 43
6.0
 50
180.0
  0
INSERT
  5
4DAA
330
1A
100
AcDbEntity
  8
寸法線
 48
10.0
100
AcDbBlockReference
  2
_OPEN30
 10
291.55567369602
 20
309.538623667948
 30
0.0
 41
6.0
 42
6.0
 43
6.0
  0
LEADER
  5
4DCD
330
1A
100
AcDbEntity
  8
寸法線
 62
     1
 48
10.0
100
AcDbLeader
  3
ISO-25
 76
     3
 10
65.30567369602
 20
425.787934047206
 30
0.0
 10
35.411855496133
 20
499.538623667948
 30
0.0
 10
23.186444139305
 20
499.538623667948
 30
0.0
213
-19.05646031080343
223
0.1302507450726011
233
0.0
1001
ACAD
1000
DSTYLE
1002
{
1070
     5
1000
OPEN30
1070
   147
1040
0.625
1070
    77
1070
     0
1070
    41
1040
6.0
1070
    47
1040
0.1
1070
    48
1040
0.1
1070
    73
1070
     0
1070
   140
1040
8.0
1070
   271
1070
     1
1070
   272
1070
     1
1070
   341
1005
2AF4
1070
   342
1005
2AF4
1002
}
  0
LEADER
  5
4DCE
330
1A
100
AcDbEntity
  8
寸法線
 62
     1
 48
10.0
100
AcDbLeader
  3
ISO-25
 76
     3
 10
149.851477973967
 20
425.860275167813
 30
0.0
 10
105.259325661406
 20
499.538623667948
 30
0.0
 10
89.664362480885
 20
499.538623667948
 30
0.0
213
-19.86082106189858
223
0.1159570373395695
233
0.0
1001
ACAD
1000
DSTYLE
1002
{
1070
     5
1000
OPEN30
1070
   147
1040
0.625
1070
    77
1070
     0
1070
    41
1040
6.0
1070
    47
1040
0.1
1070
    48
1040
0.1
1070
    73
1070
     0
1070
   140
1040
8.0
1070
   271
1070
     1
1070
   272
1070
     1
1070
   341
1005
2AF4
1070
   342
1005
2AF4
1002
}
  0
LEADER
  5
4DCF
330
1A
100
AcDbEntity
  8
寸法線
 62
     1
 48
10.0
100
AcDbLeader
  3
ISO-25
 76
     3
 10
192.042308629552
 20
426.004902335756
 30
0.0
 10
199.554455897149
 20
499.538623667948
 30
0.0
 10
187.963681802045
 20
499.538623667948
 30
0.0
213
5.12626811336898
223
0.1159570373395695
233
0.0
1001
ACAD
1000
DSTYLE
1002
{
1070
     5
1000
OPEN30
1070
   147
1040
0.625
1070
    77
1070
     0
1070
    41
1040
6.0
1070
    47
1040
0.1
1070
    48
1040
0.1
1070
    73
1070
     0
1070
   140
1040
8.0
1070
   271
1070
     1
1070
   272
1070
     1
1070
   341
1005
2AF4
1070
   342
1005
2AF4
1002
}
  0
LEADER
  5
4DD0
330
1A
100
AcDbEntity
  8
寸法線
 62
     1
 48
10.0
100
AcDbLeader
  3
ISO-25
 76
     3
 10
266.78660284522
 20
426.004902335756
 30
0.0
 10
216.924486065282
 20
499.538623667948
 30
0.0
 10
229.242555879874
 20
499.538623667948
 30
0.0
213
-16.8515957087142
223
0.1159570373395695
233
0.0
1001
ACAD
1000
DSTYLE
1002
{
1070
     5
1000
OPEN30
1070
   147
1040
0.625
1070
    77
1070
     0
1070
    41
1040
6.0
1070
    47
1040
0.1
1070
    48
1040
0.1
1070
    73
1070
     0
1070
   140
1040
8.0
1070
   271
1070
     1
1070
   272
1070
     1
1070
   341
1005
2AF4
1070
   342
1005
2AF4
1002
}
  0
LEADER
  5
4DD8
330
1A
100
AcDbEntity
  8
寸法線
 48
10.0
100
AcDbLeader
  3
ISO-25
 76
     3
 10
306.729823651551
 20
431.878212951338
 30
0.0
 10
284.599980419079
 20
499.538623667948
 30
0.0
 10
297.85864414926
 20
499.519443003275
 30
0.0
213
-31.40367648370687
223
0.04543017308611752
233
0.0
1001
ACAD
1000
DSTYLE
1002
{
1070
     5
1000
OPEN30
1070
   147
1040
0.625
1070
    77
1070
     0
1070
    41
1040
6.0
1070
    47
1040
0.1
1070
    48
1040
0.1
1070
    73
1070
     0
1070
   140
1040
8.0
1070
   271
1070
     1
1070
   272
1070
     1
1070
   341
1005
2AF4
1070
   342
1005
2AF4
1002
}
  0
LEADER
  5
4DDA
330
1A
100
AcDbEntity
  8
寸法線
 48
10.0
100
AcDbLeader
  3
ISO-25
 76
     3
 10
494.969538110853
 20
467.311358139893
 30
0.0
 10
494.969538110853
 20
499.561029733147
 30
0.0
 10
504.966740703793
 20
499.561029733147
 30
0.0
1001
ACAD
1000
DSTYLE
1002
{
1070
     5
1000
OPEN30
1070
   147
1040
0.625
1070
    77
1070
     0
1070
    41
1040
6.0
1070
    47
1040
0.1
1070
    48
1040
0.1
1070
    73
1070
     0
1070
   140
1040
8.0
1070
   271
1070
     1
1070
   272
1070
     1
1070
   341
1005
2AF4
1070
   342
1005
2AF4
1002
}
  0
LEADER
  5
4DDB
330
1A
100
AcDbEntity
  8
寸法線
 48
10.0
100
AcDbLeader
  3
ISO-25
 76
     3
 10
556.001039072411
 20
471.906627139065
 30
0.0
 10
563.643891898318
 20
499.538623667948
 30
0.0
 10
575.502159655822
 20
499.538623667948
 30
0.0
213
16.45691305354683
223
0.04738891254913824
233
0.0
1001
ACAD
1000
DSTYLE
1002
{
1070
     5
1000
OPEN30
1070
   147
1040
0.625
1070
    77
1070
     0
1070
    41
1040
6.0
1070
    47
1040
0.1
1070
    48
1040
0.1
1070
    73
1070
     0
1070
   140
1040
8.0
1070
   271
1070
     1
1070
   272
1070
     1
1070
   341
1005
2AF4
1070
   342
1005
2AF4
1002
}
  0
LEADER
  5
4DDC
330
1A
100
AcDbEntity
  8
寸法線
 48
10.0
100
AcDbLeader
  3
ISO-25
 76
     3
 10
582.197735509927
 20
460.428574575371
 30
0.0
 10
602.522600313748
 20
499.538623667948
 30
0.0
 10
611.144034481184
 20
499.538623667948
 30
0.0
213
0.0
223
0.04694658364195448
233
0.0
1001
ACAD
1000
DSTYLE
1002
{
1070
     5
1000
OPEN30
1070
   147
1040
0.625
1070
    77
1070
     0
1070
    41
1040
6.0
1070
    47
1040
0.1
1070
    48
1040
0.1
1070
    73
1070
     0
1070
   140
1040
8.0
1070
   271
1070
     1
1070
   272
1070
     1
1070
   341
1005
2AF4
1070
   342
1005
2AF4
1002
}
  0
LEADER
  5
4EB6
330
1A
100
AcDbEntity
  8
寸法線
 48
10.0
100
AcDbLeader
  3
ISO-25
 76
     3
 10
538.063573962319
 20
349.598194725029
 30
0.0
 10
567.394051933953
 20
276.506785619745
 30
0.0
 10
581.378510956221
 20
276.506785619745
 30
0.0
213
-24.20759789132285
223
0.0
233
0.0
1001
ACAD
1000
DSTYLE
1002
{
1070
     5
1000
OPEN30
1070
   147
1040
0.625
1070
    77
1070
     0
1070
    41
1040
6.0
1070
    47
1040
0.1
1070
    48
1040
0.1
1070
    73
1070
     0
1070
   140
1040
8.0
1070
   271
1070
     1
1070
   272
1070
     1
1070
   341
1005
2AF4
1070
   342
1005
2AF4
1002
}
  0
ARC
  5
4F93
330
1A
100
AcDbEntity
  8
細線
 48
10.0
100
AcDbCircle
 10
231.83301744602
 20
420.412934047206
 30
0.0
 40
8.222656249999796
100
AcDbArc
 50
319.180234332394
 51
40.819765667606
  0
ARC
  5
4F94
330
1A
100
AcDbEntity
  8
細線
 48
10.0
100
AcDbCircle
 10
231.83301744602
 20
409.662934047206
 30
0.0
 40
8.222656249999796
100
AcDbArc
 50
319.180234332394
 51
40.819765667606
  0
ARC
  5
4F95
330
1A
100
AcDbEntity
  8
細線
 48
10.0
100
AcDbCircle
 10
244.278329946019
 20
420.412934047206
 30
0.0
 40
8.222656249999796
100
AcDbArc
 50
139.180234332394
 51
220.819765667606
  0
ARC
  5
4F96
330
1A
100
AcDbEntity
  8
細線
 48
10.0
100
AcDbCircle
 10
251.278329946019
 20
420.412934047206
 30
0.0
 40
8.222656249999796
100
AcDbArc
 50
139.180234332394
 51
220.819765667606
  0
ARC
  5
4F97
330
1A
100
AcDbEntity
  8
細線
 48
10.0
100
AcDbCircle
 10
238.833017446019
 20
409.662934047206
 30
0.0
 40
8.222656249999796
100
AcDbArc
 50
319.180234332394
 51
40.819765667606
  0
ARC
  5
4F98
330
1A
100
AcDbEntity
  8
細線
 48
10.0
100
AcDbCircle
 10
251.278329946019
 20
409.662934047206
 30
0.0
 40
8.222656249999796
100
AcDbArc
 50
139.180234332394
 51
220.819765667606
  0
ARC
  5
4F99
330
1A
100
AcDbEntity
  8
細線
 48
10.0
100
AcDbCircle
 10
169.528329946019
 20
420.412934047206
 30
0.0
 40
8.222656249999796
100
AcDbArc
 50
139.180234332394
 51
220.819765667606
  0
ARC
  5
4F9A
330
1A
100
AcDbEntity
  8
細線
 48
10.0
100
AcDbCircle
 10
157.08301744602
 20
420.412934047206
 30
0.0
 40
8.222656249999796
100
AcDbArc
 50
319.180234332394
 51
40.819765667606
  0
ARC
  5
4F9B
330
1A
100
AcDbEntity
  8
細線
 48
10.0
100
AcDbCircle
 10
157.08301744602
 20
409.662934047206
 30
0.0
 40
8.222656249999796
100
AcDbArc
 50
319.180234332394
 51
40.819765667606
  0
ARC
  5
4F9C
330
1A
100
AcDbEntity
  8
細線
 48
10.0
100
AcDbCircle
 10
176.528329946019
 20
409.662934047206
 30
0.0
 40
8.222656249999796
100
AcDbArc
 50
139.180234332394
 51
220.819765667606
  0
ARC
  5
4F9D
330
1A
100
AcDbEntity
  8
細線
 48
10.0
100
AcDbCircle
 10
164.08301744602
 20
409.662934047206
 30
0.0
 40
8.222656249999796
100
AcDbArc
 50
319.180234332394
 51
40.819765667606
  0
ARC
  5
4F9E
330
1A
100
AcDbEntity
  8
細線
 48
10.0
100
AcDbCircle
 10
176.528329946019
 20
420.412934047206
 30
0.0
 40
8.222656249999796
100
AcDbArc
 50
139.180234332394
 51
220.819765667606
  0
DIMENSION
  5
4F9F
330
1A
100
AcDbEntity
  8
寸法線
 48
10.0
100
AcDbDimension
  2
*D23
 10
178.917205439747
 20
404.287934047206
 30
0.0
 11
178.917205439747
 21
444.778619472155
 31
0.0
 70
   160
  1
φ<>
  3
ISO-25
100
AcDbAlignedDimension
 13
191.55567369602
 23
425.787934047206
 33
0.0
 14
191.55567369602
 24
404.287934047206
 34
0.0
 50
90.0
100
AcDbRotatedDimension
1001
ACAD
1000
DSTYLE
1002
{
1070
     5
1000
OPEN30
1070
    76
1070
     1
1070
    75
1070
     1
1070
   282
1070
     0
1070
   281
1070
     0
1070
    41
1040
6.0
1070
    47
1040
0.1
1070
    48
1040
0.1
1070
    73
1070
     0
1070
   140
1040
8.0
1070
   271
1070
     1
1070
   272
1070
     1
1070
   341
1005
2AF4
1002
}
  0
LWPOLYLINE
  5
4FA1
330
1A
100
AcDbEntity
  8
外形線
100
AcDbPolyline
 90
        6
 70
     0
 43
0.0
 10
238.05567369602
 20
425.787934047206
 10
192.05567369602
 20
425.787934047206
 10
191.55567369602
 20
425.287934047206
 10
191.55567369602
 20
404.787934047206
 10
192.05567369602
 20
404.287934047206
 10
238.055673696019
 20
404.287934047206
  0
LWPOLYLINE
  5
4FA2
330
1A
100
AcDbEntity
  8
外形線
100
AcDbPolyline
 90
        6
 70
     0
 43
0.0
 10
163.30567369602
 20
425.787934047206
 10
142.05567369602
 20
425.787934047206
 10
141.55567369602
 20
425.287934047206
 10
141.55567369602
 20
404.787934047206
 10
142.05567369602
 20
404.287934047206
 10
163.305673696019
 20
404.287934047206
  0
LWPOLYLINE
  5
4FA5
330
1A
100
AcDbEntity
  8
外形線
100
AcDbPolyline
 90
        4
 70
     0
 43
0.0
 10
170.305673696019
 20
404.287934047206
 10
191.55567369602
 20
404.287934047206
 10
191.55567369602
 20
425.787934047206
 10
170.305673696019
 20
425.787934047206
  0
DIMENSION
  5
4FA7
330
1A
100
AcDbEntity
  8
寸法線
 48
10.0
100
AcDbDimension
  2
*D25
 10
217.209052066715
 20
404.287934047206
 30
0.0
 11
217.209052066715
 21
444.778619472155
 31
0.0
 70
   160
  1
φ<>
  3
ISO-25
100
AcDbAlignedDimension
 13
228.872918225131
 23
425.787934047206
 33
0.0
 14
228.872918225131
 24
404.287934047206
 34
0.0
 50
90.0
100
AcDbRotatedDimension
1001
ACAD
1000
DSTYLE
1002
{
1070
     5
1000
OPEN30
1070
    76
1070
     1
1070
    75
1070
     1
1070
    41
1040
6.0
1070
    47
1040
0.1
1070
    48
1040
0.1
1070
    73
1070
     0
1070
   140
1040
8.0
1070
   271
1070
     1
1070
   272
1070
     1
1070
   341
1005
2AF4
1002
}
  0
LINE
  5
5007
330
1A
100
AcDbEntity
  8
外形線
100
AcDbLine
 10
245.055673696019
 20
404.287934047206
 30
0.0
 11
291.55567369602
 21
404.287934047206
 31
0.0
  0
LINE
  5
5009
330
1A
100
AcDbEntity
  8
外形線
100
AcDbLine
 10
291.55567369602
 20
425.787934047206
 30
0.0
 11
245.05567369602
 21
425.787934047206
 31
0.0
  0
LINE
  5
50C4
330
1A
100
AcDbEntity
  8
寸法線
100
AcDbLine
 10
141.148849066727
 20
163.487064141874
 30
0.0
 11
695.091191184076
 21
163.487064141874
 31
0.0
  0
LINE
  5
50C5
330
1A
100
AcDbEntity
  8
寸法線
100
AcDbLine
 10
173.148819066727
 20
150.434438034297
 30
0.0
 11
173.148819066727
 21
268.925446894912
 31
0.0
  0
LINE
  5
50C6
330
1A
100
AcDbEntity
  8
寸法線
100
AcDbLine
 10
141.148849066727
 20
254.855446894912
 30
0.0
 11
695.091191184076
 21
254.855446894912
 31
0.0
  0
LINE
  5
50C7
330
1A
100
AcDbEntity
  8
寸法線
100
AcDbLine
 10
141.148849066727
 20
268.925446894912
 30
0.0
 11
695.091191184076
 21
268.925446894912
 31
0.0
  0
LINE
  5
50C8
330
1A
100
AcDbEntity
  8
寸法線
100
AcDbLine
 10
141.148849066727
 20
150.434438034297
 30
0.0
 11
141.148849066727
 21
268.925446894912
 31
0.0
  0
LINE
  5
50C9
330
1A
100
AcDbEntity
  8
寸法線
100
AcDbLine
 10
385.096451536775
 20
150.434438034297
 30
0.0
 11
385.096451536775
 21
268.925446894912
 31
0.0
  0
LINE
  5
50CA
330
1A
100
AcDbEntity
  8
寸法線
100
AcDbLine
 10
141.148849066727
 20
228.750194679759
 30
0.0
 11
695.091191184076
 21
228.750194679759
 31
0.0
  0
LINE
  5
50CB
330
1A
100
AcDbEntity
  8
寸法線
100
AcDbLine
 10
141.148849066727
 20
215.697568572182
 30
0.0
 11
695.091191184076
 21
215.697568572182
 31
0.0
  0
LINE
  5
50CC
330
1A
100
AcDbEntity
  8
寸法線
100
AcDbLine
 10
141.148849066727
 20
202.644942464606
 30
0.0
 11
695.091191184076
 21
202.644942464606
 31
0.0
  0
LINE
  5
50CD
330
1A
100
AcDbEntity
  8
寸法線
100
AcDbLine
 10
141.148849066727
 20
189.592316357028
 30
0.0
 11
695.091191184076
 21
189.592316357028
 31
0.0
  0
LINE
  5
50CE
330
1A
100
AcDbEntity
  8
寸法線
100
AcDbLine
 10
141.148849066727
 20
176.539690249451
 30
0.0
 11
695.091191184076
 21
176.539690249451
 31
0.0
  0
LINE
  5
50CF
330
1A
100
AcDbEntity
  8
寸法線
100
AcDbLine
 10
416.852770101063
 20
150.434438034297
 30
0.0
 11
416.852770101063
 21
268.925446894912
 31
0.0
  0
LINE
  5
50D0
330
1A
100
AcDbEntity
  8
寸法線
100
AcDbLine
 10
141.148849066727
 20
241.802820787335
 30
0.0
 11
695.091191184076
 21
241.802820787335
 31
0.0
  0
MTEXT
  5
50D1
102
{ACAD_XDICTIONARY
360
50D2
102
}
330
1A
100
AcDbEntity
  8
寸法線
 48
10.0
100
AcDbMText
 10
208.148819066727
 20
266.068665863518
 30
0.0
 40
8.0
 41
70.0
 71
     2
 72
     5
  1
MODEL\P\W0.9;TSA-C1SA-025\PTSA-C1SA-030\PTSA-C1SA-035\PTSA-C1SA-040\PTSA-C1SA-045\PTSA-C1SA-050\PTSA-C1SA-055\PTSA-C1SA-060
1001
ACADANNOTATIVE
1000
AnnotativeData
1002
{
1070
     1
1070
     0
1002
}
1001
ACAD
1000
MTEXTBEGIN
1070
    44
1040
0.99
1000
MTEXTEND
  0
LINE
  5
50D5
330
1A
100
AcDbEntity
  8
寸法線
 48
10.0
100
AcDbLine
 10
243.148819066727
 20
268.925446894912
 30
0.0
 11
243.148819066727
 21
150.434438034297
 31
0.0
  0
SPLINE
  5
50D7
330
1A
100
AcDbEntity
  8
寸法線
 48
10.0
100
AcDbSpline
210
0.0
220
0.0
230
1.0
 70
  1064
 71
     3
 72
    13
 73
     9
 74
     7
 42
0.000000001
 43
0.0000000001
 44
0.0000000001
 40
0.0
 40
0.0
 40
0.0
 40
0.0
 40
3.546053604694618
 40
9.278996093298897
 40
13.89970108471582
 40
17.09539662994939
 40
18.79470455702447
 40
20.02704699455832
 40
20.02704699455832
 40
20.02704699455832
 40
20.02704699455832
 10
254.5752108023777
 20
258.0442225868989
 30
0.0
 10
255.629739071456
 20
258.531351321103
 30
0.0
 10
258.3891343823719
 20
259.8060262486422
 30
0.0
 10
259.0540712887323
 20
268.7044831214609
 30
0.0
 10
255.1207682695856
 20
262.3043962975186
 30
0.0
 10
255.2930044657869
 20
259.0553787389501
 30
0.0
 10
257.3652861634362
 20
257.7825596621403
 30
0.0
 10
258.2818902416722
 20
258.2410767460099
 30
0.0
 10
258.6671920217422
 20
258.4338180318085
 30
0.0
 11
254.5752108023777
 21
258.0442225868989
 31
0.0
 11
257.4006262353265
 21
260.1870067100953
 31
0.0
 11
258.0339091285342
 21
265.884864408811
 31
0.0
 11
255.549492728676
 21
261.9888934425665
 31
0.0
 11
255.9879197151384
 21
258.8234153119569
 31
0.0
 11
257.4980541886992
 21
258.0442225868989
 31
0.0
 11
258.6671920217422
 21
258.4338180318085
 31
0.0
  0
SPLINE
  5
50D8
330
1A
100
AcDbEntity
  8
寸法線
 48
10.0
100
AcDbSpline
210
0.0
220
0.0
230
1.0
 70
  1064
 71
     3
 72
    13
 73
     9
 74
     7
 42
0.000000001
 43
0.0000000001
 44
0.0000000001
 40
0.0
 40
0.0
 40
0.0
 40
0.0
 40
3.546053604694618
 40
9.278996093298897
 40
13.89970108471582
 40
17.09539662994939
 40
18.79470455702447
 40
20.02704699455832
 40
20.02704699455832
 40
20.02704699455832
 40
20.02704699455832
 10
280.3796506156378
 20
258.0442225868989
 30
0.0
 10
281.4341788847161
 20
258.531351321103
 30
0.0
 10
284.193574195632
 20
259.8060262486422
 30
0.0
 10
284.8585111019923
 20
268.7044831214609
 30
0.0
 10
280.9252080828456
 20
262.3043962975186
 30
0.0
 10
281.0974442790469
 20
259.0553787389501
 30
0.0
 10
283.1697259766963
 20
257.7825596621403
 30
0.0
 10
284.0863300549322
 20
258.2410767460099
 30
0.0
 10
284.4716318350023
 20
258.4338180318085
 30
0.0
 11
280.3796506156378
 21
258.0442225868989
 31
0.0
 11
283.2050660485866
 21
260.1870067100953
 31
0.0
 11
283.8383489417943
 21
265.884864408811
 31
0.0
 11
281.353932541936
 21
261.9888934425665
 31
0.0
 11
281.7923595283984
 21
258.8234153119569
 31
0.0
 11
283.3024940019592
 21
258.0442225868989
 31
0.0
 11
284.4716318350023
 21
258.4338180318085
 31
0.0
  0
LINE
  5
50DD
330
1A
100
AcDbEntity
  8
寸法線
 48
10.0
100
AcDbLine
 10
270.564940893279
 20
268.925446894912
 30
0.0
 11
270.564940893279
 21
150.434438034297
 31
0.0
  0
LINE
  5
50DE
330
1A
100
AcDbEntity
  8
寸法線
 48
10.0
100
AcDbLine
 10
296.415516010791
 20
268.925446894912
 30
0.0
 11
296.415516010791
 21
150.434438034297
 31
0.0
  0
LINE
  5
50DF
330
1A
100
AcDbEntity
  8
寸法線
 48
10.0
100
AcDbLine
 10
320.700544419263
 20
268.925446894912
 30
0.0
 11
320.700544419263
 21
150.434438034297
 31
0.0
  0
LINE
  5
50E0
330
1A
100
AcDbEntity
  8
寸法線
 48
10.0
100
AcDbLine
 10
346.551119536775
 20
268.925446894912
 30
0.0
 11
346.551119536775
 21
150.434438034297
 31
0.0
  0
TEXT
  5
50E1
330
1A
100
AcDbEntity
  8
寸法線
 48
10.0
100
AcDbText
 10
286.837679413122
 20
258.128550326243
 30
0.0
 40
5.2
  1
1
100
AcDbText
  0
SPLINE
  5
50E2
330
1A
100
AcDbEntity
  8
寸法線
 48
10.0
100
AcDbSpline
210
0.0
220
0.0
230
1.0
 70
  1064
 71
     3
 72
    13
 73
     9
 74
     7
 42
0.000000001
 43
0.0000000001
 44
0.0000000001
 40
0.0
 40
0.0
 40
0.0
 40
0.0
 40
3.546053604694664
 40
9.278996093298936
 40
13.89970108471586
 40
17.09539662994943
 40
18.79470455702451
 40
20.02704699455836
 40
20.02704699455836
 40
20.02704699455836
 40
20.02704699455836
 10
304.6646790241095
 20
258.0442225868989
 30
0.0
 10
305.7192072931879
 20
258.531351321103
 30
0.0
 10
308.4786026041039
 20
259.8060262486422
 30
0.0
 10
309.1435395104638
 20
268.7044831214607
 30
0.0
 10
305.2102364913175
 20
262.3043962975186
 30
0.0
 10
305.3824726875186
 20
259.0553787389502
 30
0.0
 10
307.4547543851679
 20
257.7825596621403
 30
0.0
 10
308.3713584634039
 20
258.2410767460099
 30
0.0
 10
308.756660243474
 20
258.4338180318085
 30
0.0
 11
304.6646790241095
 21
258.0442225868989
 31
0.0
 11
307.4900944570583
 21
260.1870067100953
 31
0.0
 11
308.123377350266
 21
265.884864408811
 31
0.0
 11
305.6389609504077
 21
261.9888934425665
 31
0.0
 11
306.0773879368701
 21
258.8234153119569
 31
0.0
 11
307.5875224104309
 21
258.0442225868989
 31
0.0
 11
308.756660243474
 21
258.4338180318085
 31
0.0
  0
TEXT
  5
50E3
330
1A
100
AcDbEntity
  8
寸法線
 48
10.0
100
AcDbText
 10
311.122707821594
 20
258.128550326243
 30
0.0
 40
5.2
  1
2
100
AcDbText
  0
TEXT
  5
50E4
330
1A
100
AcDbEntity
  8
寸法線
 48
10.0
100
AcDbText
 10
336.973282939105
 20
258.128550326243
 30
0.0
 40
5.2
  1
3
100
AcDbText
  0
SPLINE
  5
50E5
330
1A
100
AcDbEntity
  8
寸法線
 48
10.0
100
AcDbSpline
210
0.0
220
0.0
230
1.0
 70
  1064
 71
     3
 72
    13
 73
     9
 74
     7
 42
0.000000001
 43
0.0000000001
 44
0.0000000001
 40
0.0
 40
0.0
 40
0.0
 40
0.0
 40
3.546053604694664
 40
9.278996093298936
 40
13.89970108471589
 40
17.09539662994947
 40
18.79470455702455
 40
20.0270469945584
 40
20.0270469945584
 40
20.0270469945584
 40
20.0270469945584
 10
330.5152541416214
 20
258.0442225868989
 30
0.0
 10
331.5697824106997
 20
258.531351321103
 30
0.0
 10
334.3291777216156
 20
259.8060262486421
 30
0.0
 10
334.9941146279757
 20
268.7044831214608
 30
0.0
 10
331.0608116088293
 20
262.3043962975187
 30
0.0
 10
331.2330478050304
 20
259.0553787389501
 30
0.0
 10
333.3053295026799
 20
257.7825596621404
 30
0.0
 10
334.2219335809158
 20
258.2410767460099
 30
0.0
 10
334.6072353609858
 20
258.4338180318085
 30
0.0
 11
330.5152541416214
 21
258.0442225868989
 31
0.0
 11
333.3406695745702
 21
260.1870067100953
 31
0.0
 11
333.9739524677778
 21
265.884864408811
 31
0.0
 11
331.4895360679196
 21
261.9888934425665
 31
0.0
 11
331.927963054382
 21
258.8234153119569
 31
0.0
 11
333.4380975279428
 21
258.0442225868989
 31
0.0
 11
334.6072353609858
 21
258.4338180318085
 31
0.0
  0
LINE
  5
50E8
330
1A
100
AcDbEntity
  8
寸法線
100
AcDbLine
 10
419.38727014974
 20
150.434438034297
 30
0.0
 11
419.38727014974
 21
268.925446894912
 31
0.0
  0
MTEXT
  5
50EA
102
{ACAD_XDICTIONARY
360
50EB
102
}
330
1A
100
AcDbEntity
  8
寸法線
 48
10.0
100
AcDbMText
 10
486.38724014974
 20
266.068665863518
 30
0.0
 40
8.0
 41
70.0
 71
     2
 72
     5
  1
MODEL\P\W0.9;TSA-C1SA-065\PTSA-C1SA-070\PTSA-C1SA-075\PTSA-C1SA-080\PTSA-C1SA-085\PTSA-C1SA-090\PTSA-C1SA-095\PTSA-C1SA-100
1001
ACADANNOTATIVE
1000
AnnotativeData
1002
{
1070
     1
1070
     0
1002
}
1001
ACAD
1000
MTEXTBEGIN
1070
    44
1040
0.99
1000
MTEXTEND
  0
SPLINE
  5
50EE
330
1A
100
AcDbEntity
  8
寸法線
 48
10.0
100
AcDbSpline
210
0.0
220
0.0
230
1.0
 70
  1064
 71
     3
 72
    13
 73
     9
 74
     7
 42
0.000000001
 43
0.0000000001
 44
0.0000000001
 40
0.0
 40
0.0
 40
0.0
 40
0.0
 40
3.546053604694664
 40
9.278996093298941
 40
13.89970108471586
 40
17.09539662994944
 40
18.79470455702452
 40
20.02704699455827
 40
20.02704699455827
 40
20.02704699455827
 40
20.02704699455827
 10
532.8136318853904
 20
258.0442225868989
 30
0.0
 10
533.8681601544686
 20
258.531351321103
 30
0.0
 10
536.6275554653846
 20
259.8060262486421
 30
0.0
 10
537.292492371745
 20
268.7044831214609
 30
0.0
 10
533.3591893525984
 20
262.3043962975186
 30
0.0
 10
533.5314255487998
 20
259.0553787389503
 30
0.0
 10
535.6037072464487
 20
257.7825596621403
 30
0.0
 10
536.5203113246849
 20
258.2410767460099
 30
0.0
 10
536.9056131047548
 20
258.4338180318085
 30
0.0
 11
532.8136318853904
 21
258.0442225868989
 31
0.0
 11
535.6390473183392
 21
260.1870067100953
 31
0.0
 11
536.2723302115469
 21
265.884864408811
 31
0.0
 11
533.7879138116887
 21
261.9888934425665
 31
0.0
 11
534.2263407981511
 21
258.8234153119569
 31
0.0
 11
535.7364752717119
 21
258.0442225868989
 31
0.0
 11
536.9056131047548
 21
258.4338180318085
 31
0.0
  0
SPLINE
  5
50EF
330
1A
100
AcDbEntity
  8
寸法線
 48
10.0
100
AcDbSpline
210
0.0
220
0.0
230
1.0
 70
  1064
 71
     3
 72
    13
 73
     9
 74
     7
 42
0.000000001
 43
0.0000000001
 44
0.0000000001
 40
0.0
 40
0.0
 40
0.0
 40
0.0
 40
3.546053604694664
 40
9.278996093298941
 40
13.89970108471586
 40
17.09539662994944
 40
18.79470455702452
 40
20.02704699455827
 40
20.02704699455827
 40
20.02704699455827
 40
20.02704699455827
 10
557.0525249896102
 20
258.0442225868989
 30
0.0
 10
558.1070532586884
 20
258.531351321103
 30
0.0
 10
560.8664485696044
 20
259.8060262486421
 30
0.0
 10
561.5313854759648
 20
268.7044831214609
 30
0.0
 10
557.5980824568182
 20
262.3043962975186
 30
0.0
 10
557.7703186530198
 20
259.0553787389503
 30
0.0
 10
559.8426003506686
 20
257.7825596621403
 30
0.0
 10
560.7592044289047
 20
258.2410767460099
 30
0.0
 10
561.1445062089747
 20
258.4338180318085
 30
0.0
 11
557.0525249896102
 21
258.0442225868989
 31
0.0
 11
559.877940422559
 21
260.1870067100953
 31
0.0
 11
560.5112233157668
 21
265.884864408811
 31
0.0
 11
558.0268069159085
 21
261.9888934425665
 31
0.0
 11
558.465233902371
 21
258.8234153119569
 31
0.0
 11
559.9753683759318
 21
258.0442225868989
 31
0.0
 11
561.1445062089747
 21
258.4338180318085
 31
0.0
  0
TEXT
  5
50F0
330
1A
100
AcDbEntity
  8
寸法線
 48
10.0
100
AcDbText
 10
563.510553787094
 20
258.128550326243
 30
0.0
 40
5.2
  1
1
100
AcDbText
  0
SPLINE
  5
50F1
330
1A
100
AcDbEntity
  8
寸法線
 48
10.0
100
AcDbSpline
210
0.0
220
0.0
230
1.0
 70
  1064
 71
     3
 72
    13
 73
     9
 74
     7
 42
0.000000001
 43
0.0000000001
 44
0.0000000001
 40
0.0
 40
0.0
 40
0.0
 40
0.0
 40
3.546053604694664
 40
9.278996093298941
 40
13.89970108471586
 40
17.09539662994944
 40
18.79470455702452
 40
20.02704699455827
 40
20.02704699455827
 40
20.02704699455827
 40
20.02704699455827
 10
582.9031001071221
 20
258.0442225868989
 30
0.0
 10
583.9576283762003
 20
258.531351321103
 30
0.0
 10
586.7170236871164
 20
259.8060262486421
 30
0.0
 10
587.3819605934766
 20
268.7044831214609
 30
0.0
 10
583.4486575743301
 20
262.3043962975186
 30
0.0
 10
583.6208937705317
 20
259.0553787389503
 30
0.0
 10
585.6931754681805
 20
257.7825596621403
 30
0.0
 10
586.6097795464167
 20
258.2410767460099
 30
0.0
 10
586.9950813264866
 20
258.4338180318085
 30
0.0
 11
582.9031001071221
 21
258.0442225868989
 31
0.0
 11
585.7285155400709
 21
260.1870067100953
 31
0.0
 11
586.3617984332786
 21
265.884864408811
 31
0.0
 11
583.8773820334204
 21
261.9888934425665
 31
0.0
 11
584.3158090198829
 21
258.8234153119569
 31
0.0
 11
585.8259434934437
 21
258.0442225868989
 31
0.0
 11
586.9950813264866
 21
258.4338180318085
 31
0.0
  0
TEXT
  5
50F2
330
1A
100
AcDbEntity
  8
寸法線
 48
10.0
100
AcDbText
 10
589.361128904606
 20
258.128550326243
 30
0.0
 40
5.2
  1
2
100
AcDbText
  0
SPLINE
  5
50F3
330
1A
100
AcDbEntity
  8
寸法線
 48
10.0
100
AcDbSpline
210
0.0
220
0.0
230
1.0
 70
  1064
 71
     3
 72
    13
 73
     9
 74
     7
 42
0.000000001
 43
0.0000000001
 44
0.0000000001
 40
0.0
 40
0.0
 40
0.0
 40
0.0
 40
3.546053604694664
 40
9.278996093298941
 40
13.89970108471586
 40
17.09539662994944
 40
18.79470455702452
 40
20.02704699455827
 40
20.02704699455827
 40
20.02704699455827
 40
20.02704699455827
 10
608.753675224634
 20
258.0442225868989
 30
0.0
 10
609.8082034937122
 20
258.531351321103
 30
0.0
 10
612.5675988046281
 20
259.8060262486421
 30
0.0
 10
613.2325357109887
 20
268.7044831214609
 30
0.0
 10
609.299232691842
 20
262.3043962975186
 30
0.0
 10
609.4714688880434
 20
259.0553787389503
 30
0.0
 10
611.5437505856924
 20
257.7825596621403
 30
0.0
 10
612.4603546639285
 20
258.2410767460099
 30
0.0
 10
612.8456564439985
 20
258.4338180318085
 30
0.0
 11
608.753675224634
 21
258.0442225868989
 31
0.0
 11
611.5790906575828
 21
260.1870067100953
 31
0.0
 11
612.2123735507905
 21
265.884864408811
 31
0.0
 11
609.7279571509323
 21
261.9888934425665
 31
0.0
 11
610.1663841373947
 21
258.8234153119569
 31
0.0
 11
611.6765186109556
 21
258.0442225868989
 31
0.0
 11
612.8456564439985
 21
258.4338180318085
 31
0.0
  0
TEXT
  5
50F4
330
1A
100
AcDbEntity
  8
寸法線
 48
10.0
100
AcDbText
 10
615.211704022118
 20
258.128550326243
 30
0.0
 40
5.2
  1
3
100
AcDbText
  0
LINE
  5
50FB
330
1A
100
AcDbEntity
  8
寸法線
100
AcDbLine
 10
451.38724014974
 20
150.434438034297
 30
0.0
 11
451.38724014974
 21
268.925446894912
 31
0.0
  0
LINE
  5
50FC
330
1A
100
AcDbEntity
  8
寸法線
 48
10.0
100
AcDbLine
 10
521.38724014974
 20
268.925446894912
 30
0.0
 11
521.38724014974
 21
150.434438034297
 31
0.0
  0
LINE
  5
50FD
330
1A
100
AcDbEntity
  8
寸法線
 48
10.0
100
AcDbLine
 10
547.237815267252
 20
268.925446894912
 30
0.0
 11
547.237815267252
 21
150.434438034297
 31
0.0
  0
LINE
  5
50FE
330
1A
100
AcDbEntity
  8
寸法線
 48
10.0
100
AcDbLine
 10
575.173690026935
 20
268.925446894912
 30
0.0
 11
575.173690026935
 21
150.434438034297
 31
0.0
  0
LINE
  5
50FF
330
1A
100
AcDbEntity
  8
寸法線
 48
10.0
100
AcDbLine
 10
598.938965502276
 20
268.925446894912
 30
0.0
 11
598.938965502276
 21
150.434438034297
 31
0.0
  0
LINE
  5
5100
330
1A
100
AcDbEntity
  8
寸法線
 48
10.0
100
AcDbLine
 10
624.789540619787
 20
268.925446894912
 30
0.0
 11
624.789540619787
 21
150.434438034297
 31
0.0
  0
LINE
  5
5101
330
1A
100
AcDbEntity
  8
寸法線
100
AcDbLine
 10
663.334872619787
 20
150.434438034297
 30
0.0
 11
663.334872619787
 21
268.925446894912
 31
0.0
  0
LINE
  5
5102
330
1A
100
AcDbEntity
  8
寸法線
100
AcDbLine
 10
695.091191184076
 20
150.434438034297
 30
0.0
 11
695.091191184076
 21
268.925446894912
 31
0.0
  0
LINE
  5
5105
330
1A
100
AcDbEntity
  8
寸法線
100
AcDbLine
 10
141.148849066727
 20
150.434438034297
 30
0.0
 11
695.091191184076
 21
150.434438034297
 31
0.0
  0
MTEXT
  5
5284
102
{ACAD_XDICTIONARY
360
5285
102
}
330
1A
100
AcDbEntity
  8
寸法線
 48
10.0
100
AcDbMText
 10
255.921886131368
 20
252.081257846279
 30
0.0
 40
8.0
 41
23.854899029718
 71
     2
 72
     5
  1
250\P300\P350\P400\P450\P500\P550\P600
1001
ACADANNOTATIVE
1000
AnnotativeData
1002
{
1070
     1
1070
     0
1002
}
1001
ACAD
1000
MTEXTBEGIN
1070
    44
1040
0.98
1000
MTEXTEND
  0
MTEXT
  5
5288
102
{ACAD_XDICTIONARY
360
5289
102
}
330
1A
100
AcDbEntity
  8
寸法線
 48
10.0
100
AcDbMText
 10
281.921649229432
 20
252.081257846279
 30
0.0
 40
8.0
 41
23.854899029718
 71
     2
 72
     5
  1
100\P100\P100\P100\P100\P100\P150\P150
1001
ACADANNOTATIVE
1000
AnnotativeData
1002
{
1070
     1
1070
     0
1002
}
1001
ACAD
1000
MTEXTBEGIN
1070
    44
1040
0.98
1000
MTEXTEND
  0
MTEXT
  5
528C
102
{ACAD_XDICTIONARY
360
528D
102
}
330
1A
100
AcDbEntity
  8
寸法線
 48
10.0
100
AcDbMText
 10
307.652804886319
 20
252.081257846279
 30
0.0
 40
8.0
 41
23.854899029718
 71
     2
 72
     5
  1
50\P50\P50\P50\P50\P50\P50\P50
1001
ACADANNOTATIVE
1000
AnnotativeData
1002
{
1070
     1
1070
     0
1002
}
1001
ACAD
1000
MTEXTBEGIN
1070
    44
1040
0.98
1000
MTEXTEND
  0
MTEXT
  5
5290
102
{ACAD_XDICTIONARY
360
5291
102
}
330
1A
100
AcDbEntity
  8
寸法線
 48
10.0
100
AcDbMText
 10
333.240762103674
 20
252.081257846279
 30
0.0
 40
8.0
 41
23.854899029718
 71
     2
 72
     5
  1
100\P150\P200\P250\P300\P350\P350\P400
1001
ACADANNOTATIVE
1000
AnnotativeData
1002
{
1070
     1
1070
     0
1002
}
1001
ACAD
1000
MTEXTBEGIN
1070
    44
1040
0.98
1000
MTEXTEND
  0
MTEXT
  5
5294
102
{ACAD_XDICTIONARY
360
5295
102
}
330
1A
100
AcDbEntity
  8
寸法線
 48
10.0
100
AcDbMText
 10
560.536917723956
 20
252.409121191738
 30
0.0
 40
8.0
 41
23.854899029718
 71
     2
 72
     5
  1
150\P150\P150\P150\P150\P150\P150\P150
1001
ACADANNOTATIVE
1000
AnnotativeData
1002
{
1070
     1
1070
     0
1002
}
1001
ACAD
1000
MTEXTBEGIN
1070
    44
1040
0.98
1000
MTEXTEND
  0
MTEXT
  5
5298
102
{ACAD_XDICTIONARY
360
5299
102
}
330
1A
100
AcDbEntity
  8
寸法線
 48
10.0
100
AcDbMText
 10
586.528141117259
 20
252.409121191738
 30
0.0
 40
8.0
 41
23.854899029718
 71
     2
 72
     5
  1
50\P50\P50\P50\P50\P50\P50\P50
1001
ACADANNOTATIVE
1000
AnnotativeData
1002
{
1070
     1
1070
     0
1002
}
1001
ACAD
1000
MTEXTBEGIN
1070
    44
1040
0.98
1000
MTEXTEND
  0
MTEXT
  5
529C
102
{ACAD_XDICTIONARY
360
529D
102
}
330
1A
100
AcDbEntity
  8
寸法線
 48
10.0
100
AcDbMText
 10
610.812229849449
 20
252.409121191738
 30
0.0
 40
8.0
 41
23.854899029718
 71
     2
 72
     5
  1
450\P500\P550\P600\P650\P700\P750\P800
1001
ACADANNOTATIVE
1000
AnnotativeData
1002
{
1070
     1
1070
     0
1002
}
1001
ACAD
1000
MTEXTBEGIN
1070
    44
1040
0.98
1000
MTEXTEND
  0
MTEXT
  5
52A0
102
{ACAD_XDICTIONARY
360
52A1
102
}
330
1A
100
AcDbEntity
  8
寸法線
 48
10.0
100
AcDbMText
 10
534.035798332197
 20
252.409121191738
 30
0.0
 40
8.0
 41
23.854899029718
 71
     2
 72
     5
  1
650\P700\P750\P800\P850\P900\P950\P1000
1001
ACADANNOTATIVE
1000
AnnotativeData
1002
{
1070
     1
1070
     0
1002
}
1001
ACAD
1000
MTEXTBEGIN
1070
    44
1040
0.98
1000
MTEXTEND
  0
ARC
  5
52AD
330
1A
100
AcDbEntity
  8
外形線
 48
10.0
100
AcDbCircle
 10
470.55567369602
 20
393.763933493541
 30
0.0
 40
1.0
100
AcDbArc
 50
180.0
 51
268.999999999998
  0
ARC
  5
52AE
330
1A
100
AcDbEntity
  8
外形線
 48
10.0
100
AcDbCircle
 10
470.55567369602
 20
436.311934600871
 30
0.0
 40
1.0
100
AcDbArc
 50
91.000000000002
 51
180.0
  0
LINE
  5
52AF
330
1A
100
AcDbEntity
  8
外形線
 48
10.0
100
AcDbLine
 10
469.55567369602
 20
436.311934600871
 30
0.0
 11
469.55567369602
 21
393.763933493541
 31
0.0
  0
LINE
  5
52B0
330
1A
100
AcDbEntity
  8
外形線
 48
10.0
100
AcDbLine
 10
483.683456537089
 20
438.296012151606
 30
0.0
 11
489.935889781157
 21
463.373152195118
 31
0.0
  0
ARC
  5
52B1
330
1A
100
AcDbEntity
  8
外形線
 48
10.0
100
AcDbCircle
 10
494.787368412536
 20
462.163542717119
 30
0.0
 40
5.0
100
AcDbArc
 50
91.3
 51
166.000000000005
  0
ARC
  5
52B2
330
1A
100
AcDbEntity
  8
外形線
 48
10.0
100
AcDbCircle
 10
482.713160810813
 20
438.537934047206
 30
0.0
 40
1.0
100
AcDbArc
 50
270.0
 51
346.000000000009
  0
ARC
  5
52B3
330
1A
100
AcDbEntity
  8
外形線
 48
10.0
100
AcDbCircle
 10
482.713160810813
 20
438.537934047206
 30
0.0
 40
1.0
100
AcDbArc
 50
270.0
 51
346.000000000009
  0
LINE
  5
52B4
330
1A
100
AcDbEntity
  8
外形線
 48
10.0
100
AcDbLine
 10
470.538221289582
 20
437.311782296027
 30
0.0
 11
482.713160810813
 21
437.537934047206
 31
0.0
  0
ARC
  5
52B5
330
1A
100
AcDbEntity
  8
外形線
 48
10.0
100
AcDbCircle
 10
571.556712925721
 20
472.287382639759
 30
0.0
 40
0.5
100
AcDbArc
 50
359.999254274577
 51
88.999999999998
  0
ARC
  5
52B6
330
1A
100
AcDbEntity
  8
細線
 48
10.0
100
AcDbCircle
 10
572.55567369602
 20
428.170975798675
 30
0.0
 40
0.5
100
AcDbArc
 50
180.0
 51
264.089361084594
  0
ARC
  5
52B7
330
1A
100
AcDbEntity
  8
外形線
 48
10.0
100
AcDbCircle
 10
572.55567369602
 20
420.796585415648
 30
0.0
 40
0.5
100
AcDbArc
 50
91.000000000002
 51
180.0
  0
ARC
  5
52B8
330
1A
100
AcDbEntity
  8
細線
 48
10.0
100
AcDbCircle
 10
572.55567369602
 20
428.429794843777
 30
0.0
 40
0.5
100
AcDbArc
 50
180.0
 51
264.089361084594
  0
ARC
  5
52B9
330
1A
100
AcDbEntity
  8
細線
 48
10.0
100
AcDbCircle
 10
572.55567369602
 20
450.064360211379
 30
0.0
 40
0.5
100
AcDbArc
 50
180.0
 51
254.206830951723
  0
ARC
  5
52BA
330
1A
100
AcDbEntity
  8
細線
 48
10.0
100
AcDbCircle
 10
572.55567369602
 20
450.771466992565
 30
0.0
 40
0.5
100
AcDbArc
 50
180.0
 51
254.206830951723
  0
ARC
  5
52BB
330
1A
100
AcDbEntity
  8
細線
 48
10.0
100
AcDbCircle
 10
572.55567369602
 20
462.711137231634
 30
0.0
 40
0.5
100
AcDbArc
 50
180.0
 51
248.874947125992
  0
ARC
  5
52BC
330
1A
100
AcDbEntity
  8
細線
 48
10.0
100
AcDbCircle
 10
572.55567369602
 20
463.677063057924
 30
0.0
 40
0.5
100
AcDbArc
 50
180.0
 51
248.874947125992
  0
ARC
  5
52BD
330
1A
100
AcDbEntity
  8
外形線
 48
10.0
100
AcDbCircle
 10
572.5555616181
 20
464.983229500301
 30
0.0
 40
0.5
100
AcDbArc
 50
180.019033969441
 51
248.025023881981
  0
LINE
  5
52BE
330
1A
100
AcDbEntity
  8
外形線
 48
10.0
100
AcDbLine
 10
572.05567369602
 20
463.677063057924
 30
0.0
 11
572.05567369602
 21
464.645771129667
 31
0.0
  0
LINE
  5
52BF
330
1A
100
AcDbEntity
  8
外形線
 48
10.0
100
AcDbLine
 10
572.05567369602
 20
462.711137231634
 30
0.0
 11
572.05567369602
 21
463.334225361658
 31
0.0
  0
LINE
  5
52C0
330
1A
100
AcDbEntity
  8
外形線
 48
10.0
100
AcDbLine
 10
572.05567369602
 20
450.771466992565
 30
0.0
 11
572.05567369602
 21
462.368299535369
 31
0.0
  0
LINE
  5
52C1
330
1A
100
AcDbEntity
  8
外形線
 48
10.0
100
AcDbLine
 10
572.05567369602
 20
450.064360211379
 30
0.0
 11
572.05567369602
 21
450.393273106532
 31
0.0
  0
LINE
  5
52C2
330
1A
100
AcDbEntity
  8
外形線
 48
10.0
100
AcDbLine
 10
572.05567369602
 20
428.429794843777
 30
0.0
 11
572.05567369602
 21
450.771466992565
 31
0.0
  0
LINE
  5
52C3
330
1A
100
AcDbEntity
  8
外形線
 48
10.0
100
AcDbLine
 10
572.05567369602
 20
428.170975798675
 30
0.0
 11
572.05567369602
 21
429.051302282772
 31
0.0
  0
LINE
  5
52C4
330
1A
100
AcDbEntity
  8
外形線
 48
10.0
100
AcDbLine
 10
572.05567369602
 20
420.796585415648
 30
0.0
 11
572.05567369602
 21
428.429794843777
 31
0.0
  0
ARC
  5
52C5
330
1A
100
AcDbEntity
  8
外形線
 48
10.0
100
AcDbCircle
 10
572.55567369602
 20
409.279282678763
 30
0.0
 40
0.5
100
AcDbArc
 50
180.0
 51
268.999999999998
  0
LINE
  5
52C6
330
1A
100
AcDbEntity
  8
外形線
 48
10.0
100
AcDbLine
 10
572.05567369602
 20
409.279282678763
 30
0.0
 11
572.05567369602
 21
420.796585415648
 31
0.0
  0
ARC
  5
52C7
330
1A
100
AcDbEntity
  8
外形線
 48
10.0
100
AcDbCircle
 10
584.053794439732
 20
408.078429906586
 30
0.0
 40
0.5
100
AcDbArc
 50
0.002863323122
 51
88.999999999998
  0
ARC
  5
52C8
330
1A
100
AcDbEntity
  8
外形線
 48
10.0
100
AcDbCircle
 10
584.053794439732
 20
421.997438187826
 30
0.0
 40
0.5
100
AcDbArc
 50
271.000000000002
 51
359.997136676878
  0
ARC
  5
52C9
330
1A
100
AcDbEntity
  8
細線
 48
10.0
100
AcDbCircle
 10
584.05550790414
 20
426.233899699411
 30
0.0
 40
0.5
100
AcDbArc
 50
359.97893674797
 51
84.089361084594
  0
ARC
  5
52CA
330
1A
100
AcDbEntity
  8
細線
 48
10.0
100
AcDbCircle
 10
584.053993227929
 20
425.975237465128
 30
0.0
 40
0.5
100
AcDbArc
 50
359.997136676878
 51
84.089361084594
  0
ARC
  5
52CB
330
1A
100
AcDbEntity
  8
細線
 48
10.0
100
AcDbCircle
 10
584.05555346127
 20
457.195879162798
 30
0.0
 40
0.5
100
AcDbArc
 50
359.997136676878
 51
68.874947125992
  0
ARC
  5
52CC
330
1A
100
AcDbEntity
  8
細線
 48
10.0
100
AcDbCircle
 10
584.055601731917
 20
458.161786338742
 30
0.0
 40
0.5
100
AcDbArc
 50
359.997136676878
 51
68.874947125992
  0
ARC
  5
52CD
330
1A
100
AcDbEntity
  8
外形線
 48
10.0
100
AcDbCircle
 10
584.05565683371
 20
459.264386381249
 30
0.0
 40
0.5
100
AcDbArc
 50
359.997136676878
 51
68.025023881981
  0
LINE
  5
52CE
330
1A
100
AcDbEntity
  8
外形線
 48
10.0
100
AcDbLine
 10
584.062520642951
 20
421.497514340248
 30
0.0
 11
572.546947492801
 21
421.296509263226
 31
0.0
  0
LINE
  5
52CF
330
1A
100
AcDbEntity
  8
外形線
 48
10.0
100
AcDbLine
 10
584.062520642951
 20
408.578353754164
 30
0.0
 11
572.546947492801
 21
408.779358831185
 31
0.0
  0
LINE
  5
52D0
330
1A
100
AcDbEntity
  8
外形線
 48
10.0
100
AcDbLine
 10
572.368460812622
 20
464.519555812684
 30
0.0
 11
584.242757639189
 21
459.728060068867
 31
0.0
  0
LINE
  5
52D1
330
1A
100
AcDbEntity
  8
細線
 48
10.0
100
AcDbLine
 10
584.105481845686
 20
426.472579321643
 30
0.0
 11
572.504185078263
 21
427.67363394216
 31
0.0
  0
LINE
  5
52D2
330
1A
100
AcDbEntity
  8
細線
 48
10.0
100
AcDbLine
 10
584.106996521897
 20
426.731241555926
 30
0.0
 11
572.504185078263
 21
427.932452987263
 31
0.0
  0
LINE
  5
52D3
330
1A
100
AcDbEntity
  8
細線
 48
10.0
100
AcDbLine
 10
584.1911006915
 20
446.960856018094
 30
0.0
 11
572.419590932532
 21
450.29034176824
 31
0.0
  0
LINE
  5
52D4
330
1A
100
AcDbEntity
  8
細線
 48
10.0
100
AcDbLine
 10
584.23575581748
 20
457.662277180393
 30
0.0
 11
572.37547133981
 21
462.244739214039
 31
0.0
  0
LINE
  5
52D5
330
1A
100
AcDbEntity
  8
細線
 48
10.0
100
AcDbLine
 10
584.235804088127
 20
458.628184356337
 30
0.0
 11
572.37547133981
 21
463.210665040329
 31
0.0
  0
LINE
  5
52D6
330
1A
100
AcDbEntity
  8
外形線
 48
10.0
100
AcDbLine
 10
557.55670959965
 20
473.037934047206
 30
0.0
 11
571.56543912894
 21
472.787306487337
 31
0.0
  0
LINE
  5
52D7
330
1A
100
AcDbEntity
  8
外形線
 48
10.0
100
AcDbLine
 10
557.55670959965
 20
473.037934047206
 30
0.0
 11
557.05670959965
 21
472.531829770833
 31
0.0
  0
LINE
  5
52D8
330
1A
100
AcDbEntity
  8
外形線
 48
10.0
100
AcDbLine
 10
557.05670959965
 20
471.544038323579
 30
0.0
 11
557.05670959965
 21
471.044038323579
 31
0.0
  0
ARC
  5
52D9
330
1A
100
AcDbEntity
  8
外形線
 48
10.0
100
AcDbCircle
 10
547.65567369602
 20
472.765712494173
 30
0.0
 40
4.4
100
AcDbArc
 50
271.299999999999
 51
0.0
  0
LINE
  5
52DA
330
1A
100
AcDbEntity
  8
外形線
 48
10.0
100
AcDbLine
 10
494.673931744673
 20
467.162255763733
 30
0.0
 11
547.75549796374
 21
468.366845013153
 31
0.0
  0
LINE
  5
52DB
330
1A
100
AcDbEntity
  8
外形線
 48
10.0
100
AcDbLine
 10
552.055673696019
 20
473.037934047206
 30
0.0
 11
552.055673696019
 21
472.765712494173
 31
0.0
  0
LINE
  5
52DC
330
1A
100
AcDbEntity
  8
外形線
 48
10.0
100
AcDbLine
 10
555.055673696019
 20
473.037934047206
 30
0.0
 11
552.055673696019
 21
473.037934047206
 31
0.0
  0
ARC
  5
52DD
330
1A
100
AcDbEntity
  8
外形線
 48
10.0
100
AcDbCircle
 10
556.555673696019
 20
470.512934047206
 30
0.0
 40
1.500000000000156
100
AcDbArc
 50
70.528779365512
 51
179.999999999991
  0
LINE
  5
52DE
330
1A
100
AcDbEntity
  8
細線
 48
10.0
100
AcDbLine
 10
557.55670959965
 20
473.037934047206
 30
0.0
 11
557.55670959965
 21
357.037934047206
 31
0.0
  0
LINE
  5
52DF
330
1A
100
AcDbEntity
  8
細線
 48
10.0
100
AcDbLine
 10
557.55670959965
 20
473.031829770833
 30
0.0
 11
557.55670959965
 21
357.044038323579
 31
0.0
  0
LINE
  5
52E0
330
1A
100
AcDbEntity
  8
外形線
 48
10.0
100
AcDbLine
 10
572.05567369602
 20
393.307597543502
 30
0.0
 11
572.05567369602
 21
380.011507883033
 31
0.0
  0
ARC
  5
52E1
330
1A
100
AcDbEntity
  8
細線
 48
10.0
100
AcDbCircle
 10
572.55567369602
 20
367.364730862777
 30
0.0
 40
0.5
100
AcDbArc
 50
111.125052874008
 51
180.0
  0
ARC
  5
52E2
330
1A
100
AcDbEntity
  8
細線
 48
10.0
100
AcDbCircle
 10
572.555214998533
 20
366.398627809388
 30
0.0
 40
0.5
100
AcDbArc
 50
111.125052874008
 51
179.923306313171
  0
ARC
  5
52E3
330
1A
100
AcDbEntity
  8
細線
 48
10.0
100
AcDbCircle
 10
572.55567369602
 20
380.011507883033
 30
0.0
 40
0.5
100
AcDbArc
 50
105.793169048277
 51
180.0
  0
ARC
  5
52E4
330
1A
100
AcDbEntity
  8
細線
 48
10.0
100
AcDbCircle
 10
572.55567369602
 20
379.304401101846
 30
0.0
 40
0.5
100
AcDbArc
 50
105.793169048277
 51
180.0
  0
ARC
  5
52E5
330
1A
100
AcDbEntity
  8
細線
 48
10.0
100
AcDbCircle
 10
572.55567369602
 20
401.646073250634
 30
0.0
 40
0.5
100
AcDbArc
 50
95.910638915406
 51
180.0
  0
ARC
  5
52E6
330
1A
100
AcDbEntity
  8
細線
 48
10.0
100
AcDbCircle
 10
572.55567369602
 20
401.904892295736
 30
0.0
 40
0.5
100
AcDbArc
 50
95.910638915406
 51
180.0
  0
LINE
  5
52E7
330
1A
100
AcDbEntity
  8
外形線
 48
10.0
100
AcDbLine
 10
572.05567369602
 20
401.646073250634
 30
0.0
 11
572.05567369602
 21
409.279282678763
 31
0.0
  0
LINE
  5
52E8
330
1A
100
AcDbEntity
  8
外形線
 48
10.0
100
AcDbLine
 10
572.05567369602
 20
402.096981792081
 30
0.0
 11
572.05567369602
 21
402.355800837183
 31
0.0
  0
LINE
  5
52E9
330
1A
100
AcDbEntity
  8
外形線
 48
10.0
100
AcDbLine
 10
572.05567369602
 20
393.307597543502
 30
0.0
 11
572.05567369602
 21
401.646073250634
 31
0.0
  0
LINE
  5
52EA
330
1A
100
AcDbEntity
  8
外形線
 48
10.0
100
AcDbLine
 10
572.05567369602
 20
379.304401101846
 30
0.0
 11
572.05567369602
 21
380.011507883033
 31
0.0
  0
LINE
  5
52EB
330
1A
100
AcDbEntity
  8
外形線
 48
10.0
100
AcDbLine
 10
572.05567369602
 20
367.364730862777
 30
0.0
 11
572.05567369602
 21
379.304401101846
 31
0.0
  0
LINE
  5
52EC
330
1A
100
AcDbEntity
  8
外形線
 48
10.0
100
AcDbLine
 10
572.055215446467
 20
366.399297087863
 30
0.0
 11
572.05567369602
 21
367.364730862777
 31
0.0
  0
LINE
  5
52ED
330
1A
100
AcDbEntity
  8
外形線
 48
10.0
100
AcDbLine
 10
572.053465275787
 20
365.091792681681
 30
0.0
 11
572.055215446467
 21
366.399297087863
 31
0.0
  0
ARC
  5
52EE
330
1A
100
AcDbEntity
  8
外形線
 48
10.0
100
AcDbCircle
 10
572.553465275787
 20
365.091792681681
 30
0.0
 40
0.5
100
AcDbArc
 50
111.974976118019
 51
180.0
  0
ARC
  5
52EF
330
1A
100
AcDbEntity
  8
細線
 48
10.0
100
AcDbCircle
 10
584.055642194171
 20
384.303420650964
 30
0.0
 40
0.5
100
AcDbArc
 50
285.793169048277
 51
0.004772330151
  0
ARC
  5
52F0
330
1A
100
AcDbEntity
  8
細線
 48
10.0
100
AcDbCircle
 10
584.05567369602
 20
383.596322779844
 30
0.0
 40
0.5
100
AcDbArc
 50
285.793169048277
 51
0.0
  0
ARC
  5
52F1
330
1A
100
AcDbEntity
  8
細線
 48
10.0
100
AcDbCircle
 10
584.05567369602
 20
372.880035386754
 30
0.0
 40
0.5
100
AcDbArc
 50
291.125052874008
 51
0.0
  0
ARC
  5
52F2
330
1A
100
AcDbEntity
  8
細線
 48
10.0
100
AcDbCircle
 10
584.05567369602
 20
371.914109560463
 30
0.0
 40
0.5
100
AcDbArc
 50
291.125052874008
 51
0.0
  0
ARC
  5
52F3
330
1A
100
AcDbEntity
  8
外形線
 48
10.0
100
AcDbCircle
 10
584.05567369602
 20
370.811488517412
 30
0.0
 40
0.5
100
AcDbArc
 50
291.974976118019
 51
0.0
  0
LINE
  5
52F4
330
1A
100
AcDbEntity
  8
外形線
 48
10.0
100
AcDbLine
 10
584.55567369602
 20
371.914109560463
 30
0.0
 11
584.55567369602
 21
370.811488517412
 31
0.0
  0
LINE
  5
52F5
330
1A
100
AcDbEntity
  8
外形線
 48
10.0
100
AcDbLine
 10
584.55567369602
 20
372.880035386754
 30
0.0
 11
584.55567369602
 21
371.914109560463
 31
0.0
  0
LINE
  5
52F6
330
1A
100
AcDbEntity
  8
外形線
 48
10.0
100
AcDbLine
 10
584.55567369602
 20
383.596322779844
 30
0.0
 11
584.55567369602
 21
372.880035386754
 31
0.0
  0
LINE
  5
52F7
330
1A
100
AcDbEntity
  8
外形線
 48
10.0
100
AcDbLine
 10
584.555642192437
 20
384.303462297401
 30
0.0
 11
584.55567369602
 21
383.596322779844
 31
0.0
  0
LINE
  5
52F8
330
1A
100
AcDbEntity
  8
外形線
 48
10.0
100
AcDbLine
 10
584.553993227304
 20
404.100655616492
 30
0.0
 11
584.555642192437
 21
384.303462297401
 31
0.0
  0
ARC
  5
52F9
330
1A
100
AcDbEntity
  8
細線
 48
10.0
100
AcDbCircle
 10
584.053942253877
 20
403.841806306958
 30
0.0
 40
0.5
100
AcDbArc
 50
275.910638915406
 51
0.001999028164
  0
ARC
  5
52FA
330
1A
100
AcDbEntity
  8
細線
 48
10.0
100
AcDbCircle
 10
584.053993227929
 20
404.100630629284
 30
0.0
 40
0.5
100
AcDbArc
 50
275.910638915406
 51
0.002863323122
  0
ARC
  5
52FB
330
1A
100
AcDbEntity
  8
外形線
 48
10.0
100
AcDbCircle
 10
571.554634481526
 20
357.788449175274
 30
0.0
 40
0.5
100
AcDbArc
 50
271.000000000002
 51
359.984453673186
  0
LINE
  5
52FC
330
1A
100
AcDbEntity
  8
外形線
 48
10.0
100
AcDbLine
 10
584.553794439108
 20
408.078454893794
 30
0.0
 11
584.553942253573
 21
403.84182375177
 31
0.0
  0
LINE
  5
52FD
330
1A
100
AcDbEntity
  8
外形線
 48
10.0
100
AcDbLine
 10
572.366364470309
 20
365.555466369299
 30
0.0
 11
584.242774501498
 21
370.347814829794
 31
0.0
  0
LINE
  5
52FE
330
1A
100
AcDbEntity
  8
細線
 48
10.0
100
AcDbLine
 10
584.23587605223
 20
372.413637369159
 30
0.0
 11
572.37547133981
 21
367.831128880372
 31
0.0
  0
LINE
  5
52FF
330
1A
100
AcDbEntity
  8
細線
 48
10.0
100
AcDbLine
 10
584.23587605223
 20
371.447711542868
 30
0.0
 11
572.375012642323
 21
366.865025826983
 31
0.0
  0
LINE
  5
5300
330
1A
100
AcDbEntity
  8
細線
 48
10.0
100
AcDbLine
 10
584.191756459507
 20
383.115197555519
 30
0.0
 11
572.419590932532
 21
379.785526326171
 31
0.0
  0
LINE
  5
5301
330
1A
100
AcDbEntity
  8
細線
 48
10.0
100
AcDbLine
 10
584.191724957659
 20
383.822295426639
 30
0.0
 11
572.419590932532
 21
380.492633107358
 31
0.0
  0
LINE
  5
5302
330
1A
100
AcDbEntity
  8
細線
 48
10.0
100
AcDbLine
 10
584.105430871634
 20
403.344464450444
 30
0.0
 11
572.504185078263
 21
402.143415107149
 31
0.0
  0
LINE
  5
5303
330
1A
100
AcDbEntity
  8
細線
 48
10.0
100
AcDbLine
 10
584.105481845686
 20
403.603288772769
 30
0.0
 11
572.504185078263
 21
402.402234152251
 31
0.0
  0
LINE
  5
5304
330
1A
100
AcDbEntity
  8
外形線
 48
10.0
100
AcDbLine
 10
572.056618074579
 20
365.098886823799
 30
0.0
 11
572.054634463121
 21
357.788313507981
 31
0.0
  0
LINE
  5
5305
330
1A
100
AcDbEntity
  8
外形線
 48
10.0
100
AcDbLine
 10
572.056712925679
 20
472.287376132077
 30
0.0
 11
572.054634463121
 21
357.788313507981
 31
0.0
  0
LINE
  5
5306
330
1A
100
AcDbEntity
  8
外形線
 48
10.0
100
AcDbLine
 10
557.05670959965
 20
472.531829770833
 30
0.0
 11
557.05670959965
 21
357.544038323579
 31
0.0
  0
LINE
  5
5307
330
1A
100
AcDbEntity
  8
外形線
 48
10.0
100
AcDbLine
 10
557.55670959965
 20
357.037934047206
 30
0.0
 11
571.563360684745
 21
357.288525327696
 31
0.0
  0
LINE
  5
5308
330
1A
100
AcDbEntity
  8
外形線
 48
10.0
100
AcDbLine
 10
557.55670959965
 20
357.037934047206
 30
0.0
 11
557.05670959965
 21
357.544038323579
 31
0.0
  0
LINE
  5
5309
330
1A
100
AcDbEntity
  8
外形線
 48
10.0
100
AcDbLine
 10
557.05670959965
 20
358.544038323579
 30
0.0
 11
557.05670959965
 21
359.044038323579
 31
0.0
  0
LINE
  5
530A
330
1A
100
AcDbEntity
  8
外形線
 48
10.0
100
AcDbLine
 10
483.680079636796
 20
391.793399950114
 30
0.0
 11
489.935889781157
 21
366.702715899294
 31
0.0
  0
ARC
  5
530B
330
1A
100
AcDbEntity
  8
外形線
 48
10.0
100
AcDbCircle
 10
494.787368412537
 20
367.912325377292
 30
0.0
 40
5.0
100
AcDbArc
 50
193.999999999995
 51
268.7
  0
ARC
  5
530C
330
1A
100
AcDbEntity
  8
外形線
 48
10.0
100
AcDbCircle
 10
482.70978391052
 20
391.551478054514
 30
0.0
 40
1.0
100
AcDbArc
 50
13.999999999991
 51
89.000000000011
  0
ARC
  5
530D
330
1A
100
AcDbEntity
  8
外形線
 48
10.0
100
AcDbCircle
 10
518.05567369602
 20
361.382748921546
 30
0.0
 40
1.0
100
AcDbArc
 50
0.0
 51
88.7
  0
ARC
  5
530E
330
1A
100
AcDbEntity
  8
外形線
 48
10.0
100
AcDbCircle
 10
520.05567369602
 20
351.537934047206
 30
0.0
 40
1.0
100
AcDbArc
 50
180.0
 51
270.0
  0
ARC
  5
530F
330
1A
100
AcDbEntity
  8
外形線
 48
10.0
100
AcDbCircle
 10
554.055673696019
 20
351.537934047206
 30
0.0
 40
1.0
100
AcDbArc
 50
270.0
 51
0.0
  0
LINE
  5
5310
330
1A
100
AcDbEntity
  8
外形線
 48
10.0
100
AcDbLine
 10
519.05567369602
 20
351.537934047206
 30
0.0
 11
519.05567369602
 21
361.382748921546
 31
0.0
  0
LINE
  5
5311
330
1A
100
AcDbEntity
  8
外形線
 48
10.0
100
AcDbLine
 10
494.673931744673
 20
362.913612330679
 30
0.0
 11
547.75549796374
 21
361.709023081258
 31
0.0
  0
LINE
  5
5312
330
1A
100
AcDbEntity
  8
外形線
 48
10.0
100
AcDbLine
 10
470.538221289582
 20
392.764085798384
 30
0.0
 11
482.727236316958
 21
392.55132574967
 31
0.0
  0
LINE
  5
5313
330
1A
100
AcDbEntity
  8
外形線
 48
10.0
100
AcDbLine
 10
555.055673696019
 20
361.062934047206
 30
0.0
 11
555.055673696019
 21
351.537934047206
 31
0.0
  0
LINE
  5
5314
330
1A
100
AcDbEntity
  8
外形線
 48
10.0
100
AcDbLine
 10
555.055673696019
 20
361.062934047206
 30
0.0
 11
555.055673696019
 21
473.037934047206
 31
0.0
  0
LINE
  5
5315
330
1A
100
AcDbEntity
  8
外形線
 48
10.0
100
AcDbLine
 10
554.055673696019
 20
350.537934047206
 30
0.0
 11
520.05567369602
 21
350.537934047206
 31
0.0
  0
LINE
  5
5316
330
1A
100
AcDbEntity
  8
外形線
 48
10.0
100
AcDbLine
 10
552.05567369602
 20
357.310155600239
 30
0.0
 11
552.055673696019
 21
357.044038323579
 31
0.0
  0
LINE
  5
5317
330
1A
100
AcDbEntity
  8
外形線
 48
10.0
100
AcDbLine
 10
555.055673696019
 20
357.044038323579
 30
0.0
 11
552.055673696019
 21
357.044038323579
 31
0.0
  0
ARC
  5
5318
330
1A
100
AcDbEntity
  8
外形線
 48
10.0
100
AcDbCircle
 10
556.555673696019
 20
359.562934047205
 30
0.0
 40
1.499999999999659
100
AcDbArc
 50
179.999999999983
 51
289.471220634513
  0
ARC
  5
5319
330
1A
100
AcDbEntity
  8
外形線
 48
10.0
100
AcDbCircle
 10
547.65567369602
 20
357.310155600239
 30
0.0
 40
4.4
100
AcDbArc
 50
0.0
 51
88.700000000001
  0
LINE
  5
531A
330
1A
100
AcDbEntity
  8
細線
 48
10.0
100
AcDbLine
 10
552.055673696019
 20
473.037934047206
 30
0.0
 11
552.05567369602
 21
357.310155600239
 31
0.0
  0
LINE
  5
531B
330
1A
100
AcDbEntity
  8
細線
 48
10.0
100
AcDbLine
 10
483.49444643732
 20
392.537934047206
 30
0.0
 11
483.498081651982
 21
437.552514096861
 31
0.0
  0
LINE
  5
531C
330
1A
100
AcDbEntity
  8
細線
 48
10.0
100
AcDbLine
 10
490.859034550698
 20
465.256792314215
 30
0.0
 11
490.859034550698
 21
364.819075780197
 31
0.0
  0
LINE
  5
531D
330
1A
100
AcDbEntity
  8
外形線
 48
10.0
100
AcDbLine
 10
584.555656833086
 20
459.264361394041
 30
0.0
 11
584.553794439108
 21
421.997413200618
 31
0.0
  0
ARC
  5
531E
330
1A
100
AcDbEntity
  8
細線
 48
10.0
100
AcDbCircle
 10
584.054982591263
 20
445.772634007324
 30
0.0
 40
0.5
100
AcDbArc
 50
359.997136676878
 51
74.206830951723
  0
ARC
  5
531F
330
1A
100
AcDbEntity
  8
細線
 48
10.0
100
AcDbCircle
 10
584.055017928012
 20
446.47973079377
 30
0.0
 40
0.5
100
AcDbArc
 50
359.997136676878
 51
74.206830951723
  0
LINE
  5
5320
330
1A
100
AcDbEntity
  8
細線
 48
10.0
100
AcDbLine
 10
584.191065354751
 20
446.253759231648
 30
0.0
 11
572.419590932532
 21
449.583234987054
 31
0.0
  0
LINE
  5
5321
330
1A
100
AcDbEntity
  8
中心線
 48
10.0
100
AcDbLine
 10
537.05567369602
 20
368.923882562522
 30
0.0
 11
537.05567369602
 21
342.582883004333
 31
0.0
  0
DIMENSION
  5
5459
330
1A
100
AcDbEntity
  8
寸法線
 48
10.0
100
AcDbDimension
  2
*D28
 10
28.917205439747
 20
404.287934047206
 30
0.0
 11
28.917205439747
 21
444.346267380539
 31
0.0
 70
   160
  1
φ<>
  3
ISO-25
100
AcDbAlignedDimension
 13
42.55567369602
 23
425.787934047206
 33
0.0
 14
42.55567369602
 24
404.287934047206
 34
0.0
 50
90.0
100
AcDbRotatedDimension
1001
ACAD
1000
DSTYLE
1002
{
1070
     5
1000
OPEN30
1070
    41
1040
6.0
1070
    47
1040
0.1
1070
    48
1040
0.1
1070
    73
1070
     0
1070
   140
1040
8.0
1070
   271
1070
     1
1070
   272
1070
     1
1070
   341
1005
2AF4
1002
}
  0
LINE
  5
545A
330
1A
100
AcDbEntity
  8
外形線
100
AcDbLine
 10
141.55567369602
 20
404.287934047206
 30
0.0
 11
141.55567369602
 21
425.787934047206
 31
0.0
  0
LINE
  5
545B
330
1A
100
AcDbEntity
  8
外形線
100
AcDbLine
 10
141.55567369602
 20
425.787934047206
 30
0.0
 11
95.055673696019
 21
425.787934047206
 31
0.0
  0
LINE
  5
545C
330
1A
100
AcDbEntity
  8
外形線
100
AcDbLine
 10
42.55567369602
 20
425.787934047206
 30
0.0
 11
41.55567369602
 21
424.787934047206
 31
0.0
  0
LINE
  5
545D
330
1A
100
AcDbEntity
  8
外形線
100
AcDbLine
 10
41.55567369602
 20
424.787934047206
 30
0.0
 11
41.55567369602
 21
405.287934047206
 31
0.0
  0
LINE
  5
545E
330
1A
100
AcDbEntity
  8
外形線
100
AcDbLine
 10
42.55567369602
 20
404.287934047206
 30
0.0
 11
41.55567369602
 21
405.287934047206
 31
0.0
  0
LINE
  5
545F
330
1A
100
AcDbEntity
  8
外形線
100
AcDbLine
 10
141.55567369602
 20
404.287934047206
 30
0.0
 11
95.055673696019
 21
404.287934047206
 31
0.0
  0
ARC
  5
5460
330
1A
100
AcDbEntity
  8
細線
 48
10.0
100
AcDbCircle
 10
81.83301744602
 20
420.412934047206
 30
0.0
 40
8.222656249999796
100
AcDbArc
 50
319.180234332391
 51
40.819765667609
  0
ARC
  5
5461
330
1A
100
AcDbEntity
  8
細線
 48
10.0
100
AcDbCircle
 10
81.83301744602
 20
409.662934047206
 30
0.0
 40
8.222656249999796
100
AcDbArc
 50
319.180234332391
 51
40.819765667609
  0
ARC
  5
5462
330
1A
100
AcDbEntity
  8
細線
 48
10.0
100
AcDbCircle
 10
94.278329946019
 20
420.412934047206
 30
0.0
 40
8.222656249999796
100
AcDbArc
 50
139.180234332391
 51
220.819765667608
  0
ARC
  5
5463
330
1A
100
AcDbEntity
  8
細線
 48
10.0
100
AcDbCircle
 10
101.278329946019
 20
420.412934047206
 30
0.0
 40
8.222656249999796
100
AcDbArc
 50
139.180234332391
 51
220.819765667608
  0
ARC
  5
5464
330
1A
100
AcDbEntity
  8
細線
 48
10.0
100
AcDbCircle
 10
88.833017446019
 20
409.662934047206
 30
0.0
 40
8.222656249999796
100
AcDbArc
 50
319.180234332391
 51
40.819765667609
  0
ARC
  5
5465
330
1A
100
AcDbEntity
  8
細線
 48
10.0
100
AcDbCircle
 10
101.278329946019
 20
409.662934047206
 30
0.0
 40
8.222656249999796
100
AcDbArc
 50
139.180234332391
 51
220.819765667608
  0
LINE
  5
5466
330
1A
100
AcDbEntity
  8
外形線
100
AcDbLine
 10
88.05567369602
 20
425.787934047206
 30
0.0
 11
42.55567369602
 21
425.787934047206
 31
0.0
  0
LINE
  5
5467
330
1A
100
AcDbEntity
  8
外形線
100
AcDbLine
 10
88.055673696019
 20
404.287934047206
 30
0.0
 11
42.55567369602
 21
404.287934047206
 31
0.0
  0
MTEXT
  5
5797
330
1A
100
AcDbEntity
  8
寸法線
 48
10.0
100
AcDbMText
 10
34.083992246694
 20
500.246015021084
 30
0.0
 40
8.0
 41
0.0
 71
     9
 72
     1
  1
DETECTING\PELECTRODE\PSUS304
  0
MTEXT
  5
5798
330
1A
100
AcDbEntity
  8
寸法線
 48
10.0
100
AcDbMText
 10
123.458174055605
 20
502.336009099583
 30
0.0
 40
8.0
 41
0.0
 71
     7
 72
     1
  1
SEAL\PSILICON RUBBER
  0
MTEXT
  5
5799
330
1A
100
AcDbEntity
  8
寸法線
 48
10.0
100
AcDbMText
 10
218.015175470457
 20
500.246015021084
 30
0.0
 40
8.0
 41
0.0
 71
     7
 72
     1
  1
GROUNDING\PELECTRODE\PSUS304
  0
MTEXT
  5
579A
330
1A
100
AcDbEntity
  8
寸法線
 48
10.0
100
AcDbMText
 10
285.623318687977
 20
500.246015021083
 30
0.0
 40
8.0
 41
0.0
 71
     7
 72
     1
  1
SETTING SCREW\PR1″\PSUS304
  0
MTEXT
  5
579B
102
{ACAD_XDICTIONARY
360
579C
102
}
330
1A
100
AcDbEntity
  8
寸法線
 48
10.0
100
AcDbMText
 10
373.303954787155
 20
500.75629906937
 30
0.0
 40
8.0
 41
0.0
 71
     7
 72
     1
  1
SUS304
1001
ACADANNOTATIVE
1000
AnnotativeData
1002
{
1070
     1
1070
     0
1002
}
  0
MTEXT
  5
579F
330
1A
100
AcDbEntity
  8
寸法線
 48
10.0
100
AcDbMText
 10
103.831021427281
 20
501.890114417449
 30
0.0
 40
8.0
 41
0.0
 71
     9
 72
     1
  1
INSULATOR\PTEFLON
  0
MTEXT
  5
57A0
330
1A
100
AcDbEntity
  8
寸法線
 48
10.0
100
AcDbMText
 10
564.344878490944
 20
500.246704789356
 30
0.0
 40
8.0
 41
0.0
 71
     7
 72
     1
  1
O-RING
  0
MTEXT
  5
57A1
330
1A
100
AcDbEntity
  8
寸法線
 48
10.0
100
AcDbMText
 10
496.213139337118
 20
500.246704789356
 30
0.0
 40
8.0
 41
0.0
 71
     7
 72
     1
  1
ALUMINUM\PDIE CASTING
  0
MTEXT
  5
57A2
330
1A
100
AcDbEntity
  8
寸法線
 48
10.0
100
AcDbMText
 10
602.977492827722
 20
500.246704789356
 30
0.0
 40
8.0
 41
0.0
 71
     7
 72
     1
  1
ALUMINUM\PDIE CASTING
  0
MTEXT
  5
57A3
330
1A
100
AcDbEntity
  8
寸法線
 48
10.0
100
AcDbMText
 10
437.702319645677
 20
500.756988837642
 30
0.0
 40
8.0
 41
0.0
 71
     7
 72
     1
  1
ALUMINUM
  0
TEXT
  5
57A4
330
1A
100
AcDbEntity
  8
寸法線
100
AcDbText
 10
579.906534909407
 20
539.255981820287
 30
0.0
 40
8.0
  1
COLOR：10YR7.5/14
100
AcDbText
  0
TEXT
  5
5823
330
1A
100
AcDbEntity
  8
寸法線
100
AcDbText
 10
-19.458014894179
 20
130.211598095961
 30
0.0
 40
7.0
  1
SUPPLY
100
AcDbText
  0
TEXT
  5
5824
330
1A
100
AcDbEntity
  8
寸法線
100
AcDbText
 10
39.219027695818
 20
130.211598095961
 30
0.0
 40
7.0
  1
CONTACT
100
AcDbText
  0
TEXT
  5
5825
330
1A
100
AcDbEntity
  8
寸法線
100
AcDbText
 10
-54.67185013643
 20
267.103594939465
 30
0.0
 40
8.0
  1
RESISTANCE LOAD 3AMP 250V AC
100
AcDbText
  0
LINE
  5
5826
330
1A
100
AcDbEntity
  8
寸法線
100
AcDbLine
 10
35.219027695818
 20
255.09581317479
 30
0.0
 11
35.219027695818
 21
168.09581317479
 31
0.0
  0
TEXT
  5
5827
330
1A
100
AcDbEntity
  8
寸法線
100
AcDbText
 10
32.619027695818
 20
153.09581317479
 30
0.0
 40
7.0
  1
a
100
AcDbText
  0
CIRCLE
  5
5828
330
1A
100
AcDbEntity
  8
寸法線
100
AcDbCircle
 10
35.219027695818
 20
165.09581317479
 30
0.0
 40
3.0
  0
CIRCLE
  5
5829
330
1A
100
AcDbEntity
  8
寸法線
100
AcDbCircle
 10
35.219027695818
 20
165.09581317479
 30
0.0
 40
2.0
  0
CIRCLE
  5
582A
330
1A
100
AcDbEntity
  8
寸法線
100
AcDbCircle
 10
55.219027695818
 20
165.09581317479
 30
0.0
 40
2.0
  0
CIRCLE
  5
582B
330
1A
100
AcDbEntity
  8
寸法線
100
AcDbCircle
 10
55.219027695818
 20
165.09581317479
 30
0.0
 40
3.0
  0
TEXT
  5
582C
330
1A
100
AcDbEntity
  8
寸法線
100
AcDbText
 10
52.819027695818
 20
153.09581317479
 30
0.0
 40
7.0
  1
c
100
AcDbText
  0
CIRCLE
  5
582D
330
1A
100
AcDbEntity
  8
寸法線
100
AcDbCircle
 10
75.219027695818
 20
165.09581317479
 30
0.0
 40
2.0
  0
CIRCLE
  5
582E
330
1A
100
AcDbEntity
  8
寸法線
100
AcDbCircle
 10
75.219027695818
 20
165.09581317479
 30
0.0
 40
3.0
  0
TEXT
  5
582F
330
1A
100
AcDbEntity
  8
寸法線
100
AcDbText
 10
73.219027695818
 20
153.09581317479
 30
0.0
 40
7.0
  1
b
100
AcDbText
  0
CIRCLE
  5
5830
330
1A
100
AcDbEntity
  8
寸法線
100
AcDbCircle
 10
50.219027695818
 20
230.09581317479
 30
0.0
 40
1.0
  0
CIRCLE
  5
5831
330
1A
100
AcDbEntity
  8
寸法線
100
AcDbCircle
 10
60.219027695818
 20
230.09581317479
 30
0.0
 40
1.0
  0
CIRCLE
  5
5832
330
1A
100
AcDbEntity
  8
寸法線
100
AcDbCircle
 10
55.219027695818
 20
215.09581317479
 30
0.0
 40
1.0
  0
LINE
  5
5833
330
1A
100
AcDbEntity
  8
寸法線
100
AcDbLine
 10
35.219027695818
 20
255.09581317479
 30
0.0
 11
50.219027695818
 21
255.09581317479
 31
0.0
  0
LINE
  5
5834
330
1A
100
AcDbEntity
  8
寸法線
100
AcDbLine
 10
60.219027695818
 20
255.09581317479
 30
0.0
 11
75.219027695818
 21
255.09581317479
 31
0.0
  0
LINE
  5
5835
330
1A
100
AcDbEntity
  8
寸法線
100
AcDbLine
 10
55.219027695818
 20
216.09581317479
 30
0.0
 11
59.256794403335
 21
230.368039350676
 31
0.0
  0
TEXT
  5
5836
330
1A
100
AcDbEntity
  8
寸法線
100
AcDbText
 10
39.219027695818
 20
141.09581317479
 30
0.0
 40
7.0
  1
OUTPUT
100
AcDbText
  0
LINE
  5
5837
330
1A
100
AcDbEntity
  8
寸法線
100
AcDbLine
 10
75.219027695818
 20
255.09581317479
 30
0.0
 11
75.219027695818
 21
168.09581317479
 31
0.0
  0
LINE
  5
5838
330
1A
100
AcDbEntity
  8
寸法線
100
AcDbLine
 10
50.219027695818
 20
255.09581317479
 30
0.0
 11
50.219027695818
 21
231.09581317479
 31
0.0
  0
LINE
  5
5839
330
1A
100
AcDbEntity
  8
寸法線
100
AcDbLine
 10
60.219027695818
 20
255.09581317479
 30
0.0
 11
60.219027695818
 21
231.09581317479
 31
0.0
  0
LINE
  5
583A
330
1A
100
AcDbEntity
  8
寸法線
100
AcDbLine
 10
55.219027695818
 20
214.09581317479
 30
0.0
 11
55.219027695818
 21
168.09581317479
 31
0.0
  0
LINE
  5
583B
330
1A
100
AcDbEntity
  8
寸法線
100
AcDbLine
 10
15.219027695818
 20
215.59581317479
 30
0.0
 11
15.219027695818
 21
168.09581317479
 31
0.0
  0
LINE
  5
583C
330
1A
100
AcDbEntity
  8
寸法線
100
AcDbLine
 10
-4.780972304182
 20
205.290647002853
 30
0.0
 11
-4.780972304182
 21
168.09581317479
 31
0.0
  0
LINE
  5
583D
330
1A
100
AcDbEntity
  8
寸法線
100
AcDbLine
 10
-24.780972304182
 20
215.59581317479
 30
0.0
 11
-24.780972304182
 21
191.09581317479
 31
0.0
  0
TEXT
  5
583E
330
1A
100
AcDbEntity
  8
寸法線
100
AcDbText
 10
-19.458014894179
 20
141.09581317479
 30
0.0
 40
7.0
  1
POWER
100
AcDbText
  0
SPLINE
  5
583F
330
1A
100
AcDbEntity
  8
寸法線
100
AcDbSpline
210
0.0
220
0.0
230
1.0
 70
  1064
 71
     3
 72
    11
 73
     7
 74
     5
 42
0.000000001
 43
0.0000000001
 44
0.0000000001
 40
0.0
 40
0.0
 40
0.0
 40
0.0
 40
0.7071067811865476
 40
2.288245611270737
 40
3.869384441354927
 40
4.576491222541475
 40
4.576491222541475
 40
4.576491222541475
 40
4.576491222541475
 10
15.2190276958176
 20
215.5958131747896
 30
0.0
 10
15.06115876323427
 20
215.7727268012896
 30
0.0
 10
14.5502841658593
 20
216.3452313227896
 30
0.0
 10
13.2190276958176
 20
216.7689609760396
 30
0.0
 10
11.8877712257759
 20
216.3452313227895
 30
0.0
 10
11.37689662840093
 20
215.7727268012896
 30
0.0
 10
11.2190276958176
 20
215.5958131747896
 30
0.0
 11
15.2190276958176
 21
215.5958131747896
 31
0.0
 11
14.7190276958176
 21
216.0958131747896
 31
0.0
 11
13.2190276958176
 21
216.5958131747896
 31
0.0
 11
11.7190276958176
 21
216.0958131747896
 31
0.0
 11
11.2190276958176
 21
215.5958131747896
 31
0.0
  0
SPLINE
  5
5840
330
1A
100
AcDbEntity
  8
寸法線
100
AcDbSpline
210
0.0
220
0.0
230
1.0
 70
  1064
 71
     3
 72
    11
 73
     7
 74
     5
 42
0.000000001
 43
0.0000000001
 44
0.0000000001
 40
0.0
 40
0.0
 40
0.0
 40
0.0
 40
0.7071067811865476
 40
2.288245611270737
 40
3.869384441354927
 40
4.576491222541475
 40
4.576491222541475
 40
4.576491222541475
 40
4.576491222541475
 10
11.2190276958176
 20
215.5958131747896
 30
0.0
 10
11.06115876323427
 20
215.7727268012896
 30
0.0
 10
10.5502841658593
 20
216.3452313227896
 30
0.0
 10
9.2190276958176
 20
216.7689609760396
 30
0.0
 10
7.887771225775901
 20
216.3452313227895
 30
0.0
 10
7.376896628400927
 20
215.7727268012896
 30
0.0
 10
7.219027695817601
 20
215.5958131747896
 30
0.0
 11
11.2190276958176
 21
215.5958131747896
 31
0.0
 11
10.7190276958176
 21
216.0958131747896
 31
0.0
 11
9.219027695817601
 21
216.5958131747896
 31
0.0
 11
7.719027695817601
 21
216.0958131747896
 31
0.0
 11
7.219027695817601
 21
215.5958131747896
 31
0.0
  0
SPLINE
  5
5841
330
1A
100
AcDbEntity
  8
寸法線
100
AcDbSpline
210
0.0
220
0.0
230
1.0
 70
  1064
 71
     3
 72
    11
 73
     7
 74
     5
 42
0.000000001
 43
0.0000000001
 44
0.0000000001
 40
0.0
 40
0.0
 40
0.0
 40
0.0
 40
0.7071067811865476
 40
2.288245611270737
 40
3.869384441354927
 40
4.576491222541475
 40
4.576491222541475
 40
4.576491222541475
 40
4.576491222541475
 10
7.219027695817601
 20
215.5958131747896
 30
0.0
 10
7.061158763234275
 20
215.7727268012896
 30
0.0
 10
6.550284165859301
 20
216.3452313227896
 30
0.0
 10
5.2190276958176
 20
216.7689609760396
 30
0.0
 10
3.887771225775901
 20
216.3452313227895
 30
0.0
 10
3.376896628400928
 20
215.7727268012896
 30
0.0
 10
3.219027695817601
 20
215.5958131747896
 30
0.0
 11
7.219027695817601
 21
215.5958131747896
 31
0.0
 11
6.719027695817601
 21
216.0958131747896
 31
0.0
 11
5.219027695817601
 21
216.5958131747896
 31
0.0
 11
3.719027695817601
 21
216.0958131747896
 31
0.0
 11
3.219027695817601
 21
215.5958131747896
 31
0.0
  0
SPLINE
  5
5842
330
1A
100
AcDbEntity
  8
寸法線
100
AcDbSpline
210
0.0
220
0.0
230
1.0
 70
  1064
 71
     3
 72
    11
 73
     7
 74
     5
 42
0.000000001
 43
0.0000000001
 44
0.0000000001
 40
0.0
 40
0.0
 40
0.0
 40
0.0
 40
0.7071067811865476
 40
2.288245611270737
 40
3.869384441354927
 40
4.576491222541475
 40
4.576491222541475
 40
4.576491222541475
 40
4.576491222541475
 10
3.219027695817601
 20
215.5958131747896
 30
0.0
 10
3.061158763234275
 20
215.7727268012896
 30
0.0
 10
2.5502841658593
 20
216.3452313227896
 30
0.0
 10
1.219027695817601
 20
216.7689609760396
 30
0.0
 10
-0.112228774224097
 20
216.3452313227895
 30
0.0
 10
-0.6231033715990724
 20
215.7727268012896
 30
0.0
 10
-0.7809723041823986
 20
215.5958131747896
 30
0.0
 11
3.219027695817601
 21
215.5958131747896
 31
0.0
 11
2.719027695817601
 21
216.0958131747896
 31
0.0
 11
1.219027695817601
 21
216.5958131747896
 31
0.0
 11
-0.2809723041823986
 21
216.0958131747896
 31
0.0
 11
-0.7809723041823986
 21
215.5958131747896
 31
0.0
  0
ARC
  5
5843
330
1A
100
AcDbEntity
  8
寸法線
100
AcDbCircle
 10
11.219027695818
 20
205.790647002853
 30
0.0
 40
0.5
100
AcDbArc
 50
224.04994008057
 51
315.95005991943
  0
SPLINE
  5
5844
330
1A
100
AcDbEntity
  8
寸法線
100
AcDbSpline
210
0.0
220
0.0
230
1.0
 70
     8
 71
     3
 72
    11
 73
     7
 74
     0
 42
0.0000000001
 43
0.0000000001
 40
0.4969820892200875
 40
0.4969820892200875
 40
0.4969820892200875
 40
0.4969820892200875
 40
0.7071067811865476
 40
5.806126294779332
 40
10.41589852342578
 40
11.12300530461232
 40
11.12300530461232
 40
11.12300530461232
 40
11.12300530461232
 10
11.57839472074141
 20
205.4430044545406
 30
0.0
 10
11.62685477829422
 20
205.493098859828
 30
0.0
 10
12.8162342931966
 20
206.777458904473
 30
0.0
 10
12.68470697373795
 20
210.4291086686931
 30
0.0
 10
12.70531138926771
 20
214.2115574027299
 30
0.0
 10
11.393490470941
 20
215.4333266289582
 30
0.0
 10
11.2190276958176
 20
215.5958131747896
 30
0.0
  0
SPLINE
  5
5845
330
1A
100
AcDbEntity
  8
寸法線
100
AcDbSpline
210
0.0
220
0.0
230
1.0
 70
     8
 71
     3
 72
    11
 73
     7
 74
     0
 42
0.0000000001
 43
0.0000000001
 40
0.4969820892200875
 40
0.4969820892200875
 40
0.4969820892200875
 40
0.4969820892200875
 40
0.7071067811865476
 40
5.806126294779332
 40
10.41589852342578
 40
11.12300530461232
 40
11.12300530461232
 40
11.12300530461232
 40
11.12300530461232
 10
10.85966067089379
 20
205.4430044545406
 30
0.0
 10
10.81120061334099
 20
205.493098859828
 30
0.0
 10
9.621821098438602
 20
206.777458904473
 30
0.0
 10
9.753348417897257
 20
210.4291086686931
 30
0.0
 10
9.732744002367497
 20
214.2115574027299
 30
0.0
 10
11.0445649206942
 20
215.4333266289582
 30
0.0
 10
11.2190276958176
 20
215.5958131747896
 30
0.0
  0
ARC
  5
5846
330
1A
100
AcDbEntity
  8
寸法線
100
AcDbCircle
 10
7.219027695818
 20
205.790647002853
 30
0.0
 40
0.5
100
AcDbArc
 50
224.04994008057
 51
315.95005991943
  0
SPLINE
  5
5847
330
1A
100
AcDbEntity
  8
寸法線
100
AcDbSpline
210
0.0
220
0.0
230
1.0
 70
     8
 71
     3
 72
    11
 73
     7
 74
     0
 42
0.0000000001
 43
0.0000000001
 40
0.4969820892200875
 40
0.4969820892200875
 40
0.4969820892200875
 40
0.4969820892200875
 40
0.7071067811865476
 40
5.806126294779332
 40
10.41589852342578
 40
11.12300530461232
 40
11.12300530461232
 40
11.12300530461232
 40
11.12300530461232
 10
7.578394720741414
 20
205.4430044545406
 30
0.0
 10
7.626854778294216
 20
205.493098859828
 30
0.0
 10
8.816234293196601
 20
206.777458904473
 30
0.0
 10
8.684706973737946
 20
210.4291086686931
 30
0.0
 10
8.705311389267706
 20
214.2115574027299
 30
0.0
 10
7.393490470941003
 20
215.4333266289582
 30
0.0
 10
7.219027695817601
 20
215.5958131747896
 30
0.0
  0
SPLINE
  5
5848
330
1A
100
AcDbEntity
  8
寸法線
100
AcDbSpline
210
0.0
220
0.0
230
1.0
 70
     8
 71
     3
 72
    11
 73
     7
 74
     0
 42
0.0000000001
 43
0.0000000001
 40
0.4969820892200875
 40
0.4969820892200875
 40
0.4969820892200875
 40
0.4969820892200875
 40
0.7071067811865476
 40
5.806126294779332
 40
10.41589852342578
 40
11.12300530461232
 40
11.12300530461232
 40
11.12300530461232
 40
11.12300530461232
 10
6.859660670893788
 20
205.4430044545406
 30
0.0
 10
6.811200613340986
 20
205.493098859828
 30
0.0
 10
5.621821098438602
 20
206.777458904473
 30
0.0
 10
5.753348417897257
 20
210.4291086686931
 30
0.0
 10
5.732744002367497
 20
214.2115574027299
 30
0.0
 10
7.044564920694199
 20
215.4333266289582
 30
0.0
 10
7.219027695817601
 20
215.5958131747896
 30
0.0
  0
ARC
  5
5849
330
1A
100
AcDbEntity
  8
寸法線
100
AcDbCircle
 10
3.219027695818
 20
205.790647002853
 30
0.0
 40
0.5
100
AcDbArc
 50
224.04994008057
 51
315.95005991943
  0
SPLINE
  5
584A
330
1A
100
AcDbEntity
  8
寸法線
100
AcDbSpline
210
0.0
220
0.0
230
1.0
 70
     8
 71
     3
 72
    11
 73
     7
 74
     0
 42
0.0000000001
 43
0.0000000001
 40
0.4969820892200875
 40
0.4969820892200875
 40
0.4969820892200875
 40
0.4969820892200875
 40
0.7071067811865476
 40
5.806126294779332
 40
10.41589852342578
 40
11.12300530461232
 40
11.12300530461232
 40
11.12300530461232
 40
11.12300530461232
 10
3.578394720741414
 20
205.4430044545406
 30
0.0
 10
3.626854778294216
 20
205.493098859828
 30
0.0
 10
4.816234293196601
 20
206.777458904473
 30
0.0
 10
4.684706973737946
 20
210.4291086686931
 30
0.0
 10
4.705311389267706
 20
214.2115574027299
 30
0.0
 10
3.393490470941003
 20
215.4333266289582
 30
0.0
 10
3.219027695817601
 20
215.5958131747896
 30
0.0
  0
SPLINE
  5
584B
330
1A
100
AcDbEntity
  8
寸法線
100
AcDbSpline
210
0.0
220
0.0
230
1.0
 70
     8
 71
     3
 72
    11
 73
     7
 74
     0
 42
0.0000000001
 43
0.0000000001
 40
0.4969820892200875
 40
0.4969820892200875
 40
0.4969820892200875
 40
0.4969820892200875
 40
0.7071067811865476
 40
5.806126294779332
 40
10.41589852342578
 40
11.12300530461232
 40
11.12300530461232
 40
11.12300530461232
 40
11.12300530461232
 10
2.859660670893788
 20
205.4430044545406
 30
0.0
 10
2.811200613340986
 20
205.493098859828
 30
0.0
 10
1.621821098438602
 20
206.777458904473
 30
0.0
 10
1.753348417897257
 20
210.4291086686931
 30
0.0
 10
1.732744002367497
 20
214.2115574027299
 30
0.0
 10
3.044564920694199
 20
215.4333266289582
 30
0.0
 10
3.219027695817601
 20
215.5958131747896
 30
0.0
  0
ARC
  5
584C
330
1A
100
AcDbEntity
  8
寸法線
100
AcDbCircle
 10
-0.780972304182
 20
205.790647002853
 30
0.0
 40
0.5
100
AcDbArc
 50
224.04994008057
 51
315.95005991943
  0
SPLINE
  5
584D
330
1A
100
AcDbEntity
  8
寸法線
100
AcDbSpline
210
0.0
220
0.0
230
1.0
 70
     8
 71
     3
 72
    11
 73
     7
 74
     0
 42
0.0000000001
 43
0.0000000001
 40
0.4969820892200875
 40
0.4969820892200875
 40
0.4969820892200875
 40
0.4969820892200875
 40
0.7071067811865476
 40
5.806126294779332
 40
10.41589852342578
 40
11.12300530461232
 40
11.12300530461232
 40
11.12300530461232
 40
11.12300530461232
 10
-0.4216052792585856
 20
205.4430044545406
 30
0.0
 10
-0.3731452217060109
 20
205.493098859828
 30
0.0
 10
0.8162342931966009
 20
206.777458904473
 30
0.0
 10
0.6847069737379456
 20
210.4291086686931
 30
0.0
 10
0.7053113892677061
 20
214.2115574027299
 30
0.0
 10
-0.6065095290589966
 20
215.4333266289582
 30
0.0
 10
-0.7809723041823986
 20
215.5958131747896
 30
0.0
  0
SPLINE
  5
584E
330
1A
100
AcDbEntity
  8
寸法線
100
AcDbSpline
210
0.0
220
0.0
230
1.0
 70
     8
 71
     3
 72
    11
 73
     7
 74
     0
 42
0.0000000001
 43
0.0000000001
 40
0.4969820892200875
 40
0.4969820892200875
 40
0.4969820892200875
 40
0.4969820892200875
 40
0.7071067811865476
 40
5.806126294779332
 40
10.41589852342578
 40
11.12300530461232
 40
11.12300530461232
 40
11.12300530461232
 40
11.12300530461232
 10
-1.140339329106212
 20
205.4430044545406
 30
0.0
 10
-1.188799386659014
 20
205.493098859828
 30
0.0
 10
-2.378178901561398
 20
206.777458904473
 30
0.0
 10
-2.246651582102743
 20
210.4291086686931
 30
0.0
 10
-2.267255997632503
 20
214.2115574027299
 30
0.0
 10
-0.9554350793058006
 20
215.4333266289582
 30
0.0
 10
-0.7809723041823986
 20
215.5958131747896
 30
0.0
  0
SPLINE
  5
584F
330
1A
100
AcDbEntity
  8
寸法線
100
AcDbSpline
210
0.0
220
0.0
230
1.0
 70
  1064
 71
     3
 72
    11
 73
     7
 74
     5
 42
0.000000001
 43
0.0000000001
 44
0.0000000001
 40
0.0
 40
0.0
 40
0.0
 40
0.0
 40
0.7071067811865476
 40
2.288245611270737
 40
3.869384441354927
 40
4.576491222541475
 40
4.576491222541475
 40
4.576491222541475
 40
4.576491222541475
 10
-20.7809723041824
 20
215.5958131747896
 30
0.0
 10
-20.93884123676573
 20
215.7727268012896
 30
0.0
 10
-21.4497158341407
 20
216.3452313227896
 30
0.0
 10
-22.7809723041824
 20
216.7689609760396
 30
0.0
 10
-24.11222877422409
 20
216.3452313227895
 30
0.0
 10
-24.62310337159907
 20
215.7727268012896
 30
0.0
 10
-24.7809723041824
 20
215.5958131747896
 30
0.0
 11
-20.7809723041824
 21
215.5958131747896
 31
0.0
 11
-21.2809723041824
 21
216.0958131747896
 31
0.0
 11
-22.7809723041824
 21
216.5958131747896
 31
0.0
 11
-24.2809723041824
 21
216.0958131747896
 31
0.0
 11
-24.7809723041824
 21
215.5958131747896
 31
0.0
  0
ARC
  5
5850
330
1A
100
AcDbEntity
  8
寸法線
100
AcDbCircle
 10
-20.780972304182
 20
205.790647002853
 30
0.0
 40
0.5
100
AcDbArc
 50
224.049940080572
 51
315.950059919428
  0
SPLINE
  5
5851
330
1A
100
AcDbEntity
  8
寸法線
100
AcDbSpline
210
0.0
220
0.0
230
1.0
 70
     8
 71
     3
 72
    11
 73
     7
 74
     0
 42
0.0000000001
 43
0.0000000001
 40
0.4969820892200875
 40
0.4969820892200875
 40
0.4969820892200875
 40
0.4969820892200875
 40
0.7071067811865476
 40
5.806126294779332
 40
10.41589852342578
 40
11.12300530461232
 40
11.12300530461232
 40
11.12300530461232
 40
11.12300530461232
 10
-21.14033932910621
 20
205.4430044545406
 30
0.0
 10
-21.18879938665901
 20
205.493098859828
 30
0.0
 10
-22.3781789015614
 20
206.777458904473
 30
0.0
 10
-22.24665158210274
 20
210.4291086686931
 30
0.0
 10
-22.2672559976325
 20
214.2115574027299
 30
0.0
 10
-20.9554350793058
 20
215.4333266289582
 30
0.0
 10
-20.7809723041824
 20
215.5958131747896
 30
0.0
  0
SPLINE
  5
5852
330
1A
100
AcDbEntity
  8
寸法線
100
AcDbSpline
210
0.0
220
0.0
230
1.0
 70
     8
 71
     3
 72
    11
 73
     7
 74
     0
 42
0.0000000001
 43
0.0000000001
 40
0.4969820892200875
 40
0.4969820892200875
 40
0.4969820892200875
 40
0.4969820892200875
 40
0.7071067811865476
 40
5.806126294779332
 40
10.41589852342578
 40
11.12300530461232
 40
11.12300530461232
 40
11.12300530461232
 40
11.12300530461232
 10
-20.42160527925859
 20
205.4430044545406
 30
0.0
 10
-20.37314522170601
 20
205.493098859828
 30
0.0
 10
-19.1837657068034
 20
206.777458904473
 30
0.0
 10
-19.31529302626205
 20
210.4291086686931
 30
0.0
 10
-19.29468861073229
 20
214.2115574027299
 30
0.0
 10
-20.606509529059
 20
215.4333266289582
 30
0.0
 10
-20.7809723041824
 20
215.5958131747896
 30
0.0
  0
ARC
  5
5853
330
1A
100
AcDbEntity
  8
寸法線
100
AcDbCircle
 10
-16.780972304182
 20
205.790647002853
 30
0.0
 40
0.5
100
AcDbArc
 50
224.049940080572
 51
315.950059919428
  0
SPLINE
  5
5854
330
1A
100
AcDbEntity
  8
寸法線
100
AcDbSpline
210
0.0
220
0.0
230
1.0
 70
     8
 71
     3
 72
    11
 73
     7
 74
     0
 42
0.0000000001
 43
0.0000000001
 40
0.4969820892200875
 40
0.4969820892200875
 40
0.4969820892200875
 40
0.4969820892200875
 40
0.7071067811865476
 40
5.806126294779332
 40
10.41589852342578
 40
11.12300530461232
 40
11.12300530461232
 40
11.12300530461232
 40
11.12300530461232
 10
-17.14033932910621
 20
205.4430044545406
 30
0.0
 10
-17.18879938665901
 20
205.493098859828
 30
0.0
 10
-18.3781789015614
 20
206.777458904473
 30
0.0
 10
-18.24665158210274
 20
210.4291086686931
 30
0.0
 10
-18.2672559976325
 20
214.2115574027299
 30
0.0
 10
-16.9554350793058
 20
215.4333266289582
 30
0.0
 10
-16.7809723041824
 20
215.5958131747896
 30
0.0
  0
SPLINE
  5
5855
330
1A
100
AcDbEntity
  8
寸法線
100
AcDbSpline
210
0.0
220
0.0
230
1.0
 70
     8
 71
     3
 72
    11
 73
     7
 74
     0
 42
0.0000000001
 43
0.0000000001
 40
0.4969820892200875
 40
0.4969820892200875
 40
0.4969820892200875
 40
0.4969820892200875
 40
0.7071067811865476
 40
5.806126294779332
 40
10.41589852342578
 40
11.12300530461232
 40
11.12300530461232
 40
11.12300530461232
 40
11.12300530461232
 10
-16.42160527925859
 20
205.4430044545406
 30
0.0
 10
-16.37314522170601
 20
205.493098859828
 30
0.0
 10
-15.1837657068034
 20
206.777458904473
 30
0.0
 10
-15.31529302626205
 20
210.4291086686931
 30
0.0
 10
-15.29468861073229
 20
214.2115574027299
 30
0.0
 10
-16.606509529059
 20
215.4333266289582
 30
0.0
 10
-16.7809723041824
 20
215.5958131747896
 30
0.0
  0
SPLINE
  5
5856
330
1A
100
AcDbEntity
  8
寸法線
100
AcDbSpline
210
0.0
220
0.0
230
1.0
 70
  1064
 71
     3
 72
    11
 73
     7
 74
     5
 42
0.000000001
 43
0.0000000001
 44
0.0000000001
 40
0.0
 40
0.0
 40
0.0
 40
0.0
 40
0.7071067811865476
 40
2.288245611270737
 40
3.869384441354927
 40
4.576491222541475
 40
4.576491222541475
 40
4.576491222541475
 40
4.576491222541475
 10
-16.7809723041824
 20
215.5958131747896
 30
0.0
 10
-16.93884123676573
 20
215.7727268012896
 30
0.0
 10
-17.4497158341407
 20
216.3452313227896
 30
0.0
 10
-18.7809723041824
 20
216.7689609760396
 30
0.0
 10
-20.11222877422409
 20
216.3452313227895
 30
0.0
 10
-20.62310337159908
 20
215.7727268012896
 30
0.0
 10
-20.7809723041824
 20
215.5958131747896
 30
0.0
 11
-16.7809723041824
 21
215.5958131747896
 31
0.0
 11
-17.2809723041824
 21
216.0958131747896
 31
0.0
 11
-18.7809723041824
 21
216.5958131747896
 31
0.0
 11
-20.2809723041824
 21
216.0958131747896
 31
0.0
 11
-20.7809723041824
 21
215.5958131747896
 31
0.0
  0
SPLINE
  5
5857
330
1A
100
AcDbEntity
  8
寸法線
100
AcDbSpline
210
0.0
220
0.0
230
1.0
 70
  1064
 71
     3
 72
    11
 73
     7
 74
     5
 42
0.000000001
 43
0.0000000001
 44
0.0000000001
 40
0.0
 40
0.0
 40
0.0
 40
0.0
 40
0.7071067811865476
 40
2.288245611270737
 40
3.869384441354927
 40
4.576491222541475
 40
4.576491222541475
 40
4.576491222541475
 40
4.576491222541475
 10
-12.7809723041824
 20
215.5958131747896
 30
0.0
 10
-12.93884123676573
 20
215.7727268012896
 30
0.0
 10
-13.4497158341407
 20
216.3452313227896
 30
0.0
 10
-14.7809723041824
 20
216.7689609760396
 30
0.0
 10
-16.11222877422409
 20
216.3452313227895
 30
0.0
 10
-16.62310337159907
 20
215.7727268012896
 30
0.0
 10
-16.7809723041824
 20
215.5958131747896
 30
0.0
 11
-12.7809723041824
 21
215.5958131747896
 31
0.0
 11
-13.2809723041824
 21
216.0958131747896
 31
0.0
 11
-14.7809723041824
 21
216.5958131747896
 31
0.0
 11
-16.2809723041824
 21
216.0958131747896
 31
0.0
 11
-16.7809723041824
 21
215.5958131747896
 31
0.0
  0
SPLINE
  5
5858
330
1A
100
AcDbEntity
  8
寸法線
100
AcDbSpline
210
0.0
220
0.0
230
1.0
 70
     8
 71
     3
 72
    11
 73
     7
 74
     0
 42
0.0000000001
 43
0.0000000001
 40
0.4969820892200875
 40
0.4969820892200875
 40
0.4969820892200875
 40
0.4969820892200875
 40
0.7071067811865476
 40
5.806126294779332
 40
10.41589852342578
 40
11.12300530461232
 40
11.12300530461232
 40
11.12300530461232
 40
11.12300530461232
 10
-12.42160527925859
 20
205.4430044545406
 30
0.0
 10
-12.37314522170601
 20
205.493098859828
 30
0.0
 10
-11.1837657068034
 20
206.777458904473
 30
0.0
 10
-11.31529302626205
 20
210.4291086686931
 30
0.0
 10
-11.29468861073229
 20
214.2115574027299
 30
0.0
 10
-12.606509529059
 20
215.4333266289582
 30
0.0
 10
-12.7809723041824
 20
215.5958131747896
 30
0.0
  0
ARC
  5
5859
330
1A
100
AcDbEntity
  8
寸法線
100
AcDbCircle
 10
-12.780972304182
 20
205.790647002853
 30
0.0
 40
0.5
100
AcDbArc
 50
224.049940080572
 51
315.950059919428
  0
SPLINE
  5
585A
330
1A
100
AcDbEntity
  8
寸法線
100
AcDbSpline
210
0.0
220
0.0
230
1.0
 70
     8
 71
     3
 72
    11
 73
     7
 74
     0
 42
0.0000000001
 43
0.0000000001
 40
0.4969820892200875
 40
0.4969820892200875
 40
0.4969820892200875
 40
0.4969820892200875
 40
0.7071067811865476
 40
5.806126294779332
 40
10.41589852342578
 40
11.12300530461232
 40
11.12300530461232
 40
11.12300530461232
 40
11.12300530461232
 10
-13.14033932910621
 20
205.4430044545406
 30
0.0
 10
-13.18879938665901
 20
205.493098859828
 30
0.0
 10
-14.3781789015614
 20
206.777458904473
 30
0.0
 10
-14.24665158210274
 20
210.4291086686931
 30
0.0
 10
-14.2672559976325
 20
214.2115574027299
 30
0.0
 10
-12.9554350793058
 20
215.4333266289582
 30
0.0
 10
-12.7809723041824
 20
215.5958131747896
 30
0.0
  0
SPLINE
  5
585B
330
1A
100
AcDbEntity
  8
寸法線
100
AcDbSpline
210
0.0
220
0.0
230
1.0
 70
  1064
 71
     3
 72
    11
 73
     7
 74
     5
 42
0.000000001
 43
0.0000000001
 44
0.0000000001
 40
0.0
 40
0.0
 40
0.0
 40
0.0
 40
0.7071067811865476
 40
2.288245611270737
 40
3.869384441354927
 40
4.576491222541475
 40
4.576491222541475
 40
4.576491222541475
 40
4.576491222541475
 10
-8.780972304182399
 20
215.5958131747896
 30
0.0
 10
-8.938841236765725
 20
215.7727268012896
 30
0.0
 10
-9.4497158341407
 20
216.3452313227896
 30
0.0
 10
-10.7809723041824
 20
216.7689609760396
 30
0.0
 10
-12.11222877422409
 20
216.3452313227895
 30
0.0
 10
-12.62310337159907
 20
215.7727268012896
 30
0.0
 10
-12.7809723041824
 20
215.5958131747896
 30
0.0
 11
-8.780972304182399
 21
215.5958131747896
 31
0.0
 11
-9.280972304182399
 21
216.0958131747896
 31
0.0
 11
-10.7809723041824
 21
216.5958131747896
 31
0.0
 11
-12.2809723041824
 21
216.0958131747896
 31
0.0
 11
-12.7809723041824
 21
215.5958131747896
 31
0.0
  0
SPLINE
  5
585C
330
1A
100
AcDbEntity
  8
寸法線
100
AcDbSpline
210
0.0
220
0.0
230
1.0
 70
  1064
 71
     3
 72
    11
 73
     7
 74
     5
 42
0.000000001
 43
0.0000000001
 44
0.0000000001
 40
0.0
 40
0.0
 40
0.0
 40
0.0
 40
0.7071067811865476
 40
2.288245611270737
 40
3.869384441354927
 40
4.576491222541475
 40
4.576491222541475
 40
4.576491222541475
 40
4.576491222541475
 10
-0.7809723041823986
 20
215.5958131747896
 30
0.0
 10
-0.9388412367657248
 20
215.7727268012896
 30
0.0
 10
-1.4497158341407
 20
216.3452313227896
 30
0.0
 10
-2.780972304182398
 20
216.7689609760396
 30
0.0
 10
-4.112228774224095
 20
216.3452313227895
 30
0.0
 10
-4.623103371599073
 20
215.7727268012896
 30
0.0
 10
-4.780972304182399
 20
215.5958131747896
 30
0.0
 11
-0.7809723041823986
 21
215.5958131747896
 31
0.0
 11
-1.280972304182399
 21
216.0958131747896
 31
0.0
 11
-2.780972304182399
 21
216.5958131747896
 31
0.0
 11
-4.280972304182399
 21
216.0958131747896
 31
0.0
 11
-4.780972304182399
 21
215.5958131747896
 31
0.0
  0
SPLINE
  5
585D
330
1A
100
AcDbEntity
  8
寸法線
100
AcDbSpline
210
0.0
220
0.0
230
1.0
 70
  1064
 71
     3
 72
    11
 73
     7
 74
     5
 42
0.000000001
 43
0.0000000001
 44
0.0000000001
 40
0.0
 40
0.0
 40
0.0
 40
0.0
 40
0.7071067811865476
 40
2.288245611270737
 40
3.869384441354927
 40
4.576491222541475
 40
4.576491222541475
 40
4.576491222541475
 40
4.576491222541475
 10
-4.780972304182399
 20
215.5958131747896
 30
0.0
 10
-4.938841236765725
 20
215.7727268012896
 30
0.0
 10
-5.449715834140701
 20
216.3452313227896
 30
0.0
 10
-6.780972304182397
 20
216.7689609760396
 30
0.0
 10
-8.112228774224096
 20
216.3452313227895
 30
0.0
 10
-8.623103371599072
 20
215.7727268012896
 30
0.0
 10
-8.780972304182399
 20
215.5958131747896
 30
0.0
 11
-4.780972304182399
 21
215.5958131747896
 31
0.0
 11
-5.280972304182399
 21
216.0958131747896
 31
0.0
 11
-6.780972304182399
 21
216.5958131747896
 31
0.0
 11
-8.280972304182399
 21
216.0958131747896
 31
0.0
 11
-8.780972304182399
 21
215.5958131747896
 31
0.0
  0
SPLINE
  5
585E
330
1A
100
AcDbEntity
  8
寸法線
100
AcDbSpline
210
0.0
220
0.0
230
1.0
 70
     8
 71
     3
 72
    11
 73
     7
 74
     0
 42
0.0000000001
 43
0.0000000001
 40
0.4969820892200875
 40
0.4969820892200875
 40
0.4969820892200875
 40
0.4969820892200875
 40
0.7071067811865476
 40
5.806126294779332
 40
10.41589852342578
 40
11.12300530461232
 40
11.12300530461232
 40
11.12300530461232
 40
11.12300530461232
 10
-9.140339329106212
 20
205.4430044545406
 30
0.0
 10
-9.188799386659014
 20
205.493098859828
 30
0.0
 10
-10.3781789015614
 20
206.777458904473
 30
0.0
 10
-10.24665158210274
 20
210.4291086686931
 30
0.0
 10
-10.2672559976325
 20
214.2115574027299
 30
0.0
 10
-8.9554350793058
 20
215.4333266289582
 30
0.0
 10
-8.780972304182399
 20
215.5958131747896
 30
0.0
  0
SPLINE
  5
585F
330
1A
100
AcDbEntity
  8
寸法線
100
AcDbSpline
210
0.0
220
0.0
230
1.0
 70
     8
 71
     3
 72
    11
 73
     7
 74
     0
 42
0.0000000001
 43
0.0000000001
 40
0.4969820892200875
 40
0.4969820892200875
 40
0.4969820892200875
 40
0.4969820892200875
 40
0.7071067811865476
 40
5.806126294779332
 40
10.41589852342578
 40
11.12300530461232
 40
11.12300530461232
 40
11.12300530461232
 40
11.12300530461232
 10
-8.421605279258586
 20
205.4430044545406
 30
0.0
 10
-8.373145221706011
 20
205.493098859828
 30
0.0
 10
-7.183765706803399
 20
206.777458904473
 30
0.0
 10
-7.315293026262054
 20
210.4291086686931
 30
0.0
 10
-7.294688610732294
 20
214.2115574027299
 30
0.0
 10
-8.606509529058997
 20
215.4333266289582
 30
0.0
 10
-8.780972304182399
 20
215.5958131747896
 30
0.0
  0
ARC
  5
5860
330
1A
100
AcDbEntity
  8
寸法線
100
AcDbCircle
 10
-8.780972304182
 20
205.790647002853
 30
0.0
 40
0.5
100
AcDbArc
 50
224.04994008057
 51
315.95005991943
  0
ARC
  5
5861
330
1A
100
AcDbEntity
  8
寸法線
100
AcDbCircle
 10
-4.780972304182
 20
205.790647002853
 30
0.0
 40
0.5
100
AcDbArc
 50
224.04994008057
 51
315.95005991943
  0
SPLINE
  5
5862
330
1A
100
AcDbEntity
  8
寸法線
100
AcDbSpline
210
0.0
220
0.0
230
1.0
 70
     8
 71
     3
 72
    11
 73
     7
 74
     0
 42
0.0000000001
 43
0.0000000001
 40
0.4969820892200875
 40
0.4969820892200875
 40
0.4969820892200875
 40
0.4969820892200875
 40
0.7071067811865476
 40
5.806126294779332
 40
10.41589852342578
 40
11.12300530461232
 40
11.12300530461232
 40
11.12300530461232
 40
11.12300530461232
 10
-4.421605279258586
 20
205.4430044545406
 30
0.0
 10
-4.373145221706011
 20
205.493098859828
 30
0.0
 10
-3.183765706803399
 20
206.777458904473
 30
0.0
 10
-3.315293026262054
 20
210.4291086686931
 30
0.0
 10
-3.294688610732294
 20
214.2115574027299
 30
0.0
 10
-4.606509529058997
 20
215.4333266289582
 30
0.0
 10
-4.780972304182399
 20
215.5958131747896
 30
0.0
  0
SPLINE
  5
5863
330
1A
100
AcDbEntity
  8
寸法線
100
AcDbSpline
210
0.0
220
0.0
230
1.0
 70
     8
 71
     3
 72
    11
 73
     7
 74
     0
 42
0.0000000001
 43
0.0000000001
 40
0.4969820892200875
 40
0.4969820892200875
 40
0.4969820892200875
 40
0.4969820892200875
 40
0.7071067811865476
 40
5.806126294779332
 40
10.41589852342578
 40
11.12300530461232
 40
11.12300530461232
 40
11.12300530461232
 40
11.12300530461232
 10
-5.140339329106212
 20
205.4430044545406
 30
0.0
 10
-5.188799386659014
 20
205.493098859828
 30
0.0
 10
-6.378178901561398
 20
206.777458904473
 30
0.0
 10
-6.246651582102743
 20
210.4291086686931
 30
0.0
 10
-6.267255997632503
 20
214.2115574027299
 30
0.0
 10
-4.955435079305801
 20
215.4333266289582
 30
0.0
 10
-4.780972304182399
 20
215.5958131747896
 30
0.0
  0
LINE
  5
5864
330
1A
100
AcDbEntity
  8
寸法線
100
AcDbLine
 10
-24.780972304182
 20
220.09581317479
 30
0.0
 11
15.219027695818
 21
220.09581317479
 31
0.0
  0
SPLINE
  5
5865
330
1A
100
AcDbEntity
  8
寸法線
100
AcDbSpline
210
0.0
220
0.0
230
1.0
 70
  1064
 71
     3
 72
    10
 73
     6
 74
     4
 42
0.000000001
 43
0.0000000001
 44
0.0000000001
 40
0.0
 40
0.0
 40
0.0
 40
0.0
 40
1.828427124746101
 40
13.53312703546573
 40
15.36155416021183
 40
15.36155416021183
 40
15.36155416021183
 40
15.36155416021183
 10
-24.07386552299573
 20
175.8029199559762
 30
0.0
 10
-23.56681380890772
 20
176.2170044434731
 30
0.0
 10
-19.81386398256085
 20
179.2818561386094
 30
0.0
 10
-29.74808062580396
 20
185.9097702109699
 30
0.0
 10
-25.99513079945708
 20
188.9746219061061
 30
0.0
 10
-25.48807908536907
 20
189.3887063936031
 30
0.0
 11
-24.07386552299573
 21
175.8029199559762
 31
0.0
 11
-22.7809723041824
 21
177.0958131747896
 31
0.0
 11
-26.7809723041824
 21
188.0958131747896
 31
0.0
 11
-25.48807908536907
 21
189.3887063936031
 31
0.0
  0
CIRCLE
  5
5866
330
1A
100
AcDbEntity
  8
寸法線
100
AcDbCircle
 10
-24.780972304182
 20
190.09581317479
 30
0.0
 40
1.0
  0
LINE
  5
5867
330
1A
100
AcDbEntity
  8
寸法線
100
AcDbLine
 10
-24.780972304182
 20
168.09581317479
 30
0.0
 11
-24.780972304182
 21
174.09581317479
 31
0.0
  0
CIRCLE
  5
5868
330
1A
100
AcDbEntity
  8
寸法線
100
AcDbCircle
 10
-24.780972304182
 20
175.09581317479
 30
0.0
 40
1.0
  0
LINE
  5
5869
330
1A
100
AcDbEntity
  8
寸法線
100
AcDbLine
 10
-24.780972304182
 20
222.09581317479
 30
0.0
 11
15.219027695818
 21
222.09581317479
 31
0.0
  0
CIRCLE
  5
586A
330
1A
100
AcDbEntity
  8
寸法線
100
AcDbCircle
 10
-4.780972304182
 20
165.09581317479
 30
0.0
 40
2.0
  0
CIRCLE
  5
586B
330
1A
100
AcDbEntity
  8
寸法線
100
AcDbCircle
 10
-4.780972304182
 20
165.09581317479
 30
0.0
 40
3.0
  0
TEXT
  5
586C
330
1A
100
AcDbEntity
  8
寸法線
100
AcDbText
 10
-10.780972304182
 20
153.09581317479
 30
0.0
 40
7.0
  1
100
100
AcDbText
  0
CIRCLE
  5
586D
330
1A
100
AcDbEntity
  8
寸法線
100
AcDbCircle
 10
15.219027695818
 20
165.09581317479
 30
0.0
 40
2.0
  0
CIRCLE
  5
586E
330
1A
100
AcDbEntity
  8
寸法線
100
AcDbCircle
 10
15.219027695818
 20
165.09581317479
 30
0.0
 40
3.0
  0
TEXT
  5
586F
330
1A
100
AcDbEntity
  8
寸法線
100
AcDbText
 10
7.819027695818
 20
153.09581317479
 30
0.0
 40
7.0
  1
200
100
AcDbText
  0
CIRCLE
  5
5870
330
1A
100
AcDbEntity
  8
寸法線
100
AcDbCircle
 10
-24.780972304182
 20
165.09581317479
 30
0.0
 40
2.0
  0
CIRCLE
  5
5871
330
1A
100
AcDbEntity
  8
寸法線
100
AcDbCircle
 10
-24.780972304182
 20
165.09581317479
 30
0.0
 40
3.0
  0
TEXT
  5
5872
330
1A
100
AcDbEntity
  8
寸法線
100
AcDbText
 10
-27.180972304182
 20
153.09581317479
 30
0.0
 40
7.0
  1
0
100
AcDbText
  0
MTEXT
  5
58AB
102
{ACAD_XDICTIONARY
360
58AC
102
}
330
1A
100
AcDbEntity
  8
寸法線
 48
10.0
100
AcDbMText
 10
400.974610818919
 20
266.236144229264
 30
0.0
 40
8.0
 41
31.756318564289
 71
     2
 72
     5
  1
Q'ty
1001
ACADANNOTATIVE
1000
AnnotativeData
1002
{
1070
     1
1070
     0
1002
}
  0
MTEXT
  5
58AF
102
{ACAD_XDICTIONARY
360
58B0
102
}
330
1A
100
AcDbEntity
  8
寸法線
 48
10.0
100
AcDbMText
 10
365.823785536775
 20
265.180413369424
 30
0.0
 40
8.0
 41
38.545332
 71
     2
 72
     5
  1
NOTE
1001
ACADANNOTATIVE
1000
AnnotativeData
1002
{
1070
     1
1070
     0
1002
}
  0
LINE
  5
58B3
330
1A
100
AcDbEntity
  8
寸法線
 48
10.0
100
AcDbLine
 10
141.148849066727
 20
254.855446894912
 30
0.0
 11
173.148819066727
 21
268.925446894912
 31
0.0
  0
MTEXT
  5
58EC
102
{ACAD_XDICTIONARY
360
58ED
102
}
330
1A
100
AcDbEntity
  8
寸法線
 48
10.0
100
AcDbMText
 10
679.213031901932
 20
266.236144229264
 30
0.0
 40
8.0
 41
31.756318564289
 71
     2
 72
     5
  1
Q'ty
1001
ACADANNOTATIVE
1000
AnnotativeData
1002
{
1070
     1
1070
     0
1002
}
  0
MTEXT
  5
58F0
102
{ACAD_XDICTIONARY
360
58F1
102
}
330
1A
100
AcDbEntity
  8
寸法線
 48
10.0
100
AcDbMText
 10
644.062206619787
 20
265.180413369424
 30
0.0
 40
8.0
 41
38.545332
 71
     2
 72
     5
  1
NOTE
1001
ACADANNOTATIVE
1000
AnnotativeData
1002
{
1070
     1
1070
     0
1002
}
  0
LINE
  5
58F4
330
1A
100
AcDbEntity
  8
寸法線
 48
10.0
100
AcDbLine
 10
419.38727014974
 20
254.855446894912
 30
0.0
 11
451.38724014974
 21
268.925446894912
 31
0.0
  0
MTEXT
  5
5924
330
1A
100
AcDbEntity
  8
寸法線
 48
10.0
100
AcDbMText
 10
569.406892863853
 20
277.041180340209
 30
0.0
 40
8.0
 41
0.0
 71
     7
 72
     1
  1
CONDUIT\PG 1/2"
  0
TEXT
  5
5957
330
1A
100
AcDbEntity
  8
寸法線
 48
10.0
100
AcDbText
 10
202.564587808451
 20
132.609336529152
 30
0.0
 40
8.0
  1
○（Required length）
100
AcDbText
  0
LEADER
  5
5958
330
1A
100
AcDbEntity
  8
寸法線
 48
10.0
100
AcDbLeader
  3
ISO-25
 76
     3
 10
157.44116622131
 20
149.104138159146
 30
0.0
 10
157.44116622131
 20
136.362604597097
 30
0.0
 10
198.789303646321
 20
136.362604597097
 30
0.0
1001
ACAD
1000
DSTYLE
1002
{
1070
     5
1000
OPEN30
1070
   147
1040
0.625
1070
    77
1070
     0
1070
    41
1040
6.0
1070
    47
1040
0.1
1070
    48
1040
0.1
1070
    73
1070
     0
1070
   140
1040
8.0
1070
   271
1070
     1
1070
   272
1070
     1
1070
   341
1005
2AF4
1070
   342
1005
2AF4
1002
}
  0
TEXT
  5
5959
330
1A
100
AcDbEntity
  8
寸法線
 48
10.0
100
AcDbText
 10
479.676149779744
 20
132.609336529152
 30
0.0
 40
8.0
  1
○（Required length）
100
AcDbText
  0
LEADER
  5
595A
330
1A
100
AcDbEntity
  8
寸法線
 48
10.0
100
AcDbLeader
  3
ISO-25
 76
     3
 10
434.552728192603
 20
149.104138159146
 30
0.0
 10
434.552728192603
 20
136.362604597097
 30
0.0
 10
475.900865617614
 20
136.362604597097
 30
0.0
1001
ACAD
1000
DSTYLE
1002
{
1070
     5
1000
OPEN30
1070
   147
1040
0.625
1070
    77
1070
     0
1070
    41
1040
6.0
1070
    47
1040
0.1
1070
    48
1040
0.1
1070
    73
1070
     0
1070
   140
1040
8.0
1070
   271
1070
     1
1070
   272
1070
     1
1070
   341
1005
2AF4
1070
   342
1005
2AF4
1002
}
  0
VIEWPORT
  5
2902
330
28FB
100
AcDbEntity
 67
     1
  8
0
 48
10.0
100
AcDbViewport
 10
0.0
 20
0.0
 30
0.0
 40
528.349942987457
 41
300.3
 68
     1
 69
     1
1001
ACAD
1000
MVIEW
1002
{
1070
    16
1010
0.0
1020
0.0
1030
0.0
1010
0.0
1020
0.0
1030
1.0
1040
0.0
1040
300.3
1040
206.482943333333
1040
144.277943333333
1040
50.0
1040
0.0
1040
0.0
1070
    16
1070
   100
1070
     0
1070
     1
1070
     0
1070
     0
1070
     0
1070
     0
1040
0.0
1040
0.0
1040
0.0
1040
10.0
1040
10.0
1040
10.0
1040
10.0
1070
     0
1002
{
1002
}
1002
}
  0
VIEWPORT
  5
2904
330
28FB
100
AcDbEntity
 67
     1
  8
図枠太線
 48
10.0
100
AcDbViewport
 10
204.746305129083
 20
162.681128228111
 30
0.0
 40
400.0
 41
240.0
 68
     2
 69
     2
1001
ACAD
1000
MVIEW
1002
{
1070
    16
1010
0.0
1020
0.0
1030
0.0
1010
0.0
1020
0.0
1030
1.0
1040
0.0
1040
480.0
1040
327.633929554998
1040
330.706230619201
1040
50.0
1040
0.0
1040
0.0
1070
    16
1070
   100
1070
     0
1070
     0
1070
     0
1070
     0
1070
     0
1070
     0
1040
0.0
1040
0.0
1040
0.0
1040
1.0
1040
1.0
1040
0.0
1040
0.0
1070
     0
1002
{
1002
}
1002
}
  0
INSERT
  5
2A59
330
28FB
100
AcDbEntity
 67
     1
  8
図枠太線
100
AcDbBlockReference
  2
A3横用_タイトル
 10
-0.352109406709
 20
-0.844831525416
 30
0.0
  0
MTEXT
  5
2E85
330
28FB
100
AcDbEntity
 67
     1
  8
寸法線
 48
10.0
100
AcDbMText
 10
149.12611673873
 20
15.539727795393
 30
0.0
 40
5.0
 41
11.452149180996
 71
     1
 72
     5
  1
{\H1.4x;1:2}
  0
MTEXT
  5
53AF
330
28FB
100
AcDbEntity
 67
     1
  8
下書線
 48
10.0
100
AcDbMText
 10
120.352538418549
 20
63.533745082228
 30
0.0
 40
10.0
 41
175.933723286424
 71
     1
 72
     1
  1
HP用図面、追記・変更　不可
  0
LWPOLYLINE
  5
53B0
330
28FB
100
AcDbEntity
 67
     1
  8
下書線
 48
10.0
100
AcDbPolyline
 90
        4
 70
     1
 43
0.0
 10
112.303283104791
 20
69.283213163483
 10
284.212378734336
 20
69.283213163483
 10
284.212378734336
 20
48.010181262837
 10
112.303283104791
 20
48.010181262837
  0
MTEXT
  5
550C
102
{ACAD_XDICTIONARY
360
550D
102
}
330
28FB
100
AcDbEntity
 67
     1
  8
寸法線
 48
10.0
100
AcDbMText
 10
173.844001466027
 20
33.411382290254
 30
0.0
 40
5.0
 41
31.372065131184
 71
     1
 72
     5
  1
takahashi
1001
ACADANNOTATIVE
1000
AnnotativeData
1002
{
1070
     1
1070
     0
1002
}
  0
MTEXT
  5
55FD
102
{ACAD_XDICTIONARY
360
55FE
102
}
330
28FB
100
AcDbEntity
 67
     1
  8
寸法線
 48
10.0
100
AcDbMText
 10
310.214176586136
 20
34.248274669471
 30
0.0
 40
5.0
 41
58.239684951579
 71
     1
 72
     5
  1
TSA-C1SA-□
1001
ACADANNOTATIVE
1000
AnnotativeData
1002
{
1070
     1
1070
     0
1002
}
  0
MTEXT
  5
5662
102
{ACAD_XDICTIONARY
360
5663
102
}
330
28FB
100
AcDbEntity
 67
     1
  8
寸法線
 48
10.0
100
AcDbMText
 10
338.952685188947
 20
16.77841589212
 30
0.0
 40
8.0
 41
33.206594841881
 71
     1
 72
     5
  1
HE-11021
1001
ACADANNOTATIVE
1000
AnnotativeData
1002
{
1070
     1
1070
     0
1002
}
  0
MTEXT
  5
59DA
102
{ACAD_XDICTIONARY
360
59DB
102
}
330
28FB
100
AcDbEntity
 67
     1
  8
寸法線
 48
10.0
100
AcDbMText
 10
207.960201306813
 20
39.468298822701
 30
0.0
 40
4.0
 41
100.0
 71
     1
 72
     5
  1
TEMPERATURE IN THE TANK:max.200℃
1001
ACADANNOTATIVE
1000
AnnotativeData
1002
{
1070
     1
1070
     0
1002
}
  0
MTEXT
  5
59DE
102
{ACAD_XDICTIONARY
360
59DF
102
}
330
28FB
100
AcDbEntity
 67
     1
  8
寸法線
 48
10.0
100
AcDbMText
 10
377.920856708546
 20
51.918706695311
 30
0.0
 40
5.0
 41
21.364427237501
 71
     1
 72
     5
  1
Q'ty: 
1001
ACADANNOTATIVE
1000
AnnotativeData
1002
{
1070
     1
1070
     0
1002
}
  0
MTEXT
  5
59E2
330
28FB
100
AcDbEntity
 67
     1
  8
寸法線
 48
10.0
100
AcDbMText
 10
355.513675447435
 20
37.514238913955
 30
0.0
 40
4.0
 41
59.837375094616
 71
     1
 72
     5
  1
CAPACITANCE TYPE\PLEVEL SENSOR
  0
MTEXT
  5
59E7
330
28FB
100
AcDbEntity
 67
     1
  8
寸法線
 48
10.0
100
AcDbMText
 10
210.548677740965
 20
52.470161902808
 30
0.0
 40
5.0
 41
106.699923235854
 71
     1
 72
     5
  1
a reduced drawing（A3size～）
  0
LINE
  5
59E8
330
28FB
100
AcDbEntity
 67
     1
  8
寸法線
 48
10.0
100
AcDbLine
 10
206.834699746824
 20
45.614774321483
 30
0.0
 11
303.487818087333
 21
45.614774321483
 31
0.0
  0
MTEXT
  5
5ACE
330
28FB
100
AcDbEntity
 67
     1
  8
寸法線
 48
10.0
100
AcDbMText
 10
210.548677740965
 20
52.470161902808
 30
0.0
 40
5.0
 41
106.699923235854
 71
     1
 72
     5
  1
a reduced drawing（A3size～）
  0
MTEXT
  5
5B5C
102
{ACAD_XDICTIONARY
360
5B5D
102
}
330
28FB
100
AcDbEntity
 67
     1
  8
寸法線
 48
10.0
100
AcDbMText
 10
175.484603081977
 20
13.662738342492
 30
0.0
 40
4.0
 41
31.372065131184
 71
     1
 72
     5
  1
Aug,4,2016
1001
ACADANNOTATIVE
1000
AnnotativeData
1002
{
1070
     1
1070
     0
1002
}
  0
ENDSEC
  0
SECTION
  2
OBJECTS
  0
DICTIONARY
  5
C
330
0
100
AcDbDictionary
  3
ACAD_COLOR
350
2948
  3
ACAD_GROUP
350
D
  3
ACAD_LAYOUT
350
2816
  3
ACAD_MATERIAL
350
2947
  3
ACAD_MLEADERSTYLE
350
504B
  3
ACAD_MLINESTYLE
350
E
  3
ACAD_PLOTSETTINGS
350
2817
  3
ACAD_SCALELIST
350
5024
  3
ACAD_VISUALSTYLE
350
500B
  3
ACADDIM
350
4312
  3
ACDBHEADERROUNDTRIPXREC
350
5BBC
  3
ACDBVARIABLEDICTIONARY
350
51BE
  3
DWGPROPS
350
5BE1
  0
DICTIONARY
  5
5BE2
330
8
100
AcDbDictionary
280
     1
  3
ACAD_XREC_ROUNDTRIP
360
5BE3
  0
DICTIONARY
  5
29EA
330
2
100
AcDbDictionary
280
     1
  3
ACAD_LAYERFILTERS
360
2B0C
  3
ACAD_LAYERSTATES
360
29EB
  0
DICTIONARY
  5
50D2
330
50D1
100
AcDbDictionary
280
     1
  3
ACDBCONTEXTDATAMANAGER
360
50D3
  0
DICTIONARY
  5
50EB
330
50EA
100
AcDbDictionary
280
     1
  3
ACDBCONTEXTDATAMANAGER
360
50EC
  0
DICTIONARY
  5
5285
330
5284
100
AcDbDictionary
280
     1
  3
ACDBCONTEXTDATAMANAGER
360
5286
  0
DICTIONARY
  5
5289
330
5288
100
AcDbDictionary
280
     1
  3
ACDBCONTEXTDATAMANAGER
360
528A
  0
DICTIONARY
  5
528D
330
528C
100
AcDbDictionary
280
     1
  3
ACDBCONTEXTDATAMANAGER
360
528E
  0
DICTIONARY
  5
5291
330
5290
100
AcDbDictionary
280
     1
  3
ACDBCONTEXTDATAMANAGER
360
5292
  0
DICTIONARY
  5
5295
330
5294
100
AcDbDictionary
280
     1
  3
ACDBCONTEXTDATAMANAGER
360
5296
  0
DICTIONARY
  5
5299
330
5298
100
AcDbDictionary
280
     1
  3
ACDBCONTEXTDATAMANAGER
360
529A
  0
DICTIONARY
  5
529D
330
529C
100
AcDbDictionary
280
     1
  3
ACDBCONTEXTDATAMANAGER
360
529E
  0
DICTIONARY
  5
52A1
330
52A0
100
AcDbDictionary
280
     1
  3
ACDBCONTEXTDATAMANAGER
360
52A2
  0
DICTIONARY
  5
579C
330
579B
100
AcDbDictionary
280
     1
  3
ACDBCONTEXTDATAMANAGER
360
579D
  0
DICTIONARY
  5
58AC
330
58AB
100
AcDbDictionary
280
     1
  3
ACDBCONTEXTDATAMANAGER
360
58AD
  0
DICTIONARY
  5
58B0
330
58AF
100
AcDbDictionary
280
     1
  3
ACDBCONTEXTDATAMANAGER
360
58B1
  0
DICTIONARY
  5
58ED
330
58EC
100
AcDbDictionary
280
     1
  3
ACDBCONTEXTDATAMANAGER
360
58EE
  0
DICTIONARY
  5
58F1
330
58F0
100
AcDbDictionary
280
     1
  3
ACDBCONTEXTDATAMANAGER
360
58F2
  0
DICTIONARY
  5
550D
330
550C
100
AcDbDictionary
280
     1
  3
ACDBCONTEXTDATAMANAGER
360
550E
  0
DICTIONARY
  5
55FE
330
55FD
100
AcDbDictionary
280
     1
  3
ACDBCONTEXTDATAMANAGER
360
55FF
  0
DICTIONARY
  5
5663
330
5662
100
AcDbDictionary
280
     1
  3
ACDBCONTEXTDATAMANAGER
360
5664
  0
DICTIONARY
  5
59DB
330
59DA
100
AcDbDictionary
280
     1
  3
ACDBCONTEXTDATAMANAGER
360
59DC
  0
DICTIONARY
  5
59DF
330
59DE
100
AcDbDictionary
280
     1
  3
ACDBCONTEXTDATAMANAGER
360
59E0
  0
DICTIONARY
  5
5B5D
330
5B5C
100
AcDbDictionary
280
     1
  3
ACDBCONTEXTDATAMANAGER
360
5B5E
  0
DICTIONARY
  5
2948
102
{ACAD_REACTORS
330
C
102
}
330
C
100
AcDbDictionary
  0
DICTIONARY
  5
D
102
{ACAD_REACTORS
330
C
102
}
330
C
100
AcDbDictionary
  3
*A1
350
46B3
  3
*A2
350
447F
  0
DICTIONARY
  5
2816
102
{ACAD_REACTORS
330
C
102
}
330
C
100
AcDbDictionary
  0
DICTIONARY
  5
2947
102
{ACAD_REACTORS
330
C
102
}
330
C
100
AcDbDictionary
  3
BYBLOCK
350
5047
  3
BYLAYER
350
5046
  3
GLOBAL
350
5048
  0
DICTIONARY
  5
504B
102
{ACAD_REACTORS
330
C
102
}
330
C
100
AcDbDictionary
  3
STANDARD
350
504C
  0
DICTIONARY
  5
E
102
{ACAD_REACTORS
330
C
102
}
330
C
100
AcDbDictionary
  3
STANDARD
350
13
  0
DICTIONARY
  5
2817
102
{ACAD_REACTORS
330
C
102
}
330
C
100
AcDbDictionary
  0
DICTIONARY
  5
5024
102
{ACAD_REACTORS
330
C
102
}
330
C
100
AcDbDictionary
  3
A0
350
5025
  3
A1
350
5026
  3
A2
350
5027
  3
A3
350
5028
  3
A4
350
5029
  3
A5
350
502A
  3
A6
350
502B
  3
A7
350
502C
  3
A8
350
502D
  3
A9
350
502E
  3
B0
350
502F
  3
B1
350
5030
  3
B2
350
5031
  3
B3
350
5032
  3
B4
350
5033
  3
B5
350
5034
  3
B6
350
5035
  3
B7
350
5036
  3
B8
350
5037
  3
B9
350
5038
  3
C0
350
5039
  3
C1
350
503A
  3
C2
350
503B
  3
C3
350
503C
  3
C4
350
503D
  3
C5
350
503E
  3
C6
350
503F
  3
C7
350
5040
  3
C8
350
5041
  3
C9
350
5042
  3
D0
350
5043
  3
D1
350
5044
  3
D2
350
5045
  0
DICTIONARY
  5
500B
102
{ACAD_REACTORS
330
C
102
}
330
C
100
AcDbDictionary
  3
2DWIREFRAME
350
5010
  3
BASIC
350
5013
  3
BRIGHTEN
350
5017
  3
COLORCHANGE
350
501B
  3
CONCEPTUAL
350
5015
  3
DIM
350
5016
  3
EDGECOLOROFF
350
501E
  3
FACEPATTERN
350
501A
  3
FLAT
350
500C
  3
FLATWITHEDGES
350
500D
  3
GOURAUD
350
500E
  3
GOURAUDWITHEDGES
350
500F
  3
HIDDEN
350
5012
  3
JITTEROFF
350
501C
  3
LINEPATTERN
350
5019
  3
MODELING
350
540B
  3
OVERHANGOFF
350
501D
  3
REALISTIC
350
5014
  3
SHADED
350
5023
  3
SHADED_WITH_EDGES
350
5022
  3
SHADES_OF_GRAY
350
501F
  3
SKETCHY
350
5020
  3
THICKEN
350
5018
  3
WIREFRAME
350
5011
  3
X-RAY
350
5021
  0
XRECORD
  5
4312
102
{ACAD_REACTORS
330
C
102
}
330
C
100
AcDbXrecord
 90
   990106
  3

 60
     0
 61
     0
 62
     4
 63
     4
 64
     0
 65
     0
 66
     0
 67
     3
 68
     1
 69
     0
 70
     0
 71
     0
 72
     0
 40
0.0
170
     2
340
0
  0
DICTIONARY
  5
5BBC
102
{ACAD_REACTORS
330
C
102
}
330
C
100
AcDbDictionary
  3
CEPSNID
350
5BC6
  3
CEPSNTYPE
350
5BC5
  3
COLORDICT
350
5BDF
  3
DIMSTYLEDATA
350
5BDC
  3
FINGERPRINTGUID
350
5BC7
  3
HYPERLINKBASE
350
5BBF
  3
INSUNITS
350
5BC4
  3
LAYOUTDICT
350
5BC1
  3
LWETCUNION
350
5BC3
  3
MATERIALDICT
350
5BE0
  3
PLOTSETDICT
350
5BC2
  3
PSVPSCALE
350
5BC9
  3
PUCSBASE
350
5BCC
  3
PUCSORGBACK
350
5BD2
  3
PUCSORGBOTTOM
350
5BCE
  3
PUCSORGFRONT
350
5BD1
  3
PUCSORGLEFT
350
5BCF
  3
PUCSORGRIGHT
350
5BD0
  3
PUCSORGTOP
350
5BCD
  3
PUCSORTHOREF
350
5BCA
  3
PUCSORTHOVIEW
350
5BCB
  3
STYLESHEET
350
5BC0
  3
TSTACKALIGN
350
5BBD
  3
TSTACKSIZE
350
5BBE
  3
UCSBASE
350
5BD5
  3
UCSORGBACK
350
5BDB
  3
UCSORGBOTTOM
350
5BD7
  3
UCSORGFRONT
350
5BDA
  3
UCSORGLEFT
350
5BD8
  3
UCSORGRIGHT
350
5BD9
  3
UCSORGTOP
350
5BD6
  3
UCSORTHOREF
350
5BD3
  3
UCSORTHOVIEW
350
5BD4
  3
VERSIONGUID
350
5BC8
  0
DICTIONARY
  5
51BE
102
{ACAD_REACTORS
330
C
102
}
330
C
100
AcDbDictionary
  3
CANNOSCALE
350
51BF
  3
CMLEADERSTYLE
350
51C1
  3
CTABLESTYLE
350
51C0
  3
DIMASSOC
350
5BDD
  3
HIDETEXT
350
5BDE
  3
MSLTSCALE
350
51C2
  3
XCLIPFRAME
350
51C3
  0
XRECORD
  5
5BE1
102
{ACAD_REACTORS
330
C
102
}
330
C
100
AcDbXrecord
  1
DWGPROPS COOKIE
  2

  3

  4

  6

  7

  8
takahashi
  9

300
=
301
=
302
=
303
=
304
=
305
=
306
=
307
=
308
=
309
=
 40
0.0
 41
2450576.222302431
 42
2457627.299802535
  1

 90
        0
  0
XRECORD
  5
5BE3
102
{ACAD_REACTORS
330
5BE2
102
}
330
5BE2
100
AcDbXrecord
102
VTR_0.000_0.000_1.000_1.000_VISUALSTYLE
340
5010
102
VTR_0.000_0.000_1.000_1.000_GRIDDISPLAY
 70
     3
102
VTR_0.000_0.000_1.000_1.000_GRIDMAJOR
 70
     5
102
VTR_0.000_0.000_1.000_1.000_DEFAULTLIGHTING
280
     1
102
VTR_0.000_0.000_1.000_1.000_DEFAULTLIGHTINGTYPE
 70
     1
102
VTR_0.000_0.000_1.000_1.000_BRIGHTNESS
141
0.0
102
VTR_0.000_0.000_1.000_1.000_CONTRAST
142
0.0
  0
DICTIONARY
  5
2B0C
102
{ACAD_REACTORS
330
29EA
102
}
330
29EA
100
AcDbDictionary
  0
DICTIONARY
  5
29EB
102
{ACAD_REACTORS
330
29EA
102
}
330
29EA
100
AcDbDictionary
  0
DICTIONARY
  5
50D3
102
{ACAD_REACTORS
330
50D2
102
}
330
50D2
100
AcDbDictionary
  3
ACDB_ANNOTATIONSCALES
350
50D4
  0
DICTIONARY
  5
50EC
102
{ACAD_REACTORS
330
50EB
102
}
330
50EB
100
AcDbDictionary
  3
ACDB_ANNOTATIONSCALES
350
50ED
  0
DICTIONARY
  5
5286
102
{ACAD_REACTORS
330
5285
102
}
330
5285
100
AcDbDictionary
  3
ACDB_ANNOTATIONSCALES
350
5287
  0
DICTIONARY
  5
528A
102
{ACAD_REACTORS
330
5289
102
}
330
5289
100
AcDbDictionary
  3
ACDB_ANNOTATIONSCALES
350
528B
  0
DICTIONARY
  5
528E
102
{ACAD_REACTORS
330
528D
102
}
330
528D
100
AcDbDictionary
  3
ACDB_ANNOTATIONSCALES
350
528F
  0
DICTIONARY
  5
5292
102
{ACAD_REACTORS
330
5291
102
}
330
5291
100
AcDbDictionary
  3
ACDB_ANNOTATIONSCALES
350
5293
  0
DICTIONARY
  5
5296
102
{ACAD_REACTORS
330
5295
102
}
330
5295
100
AcDbDictionary
  3
ACDB_ANNOTATIONSCALES
350
5297
  0
DICTIONARY
  5
529A
102
{ACAD_REACTORS
330
5299
102
}
330
5299
100
AcDbDictionary
  3
ACDB_ANNOTATIONSCALES
350
529B
  0
DICTIONARY
  5
529E
102
{ACAD_REACTORS
330
529D
102
}
330
529D
100
AcDbDictionary
  3
ACDB_ANNOTATIONSCALES
350
529F
  0
DICTIONARY
  5
52A2
102
{ACAD_REACTORS
330
52A1
102
}
330
52A1
100
AcDbDictionary
  3
ACDB_ANNOTATIONSCALES
350
52A3
  0
DICTIONARY
  5
579D
102
{ACAD_REACTORS
330
579C
102
}
330
579C
100
AcDbDictionary
  3
ACDB_ANNOTATIONSCALES
350
579E
  0
DICTIONARY
  5
58AD
102
{ACAD_REACTORS
330
58AC
102
}
330
58AC
100
AcDbDictionary
  3
ACDB_ANNOTATIONSCALES
350
58AE
  0
DICTIONARY
  5
58B1
102
{ACAD_REACTORS
330
58B0
102
}
330
58B0
100
AcDbDictionary
  3
ACDB_ANNOTATIONSCALES
350
58B2
  0
DICTIONARY
  5
58EE
102
{ACAD_REACTORS
330
58ED
102
}
330
58ED
100
AcDbDictionary
  3
ACDB_ANNOTATIONSCALES
350
58EF
  0
DICTIONARY
  5
58F2
102
{ACAD_REACTORS
330
58F1
102
}
330
58F1
100
AcDbDictionary
  3
ACDB_ANNOTATIONSCALES
350
58F3
  0
DICTIONARY
  5
550E
102
{ACAD_REACTORS
330
550D
102
}
330
550D
100
AcDbDictionary
  3
ACDB_ANNOTATIONSCALES
350
550F
  0
DICTIONARY
  5
55FF
102
{ACAD_REACTORS
330
55FE
102
}
330
55FE
100
AcDbDictionary
  3
ACDB_ANNOTATIONSCALES
350
5600
  0
DICTIONARY
  5
5664
102
{ACAD_REACTORS
330
5663
102
}
330
5663
100
AcDbDictionary
  3
ACDB_ANNOTATIONSCALES
350
5665
  0
DICTIONARY
  5
59DC
102
{ACAD_REACTORS
330
59DB
102
}
330
59DB
100
AcDbDictionary
  3
ACDB_ANNOTATIONSCALES
350
59DD
  0
DICTIONARY
  5
59E0
102
{ACAD_REACTORS
330
59DF
102
}
330
59DF
100
AcDbDictionary
  3
ACDB_ANNOTATIONSCALES
350
59E1
  0
DICTIONARY
  5
5B5E
102
{ACAD_REACTORS
330
5B5D
102
}
330
5B5D
100
AcDbDictionary
  3
ACDB_ANNOTATIONSCALES
350
5B5F
  0
GROUP
  5
46B3
102
{ACAD_REACTORS
330
D
102
}
330
D
100
AcDbGroup
300

 70
     1
 71
     1
340
467D
340
467C
340
467B
340
467A
340
4679
340
4678
340
4677
340
4665
340
4664
340
4663
340
4662
340
4661
340
4660
340
465F
340
465E
340
465D
340
465C
340
465B
340
465A
340
4659
340
4658
  0
GROUP
  5
447F
102
{ACAD_REACTORS
330
D
102
}
330
D
100
AcDbGroup
300

 70
     1
 71
     1
340
4423
340
4422
340
4421
340
4420
340
441F
  0
MATERIAL
  5
5047
102
{ACAD_REACTORS
330
2947
102
}
102
{ACAD_XDICTIONARY
360
5BE6
102
}
330
2947
100
AcDbMaterial
  1
BYBLOCK
  0
MATERIAL
  5
5046
102
{ACAD_REACTORS
330
2947
102
}
102
{ACAD_XDICTIONARY
360
5BE4
102
}
330
2947
100
AcDbMaterial
  1
BYLAYER
  0
MATERIAL
  5
5048
102
{ACAD_REACTORS
330
2947
102
}
102
{ACAD_XDICTIONARY
360
5BE8
102
}
330
2947
100
AcDbMaterial
  1
GLOBAL
  0
ACAD_PROXY_OBJECT
  5
504C
102
{ACAD_REACTORS
330
504B
102
}
330
504B
100
AcDbProxyObject
 90
      499
 91
      507
 93
      610
310
40901902A4063FBFFFFFE0000000000000020400000000000020404214DD185B99185C990000000000000104090141901A00000000000004100000000000000041025764000000000000039000
340
14
340
0
340
10
340
0
 94
        0
1001
ACAD_MLEADERVER
1070
     2
  0
MLINESTYLE
  5
13
102
{ACAD_REACTORS
330
E
102
}
330
E
100
AcDbMlineStyle
  2
STANDARD
 70
     0
  3

 62
     0
 51
90.0
 52
90.0
 71
     2
 49
0.5
 62
   256
  6
BYLAYER
 49
-0.5
 62
   256
  6
BYLAYER
  0
ACAD_PROXY_OBJECT
  5
5025
102
{ACAD_REACTORS
330
5024
102
}
330
5024
100
AcDbProxyObject
 90
      499
 91
      504
 93
       41
310
903313A31580
  0
ACAD_PROXY_OBJECT
  5
5026
102
{ACAD_REACTORS
330
5024
102
}
330
5024
100
AcDbProxyObject
 90
      499
 91
      504
 93
      105
310
903313A324000000000000004000
  0
ACAD_PROXY_OBJECT
  5
5027
102
{ACAD_REACTORS
330
5024
102
}
330
5024
100
AcDbProxyObject
 90
      499
 91
      504
 93
      105
310
903313A344000000000000104000
  0
ACAD_PROXY_OBJECT
  5
5028
102
{ACAD_REACTORS
330
5024
102
}
330
5024
100
AcDbProxyObject
 90
      499
 91
      504
 93
      105
310
903313A354000000000000144000
  0
ACAD_PROXY_OBJECT
  5
5029
102
{ACAD_REACTORS
330
5024
102
}
330
5024
100
AcDbProxyObject
 90
      499
 91
      504
 93
      105
310
903313A384000000000000204000
  0
ACAD_PROXY_OBJECT
  5
502A
102
{ACAD_REACTORS
330
5024
102
}
330
5024
100
AcDbProxyObject
 90
      499
 91
      504
 93
      113
310
904313A31304000000000000244000
  0
ACAD_PROXY_OBJECT
  5
502B
102
{ACAD_REACTORS
330
5024
102
}
330
5024
100
AcDbProxyObject
 90
      499
 91
      504
 93
      113
310
904313A31364000000000000304000
  0
ACAD_PROXY_OBJECT
  5
502C
102
{ACAD_REACTORS
330
5024
102
}
330
5024
100
AcDbProxyObject
 90
      499
 91
      504
 93
      113
310
904313A32304000000000000344000
  0
ACAD_PROXY_OBJECT
  5
502D
102
{ACAD_REACTORS
330
5024
102
}
330
5024
100
AcDbProxyObject
 90
      499
 91
      504
 93
      113
310
904313A333040000000000003E4000
  0
ACAD_PROXY_OBJECT
  5
502E
102
{ACAD_REACTORS
330
5024
102
}
330
5024
100
AcDbProxyObject
 90
      499
 91
      504
 93
      113
310
904313A34304000000000000444000
  0
ACAD_PROXY_OBJECT
  5
502F
102
{ACAD_REACTORS
330
5024
102
}
330
5024
100
AcDbProxyObject
 90
      499
 91
      504
 93
      113
310
904313A35304000000000000494000
  0
ACAD_PROXY_OBJECT
  5
5030
102
{ACAD_REACTORS
330
5024
102
}
330
5024
100
AcDbProxyObject
 90
      499
 91
      504
 93
      121
310
905313A3130304000000000000594000
  0
ACAD_PROXY_OBJECT
  5
5031
102
{ACAD_REACTORS
330
5024
102
}
330
5024
100
AcDbProxyObject
 90
      499
 91
      504
 93
      105
310
903323A310000000000000010100
  0
ACAD_PROXY_OBJECT
  5
5032
102
{ACAD_REACTORS
330
5024
102
}
330
5024
100
AcDbProxyObject
 90
      499
 91
      504
 93
      105
310
903343A310000000000000410100
  0
ACAD_PROXY_OBJECT
  5
5033
102
{ACAD_REACTORS
330
5024
102
}
330
5024
100
AcDbProxyObject
 90
      499
 91
      504
 93
      105
310
903383A310000000000000810100
  0
ACAD_PROXY_OBJECT
  5
5034
102
{ACAD_REACTORS
330
5024
102
}
330
5024
100
AcDbProxyObject
 90
      499
 91
      504
 93
      113
310
90431303A310000000000000910100
  0
ACAD_PROXY_OBJECT
  5
5035
102
{ACAD_REACTORS
330
5024
102
}
330
5024
100
AcDbProxyObject
 90
      499
 91
      504
 93
      121
310
9053130303A310000000000001650100
  0
ACAD_PROXY_OBJECT
  5
5036
102
{ACAD_REACTORS
330
5024
102
}
330
5024
100
AcDbProxyObject
 90
      499
 91
      504
 93
      257
310
90E312F31323822203D2031272D3022000000000000200FC000000000000284000
  0
ACAD_PROXY_OBJECT
  5
5037
102
{ACAD_REACTORS
330
5024
102
}
330
5024
100
AcDbProxyObject
 90
      499
 91
      504
 93
      249
310
90D312F363422203D2031272D3022000000000000240FC000000000000284000
  0
ACAD_PROXY_OBJECT
  5
5038
102
{ACAD_REACTORS
330
5024
102
}
330
5024
100
AcDbProxyObject
 90
      499
 91
      504
 93
      249
310
90D312F333222203D2031272D3022000000000000280FC000000000000284000
  0
ACAD_PROXY_OBJECT
  5
5039
102
{ACAD_REACTORS
330
5024
102
}
330
5024
100
AcDbProxyObject
 90
      499
 91
      504
 93
      249
310
90D312F313622203D2031272D30220000000000002C0FC000000000000284000
  0
ACAD_PROXY_OBJECT
  5
503A
102
{ACAD_REACTORS
330
5024
102
}
330
5024
100
AcDbProxyObject
 90
      499
 91
      504
 93
      249
310
90D332F333222203D2031272D30220000000000002E0FC000000000000284000
  0
ACAD_PROXY_OBJECT
  5
503B
102
{ACAD_REACTORS
330
5024
102
}
330
5024
100
AcDbProxyObject
 90
      499
 91
      504
 93
      241
310
90C312F3822203D2031272D3022000000000000300FC000000000000284000
  0
ACAD_PROXY_OBJECT
  5
503C
102
{ACAD_REACTORS
330
5024
102
}
330
5024
100
AcDbProxyObject
 90
      499
 91
      504
 93
      249
310
90D332F313622203D2031272D3022000000000000320FC000000000000284000
  0
ACAD_PROXY_OBJECT
  5
503D
102
{ACAD_REACTORS
330
5024
102
}
330
5024
100
AcDbProxyObject
 90
      499
 91
      504
 93
      241
310
90C312F3422203D2031272D3022000000000000340FC000000000000284000
  0
ACAD_PROXY_OBJECT
  5
503E
102
{ACAD_REACTORS
330
5024
102
}
330
5024
100
AcDbProxyObject
 90
      499
 91
      504
 93
      241
310
90C332F3822203D2031272D3022000000000000360FC000000000000284000
  0
ACAD_PROXY_OBJECT
  5
503F
102
{ACAD_REACTORS
330
5024
102
}
330
5024
100
AcDbProxyObject
 90
      499
 91
      504
 93
      241
310
90C312F3222203D2031272D3022000000000000380FC000000000000284000
  0
ACAD_PROXY_OBJECT
  5
5040
102
{ACAD_REACTORS
330
5024
102
}
330
5024
100
AcDbProxyObject
 90
      499
 91
      504
 93
      241
310
90C332F3422203D2031272D30220000000000003A0FC000000000000284000
  0
ACAD_PROXY_OBJECT
  5
5041
102
{ACAD_REACTORS
330
5024
102
}
330
5024
100
AcDbProxyObject
 90
      499
 91
      504
 93
      161
310
90A3122203D2031272D30224000000000000284000
  0
ACAD_PROXY_OBJECT
  5
5042
102
{ACAD_REACTORS
330
5024
102
}
330
5024
100
AcDbProxyObject
 90
      499
 91
      504
 93
      257
310
90E312D312F3222203D2031272D30220000000000003E0FC000000000000284000
  0
ACAD_PROXY_OBJECT
  5
5043
102
{ACAD_REACTORS
330
5024
102
}
330
5024
100
AcDbProxyObject
 90
      499
 91
      504
 93
      225
310
90A3322203D2031272D302200000000000002100000000000000284000
  0
ACAD_PROXY_OBJECT
  5
5044
102
{ACAD_REACTORS
330
5024
102
}
330
5024
100
AcDbProxyObject
 90
      499
 91
      504
 93
      225
310
90A3622203D2031272D302200000000000006100000000000000284000
  0
ACAD_PROXY_OBJECT
  5
5045
102
{ACAD_REACTORS
330
5024
102
}
330
5024
100
AcDbProxyObject
 90
      499
 91
      504
 93
      249
310
90D31272D3022203D2031272D30220000000000000A100000000000000284000
  0
ACAD_PROXY_OBJECT
  5
5010
102
{ACAD_REACTORS
330
500B
102
}
330
500B
100
AcDbProxyObject
 90
      499
 91
      503
 93
      436
310
42CC9915DA5C99599C985B595049028333333333333E33F0000000000000F90107901411070040501600405405064090741402480A0340
1001
ACAD
1000
AcDbSavedByObjectVersion
1070
     0
  0
ACAD_PROXY_OBJECT
  5
5013
102
{ACAD_REACTORS
330
500B
102
}
330
500B
100
AcDbProxyObject
 90
      499
 91
      503
 93
      388
310
4150985CDA58D07406404333333333333E33F0000000000000F90107A41107004050150841D405064090741402480A0350
1001
ACAD
1000
AcDbSavedByObjectVersion
1070
     0
  0
ACAD_PROXY_OBJECT
  5
5017
102
{ACAD_REACTORS
330
500B
102
}
330
500B
100
AcDbProxyObject
 90
      499
 91
      503
 93
      428
310
42109C9A59DA1D195B90C409028333333333333E33F0000000000000F9010790141107004050150841D405064090741402480A029950
1001
ACAD
1000
AcDbSavedByObjectVersion
1070
     0
  0
ACAD_PROXY_OBJECT
  5
501B
102
{ACAD_REACTORS
330
500B
102
}
330
500B
100
AcDbProxyObject
 90
      499
 91
      503
 93
      452
310
42D0DBDB1BDC90DA185B99D95104090240C333333333333E33F0000000000000F90108901411070040501508421405064090741402480A0350
1001
ACAD
1000
AcDbSavedByObjectVersion
1070
     0
  0
ACAD_PROXY_OBJECT
  5
5015
102
{ACAD_REACTORS
330
500B
102
}
330
500B
100
AcDbProxyObject
 90
      499
 91
      503
 93
      500
310
4290DBDB98D95C1D1D585B10940D028333333333333E33F0000000000000F90107902409070040501000000000018199010841D405064090740C02480A0340
1001
ACAD
1000
AcDbSavedByObjectVersion
1070
     0
  0
ACAD_PROXY_OBJECT
  5
5016
102
{ACAD_REACTORS
330
500B
102
}
330
500B
100
AcDbProxyObject
 90
      499
 91
      503
 93
      412
310
40D11A5B50B409028333333333333E33F0000000000000F9010790141107004050150841D405064090741402480A02677FFFFFD0
1001
ACAD
1000
AcDbSavedByObjectVersion
1070
     0
  0
ACAD_PROXY_OBJECT
  5
501E
102
{ACAD_REACTORS
330
500B
102
}
330
500B
100
AcDbProxyObject
 90
      499
 91
      503
 93
      452
310
43115919D950DBDB1BDC93D999916409028333333333333E33F0000000000000F9010790141107004050150841D405064090741402480A0350
1001
ACAD
1000
AcDbSavedByObjectVersion
1070
     0
  0
ACAD_PROXY_OBJECT
  5
501A
102
{ACAD_REACTORS
330
500B
102
}
330
500B
100
AcDbProxyObject
 90
      499
 91
      503
 93
      444
310
42D19858D95C185D1D195C9B90F409028333333333333E33F0000000000000F9010790141107004050150841D405064090741402480A0350
1001
ACAD
1000
AcDbSavedByObjectVersion
1070
     0
  0
ACAD_PROXY_OBJECT
  5
500C
102
{ACAD_REACTORS
330
500B
102
}
330
500B
100
AcDbProxyObject
 90
      499
 91
      503
 93
      380
310
41119B185D240901404333333333333E33F0000000000000F9010740A907004050150841D405064090741402480A1B50
1001
ACAD
1000
AcDbSavedByObjectVersion
1070
     0
  0
ACAD_PROXY_OBJECT
  5
500D
102
{ACAD_REACTORS
330
500B
102
}
330
500B
100
AcDbProxyObject
 90
      499
 91
      503
 93
      468
310
43519B185D15DA5D1A115919D95CD0140901404333333333333E33F0000000000000F90107409019070040501600405405064090741402480A1B50
1001
ACAD
1000
AcDbSavedByObjectVersion
1070
     0
  0
ACAD_PROXY_OBJECT
  5
500E
102
{ACAD_REACTORS
330
500B
102
}
330
500B
100
AcDbProxyObject
 90
      499
 91
      503
 93
      404
310
41D1DBDD5C985D5910240902404333333333333E33F0000000000000F9010740A9070040501641D405064090741402480A1B50
1001
ACAD
1000
AcDbSavedByObjectVersion
1070
     0
  0
ACAD_PROXY_OBJECT
  5
500F
102
{ACAD_REACTORS
330
500B
102
}
330
500B
100
AcDbProxyObject
 90
      499
 91
      503
 93
      492
310
4411DBDD5C985D5915DA5D1A115919D95CD0340902404333333333333E33F0000000000000F90107409019070040501600405405064090741402480A1B50
1001
ACAD
1000
AcDbSavedByObjectVersion
1070
     0
  0
ACAD_PROXY_OBJECT
  5
5012
102
{ACAD_REACTORS
330
500B
102
}
330
500B
100
AcDbProxyObject
 90
      499
 91
      503
 93
      476
310
41921A5919195B90640502408333333333333E33F0000000000000F901079024090700405020000000000001110200405405064090740C02480A0340
1001
ACAD
1000
AcDbSavedByObjectVersion
1070
     0
  0
ACAD_PROXY_OBJECT
  5
501C
102
{ACAD_REACTORS
330
500B
102
}
330
500B
100
AcDbProxyObject
 90
      499
 91
      503
 93
      428
310
42529A5D1D195C93D999914409028333333333333E33F0000000000000F9010790141107004050150A41D405064090741402480A0350
1001
ACAD
1000
AcDbSavedByObjectVersion
1070
     0
  0
ACAD_PROXY_OBJECT
  5
5019
102
{ACAD_REACTORS
330
500B
102
}
330
500B
100
AcDbProxyObject
 90
      499
 91
      503
 93
      444
310
42D31A5B995C185D1D195C9B90E409028333333333333E33F0000000000000F9010790141107004050750841D405064090741402483A0350
1001
ACAD
1000
AcDbSavedByObjectVersion
1070
     0
  0
ACAD_PROXY_OBJECT
  5
540B
102
{ACAD_REACTORS
330
500B
102
}
330
500B
100
AcDbProxyObject
 90
      499
 91
      503
 93
      412
310
90A409038333333333333E33F0000000000000F901074090290700405010000000000201990108421405064090741402480A1B40
1001
ACAD
1000
AcDbSavedByObjectVersion
1070
     0
  0
ACAD_PROXY_OBJECT
  5
501D
102
{ACAD_REACTORS
330
500B
102
}
330
500B
100
AcDbProxyObject
 90
      499
 91
      503
 93
      444
310
42D3DD995C9A185B99D3D999915409028333333333333E33F0000000000000F9010790141107004050150941D405064090741402480A0350
1001
ACAD
1000
AcDbSavedByObjectVersion
1070
     0
  0
ACAD_PROXY_OBJECT
  5
5014
102
{ACAD_REACTORS
330
500B
102
}
330
500B
100
AcDbProxyObject
 90
      499
 91
      503
 93
      428
310
425499585B1A5CDD1A58D08409038333333333333E33F0000000000000F9010740A907004050150800405405064090740C02480A1B40
1001
ACAD
1000
AcDbSavedByObjectVersion
1070
     0
  0
ACAD_PROXY_OBJECT
  5
5023
102
{ACAD_REACTORS
330
500B
102
}
330
500B
100
AcDbProxyObject
 90
      499
 91
      503
 93
      420
310
4194DA1859195911B40902404333333333333E33F0000000000000F9010740A41107004050150800405405064090840C02480A0B40
1001
ACAD
1000
AcDbSavedByObjectVersion
1070
     0
  0
ACAD_PROXY_OBJECT
  5
5022
102
{ACAD_REACTORS
330
500B
102
}
330
500B
100
AcDbProxyObject
 90
      499
 91
      503
 93
      516
310
4454DA18591959081DDA5D1A08195919D95CD1A40902404333333333333E33F0000000000000F901074090142907004050250800405405064090740C02480A0B40
1001
ACAD
1000
AcDbSavedByObjectVersion
1070
     0
  0
ACAD_PROXY_OBJECT
  5
501F
102
{ACAD_REACTORS
330
500B
102
}
330
500B
100
AcDbProxyObject
 90
      499
 91
      503
 93
      532
310
4394DA1859195CC81BD98811DC985E5174090240C333333333333E33F0000000000000F901079024090741D01000000000000111010841D405064090740C02480A0340
1001
ACAD
1000
AcDbSavedByObjectVersion
1070
     0
  0
ACAD_PROXY_OBJECT
  5
5020
102
{ACAD_REACTORS
330
500B
102
}
330
500B
100
AcDbProxyObject
 90
      499
 91
      503
 93
      476
310
41D4DAD95D18DA1E51840502408333333333333E33F0000000000000F901079024090741D01000000000000111010B41D405064090741802480A0340
1001
ACAD
1000
AcDbSavedByObjectVersion
1070
     0
  0
ACAD_PROXY_OBJECT
  5
5018
102
{ACAD_REACTORS
330
500B
102
}
330
500B
100
AcDbProxyObject
 90
      499
 91
      503
 93
      412
310
41D51A1A58DAD95B90D409028333333333333E33F0000000000000F9010790141107004050150C41D405064090741402480A0350
1001
ACAD
1000
AcDbSavedByObjectVersion
1070
     0
  0
ACAD_PROXY_OBJECT
  5
5011
102
{ACAD_REACTORS
330
500B
102
}
330
500B
100
AcDbProxyObject
 90
      499
 91
      503
 93
      420
310
4255DA5C99599C985B595059028333333333333E33F0000000000000F90107901411070040501600405405064090740C02480A0340
1001
ACAD
1000
AcDbSavedByObjectVersion
1070
     0
  0
ACAD_PROXY_OBJECT
  5
5021
102
{ACAD_REACTORS
330
500B
102
}
330
500B
100
AcDbProxyObject
 90
      499
 91
      503
 93
      404
310
41560B54985E51940902404000000000000E03F0000000000000F9010740501907004050150841D405064090740C02480A1B40
1001
ACAD
1000
AcDbSavedByObjectVersion
1070
     0
  0
XRECORD
  5
5BC6
102
{ACAD_REACTORS
330
5BBC
102
}
330
5BBC
100
AcDbXrecord
340
0
  0
XRECORD
  5
5BC5
102
{ACAD_REACTORS
330
5BBC
102
}
330
5BBC
100
AcDbXrecord
 90
        0
  0
XRECORD
  5
5BDF
102
{ACAD_REACTORS
330
5BBC
102
}
330
5BBC
100
AcDbXrecord
340
2948
  0
XRECORD
  5
5BDC
102
{ACAD_REACTORS
330
5BBC
102
}
330
5BBC
100
AcDbXrecord
1000
DSTYLE
1002
{
1070
   171
 70
     2
1070
   143
 40
0.0394
1070
   274
 70
     2
1070
    41
 40
6.0
1070
   342
340
2AF4
1070
   271
 70
     1
1070
   278
 70
    46
1070
   341
340
2AF4
1070
   272
 70
     1
1070
    48
 40
0.1
1070
   283
 70
     1
1070
    47
 40
0.1
1070
   145
 40
1.0
1070
   340
340
10
1070
   140
 40
8.0
1070
   284
 70
     0
1002
}
  0
XRECORD
  5
5BC7
102
{ACAD_REACTORS
330
5BBC
102
}
330
5BBC
100
AcDbXrecord
  1
{23698909-1D67-4744-B0E2-8DE11E3ED422}
  0
XRECORD
  5
5BBF
102
{ACAD_REACTORS
330
5BBC
102
}
330
5BBC
100
AcDbXrecord
  1

  0
XRECORD
  5
5BC4
102
{ACAD_REACTORS
330
5BBC
102
}
330
5BBC
100
AcDbXrecord
 90
        0
  0
XRECORD
  5
5BC1
102
{ACAD_REACTORS
330
5BBC
102
}
330
5BBC
100
AcDbXrecord
340
2816
  0
XRECORD
  5
5BC3
102
{ACAD_REACTORS
330
5BBC
102
}
330
5BBC
100
AcDbXrecord
 90
    10781
  0
XRECORD
  5
5BE0
102
{ACAD_REACTORS
330
5BBC
102
}
330
5BBC
100
AcDbXrecord
340
2947
  0
XRECORD
  5
5BC2
102
{ACAD_REACTORS
330
5BBC
102
}
330
5BBC
100
AcDbXrecord
340
2817
  0
XRECORD
  5
5BC9
102
{ACAD_REACTORS
330
5BBC
102
}
330
5BBC
100
AcDbXrecord
 40
0.0
  0
XRECORD
  5
5BCC
102
{ACAD_REACTORS
330
5BBC
102
}
330
5BBC
100
AcDbXrecord
340
0
  0
XRECORD
  5
5BD2
102
{ACAD_REACTORS
330
5BBC
102
}
330
5BBC
100
AcDbXrecord
 10
0.0
 20
0.0
 30
0.0
  0
XRECORD
  5
5BCE
102
{ACAD_REACTORS
330
5BBC
102
}
330
5BBC
100
AcDbXrecord
 10
0.0
 20
0.0
 30
0.0
  0
XRECORD
  5
5BD1
102
{ACAD_REACTORS
330
5BBC
102
}
330
5BBC
100
AcDbXrecord
 10
0.0
 20
0.0
 30
0.0
  0
XRECORD
  5
5BCF
102
{ACAD_REACTORS
330
5BBC
102
}
330
5BBC
100
AcDbXrecord
 10
0.0
 20
0.0
 30
0.0
  0
XRECORD
  5
5BD0
102
{ACAD_REACTORS
330
5BBC
102
}
330
5BBC
100
AcDbXrecord
 10
0.0
 20
0.0
 30
0.0
  0
XRECORD
  5
5BCD
102
{ACAD_REACTORS
330
5BBC
102
}
330
5BBC
100
AcDbXrecord
 10
0.0
 20
0.0
 30
0.0
  0
XRECORD
  5
5BCA
102
{ACAD_REACTORS
330
5BBC
102
}
330
5BBC
100
AcDbXrecord
340
0
  0
XRECORD
  5
5BCB
102
{ACAD_REACTORS
330
5BBC
102
}
330
5BBC
100
AcDbXrecord
 70
     0
  0
XRECORD
  5
5BC0
102
{ACAD_REACTORS
330
5BBC
102
}
330
5BBC
100
AcDbXrecord
  1

  0
XRECORD
  5
5BBD
102
{ACAD_REACTORS
330
5BBC
102
}
330
5BBC
100
AcDbXrecord
 90
        1
  0
XRECORD
  5
5BBE
102
{ACAD_REACTORS
330
5BBC
102
}
330
5BBC
100
AcDbXrecord
 90
       70
  0
XRECORD
  5
5BD5
102
{ACAD_REACTORS
330
5BBC
102
}
330
5BBC
100
AcDbXrecord
340
0
  0
XRECORD
  5
5BDB
102
{ACAD_REACTORS
330
5BBC
102
}
330
5BBC
100
AcDbXrecord
 10
0.0
 20
0.0
 30
0.0
  0
XRECORD
  5
5BD7
102
{ACAD_REACTORS
330
5BBC
102
}
330
5BBC
100
AcDbXrecord
 10
0.0
 20
0.0
 30
0.0
  0
XRECORD
  5
5BDA
102
{ACAD_REACTORS
330
5BBC
102
}
330
5BBC
100
AcDbXrecord
 10
0.0
 20
0.0
 30
0.0
  0
XRECORD
  5
5BD8
102
{ACAD_REACTORS
330
5BBC
102
}
330
5BBC
100
AcDbXrecord
 10
0.0
 20
0.0
 30
0.0
  0
XRECORD
  5
5BD9
102
{ACAD_REACTORS
330
5BBC
102
}
330
5BBC
100
AcDbXrecord
 10
0.0
 20
0.0
 30
0.0
  0
XRECORD
  5
5BD6
102
{ACAD_REACTORS
330
5BBC
102
}
330
5BBC
100
AcDbXrecord
 10
0.0
 20
0.0
 30
0.0
  0
XRECORD
  5
5BD3
102
{ACAD_REACTORS
330
5BBC
102
}
330
5BBC
100
AcDbXrecord
340
0
  0
XRECORD
  5
5BD4
102
{ACAD_REACTORS
330
5BBC
102
}
330
5BBC
100
AcDbXrecord
 70
     0
  0
XRECORD
  5
5BC8
102
{ACAD_REACTORS
330
5BBC
102
}
330
5BBC
100
AcDbXrecord
  1
{2CE2396E-468A-40B1-AE79-4D380249D03C}
  0
DICTIONARYVAR
  5
51BF
102
{ACAD_REACTORS
330
51BE
102
}
330
51BE
100
DictionaryVariables
280
     0
  1
1:1
  0
DICTIONARYVAR
  5
51C1
102
{ACAD_REACTORS
330
51BE
102
}
330
51BE
100
DictionaryVariables
280
     0
  1
Standard
  0
DICTIONARYVAR
  5
51C0
102
{ACAD_REACTORS
330
51BE
102
}
330
51BE
100
DictionaryVariables
280
     0
  1
Standard
  0
DICTIONARYVAR
  5
5BDD
102
{ACAD_REACTORS
330
51BE
102
}
330
51BE
100
DictionaryVariables
280
     0
  1
1
  0
DICTIONARYVAR
  5
5BDE
102
{ACAD_REACTORS
330
51BE
102
}
330
51BE
100
DictionaryVariables
280
     0
  1
0
  0
DICTIONARYVAR
  5
51C2
102
{ACAD_REACTORS
330
51BE
102
}
330
51BE
100
DictionaryVariables
280
     0
  1
0
  0
DICTIONARYVAR
  5
51C3
102
{ACAD_REACTORS
330
51BE
102
}
330
51BE
100
DictionaryVariables
280
     0
  1
0
  0
DICTIONARY
  5
50D4
102
{ACAD_REACTORS
330
50D3
102
}
330
50D3
100
AcDbDictionary
  0
DICTIONARY
  5
50ED
102
{ACAD_REACTORS
330
50EC
102
}
330
50EC
100
AcDbDictionary
  0
DICTIONARY
  5
5287
102
{ACAD_REACTORS
330
5286
102
}
330
5286
100
AcDbDictionary
  0
DICTIONARY
  5
528B
102
{ACAD_REACTORS
330
528A
102
}
330
528A
100
AcDbDictionary
  0
DICTIONARY
  5
528F
102
{ACAD_REACTORS
330
528E
102
}
330
528E
100
AcDbDictionary
  0
DICTIONARY
  5
5293
102
{ACAD_REACTORS
330
5292
102
}
330
5292
100
AcDbDictionary
  0
DICTIONARY
  5
5297
102
{ACAD_REACTORS
330
5296
102
}
330
5296
100
AcDbDictionary
  0
DICTIONARY
  5
529B
102
{ACAD_REACTORS
330
529A
102
}
330
529A
100
AcDbDictionary
  0
DICTIONARY
  5
529F
102
{ACAD_REACTORS
330
529E
102
}
330
529E
100
AcDbDictionary
  0
DICTIONARY
  5
52A3
102
{ACAD_REACTORS
330
52A2
102
}
330
52A2
100
AcDbDictionary
  0
DICTIONARY
  5
579E
102
{ACAD_REACTORS
330
579D
102
}
330
579D
100
AcDbDictionary
  0
DICTIONARY
  5
58AE
102
{ACAD_REACTORS
330
58AD
102
}
330
58AD
100
AcDbDictionary
  0
DICTIONARY
  5
58B2
102
{ACAD_REACTORS
330
58B1
102
}
330
58B1
100
AcDbDictionary
  0
DICTIONARY
  5
58EF
102
{ACAD_REACTORS
330
58EE
102
}
330
58EE
100
AcDbDictionary
  0
DICTIONARY
  5
58F3
102
{ACAD_REACTORS
330
58F2
102
}
330
58F2
100
AcDbDictionary
  0
DICTIONARY
  5
550F
102
{ACAD_REACTORS
330
550E
102
}
330
550E
100
AcDbDictionary
  0
DICTIONARY
  5
5600
102
{ACAD_REACTORS
330
55FF
102
}
330
55FF
100
AcDbDictionary
  0
DICTIONARY
  5
5665
102
{ACAD_REACTORS
330
5664
102
}
330
5664
100
AcDbDictionary
  0
DICTIONARY
  5
59DD
102
{ACAD_REACTORS
330
59DC
102
}
330
59DC
100
AcDbDictionary
  0
DICTIONARY
  5
59E1
102
{ACAD_REACTORS
330
59E0
102
}
330
59E0
100
AcDbDictionary
  0
DICTIONARY
  5
5B5F
102
{ACAD_REACTORS
330
5B5E
102
}
330
5B5E
100
AcDbDictionary
  0
DICTIONARY
  5
5BE6
330
5047
100
AcDbDictionary
280
     1
  3
ACAD_XREC_ROUNDTRIP
360
5BE7
  0
DICTIONARY
  5
5BE4
330
5046
100
AcDbDictionary
280
     1
  3
ACAD_XREC_ROUNDTRIP
360
5BE5
  0
DICTIONARY
  5
5BE8
330
5048
100
AcDbDictionary
280
     1
  3
ACAD_XREC_ROUNDTRIP
360
5BE9
  0
XRECORD
  5
5BE7
102
{ACAD_REACTORS
330
5BE6
102
}
330
5BE6
100
AcDbXrecord
102
MATERIAL
148
0.0
149
0.0
149
0.0
 93
        0
 94
      127
282
     0
 72
     1
 77
     1
171
     1
175
     1
179
     1
273
     0
  0
XRECORD
  5
5BE5
102
{ACAD_REACTORS
330
5BE4
102
}
330
5BE4
100
AcDbXrecord
102
MATERIAL
148
0.0
149
0.0
149
0.0
 93
        0
 94
      127
282
     0
 72
     1
 77
     1
171
     1
175
     1
179
     1
273
     0
  0
XRECORD
  5
5BE9
102
{ACAD_REACTORS
330
5BE8
102
}
330
5BE8
100
AcDbXrecord
102
MATERIAL
148
0.0
149
0.0
149
0.0
 93
        0
 94
      127
282
     0
 72
     1
 77
     1
171
     1
175
     1
179
     1
273
     0
  0
ENDSEC
  0
EOF
