  0
SECTION
  2
HEADER
  9
$ACADVER
  1
AC1014
  9
$ACADMAINTVER
 70
     9
  9
$DWGCODEPAGE
  3
ANSI_932
  9
$INSBASE
 10
0.0
 20
0.0
 30
0.0
  9
$EXTMIN
 10
-52.087285324812
 20
113.671485806499
 30
0.0
  9
$EXTMAX
 10
595.16772696789
 20
539.06766332705
 30
0.0
  9
$LIMMIN
 10
-360.747566795242
 20
4.457354754526
  9
$LIMMAX
 10
-162.153696144267
 20
287.675440264018
  9
$ORTHOMODE
 70
     0
  9
$REGENMODE
 70
     1
  9
$FILLMODE
 70
     1
  9
$QTEXTMODE
 70
     0
  9
$MIRRTEXT
 70
     1
  9
$DRAGMODE
 70
     2
  9
$LTSCALE
 40
1.0
  9
$OSMODE
 70
   935
  9
$ATTMODE
 70
     1
  9
$TEXTSIZE
 40
4.0
  9
$TRACEWID
 40
1.0
  9
$TEXTSTYLE
  7
STANDARD
  9
$CLAYER
  8
中心線
  9
$CELTYPE
  6
BYLAYER
  9
$CECOLOR
 62
   256
  9
$CELTSCALE
 40
10.0
  9
$DELOBJ
 70
     1
  9
$DISPSILH
 70
     0
  9
$DIMSCALE
 40
1.0
  9
$DIMASZ
 40
6.0
  9
$DIMEXO
 40
0.625
  9
$DIMDLI
 40
3.75
  9
$DIMRND
 40
0.0
  9
$DIMDLE
 40
0.0
  9
$DIMEXE
 40
1.25
  9
$DIMTP
 40
0.1
  9
$DIMTM
 40
0.1
  9
$DIMTXT
 40
8.0
  9
$DIMCEN
 40
2.5
  9
$DIMTSZ
 40
0.0
  9
$DIMTOL
 70
     0
  9
$DIMLIM
 70
     0
  9
$DIMTIH
 70
     0
  9
$DIMTOH
 70
     0
  9
$DIMSE1
 70
     0
  9
$DIMSE2
 70
     0
  9
$DIMTAD
 70
     1
  9
$DIMZIN
 70
     8
  9
$DIMBLK
  1
OPEN30
  9
$DIMASO
 70
     1
  9
$DIMSHO
 70
     1
  9
$DIMPOST
  1

  9
$DIMAPOST
  1

  9
$DIMALT
 70
     0
  9
$DIMALTD
 70
     2
  9
$DIMALTF
 40
0.0394
  9
$DIMLFAC
 40
1.0
  9
$DIMTOFL
 70
     1
  9
$DIMTVP
 40
1.0
  9
$DIMTIX
 70
     0
  9
$DIMSOXD
 70
     0
  9
$DIMSAH
 70
     0
  9
$DIMBLK1
  1

  9
$DIMBLK2
  1

  9
$DIMSTYLE
  2
ISO-25
  9
$DIMCLRD
 70
     0
  9
$DIMCLRE
 70
     0
  9
$DIMCLRT
 70
     0
  9
$DIMTFAC
 40
1.0
  9
$DIMGAP
 40
0.625
  9
$DIMJUST
 70
     0
  9
$DIMSD1
 70
     0
  9
$DIMSD2
 70
     0
  9
$DIMTOLJ
 70
     1
  9
$DIMTZIN
 70
     0
  9
$DIMALTZ
 70
     0
  9
$DIMALTTZ
 70
     0
  9
$DIMFIT
 70
     3
  9
$DIMUPT
 70
     0
  9
$DIMUNIT
 70
     2
  9
$DIMDEC
 70
     1
  9
$DIMTDEC
 70
     1
  9
$DIMALTU
 70
     2
  9
$DIMALTTD
 70
     2
  9
$DIMTXSTY
  7
STANDARD
  9
$DIMAUNIT
 70
     0
  9
$LUNITS
 70
     2
  9
$LUPREC
 70
     4
  9
$SKETCHINC
 40
1.0
  9
$FILLETRAD
 40
3.0
  9
$AUNITS
 70
     0
  9
$AUPREC
 70
     0
  9
$MENU
  1
.
  9
$ELEVATION
 40
0.0
  9
$PELEVATION
 40
0.0
  9
$THICKNESS
 40
0.0
  9
$LIMCHECK
 70
     0
  9
$CHAMFERA
 40
1.0
  9
$CHAMFERB
 40
1.0
  9
$CHAMFERC
 40
20.0
  9
$CHAMFERD
 40
0.0
  9
$SKPOLY
 70
     0
  9
$TDCREATE
 40
2450576.597302431
  9
$TDUPDATE
 40
2457661.615450579
  9
$TDINDWG
 40
1.5233388657
  9
$TDUSRTIMER
 40
1.5233388657
  9
$USRTIMER
 70
     1
  9
$ANGBASE
 50
0.0
  9
$ANGDIR
 70
     0
  9
$PDMODE
 70
     0
  9
$PDSIZE
 40
0.0
  9
$PLINEWID
 40
0.0
  9
$COORDS
 70
     1
  9
$SPLFRAME
 70
     0
  9
$SPLINETYPE
 70
     6
  9
$SPLINESEGS
 70
     8
  9
$ATTDIA
 70
     0
  9
$ATTREQ
 70
     1
  9
$HANDLING
 70
     1
  9
$HANDSEED
  5
58F6
  9
$SURFTAB1
 70
     6
  9
$SURFTAB2
 70
     6
  9
$SURFTYPE
 70
     6
  9
$SURFU
 70
     6
  9
$SURFV
 70
     6
  9
$UCSNAME
  2

  9
$UCSORG
 10
0.0
 20
0.0
 30
0.0
  9
$UCSXDIR
 10
1.0
 20
0.0
 30
0.0
  9
$UCSYDIR
 10
0.0
 20
1.0
 30
0.0
  9
$PUCSNAME
  2

  9
$PUCSORG
 10
0.0
 20
0.0
 30
0.0
  9
$PUCSXDIR
 10
1.0
 20
0.0
 30
0.0
  9
$PUCSYDIR
 10
0.0
 20
1.0
 30
0.0
  9
$USERI1
 70
     0
  9
$USERI2
 70
     0
  9
$USERI3
 70
     0
  9
$USERI4
 70
     0
  9
$USERI5
 70
     0
  9
$USERR1
 40
0.0
  9
$USERR2
 40
0.0
  9
$USERR3
 40
0.0
  9
$USERR4
 40
0.0
  9
$USERR5
 40
0.0
  9
$WORLDVIEW
 70
     1
  9
$SHADEDGE
 70
     3
  9
$SHADEDIF
 70
    70
  9
$TILEMODE
 70
     0
  9
$MAXACTVP
 70
    16
  9
$PINSBASE
 10
0.0
 20
0.0
 30
0.0
  9
$PLIMCHECK
 70
     0
  9
$PEXTMIN
 10
4.746305129083
 20
2.223794478791
 30
0.0
  9
$PEXTMAX
 10
404.746305129083
 20
282.223794478791
 30
0.0
  9
$PLIMMIN
 10
-6.946593322754
 20
-6.94658241272
  9
$PLIMMAX
 10
417.778637084961
 20
293.315276107788
  9
$UNITMODE
 70
     0
  9
$VISRETAIN
 70
     0
  9
$PLINEGEN
 70
     0
  9
$PSLTSCALE
 70
     1
  9
$TREEDEPTH
 70
  3020
  9
$PICKSTYLE
 70
     1
  9
$CMLSTYLE
  2
STANDARD
  9
$CMLJUST
 70
     0
  9
$CMLSCALE
 40
1.0
  9
$PROXYGRAPHICS
 70
     1
  9
$MEASUREMENT
 70
     1
  0
ENDSEC
  0
SECTION
  2
CLASSES
  0
CLASS
  1
ACDBDICTIONARYWDFLT
  2
AcDbDictionaryWithDefault
  3
ObjectDBX Classes
 90
        0
280
     0
281
     0
  0
CLASS
  1
ACDBPLACEHOLDER
  2
AcDbPlaceHolder
  3
ObjectDBX Classes
 90
        0
280
     0
281
     0
  0
CLASS
  1
LAYOUT
  2
AcDbLayout
  3
ObjectDBX Classes
 90
        0
280
     0
281
     0
  0
CLASS
  1
SORTENTSTABLE
  2
AcDbSortentsTable
  3
ObjectDBX Classes
 90
        0
280
     0
281
     0
  0
CLASS
  1
VISUALSTYLE
  2
AcDbVisualStyle
  3
ObjectDBX Classes
 90
     4095
280
     0
281
     0
  0
CLASS
  1
SCALE
  2
AcDbScale
  3
ObjectDBX Classes
 90
     1153
280
     0
281
     0
  0
CLASS
  1
MATERIAL
  2
AcDbMaterial
  3
ObjectDBX Classes
 90
     1153
280
     0
281
     0
  0
CLASS
  1
TABLESTYLE
  2
AcDbTableStyle
  3
ObjectDBX Classes
 90
     4095
280
     0
281
     0
  0
CLASS
  1
MLEADERSTYLE
  2
AcDbMLeaderStyle
  3
ACDB_MLEADERSTYLE_CLASS
 90
     4095
280
     0
281
     0
  0
CLASS
  1
SUN
  2
AcDbSun
  3
SCENEOE
 90
     1153
280
     0
281
     0
  0
CLASS
  1
DICTIONARYVAR
  2
AcDbDictionaryVar
  3
ObjectDBX Classes
 90
        0
280
     0
281
     0
  0
CLASS
  1
CELLSTYLEMAP
  2
AcDbCellStyleMap
  3
ObjectDBX Classes
 90
     1152
280
     0
281
     0
  0
CLASS
  1
XRECORD
  2
AcDbXrecord
  3
ObjectDBX Classes
 90
        0
280
     0
281
     0
  0
CLASS
  1
LWPOLYLINE
  2
AcDbPolyline
  3
ObjectDBX Classes
 90
        0
280
     0
281
     1
  0
CLASS
  1
HATCH
  2
AcDbHatch
  3
ObjectDBX Classes
 90
        0
280
     0
281
     1
  0
ENDSEC
  0
SECTION
  2
TABLES
  0
TABLE
  2
VPORT
  5
8
102
{ACAD_XDICTIONARY
360
58EE
102
}
330
0
100
AcDbSymbolTable
 70
     1
  0
VPORT
  5
4A99
330
8
100
AcDbSymbolTableRecord
100
AcDbViewportTableRecord
  2
*ACTIVE
 70
     0
 10
0.0
 20
0.0
 11
1.0
 21
1.0
 12
271.540220821539
 22
326.369574566775
 13
0.0
 23
0.0
 14
1.0
 24
1.0
 15
0.0
 25
0.0
 16
0.0
 26
0.0
 36
1.0
 17
0.0
 27
0.0
 37
0.0
 40
433.904101070963
 41
1.759407069555
 42
50.0
 43
0.0
 44
0.0
 50
0.0
 51
0.0
 71
    16
 72
   100
 73
     1
 74
     0
 75
     0
 76
     0
 77
     0
 78
     0
  0
ENDTAB
  0
TABLE
  2
LTYPE
  5
5
330
0
100
AcDbSymbolTable
 70
     6
  0
LTYPE
  5
14
330
5
100
AcDbSymbolTableRecord
100
AcDbLinetypeTableRecord
  2
BYBLOCK
 70
     0
  3

 72
    65
 73
     0
 40
0.0
  0
LTYPE
  5
15
330
5
100
AcDbSymbolTableRecord
100
AcDbLinetypeTableRecord
  2
BYLAYER
 70
     0
  3

 72
    65
 73
     0
 40
0.0
  0
LTYPE
  5
16
330
5
100
AcDbSymbolTableRecord
100
AcDbLinetypeTableRecord
  2
CONTINUOUS
 70
     0
  3
Solid line
 72
    65
 73
     0
 40
0.0
  0
LTYPE
  5
1EC
330
5
100
AcDbSymbolTableRecord
100
AcDbLinetypeTableRecord
  2
CENTER
 70
     0
  3
____ _ ____ _ ____ _ ____ _ ____ _ ____ _ ____ 
 72
    65
 73
     4
 40
2.0
 49
1.25
 74
     0
 49
-0.25
 74
     0
 49
0.25
 74
     0
 49
-0.25
 74
     0
  0
LTYPE
  5
1ED
330
5
100
AcDbSymbolTableRecord
100
AcDbLinetypeTableRecord
  2
DASHED
 70
     0
  3
__ __ __ __ __ __ __ __ __ __ __ __ __ __ __ __
 72
    65
 73
     2
 40
0.75
 49
0.5
 74
     0
 49
-0.25
 74
     0
  0
LTYPE
  5
2B1F
330
5
100
AcDbSymbolTableRecord
100
AcDbLinetypeTableRecord
  2
DASHDOT
 70
     0
  3
一点鎖線
 72
    65
 73
     4
 40
25.6
 49
20.0
 74
     0
 49
-2.0
 74
     0
 49
1.6
 74
     0
 49
-2.0
 74
     0
  0
LTYPE
  5
31A1
330
5
100
AcDbSymbolTableRecord
100
AcDbLinetypeTableRecord
  2
CENTER2
 70
     0
  3
Center (.5x) ___ _ ___ _ ___ _ ___ _ ___ _ ___
 72
    65
 73
     4
 40
28.575
 49
19.05
 74
     0
 49
-3.175
 74
     0
 49
3.175
 74
     0
 49
-3.175
 74
     0
  0
LTYPE
  5
409E
330
5
100
AcDbSymbolTableRecord
100
AcDbLinetypeTableRecord
  2
DASHED2
 70
     0
  3
Dashed (.5x) _ _ _ _ _ _ _ _ _ _ _ _ _ _ _ _ _
 72
    65
 73
     2
 40
9.525
 49
6.35
 74
     0
 49
-3.175
 74
     0
  0
ENDTAB
  0
TABLE
  2
LAYER
  5
2
102
{ACAD_XDICTIONARY
360
29EA
102
}
330
0
100
AcDbSymbolTable
 70
    12
  0
LAYER
  5
F
330
2
100
AcDbSymbolTableRecord
100
AcDbLayerTableRecord
  2
0
 70
     0
 62
     7
  6
CONTINUOUS
  0
LAYER
  5
61
330
2
100
AcDbSymbolTableRecord
100
AcDbLayerTableRecord
  2
図枠太線
 70
     0
 62
   251
  6
CONTINUOUS
  0
LAYER
  5
62
330
2
100
AcDbSymbolTableRecord
100
AcDbLayerTableRecord
  2
図枠細線
 70
     0
 62
   252
  6
CONTINUOUS
  0
LAYER
  5
63
330
2
100
AcDbSymbolTableRecord
100
AcDbLayerTableRecord
  2
図枠ロゴマーク
 70
     0
 62
   253
  6
CONTINUOUS
  0
LAYER
  5
1EF
330
2
100
AcDbSymbolTableRecord
100
AcDbLayerTableRecord
  2
外形線
 70
     0
 62
     7
  6
CONTINUOUS
  0
LAYER
  5
1F0
330
2
100
AcDbSymbolTableRecord
100
AcDbLayerTableRecord
  2
寸法線
 70
     0
 62
     1
  6
CONTINUOUS
  0
LAYER
  5
1F1
330
2
100
AcDbSymbolTableRecord
100
AcDbLayerTableRecord
  2
中心線
 70
     0
 62
     4
  6
CENTER
  0
LAYER
  5
1F4
330
2
100
AcDbSymbolTableRecord
100
AcDbLayerTableRecord
  2
DEFPOINTS
 70
     0
 62
     7
  6
CONTINUOUS
  0
LAYER
  5
2AA2
330
2
100
AcDbSymbolTableRecord
100
AcDbLayerTableRecord
  2
下書線
 70
     0
 62
     2
  6
CONTINUOUS
  0
LAYER
  5
2AA3
330
2
100
AcDbSymbolTableRecord
100
AcDbLayerTableRecord
  2
隠れ線
 70
     0
 62
     3
  6
DASHED
  0
LAYER
  5
2AA4
330
2
100
AcDbSymbolTableRecord
100
AcDbLayerTableRecord
  2
細線
 70
     0
 62
     6
  6
CONTINUOUS
  0
LAYER
  5
2AA5
330
2
100
AcDbSymbolTableRecord
100
AcDbLayerTableRecord
  2
太線
 70
     0
 62
   190
  6
CONTINUOUS
  0
ENDTAB
  0
TABLE
  2
STYLE
  5
3
330
0
100
AcDbSymbolTable
 70
     2
  0
STYLE
  5
10
330
3
100
AcDbSymbolTableRecord
100
AcDbTextStyleTableRecord
  2
STANDARD
 70
     0
 40
0.0
 41
1.0
 50
0.0
 71
     0
 42
4.0
  3
ISOCP
  4
bigfont.shx
  0
STYLE
  5
64
330
3
100
AcDbSymbolTableRecord
100
AcDbTextStyleTableRecord
  2
EXCADSTD
 70
     0
 40
0.0
 41
1.0
 50
0.0
 71
     0
 42
0.2
  3
monotxt
  4
bigfont
  0
ENDTAB
  0
TABLE
  2
VIEW
  5
6
330
0
100
AcDbSymbolTable
 70
     0
  0
ENDTAB
  0
TABLE
  2
UCS
  5
7
330
0
100
AcDbSymbolTable
 70
     0
  0
ENDTAB
  0
TABLE
  2
APPID
  5
9
330
0
100
AcDbSymbolTable
 70
     6
  0
APPID
  5
11
330
9
100
AcDbSymbolTableRecord
100
AcDbRegAppTableRecord
  2
ACAD
 70
     0
  0
APPID
  5
3507
330
9
100
AcDbSymbolTableRecord
100
AcDbRegAppTableRecord
  2
ACAD_DIMASSOC_CALC_DIMLFAC
 70
     0
  0
APPID
  5
3508
330
9
100
AcDbSymbolTableRecord
100
AcDbRegAppTableRecord
  2
ACAD_DIMASSOC_DIMLFAC
 70
     0
  0
APPID
  5
3509
330
9
100
AcDbSymbolTableRecord
100
AcDbRegAppTableRecord
  2
ACAD_DIMASSOC_OVERRIDDEN_D
 70
     0
  0
APPID
  5
4B37
330
9
100
AcDbSymbolTableRecord
100
AcDbRegAppTableRecord
  2
ACADANNOTATIVE
 70
     0
  0
APPID
  5
4B9A
330
9
100
AcDbSymbolTableRecord
100
AcDbRegAppTableRecord
  2
ACAD_MLEADERVER
 70
     0
  0
ENDTAB
  0
TABLE
  2
DIMSTYLE
  5
A
330
0
100
AcDbSymbolTable
 70
     2
  0
DIMSTYLE
105
1D
330
A
100
AcDbSymbolTableRecord
100
AcDbDimStyleTableRecord
  2
STANDARD
 70
     0
  3

  4

  5

  6

  7

 40
1.0
 41
0.18
 42
0.0625
 43
0.38
 44
0.18
 45
0.0
 46
0.0
 47
0.0
 48
0.0
140
0.18
141
0.09
142
0.0
143
25.4
144
1.0
145
0.0
146
1.0
147
0.09
 71
     0
 72
     0
 73
     1
 74
     1
 75
     0
 76
     0
 77
     0
 78
     0
170
     0
171
     2
172
     0
173
     0
174
     0
175
     0
176
     0
177
     0
178
     0
270
     2
271
     4
272
     4
273
     2
274
     2
340
10
275
     0
280
     0
281
     0
282
     0
283
     1
284
     0
285
     0
286
     0
287
     3
288
     0
  0
DIMSTYLE
105
24
102
{ACAD_REACTORS
330
4301
330
430D
330
56F6
330
56F9
330
56FA
330
56FB
330
56FC
330
56FD
330
56FE
330
56FF
330
5788
330
5789
330
578A
102
}
330
A
100
AcDbSymbolTableRecord
100
AcDbDimStyleTableRecord
  2
ISO-25
 70
     0
  3

  4

  5

  6

  7

 40
1.0
 41
2.5
 42
0.625
 43
3.75
 44
1.25
 45
0.0
 46
0.0
 47
0.0
 48
0.0
140
2.5
141
2.5
142
0.0
143
0.0394
144
1.0
145
1.0
146
1.0
147
0.625
 71
     0
 72
     0
 73
     1
 74
     0
 75
     0
 76
     0
 77
     1
 78
     8
170
     0
171
     2
172
     1
173
     0
174
     0
175
     0
176
     0
177
     0
178
     0
270
     2
271
     4
272
     4
273
     2
274
     2
340
10
275
     0
280
     0
281
     0
282
     0
283
     1
284
     0
285
     0
286
     0
287
     3
288
     0
  0
ENDTAB
  0
TABLE
  2
BLOCK_RECORD
  5
1
330
0
100
AcDbSymbolTable
 70
    43
  0
BLOCK_RECORD
  5
1A
330
1
100
AcDbSymbolTableRecord
100
AcDbBlockTableRecord
  2
*MODEL_SPACE
  0
BLOCK_RECORD
  5
28FB
330
1
100
AcDbSymbolTableRecord
100
AcDbBlockTableRecord
  2
*PAPER_SPACE
  0
BLOCK_RECORD
  5
65
330
1
100
AcDbSymbolTableRecord
100
AcDbBlockTableRecord
  2
A$C3392
  0
BLOCK_RECORD
  5
29BF
330
1
100
AcDbSymbolTableRecord
100
AcDbBlockTableRecord
  2
A4横用_タイトル
1001
ACAD
1000
DesignCenter Data
1002
{
1070
     1
1070
     4
1002
}
  0
BLOCK_RECORD
  5
29F4
330
1
100
AcDbSymbolTableRecord
100
AcDbBlockTableRecord
  2
A4縦用_タイトル
1001
ACAD
1000
DesignCenter Data
1002
{
1070
     1
1070
     4
1002
}
  0
BLOCK_RECORD
  5
2A32
330
1
100
AcDbSymbolTableRecord
100
AcDbBlockTableRecord
  2
A3横用_タイトル
1001
ACAD
1000
DesignCenter Data
1002
{
1070
     1
1070
     4
1002
}
  0
BLOCK_RECORD
  5
2A6C
330
1
100
AcDbSymbolTableRecord
100
AcDbBlockTableRecord
  2
A3縦用_タイトル
1001
ACAD
1000
DesignCenter Data
1002
{
1070
     1
1070
     4
1002
}
  0
BLOCK_RECORD
  5
2AF4
330
1
100
AcDbSymbolTableRecord
100
AcDbBlockTableRecord
  2
_OPEN30
  0
BLOCK_RECORD
  5
4302
330
1
100
AcDbSymbolTableRecord
100
AcDbBlockTableRecord
  2
*D13
  0
BLOCK_RECORD
  5
430E
330
1
100
AcDbSymbolTableRecord
100
AcDbBlockTableRecord
  2
*D14
  0
BLOCK_RECORD
  5
4507
330
1
100
AcDbSymbolTableRecord
100
AcDbBlockTableRecord
  2
静電容量センサ
  0
BLOCK_RECORD
  5
578C
330
1
100
AcDbSymbolTableRecord
100
AcDbBlockTableRecord
  2
*D32
  0
BLOCK_RECORD
  5
5796
330
1
100
AcDbSymbolTableRecord
100
AcDbBlockTableRecord
  2
*D33
  0
BLOCK_RECORD
  5
57A2
330
1
100
AcDbSymbolTableRecord
100
AcDbBlockTableRecord
  2
*D34
  0
BLOCK_RECORD
  5
57AE
330
1
100
AcDbSymbolTableRecord
100
AcDbBlockTableRecord
  2
*D35
  0
BLOCK_RECORD
  5
57BA
330
1
100
AcDbSymbolTableRecord
100
AcDbBlockTableRecord
  2
*D36
  0
BLOCK_RECORD
  5
57C6
330
1
100
AcDbSymbolTableRecord
100
AcDbBlockTableRecord
  2
*D37
  0
BLOCK_RECORD
  5
57D4
330
1
100
AcDbSymbolTableRecord
100
AcDbBlockTableRecord
  2
*D38
  0
BLOCK_RECORD
  5
57E0
330
1
100
AcDbSymbolTableRecord
100
AcDbBlockTableRecord
  2
*D39
  0
BLOCK_RECORD
  5
57EC
330
1
100
AcDbSymbolTableRecord
100
AcDbBlockTableRecord
  2
*D40
  0
BLOCK_RECORD
  5
57F8
330
1
100
AcDbSymbolTableRecord
100
AcDbBlockTableRecord
  2
*D41
  0
BLOCK_RECORD
  5
5804
330
1
100
AcDbSymbolTableRecord
100
AcDbBlockTableRecord
  2
*D42
  0
ENDTAB
  0
ENDSEC
  0
SECTION
  2
BLOCKS
  0
BLOCK
  5
1B
330
1A
100
AcDbEntity
  8
0
100
AcDbBlockBegin
  2
*MODEL_SPACE
 70
     0
 10
0.0
 20
0.0
 30
0.0
  3
*MODEL_SPACE
  1

  0
ENDBLK
  5
1C
330
1A
100
AcDbEntity
  8
0
100
AcDbBlockEnd
  0
BLOCK
  5
28FD
330
28FB
100
AcDbEntity
 67
     1
  8
0
 48
10.0
100
AcDbBlockBegin
  2
*PAPER_SPACE
 70
     0
 10
0.0
 20
0.0
 30
0.0
  3
*PAPER_SPACE
  1

  0
ENDBLK
  5
28FE
330
28FB
100
AcDbEntity
 67
     1
  8
0
 48
10.0
100
AcDbBlockEnd
  0
BLOCK
  5
93
330
65
100
AcDbEntity
  8
0
100
AcDbBlockBegin
  2
A$C3392
 70
     0
 10
0.0
 20
0.0
 30
0.0
  3
A$C3392
  1

  0
LINE
  5
66
330
65
100
AcDbEntity
  8
図枠太線
  6
CONTINUOUS
100
AcDbLine
 10
211.858584505185
 20
30.927375675439
 30
0.0
 11
211.858584505185
 21
0.927375675439
 31
0.0
  0
LINE
  5
67
330
65
100
AcDbEntity
  8
図枠細線
  6
CONTINUOUS
100
AcDbLine
 10
231.858592505185
 20
15.927377675439
 30
0.0
 11
287.858592505185
 21
15.927375675439
 31
0.0
  0
LINE
  5
68
330
65
100
AcDbEntity
  8
図枠細線
  6
CONTINUOUS
100
AcDbLine
 10
211.858592505185
 20
15.927377675439
 30
0.0
 11
231.858592505185
 21
15.927377675439
 31
0.0
  0
LINE
  5
69
330
65
100
AcDbEntity
  8
図枠太線
  6
CONTINUOUS
 62
   251
100
AcDbLine
 10
1.858584505185
 20
0.927375675439
 30
0.0
 11
1.858584505185
 21
275.927375675439
 31
0.0
  0
TEXT
  5
6A
330
65
100
AcDbEntity
  8
図枠細線
  6
CONTINUOUS
 62
   252
100
AcDbText
 10
351.358592505185
 20
28.427377675439
 30
0.0
 40
2.0
  1
ＴＩＴＬＥ
 41
0.903614457831
  7
EXCADSTD
 72
     5
 11
361.358592505185
 21
28.427377675439
 31
0.0
100
AcDbText
  0
TEXT
  5
6B
330
65
100
AcDbEntity
  8
図枠細線
  6
CONTINUOUS
 62
   252
100
AcDbText
 10
345.358592505185
 20
28.427377675439
 30
0.0
 40
2.0
  1
名称
 41
1.171875
  7
EXCADSTD
 72
     5
 11
350.358592505185
 21
28.427377675439
 31
0.0
100
AcDbText
  0
TEXT
  5
6C
330
65
100
AcDbEntity
  8
図枠細線
  6
CONTINUOUS
 62
   252
100
AcDbText
 10
274.358592505185
 20
25.927377675439
 30
0.0
 40
2.0
  1
ＤＲＡＷＮ
 41
0.882352941176
  7
EXCADSTD
 72
     5
 11
284.358592505185
 21
25.927377675439
 31
0.0
100
AcDbText
  0
TEXT
  5
6D
330
65
100
AcDbEntity
  8
図枠細線
  6
CONTINUOUS
 62
   252
100
AcDbText
 10
260.358592505185
 20
25.927377675439
 30
0.0
 40
2.0
  1
ＤＥＳＩＧＮＥＤ
 41
0.713043472041
  7
EXCADSTD
 72
     5
 11
273.478592390744
 21
25.927377675439
 31
0.0
100
AcDbText
  0
TEXT
  5
6E
330
65
100
AcDbEntity
  8
図枠細線
  6
CONTINUOUS
 62
   252
100
AcDbText
 10
246.358592505185
 20
25.927377675439
 30
0.0
 40
2.0
  1
ＣＨＥＣＫＥＤ
 41
0.831249989569
  7
EXCADSTD
 72
     5
 11
259.658592338292
 21
25.927377675439
 31
0.0
100
AcDbText
  0
TEXT
  5
6F
330
65
100
AcDbEntity
  8
図枠細線
  6
CONTINUOUS
 62
   252
100
AcDbText
 10
274.358592505185
 20
28.427377675439
 30
0.0
 40
2.0
  1
製図
 41
1.209677419355
  7
EXCADSTD
 72
     5
 11
279.358592505185
 21
28.427377675439
 31
0.0
100
AcDbText
  0
TEXT
  5
70
330
65
100
AcDbEntity
  8
図枠細線
  6
CONTINUOUS
 62
   252
100
AcDbText
 10
260.358592505185
 20
28.427377675439
 30
0.0
 40
2.0
  1
設計
 41
1.171875
  7
EXCADSTD
 72
     5
 11
265.358592505185
 21
28.427377675439
 31
0.0
100
AcDbText
  0
TEXT
  5
71
330
65
100
AcDbEntity
  8
図枠細線
  6
CONTINUOUS
 62
   252
100
AcDbText
 10
246.358592505185
 20
28.427377675439
 30
0.0
 40
2.0
  1
検図
 41
1.209677419355
  7
EXCADSTD
 72
     5
 11
251.358592505185
 21
28.427377675439
 31
0.0
100
AcDbText
  0
TEXT
  5
72
330
65
100
AcDbEntity
  8
図枠細線
  6
CONTINUOUS
 62
   252
100
AcDbText
 10
232.358592505185
 20
25.927377675439
 30
0.0
 40
2.0
  1
ＡＰＰＲＯＶＥＤ
 41
0.695652184279
  7
EXCADSTD
 72
     5
 11
245.15859269592
 21
25.927377675439
 31
0.0
100
AcDbText
  0
TEXT
  5
73
330
65
100
AcDbEntity
  8
図枠細線
  6
CONTINUOUS
 62
   252
100
AcDbText
 10
232.358592505185
 20
28.427377675439
 30
0.0
 40
2.0
  1
承認
 41
1.171875
  7
EXCADSTD
 72
     5
 11
237.358592505185
 21
28.427377675439
 31
0.0
100
AcDbText
  0
TEXT
  5
74
330
65
100
AcDbEntity
  8
図枠細線
  6
CONTINUOUS
 62
   252
100
AcDbText
 10
290.069888505185
 20
2.574868675439
 30
0.0
 40
3.5
  1
ＴＯＷＡ　ＳＥＩＤＥＮ　ＩＮＤＵＳＴＲＩＡＬ　ＣＯ．，ＬＴＤ．
 41
0.414568012377
  7
EXCADSTD
 72
     5
 11
342.692388209546
 21
2.574868675439
 31
0.0
100
AcDbText
  0
TEXT
  5
75
330
65
100
AcDbEntity
  8
図枠ロゴマーク
  6
CONTINUOUS
 62
   253
100
AcDbText
 10
290.107348505185
 20
7.519769675439
 30
0.0
 40
7.0
  1
東和制電工業株式会社
 41
0.639204545455
  7
EXCADSTD
 72
     5
 11
342.607348505185
 21
7.519769675439
 31
0.0
100
AcDbText
  0
TEXT
  5
76
330
65
100
AcDbEntity
  8
図枠細線
  6
CONTINUOUS
 62
   252
100
AcDbText
 10
232.499705505185
 20
5.759088675439
 30
0.0
 40
2.0
  1
ＰＲＯＪＥＣＴＩＯＮ
 41
0.754285710199
  7
EXCADSTD
 72
     5
 11
250.099705409817
 21
5.759088675439
 31
0.0
100
AcDbText
  0
TEXT
  5
77
330
65
100
AcDbEntity
  8
図枠細線
  6
CONTINUOUS
 62
   252
100
AcDbText
 10
232.574629505185
 20
8.681077675439
 30
0.0
 40
2.0
  1
ＴＨＩＲＤ　ＡＮＧＬＥ
 41
0.691099486738
  7
EXCADSTD
 72
     5
 11
250.174629767445
 21
8.681077675439
 31
0.0
100
AcDbText
  0
TEXT
  5
78
330
65
100
AcDbEntity
  8
図枠細線
  6
CONTINUOUS
 62
   252
100
AcDbText
 10
256.823999505185
 20
13.427377675439
 30
0.0
 40
2.0
  1
ＳＣＡＬＥ
 41
0.903614457831
  7
EXCADSTD
 72
     5
 11
266.823999505185
 21
13.427377675439
 31
0.0
100
AcDbText
  0
TEXT
  5
79
330
65
100
AcDbEntity
  8
図枠細線
  6
CONTINUOUS
 62
   252
100
AcDbText
 10
274.858592505185
 20
13.427377675439
 30
0.0
 40
2.0
  1
ＤＡＴＥ
 41
0.923076923077
  7
EXCADSTD
 72
     5
 11
282.858592505185
 21
13.427377675439
 31
0.0
100
AcDbText
  0
TEXT
  5
7A
330
65
100
AcDbEntity
  8
図枠細線
  6
CONTINUOUS
 62
   252
100
AcDbText
 10
356.358592505185
 20
13.427377675439
 30
0.0
 40
2.0
  1
ＤＲＧ．ＮＯ．
 41
0.9375
  7
EXCADSTD
 72
     5
 11
370.358592505185
 21
13.427377675439
 31
0.0
100
AcDbText
  0
TEXT
  5
7B
330
65
100
AcDbEntity
  8
図枠細線
  6
CONTINUOUS
 62
   252
100
AcDbText
 10
345.358592505185
 20
13.427377675439
 30
0.0
 40
2.0
  1
図面番号
 41
1.102941176471
  7
EXCADSTD
 72
     5
 11
355.358592505185
 21
13.427377675439
 31
0.0
100
AcDbText
  0
TEXT
  5
7C
330
65
100
AcDbEntity
  8
図枠細線
  6
CONTINUOUS
 62
   252
100
AcDbText
 10
269.358592505185
 20
13.427377675439
 30
0.0
 40
2.0
  1
日付
 41
1.171875
  7
EXCADSTD
 72
     5
 11
274.358592505185
 21
13.427377675439
 31
0.0
100
AcDbText
  0
TEXT
  5
7D
330
65
100
AcDbEntity
  8
図枠細線
  6
CONTINUOUS
 62
   252
100
AcDbText
 10
251.451512505185
 20
13.427377675439
 30
0.0
 40
2.0
  1
尺度
 41
1.171875
  7
EXCADSTD
 72
     5
 11
256.451512505185
 21
13.427377675439
 31
0.0
100
AcDbText
  0
TEXT
  5
7E
330
65
100
AcDbEntity
  8
図枠細線
  6
CONTINUOUS
 62
   252
100
AcDbText
 10
232.358592505185
 20
13.427377675439
 30
0.0
 40
2.0
  1
第三角法
 41
1.102941176471
  7
EXCADSTD
 72
     5
 11
242.358592505185
 21
13.427377675439
 31
0.0
100
AcDbText
  0
TEXT
  5
7F
330
65
100
AcDbEntity
  8
図枠細線
  6
CONTINUOUS
 62
   252
100
AcDbText
 10
212.358592505185
 20
28.427377675439
 30
0.0
 40
2.0
  1
ＮＯＴＥ
 41
0.923076923077
  7
EXCADSTD
 72
     5
 11
220.358592505185
 21
28.427377675439
 31
0.0
100
AcDbText
  0
LINE
  5
80
330
65
100
AcDbEntity
  8
図枠細線
  6
CONTINUOUS
 62
   252
100
AcDbLine
 10
287.858592505185
 20
23.427375675439
 30
0.0
 11
344.858592505185
 21
23.427375675439
 31
0.0
  0
LINE
  5
81
330
65
100
AcDbEntity
  8
図枠太線
  6
CONTINUOUS
 62
   251
100
AcDbLine
 10
287.858584505185
 20
15.927375675439
 30
0.0
 11
344.858592505185
 21
15.927375675439
 31
0.0
  0
LINE
  5
82
330
65
100
AcDbEntity
  8
図枠細線
  6
CONTINUOUS
 62
   252
100
AcDbLine
 10
344.858592505185
 20
15.927375675439
 30
0.0
 11
401.858584505185
 21
15.927375675439
 31
0.0
  0
LINE
  5
83
330
65
100
AcDbEntity
  8
図枠太線
  6
CONTINUOUS
 62
   251
100
AcDbLine
 10
344.858592505185
 20
0.927377675439
 30
0.0
 11
344.858592505185
 21
30.927375675439
 31
0.0
  0
LINE
  5
84
330
65
100
AcDbEntity
  8
図枠太線
  6
CONTINUOUS
 62
   251
100
AcDbLine
 10
287.858592505185
 20
0.927377675439
 30
0.0
 11
287.858592505185
 21
30.927375675439
 31
0.0
  0
LINE
  5
85
330
65
100
AcDbEntity
  8
図枠細線
  6
CONTINUOUS
 62
   252
100
AcDbLine
 10
268.858592505185
 20
0.927377675439
 30
0.0
 11
268.858592505185
 21
15.927375675439
 31
0.0
  0
LINE
  5
86
330
65
100
AcDbEntity
  8
図枠細線
  6
CONTINUOUS
 62
   252
100
AcDbLine
 10
250.858592505185
 20
0.927377675439
 30
0.0
 11
250.858592505185
 21
15.927375675439
 31
0.0
  0
LINE
  5
87
330
65
100
AcDbEntity
  8
図枠細線
  6
CONTINUOUS
 62
   252
100
AcDbLine
 10
273.858592505185
 20
30.927375675439
 30
0.0
 11
273.858592505185
 21
15.927375675439
 31
0.0
  0
LINE
  5
88
330
65
100
AcDbEntity
  8
図枠細線
  6
CONTINUOUS
 62
   252
100
AcDbLine
 10
259.858592505185
 20
30.927375675439
 30
0.0
 11
259.858592505185
 21
15.927375675439
 31
0.0
  0
LINE
  5
89
330
65
100
AcDbEntity
  8
図枠細線
  6
CONTINUOUS
 62
   252
100
AcDbLine
 10
245.858592505185
 20
30.927375675439
 30
0.0
 11
245.858592505185
 21
15.927375675439
 31
0.0
  0
LINE
  5
8A
330
65
100
AcDbEntity
  8
図枠太線
  6
CONTINUOUS
 62
   251
100
AcDbLine
 10
231.858592505185
 20
0.927377675439
 30
0.0
 11
231.858592505185
 21
30.927375675439
 31
0.0
  0
LINE
  5
8B
330
65
100
AcDbEntity
  8
図枠細線
  6
CONTINUOUS
 62
   252
100
AcDbLine
 10
211.858592505185
 20
25.927375675439
 30
0.0
 11
231.858592505185
 21
25.927375675439
 31
0.0
  0
LINE
  5
8C
330
65
100
AcDbEntity
  8
図枠細線
  6
CONTINUOUS
 62
   252
100
AcDbLine
 10
211.858592505185
 20
20.927375675439
 30
0.0
 11
231.858592505185
 21
20.927375675439
 31
0.0
  0
LINE
  5
8D
330
65
100
AcDbEntity
  8
図枠細線
  6
CONTINUOUS
 62
   252
100
AcDbLine
 10
211.858592505185
 20
10.927375675439
 30
0.0
 11
231.858592505185
 21
10.927375675439
 31
0.0
  0
LINE
  5
8E
330
65
100
AcDbEntity
  8
図枠細線
  6
CONTINUOUS
 62
   252
100
AcDbLine
 10
211.858592505185
 20
5.927377675439
 30
0.0
 11
231.858592505185
 21
5.927377675439
 31
0.0
  0
LINE
  5
8F
330
65
100
AcDbEntity
  8
図枠太線
  6
CONTINUOUS
 62
   251
100
AcDbLine
 10
211.858592505185
 20
30.927375675439
 30
0.0
 11
401.858584505185
 21
30.927375675439
 31
0.0
  0
LINE
  5
90
330
65
100
AcDbEntity
  8
図枠太線
  6
CONTINUOUS
 62
   251
100
AcDbLine
 10
1.858584505185
 20
275.927375675439
 30
0.0
 11
401.858584505185
 21
275.927375675439
 31
0.0
  0
LINE
  5
91
330
65
100
AcDbEntity
  8
図枠太線
  6
CONTINUOUS
 62
   251
100
AcDbLine
 10
401.858584505185
 20
0.927375675439
 30
0.0
 11
401.858584505185
 21
275.927375675439
 31
0.0
  0
LINE
  5
92
330
65
100
AcDbEntity
  8
図枠太線
  6
CONTINUOUS
 62
   251
100
AcDbLine
 10
1.858584505185
 20
0.927375675439
 30
0.0
 11
401.858584505185
 21
0.927375675439
 31
0.0
  0
ENDBLK
  5
94
330
65
100
AcDbEntity
  8
0
100
AcDbBlockEnd
  0
BLOCK
  5
29C0
330
29BF
100
AcDbEntity
  8
0
100
AcDbBlockBegin
  2
A4横用_タイトル
 70
     0
 10
0.0
 20
0.0
 30
0.0
  3
A4横用_タイトル
  1

  0
LINE
  5
29C1
330
29BF
100
AcDbEntity
  8
図枠細線
  6
CONTINUOUS
100
AcDbLine
 10
75.061011071051
 20
16.806607253358
 30
0.0
 11
144.061011071051
 21
16.806604789072
 31
0.0
  0
LINE
  5
29C2
330
29BF
100
AcDbEntity
  8
図枠細線
  6
CONTINUOUS
 62
   252
100
AcDbLine
 10
4.061011071051
 20
11.806606253358
 30
0.0
 11
75.061011071051
 21
11.806606253358
 31
0.0
  0
LINE
  5
29C3
330
29BF
100
AcDbEntity
  8
図枠細線
  6
CONTINUOUS
 62
   252
100
AcDbLine
 10
4.061011071051
 20
21.806606253358
 30
0.0
 11
75.061011071051
 21
21.806606253358
 31
0.0
  0
LINE
  5
29C4
330
29BF
100
AcDbEntity
  8
図枠細線
  6
CONTINUOUS
 62
   252
100
AcDbLine
 10
4.061011071051
 20
26.806606253358
 30
0.0
 11
75.061011071051
 21
26.806606253358
 31
0.0
  0
LINE
  5
29C5
330
29BF
100
AcDbEntity
  8
図枠細線
  6
CONTINUOUS
100
AcDbLine
 10
4.061011071051
 20
16.806608253358
 30
0.0
 11
75.061011071051
 21
16.806608253358
 31
0.0
  0
TEXT
  5
29C6
330
29BF
100
AcDbEntity
  8
図枠細線
  6
CONTINUOUS
 62
   252
100
AcDbText
 10
76.405475827713
 20
9.560308253358
 30
0.0
 40
2.0
  1
ＴＨＩＲＤ　ＡＮＧＬＥ
 41
0.691099486738
  7
EXCADSTD
 72
     5
 11
94.005476089973
 21
9.560308253358
 31
0.0
100
AcDbText
  0
TEXT
  5
29C7
330
29BF
100
AcDbEntity
  8
図枠細線
  6
CONTINUOUS
 62
   252
100
AcDbText
 10
76.705775880921
 20
14.306608253358
 30
0.0
 40
2.0
  1
第三角法
 41
1.102941176471
  7
EXCADSTD
 72
     5
 11
86.705775880921
 21
14.306608253358
 31
0.0
100
AcDbText
  0
TEXT
  5
29C8
330
29BF
100
AcDbEntity
  8
図枠細線
  6
CONTINUOUS
 62
   252
100
AcDbText
 10
76.705775880921
 20
26.806608253358
 30
0.0
 40
2.0
  1
ＡＰＰＲＯＶＥＤ
 41
0.695652184279
  7
EXCADSTD
 72
     5
 11
89.505776071656
 21
26.806608253358
 31
0.0
100
AcDbText
  0
TEXT
  5
29C9
330
29BF
100
AcDbEntity
  8
図枠細線
  6
CONTINUOUS
 62
   252
100
AcDbText
 10
76.705775880921
 20
29.306608253358
 30
0.0
 40
2.0
  1
承認
 41
1.171875
  7
EXCADSTD
 72
     5
 11
81.705775880921
 21
29.306608253358
 31
0.0
100
AcDbText
  0
LINE
  5
29CA
330
29BF
100
AcDbEntity
  8
図枠細線
  6
CONTINUOUS
 62
   252
100
AcDbLine
 10
98.061011071051
 20
31.806606253358
 30
0.0
 11
98.061011071051
 21
16.806606253358
 31
0.0
  0
TEXT
  5
29CB
330
29BF
100
AcDbEntity
  8
図枠細線
  6
CONTINUOUS
 62
   252
100
AcDbText
 10
104.216531119804
 20
14.306608253358
 30
0.0
 40
2.0
  1
ＳＣＡＬＥ
 41
0.903614457831
  7
EXCADSTD
 72
     5
 11
114.216531119804
 21
14.306608253358
 31
0.0
100
AcDbText
  0
TEXT
  5
29CC
330
29BF
100
AcDbEntity
  8
図枠細線
  6
CONTINUOUS
 62
   252
100
AcDbText
 10
98.844044119804
 20
14.306608253358
 30
0.0
 40
2.0
  1
尺度
 41
1.171875
  7
EXCADSTD
 72
     5
 11
103.844044119804
 21
14.306608253358
 31
0.0
100
AcDbText
  0
TEXT
  5
29CD
330
29BF
100
AcDbEntity
  8
図枠細線
  6
CONTINUOUS
 62
   252
100
AcDbText
 10
98.968727707497
 20
26.806608253358
 30
0.0
 40
2.0
  1
ＣＨＥＣＫＥＤ
 41
0.831249989569
  7
EXCADSTD
 72
     5
 11
112.268727540604
 21
26.806608253358
 31
0.0
100
AcDbText
  0
TEXT
  5
29CE
330
29BF
100
AcDbEntity
  8
図枠細線
  6
CONTINUOUS
 62
   252
100
AcDbText
 10
98.968727707497
 20
29.306608253358
 30
0.0
 40
2.0
  1
検図
 41
1.209677419355
  7
EXCADSTD
 72
     5
 11
103.968727707497
 21
29.306608253358
 31
0.0
100
AcDbText
  0
LINE
  5
29CF
330
29BF
100
AcDbEntity
  8
図枠細線
  6
CONTINUOUS
 62
   252
100
AcDbLine
 10
121.061011071051
 20
31.806606253358
 30
0.0
 11
121.061011071051
 21
16.806606253358
 31
0.0
  0
TEXT
  5
29D0
330
29BF
100
AcDbEntity
  8
図枠細線
  6
CONTINUOUS
 62
   252
100
AcDbText
 10
128.001465247253
 20
14.306608253358
 30
0.0
 40
2.0
  1
ＤＡＴＥ
 41
0.923076923077
  7
EXCADSTD
 72
     5
 11
136.001465247253
 21
14.306608253358
 31
0.0
100
AcDbText
  0
TEXT
  5
29D1
330
29BF
100
AcDbEntity
  8
図枠細線
  6
CONTINUOUS
 62
   252
100
AcDbText
 10
122.066415498841
 20
14.306608253358
 30
0.0
 40
2.0
  1
日付
 41
1.171875
  7
EXCADSTD
 72
     5
 11
127.066415498841
 21
14.306608253358
 31
0.0
100
AcDbText
  0
TEXT
  5
29D2
330
29BF
100
AcDbEntity
  8
図枠細線
  6
CONTINUOUS
 62
   252
100
AcDbText
 10
121.59429406571
 20
29.306608253358
 30
0.0
 40
2.0
  1
製図
 41
1.209677419355
  7
EXCADSTD
 72
     5
 11
126.59429406571
 21
29.306608253358
 31
0.0
100
AcDbText
  0
TEXT
  5
29D3
330
29BF
100
AcDbEntity
  8
図枠細線
  6
CONTINUOUS
 62
   252
100
AcDbText
 10
121.59429406571
 20
26.806608253358
 30
0.0
 40
2.0
  1
ＤＲＡＷＮ
 41
0.882352941176
  7
EXCADSTD
 72
     5
 11
131.59429406571
 21
26.806608253358
 31
0.0
100
AcDbText
  0
TEXT
  5
29D4
330
29BF
100
AcDbEntity
  8
図枠細線
  6
CONTINUOUS
 62
   252
100
AcDbText
 10
226.591229661348
 20
14.306608253358
 30
0.0
 40
2.0
  1
ＤＲＧ．ＮＯ．
 41
0.9375
  7
EXCADSTD
 72
     5
 11
240.591229661348
 21
14.306608253358
 31
0.0
100
AcDbText
  0
LINE
  5
29D5
330
29BF
100
AcDbEntity
  8
図枠太線
  6
CONTINUOUS
 62
   251
100
AcDbLine
 10
144.061003071051
 20
16.806606253358
 30
0.0
 11
214.061011071051
 21
16.806606253358
 31
0.0
  0
LINE
  5
29D6
330
29BF
100
AcDbEntity
  8
図枠細線
  6
CONTINUOUS
 62
   252
100
AcDbLine
 10
144.061011071051
 20
24.306606253358
 30
0.0
 11
214.061011071051
 21
24.306606253358
 31
0.0
  0
TEXT
  5
29D7
330
29BF
100
AcDbEntity
  8
図枠ロゴマーク
  6
CONTINUOUS
 62
   253
100
AcDbText
 10
146.433776781596
 20
8.399000253358
 30
0.0
 40
7.0
  1
東和制電工業株式会社
 41
0.80361088462
  7
EXCADSTD
 72
     5
 11
212.437017438349
 21
8.399000253358
 31
0.0
100
AcDbText
  0
TEXT
  5
29D8
330
29BF
100
AcDbEntity
  8
図枠細線
  6
CONTINUOUS
 62
   252
100
AcDbText
 10
215.156179912936
 20
14.306608253358
 30
0.0
 40
2.0
  1
図面番号
 41
1.102941176471
  7
EXCADSTD
 72
     5
 11
225.156179912936
 21
14.306608253358
 31
0.0
100
AcDbText
  0
TEXT
  5
29D9
330
29BF
100
AcDbEntity
  8
図枠細線
  6
CONTINUOUS
 62
   252
100
AcDbText
 10
221.591229661348
 20
29.306608253358
 30
0.0
 40
2.0
  1
ＴＩＴＬＥ
 41
0.903614457831
  7
EXCADSTD
 72
     5
 11
231.591229661348
 21
29.306608253358
 31
0.0
100
AcDbText
  0
TEXT
  5
29DA
330
29BF
100
AcDbEntity
  8
図枠細線
  6
CONTINUOUS
 62
   252
100
AcDbText
 10
215.156179912936
 20
29.306608253358
 30
0.0
 40
2.0
  1
名称
 41
1.171875
  7
EXCADSTD
 72
     5
 11
220.156179912936
 21
29.306608253358
 31
0.0
100
AcDbText
  0
LINE
  5
29DB
330
29BF
100
AcDbEntity
  8
図枠太線
  6
CONTINUOUS
 62
   251
100
AcDbLine
 10
4.061011071051
 20
1.806608253358
 30
0.0
 11
284.061011071051
 21
1.806608253358
 31
0.0
  0
LINE
  5
29DC
330
29BF
100
AcDbEntity
  8
図枠細線
  6
CONTINUOUS
 62
   252
100
AcDbLine
 10
4.061011071051
 20
6.806608253358
 30
0.0
 11
75.061011071051
 21
6.806608253358
 31
0.0
  0
LINE
  5
29DD
330
29BF
100
AcDbEntity
  8
図枠太線
  6
CONTINUOUS
 62
   251
100
AcDbLine
 10
75.061011071051
 20
1.806608253358
 30
0.0
 11
75.061011071051
 21
31.806606253358
 31
0.0
  0
TEXT
  5
29DE
330
29BF
100
AcDbEntity
  8
図枠細線
  6
CONTINUOUS
 62
   252
100
AcDbText
 10
76.330551827713
 20
6.638319253358
 30
0.0
 40
2.0
  1
ＰＲＯＪＥＣＴＩＯＮ
 41
0.754285710199
  7
EXCADSTD
 72
     5
 11
93.930551732346
 21
6.638319253358
 31
0.0
100
AcDbText
  0
LINE
  5
29DF
330
29BF
100
AcDbEntity
  8
図枠細線
  6
CONTINUOUS
 62
   252
100
AcDbLine
 10
98.061011071051
 20
1.806606931929
 30
0.0
 11
98.061011071051
 21
16.806604931929
 31
0.0
  0
LINE
  5
29E0
330
29BF
100
AcDbEntity
  8
図枠細線
  6
CONTINUOUS
 62
   252
100
AcDbLine
 10
121.061011071051
 20
1.806607574787
 30
0.0
 11
121.061011071051
 21
16.806605574787
 31
0.0
  0
LINE
  5
29E1
330
29BF
100
AcDbEntity
  8
図枠太線
  6
CONTINUOUS
 62
   251
100
AcDbLine
 10
284.061011071051
 20
1.806608253358
 30
0.0
 11
284.061011071051
 21
31.806606253358
 31
0.0
  0
LINE
  5
29E2
330
29BF
100
AcDbEntity
  8
図枠細線
  6
CONTINUOUS
 62
   252
100
AcDbLine
 10
214.061011071051
 20
16.806606253358
 30
0.0
 11
284.061011071051
 21
16.806606253358
 31
0.0
  0
TEXT
  5
29E3
330
29BF
100
AcDbEntity
  8
図枠細線
  6
CONTINUOUS
 62
   252
100
AcDbText
 10
146.199593676182
 20
3.454099253358
 30
0.0
 40
3.5
  1
ＴＯＷＡ　ＳＥＩＤＥＮ　ＩＮＤＵＳＴＲＩＡＬ　ＣＯ．，ＬＴＤ．
 41
0.528937826907
  7
EXCADSTD
 72
     5
 11
213.339435171588
 21
3.454099253358
 31
0.0
100
AcDbText
  0
LINE
  5
29E4
330
29BF
100
AcDbEntity
  8
図枠太線
  6
CONTINUOUS
 62
   251
100
AcDbLine
 10
144.061011071051
 20
1.806608253358
 30
0.0
 11
144.061011071051
 21
31.806606253358
 31
0.0
  0
LINE
  5
29E5
330
29BF
100
AcDbEntity
  8
図枠太線
  6
CONTINUOUS
 62
   251
100
AcDbLine
 10
214.061011071051
 20
1.806608253358
 30
0.0
 11
214.061011071051
 21
31.806606253358
 31
0.0
  0
MTEXT
  5
29E6
330
29BF
100
AcDbEntity
  8
図枠太線
100
AcDbMText
 10
5.064337346478
 20
31.010982137407
 30
0.0
 40
2.5
 41
8.67856098472
 71
     1
 72
     5
  1
{\Fmonotxt.shx,bigfont.shx|c128;図暦}
  0
LINE
  5
29E7
330
29BF
100
AcDbEntity
  8
図枠太線
  6
CONTINUOUS
 62
   251
100
AcDbLine
 10
4.061011071051
 20
1.806608253358
 30
0.0
 11
4.061011071051
 21
31.806606253358
 31
0.0
  0
TEXT
  5
29E8
330
29BF
100
AcDbEntity
  8
図枠細線
 48
10.0
100
AcDbText
 10
12.260817420402
 20
28.625419626495
 30
0.0
 40
2.0
  1
CHANGE NOTICE
100
AcDbText
  0
ENDBLK
  5
29E9
330
29BF
100
AcDbEntity
  8
0
100
AcDbBlockEnd
  0
BLOCK
  5
29F5
330
29F4
100
AcDbEntity
  8
0
100
AcDbBlockBegin
  2
A4縦用_タイトル
 70
     0
 10
0.0
 20
0.0
 30
0.0
  3
A4縦用_タイトル
  1

  0
LINE
  5
29F6
330
29F4
100
AcDbEntity
  8
図枠太線
  6
CONTINUOUS
 62
   251
100
AcDbLine
 10
2.368253864267
 20
4.525433224584
 30
0.0
 11
192.368245864267
 21
4.525433224584
 31
0.0
  0
LINE
  5
29F7
330
29F4
100
AcDbEntity
  8
図枠太線
  6
CONTINUOUS
 62
   251
100
AcDbLine
 10
78.368245864267
 20
19.525431224584
 30
0.0
 11
135.368253864267
 21
19.525431224584
 31
0.0
  0
LINE
  5
29F8
330
29F4
100
AcDbEntity
  8
図枠細線
  6
CONTINUOUS
 62
   252
100
AcDbLine
 10
78.368253864267
 20
27.025431224584
 30
0.0
 11
135.368253864267
 21
27.025431224584
 31
0.0
  0
TEXT
  5
29F9
330
29F4
100
AcDbEntity
  8
図枠ロゴマーク
  6
CONTINUOUS
 62
   253
100
AcDbText
 10
80.617009864267
 20
11.117825224584
 30
0.0
 40
7.0
  1
東和制電工業株式会社
 41
0.639204545455
  7
EXCADSTD
 72
     5
 11
133.117009864267
 21
11.117825224584
 31
0.0
100
AcDbText
  0
TEXT
  5
29FA
330
29F4
100
AcDbEntity
  8
図枠細線
  6
CONTINUOUS
 62
   252
100
AcDbText
 10
80.579549864267
 20
6.172924224584
 30
0.0
 40
3.5
  1
ＴＯＷＡ　ＳＥＩＤＥＮ　ＩＮＤＵＳＴＲＩＡＬ　ＣＯ．，ＬＴＤ．
 41
0.414568012377
  7
EXCADSTD
 72
     5
 11
133.202049568628
 21
6.172924224584
 31
0.0
100
AcDbText
  0
LINE
  5
29FB
330
29F4
100
AcDbEntity
  8
図枠太線
  6
CONTINUOUS
 62
   251
100
AcDbLine
 10
2.368253864267
 20
4.525433224584
 30
0.0
 11
2.368253864267
 21
34.525431224584
 31
0.0
  0
TEXT
  5
29FC
330
29F4
100
AcDbEntity
  8
図枠細線
  6
CONTINUOUS
 62
   252
100
AcDbText
 10
22.504308136501
 20
12.279133224584
 30
0.0
 40
2.0
  1
ＴＨＩＲＤ　ＡＮＧＬＥ
 41
0.691099486738
  7
EXCADSTD
 72
     5
 11
40.104308398762
 21
12.279133224584
 31
0.0
100
AcDbText
  0
TEXT
  5
29FD
330
29F4
100
AcDbEntity
  8
図枠細線
  6
CONTINUOUS
 62
   252
100
AcDbText
 10
22.429384136501
 20
9.357144224584
 30
0.0
 40
2.0
  1
ＰＲＯＪＥＣＴＩＯＮ
 41
0.754285710199
  7
EXCADSTD
 72
     5
 11
40.029384041134
 21
9.357144224584
 31
0.0
100
AcDbText
  0
LINE
  5
29FE
330
29F4
100
AcDbEntity
  8
図枠細線
  6
CONTINUOUS
100
AcDbLine
 10
22.368253864267
 20
19.525433224584
 30
0.0
 11
78.368253864267
 21
19.525431224584
 31
0.0
  0
TEXT
  5
29FF
330
29F4
100
AcDbEntity
  8
図枠細線
  6
CONTINUOUS
 62
   252
100
AcDbText
 10
22.868253864267
 20
17.025433224584
 30
0.0
 40
2.0
  1
第三角法
 41
1.102941176471
  7
EXCADSTD
 72
     5
 11
32.868253864267
 21
17.025433224584
 31
0.0
100
AcDbText
  0
TEXT
  5
2A00
330
29F4
100
AcDbEntity
  8
図枠細線
  6
CONTINUOUS
 62
   252
100
AcDbText
 10
22.868253864267
 20
29.525433224584
 30
0.0
 40
2.0
  1
ＡＰＰＲＯＶＥＤ
 41
0.695652184279
  7
EXCADSTD
 72
     5
 11
35.668254055002
 21
29.525433224584
 31
0.0
100
AcDbText
  0
LINE
  5
2A01
330
29F4
100
AcDbEntity
  8
図枠細線
  6
CONTINUOUS
 62
   252
100
AcDbLine
 10
2.368253864267
 20
9.525433224584
 30
0.0
 11
22.368253864267
 21
9.525433224584
 31
0.0
  0
LINE
  5
2A02
330
29F4
100
AcDbEntity
  8
図枠細線
  6
CONTINUOUS
 62
   252
100
AcDbLine
 10
2.368253864267
 20
14.525431224584
 30
0.0
 11
22.368253864267
 21
14.525431224584
 31
0.0
  0
LINE
  5
2A03
330
29F4
100
AcDbEntity
  8
図枠細線
  6
CONTINUOUS
 62
   252
100
AcDbLine
 10
2.368253864267
 20
24.525431224584
 30
0.0
 11
22.368253864267
 21
24.525431224584
 31
0.0
  0
LINE
  5
2A04
330
29F4
100
AcDbEntity
  8
図枠細線
  6
CONTINUOUS
 62
   252
100
AcDbLine
 10
2.368253864267
 20
29.525431224584
 30
0.0
 11
22.368253864267
 21
29.525431224584
 31
0.0
  0
LINE
  5
2A05
330
29F4
100
AcDbEntity
  8
図枠細線
  6
CONTINUOUS
100
AcDbLine
 10
2.368253864267
 20
19.525433224584
 30
0.0
 11
22.368253864267
 21
19.525433224584
 31
0.0
  0
TEXT
  5
2A06
330
29F4
100
AcDbEntity
  8
図枠細線
  6
CONTINUOUS
 62
   252
100
AcDbText
 10
2.868253864267
 20
32.025433224584
 30
0.0
 40
2.0
  1
ＮＯＴＥ
 41
0.923076923077
  7
EXCADSTD
 72
     5
 11
10.868253864267
 21
32.025433224584
 31
0.0
100
AcDbText
  0
LINE
  5
2A07
330
29F4
100
AcDbEntity
  8
図枠太線
  6
CONTINUOUS
 62
   251
100
AcDbLine
 10
22.368253864267
 20
4.525433224584
 30
0.0
 11
22.368253864267
 21
34.525431224584
 31
0.0
  0
TEXT
  5
2A08
330
29F4
100
AcDbEntity
  8
図枠細線
  6
CONTINUOUS
 62
   252
100
AcDbText
 10
22.868253864267
 20
32.025433224584
 30
0.0
 40
2.0
  1
承認
 41
1.171875
  7
EXCADSTD
 72
     5
 11
27.868253864267
 21
32.025433224584
 31
0.0
100
AcDbText
  0
TEXT
  5
2A09
330
29F4
100
AcDbEntity
  8
図枠細線
  6
CONTINUOUS
 62
   252
100
AcDbText
 10
60.711709035982
 20
32.025433224584
 30
0.0
 40
2.0
  1
製図
 41
1.209677419355
  7
EXCADSTD
 72
     5
 11
65.711709035982
 21
32.025433224584
 31
0.0
100
AcDbText
  0
TEXT
  5
2A0A
330
29F4
100
AcDbEntity
  8
図枠細線
  6
CONTINUOUS
 62
   252
100
AcDbText
 10
60.711709035982
 20
29.525433224584
 30
0.0
 40
2.0
  1
ＤＲＡＷＮ
 41
0.882352941176
  7
EXCADSTD
 72
     5
 11
70.711709035982
 21
29.525433224584
 31
0.0
100
AcDbText
  0
TEXT
  5
2A0B
330
29F4
100
AcDbEntity
  8
図枠細線
  6
CONTINUOUS
 62
   252
100
AcDbText
 10
60.834891743877
 20
17.025433224584
 30
0.0
 40
2.0
  1
日付
 41
1.171875
  7
EXCADSTD
 72
     5
 11
65.834891743877
 21
17.025433224584
 31
0.0
100
AcDbText
  0
TEXT
  5
2A0C
330
29F4
100
AcDbEntity
  8
図枠細線
  6
CONTINUOUS
 62
   252
100
AcDbText
 10
47.333660864267
 20
17.025433224584
 30
0.0
 40
2.0
  1
ＳＣＡＬＥ
 41
0.903614457831
  7
EXCADSTD
 72
     5
 11
57.333660864267
 21
17.025433224584
 31
0.0
100
AcDbText
  0
TEXT
  5
2A0D
330
29F4
100
AcDbEntity
  8
図枠細線
  6
CONTINUOUS
 62
   252
100
AcDbText
 10
42.281425990082
 20
29.525433224584
 30
0.0
 40
2.0
  1
ＣＨＥＣＫＥＤ
 41
0.831249989569
  7
EXCADSTD
 72
     5
 11
55.581425823189
 21
29.525433224584
 31
0.0
100
AcDbText
  0
LINE
  5
2A0E
330
29F4
100
AcDbEntity
  8
図枠細線
  6
CONTINUOUS
 62
   252
100
AcDbLine
 10
40.968253864267
 20
34.525431224584
 30
0.0
 11
40.968253864267
 21
19.525431224584
 31
0.0
  0
LINE
  5
2A0F
330
29F4
100
AcDbEntity
  8
図枠細線
  6
CONTINUOUS
 62
   252
100
AcDbLine
 10
40.968253864267
 20
4.525433224584
 30
0.0
 11
40.968253864267
 21
19.525431224584
 31
0.0
  0
TEXT
  5
2A10
330
29F4
100
AcDbEntity
  8
図枠細線
  6
CONTINUOUS
 62
   252
100
AcDbText
 10
41.961173864267
 20
17.025433224584
 30
0.0
 40
2.0
  1
尺度
 41
1.171875
  7
EXCADSTD
 72
     5
 11
46.961173864267
 21
17.025433224584
 31
0.0
100
AcDbText
  0
TEXT
  5
2A11
330
29F4
100
AcDbEntity
  8
図枠細線
  6
CONTINUOUS
 62
   252
100
AcDbText
 10
42.281425990082
 20
32.025433224584
 30
0.0
 40
2.0
  1
検図
 41
1.209677419355
  7
EXCADSTD
 72
     5
 11
47.281425990082
 21
32.025433224584
 31
0.0
100
AcDbText
  0
LINE
  5
2A12
330
29F4
100
AcDbEntity
  8
図枠細線
  6
CONTINUOUS
 62
   252
100
AcDbLine
 10
59.768253864267
 20
34.525431224584
 30
0.0
 11
59.768253864267
 21
19.525431224584
 31
0.0
  0
LINE
  5
2A13
330
29F4
100
AcDbEntity
  8
図枠細線
  6
CONTINUOUS
 62
   252
100
AcDbLine
 10
59.768253864267
 20
4.525433224584
 30
0.0
 11
59.768253864267
 21
19.525431224584
 31
0.0
  0
LINE
  5
2A14
330
29F4
100
AcDbEntity
  8
図枠太線
  6
CONTINUOUS
 62
   251
100
AcDbLine
 10
78.368253864267
 20
4.525433224584
 30
0.0
 11
78.368253864267
 21
34.525431224584
 31
0.0
  0
TEXT
  5
2A15
330
29F4
100
AcDbEntity
  8
図枠細線
  6
CONTINUOUS
 62
   252
100
AcDbText
 10
66.334891743877
 20
17.025433224584
 30
0.0
 40
2.0
  1
ＤＡＴＥ
 41
0.923076923077
  7
EXCADSTD
 72
     5
 11
74.334891743877
 21
17.025433224584
 31
0.0
100
AcDbText
  0
LINE
  5
2A16
330
29F4
100
AcDbEntity
  8
図枠細線
  6
CONTINUOUS
 62
   252
100
AcDbLine
 10
135.368253864267
 20
19.525431224584
 30
0.0
 11
192.368245864267
 21
19.525431224584
 31
0.0
  0
TEXT
  5
2A17
330
29F4
100
AcDbEntity
  8
図枠細線
  6
CONTINUOUS
 62
   252
100
AcDbText
 10
141.868253864267
 20
32.025433224584
 30
0.0
 40
2.0
  1
ＴＩＴＬＥ
 41
0.903614457831
  7
EXCADSTD
 72
     5
 11
151.868253864267
 21
32.025433224584
 31
0.0
100
AcDbText
  0
LINE
  5
2A18
330
29F4
100
AcDbEntity
  8
図枠太線
  6
CONTINUOUS
 62
   251
100
AcDbLine
 10
135.368253864267
 20
4.525433224584
 30
0.0
 11
135.368253864267
 21
34.525431224584
 31
0.0
  0
TEXT
  5
2A19
330
29F4
100
AcDbEntity
  8
図枠細線
  6
CONTINUOUS
 62
   252
100
AcDbText
 10
135.868253864267
 20
17.025433224584
 30
0.0
 40
2.0
  1
図面番号
 41
1.102941176471
  7
EXCADSTD
 72
     5
 11
145.868253864267
 21
17.025433224584
 31
0.0
100
AcDbText
  0
TEXT
  5
2A1A
330
29F4
100
AcDbEntity
  8
図枠細線
  6
CONTINUOUS
 62
   252
100
AcDbText
 10
135.868253864267
 20
32.025433224584
 30
0.0
 40
2.0
  1
名称
 41
1.171875
  7
EXCADSTD
 72
     5
 11
140.868253864267
 21
32.025433224584
 31
0.0
100
AcDbText
  0
TEXT
  5
2A1B
330
29F4
100
AcDbEntity
  8
図枠細線
  6
CONTINUOUS
 62
   252
100
AcDbText
 10
146.868253864267
 20
17.025433224584
 30
0.0
 40
2.0
  1
ＤＲＧ．ＮＯ．
 41
0.9375
  7
EXCADSTD
 72
     5
 11
160.868253864267
 21
17.025433224584
 31
0.0
100
AcDbText
  0
LINE
  5
2A1C
330
29F4
100
AcDbEntity
  8
図枠太線
  6
CONTINUOUS
 62
   251
100
AcDbLine
 10
192.368245864267
 20
4.525433224584
 30
0.0
 11
192.368245864267
 21
34.525431224584
 31
0.0
  0
ENDBLK
  5
2A1D
330
29F4
100
AcDbEntity
  8
0
100
AcDbBlockEnd
  0
BLOCK
  5
2A33
330
2A32
100
AcDbEntity
  8
0
100
AcDbBlockBegin
  2
A3横用_タイトル
 70
     0
 10
0.0
 20
0.0
 30
0.0
  3
A3横用_タイトル
  1

  0
LINE
  5
2A34
330
2A32
100
AcDbEntity
  8
図枠細線
  6
CONTINUOUS
 62
   252
100
AcDbLine
 10
205.098414535793
 20
33.525959753527
 30
0.0
 11
305.098414535793
 21
33.525959753527
 31
0.0
  0
LINE
  5
2A35
330
2A32
100
AcDbEntity
  8
図枠太線
  6
CONTINUOUS
 62
   251
100
AcDbLine
 10
205.098414535793
 20
23.525959753527
 30
0.0
 11
305.098414535793
 21
23.525959753527
 31
0.0
  0
LINE
  5
2A36
330
2A32
100
AcDbEntity
  8
図枠細線
  6
CONTINUOUS
100
AcDbLine
 10
5.098414535793
 20
23.525959753527
 30
0.0
 11
105.098414535793
 21
23.525959753527
 31
0.0
  0
LINE
  5
2A37
330
2A32
100
AcDbEntity
  8
図枠細線
  6
CONTINUOUS
 62
   252
100
AcDbLine
 10
5.098414535793
 20
36.725957753527
 30
0.0
 11
105.098414535793
 21
36.725957753527
 31
0.0
  0
LINE
  5
2A38
330
2A32
100
AcDbEntity
  8
図枠細線
  6
CONTINUOUS
 62
   252
100
AcDbLine
 10
5.098414535793
 20
30.125957753527
 30
0.0
 11
105.098414535793
 21
30.125957753527
 31
0.0
  0
LINE
  5
2A39
330
2A32
100
AcDbEntity
  8
図枠細線
  6
CONTINUOUS
 62
   252
100
AcDbLine
 10
5.098414535793
 20
16.725959753527
 30
0.0
 11
105.098414535793
 21
16.725959753527
 31
0.0
  0
LINE
  5
2A3A
330
2A32
100
AcDbEntity
  8
図枠細線
  6
CONTINUOUS
 62
   252
100
AcDbLine
 10
5.098414535793
 20
10.125959753527
 30
0.0
 11
105.098414535793
 21
10.125959753527
 31
0.0
  0
LINE
  5
2A3B
330
2A32
100
AcDbEntity
  8
図枠細線
  6
CONTINUOUS
100
AcDbLine
 10
105.098414535793
 20
23.525961753527
 30
0.0
 11
205.098414535793
 21
23.525959753527
 31
0.0
  0
LINE
  5
2A3C
330
2A32
100
AcDbEntity
  8
図枠細線
  6
CONTINUOUS
 62
   252
100
AcDbLine
 10
138.398414535793
 20
43.525959753527
 30
0.0
 11
138.398414535793
 21
18.525957753527
 31
0.0
  0
LINE
  5
2A3D
330
2A32
100
AcDbEntity
  8
図枠細線
  6
CONTINUOUS
 62
   252
100
AcDbLine
 10
171.698414535793
 20
43.525959753527
 30
0.0
 11
171.698414535793
 21
18.525957753527
 31
0.0
  0
LINE
  5
2A3E
330
2A32
100
AcDbEntity
  8
図枠細線
  6
CONTINUOUS
 62
   252
100
AcDbLine
 10
305.098414535793
 20
23.525959753527
 30
0.0
 11
405.098414535793
 21
23.525959753527
 31
0.0
  0
TEXT
  5
2A3F
330
2A32
100
AcDbEntity
  8
図枠ロゴマーク
  6
CONTINUOUS
 62
   253
100
AcDbText
 10
206.102509212755
 20
13.294257570546
 30
0.0
 40
7.0
  1
東和制電工業株式会社
 50
0.016555220185
 41
1.186384129432
  7
EXCADSTD
 72
     5
 11
303.544188309143
 21
13.322412672217
 31
0.0
100
AcDbText
  0
MTEXT
  5
2A40
330
2A32
100
AcDbEntity
  8
図枠細線
100
AcDbMText
 10
6.356764112375
 20
41.976594175478
 30
0.0
 40
2.5
 41
49.938282706292
 71
     1
 72
     5
  1
{\Fmonotxt.shx,bigfont.shx|c128;図暦　CHANGE　NOTICE}
  0
MTEXT
  5
2A41
330
2A32
100
AcDbEntity
  8
図枠細線
 48
10.0
100
AcDbMText
 10
306.544114926828
 20
41.701835800934
 30
0.0
 40
2.5
 41
28.002809618823
 71
     1
 72
     5
  1
{\Fmonotxt.shx,bigfont.shx|c128;名称　TITLE}
  0
MTEXT
  5
2A42
330
2A32
100
AcDbEntity
  8
図枠細線
 48
10.0
100
AcDbMText
 10
307.329617114284
 20
21.606206797226
 30
0.0
 40
2.5
 41
24.385612216707
 71
     1
 72
     5
  1
{\Fmonotxt.shx,bigfont.shx|c128;図面番号\PDRG.　No.}
  0
MTEXT
  5
2A43
330
2A32
100
AcDbEntity
  8
図枠細線
 48
10.0
100
AcDbMText
 10
173.726349404609
 20
21.73680662198
 30
0.0
 40
2.5
 41
25.735090160813
 71
     1
 72
     5
  1
{\Fmonotxt.shx,bigfont.shx|c128;日付 DATE}
  0
MTEXT
  5
2A44
330
2A32
100
AcDbEntity
  8
図枠細線
 48
10.0
100
AcDbMText
 10
173.48708833982
 20
41.621592044998
 30
0.0
 40
2.5
 41
24.983741184205
 71
     1
 72
     5
  1
{\Fmonotxt.shx,bigfont.shx|c128;製図　DRAWN}
  0
MTEXT
  5
2A45
330
2A32
100
AcDbEntity
  8
図枠細線
 48
10.0
100
AcDbMText
 10
139.28009927741
 20
21.866713069868
 30
0.0
 40
2.5
 41
22.629632913243
 71
     1
 72
     5
  1
{\Fmonotxt.shx,bigfont.shx|c128;尺度　SCALE}
  0
MTEXT
  5
2A46
330
2A32
100
AcDbEntity
  8
図枠細線
 48
10.0
100
AcDbMText
 10
139.910091179835
 20
41.311840415554
 30
0.0
 40
2.5
 41
28.998753428368
 71
     1
 72
     5
  1
{\Fmonotxt.shx,bigfont.shx|c128;検図  CHECKED}
  0
MTEXT
  5
2A47
330
2A32
100
AcDbEntity
  8
図枠細線
 48
10.0
100
AcDbMText
 10
114.253294667728
 20
21.916124850174
 30
0.0
 40
3.0
 41
19.692400475383
 71
     1
 72
     5
  1
{\Fmonotxt.shx,bigfont.shx|c128;第三角法}
  0
MTEXT
  5
2A48
330
2A32
100
AcDbEntity
  8
図枠細線
 48
10.0
100
AcDbMText
 10
108.986959929915
 20
15.282880185837
 30
0.0
 40
2.5
 41
27.954882823547
 71
     1
 72
     5
  1
{\Fmonotxt.shx,bigfont.shx|c128;THIRD ANGLE\PPROJECTION}
  0
MTEXT
  5
2A49
330
2A32
100
AcDbEntity
  8
図枠細線
 48
10.0
100
AcDbMText
 10
106.319432640184
 20
41.511437145487
 30
0.0
 40
2.5
 41
28.233595265074
 71
     1
 72
     5
  1
{\Fmonotxt.shx,bigfont.shx|c128;承認 APPROVED}
  0
LINE
  5
2A4A
330
2A32
100
AcDbEntity
  8
図枠太線
  6
CONTINUOUS
 62
   251
100
AcDbLine
 10
5.098414535793
 20
3.525959753527
 30
0.0
 11
405.098414535793
 21
3.525959753527
 31
0.0
  0
LINE
  5
2A4B
330
2A32
100
AcDbEntity
  8
図枠太線
 48
10.0
100
AcDbLine
 10
5.098414535793
 20
3.525959753527
 30
0.0
 11
5.098414535793
 21
43.525959753527
 31
0.0
  0
LINE
  5
2A4C
330
2A32
100
AcDbEntity
  8
図枠太線
  6
CONTINUOUS
 62
   251
100
AcDbLine
 10
105.098414535793
 20
3.525959753527
 30
0.0
 11
105.098414535793
 21
43.525959753527
 31
0.0
  0
LINE
  5
2A4D
330
2A32
100
AcDbEntity
  8
図枠細線
  6
CONTINUOUS
 62
   252
100
AcDbLine
 10
138.398414535793
 20
3.525959753527
 30
0.0
 11
138.398414535793
 21
18.525957753527
 31
0.0
  0
LINE
  5
2A4E
330
2A32
100
AcDbEntity
  8
図枠細線
  6
CONTINUOUS
 62
   252
100
AcDbLine
 10
171.698414535793
 20
3.525959753527
 30
0.0
 11
171.698414535793
 21
18.525957753527
 31
0.0
  0
LINE
  5
2A4F
330
2A32
100
AcDbEntity
  8
図枠太線
  6
CONTINUOUS
 62
   251
100
AcDbLine
 10
205.098414535793
 20
3.525959753527
 30
0.0
 11
205.098414535793
 21
43.525959753527
 31
0.0
  0
LINE
  5
2A50
330
2A32
100
AcDbEntity
  8
図枠太線
 48
10.0
100
AcDbLine
 10
405.098414535793
 20
43.525959753527
 30
0.0
 11
405.098414535793
 21
3.525959753527
 31
0.0
  0
TEXT
  5
2A51
330
2A32
100
AcDbEntity
  8
図枠細線
  6
CONTINUOUS
 62
   252
100
AcDbText
 10
208.519754474572
 20
6.482358407285
 30
0.0
 40
3.5
  1
ＴＯＷＡ　ＳＥＩＤＥＮ　ＩＮＤＵＳＴＲＩＡＬ　ＣＯ．，ＬＴＤ．
 41
0.746656297509
  7
EXCADSTD
 72
     5
 11
303.295327171727
 21
6.482358407285
 31
0.0
100
AcDbText
  0
LINE
  5
2A52
330
2A32
100
AcDbEntity
  8
図枠太線
  6
CONTINUOUS
 62
   251
100
AcDbLine
 10
305.098414535793
 20
3.525959753527
 30
0.0
 11
305.098414535793
 21
43.525959753527
 31
0.0
  0
ENDBLK
  5
2A53
330
2A32
100
AcDbEntity
  8
0
100
AcDbBlockEnd
  0
BLOCK
  5
2A6D
330
2A6C
100
AcDbEntity
  8
0
100
AcDbBlockBegin
  2
A3縦用_タイトル
 70
     0
 10
0.0
 20
0.0
 30
0.0
  3
A3縦用_タイトル
  1

  0
MTEXT
  5
2A6E
330
2A6C
100
AcDbEntity
  8
図枠細線
100
AcDbMText
 10
5.040804501593
 20
31.626098649005
 30
0.0
 40
2.5
 41
49.938282706292
 71
     1
 72
     5
  1
{\Fmonotxt.shx,bigfont.shx|c128;図暦　CHANGE　NOTICE}
  0
LINE
  5
2A6F
330
2A6C
100
AcDbEntity
  8
図枠太線
  6
CONTINUOUS
 62
   251
100
AcDbLine
 10
283.577871882961
 20
2.820844689254
 30
0.0
 11
283.577871882961
 21
32.820842689254
 31
0.0
  0
MTEXT
  5
2A70
330
2A6C
100
AcDbEntity
  8
図枠細線
 48
10.0
100
AcDbMText
 10
214.912458947454
 20
31.621488632308
 30
0.0
 40
2.5
 41
28.002809618823
 71
     1
 72
     5
  1
{\Fmonotxt.shx,bigfont.shx|c128;名称　TITLE}
  0
MTEXT
  5
2A71
330
2A6C
100
AcDbEntity
  8
図枠細線
 48
10.0
100
AcDbMText
 10
214.740030458938
 20
16.310225796722
 30
0.0
 40
2.5
 41
24.385612216707
 71
     1
 72
     5
  1
{\Fmonotxt.shx,bigfont.shx|c128;図面番号\PDRG.　No.}
  0
LINE
  5
2A72
330
2A6C
100
AcDbEntity
  8
図枠太線
  6
CONTINUOUS
 62
   251
100
AcDbLine
 10
213.577871882961
 20
2.820844689254
 30
0.0
 11
213.577871882961
 21
32.820842689254
 31
0.0
  0
LINE
  5
2A73
330
2A6C
100
AcDbEntity
  8
図枠太線
  6
CONTINUOUS
 62
   251
100
AcDbLine
 10
143.577871882961
 20
2.820844689254
 30
0.0
 11
143.577871882961
 21
32.820842689254
 31
0.0
  0
TEXT
  5
2A74
330
2A6C
100
AcDbEntity
  8
図枠細線
  6
CONTINUOUS
 62
   252
100
AcDbText
 10
145.716454488093
 20
4.468335689254
 30
0.0
 40
3.5
  1
ＴＯＷＡ　ＳＥＩＤＥＮ　ＩＮＤＵＳＴＲＩＡＬ　ＣＯ．，ＬＴＤ．
 41
0.528937826907
  7
EXCADSTD
 72
     5
 11
212.856295983498
 21
4.468335689254
 31
0.0
100
AcDbText
  0
TEXT
  5
2A75
330
2A6C
100
AcDbEntity
  8
図枠ロゴマーク
  6
CONTINUOUS
 62
   253
100
AcDbText
 10
145.950637593507
 20
9.413236689254
 30
0.0
 40
7.0
  1
東和制電工業株式会社
 41
0.80361088462
  7
EXCADSTD
 72
     5
 11
211.953878250259
 21
9.413236689254
 31
0.0
100
AcDbText
  0
LINE
  5
2A76
330
2A6C
100
AcDbEntity
  8
図枠細線
  6
CONTINUOUS
 62
   252
100
AcDbLine
 10
143.577871882961
 20
25.320842689254
 30
0.0
 11
213.577871882961
 21
25.320842689254
 31
0.0
  0
LINE
  5
2A77
330
2A6C
100
AcDbEntity
  8
図枠太線
  6
CONTINUOUS
 62
   251
100
AcDbLine
 10
143.577863882961
 20
17.820842689254
 30
0.0
 11
213.577871882961
 21
17.820842689254
 31
0.0
  0
LINE
  5
2A78
330
2A6C
100
AcDbEntity
  8
図枠細線
  6
CONTINUOUS
 62
   252
100
AcDbLine
 10
213.577871882961
 20
17.820842689254
 30
0.0
 11
283.577871882961
 21
17.820842689254
 31
0.0
  0
LINE
  5
2A79
330
2A6C
100
AcDbEntity
  8
図枠細線
  6
CONTINUOUS
 62
   252
100
AcDbLine
 10
120.577871882961
 20
32.820842689254
 30
0.0
 11
120.577871882961
 21
17.820842689254
 31
0.0
  0
MTEXT
  5
2A7A
330
2A6C
100
AcDbEntity
  8
図枠細線
 48
10.0
100
AcDbMText
 10
121.100885670352
 20
16.33785922638
 30
0.0
 40
2.0
 41
17.705978285068
 71
     1
 72
     5
  1
{\Fmonotxt.shx,bigfont.shx|c128;日付 DATE}
  0
MTEXT
  5
2A7B
330
2A6C
100
AcDbEntity
  8
図枠細線
 48
10.0
100
AcDbMText
 10
121.254842273491
 20
31.208993514037
 30
0.0
 40
2.0
 41
18.363799568758
 71
     1
 72
     5
  1
{\Fmonotxt.shx,bigfont.shx|c128;製図　DRAWN}
  0
LINE
  5
2A7C
330
2A6C
100
AcDbEntity
  8
図枠細線
  6
CONTINUOUS
 62
   252
100
AcDbLine
 10
97.577871882961
 20
32.820842689254
 30
0.0
 11
97.577871882961
 21
17.820842689254
 31
0.0
  0
MTEXT
  5
2A7D
330
2A6C
100
AcDbEntity
  8
図枠細線
 48
10.0
100
AcDbMText
 10
98.239734796872
 20
16.467764839281
 30
0.0
 40
2.0
 41
17.757791689903
 71
     1
 72
     5
  1
{\Fmonotxt.shx,bigfont.shx|c128;尺度　SCALE}
  0
MTEXT
  5
2A7E
330
2A6C
100
AcDbEntity
  8
図枠細線
 48
10.0
100
AcDbMText
 10
97.864744625154
 20
31.298433377664
 30
0.0
 40
2.0
 41
23.162655920976
 71
     1
 72
     5
  1
{\Fmonotxt.shx,bigfont.shx|c128;検図  CHECKED}
  0
LINE
  5
2A7F
330
2A6C
100
AcDbEntity
  8
図枠細線
  6
CONTINUOUS
 62
   252
100
AcDbLine
 10
97.577871882961
 20
2.820843367826
 30
0.0
 11
97.577871882961
 21
17.820841367826
 31
0.0
  0
LINE
  5
2A80
330
2A6C
100
AcDbEntity
  8
図枠細線
  6
CONTINUOUS
 62
   252
100
AcDbLine
 10
120.577871882961
 20
2.820844010683
 30
0.0
 11
120.577871882961
 21
17.820842010683
 31
0.0
  0
MTEXT
  5
2A81
330
2A6C
100
AcDbEntity
  8
図枠細線
 48
10.0
100
AcDbMText
 10
81.402399084102
 20
16.316484117426
 30
0.0
 40
2.0
 41
12.920322819369
 71
     1
 72
     5
  1
{\Fmonotxt.shx,bigfont.shx|c128;第三角法}
  0
MTEXT
  5
2A82
330
2A6C
100
AcDbEntity
  8
図枠細線
 48
10.0
100
AcDbMText
 10
75.736576535096
 20
11.080410931319
 30
0.0
 40
2.0
 41
21.072870671471
 71
     1
 72
     5
  1
{\Fmonotxt.shx,bigfont.shx|c128;THIRD ANGLE\PPROJECTION}
  0
LINE
  5
2A83
330
2A6C
100
AcDbEntity
  8
図枠太線
  6
CONTINUOUS
 62
   251
100
AcDbLine
 10
74.577871882961
 20
2.820844689254
 30
0.0
 11
74.577871882961
 21
32.820842689254
 31
0.0
  0
MTEXT
  5
2A84
330
2A6C
100
AcDbEntity
  8
図枠細線
 48
10.0
100
AcDbMText
 10
75.060214781573
 20
31.298434778555
 30
0.0
 40
2.0
 41
22.240928805967
 71
     1
 72
     5
  1
{\Fmonotxt.shx,bigfont.shx|c128;承認 APPROVED}
  0
LINE
  5
2A85
330
2A6C
100
AcDbEntity
  8
図枠細線
  6
CONTINUOUS
100
AcDbLine
 10
3.577871882961
 20
17.820844689254
 30
0.0
 11
74.577871882961
 21
17.820844689254
 31
0.0
  0
LINE
  5
2A86
330
2A6C
100
AcDbEntity
  8
図枠細線
  6
CONTINUOUS
 62
   252
100
AcDbLine
 10
3.577871882961
 20
27.820842689254
 30
0.0
 11
74.577871882961
 21
27.820842689254
 31
0.0
  0
LINE
  5
2A87
330
2A6C
100
AcDbEntity
  8
図枠細線
  6
CONTINUOUS
 62
   252
100
AcDbLine
 10
3.577871882961
 20
22.820842689254
 30
0.0
 11
74.577871882961
 21
22.820842689254
 31
0.0
  0
LINE
  5
2A88
330
2A6C
100
AcDbEntity
  8
図枠細線
  6
CONTINUOUS
 62
   252
100
AcDbLine
 10
3.577871882961
 20
12.820842689254
 30
0.0
 11
74.577871882961
 21
12.820842689254
 31
0.0
  0
LINE
  5
2A89
330
2A6C
100
AcDbEntity
  8
図枠細線
  6
CONTINUOUS
 62
   252
100
AcDbLine
 10
3.577871882961
 20
7.820844689254
 30
0.0
 11
74.577871882961
 21
7.820844689254
 31
0.0
  0
LINE
  5
2A8A
330
2A6C
100
AcDbEntity
  8
図枠細線
  6
CONTINUOUS
100
AcDbLine
 10
74.577871882961
 20
17.820843689254
 30
0.0
 11
143.577871882961
 21
17.820841224969
 31
0.0
  0
LINE
  5
2A8B
330
2A6C
100
AcDbEntity
  8
図枠太線
  6
CONTINUOUS
 62
   251
100
AcDbLine
 10
3.577871882961
 20
2.820844689254
 30
0.0
 11
283.577871882961
 21
2.820844689254
 31
0.0
  0
LINE
  5
2A8C
330
2A6C
100
AcDbEntity
  8
図枠太線
  6
CONTINUOUS
 62
   251
100
AcDbLine
 10
3.577871882961
 20
2.820844689254
 30
0.0
 11
3.577871882961
 21
32.820842689254
 31
0.0
  0
ENDBLK
  5
2A8D
330
2A6C
100
AcDbEntity
  8
0
100
AcDbBlockEnd
  0
BLOCK
  5
2AF8
330
2AF4
100
AcDbEntity
  8
0
 48
10.0
100
AcDbBlockBegin
  2
_OPEN30
 70
     0
 10
0.0
 20
0.0
 30
0.0
  3
_OPEN30
  1

  0
LINE
  5
2AF5
330
2AF4
100
AcDbEntity
  8
0
  6
BYBLOCK
 62
     0
100
AcDbLine
 10
-1.0
 20
0.26794919
 30
0.0
 11
0.0
 21
0.0
 31
0.0
  0
LINE
  5
2AF6
330
2AF4
100
AcDbEntity
  8
0
  6
BYBLOCK
 62
     0
100
AcDbLine
 10
0.0
 20
0.0
 30
0.0
 11
-1.0
 21
-0.26794919
 31
0.0
  0
LINE
  5
2AF7
330
2AF4
100
AcDbEntity
  8
0
  6
BYBLOCK
 62
     0
100
AcDbLine
 10
0.0
 20
0.0
 30
0.0
 11
-1.0
 21
0.0
 31
0.0
  0
ENDBLK
  5
2AF9
330
2AF4
100
AcDbEntity
  8
0
 48
10.0
100
AcDbBlockEnd
  0
BLOCK
  5
430B
330
4302
100
AcDbEntity
  8
0
 48
10.0
100
AcDbBlockBegin
  2
*D13
 70
     1
 10
0.0
 20
0.0
 30
0.0
  3
*D13
  1

  0
LINE
  5
4A17
330
4302
100
AcDbEntity
  8
寸法線
 62
     0
 48
10.0
100
AcDbLine
 10
37.118720095546
 20
370.983368237807
 30
0.0
 11
177.906662459276
 21
396.038413338286
 31
0.0
  0
MTEXT
  5
4A18
330
4302
100
AcDbEntity
  8
寸法線
 62
     0
 48
10.0
100
AcDbMText
 10
153.415733600852
 20
396.760891002268
 30
0.0
 40
8.0
 41
0.0
 71
     5
 72
     1
  1
\A1;\U+2205155
 11
0.98453106548063
 21
0.1752101055977523
 31
0.0
  0
INSERT
  5
4A19
330
4302
100
AcDbEntity
  8
寸法線
 62
     0
 48
10.0
100
AcDbBlockReference
  2
_OPEN30
 10
31.211533702662
 20
369.932107604221
 30
0.0
 41
6.0
 42
6.0
 43
6.0
 50
190.090885183123
  0
INSERT
  5
4A1A
330
4302
100
AcDbEntity
  8
寸法線
 62
     0
 48
10.0
100
AcDbBlockReference
  2
_OPEN30
 10
183.81384885216
 20
397.089673971873
 30
0.0
 41
6.0
 42
6.0
 43
6.0
 50
10.090885183123
  0
POINT
  5
4A1B
330
4302
100
AcDbEntity
  8
DEFPOINTS
 62
     0
 48
10.0
100
AcDbPoint
 10
183.81384885216
 20
397.089673971873
 30
0.0
  0
POINT
  5
4A1C
330
4302
100
AcDbEntity
  8
DEFPOINTS
 62
     0
 48
10.0
100
AcDbPoint
 10
31.211533702662
 20
369.932107604221
 30
0.0
  0
ENDBLK
  5
430C
330
4302
100
AcDbEntity
  8
0
 48
10.0
100
AcDbBlockEnd
  0
BLOCK
  5
4317
330
430E
100
AcDbEntity
  8
0
 48
10.0
100
AcDbBlockBegin
  2
*D14
 70
     1
 10
0.0
 20
0.0
 30
0.0
  3
*D14
  1

  0
LINE
  5
4A11
330
430E
100
AcDbEntity
  8
寸法線
 62
     0
 48
10.0
100
AcDbLine
 10
55.288321914461
 20
356.058837228391
 30
0.0
 11
159.73706064036
 21
410.962944347702
 31
0.0
  0
MTEXT
  5
4A12
330
430E
100
AcDbEntity
  8
寸法線
 62
     0
 48
10.0
100
AcDbMText
 10
146.264775343379
 20
409.466084091731
 30
0.0
 40
8.0
 41
0.0
 71
     5
 72
     1
  1
\A1;\U+2205130
 11
0.8851588027618572
 21
0.4652890433839976
 31
0.0
  0
INSERT
  5
4A13
330
430E
100
AcDbEntity
  8
寸法線
 62
     0
 48
10.0
100
AcDbBlockReference
  2
_OPEN30
 10
49.97736909789
 20
353.267102968087
 30
0.0
 41
6.0
 42
6.0
 43
6.0
 50
207.728930042825
  0
INSERT
  5
4A14
330
430E
100
AcDbEntity
  8
寸法線
 62
     0
 48
10.0
100
AcDbBlockReference
  2
_OPEN30
 10
165.048013456931
 20
413.754678608006
 30
0.0
 41
6.0
 42
6.0
 43
6.0
 50
27.728930042825
  0
POINT
  5
4A15
330
430E
100
AcDbEntity
  8
DEFPOINTS
 62
     0
 48
10.0
100
AcDbPoint
 10
165.048013456931
 20
413.754678608006
 30
0.0
  0
POINT
  5
4A16
330
430E
100
AcDbEntity
  8
DEFPOINTS
 62
     0
 48
10.0
100
AcDbPoint
 10
49.97736909789
 20
353.267102968087
 30
0.0
  0
ENDBLK
  5
4318
330
430E
100
AcDbEntity
  8
0
 48
10.0
100
AcDbBlockEnd
  0
BLOCK
  5
4508
330
4507
100
AcDbEntity
  8
0
 48
10.0
100
AcDbBlockBegin
  2
静電容量センサ
 70
     0
 10
0.0
 20
0.0
 30
0.0
  3
静電容量センサ
  1

  0
ARC
  5
4509
330
4507
100
AcDbEntity
  8
外形線
 48
10.0
100
AcDbCircle
 10
1021.898525663106
 20
1073.412780408912
 30
0.0
 40
1.0
100
AcDbArc
 50
180.0
 51
268.999999999998
  0
ARC
  5
450A
330
4507
100
AcDbEntity
  8
外形線
 48
10.0
100
AcDbCircle
 10
1021.898525663106
 20
1115.960781516243
 30
0.0
 40
1.0
100
AcDbArc
 50
91.000000000002
 51
180.0
  0
LINE
  5
450B
330
4507
100
AcDbEntity
  8
外形線
 48
10.0
100
AcDbLine
 10
1020.898525663106
 20
1115.960781516243
 30
0.0
 11
1020.898525663106
 21
1073.412780408912
 31
0.0
  0
LINE
  5
450C
330
4507
100
AcDbEntity
  8
外形線
 48
10.0
100
AcDbLine
 10
1035.026308504175
 20
1117.944859066978
 30
0.0
 11
1041.278741748243
 21
1143.02199911049
 31
0.0
  0
ARC
  5
450D
330
4507
100
AcDbEntity
  8
外形線
 48
10.0
100
AcDbCircle
 10
1046.130220379623
 20
1141.812389632491
 30
0.0
 40
5.0
100
AcDbArc
 50
91.3
 51
166.000000000004
  0
ARC
  5
450E
330
4507
100
AcDbEntity
  8
外形線
 48
10.0
100
AcDbCircle
 10
1034.056012777899
 20
1118.186780962578
 30
0.0
 40
1.0
100
AcDbArc
 50
270.0
 51
346.000000000004
  0
ARC
  5
450F
330
4507
100
AcDbEntity
  8
外形線
 48
10.0
100
AcDbCircle
 10
1034.056012777899
 20
1118.186780962578
 30
0.0
 40
1.0
100
AcDbArc
 50
270.0
 51
346.000000000004
  0
LINE
  5
4510
330
4507
100
AcDbEntity
  8
外形線
 48
10.0
100
AcDbLine
 10
1021.881073256669
 20
1116.960629211399
 30
0.0
 11
1034.056012777899
 21
1117.186780962578
 31
0.0
  0
ARC
  5
4511
330
4507
100
AcDbEntity
  8
外形線
 48
10.0
100
AcDbCircle
 10
1122.899564892808
 20
1151.93622955513
 30
0.0
 40
0.5
100
AcDbArc
 50
359.999254274584
 51
88.999999999998
  0
ARC
  5
4512
330
4507
100
AcDbEntity
  8
細線
 48
10.0
100
AcDbCircle
 10
1123.898525663106
 20
1107.819822714047
 30
0.0
 40
0.5
100
AcDbArc
 50
180.0
 51
264.089361084595
  0
ARC
  5
4513
330
4507
100
AcDbEntity
  8
外形線
 48
10.0
100
AcDbCircle
 10
1123.898525663106
 20
1100.44543233102
 30
0.0
 40
0.5
100
AcDbArc
 50
91.000000000002
 51
180.0
  0
ARC
  5
4514
330
4507
100
AcDbEntity
  8
細線
 48
10.0
100
AcDbCircle
 10
1123.898525663106
 20
1108.078641759149
 30
0.0
 40
0.5
100
AcDbArc
 50
180.0
 51
264.089361084595
  0
ARC
  5
4515
330
4507
100
AcDbEntity
  8
細線
 48
10.0
100
AcDbCircle
 10
1123.898525663106
 20
1129.71320712675
 30
0.0
 40
0.5
100
AcDbArc
 50
180.0
 51
254.206830951738
  0
ARC
  5
4516
330
4507
100
AcDbEntity
  8
細線
 48
10.0
100
AcDbCircle
 10
1123.898525663106
 20
1130.420313907937
 30
0.0
 40
0.5
100
AcDbArc
 50
180.0
 51
254.206830951738
  0
ARC
  5
4517
330
4507
100
AcDbEntity
  8
細線
 48
10.0
100
AcDbCircle
 10
1123.898525663106
 20
1142.359984147006
 30
0.0
 40
0.5
100
AcDbArc
 50
180.0
 51
248.874947125989
  0
ARC
  5
4518
330
4507
100
AcDbEntity
  8
細線
 48
10.0
100
AcDbCircle
 10
1123.898525663106
 20
1143.325909973296
 30
0.0
 40
0.5
100
AcDbArc
 50
180.0
 51
248.874947125989
  0
ARC
  5
4519
330
4507
100
AcDbEntity
  8
外形線
 48
10.0
100
AcDbCircle
 10
1123.898413585187
 20
1144.632076415673
 30
0.0
 40
0.5
100
AcDbArc
 50
180.019033969455
 51
248.025023881972
  0
LINE
  5
451A
330
4507
100
AcDbEntity
  8
外形線
 48
10.0
100
AcDbLine
 10
1123.398525663106
 20
1143.325909973296
 30
0.0
 11
1123.398525663106
 21
1144.294618045039
 31
0.0
  0
LINE
  5
451B
330
4507
100
AcDbEntity
  8
外形線
 48
10.0
100
AcDbLine
 10
1123.398525663106
 20
1142.359984147006
 30
0.0
 11
1123.398525663106
 21
1142.98307227703
 31
0.0
  0
LINE
  5
451C
330
4507
100
AcDbEntity
  8
外形線
 48
10.0
100
AcDbLine
 10
1123.398525663106
 20
1130.420313907937
 30
0.0
 11
1123.398525663106
 21
1142.017146450741
 31
0.0
  0
LINE
  5
451D
330
4507
100
AcDbEntity
  8
外形線
 48
10.0
100
AcDbLine
 10
1123.398525663106
 20
1129.71320712675
 30
0.0
 11
1123.398525663106
 21
1130.042120021904
 31
0.0
  0
LINE
  5
451E
330
4507
100
AcDbEntity
  8
外形線
 48
10.0
100
AcDbLine
 10
1123.398525663106
 20
1108.078641759149
 30
0.0
 11
1123.398525663106
 21
1130.420313907937
 31
0.0
  0
LINE
  5
451F
330
4507
100
AcDbEntity
  8
外形線
 48
10.0
100
AcDbLine
 10
1123.398525663106
 20
1107.819822714047
 30
0.0
 11
1123.398525663106
 21
1108.700149198143
 31
0.0
  0
LINE
  5
4520
330
4507
100
AcDbEntity
  8
外形線
 48
10.0
100
AcDbLine
 10
1123.398525663106
 20
1100.44543233102
 30
0.0
 11
1123.398525663106
 21
1108.078641759149
 31
0.0
  0
ARC
  5
4521
330
4507
100
AcDbEntity
  8
外形線
 48
10.0
100
AcDbCircle
 10
1123.898525663106
 20
1088.928129594135
 30
0.0
 40
0.5
100
AcDbArc
 50
180.0
 51
268.999999999998
  0
LINE
  5
4522
330
4507
100
AcDbEntity
  8
外形線
 48
10.0
100
AcDbLine
 10
1123.398525663106
 20
1088.928129594135
 30
0.0
 11
1123.398525663106
 21
1100.44543233102
 31
0.0
  0
ARC
  5
4523
330
4507
100
AcDbEntity
  8
外形線
 48
10.0
100
AcDbCircle
 10
1135.396646406818
 20
1087.727276821958
 30
0.0
 40
0.5
100
AcDbArc
 50
0.002863323129
 51
88.999999999998
  0
ARC
  5
4524
330
4507
100
AcDbEntity
  8
外形線
 48
10.0
100
AcDbCircle
 10
1135.396646406818
 20
1101.646285103198
 30
0.0
 40
0.5
100
AcDbArc
 50
271.000000000002
 51
359.997136676878
  0
ARC
  5
4525
330
4507
100
AcDbEntity
  8
細線
 48
10.0
100
AcDbCircle
 10
1135.398359871226
 20
1105.882746614783
 30
0.0
 40
0.5
100
AcDbArc
 50
359.978936747976
 51
84.089361084595
  0
ARC
  5
4526
330
4507
100
AcDbEntity
  8
細線
 48
10.0
100
AcDbCircle
 10
1135.396845195015
 20
1105.6240843805
 30
0.0
 40
0.5
100
AcDbArc
 50
359.997136676878
 51
84.089361084595
  0
ARC
  5
4527
330
4507
100
AcDbEntity
  8
細線
 48
10.0
100
AcDbCircle
 10
1135.398405428356
 20
1136.84472607817
 30
0.0
 40
0.5
100
AcDbArc
 50
359.997136676878
 51
68.874947125989
  0
ARC
  5
4528
330
4507
100
AcDbEntity
  8
細線
 48
10.0
100
AcDbCircle
 10
1135.398453699003
 20
1137.810633254114
 30
0.0
 40
0.5
100
AcDbArc
 50
359.997136676878
 51
68.874947125989
  0
ARC
  5
4529
330
4507
100
AcDbEntity
  8
外形線
 48
10.0
100
AcDbCircle
 10
1135.398508800797
 20
1138.913233296621
 30
0.0
 40
0.5
100
AcDbArc
 50
359.997136676878
 51
68.025023881972
  0
LINE
  5
452A
330
4507
100
AcDbEntity
  8
外形線
 48
10.0
100
AcDbLine
 10
1135.405372610037
 20
1101.146361255619
 30
0.0
 11
1123.889799459887
 21
1100.945356178598
 31
0.0
  0
LINE
  5
452B
330
4507
100
AcDbEntity
  8
外形線
 48
10.0
100
AcDbLine
 10
1135.405372610037
 20
1088.227200669536
 30
0.0
 11
1123.889799459887
 21
1088.428205746557
 31
0.0
  0
LINE
  5
452C
330
4507
100
AcDbEntity
  8
外形線
 48
10.0
100
AcDbLine
 10
1123.711312779708
 20
1144.168402728055
 30
0.0
 11
1135.585609606275
 21
1139.376906984239
 31
0.0
  0
LINE
  5
452D
330
4507
100
AcDbEntity
  8
細線
 48
10.0
100
AcDbLine
 10
1135.448333812772
 20
1106.121426237015
 30
0.0
 11
1123.847037045349
 21
1107.322480857532
 31
0.0
  0
LINE
  5
452E
330
4507
100
AcDbEntity
  8
細線
 48
10.0
100
AcDbLine
 10
1135.449848488983
 20
1106.380088471297
 30
0.0
 11
1123.847037045349
 21
1107.581299902634
 31
0.0
  0
LINE
  5
452F
330
4507
100
AcDbEntity
  8
細線
 48
10.0
100
AcDbLine
 10
1135.533952658586
 20
1126.609702933466
 30
0.0
 11
1123.762442899618
 21
1129.939188683612
 31
0.0
  0
LINE
  5
4530
330
4507
100
AcDbEntity
  8
細線
 48
10.0
100
AcDbLine
 10
1135.578607784566
 20
1137.311124095764
 30
0.0
 11
1123.718323306896
 21
1141.893586129411
 31
0.0
  0
LINE
  5
4531
330
4507
100
AcDbEntity
  8
細線
 48
10.0
100
AcDbLine
 10
1135.578656055213
 20
1138.277031271709
 30
0.0
 11
1123.718323306896
 21
1142.859511955701
 31
0.0
  0
LINE
  5
4532
330
4507
100
AcDbEntity
  8
外形線
 48
10.0
100
AcDbLine
 10
1108.899561566736
 20
1152.686780962578
 30
0.0
 11
1122.908291096026
 21
1152.436153402709
 31
0.0
  0
LINE
  5
4533
330
4507
100
AcDbEntity
  8
外形線
 48
10.0
100
AcDbLine
 10
1108.899561566736
 20
1152.686780962578
 30
0.0
 11
1108.399561566736
 21
1152.180676686204
 31
0.0
  0
LINE
  5
4534
330
4507
100
AcDbEntity
  8
外形線
 48
10.0
100
AcDbLine
 10
1108.399561566736
 20
1151.192885238951
 30
0.0
 11
1108.399561566736
 21
1150.692885238951
 31
0.0
  0
ARC
  5
4535
330
4507
100
AcDbEntity
  8
外形線
 48
10.0
100
AcDbCircle
 10
1098.998525663106
 20
1152.414559409545
 30
0.0
 40
4.4
100
AcDbArc
 50
271.3
 51
0.0
  0
LINE
  5
4536
330
4507
100
AcDbEntity
  8
外形線
 48
10.0
100
AcDbLine
 10
1046.016783711759
 20
1146.811102679105
 30
0.0
 11
1099.098349930826
 21
1148.015691928525
 31
0.0
  0
LINE
  5
4537
330
4507
100
AcDbEntity
  8
外形線
 48
10.0
100
AcDbLine
 10
1103.398525663105
 20
1152.686780962578
 30
0.0
 11
1103.398525663105
 21
1152.414559409545
 31
0.0
  0
LINE
  5
4538
330
4507
100
AcDbEntity
  8
外形線
 48
10.0
100
AcDbLine
 10
1106.398525663105
 20
1152.686780962578
 30
0.0
 11
1103.398525663105
 21
1152.686780962578
 31
0.0
  0
ARC
  5
4539
330
4507
100
AcDbEntity
  8
外形線
 48
10.0
100
AcDbCircle
 10
1107.898525663105
 20
1150.161780962577
 30
0.0
 40
1.500000000000156
100
AcDbArc
 50
70.528779365514
 51
179.999999999993
  0
LINE
  5
453A
330
4507
100
AcDbEntity
  8
細線
 48
10.0
100
AcDbLine
 10
1108.899561566736
 20
1152.686780962578
 30
0.0
 11
1108.899561566736
 21
1036.686780962578
 31
0.0
  0
LINE
  5
453B
330
4507
100
AcDbEntity
  8
細線
 48
10.0
100
AcDbLine
 10
1108.899561566736
 20
1152.680676686204
 30
0.0
 11
1108.899561566736
 21
1036.692885238951
 31
0.0
  0
LINE
  5
453C
330
4507
100
AcDbEntity
  8
外形線
 48
10.0
100
AcDbLine
 10
1123.398525663106
 20
1072.956444458874
 30
0.0
 11
1123.398525663106
 21
1059.660354798405
 31
0.0
  0
ARC
  5
453D
330
4507
100
AcDbEntity
  8
細線
 48
10.0
100
AcDbCircle
 10
1123.898525663106
 20
1047.013577778149
 30
0.0
 40
0.5
100
AcDbArc
 50
111.125052874011
 51
180.0
  0
ARC
  5
453E
330
4507
100
AcDbEntity
  8
細線
 48
10.0
100
AcDbCircle
 10
1123.898066965619
 20
1046.04747472476
 30
0.0
 40
0.5
100
AcDbArc
 50
111.125052874011
 51
179.923306313171
  0
ARC
  5
453F
330
4507
100
AcDbEntity
  8
細線
 48
10.0
100
AcDbCircle
 10
1123.898525663106
 20
1059.660354798405
 30
0.0
 40
0.5
100
AcDbArc
 50
105.793169048262
 51
180.0
  0
ARC
  5
4540
330
4507
100
AcDbEntity
  8
細線
 48
10.0
100
AcDbCircle
 10
1123.898525663106
 20
1058.953248017218
 30
0.0
 40
0.5
100
AcDbArc
 50
105.793169048262
 51
180.0
  0
ARC
  5
4541
330
4507
100
AcDbEntity
  8
細線
 48
10.0
100
AcDbCircle
 10
1123.898525663106
 20
1081.294920166006
 30
0.0
 40
0.5
100
AcDbArc
 50
95.910638915405
 51
180.0
  0
ARC
  5
4542
330
4507
100
AcDbEntity
  8
細線
 48
10.0
100
AcDbCircle
 10
1123.898525663106
 20
1081.553739211108
 30
0.0
 40
0.5
100
AcDbArc
 50
95.910638915405
 51
180.0
  0
LINE
  5
4543
330
4507
100
AcDbEntity
  8
外形線
 48
10.0
100
AcDbLine
 10
1123.398525663106
 20
1081.294920166006
 30
0.0
 11
1123.398525663106
 21
1088.928129594135
 31
0.0
  0
LINE
  5
4544
330
4507
100
AcDbEntity
  8
外形線
 48
10.0
100
AcDbLine
 10
1123.398525663106
 20
1081.745828707453
 30
0.0
 11
1123.398525663106
 21
1082.004647752555
 31
0.0
  0
LINE
  5
4545
330
4507
100
AcDbEntity
  8
外形線
 48
10.0
100
AcDbLine
 10
1123.398525663106
 20
1072.956444458874
 30
0.0
 11
1123.398525663106
 21
1081.294920166006
 31
0.0
  0
LINE
  5
4546
330
4507
100
AcDbEntity
  8
外形線
 48
10.0
100
AcDbLine
 10
1123.398525663106
 20
1058.953248017218
 30
0.0
 11
1123.398525663106
 21
1059.660354798405
 31
0.0
  0
LINE
  5
4547
330
4507
100
AcDbEntity
  8
外形線
 48
10.0
100
AcDbLine
 10
1123.398525663106
 20
1047.013577778149
 30
0.0
 11
1123.398525663106
 21
1058.953248017218
 31
0.0
  0
LINE
  5
4548
330
4507
100
AcDbEntity
  8
外形線
 48
10.0
100
AcDbLine
 10
1123.398067413553
 20
1046.048144003235
 30
0.0
 11
1123.398525663106
 21
1047.013577778149
 31
0.0
  0
LINE
  5
4549
330
4507
100
AcDbEntity
  8
外形線
 48
10.0
100
AcDbLine
 10
1123.396317242873
 20
1044.740639597053
 30
0.0
 11
1123.398067413553
 21
1046.048144003235
 31
0.0
  0
ARC
  5
454A
330
4507
100
AcDbEntity
  8
外形線
 48
10.0
100
AcDbCircle
 10
1123.896317242873
 20
1044.740639597053
 30
0.0
 40
0.5
100
AcDbArc
 50
111.974976118028
 51
180.0
  0
ARC
  5
454B
330
4507
100
AcDbEntity
  8
細線
 48
10.0
100
AcDbCircle
 10
1135.398494161258
 20
1063.952267566336
 30
0.0
 40
0.5
100
AcDbArc
 50
285.793169048262
 51
0.004772330144
  0
ARC
  5
454C
330
4507
100
AcDbEntity
  8
細線
 48
10.0
100
AcDbCircle
 10
1135.398525663106
 20
1063.245169695216
 30
0.0
 40
0.5
100
AcDbArc
 50
285.793169048262
 51
0.0
  0
ARC
  5
454D
330
4507
100
AcDbEntity
  8
細線
 48
10.0
100
AcDbCircle
 10
1135.398525663106
 20
1052.528882302126
 30
0.0
 40
0.5
100
AcDbArc
 50
291.125052874011
 51
0.0
  0
ARC
  5
454E
330
4507
100
AcDbEntity
  8
細線
 48
10.0
100
AcDbCircle
 10
1135.398525663106
 20
1051.562956475835
 30
0.0
 40
0.5
100
AcDbArc
 50
291.125052874011
 51
0.0
  0
ARC
  5
454F
330
4507
100
AcDbEntity
  8
外形線
 48
10.0
100
AcDbCircle
 10
1135.398525663106
 20
1050.460335432784
 30
0.0
 40
0.5
100
AcDbArc
 50
291.974976118028
 51
0.0
  0
LINE
  5
4550
330
4507
100
AcDbEntity
  8
外形線
 48
10.0
100
AcDbLine
 10
1135.898525663106
 20
1051.562956475835
 30
0.0
 11
1135.898525663106
 21
1050.460335432784
 31
0.0
  0
LINE
  5
4551
330
4507
100
AcDbEntity
  8
外形線
 48
10.0
100
AcDbLine
 10
1135.898525663106
 20
1052.528882302126
 30
0.0
 11
1135.898525663106
 21
1051.562956475835
 31
0.0
  0
LINE
  5
4552
330
4507
100
AcDbEntity
  8
外形線
 48
10.0
100
AcDbLine
 10
1135.898525663106
 20
1063.245169695216
 30
0.0
 11
1135.898525663106
 21
1052.528882302126
 31
0.0
  0
LINE
  5
4553
330
4507
100
AcDbEntity
  8
外形線
 48
10.0
100
AcDbLine
 10
1135.898494159523
 20
1063.952309212773
 30
0.0
 11
1135.898525663106
 21
1063.245169695216
 31
0.0
  0
LINE
  5
4554
330
4507
100
AcDbEntity
  8
外形線
 48
10.0
100
AcDbLine
 10
1135.896845194391
 20
1083.749502531863
 30
0.0
 11
1135.898494159523
 21
1063.952309212773
 31
0.0
  0
ARC
  5
4555
330
4507
100
AcDbEntity
  8
細線
 48
10.0
100
AcDbCircle
 10
1135.396794220963
 20
1083.49065322233
 30
0.0
 40
0.5
100
AcDbArc
 50
275.910638915405
 51
0.00199902817
  0
ARC
  5
4556
330
4507
100
AcDbEntity
  8
細線
 48
10.0
100
AcDbCircle
 10
1135.396845195015
 20
1083.749477544655
 30
0.0
 40
0.5
100
AcDbArc
 50
275.910638915405
 51
0.002863323129
  0
ARC
  5
4557
330
4507
100
AcDbEntity
  8
外形線
 48
10.0
100
AcDbCircle
 10
1122.897486448612
 20
1037.437296090646
 30
0.0
 40
0.5
100
AcDbArc
 50
271.000000000002
 51
359.984453673186
  0
LINE
  5
4558
330
4507
100
AcDbEntity
  8
外形線
 48
10.0
100
AcDbLine
 10
1135.896646406194
 20
1087.727301809166
 30
0.0
 11
1135.896794220659
 21
1083.490670667142
 31
0.0
  0
LINE
  5
4559
330
4507
100
AcDbEntity
  8
外形線
 48
10.0
100
AcDbLine
 10
1123.709216437395
 20
1045.204313284671
 30
0.0
 11
1135.585626468584
 21
1049.996661745166
 31
0.0
  0
LINE
  5
455A
330
4507
100
AcDbEntity
  8
細線
 48
10.0
100
AcDbLine
 10
1135.578728019316
 20
1052.062484284531
 30
0.0
 11
1123.718323306896
 21
1047.479975795744
 31
0.0
  0
LINE
  5
455B
330
4507
100
AcDbEntity
  8
細線
 48
10.0
100
AcDbLine
 10
1135.578728019316
 20
1051.09655845824
 30
0.0
 11
1123.717864609409
 21
1046.513872742355
 31
0.0
  0
LINE
  5
455C
330
4507
100
AcDbEntity
  8
細線
 48
10.0
100
AcDbLine
 10
1135.534608426593
 20
1062.764044470891
 30
0.0
 11
1123.762442899618
 21
1059.434373241543
 31
0.0
  0
LINE
  5
455D
330
4507
100
AcDbEntity
  8
細線
 48
10.0
100
AcDbLine
 10
1135.534576924746
 20
1063.471142342011
 30
0.0
 11
1123.762442899618
 21
1060.141480022729
 31
0.0
  0
LINE
  5
455E
330
4507
100
AcDbEntity
  8
細線
 48
10.0
100
AcDbLine
 10
1135.44828283872
 20
1082.993311365815
 30
0.0
 11
1123.847037045349
 21
1081.792262022521
 31
0.0
  0
LINE
  5
455F
330
4507
100
AcDbEntity
  8
細線
 48
10.0
100
AcDbLine
 10
1135.448333812772
 20
1083.25213568814
 30
0.0
 11
1123.847037045349
 21
1082.051081067623
 31
0.0
  0
LINE
  5
4560
330
4507
100
AcDbEntity
  8
外形線
 48
10.0
100
AcDbLine
 10
1123.399470041665
 20
1044.747733739171
 30
0.0
 11
1123.397486430207
 21
1037.437160423353
 31
0.0
  0
LINE
  5
4561
330
4507
100
AcDbEntity
  8
外形線
 48
10.0
100
AcDbLine
 10
1123.399564892765
 20
1151.936223047449
 30
0.0
 11
1123.397486430207
 21
1037.437160423353
 31
0.0
  0
LINE
  5
4562
330
4507
100
AcDbEntity
  8
外形線
 48
10.0
100
AcDbLine
 10
1108.399561566736
 20
1152.180676686204
 30
0.0
 11
1108.399561566736
 21
1037.192885238951
 31
0.0
  0
LINE
  5
4563
330
4507
100
AcDbEntity
  8
外形線
 48
10.0
100
AcDbLine
 10
1108.899561566736
 20
1036.686780962578
 30
0.0
 11
1122.906212651831
 21
1036.937372243068
 31
0.0
  0
LINE
  5
4564
330
4507
100
AcDbEntity
  8
外形線
 48
10.0
100
AcDbLine
 10
1108.899561566736
 20
1036.686780962578
 30
0.0
 11
1108.399561566736
 21
1037.192885238951
 31
0.0
  0
LINE
  5
4565
330
4507
100
AcDbEntity
  8
外形線
 48
10.0
100
AcDbLine
 10
1108.399561566736
 20
1038.192885238951
 30
0.0
 11
1108.399561566736
 21
1038.692885238951
 31
0.0
  0
LINE
  5
4566
330
4507
100
AcDbEntity
  8
外形線
 48
10.0
100
AcDbLine
 10
1035.022931603883
 20
1071.442246865485
 30
0.0
 11
1041.278741748243
 21
1046.351562814666
 31
0.0
  0
ARC
  5
4567
330
4507
100
AcDbEntity
  8
外形線
 48
10.0
100
AcDbCircle
 10
1046.130220379623
 20
1047.561172292664
 30
0.0
 40
5.0
100
AcDbArc
 50
193.999999999996
 51
268.7
  0
ARC
  5
4568
330
4507
100
AcDbEntity
  8
外形線
 48
10.0
100
AcDbCircle
 10
1034.052635877606
 20
1071.200324969886
 30
0.0
 40
1.0
100
AcDbArc
 50
13.999999999996
 51
89.000000000011
  0
ARC
  5
4569
330
4507
100
AcDbEntity
  8
外形線
 48
10.0
100
AcDbCircle
 10
1069.398525663106
 20
1041.031595836918
 30
0.0
 40
1.0
100
AcDbArc
 50
0.0
 51
88.7
  0
ARC
  5
456A
330
4507
100
AcDbEntity
  8
外形線
 48
10.0
100
AcDbCircle
 10
1071.398525663106
 20
1031.186780962577
 30
0.0
 40
1.0
100
AcDbArc
 50
180.0
 51
270.0
  0
ARC
  5
456B
330
4507
100
AcDbEntity
  8
外形線
 48
10.0
100
AcDbCircle
 10
1105.398525663105
 20
1031.186780962577
 30
0.0
 40
1.0
100
AcDbArc
 50
270.0
 51
0.0
  0
LINE
  5
456C
330
4507
100
AcDbEntity
  8
外形線
 48
10.0
100
AcDbLine
 10
1070.398525663106
 20
1031.186780962577
 30
0.0
 11
1070.398525663106
 21
1041.031595836918
 31
0.0
  0
LINE
  5
456D
330
4507
100
AcDbEntity
  8
外形線
 48
10.0
100
AcDbLine
 10
1046.016783711759
 20
1042.56245924605
 30
0.0
 11
1099.098349930826
 21
1041.35786999663
 31
0.0
  0
LINE
  5
456E
330
4507
100
AcDbEntity
  8
外形線
 48
10.0
100
AcDbLine
 10
1021.881073256668
 20
1072.412932713756
 30
0.0
 11
1034.070088284044
 21
1072.200172665042
 31
0.0
  0
LINE
  5
456F
330
4507
100
AcDbEntity
  8
外形線
 48
10.0
100
AcDbLine
 10
1106.398525663105
 20
1040.711780962577
 30
0.0
 11
1106.398525663105
 21
1031.186780962577
 31
0.0
  0
LINE
  5
4570
330
4507
100
AcDbEntity
  8
外形線
 48
10.0
100
AcDbLine
 10
1106.398525663105
 20
1040.711780962577
 30
0.0
 11
1106.398525663105
 21
1152.686780962578
 31
0.0
  0
LINE
  5
4571
330
4507
100
AcDbEntity
  8
外形線
 48
10.0
100
AcDbLine
 10
1105.398525663105
 20
1030.186780962577
 30
0.0
 11
1071.398525663106
 21
1030.186780962577
 31
0.0
  0
LINE
  5
4572
330
4507
100
AcDbEntity
  8
外形線
 48
10.0
100
AcDbLine
 10
1103.398525663106
 20
1036.95900251561
 30
0.0
 11
1103.398525663105
 21
1036.692885238951
 31
0.0
  0
LINE
  5
4573
330
4507
100
AcDbEntity
  8
外形線
 48
10.0
100
AcDbLine
 10
1106.398525663105
 20
1036.692885238951
 30
0.0
 11
1103.398525663105
 21
1036.692885238951
 31
0.0
  0
ARC
  5
4574
330
4507
100
AcDbEntity
  8
外形線
 48
10.0
100
AcDbCircle
 10
1107.898525663105
 20
1039.211780962577
 30
0.0
 40
1.499999999999659
100
AcDbArc
 50
179.99999999998
 51
289.471220634515
  0
ARC
  5
4575
330
4507
100
AcDbEntity
  8
外形線
 48
10.0
100
AcDbCircle
 10
1098.998525663106
 20
1036.95900251561
 30
0.0
 40
4.4
100
AcDbArc
 50
0.0
 51
88.7
  0
LINE
  5
4576
330
4507
100
AcDbEntity
  8
細線
 48
10.0
100
AcDbLine
 10
1103.398525663105
 20
1152.686780962578
 30
0.0
 11
1103.398525663106
 21
1036.95900251561
 31
0.0
  0
LINE
  5
4577
330
4507
100
AcDbEntity
  8
細線
 48
10.0
100
AcDbLine
 10
1034.837298404406
 20
1072.186780962578
 30
0.0
 11
1034.840933619068
 21
1117.201361012233
 31
0.0
  0
LINE
  5
4578
330
4507
100
AcDbEntity
  8
細線
 48
10.0
100
AcDbLine
 10
1042.201886517784
 20
1144.905639229587
 30
0.0
 11
1042.201886517784
 21
1044.467922695569
 31
0.0
  0
LINE
  5
4579
330
4507
100
AcDbEntity
  8
外形線
 48
10.0
100
AcDbLine
 10
1135.898508800172
 20
1138.913208309413
 30
0.0
 11
1135.896646406194
 21
1101.646260115989
 31
0.0
  0
ARC
  5
457A
330
4507
100
AcDbEntity
  8
細線
 48
10.0
100
AcDbCircle
 10
1135.397834558349
 20
1125.421480922695
 30
0.0
 40
0.5
100
AcDbArc
 50
359.997136676878
 51
74.206830951738
  0
ARC
  5
457B
330
4507
100
AcDbEntity
  8
細線
 48
10.0
100
AcDbCircle
 10
1135.397869895098
 20
1126.128577709141
 30
0.0
 40
0.5
100
AcDbArc
 50
359.997136676878
 51
74.206830951738
  0
LINE
  5
457C
330
4507
100
AcDbEntity
  8
細線
 48
10.0
100
AcDbLine
 10
1135.533917321837
 20
1125.90260614702
 30
0.0
 11
1123.762442899618
 21
1129.232081902426
 31
0.0
  0
LINE
  5
457D
330
4507
100
AcDbEntity
  8
中心線
 48
10.0
100
AcDbLine
 10
1088.398525663106
 20
1052.03299312045
 30
0.0
 11
1088.398525663106
 21
1013.722487401784
 31
0.0
  0
ENDBLK
  5
457E
330
4507
100
AcDbEntity
  8
0
 48
10.0
100
AcDbBlockEnd
  0
BLOCK
  5
578D
330
578C
100
AcDbEntity
  8
0
100
AcDbBlockBegin
  2
*D32
 70
     1
 10
0.0
 20
0.0
 30
0.0
  3
*D32
  1

  0
LINE
  5
578F
330
578C
100
AcDbEntity
  8
寸法線
 62
     0
 48
10.0
100
AcDbLine
 10
322.348618566572
 20
357.010890788046
 30
0.0
 11
322.348618566572
 21
410.010890788046
 31
0.0
  0
INSERT
  5
5790
330
578C
100
AcDbEntity
  8
寸法線
 62
     0
100
AcDbBlockReference
  2
_OPEN30
 10
322.348618566572
 20
351.010890788046
 30
0.0
 41
6.0
 42
6.0
 43
6.0
 50
270.0
  0
INSERT
  5
5791
330
578C
100
AcDbEntity
  8
寸法線
 62
     0
100
AcDbBlockReference
  2
_OPEN30
 10
322.348618566572
 20
416.010890788046
 30
0.0
 41
6.0
 42
6.0
 43
6.0
 50
90.0
  0
MTEXT
  5
5792
330
578C
100
AcDbEntity
  8
寸法線
 62
     0
 48
10.0
100
AcDbMText
 10
317.723618566572
 20
383.510890788046
 30
0.0
 40
8.0
 41
0.0
 71
     5
 72
     1
  1
\A1;φ65
 11
0.0
 21
1.0
 31
0.0
  0
POINT
  5
5793
330
578C
100
AcDbEntity
  8
DEFPOINTS
 62
     0
100
AcDbPoint
 10
332.487086822845
 20
351.010890788046
 30
0.0
  0
POINT
  5
5794
330
578C
100
AcDbEntity
  8
DEFPOINTS
 62
     0
100
AcDbPoint
 10
332.487086822845
 20
416.010890788046
 30
0.0
  0
POINT
  5
5795
330
578C
100
AcDbEntity
  8
DEFPOINTS
 62
     0
100
AcDbPoint
 10
322.348618566572
 20
416.010890788046
 30
0.0
  0
ENDBLK
  5
578E
330
578C
100
AcDbEntity
  8
0
100
AcDbBlockEnd
  0
BLOCK
  5
5797
330
5796
100
AcDbEntity
  8
0
100
AcDbBlockBegin
  2
*D33
 70
     1
 10
0.0
 20
0.0
 30
0.0
  3
*D33
  1

  0
LINE
  5
5799
330
5796
100
AcDbEntity
  8
寸法線
 62
     0
 48
10.0
100
AcDbLine
 10
282.362086822845
 20
407.46194763467
 30
0.0
 11
261.098618566572
 21
407.46194763467
 31
0.0
  0
LINE
  5
579A
330
5796
100
AcDbEntity
  8
寸法線
 62
     0
 48
10.0
100
AcDbLine
 10
282.362086822845
 20
359.46194763467
 30
0.0
 11
261.098618566572
 21
359.46194763467
 31
0.0
  0
LINE
  5
579B
330
5796
100
AcDbEntity
  8
寸法線
 62
     0
 48
10.0
100
AcDbLine
 10
262.348618566572
 20
401.46194763467
 30
0.0
 11
262.348618566572
 21
365.46194763467
 31
0.0
  0
INSERT
  5
579C
330
5796
100
AcDbEntity
  8
寸法線
 62
     0
100
AcDbBlockReference
  2
_OPEN30
 10
262.348618566572
 20
407.46194763467
 30
0.0
 41
6.0
 42
6.0
 43
6.0
 50
90.0
  0
INSERT
  5
579D
330
5796
100
AcDbEntity
  8
寸法線
 62
     0
100
AcDbBlockReference
  2
_OPEN30
 10
262.348618566572
 20
359.46194763467
 30
0.0
 41
6.0
 42
6.0
 43
6.0
 50
270.0
  0
MTEXT
  5
579E
330
5796
100
AcDbEntity
  8
寸法線
 62
     0
 48
10.0
100
AcDbMText
 10
257.715285233238
 20
383.46194763467
 30
0.0
 40
8.0
 41
0.0
 71
     5
 72
     1
  1
\A1;φ48
 11
0.0
 21
1.0
 31
0.0
  0
POINT
  5
579F
330
5796
100
AcDbEntity
  8
DEFPOINTS
 62
     0
100
AcDbPoint
 10
282.987086822845
 20
407.46194763467
 30
0.0
  0
POINT
  5
57A0
330
5796
100
AcDbEntity
  8
DEFPOINTS
 62
     0
100
AcDbPoint
 10
282.987086822845
 20
359.46194763467
 30
0.0
  0
POINT
  5
57A1
330
5796
100
AcDbEntity
  8
DEFPOINTS
 62
     0
100
AcDbPoint
 10
262.348618566572
 20
359.46194763467
 30
0.0
  0
ENDBLK
  5
5798
330
5796
100
AcDbEntity
  8
0
100
AcDbBlockEnd
  0
BLOCK
  5
57A3
330
57A2
100
AcDbEntity
  8
0
100
AcDbBlockBegin
  2
*D34
 70
     1
 10
0.0
 20
0.0
 30
0.0
  3
*D34
  1

  0
LINE
  5
57A5
330
57A2
100
AcDbEntity
  8
寸法線
 62
     0
 48
10.0
100
AcDbLine
 10
284.362086822845
 20
410.96194763467
 30
0.0
 11
246.098618566572
 21
410.96194763467
 31
0.0
  0
LINE
  5
57A6
330
57A2
100
AcDbEntity
  8
寸法線
 62
     0
 48
10.0
100
AcDbLine
 10
284.362086822845
 20
355.96194763467
 30
0.0
 11
246.098618566572
 21
355.96194763467
 31
0.0
  0
LINE
  5
57A7
330
57A2
100
AcDbEntity
  8
寸法線
 62
     0
 48
10.0
100
AcDbLine
 10
247.348618566572
 20
404.96194763467
 30
0.0
 11
247.348618566572
 21
361.96194763467
 31
0.0
  0
INSERT
  5
57A8
330
57A2
100
AcDbEntity
  8
寸法線
 62
     0
100
AcDbBlockReference
  2
_OPEN30
 10
247.348618566572
 20
410.96194763467
 30
0.0
 41
6.0
 42
6.0
 43
6.0
 50
90.0
  0
INSERT
  5
57A9
330
57A2
100
AcDbEntity
  8
寸法線
 62
     0
100
AcDbBlockReference
  2
_OPEN30
 10
247.348618566572
 20
355.96194763467
 30
0.0
 41
6.0
 42
6.0
 43
6.0
 50
270.0
  0
MTEXT
  5
57AA
330
57A2
100
AcDbEntity
  8
寸法線
 62
     0
 48
10.0
100
AcDbMText
 10
242.723618566572
 20
383.46194763467
 30
0.0
 40
8.0
 41
0.0
 71
     5
 72
     1
  1
\A1;φ55
 11
0.0
 21
1.0
 31
0.0
  0
POINT
  5
57AB
330
57A2
100
AcDbEntity
  8
DEFPOINTS
 62
     0
100
AcDbPoint
 10
284.987086822845
 20
410.96194763467
 30
0.0
  0
POINT
  5
57AC
330
57A2
100
AcDbEntity
  8
DEFPOINTS
 62
     0
100
AcDbPoint
 10
284.987086822845
 20
355.96194763467
 30
0.0
  0
POINT
  5
57AD
330
57A2
100
AcDbEntity
  8
DEFPOINTS
 62
     0
100
AcDbPoint
 10
247.348618566572
 20
355.96194763467
 30
0.0
  0
ENDBLK
  5
57A4
330
57A2
100
AcDbEntity
  8
0
100
AcDbBlockEnd
  0
BLOCK
  5
57AF
330
57AE
100
AcDbEntity
  8
0
100
AcDbBlockBegin
  2
*D35
 70
     1
 10
0.0
 20
0.0
 30
0.0
  3
*D35
  1

  0
LINE
  5
57B1
330
57AE
100
AcDbEntity
  8
寸法線
 62
     0
 48
10.0
100
AcDbLine
 10
334.987086822845
 20
305.385890788046
 30
0.0
 11
334.987086822845
 21
285.760890640516
 31
0.0
  0
LINE
  5
57B2
330
57AE
100
AcDbEntity
  8
寸法線
 62
     0
 48
10.0
100
AcDbLine
 10
348.987086822845
 20
305.385890788046
 30
0.0
 11
348.987086822845
 21
285.760890640516
 31
0.0
  0
LINE
  5
57B3
330
57AE
100
AcDbEntity
  8
寸法線
 62
     0
 48
10.0
100
AcDbLine
 10
340.987086822845
 20
287.010890640516
 30
0.0
 11
342.987086822845
 21
287.010890640516
 31
0.0
  0
INSERT
  5
57B4
330
57AE
100
AcDbEntity
  8
寸法線
 62
     0
100
AcDbBlockReference
  2
_OPEN30
 10
334.987086822845
 20
287.010890640516
 30
0.0
 41
6.0
 42
6.0
 43
6.0
 50
180.0
  0
INSERT
  5
57B5
330
57AE
100
AcDbEntity
  8
寸法線
 62
     0
100
AcDbBlockReference
  2
_OPEN30
 10
348.987086822845
 20
287.010890640516
 30
0.0
 41
6.0
 42
6.0
 43
6.0
  0
MTEXT
  5
57B6
330
57AE
100
AcDbEntity
  8
寸法線
 62
     0
 48
10.0
100
AcDbMText
 10
341.987086822845
 20
291.635890640516
 30
0.0
 40
8.0
 41
0.0
 71
     5
 72
     1
  1
\A1;14
  0
POINT
  5
57B7
330
57AE
100
AcDbEntity
  8
DEFPOINTS
 62
     0
100
AcDbPoint
 10
334.987086822845
 20
306.010890788046
 30
0.0
  0
POINT
  5
57B8
330
57AE
100
AcDbEntity
  8
DEFPOINTS
 62
     0
100
AcDbPoint
 10
348.987086822845
 20
306.010890788046
 30
0.0
  0
POINT
  5
57B9
330
57AE
100
AcDbEntity
  8
DEFPOINTS
 62
     0
100
AcDbPoint
 10
348.987086822845
 20
287.010890640516
 30
0.0
  0
ENDBLK
  5
57B0
330
57AE
100
AcDbEntity
  8
0
100
AcDbBlockEnd
  0
BLOCK
  5
57BB
330
57BA
100
AcDbEntity
  8
0
100
AcDbBlockBegin
  2
*D36
 70
     1
 10
0.0
 20
0.0
 30
0.0
  3
*D36
  1

  0
LINE
  5
57BD
330
57BA
100
AcDbEntity
  8
寸法線
 62
     0
 48
10.0
100
AcDbLine
 10
334.987086822845
 20
306.385890788046
 30
0.0
 11
334.987086822845
 21
285.760890640516
 31
0.0
  0
LINE
  5
57BE
330
57BA
100
AcDbEntity
  8
寸法線
 62
     0
 48
10.0
100
AcDbLine
 10
284.987086822845
 20
351.385890788046
 30
0.0
 11
284.987086822845
 21
285.760890640516
 31
0.0
  0
LINE
  5
57BF
330
57BA
100
AcDbEntity
  8
寸法線
 62
     0
 48
10.0
100
AcDbLine
 10
328.987086822845
 20
287.010890640516
 30
0.0
 11
290.987086822845
 21
287.010890640516
 31
0.0
  0
INSERT
  5
57C0
330
57BA
100
AcDbEntity
  8
寸法線
 62
     0
100
AcDbBlockReference
  2
_OPEN30
 10
334.987086822845
 20
287.010890640516
 30
0.0
 41
6.0
 42
6.0
 43
6.0
  0
INSERT
  5
57C1
330
57BA
100
AcDbEntity
  8
寸法線
 62
     0
100
AcDbBlockReference
  2
_OPEN30
 10
284.987086822845
 20
287.010890640516
 30
0.0
 41
6.0
 42
6.0
 43
6.0
 50
180.0
  0
MTEXT
  5
57C2
330
57BA
100
AcDbEntity
  8
寸法線
 62
     0
 48
10.0
100
AcDbMText
 10
309.987086822845
 20
291.635890640516
 30
0.0
 40
8.0
 41
0.0
 71
     5
 72
     1
  1
\A1;50
  0
POINT
  5
57C3
330
57BA
100
AcDbEntity
  8
DEFPOINTS
 62
     0
100
AcDbPoint
 10
334.987086822845
 20
307.010890788046
 30
0.0
  0
POINT
  5
57C4
330
57BA
100
AcDbEntity
  8
DEFPOINTS
 62
     0
100
AcDbPoint
 10
284.987086822845
 20
352.010890788046
 30
0.0
  0
POINT
  5
57C5
330
57BA
100
AcDbEntity
  8
DEFPOINTS
 62
     0
100
AcDbPoint
 10
284.987086822845
 20
287.010890640516
 30
0.0
  0
ENDBLK
  5
57BC
330
57BA
100
AcDbEntity
  8
0
100
AcDbBlockEnd
  0
BLOCK
  5
57C7
330
57C6
100
AcDbEntity
  8
0
100
AcDbBlockBegin
  2
*D37
 70
     1
 10
0.0
 20
0.0
 30
0.0
  3
*D37
  1

  0
LINE
  5
57C9
330
57C6
100
AcDbEntity
  8
寸法線
 62
     0
 48
10.0
100
AcDbLine
 10
279.987086822845
 20
361.83694763467
 30
0.0
 11
279.987086822845
 21
285.760890640516
 31
0.0
  0
LINE
  5
57CA
330
57C6
100
AcDbEntity
  8
寸法線
 62
     0
 48
10.0
100
AcDbLine
 10
284.987086822845
 20
351.385890788046
 30
0.0
 11
284.987086822845
 21
285.760890640516
 31
0.0
  0
LINE
  5
57CB
330
57C6
100
AcDbEntity
  8
寸法線
 62
     0
 48
10.0
100
AcDbLine
 10
279.987086822845
 20
287.010890640516
 30
0.0
 11
284.987086822845
 21
287.010890640516
 31
0.0
  0
LINE
  5
57CC
330
57C6
100
AcDbEntity
  8
寸法線
 62
     0
 48
10.0
100
AcDbLine
 10
273.987086822845
 20
287.010890640516
 30
0.0
 11
267.987086822845
 21
287.010890640516
 31
0.0
  0
LINE
  5
57CD
330
57C6
100
AcDbEntity
  8
寸法線
 62
     0
 48
10.0
100
AcDbLine
 10
290.987086822845
 20
287.010890640516
 30
0.0
 11
296.987086822845
 21
287.010890640516
 31
0.0
  0
INSERT
  5
57CE
330
57C6
100
AcDbEntity
  8
寸法線
 62
     0
100
AcDbBlockReference
  2
_OPEN30
 10
279.987086822845
 20
287.010890640516
 30
0.0
 41
6.0
 42
6.0
 43
6.0
  0
INSERT
  5
57CF
330
57C6
100
AcDbEntity
  8
寸法線
 62
     0
100
AcDbBlockReference
  2
_OPEN30
 10
284.987086822845
 20
287.010890640516
 30
0.0
 41
6.0
 42
6.0
 43
6.0
 50
180.0
  0
MTEXT
  5
57D0
330
57C6
100
AcDbEntity
  8
寸法線
 62
     0
 48
10.0
100
AcDbMText
 10
282.487086822845
 20
291.635890640516
 30
0.0
 40
8.0
 41
0.0
 71
     5
 72
     1
  1
\A1;5
  0
POINT
  5
57D1
330
57C6
100
AcDbEntity
  8
DEFPOINTS
 62
     0
100
AcDbPoint
 10
279.987086822845
 20
362.46194763467
 30
0.0
  0
POINT
  5
57D2
330
57C6
100
AcDbEntity
  8
DEFPOINTS
 62
     0
100
AcDbPoint
 10
284.987086822845
 20
352.010890788046
 30
0.0
  0
POINT
  5
57D3
330
57C6
100
AcDbEntity
  8
DEFPOINTS
 62
     0
100
AcDbPoint
 10
284.987086822845
 20
287.010890640516
 30
0.0
  0
ENDBLK
  5
57C8
330
57C6
100
AcDbEntity
  8
0
100
AcDbBlockEnd
  0
BLOCK
  5
57D5
330
57D4
100
AcDbEntity
  8
0
100
AcDbBlockBegin
  2
*D38
 70
     1
 10
0.0
 20
0.0
 30
0.0
  3
*D38
  1

  0
LINE
  5
57D7
330
57D4
100
AcDbEntity
  8
寸法線
 62
     0
 48
10.0
100
AcDbLine
 10
279.987086822845
 20
361.83694763467
 30
0.0
 11
279.987086822845
 21
265.760890640516
 31
0.0
  0
LINE
  5
57D8
330
57D4
100
AcDbEntity
  8
寸法線
 62
     0
 48
10.0
100
AcDbLine
 10
334.987086822845
 20
306.385890788046
 30
0.0
 11
334.987086822845
 21
265.760890640516
 31
0.0
  0
LINE
  5
57D9
330
57D4
100
AcDbEntity
  8
寸法線
 62
     0
 48
10.0
100
AcDbLine
 10
285.987086822845
 20
267.010890640516
 30
0.0
 11
328.987086822845
 21
267.010890640516
 31
0.0
  0
INSERT
  5
57DA
330
57D4
100
AcDbEntity
  8
寸法線
 62
     0
100
AcDbBlockReference
  2
_OPEN30
 10
279.987086822845
 20
267.010890640516
 30
0.0
 41
6.0
 42
6.0
 43
6.0
 50
180.0
  0
INSERT
  5
57DB
330
57D4
100
AcDbEntity
  8
寸法線
 62
     0
100
AcDbBlockReference
  2
_OPEN30
 10
334.987086822845
 20
267.010890640516
 30
0.0
 41
6.0
 42
6.0
 43
6.0
  0
MTEXT
  5
57DC
330
57D4
100
AcDbEntity
  8
寸法線
 62
     0
 48
10.0
100
AcDbMText
 10
307.487086822845
 20
271.635890640516
 30
0.0
 40
8.0
 41
0.0
 71
     5
 72
     1
  1
\A1;55
  0
POINT
  5
57DD
330
57D4
100
AcDbEntity
  8
DEFPOINTS
 62
     0
100
AcDbPoint
 10
279.987086822845
 20
362.46194763467
 30
0.0
  0
POINT
  5
57DE
330
57D4
100
AcDbEntity
  8
DEFPOINTS
 62
     0
100
AcDbPoint
 10
334.987086822845
 20
307.010890788046
 30
0.0
  0
POINT
  5
57DF
330
57D4
100
AcDbEntity
  8
DEFPOINTS
 62
     0
100
AcDbPoint
 10
334.987086822845
 20
267.010890640516
 30
0.0
  0
ENDBLK
  5
57D6
330
57D4
100
AcDbEntity
  8
0
100
AcDbBlockEnd
  0
BLOCK
  5
57E1
330
57E0
100
AcDbEntity
  8
0
100
AcDbBlockBegin
  2
*D39
 70
     1
 10
0.0
 20
0.0
 30
0.0
  3
*D39
  1

  0
LINE
  5
57E3
330
57E0
100
AcDbEntity
  8
寸法線
 62
     0
 48
10.0
100
AcDbLine
 10
456.204891613274
 20
441.504786511673
 30
0.0
 11
496.804732848498
 21
441.504786511673
 31
0.0
  0
LINE
  5
57E4
330
57E0
100
AcDbEntity
  8
寸法線
 62
     0
 48
10.0
100
AcDbLine
 10
456.107992186176
 20
325.510890788046
 30
0.0
 11
496.804732848498
 21
325.510890788046
 31
0.0
  0
LINE
  5
57E5
330
57E0
100
AcDbEntity
  8
寸法線
 62
     0
 48
10.0
100
AcDbLine
 10
495.554732848498
 20
435.504786511673
 30
0.0
 11
495.554732848498
 21
331.510890788046
 31
0.0
  0
INSERT
  5
57E6
330
57E0
100
AcDbEntity
  8
寸法線
 62
     0
100
AcDbBlockReference
  2
_OPEN30
 10
495.554732848498
 20
441.504786511673
 30
0.0
 41
6.0
 42
6.0
 43
6.0
 50
90.0
  0
INSERT
  5
57E7
330
57E0
100
AcDbEntity
  8
寸法線
 62
     0
100
AcDbBlockReference
  2
_OPEN30
 10
495.554732848498
 20
325.510890788046
 30
0.0
 41
6.0
 42
6.0
 43
6.0
 50
270.0
  0
MTEXT
  5
57E8
330
57E0
100
AcDbEntity
  8
寸法線
 62
     0
 48
10.0
100
AcDbMText
 10
490.929732848498
 20
383.507838649859
 30
0.0
 40
8.0
 41
0.0
 71
     5
 72
     1
  1
\A1;φ116
 11
0.0
 21
1.0
 31
0.0
  0
POINT
  5
57E9
330
57E0
100
AcDbEntity
  8
DEFPOINTS
 62
     0
100
AcDbPoint
 10
455.579891613274
 20
441.504786511673
 30
0.0
  0
POINT
  5
57EA
330
57E0
100
AcDbEntity
  8
DEFPOINTS
 62
     0
100
AcDbPoint
 10
455.482992186176
 20
325.510890788046
 30
0.0
  0
POINT
  5
57EB
330
57E0
100
AcDbEntity
  8
DEFPOINTS
 62
     0
100
AcDbPoint
 10
495.554732848498
 20
325.510890788046
 30
0.0
  0
ENDBLK
  5
57E2
330
57E0
100
AcDbEntity
  8
0
100
AcDbBlockEnd
  0
BLOCK
  5
57ED
330
57EC
100
AcDbEntity
  8
0
100
AcDbBlockBegin
  2
*D40
 70
     1
 10
0.0
 20
0.0
 30
0.0
  3
*D40
  1

  0
LINE
  5
57EF
330
57EC
100
AcDbEntity
  8
寸法線
 62
     0
 48
10.0
100
AcDbLine
 10
348.987086822845
 20
305.385890788046
 30
0.0
 11
348.987086822845
 21
285.760890640516
 31
0.0
  0
LINE
  5
57F0
330
57EC
100
AcDbEntity
  8
寸法線
 62
     0
 48
10.0
100
AcDbLine
 10
436.987086822845
 20
319.385890788046
 30
0.0
 11
436.987086822845
 21
285.760890640516
 31
0.0
  0
LINE
  5
57F1
330
57EC
100
AcDbEntity
  8
寸法線
 62
     0
 48
10.0
100
AcDbLine
 10
354.987086822845
 20
287.010890640516
 30
0.0
 11
430.987086822845
 21
287.010890640516
 31
0.0
  0
INSERT
  5
57F2
330
57EC
100
AcDbEntity
  8
寸法線
 62
     0
100
AcDbBlockReference
  2
_OPEN30
 10
348.987086822845
 20
287.010890640516
 30
0.0
 41
6.0
 42
6.0
 43
6.0
 50
180.0
  0
INSERT
  5
57F3
330
57EC
100
AcDbEntity
  8
寸法線
 62
     0
100
AcDbBlockReference
  2
_OPEN30
 10
436.987086822845
 20
287.010890640516
 30
0.0
 41
6.0
 42
6.0
 43
6.0
  0
MTEXT
  5
57F4
330
57EC
100
AcDbEntity
  8
寸法線
 62
     0
 48
10.0
100
AcDbMText
 10
392.987086822845
 20
291.652557307183
 30
0.0
 40
8.0
 41
0.0
 71
     5
 72
     1
  1
\A1;88
  0
POINT
  5
57F5
330
57EC
100
AcDbEntity
  8
DEFPOINTS
 62
     0
100
AcDbPoint
 10
348.987086822845
 20
306.010890788046
 30
0.0
  0
POINT
  5
57F6
330
57EC
100
AcDbEntity
  8
DEFPOINTS
 62
     0
100
AcDbPoint
 10
436.987086822845
 20
320.010890788046
 30
0.0
  0
POINT
  5
57F7
330
57EC
100
AcDbEntity
  8
DEFPOINTS
 62
     0
100
AcDbPoint
 10
436.987086822845
 20
287.010890640516
 30
0.0
  0
ENDBLK
  5
57EE
330
57EC
100
AcDbEntity
  8
0
100
AcDbBlockEnd
  0
BLOCK
  5
57F9
330
57F8
100
AcDbEntity
  8
0
100
AcDbBlockBegin
  2
*D41
 70
     1
 10
0.0
 20
0.0
 30
0.0
  3
*D41
  1

  0
LINE
  5
57FB
330
57F8
100
AcDbEntity
  8
寸法線
 62
     0
 48
10.0
100
AcDbLine
 10
436.987086822845
 20
319.385890788046
 30
0.0
 11
436.987086822845
 21
285.760890640516
 31
0.0
  0
LINE
  5
57FC
330
57F8
100
AcDbEntity
  8
寸法線
 62
     0
 48
10.0
100
AcDbLine
 10
466.987086822845
 20
338.659445258252
 30
0.0
 11
466.987086822845
 21
285.760890640516
 31
0.0
  0
LINE
  5
57FD
330
57F8
100
AcDbEntity
  8
寸法線
 62
     0
 48
10.0
100
AcDbLine
 10
442.987086822845
 20
287.010890640516
 30
0.0
 11
460.987086822845
 21
287.010890640516
 31
0.0
  0
INSERT
  5
57FE
330
57F8
100
AcDbEntity
  8
寸法線
 62
     0
100
AcDbBlockReference
  2
_OPEN30
 10
436.987086822845
 20
287.010890640516
 30
0.0
 41
6.0
 42
6.0
 43
6.0
 50
180.0
  0
INSERT
  5
57FF
330
57F8
100
AcDbEntity
  8
寸法線
 62
     0
100
AcDbBlockReference
  2
_OPEN30
 10
466.987086822845
 20
287.010890640516
 30
0.0
 41
6.0
 42
6.0
 43
6.0
  0
MTEXT
  5
5800
330
57F8
100
AcDbEntity
  8
寸法線
 62
     0
 48
10.0
100
AcDbMText
 10
451.987086822845
 20
291.640057307183
 30
0.0
 40
8.0
 41
0.0
 71
     5
 72
     1
  1
\A1;30
  0
POINT
  5
5801
330
57F8
100
AcDbEntity
  8
DEFPOINTS
 62
     0
100
AcDbPoint
 10
436.987086822845
 20
320.010890788046
 30
0.0
  0
POINT
  5
5802
330
57F8
100
AcDbEntity
  8
DEFPOINTS
 62
     0
100
AcDbPoint
 10
466.987086822845
 20
339.284445258252
 30
0.0
  0
POINT
  5
5803
330
57F8
100
AcDbEntity
  8
DEFPOINTS
 62
     0
100
AcDbPoint
 10
466.987086822845
 20
287.010890640516
 30
0.0
  0
ENDBLK
  5
57FA
330
57F8
100
AcDbEntity
  8
0
100
AcDbBlockEnd
  0
BLOCK
  5
5805
330
5804
100
AcDbEntity
  8
0
100
AcDbBlockBegin
  2
*D42
 70
     1
 10
0.0
 20
0.0
 30
0.0
  3
*D42
  1

  0
LINE
  5
5807
330
5804
100
AcDbEntity
  8
寸法線
 62
     0
 48
10.0
100
AcDbLine
 10
334.987086822845
 20
306.385890788046
 30
0.0
 11
334.987086822845
 21
265.760890640516
 31
0.0
  0
LINE
  5
5808
330
5804
100
AcDbEntity
  8
寸法線
 62
     0
 48
10.0
100
AcDbLine
 10
466.987086822845
 20
338.659445258252
 30
0.0
 11
466.987086822845
 21
265.760890640516
 31
0.0
  0
LINE
  5
5809
330
5804
100
AcDbEntity
  8
寸法線
 62
     0
 48
10.0
100
AcDbLine
 10
340.987086822845
 20
267.010890640516
 30
0.0
 11
460.987086822845
 21
267.010890640516
 31
0.0
  0
INSERT
  5
580A
330
5804
100
AcDbEntity
  8
寸法線
 62
     0
100
AcDbBlockReference
  2
_OPEN30
 10
334.987086822845
 20
267.010890640516
 30
0.0
 41
6.0
 42
6.0
 43
6.0
 50
180.0
  0
INSERT
  5
580B
330
5804
100
AcDbEntity
  8
寸法線
 62
     0
100
AcDbBlockReference
  2
_OPEN30
 10
466.987086822845
 20
267.010890640516
 30
0.0
 41
6.0
 42
6.0
 43
6.0
  0
MTEXT
  5
580C
330
5804
100
AcDbEntity
  8
寸法線
 62
     0
 48
10.0
100
AcDbMText
 10
400.987086822845
 20
271.64422397385
 30
0.0
 40
8.0
 41
0.0
 71
     5
 72
     1
  1
\A1;132
  0
POINT
  5
580D
330
5804
100
AcDbEntity
  8
DEFPOINTS
 62
     0
100
AcDbPoint
 10
334.987086822845
 20
307.010890788046
 30
0.0
  0
POINT
  5
580E
330
5804
100
AcDbEntity
  8
DEFPOINTS
 62
     0
100
AcDbPoint
 10
466.987086822845
 20
339.284445258252
 30
0.0
  0
POINT
  5
580F
330
5804
100
AcDbEntity
  8
DEFPOINTS
 62
     0
100
AcDbPoint
 10
466.987086822845
 20
267.010890640516
 30
0.0
  0
ENDBLK
  5
5806
330
5804
100
AcDbEntity
  8
0
100
AcDbBlockEnd
  0
ENDSEC
  0
SECTION
  2
ENTITIES
  0
LINE
  5
2E01
330
1A
100
AcDbEntity
  8
下書線
100
AcDbLine
 10
595.16772696789
 20
485.567470788046
 30
0.0
 11
140.237091471007
 21
485.567470788046
 31
0.0
  0
LINE
  5
414E
330
1A
100
AcDbEntity
  8
中心線
 48
10.0
100
AcDbLine
 10
70.389585265117
 20
420.633996800339
 30
0.0
 11
52.711915735453
 21
438.311666330003
 31
0.0
  0
LINE
  5
414F
330
1A
100
AcDbEntity
  8
中心線
 48
10.0
100
AcDbLine
 10
162.313466819368
 20
438.311666330003
 30
0.0
 11
144.635797289704
 21
420.63399680034
 31
0.0
  0
LINE
  5
4150
330
1A
100
AcDbEntity
  8
中心線
 48
10.0
100
AcDbLine
 10
70.389585265117
 20
346.387784775752
 30
0.0
 11
52.711915735453
 21
328.710115246088
 31
0.0
  0
LINE
  5
4151
330
1A
100
AcDbEntity
  8
中心線
 48
10.0
100
AcDbLine
 10
144.635797289704
 20
346.387784775752
 30
0.0
 11
162.313466819368
 21
328.710115246088
 31
0.0
  0
CIRCLE
  5
4153
330
1A
100
AcDbEntity
  8
中心線
 48
10.0
100
AcDbCircle
 10
107.51269127741
 20
383.510890788046
 30
0.0
 40
65.0
  0
CIRCLE
  5
4154
330
1A
100
AcDbEntity
  8
外形線
 48
10.0
100
AcDbCircle
 10
61.550750500285
 20
429.472831565171
 30
0.0
 40
7.50000000000006
  0
CIRCLE
  5
4155
330
1A
100
AcDbEntity
  8
外形線
 48
10.0
100
AcDbCircle
 10
153.474632054536
 20
429.472831565171
 30
0.0
 40
7.49999999999996
  0
CIRCLE
  5
4156
330
1A
100
AcDbEntity
  8
外形線
 48
10.0
100
AcDbCircle
 10
61.550750500285
 20
337.54895001092
 30
0.0
 40
7.500000000000042
  0
CIRCLE
  5
4157
330
1A
100
AcDbEntity
  8
外形線
 48
10.0
100
AcDbCircle
 10
153.474632054536
 20
337.54895001092
 30
0.0
 40
7.499999999999918
  0
MTEXT
  5
4215
330
1A
100
AcDbEntity
  8
寸法線
 48
10.0
100
AcDbMText
 10
49.565199278728
 20
299.833641196699
 30
0.0
 40
8.0
 41
0.0
 71
     9
 72
     1
  1
\A1;4-φ15
  0
CIRCLE
  5
424A
330
1A
100
AcDbEntity
  8
外形線
 48
10.0
100
AcDbCircle
 10
107.512691277411
 20
383.510890788046
 30
0.0
 40
77.5
  0
LINE
  5
424B
330
1A
100
AcDbEntity
  8
中心線
 48
10.0
100
AcDbLine
 10
107.51269127741
 20
471.010890788046
 30
0.0
 11
107.51269127741
 21
296.010890788046
 31
0.0
  0
LINE
  5
424C
330
1A
100
AcDbEntity
  8
中心線
 48
10.0
100
AcDbLine
 10
20.012691277411
 20
383.510890788046
 30
0.0
 11
195.012691277411
 21
383.510890788046
 31
0.0
  0
LWPOLYLINE
  5
4279
102
{ACAD_REACTORS
330
427B
102
}
330
1A
100
AcDbEntity
  8
外形線
 48
10.0
100
AcDbPolyline
 90
        6
 70
     1
 43
0.0
 10
282.987086822845
 20
359.46194763467
 10
284.987086822845
 20
359.46194763467
 10
284.987086822845
 20
407.46194763467
 10
282.987086822845
 20
407.46194763467
 42
0.414213562373
 10
279.987086822845
 20
404.46194763467
 10
279.987086822845
 20
362.46194763467
 42
0.414213562373
  0
LINE
  5
427A
102
{ACAD_REACTORS
330
427B
102
}
330
1A
100
AcDbEntity
  8
細線
 48
10.0
100
AcDbLine
 10
282.987086822845
 20
407.46194763467
 30
0.0
 11
282.987086822845
 21
359.46194763467
 31
0.0
  0
CIRCLE
  5
42FD
330
1A
100
AcDbEntity
  8
細線
 48
10.0
100
AcDbCircle
 10
107.512691277411
 20
383.510890788046
 30
0.0
 40
21.0
  0
CIRCLE
  5
42FE
330
1A
100
AcDbEntity
  8
外形線
 48
10.0
100
AcDbCircle
 10
107.51269127741
 20
383.510890788046
 30
0.0
 40
24.0
  0
CIRCLE
  5
42FF
330
1A
100
AcDbEntity
  8
外形線
 48
10.0
100
AcDbCircle
 10
107.512691277411
 20
383.510890788046
 30
0.0
 40
27.5
  0
CIRCLE
  5
4300
330
1A
100
AcDbEntity
  8
外形線
 48
10.0
100
AcDbCircle
 10
107.512691277411
 20
383.510890788046
 30
0.0
 40
32.5
  0
DIMENSION
  5
4301
330
1A
100
AcDbEntity
  8
寸法線
 48
10.0
100
AcDbDimension
  2
*D13
 10
31.211533702662
 20
369.932107604221
 30
0.0
 11
153.415733600852
 21
396.760891002268
 31
0.0
 70
   163
  3
ISO-25
100
AcDbDiametricDimension
 15
183.81384885216
 25
397.089673971873
 35
0.0
 40
0.0
1001
ACAD
1000
DSTYLE
1002
{
1070
   287
1070
     5
1070
     5
1000
OPEN30
1070
    41
1040
6.0
1070
    47
1040
0.1
1070
    48
1040
0.1
1070
    73
1070
     0
1070
   140
1040
8.0
1070
   271
1070
     1
1070
   272
1070
     1
1070
   279
1070
     2
1070
   288
1070
     1
1070
   341
1005
2AF4
1002
}
  0
DIMENSION
  5
430D
330
1A
100
AcDbEntity
  8
寸法線
 48
10.0
100
AcDbDimension
  2
*D14
 10
49.97736909789
 20
353.267102968087
 30
0.0
 11
146.264775343379
 21
409.466084091731
 31
0.0
 70
   163
  3
ISO-25
100
AcDbDiametricDimension
 15
165.048013456931
 25
413.754678608006
 35
0.0
 40
0.0
1001
ACAD
1000
DSTYLE
1002
{
1070
   287
1070
     5
1070
     5
1000
OPEN30
1070
    41
1040
6.0
1070
    47
1040
0.1
1070
    48
1040
0.1
1070
    73
1070
     0
1070
   140
1040
8.0
1070
   271
1070
     1
1070
   272
1070
     1
1070
   279
1070
     2
1070
   288
1070
     1
1070
   341
1005
2AF4
1002
}
  0
LEADER
  5
4A97
330
1A
100
AcDbEntity
  8
寸法線
 48
10.0
100
AcDbLeader
  3
ISO-25
 76
     3
 10
61.206436335124
 20
330.148527396323
 30
0.0
 10
50.879139210217
 20
299.525361242465
 30
0.0
 10
44.276442342516
 20
299.525361242465
 30
0.0
1001
ACAD
1000
DSTYLE
1002
{
1070
     5
1000
OPEN30
1070
   147
1040
0.625
1070
    77
1070
     0
1070
    41
1040
6.0
1070
    47
1040
0.1
1070
    48
1040
0.1
1070
    73
1070
     0
1070
   140
1040
8.0
1070
   271
1070
     1
1070
   272
1070
     1
1070
   341
1005
2AF4
1070
   342
1005
2AF4
1002
}
  0
LEADER
  5
4A98
330
1A
100
AcDbEntity
  8
寸法線
 48
10.0
100
AcDbLeader
  3
ISO-25
 76
     3
 10
421.943505227832
 20
317.627096296822
 30
0.0
 10
445.32370381072
 20
238.053100770053
 30
0.0
 10
452.137363225901
 20
238.053100770053
 30
0.0
1001
ACAD
1000
DSTYLE
1002
{
1070
     5
1000
OPEN30
1070
   147
1040
0.625
1070
    77
1070
     0
1070
    41
1040
6.0
1070
    47
1040
0.1
1070
    48
1040
0.1
1070
    73
1070
     0
1070
   140
1040
8.0
1070
   271
1070
     1
1070
   272
1070
     1
1070
   341
1005
2AF4
1070
   342
1005
2AF4
1002
}
  0
LINE
  5
4BA5
330
1A
100
AcDbEntity
  8
中心線
 48
10.0
100
AcDbLine
 10
311.303262755718
 20
383.510890788046
 30
0.0
 11
272.853586466037
 21
383.510890788046
 31
0.0
  0
LINE
  5
50BE
330
1A
100
AcDbEntity
  8
下書線
100
AcDbLine
 10
595.16772696789
 20
485.567470788046
 30
0.0
 11
140.237091471007
 21
485.567470788046
 31
0.0
  0
MTEXT
  5
50BF
102
{ACAD_XDICTIONARY
360
50C0
102
}
330
1A
100
AcDbEntity
  8
寸法線
 48
10.0
100
AcDbMText
 10
408.567864291571
 20
486.947408112812
 30
0.0
 40
8.0
 41
0.0
 71
     7
 72
     1
  1
ALUMINUM\PDIE CASTING
1001
ACADANNOTATIVE
1000
AnnotativeData
1002
{
1070
     1
1070
     0
1002
}
  0
MTEXT
  5
50C3
102
{ACAD_XDICTIONARY
360
50C4
102
}
330
1A
100
AcDbEntity
  8
寸法線
 48
10.0
100
AcDbMText
 10
475.540511910779
 20
486.926537949875
 30
0.0
 40
8.0
 41
0.0
 71
     7
 72
     1
  1
O-RING
1001
ACADANNOTATIVE
1000
AnnotativeData
1002
{
1070
     1
1070
     0
1002
}
  0
MTEXT
  5
50C7
102
{ACAD_XDICTIONARY
360
50C8
102
}
330
1A
100
AcDbEntity
  8
寸法線
 48
10.0
100
AcDbMText
 10
516.258728884396
 20
486.926537949875
 30
0.0
 40
8.0
 41
0.0
 71
     7
 72
     1
  1
ALUMINUM\PDIE CASTING
1001
ACADANNOTATIVE
1000
AnnotativeData
1002
{
1070
     1
1070
     0
1002
}
  0
MTEXT
  5
50CB
102
{ACAD_XDICTIONARY
360
50CC
102
}
330
1A
100
AcDbEntity
  8
寸法線
 48
10.0
100
AcDbMText
 10
349.899995776795
 20
486.926537949875
 30
0.0
 40
8.0
 41
0.0
 71
     7
 72
     1
  1
FLANGE\PSUS304
1001
ACADANNOTATIVE
1000
AnnotativeData
1002
{
1070
     1
1070
     0
1002
}
  0
MTEXT
  5
50CF
102
{ACAD_XDICTIONARY
360
50D0
102
}
330
1A
100
AcDbEntity
  8
寸法線
 48
10.0
100
AcDbMText
 10
289.420142492553
 20
486.926537949875
 30
0.0
 40
8.0
 41
0.0
 71
     7
 72
     1
  1
GROUNDING\PELECTRODE\PSUS304
1001
ACADANNOTATIVE
1000
AnnotativeData
1002
{
1070
     1
1070
     0
1002
}
  0
MTEXT
  5
50D3
102
{ACAD_XDICTIONARY
360
50D4
102
}
330
1A
100
AcDbEntity
  8
寸法線
 48
10.0
100
AcDbMText
 10
183.749748817588
 20
486.926537949875
 30
0.0
 40
8.0
 41
0.0
 71
     9
 72
     1
  1
DETECTING\PELECTRODE\A1;\PSUS304
1001
ACADANNOTATIVE
1000
AnnotativeData
1002
{
1070
     1
1070
     0
1002
}
  0
MTEXT
  5
50D7
102
{ACAD_XDICTIONARY
360
50D8
102
}
330
1A
100
AcDbEntity
  8
寸法線
 48
10.0
100
AcDbMText
 10
265.360170617802
 20
486.926537949875
 30
0.0
 40
8.0
 41
0.0
 71
     9
 72
     1
  1
\A1;INSULATOR\PTEFLON
1001
ACADANNOTATIVE
1000
AnnotativeData
1002
{
1070
     1
1070
     0
1002
}
  0
LEADER
  5
50DB
330
1A
100
AcDbEntity
  8
寸法線
 48
10.0
100
AcDbLeader
  3
ISO-25
 76
     3
 10
279.987086822845
 20
397.964102896187
 30
0.0
 10
188.133631646218
 20
485.567470788046
 30
0.0
 10
175.676571636878
 20
485.567470788046
 30
0.0
1001
ACAD
1000
DSTYLE
1002
{
1070
     5
1000
OPEN30
1070
   147
1040
0.625
1070
    77
1070
     0
1070
    41
1040
6.0
1070
    47
1040
0.1
1070
    48
1040
0.1
1070
    73
1070
     0
1070
   140
1040
8.0
1070
   271
1070
     1
1070
   272
1070
     1
1070
   341
1005
2AF4
1070
   342
1005
2AF4
1002
}
  0
LEADER
  5
50DC
330
1A
100
AcDbEntity
  8
寸法線
 48
10.0
100
AcDbLeader
  3
ISO-25
 76
     3
 10
294.403682610197
 20
410.96194763467
 30
0.0
 10
266.931281988004
 20
485.567470788046
 30
0.0
 10
251.633433370576
 20
485.567470788046
 30
0.0
213
0.0
223
0.08184807239661041
233
0.0
1001
ACAD
1000
DSTYLE
1002
{
1070
     5
1000
OPEN30
1070
   147
1040
0.625
1070
    77
1070
     0
1070
    41
1040
6.0
1070
    47
1040
0.1
1070
    48
1040
0.1
1070
    73
1070
     0
1070
   140
1040
8.0
1070
   271
1070
     1
1070
   272
1070
     1
1070
   341
1005
2AF4
1070
   342
1005
2AF4
1002
}
  0
LEADER
  5
50DD
330
1A
100
AcDbEntity
  8
寸法線
 48
10.0
100
AcDbLeader
  3
ISO-25
 76
     3
 10
304.771491014963
 20
416.408870459892
 30
0.0
 10
288.283004462787
 20
485.567470788046
 30
0.0
 10
301.326364748282
 20
485.567470788046
 30
0.0
213
-5.684341886080801E-14
223
0.08184807239661041
233
0.0
1001
ACAD
1000
DSTYLE
1002
{
1070
     5
1000
OPEN30
1070
   147
1040
0.625
1070
    77
1070
     0
1070
    41
1040
6.0
1070
    47
1040
0.1
1070
    48
1040
0.1
1070
    73
1070
     0
1070
   140
1040
8.0
1070
   271
1070
     1
1070
   272
1070
     1
1070
   341
1005
2AF4
1070
   342
1005
2AF4
1002
}
  0
LEADER
  5
50DE
330
1A
100
AcDbEntity
  8
寸法線
 48
10.0
100
AcDbLeader
  3
ISO-25
 76
     3
 10
338.89886399231
 20
460.877029734128
 30
0.0
 10
350.258487214544
 20
485.567470788046
 30
0.0
 10
359.902191534582
 20
485.567470788046
 30
0.0
213
0.0
223
0.01804004879352306
233
0.0
1001
ACAD
1000
DSTYLE
1002
{
1070
     5
1000
OPEN30
1070
   147
1040
0.625
1070
    77
1070
     0
1070
    41
1040
6.0
1070
    47
1040
0.1
1070
    48
1040
0.1
1070
    73
1070
     0
1070
   140
1040
8.0
1070
   271
1070
     1
1070
   272
1070
     1
1070
   341
1005
2AF4
1070
   342
1005
2AF4
1002
}
  0
LEADER
  5
50DF
330
1A
100
AcDbEntity
  8
寸法線
 48
10.0
100
AcDbLeader
  3
ISO-25
 76
     3
 10
395.580197611432
 20
436.301291927121
 30
0.0
 10
410.241542327228
 20
485.567470788046
 30
0.0
 10
419.90713352633
 20
485.567470788046
 30
0.0
1001
ACAD
1000
DSTYLE
1002
{
1070
     5
1000
OPEN30
1070
   147
1040
0.625
1070
    77
1070
     0
1070
    41
1040
6.0
1070
    47
1040
0.1
1070
    48
1040
0.1
1070
    73
1070
     0
1070
   140
1040
8.0
1070
   271
1070
     1
1070
   272
1070
     1
1070
   341
1005
2AF4
1070
   342
1005
2AF4
1002
}
  0
LEADER
  5
50E0
330
1A
100
AcDbEntity
  8
寸法線
 48
10.0
100
AcDbLeader
  3
ISO-25
 76
     3
 10
447.387481246393
 20
440.315151585519
 30
0.0
 10
475.203785004817
 20
485.567470788046
 30
0.0
 10
485.254471326605
 20
485.567470788046
 30
0.0
213
0.0
223
0.02087016293728539
233
0.0
1001
ACAD
1000
DSTYLE
1002
{
1070
     5
1000
OPEN30
1070
   147
1040
0.625
1070
    77
1070
     0
1070
    41
1040
6.0
1070
    47
1040
0.1
1070
    48
1040
0.1
1070
    73
1070
     0
1070
   140
1040
8.0
1070
   271
1070
     1
1070
   272
1070
     1
1070
   341
1005
2AF4
1070
   342
1005
2AF4
1002
}
  0
LEADER
  5
50E1
330
1A
100
AcDbEntity
  8
寸法線
 48
10.0
100
AcDbLeader
  3
ISO-25
 76
     3
 10
463.779560187654
 20
429.909794922725
 30
0.0
 10
515.632687212116
 20
485.567470788046
 30
0.0
 10
526.903904297317
 20
485.567470788046
 30
0.0
213
0.0
223
0.02087016293728539
233
0.0
1001
ACAD
1000
DSTYLE
1002
{
1070
     5
1000
OPEN30
1070
   147
1040
0.625
1070
    77
1070
     0
1070
    41
1040
6.0
1070
    47
1040
0.1
1070
    48
1040
0.1
1070
    73
1070
     0
1070
   140
1040
8.0
1070
   271
1070
     1
1070
   272
1070
     1
1070
   341
1005
2AF4
1070
   342
1005
2AF4
1002
}
  0
TEXT
  5
50E2
330
1A
100
AcDbEntity
  8
寸法線
100
AcDbText
 10
498.489795466924
 20
531.46766332705
 30
0.0
 40
8.0
  1
COLOR：10YR7.5/14
100
AcDbText
  0
MTEXT
  5
5116
102
{ACAD_XDICTIONARY
360
5117
102
}
330
1A
100
AcDbEntity
  8
寸法線
 48
10.0
100
AcDbMText
 10
446.445780442143
 20
238.945484881768
 30
0.0
 40
8.0
 41
0.0
 71
     7
 72
     1
  1
CONDUIT\PG 1/2"
1001
ACADANNOTATIVE
1000
AnnotativeData
1002
{
1070
     1
1070
     0
1002
}
  0
LINE
  5
53C7
330
1A
100
AcDbEntity
  8
寸法線
100
AcDbLine
 10
30.349713938812
 20
242.738233914198
 30
0.0
 11
30.349713938812
 21
233.988233914198
 31
0.0
  0
LINE
  5
53C8
330
1A
100
AcDbEntity
  8
寸法線
100
AcDbLine
 10
5.349713938812
 20
208.988233914198
 30
0.0
 11
5.349713938812
 21
227.738233914198
 31
0.0
  0
LINE
  5
53C9
330
1A
100
AcDbEntity
  8
寸法線
100
AcDbLine
 10
34.099713938812
 20
208.988233914198
 30
0.0
 11
5.349713938812
 21
208.988233914198
 31
0.0
  0
CIRCLE
  5
53CA
330
1A
100
AcDbEntity
  8
寸法線
100
AcDbCircle
 10
90.349713938812
 20
208.988233914198
 30
0.0
 40
3.75
  0
CIRCLE
  5
53CB
330
1A
100
AcDbEntity
  8
寸法線
100
AcDbCircle
 10
90.349713938812
 20
208.988233914198
 30
0.0
 40
2.5
  0
CIRCLE
  5
53CC
330
1A
100
AcDbEntity
  8
寸法線
100
AcDbCircle
 10
65.349713938812
 20
208.988233914198
 30
0.0
 40
2.5
  0
CIRCLE
  5
53CD
330
1A
100
AcDbEntity
  8
寸法線
100
AcDbCircle
 10
65.349713938812
 20
208.988233914198
 30
0.0
 40
3.75
  0
CIRCLE
  5
53CE
330
1A
100
AcDbEntity
  8
寸法線
100
AcDbCircle
 10
40.349713938812
 20
208.988233914198
 30
0.0
 40
2.5
  0
CIRCLE
  5
53CF
330
1A
100
AcDbEntity
  8
寸法線
100
AcDbCircle
 10
40.349713938812
 20
208.988233914198
 30
0.0
 40
3.75
  0
LINE
  5
53D0
330
1A
100
AcDbEntity
  8
寸法線
100
AcDbLine
 10
100.349713938812
 20
233.988233914198
 30
0.0
 11
100.349713938812
 21
242.738233914198
 31
0.0
  0
LINE
  5
53D1
330
1A
100
AcDbEntity
  8
寸法線
100
AcDbLine
 10
100.349713938812
 20
233.988233914198
 30
0.0
 11
30.349713938812
 21
233.988233914198
 31
0.0
  0
LINE
  5
53D2
330
1A
100
AcDbEntity
  8
寸法線
100
AcDbLine
 10
96.599713938812
 20
208.988233914198
 30
0.0
 11
125.349713938812
 21
208.988233914198
 31
0.0
  0
LINE
  5
53D3
330
1A
100
AcDbEntity
  8
寸法線
100
AcDbLine
 10
125.349713938812
 20
208.988233914198
 30
0.0
 11
125.349713938812
 21
227.738233914198
 31
0.0
  0
LINE
  5
53D4
330
1A
100
AcDbEntity
  8
寸法線
100
AcDbLine
 10
90.349713938812
 20
233.988233914198
 30
0.0
 11
90.349713938812
 21
212.738233914198
 31
0.0
  0
LINE
  5
53D5
330
1A
100
AcDbEntity
  8
寸法線
100
AcDbLine
 10
65.349713938812
 20
233.988233914198
 30
0.0
 11
65.349713938812
 21
212.738233914198
 31
0.0
  0
LINE
  5
53D6
330
1A
100
AcDbEntity
  8
寸法線
100
AcDbLine
 10
40.349713938812
 20
233.988233914198
 30
0.0
 11
40.349713938812
 21
212.738233914198
 31
0.0
  0
TEXT
  5
53D7
330
1A
100
AcDbEntity
  8
寸法線
100
AcDbText
 10
34.099713938812
 20
193.050733914198
 30
0.0
 40
8.75
  1
B1
100
AcDbText
  0
TEXT
  5
53D8
330
1A
100
AcDbEntity
  8
寸法線
100
AcDbText
 10
59.099713938812
 20
193.050733914198
 30
0.0
 40
8.75
  1
NO
100
AcDbText
  0
TEXT
  5
53D9
330
1A
100
AcDbEntity
  8
寸法線
100
AcDbText
 10
84.099713938812
 20
193.050733914198
 30
0.0
 40
8.75
  1
B2
100
AcDbText
  0
LINE
  5
53DA
330
1A
100
AcDbEntity
  8
寸法線
100
AcDbLine
 10
90.349713938812
 20
191.488233914198
 30
0.0
 11
90.349713938812
 21
171.488233914198
 31
0.0
  0
LINE
  5
53DB
330
1A
100
AcDbEntity
  8
寸法線
100
AcDbLine
 10
85.349713938812
 20
166.488233914198
 30
0.0
 11
5.349713938812
 21
166.488233914198
 31
0.0
  0
ARC
  5
53DC
330
1A
100
AcDbEntity
  8
寸法線
100
AcDbCircle
 10
85.349713938812
 20
171.488233914198
 30
0.0
 40
5.0
100
AcDbArc
 50
270.0
 51
0.0
  0
ARC
  5
53DD
330
1A
100
AcDbEntity
  8
寸法線
100
AcDbCircle
 10
60.349713938812
 20
171.488233914198
 30
0.0
 40
5.0
100
AcDbArc
 50
270.0
 51
0.0
  0
LINE
  5
53DE
330
1A
100
AcDbEntity
  8
寸法線
100
AcDbLine
 10
65.349713938812
 20
191.488233914198
 30
0.0
 11
65.349713938812
 21
171.488233914198
 31
0.0
  0
ARC
  5
53DF
330
1A
100
AcDbEntity
  8
寸法線
100
AcDbCircle
 10
35.349713938812
 20
171.488233914198
 30
0.0
 40
5.0
100
AcDbArc
 50
270.0
 51
0.0
  0
LINE
  5
53E0
330
1A
100
AcDbEntity
  8
寸法線
100
AcDbLine
 10
40.349713938812
 20
191.488233914198
 30
0.0
 11
40.349713938812
 21
171.488233914198
 31
0.0
  0
MTEXT
  5
53E1
102
{ACAD_XDICTIONARY
360
53E2
102
}
330
1A
100
AcDbEntity
  8
寸法線
 48
10.0
100
AcDbMText
 10
2.312714675188
 20
162.781213050702
 30
0.0
 40
8.0
 41
0.0
 71
     9
 72
     1
  1
CONVERTOR
1001
ACADANNOTATIVE
1000
AnnotativeData
1002
{
1070
     1
1070
     0
1002
}
  0
MTEXT
  5
53E5
102
{ACAD_XDICTIONARY
360
53E6
102
}
330
1A
100
AcDbEntity
  8
寸法線
 48
10.0
100
AcDbMText
 10
-40.320034159064
 20
136.996485806499
 30
0.0
 40
8.0
 41
0.0
 71
     1
 72
     1
  1
INTRINSIC SAFETY TYPE OF EXPLOTION-PROTECTION\PExplotion class and Ignition of explosive gases:ia3nG5
1001
ACADANNOTATIVE
1000
AnnotativeData
1002
{
1070
     1
1070
     0
1002
}
  0
LWPOLYLINE
  5
56F4
330
1A
100
AcDbEntity
  8
外形線
 48
10.0
100
AcDbPolyline
 90
        4
 70
     1
 43
0.0
 10
351.487086822845
 20
406.010890788046
 10
348.987086822845
 20
406.010890788046
 10
348.987086822845
 20
361.010890788046
 10
351.487086822845
 20
361.010890788046
  0
LINE
  5
56F5
330
1A
100
AcDbEntity
  8
中心線
 48
10.0
100
AcDbLine
 10
326.312127623182
 20
383.510890788046
 30
0.0
 11
468.346757790044
 21
383.510890788046
 31
0.0
  0
DIMENSION
  5
56F6
330
1A
100
AcDbEntity
  8
寸法線
 48
10.0
100
AcDbDimension
  2
*D32
 10
322.348618566572
 20
416.010890788046
 30
0.0
 11
317.723618566572
 21
383.510890788046
 31
0.0
 70
    32
  1
φ<>
  3
ISO-25
100
AcDbAlignedDimension
 13
332.487086822845
 23
351.010890788046
 33
0.0
 14
332.487086822845
 24
416.010890788046
 34
0.0
 50
90.0
100
AcDbRotatedDimension
1001
ACAD
1000
DSTYLE
1002
{
1070
     5
1000
OPEN30
1070
    76
1070
     1
1070
    75
1070
     1
1070
    41
1040
6.0
1070
    47
1040
0.1
1070
    48
1040
0.1
1070
    73
1070
     0
1070
   140
1040
8.0
1070
   271
1070
     1
1070
   272
1070
     1
1070
   341
1005
2AF4
1002
}
  0
LINE
  5
56F8
330
1A
100
AcDbEntity
  8
細線
 48
10.0
100
AcDbLine
 10
282.987086822845
 20
407.46194763467
 30
0.0
 11
282.987086822845
 21
359.46194763467
 31
0.0
  0
DIMENSION
  5
56F9
330
1A
100
AcDbEntity
  8
寸法線
 48
10.0
100
AcDbDimension
  2
*D33
 10
262.348618566572
 20
359.46194763467
 30
0.0
 11
257.715285233238
 21
383.46194763467
 31
0.0
 70
    32
  1
φ<>
  3
ISO-25
100
AcDbAlignedDimension
 13
282.987086822845
 23
407.46194763467
 33
0.0
 14
282.987086822845
 24
359.46194763467
 34
0.0
 50
90.0
100
AcDbRotatedDimension
1001
ACAD
1000
DSTYLE
1002
{
1070
     5
1000
OPEN30
1070
    41
1040
6.0
1070
    47
1040
0.1
1070
    48
1040
0.1
1070
    73
1070
     0
1070
   140
1040
8.0
1070
   271
1070
     1
1070
   272
1070
     1
1070
   341
1005
2AF4
1002
}
  0
DIMENSION
  5
56FA
330
1A
100
AcDbEntity
  8
寸法線
 48
10.0
100
AcDbDimension
  2
*D34
 10
247.348618566572
 20
355.96194763467
 30
0.0
 11
242.723618566572
 21
383.46194763467
 31
0.0
 70
    32
  1
φ<>
  3
ISO-25
100
AcDbAlignedDimension
 13
284.987086822845
 23
410.96194763467
 33
0.0
 14
284.987086822845
 24
355.96194763467
 34
0.0
 50
90.0
100
AcDbRotatedDimension
1001
ACAD
1000
DSTYLE
1002
{
1070
     5
1000
OPEN30
1070
    41
1040
6.0
1070
    47
1040
0.1
1070
    48
1040
0.1
1070
    73
1070
     0
1070
   140
1040
8.0
1070
   271
1070
     1
1070
   272
1070
     1
1070
   341
1005
2AF4
1002
}
  0
DIMENSION
  5
56FB
330
1A
100
AcDbEntity
  8
寸法線
 48
10.0
100
AcDbDimension
  2
*D35
 10
348.987086822845
 20
287.010890640516
 30
0.0
 11
341.987086822845
 21
291.635890640516
 31
0.0
 70
    32
  3
ISO-25
100
AcDbAlignedDimension
 13
334.987086822845
 23
306.010890788046
 33
0.0
 14
348.987086822845
 24
306.010890788046
 34
0.0
100
AcDbRotatedDimension
1001
ACAD
1000
DSTYLE
1002
{
1070
     5
1000
OPEN30
1070
    41
1040
6.0
1070
    47
1040
0.1
1070
    48
1040
0.1
1070
    73
1070
     0
1070
   140
1040
8.0
1070
   271
1070
     1
1070
   272
1070
     1
1070
   341
1005
2AF4
1002
}
  0
DIMENSION
  5
56FC
330
1A
100
AcDbEntity
  8
寸法線
 48
10.0
100
AcDbDimension
  2
*D36
 10
284.987086822845
 20
287.010890640516
 30
0.0
 11
309.987086822845
 21
291.635890640516
 31
0.0
 70
    32
  3
ISO-25
100
AcDbAlignedDimension
 13
334.987086822845
 23
307.010890788046
 33
0.0
 14
284.987086822845
 24
352.010890788046
 34
0.0
100
AcDbRotatedDimension
1001
ACAD
1000
DSTYLE
1002
{
1070
     5
1000
OPEN30
1070
    41
1040
6.0
1070
    47
1040
0.1
1070
    48
1040
0.1
1070
    73
1070
     0
1070
   140
1040
8.0
1070
   271
1070
     1
1070
   272
1070
     1
1070
   341
1005
2AF4
1002
}
  0
DIMENSION
  5
56FD
330
1A
100
AcDbEntity
  8
寸法線
 48
10.0
100
AcDbDimension
  2
*D37
 10
284.987086822845
 20
287.010890640516
 30
0.0
 11
282.487086822845
 21
291.635890640516
 31
0.0
 70
    32
  3
ISO-25
100
AcDbAlignedDimension
 13
279.987086822845
 23
362.46194763467
 33
0.0
 14
284.987086822845
 24
352.010890788046
 34
0.0
100
AcDbRotatedDimension
1001
ACAD
1000
DSTYLE
1002
{
1070
     5
1000
OPEN30
1070
    41
1040
6.0
1070
    47
1040
0.1
1070
    48
1040
0.1
1070
    73
1070
     0
1070
   140
1040
8.0
1070
   271
1070
     1
1070
   272
1070
     1
1070
   341
1005
2AF4
1002
}
  0
DIMENSION
  5
56FE
330
1A
100
AcDbEntity
  8
寸法線
 48
10.0
100
AcDbDimension
  2
*D38
 10
334.987086822845
 20
267.010890640516
 30
0.0
 11
307.487086822845
 21
271.635890640516
 31
0.0
 70
    32
  3
ISO-25
100
AcDbAlignedDimension
 13
279.987086822845
 23
362.46194763467
 33
0.0
 14
334.987086822845
 24
307.010890788046
 34
0.0
100
AcDbRotatedDimension
1001
ACAD
1000
DSTYLE
1002
{
1070
     5
1000
OPEN30
1070
    41
1040
6.0
1070
    47
1040
0.1
1070
    48
1040
0.1
1070
    73
1070
     0
1070
   140
1040
8.0
1070
   271
1070
     1
1070
   272
1070
     1
1070
   341
1005
2AF4
1002
}
  0
DIMENSION
  5
56FF
330
1A
100
AcDbEntity
  8
寸法線
 48
10.0
100
AcDbDimension
  2
*D39
 10
495.554732848498
 20
325.510890788046
 30
0.0
 11
490.929732848498
 21
383.507838649859
 31
0.0
 70
    32
  1
φ<>
  3
ISO-25
100
AcDbAlignedDimension
 13
455.579891613274
 23
441.504786511673
 33
0.0
 14
455.482992186176
 24
325.510890788046
 34
0.0
 50
90.0
100
AcDbRotatedDimension
1001
ACAD
1000
DSTYLE
1002
{
1070
     5
1000
OPEN30
1070
    41
1040
6.0
1070
    47
1040
0.1
1070
    48
1040
0.1
1070
    73
1070
     0
1070
   140
1040
8.0
1070
   271
1070
     1
1070
   272
1070
     1
1070
   341
1005
2AF4
1002
}
  0
ARC
  5
5701
330
1A
100
AcDbEntity
  8
外形線
 48
10.0
100
AcDbCircle
 10
352.487086822845
 20
362.236890234381
 30
0.0
 40
1.0
100
AcDbArc
 50
180.0
 51
268.999999999998
  0
ARC
  5
5702
330
1A
100
AcDbEntity
  8
外形線
 48
10.0
100
AcDbCircle
 10
352.487086822845
 20
404.784891341711
 30
0.0
 40
1.0
100
AcDbArc
 50
91.000000000002
 51
180.0
  0
LINE
  5
5703
330
1A
100
AcDbEntity
  8
外形線
 48
10.0
100
AcDbLine
 10
351.487086822845
 20
404.784891341711
 30
0.0
 11
351.487086822845
 21
362.236890234381
 31
0.0
  0
LINE
  5
5704
330
1A
100
AcDbEntity
  8
外形線
 48
10.0
100
AcDbLine
 10
365.614869663914
 20
406.768968892446
 30
0.0
 11
371.867302907982
 21
431.846108935958
 31
0.0
  0
ARC
  5
5705
330
1A
100
AcDbEntity
  8
外形線
 48
10.0
100
AcDbCircle
 10
376.718781539362
 20
430.636499457959
 30
0.0
 40
5.0
100
AcDbArc
 50
91.3
 51
166.000000000005
  0
ARC
  5
5706
330
1A
100
AcDbEntity
  8
外形線
 48
10.0
100
AcDbCircle
 10
364.644573937638
 20
407.010890788046
 30
0.0
 40
1.0
100
AcDbArc
 50
270.0
 51
346.000000000011
  0
ARC
  5
5707
330
1A
100
AcDbEntity
  8
外形線
 48
10.0
100
AcDbCircle
 10
364.644573937638
 20
407.010890788046
 30
0.0
 40
1.0
100
AcDbArc
 50
270.0
 51
346.000000000011
  0
LINE
  5
5708
330
1A
100
AcDbEntity
  8
外形線
 48
10.0
100
AcDbLine
 10
352.469634416408
 20
405.784739036867
 30
0.0
 11
364.644573937638
 21
406.010890788046
 31
0.0
  0
ARC
  5
5709
330
1A
100
AcDbEntity
  8
外形線
 48
10.0
100
AcDbCircle
 10
453.988126052546
 20
440.760339380599
 30
0.0
 40
0.5
100
AcDbArc
 50
359.999254274577
 51
88.999999999998
  0
ARC
  5
570A
330
1A
100
AcDbEntity
  8
細線
 48
10.0
100
AcDbCircle
 10
454.987086822845
 20
396.643932539515
 30
0.0
 40
0.5
100
AcDbArc
 50
180.0
 51
264.089361084595
  0
ARC
  5
570B
330
1A
100
AcDbEntity
  8
外形線
 48
10.0
100
AcDbCircle
 10
454.987086822845
 20
389.269542156488
 30
0.0
 40
0.5
100
AcDbArc
 50
91.000000000002
 51
180.0
  0
ARC
  5
570C
330
1A
100
AcDbEntity
  8
細線
 48
10.0
100
AcDbCircle
 10
454.987086822845
 20
396.902751584617
 30
0.0
 40
0.5
100
AcDbArc
 50
180.0
 51
264.089361084595
  0
ARC
  5
570D
330
1A
100
AcDbEntity
  8
細線
 48
10.0
100
AcDbCircle
 10
454.987086822845
 20
418.537316952219
 30
0.0
 40
0.5
100
AcDbArc
 50
180.0
 51
254.206830951725
  0
ARC
  5
570E
330
1A
100
AcDbEntity
  8
細線
 48
10.0
100
AcDbCircle
 10
454.987086822845
 20
419.244423733405
 30
0.0
 40
0.5
100
AcDbArc
 50
180.0
 51
254.206830951725
  0
ARC
  5
570F
330
1A
100
AcDbEntity
  8
細線
 48
10.0
100
AcDbCircle
 10
454.987086822845
 20
431.184093972474
 30
0.0
 40
0.5
100
AcDbArc
 50
180.0
 51
248.874947125989
  0
ARC
  5
5710
330
1A
100
AcDbEntity
  8
細線
 48
10.0
100
AcDbCircle
 10
454.987086822845
 20
432.150019798764
 30
0.0
 40
0.5
100
AcDbArc
 50
180.0
 51
248.874947125989
  0
ARC
  5
5711
330
1A
100
AcDbEntity
  8
外形線
 48
10.0
100
AcDbCircle
 10
454.986974744925
 20
433.456186241141
 30
0.0
 40
0.5
100
AcDbArc
 50
180.019033969441
 51
248.025023881978
  0
LINE
  5
5712
330
1A
100
AcDbEntity
  8
外形線
 48
10.0
100
AcDbLine
 10
454.487086822845
 20
432.150019798764
 30
0.0
 11
454.487086822845
 21
433.118727870507
 31
0.0
  0
LINE
  5
5713
330
1A
100
AcDbEntity
  8
外形線
 48
10.0
100
AcDbLine
 10
454.487086822845
 20
431.184093972474
 30
0.0
 11
454.487086822845
 21
431.807182102498
 31
0.0
  0
LINE
  5
5714
330
1A
100
AcDbEntity
  8
外形線
 48
10.0
100
AcDbLine
 10
454.487086822845
 20
419.244423733405
 30
0.0
 11
454.487086822845
 21
430.841256276209
 31
0.0
  0
LINE
  5
5715
330
1A
100
AcDbEntity
  8
外形線
 48
10.0
100
AcDbLine
 10
454.487086822845
 20
418.537316952219
 30
0.0
 11
454.487086822845
 21
418.866229847372
 31
0.0
  0
LINE
  5
5716
330
1A
100
AcDbEntity
  8
外形線
 48
10.0
100
AcDbLine
 10
454.487086822845
 20
396.902751584617
 30
0.0
 11
454.487086822845
 21
419.244423733405
 31
0.0
  0
LINE
  5
5717
330
1A
100
AcDbEntity
  8
外形線
 48
10.0
100
AcDbLine
 10
454.487086822845
 20
396.643932539515
 30
0.0
 11
454.487086822845
 21
397.524259023612
 31
0.0
  0
LINE
  5
5718
330
1A
100
AcDbEntity
  8
外形線
 48
10.0
100
AcDbLine
 10
454.487086822845
 20
389.269542156488
 30
0.0
 11
454.487086822845
 21
396.902751584617
 31
0.0
  0
ARC
  5
5719
330
1A
100
AcDbEntity
  8
外形線
 48
10.0
100
AcDbCircle
 10
454.987086822845
 20
377.752239419603
 30
0.0
 40
0.5
100
AcDbArc
 50
180.0
 51
268.999999999998
  0
LINE
  5
571A
330
1A
100
AcDbEntity
  8
外形線
 48
10.0
100
AcDbLine
 10
454.487086822845
 20
377.752239419603
 30
0.0
 11
454.487086822845
 21
389.269542156488
 31
0.0
  0
ARC
  5
571B
330
1A
100
AcDbEntity
  8
外形線
 48
10.0
100
AcDbCircle
 10
466.485207566557
 20
376.551386647426
 30
0.0
 40
0.5
100
AcDbArc
 50
0.002863323122
 51
88.999999999998
  0
ARC
  5
571C
330
1A
100
AcDbEntity
  8
外形線
 48
10.0
100
AcDbCircle
 10
466.485207566557
 20
390.470394928666
 30
0.0
 40
0.5
100
AcDbArc
 50
271.000000000002
 51
359.997136676878
  0
ARC
  5
571D
330
1A
100
AcDbEntity
  8
細線
 48
10.0
100
AcDbCircle
 10
466.486921030965
 20
394.706856440251
 30
0.0
 40
0.5
100
AcDbArc
 50
359.97893674797
 51
84.089361084595
  0
ARC
  5
571E
330
1A
100
AcDbEntity
  8
細線
 48
10.0
100
AcDbCircle
 10
466.485406354754
 20
394.448194205968
 30
0.0
 40
0.5
100
AcDbArc
 50
359.997136676878
 51
84.089361084595
  0
ARC
  5
571F
330
1A
100
AcDbEntity
  8
細線
 48
10.0
100
AcDbCircle
 10
466.486966588095
 20
425.668835903638
 30
0.0
 40
0.5
100
AcDbArc
 50
359.997136676878
 51
68.874947125989
  0
ARC
  5
5720
330
1A
100
AcDbEntity
  8
細線
 48
10.0
100
AcDbCircle
 10
466.487014858742
 20
426.634743079582
 30
0.0
 40
0.5
100
AcDbArc
 50
359.997136676878
 51
68.874947125989
  0
ARC
  5
5721
330
1A
100
AcDbEntity
  8
外形線
 48
10.0
100
AcDbCircle
 10
466.487069960535
 20
427.737343122089
 30
0.0
 40
0.5
100
AcDbArc
 50
359.997136676878
 51
68.025023881978
  0
LINE
  5
5722
330
1A
100
AcDbEntity
  8
外形線
 48
10.0
100
AcDbLine
 10
466.493933769776
 20
389.970471081088
 30
0.0
 11
454.978360619626
 21
389.769466004066
 31
0.0
  0
LINE
  5
5723
330
1A
100
AcDbEntity
  8
外形線
 48
10.0
100
AcDbLine
 10
466.493933769776
 20
377.051310495004
 30
0.0
 11
454.978360619626
 21
377.252315572025
 31
0.0
  0
LINE
  5
5724
330
1A
100
AcDbEntity
  8
外形線
 48
10.0
100
AcDbLine
 10
454.799873939447
 20
432.992512553524
 30
0.0
 11
466.674170766014
 21
428.201016809707
 31
0.0
  0
LINE
  5
5725
330
1A
100
AcDbEntity
  8
細線
 48
10.0
100
AcDbLine
 10
466.536894972511
 20
394.945536062483
 30
0.0
 11
454.935598205087
 21
396.146590683
 31
0.0
  0
LINE
  5
5726
330
1A
100
AcDbEntity
  8
細線
 48
10.0
100
AcDbLine
 10
466.538409648722
 20
395.204198296766
 30
0.0
 11
454.935598205087
 21
396.405409728103
 31
0.0
  0
LINE
  5
5727
330
1A
100
AcDbEntity
  8
細線
 48
10.0
100
AcDbLine
 10
466.622513818324
 20
415.433812758934
 30
0.0
 11
454.851004059356
 21
418.76329850908
 31
0.0
  0
LINE
  5
5728
330
1A
100
AcDbEntity
  8
細線
 48
10.0
100
AcDbLine
 10
466.667168944305
 20
426.135233921233
 30
0.0
 11
454.806884466635
 21
430.717695954879
 31
0.0
  0
LINE
  5
5729
330
1A
100
AcDbEntity
  8
細線
 48
10.0
100
AcDbLine
 10
466.667217214952
 20
427.101141097177
 30
0.0
 11
454.806884466635
 21
431.683621781169
 31
0.0
  0
LINE
  5
572A
330
1A
100
AcDbEntity
  8
外形線
 48
10.0
100
AcDbLine
 10
439.988122726475
 20
441.510890788046
 30
0.0
 11
453.996852255765
 21
441.260263228177
 31
0.0
  0
LINE
  5
572B
330
1A
100
AcDbEntity
  8
外形線
 48
10.0
100
AcDbLine
 10
439.988122726475
 20
441.510890788046
 30
0.0
 11
439.488122726475
 21
441.004786511673
 31
0.0
  0
LINE
  5
572C
330
1A
100
AcDbEntity
  8
外形線
 48
10.0
100
AcDbLine
 10
439.488122726475
 20
440.016995064419
 30
0.0
 11
439.488122726475
 21
439.516995064419
 31
0.0
  0
ARC
  5
572D
330
1A
100
AcDbEntity
  8
外形線
 48
10.0
100
AcDbCircle
 10
429.587086822845
 20
441.238669235013
 30
0.0
 40
4.4
100
AcDbArc
 50
271.299999999998
 51
0.0
  0
LINE
  5
572E
330
1A
100
AcDbEntity
  8
外形線
 48
10.0
100
AcDbLine
 10
376.605344871498
 20
435.635212504573
 30
0.0
 11
429.686911090565
 21
436.839801753993
 31
0.0
  0
LINE
  5
572F
330
1A
100
AcDbEntity
  8
外形線
 48
10.0
100
AcDbLine
 10
433.987086822845
 20
441.510890788046
 30
0.0
 11
433.987086822845
 21
441.238669235013
 31
0.0
  0
LINE
  5
5730
330
1A
100
AcDbEntity
  8
外形線
 48
10.0
100
AcDbLine
 10
436.987086822845
 20
441.510890788046
 30
0.0
 11
433.987086822845
 21
441.510890788046
 31
0.0
  0
ARC
  5
5731
330
1A
100
AcDbEntity
  8
外形線
 48
10.0
100
AcDbCircle
 10
439.100779997295
 20
438.166189317935
 30
0.0
 40
2.267070650822749
100
AcDbArc
 50
80.188974930193
 51
158.803442062948
  0
LINE
  5
5732
330
1A
100
AcDbEntity
  8
細線
 48
10.0
100
AcDbLine
 10
439.988122726475
 20
441.510890788046
 30
0.0
 11
439.988122726475
 21
325.510890788046
 31
0.0
  0
LINE
  5
5733
330
1A
100
AcDbEntity
  8
細線
 48
10.0
100
AcDbLine
 10
439.988122726475
 20
441.504786511673
 30
0.0
 11
439.988122726475
 21
325.516995064419
 31
0.0
  0
LINE
  5
5734
330
1A
100
AcDbEntity
  8
外形線
 48
10.0
100
AcDbLine
 10
454.487086822845
 20
361.780554284342
 30
0.0
 11
454.487086822845
 21
348.484464623873
 31
0.0
  0
ARC
  5
5735
330
1A
100
AcDbEntity
  8
細線
 48
10.0
100
AcDbCircle
 10
454.987086822845
 20
335.837687603617
 30
0.0
 40
0.5
100
AcDbArc
 50
111.125052874011
 51
180.0
  0
ARC
  5
5736
330
1A
100
AcDbEntity
  8
細線
 48
10.0
100
AcDbCircle
 10
454.986628125358
 20
334.871584550228
 30
0.0
 40
0.5
100
AcDbArc
 50
111.125052874011
 51
179.923306313171
  0
ARC
  5
5737
330
1A
100
AcDbEntity
  8
細線
 48
10.0
100
AcDbCircle
 10
454.987086822845
 20
348.484464623873
 30
0.0
 40
0.5
100
AcDbArc
 50
105.793169048275
 51
180.0
  0
ARC
  5
5738
330
1A
100
AcDbEntity
  8
細線
 48
10.0
100
AcDbCircle
 10
454.987086822845
 20
347.777357842686
 30
0.0
 40
0.5
100
AcDbArc
 50
105.793169048275
 51
180.0
  0
ARC
  5
5739
330
1A
100
AcDbEntity
  8
細線
 48
10.0
100
AcDbCircle
 10
454.987086822845
 20
370.119029991474
 30
0.0
 40
0.5
100
AcDbArc
 50
95.910638915405
 51
180.0
  0
ARC
  5
573A
330
1A
100
AcDbEntity
  8
細線
 48
10.0
100
AcDbCircle
 10
454.987086822845
 20
370.377849036576
 30
0.0
 40
0.5
100
AcDbArc
 50
95.910638915405
 51
180.0
  0
LINE
  5
573B
330
1A
100
AcDbEntity
  8
外形線
 48
10.0
100
AcDbLine
 10
454.487086822845
 20
370.119029991474
 30
0.0
 11
454.487086822845
 21
377.752239419603
 31
0.0
  0
LINE
  5
573C
330
1A
100
AcDbEntity
  8
外形線
 48
10.0
100
AcDbLine
 10
454.487086822845
 20
370.569938532921
 30
0.0
 11
454.487086822845
 21
370.828757578023
 31
0.0
  0
LINE
  5
573D
330
1A
100
AcDbEntity
  8
外形線
 48
10.0
100
AcDbLine
 10
454.487086822845
 20
361.780554284342
 30
0.0
 11
454.487086822845
 21
370.119029991474
 31
0.0
  0
LINE
  5
573E
330
1A
100
AcDbEntity
  8
外形線
 48
10.0
100
AcDbLine
 10
454.487086822845
 20
347.777357842686
 30
0.0
 11
454.487086822845
 21
348.484464623873
 31
0.0
  0
LINE
  5
573F
330
1A
100
AcDbEntity
  8
外形線
 48
10.0
100
AcDbLine
 10
454.487086822845
 20
335.837687603617
 30
0.0
 11
454.487086822845
 21
347.777357842686
 31
0.0
  0
LINE
  5
5740
330
1A
100
AcDbEntity
  8
外形線
 48
10.0
100
AcDbLine
 10
454.486628573291
 20
334.872253828703
 30
0.0
 11
454.487086822845
 21
335.837687603617
 31
0.0
  0
LINE
  5
5741
330
1A
100
AcDbEntity
  8
外形線
 48
10.0
100
AcDbLine
 10
454.484878402612
 20
333.564749422521
 30
0.0
 11
454.486628573291
 21
334.872253828703
 31
0.0
  0
ARC
  5
5742
330
1A
100
AcDbEntity
  8
外形線
 48
10.0
100
AcDbCircle
 10
454.984878402612
 20
333.564749422521
 30
0.0
 40
0.5
100
AcDbArc
 50
111.974976118022
 51
180.0
  0
ARC
  5
5743
330
1A
100
AcDbEntity
  8
細線
 48
10.0
100
AcDbCircle
 10
466.487055320996
 20
352.776377391804
 30
0.0
 40
0.5
100
AcDbArc
 50
285.793169048275
 51
0.004772330151
  0
ARC
  5
5744
330
1A
100
AcDbEntity
  8
細線
 48
10.0
100
AcDbCircle
 10
466.487086822845
 20
352.069279520684
 30
0.0
 40
0.5
100
AcDbArc
 50
285.793169048275
 51
0.0
  0
ARC
  5
5745
330
1A
100
AcDbEntity
  8
細線
 48
10.0
100
AcDbCircle
 10
466.487086822845
 20
341.352992127594
 30
0.0
 40
0.5
100
AcDbArc
 50
291.125052874011
 51
0.0
  0
ARC
  5
5746
330
1A
100
AcDbEntity
  8
細線
 48
10.0
100
AcDbCircle
 10
466.487086822845
 20
340.387066301303
 30
0.0
 40
0.5
100
AcDbArc
 50
291.125052874011
 51
0.0
  0
ARC
  5
5747
330
1A
100
AcDbEntity
  8
外形線
 48
10.0
100
AcDbCircle
 10
466.487086822845
 20
339.284445258252
 30
0.0
 40
0.5
100
AcDbArc
 50
291.974976118016
 51
0.0
  0
LINE
  5
5748
330
1A
100
AcDbEntity
  8
外形線
 48
10.0
100
AcDbLine
 10
466.987086822845
 20
340.387066301303
 30
0.0
 11
466.987086822845
 21
339.284445258252
 31
0.0
  0
LINE
  5
5749
330
1A
100
AcDbEntity
  8
外形線
 48
10.0
100
AcDbLine
 10
466.987086822845
 20
341.352992127594
 30
0.0
 11
466.987086822845
 21
340.387066301303
 31
0.0
  0
LINE
  5
574A
330
1A
100
AcDbEntity
  8
外形線
 48
10.0
100
AcDbLine
 10
466.987086822845
 20
352.069279520684
 30
0.0
 11
466.987086822845
 21
341.352992127594
 31
0.0
  0
LINE
  5
574B
330
1A
100
AcDbEntity
  8
外形線
 48
10.0
100
AcDbLine
 10
466.987055319262
 20
352.776419038241
 30
0.0
 11
466.987086822845
 21
352.069279520684
 31
0.0
  0
LINE
  5
574C
330
1A
100
AcDbEntity
  8
外形線
 48
10.0
100
AcDbLine
 10
466.985406354129
 20
372.573612357332
 30
0.0
 11
466.987055319262
 21
352.776419038241
 31
0.0
  0
ARC
  5
574D
330
1A
100
AcDbEntity
  8
細線
 48
10.0
100
AcDbCircle
 10
466.485355380702
 20
372.314763047798
 30
0.0
 40
0.5
100
AcDbArc
 50
275.910638915405
 51
0.001999028164
  0
ARC
  5
574E
330
1A
100
AcDbEntity
  8
細線
 48
10.0
100
AcDbCircle
 10
466.485406354754
 20
372.573587370124
 30
0.0
 40
0.5
100
AcDbArc
 50
275.910638915405
 51
0.002863323122
  0
ARC
  5
574F
330
1A
100
AcDbEntity
  8
外形線
 48
10.0
100
AcDbCircle
 10
453.986047608351
 20
326.261405916114
 30
0.0
 40
0.5
100
AcDbArc
 50
271.000000000002
 51
359.984453673186
  0
LINE
  5
5750
330
1A
100
AcDbEntity
  8
外形線
 48
10.0
100
AcDbLine
 10
466.985207565933
 20
376.551411634634
 30
0.0
 11
466.985355380398
 21
372.31478049261
 31
0.0
  0
LINE
  5
5751
330
1A
100
AcDbEntity
  8
外形線
 48
10.0
100
AcDbLine
 10
454.797777597134
 20
334.028423110139
 30
0.0
 11
466.674187628323
 21
338.820771570634
 31
0.0
  0
LINE
  5
5752
330
1A
100
AcDbEntity
  8
細線
 48
10.0
100
AcDbLine
 10
466.667289179054
 20
340.886594109999
 30
0.0
 11
454.806884466635
 21
336.304085621212
 31
0.0
  0
LINE
  5
5753
330
1A
100
AcDbEntity
  8
細線
 48
10.0
100
AcDbLine
 10
466.667289179054
 20
339.920668283708
 30
0.0
 11
454.806425769148
 21
335.337982567823
 31
0.0
  0
LINE
  5
5754
330
1A
100
AcDbEntity
  8
細線
 48
10.0
100
AcDbLine
 10
466.623169586332
 20
351.588154296359
 30
0.0
 11
454.851004059356
 21
348.258483067011
 31
0.0
  0
LINE
  5
5755
330
1A
100
AcDbEntity
  8
細線
 48
10.0
100
AcDbLine
 10
466.623138084484
 20
352.295252167479
 30
0.0
 11
454.851004059356
 21
348.965589848198
 31
0.0
  0
LINE
  5
5756
330
1A
100
AcDbEntity
  8
細線
 48
10.0
100
AcDbLine
 10
466.536843998459
 20
371.817421191284
 30
0.0
 11
454.935598205087
 21
370.616371847989
 31
0.0
  0
LINE
  5
5757
330
1A
100
AcDbEntity
  8
細線
 48
10.0
100
AcDbLine
 10
466.536894972511
 20
372.076245513609
 30
0.0
 11
454.935598205087
 21
370.875190893091
 31
0.0
  0
LINE
  5
5758
330
1A
100
AcDbEntity
  8
外形線
 48
10.0
100
AcDbLine
 10
454.488031201404
 20
333.571843564639
 30
0.0
 11
454.486047589945
 21
326.261270248821
 31
0.0
  0
LINE
  5
5759
330
1A
100
AcDbEntity
  8
外形線
 48
10.0
100
AcDbLine
 10
454.488126052504
 20
440.760332872917
 30
0.0
 11
454.486047589945
 21
326.261270248821
 31
0.0
  0
LINE
  5
575A
330
1A
100
AcDbEntity
  8
外形線
 48
10.0
100
AcDbLine
 10
439.488122726475
 20
441.004786511673
 30
0.0
 11
439.488122726475
 21
326.016995064419
 31
0.0
  0
LINE
  5
575B
330
1A
100
AcDbEntity
  8
外形線
 48
10.0
100
AcDbLine
 10
439.988122726475
 20
325.510890788046
 30
0.0
 11
453.99477381157
 21
325.761482068536
 31
0.0
  0
LINE
  5
575C
330
1A
100
AcDbEntity
  8
外形線
 48
10.0
100
AcDbLine
 10
439.988122726475
 20
325.510890788046
 30
0.0
 11
439.488122726475
 21
326.016995064419
 31
0.0
  0
LINE
  5
575D
330
1A
100
AcDbEntity
  8
外形線
 48
10.0
100
AcDbLine
 10
439.488122726475
 20
327.016995064419
 30
0.0
 11
439.488122726475
 21
327.516995064419
 31
0.0
  0
LINE
  5
575E
330
1A
100
AcDbEntity
  8
外形線
 48
10.0
100
AcDbLine
 10
365.611492763622
 20
360.266356690954
 30
0.0
 11
371.867302907982
 21
335.175672640134
 31
0.0
  0
ARC
  5
575F
330
1A
100
AcDbEntity
  8
外形線
 48
10.0
100
AcDbCircle
 10
376.718781539362
 20
336.385282118132
 30
0.0
 40
5.0
100
AcDbArc
 50
193.999999999995
 51
268.7
  0
ARC
  5
5760
330
1A
100
AcDbEntity
  8
外形線
 48
10.0
100
AcDbCircle
 10
364.641197037346
 20
360.024434795354
 30
0.0
 40
1.0
100
AcDbArc
 50
13.999999999989
 51
89.000000000011
  0
ARC
  5
5761
330
1A
100
AcDbEntity
  8
外形線
 48
10.0
100
AcDbCircle
 10
399.987086822845
 20
329.855705662386
 30
0.0
 40
1.0
100
AcDbArc
 50
0.0
 51
88.7
  0
ARC
  5
5762
330
1A
100
AcDbEntity
  8
外形線
 48
10.0
100
AcDbCircle
 10
401.987086822845
 20
320.010890788046
 30
0.0
 40
1.0
100
AcDbArc
 50
180.0
 51
270.0
  0
ARC
  5
5763
330
1A
100
AcDbEntity
  8
外形線
 48
10.0
100
AcDbCircle
 10
435.987086822845
 20
320.010890788046
 30
0.0
 40
1.0
100
AcDbArc
 50
270.0
 51
0.0
  0
LINE
  5
5764
330
1A
100
AcDbEntity
  8
外形線
 48
10.0
100
AcDbLine
 10
400.987086822845
 20
320.010890788046
 30
0.0
 11
400.987086822845
 21
329.855705662386
 31
0.0
  0
LINE
  5
5765
330
1A
100
AcDbEntity
  8
外形線
 48
10.0
100
AcDbLine
 10
376.605344871498
 20
331.386569071519
 30
0.0
 11
429.686911090565
 21
330.181979822098
 31
0.0
  0
LINE
  5
5766
330
1A
100
AcDbEntity
  8
外形線
 48
10.0
100
AcDbLine
 10
352.469634416407
 20
361.237042539224
 30
0.0
 11
364.658649443783
 21
361.02428249051
 31
0.0
  0
LINE
  5
5767
330
1A
100
AcDbEntity
  8
外形線
 48
10.0
100
AcDbLine
 10
436.987086822845
 20
329.535890788046
 30
0.0
 11
436.987086822845
 21
320.010890788046
 31
0.0
  0
LINE
  5
5768
330
1A
100
AcDbEntity
  8
外形線
 48
10.0
100
AcDbLine
 10
436.987086822845
 20
329.535890788046
 30
0.0
 11
436.987086822845
 21
441.510890788046
 31
0.0
  0
LINE
  5
5769
330
1A
100
AcDbEntity
  8
外形線
 48
10.0
100
AcDbLine
 10
435.987086822845
 20
319.010890788046
 30
0.0
 11
401.987086822845
 21
319.010890788046
 31
0.0
  0
LINE
  5
576A
330
1A
100
AcDbEntity
  8
外形線
 48
10.0
100
AcDbLine
 10
433.987086822845
 20
325.783112341079
 30
0.0
 11
433.987086822845
 21
325.516995064419
 31
0.0
  0
LINE
  5
576B
330
1A
100
AcDbEntity
  8
外形線
 48
10.0
100
AcDbLine
 10
436.987086822845
 20
325.516995064419
 30
0.0
 11
433.987086822845
 21
325.516995064419
 31
0.0
  0
ARC
  5
576C
330
1A
100
AcDbEntity
  8
外形線
 48
10.0
100
AcDbCircle
 10
439.100779997295
 20
328.855592258156
 30
0.0
 40
2.267070650822456
100
AcDbArc
 50
201.196557937044
 51
279.811025069825
  0
ARC
  5
576D
330
1A
100
AcDbEntity
  8
外形線
 48
10.0
100
AcDbCircle
 10
429.587086822845
 20
325.783112341079
 30
0.0
 40
4.4
100
AcDbArc
 50
0.0
 51
88.700000000001
  0
LINE
  5
576E
330
1A
100
AcDbEntity
  8
細線
 48
10.0
100
AcDbLine
 10
433.987086822845
 20
441.510890788046
 30
0.0
 11
433.987086822845
 21
325.783112341079
 31
0.0
  0
LINE
  5
576F
330
1A
100
AcDbEntity
  8
細線
 48
10.0
100
AcDbLine
 10
365.425859564145
 20
361.010890788046
 30
0.0
 11
365.429494778807
 21
406.025470837701
 31
0.0
  0
LINE
  5
5770
330
1A
100
AcDbEntity
  8
細線
 48
10.0
100
AcDbLine
 10
372.790447677523
 20
433.729749055055
 30
0.0
 11
372.790447677523
 21
333.292032521037
 31
0.0
  0
LINE
  5
5771
330
1A
100
AcDbEntity
  8
外形線
 48
10.0
100
AcDbLine
 10
466.987069959911
 20
427.737318134881
 30
0.0
 11
466.985207565933
 21
390.470369941458
 31
0.0
  0
ARC
  5
5772
330
1A
100
AcDbEntity
  8
細線
 48
10.0
100
AcDbCircle
 10
466.486395718087
 20
414.245590748164
 30
0.0
 40
0.5
100
AcDbArc
 50
359.997136676878
 51
74.206830951725
  0
ARC
  5
5773
330
1A
100
AcDbEntity
  8
細線
 48
10.0
100
AcDbCircle
 10
466.486431054836
 20
414.95268753461
 30
0.0
 40
0.5
100
AcDbArc
 50
359.997136676878
 51
74.206830951725
  0
LINE
  5
5774
330
1A
100
AcDbEntity
  8
細線
 48
10.0
100
AcDbLine
 10
466.622478481575
 20
414.726715972488
 30
0.0
 11
454.851004059356
 21
418.056191727894
 31
0.0
  0
LINE
  5
5775
330
1A
100
AcDbEntity
  8
中心線
 48
10.0
100
AcDbLine
 10
418.987086822845
 20
336.778541185944
 30
0.0
 11
418.987086822845
 21
308.988933184027
 31
0.0
  0
LINE
  5
5776
330
1A
100
AcDbEntity
  8
外形線
 48
10.0
100
AcDbLine
 10
334.987086822845
 20
306.010890788046
 30
0.0
 11
348.987086822845
 21
306.010890788046
 31
0.0
  0
LINE
  5
5777
330
1A
100
AcDbEntity
  8
外形線
 48
10.0
100
AcDbLine
 10
348.987086822845
 20
306.010890788046
 30
0.0
 11
348.987086822845
 21
461.010890788046
 31
0.0
  0
LINE
  5
5778
330
1A
100
AcDbEntity
  8
外形線
 48
10.0
100
AcDbLine
 10
348.987086822845
 20
461.010890788046
 30
0.0
 11
334.987086822844
 21
461.010890788046
 31
0.0
  0
LINE
  5
5779
330
1A
100
AcDbEntity
  8
外形線
 48
10.0
100
AcDbLine
 10
334.987086822844
 20
461.010890788046
 30
0.0
 11
334.987086822845
 21
306.010890788046
 31
0.0
  0
LINE
  5
577A
330
1A
100
AcDbEntity
  8
隠れ線
 48
10.0
100
AcDbLine
 10
284.987086822845
 20
407.46194763467
 30
0.0
 11
304.987086822845
 21
407.46194763467
 31
0.0
  0
LINE
  5
577B
330
1A
100
AcDbEntity
  8
隠れ線
 48
10.0
100
AcDbLine
 10
284.987086822845
 20
410.96194763467
 30
0.0
 11
304.987086822845
 21
410.96194763467
 31
0.0
  0
LINE
  5
577C
330
1A
100
AcDbEntity
  8
隠れ線
 48
10.0
100
AcDbLine
 10
284.987086822845
 20
359.46194763467
 30
0.0
 11
304.987086822845
 21
359.46194763467
 31
0.0
  0
LINE
  5
577D
330
1A
100
AcDbEntity
  8
隠れ線
 48
10.0
100
AcDbLine
 10
284.987086822845
 20
355.96194763467
 30
0.0
 11
304.987086822845
 21
355.96194763467
 31
0.0
  0
LINE
  5
577E
330
1A
100
AcDbEntity
  8
外形線
 48
10.0
100
AcDbLine
 10
284.987086822845
 20
415.010890788046
 30
0.0
 11
284.987086822845
 21
352.010890788046
 31
0.0
  0
LINE
  5
577F
330
1A
100
AcDbEntity
  8
外形線
 48
10.0
100
AcDbLine
 10
285.987086822845
 20
416.010890788046
 30
0.0
 11
284.987086822845
 21
415.010890788046
 31
0.0
  0
LINE
  5
5780
330
1A
100
AcDbEntity
  8
外形線
 48
10.0
100
AcDbLine
 10
284.987086822845
 20
352.010890788046
 30
0.0
 11
285.987086822845
 21
351.010890788046
 31
0.0
  0
LINE
  5
5781
330
1A
100
AcDbEntity
  8
外形線
 48
10.0
100
AcDbLine
 10
348.987086822844
 20
406.010890788046
 30
0.0
 11
348.987086822845
 21
361.010890788046
 31
0.0
  0
LINE
  5
5782
330
1A
100
AcDbEntity
  8
外形線
 48
10.0
100
AcDbLine
 10
332.487086822845
 20
416.010890788046
 30
0.0
 11
285.987086822845
 21
416.010890788046
 31
0.0
  0
LINE
  5
5783
330
1A
100
AcDbEntity
  8
外形線
 48
10.0
100
AcDbLine
 10
285.987086822845
 20
351.010890788046
 30
0.0
 11
332.487086822845
 21
351.010890788046
 31
0.0
  0
LINE
  5
5784
330
1A
100
AcDbEntity
  8
外形線
 48
10.0
100
AcDbLine
 10
332.5540615932
 20
351.010959797655
 30
0.0
 11
335.05920819018
 21
348.516117011499
 31
0.0
  0
LINE
  5
5785
330
1A
100
AcDbEntity
  8
外形線
 48
10.0
100
AcDbLine
 10
332.487086822845
 20
416.010890788046
 30
0.0
 11
334.987086822844
 21
418.510890788046
 31
0.0
  0
LINE
  5
5786
330
1A
100
AcDbEntity
  8
細線
 48
10.0
100
AcDbLine
 10
332.487086822845
 20
351.010890788046
 30
0.0
 11
332.487086822845
 21
416.010890788046
 31
0.0
  0
LINE
  5
5787
330
1A
100
AcDbEntity
  8
中心線
 48
10.0
100
AcDbLine
 10
327.487086822845
 20
318.510890788046
 30
0.0
 11
356.860580451315
 21
318.510890788046
 31
0.0
  0
DIMENSION
  5
5788
330
1A
100
AcDbEntity
  8
寸法線
 48
10.0
100
AcDbDimension
  2
*D40
 10
436.987086822845
 20
287.010890640516
 30
0.0
 11
392.987086822845
 21
291.652557307183
 31
0.0
 70
    32
  3
ISO-25
100
AcDbAlignedDimension
 13
348.987086822845
 23
306.010890788046
 33
0.0
 14
436.987086822845
 24
320.010890788046
 34
0.0
100
AcDbRotatedDimension
1001
ACAD
1000
DSTYLE
1002
{
1070
     5
1000
OPEN30
1070
    41
1040
6.0
1070
   271
1070
     1
1070
   341
1005
2AF4
1070
   272
1070
     1
1070
    73
1070
     0
1070
    48
1040
0.1
1070
    47
1040
0.1
1070
   140
1040
8.0
1002
}
  0
DIMENSION
  5
5789
330
1A
100
AcDbEntity
  8
寸法線
 48
10.0
100
AcDbDimension
  2
*D41
 10
466.987086822845
 20
287.010890640516
 30
0.0
 11
451.987086822845
 21
291.640057307183
 31
0.0
 70
    32
  3
ISO-25
100
AcDbAlignedDimension
 13
436.987086822845
 23
320.010890788046
 33
0.0
 14
466.987086822845
 24
339.284445258252
 34
0.0
100
AcDbRotatedDimension
1001
ACAD
1000
DSTYLE
1002
{
1070
     5
1000
OPEN30
1070
    41
1040
6.0
1070
   271
1070
     1
1070
   341
1005
2AF4
1070
   272
1070
     1
1070
    73
1070
     0
1070
    48
1040
0.1
1070
    47
1040
0.1
1070
   140
1040
8.0
1002
}
  0
DIMENSION
  5
578A
330
1A
100
AcDbEntity
  8
寸法線
 48
10.0
100
AcDbDimension
  2
*D42
 10
466.987086822845
 20
267.010890640516
 30
0.0
 11
400.987086822845
 21
271.64422397385
 31
0.0
 70
    32
  3
ISO-25
100
AcDbAlignedDimension
 13
334.987086822845
 23
307.010890788046
 33
0.0
 14
466.987086822845
 24
339.284445258252
 34
0.0
100
AcDbRotatedDimension
1001
ACAD
1000
DSTYLE
1002
{
1070
     5
1000
OPEN30
1070
    41
1040
6.0
1070
   271
1070
     1
1070
   341
1005
2AF4
1070
   272
1070
     1
1070
    73
1070
     0
1070
    48
1040
0.1
1070
    47
1040
0.1
1070
   140
1040
8.0
1002
}
  0
LINE
  5
578B
330
1A
100
AcDbEntity
  8
中心線
 48
10.0
100
AcDbLine
 10
327.487086822844
 20
448.510890788046
 30
0.0
 11
356.860580451315
 21
448.510890788046
 31
0.0
  0
VIEWPORT
  5
2902
330
28FB
100
AcDbEntity
 67
     1
  8
0
 48
10.0
100
AcDbViewport
 10
0.0
 20
0.0
 30
0.0
 40
553.688825541619
 41
300.3
 68
     1
 69
     1
1001
ACAD
1000
MVIEW
1002
{
1070
    16
1010
0.0
1020
0.0
1030
0.0
1010
0.0
1020
0.0
1030
1.0
1040
0.0
1040
300.3
1040
205.756503333333
1040
143.551503333333
1040
50.0
1040
0.0
1040
0.0
1070
    16
1070
   100
1070
     0
1070
     1
1070
     0
1070
     0
1070
     0
1070
     0
1040
0.0
1040
0.0
1040
0.0
1040
10.0
1040
10.0
1040
10.0
1040
10.0
1070
     0
1002
{
1002
}
1002
}
  0
VIEWPORT
  5
2904
330
28FB
100
AcDbEntity
 67
     1
  8
図枠太線
 48
10.0
100
AcDbViewport
 10
204.746305129083
 20
162.223794478791
 30
0.0
 40
400.0
 41
240.0
 68
     2
 69
     2
1001
ACAD
1000
MVIEW
1002
{
1070
    16
1010
0.0
1020
0.0
1030
0.0
1010
0.0
1020
0.0
1030
1.0
1040
0.0
1040
480.0
1040
295.031770623919
1040
330.870252842983
1040
50.0
1040
0.0
1040
0.0
1070
     0
1070
   100
1070
     0
1070
     0
1070
     0
1070
     0
1070
     0
1070
     0
1040
0.0
1040
0.0
1040
0.0
1040
1.0
1040
1.0
1040
0.0
1040
0.0
1070
     0
1002
{
1002
}
1002
}
  0
INSERT
  5
2A59
330
28FB
100
AcDbEntity
 67
     1
  8
図枠太線
100
AcDbBlockReference
  2
A3横用_タイトル
 10
-0.352109406709
 20
-1.302165274736
 30
0.0
  0
MTEXT
  5
2E85
330
28FB
100
AcDbEntity
 67
     1
  8
寸法線
 48
10.0
100
AcDbMText
 10
149.12611673873
 20
15.082394046073
 30
0.0
 40
5.0
 41
11.452149180996
 71
     1
 72
     5
  1
{\H1.4x;1:2}
  0
MTEXT
  5
4CAD
330
28FB
100
AcDbEntity
 67
     1
  8
下書線
 48
10.0
100
AcDbMText
 10
179.606550234323
 20
88.946134706469
 30
0.0
 40
10.0
 41
175.933723286424
 71
     1
 72
     1
  1
HP用図面、追記・変更　不可
  0
LWPOLYLINE
  5
4CAE
330
28FB
100
AcDbEntity
 67
     1
  8
下書線
 48
10.0
100
AcDbPolyline
 90
        4
 70
     1
 43
0.0
 10
171.557294920565
 20
94.695602787725
 10
343.46639055011
 20
94.695602787725
 10
343.46639055011
 20
73.422570887079
 10
171.557294920565
 20
73.422570887079
  0
MTEXT
  5
4DA2
102
{ACAD_XDICTIONARY
360
4DA3
102
}
330
28FB
100
AcDbEntity
 67
     1
  8
寸法線
 48
10.0
100
AcDbMText
 10
173.844001466027
 20
32.954048540934
 30
0.0
 40
5.0
 41
31.372065131184
 71
     1
 72
     5
  1
takahashi
1001
ACADANNOTATIVE
1000
AnnotativeData
1002
{
1070
     1
1070
     0
1002
}
  0
MTEXT
  5
4F48
102
{ACAD_XDICTIONARY
360
4F49
102
}
330
28FB
100
AcDbEntity
 67
     1
  8
寸法線
 48
10.0
100
AcDbMText
 10
310.214176586136
 20
33.790940920151
 30
0.0
 40
6.0
 41
58.239684951579
 71
     1
 72
     5
  1
TSE-A8XZ
1001
ACADANNOTATIVE
1000
AnnotativeData
1002
{
1070
     1
1070
     0
1002
}
  0
MTEXT
  5
4FAD
102
{ACAD_XDICTIONARY
360
4FAE
102
}
330
28FB
100
AcDbEntity
 67
     1
  8
寸法線
 48
10.0
100
AcDbMText
 10
338.952685188947
 20
16.3210821428
 30
0.0
 40
8.0
 41
33.206594841881
 71
     1
 72
     5
  1
HE-14025
1001
ACADANNOTATIVE
1000
AnnotativeData
1002
{
1070
     1
1070
     0
1002
}
  0
MTEXT
  5
5223
102
{ACAD_XDICTIONARY
360
5224
102
}
330
28FB
100
AcDbEntity
 67
     1
  8
寸法線
 48
10.0
100
AcDbMText
 10
377.920856708546
 20
51.461372945991
 30
0.0
 40
5.0
 41
21.364427237501
 71
     1
 72
     5
  1
Q'ty: 
1001
ACADANNOTATIVE
1000
AnnotativeData
1002
{
1070
     1
1070
     0
1002
}
  0
MTEXT
  5
5227
330
28FB
100
AcDbEntity
 67
     1
  8
寸法線
 48
10.0
100
AcDbMText
 10
355.513675447435
 20
37.056905164635
 30
0.0
 40
4.0
 41
59.837375094616
 71
     1
 72
     5
  1
CAPACITANCE TYPE\PLEVEL SENSOR
  0
MTEXT
  5
522C
330
28FB
100
AcDbEntity
 67
     1
  8
寸法線
 48
10.0
100
AcDbMText
 10
210.548677740965
 20
52.012828153488
 30
0.0
 40
5.0
 41
106.699923235854
 71
     1
 72
     5
  1
a reduced drawing（A3size～）
  0
LINE
  5
522D
330
28FB
100
AcDbEntity
 67
     1
  8
寸法線
 48
10.0
100
AcDbLine
 10
206.834699746824
 20
45.157440572163
 30
0.0
 11
303.487818087333
 21
45.157440572163
 31
0.0
  0
MTEXT
  5
552F
102
{ACAD_XDICTIONARY
360
5530
102
}
330
28FB
100
AcDbEntity
 67
     1
  8
寸法線
 48
10.0
100
AcDbMText
 10
175.484603081977
 20
13.205404593172
 30
0.0
 40
4.0
 41
31.372065131184
 71
     1
 72
     5
  1
Sep,26,2016
1001
ACADANNOTATIVE
1000
AnnotativeData
1002
{
1070
     1
1070
     0
1002
}
  0
ENDSEC
  0
SECTION
  2
OBJECTS
  0
DICTIONARY
  5
C
330
0
100
AcDbDictionary
  3
ACAD_COLOR
350
2948
  3
ACAD_GROUP
350
D
  3
ACAD_LAYOUT
350
2816
  3
ACAD_MATERIAL
350
2947
  3
ACAD_MLEADERSTYLE
350
4B33
  3
ACAD_MLINESTYLE
350
E
  3
ACAD_PLOTSETTINGS
350
2817
  3
ACAD_SCALELIST
350
4B0C
  3
ACAD_VISUALSTYLE
350
4AF3
  3
ACADDIM
350
4166
  3
ACDBHEADERROUNDTRIPXREC
350
58C8
  3
ACDBVARIABLEDICTIONARY
350
4B5F
  3
DWGPROPS
350
58ED
  0
DICTIONARY
  5
58EE
330
8
100
AcDbDictionary
280
     1
  3
ACAD_XREC_ROUNDTRIP
360
58EF
  0
DICTIONARY
  5
29EA
330
2
100
AcDbDictionary
280
     1
  3
ACAD_LAYERFILTERS
360
2B0C
  3
ACAD_LAYERSTATES
360
29EB
  0
DICTIONARY
  5
50C0
330
50BF
100
AcDbDictionary
280
     1
  3
ACDBCONTEXTDATAMANAGER
360
50C1
  0
DICTIONARY
  5
50C4
330
50C3
100
AcDbDictionary
280
     1
  3
ACDBCONTEXTDATAMANAGER
360
50C5
  0
DICTIONARY
  5
50C8
330
50C7
100
AcDbDictionary
280
     1
  3
ACDBCONTEXTDATAMANAGER
360
50C9
  0
DICTIONARY
  5
50CC
330
50CB
100
AcDbDictionary
280
     1
  3
ACDBCONTEXTDATAMANAGER
360
50CD
  0
DICTIONARY
  5
50D0
330
50CF
100
AcDbDictionary
280
     1
  3
ACDBCONTEXTDATAMANAGER
360
50D1
  0
DICTIONARY
  5
50D4
330
50D3
100
AcDbDictionary
280
     1
  3
ACDBCONTEXTDATAMANAGER
360
50D5
  0
DICTIONARY
  5
50D8
330
50D7
100
AcDbDictionary
280
     1
  3
ACDBCONTEXTDATAMANAGER
360
50D9
  0
DICTIONARY
  5
5117
330
5116
100
AcDbDictionary
280
     1
  3
ACDBCONTEXTDATAMANAGER
360
5118
  0
DICTIONARY
  5
53E2
330
53E1
100
AcDbDictionary
280
     1
  3
ACDBCONTEXTDATAMANAGER
360
53E3
  0
DICTIONARY
  5
53E6
330
53E5
100
AcDbDictionary
280
     1
  3
ACDBCONTEXTDATAMANAGER
360
53E7
  0
DICTIONARY
  5
4DA3
330
4DA2
100
AcDbDictionary
280
     1
  3
ACDBCONTEXTDATAMANAGER
360
4DA4
  0
DICTIONARY
  5
4F49
330
4F48
100
AcDbDictionary
280
     1
  3
ACDBCONTEXTDATAMANAGER
360
4F4A
  0
DICTIONARY
  5
4FAE
330
4FAD
100
AcDbDictionary
280
     1
  3
ACDBCONTEXTDATAMANAGER
360
4FAF
  0
DICTIONARY
  5
5224
330
5223
100
AcDbDictionary
280
     1
  3
ACDBCONTEXTDATAMANAGER
360
5225
  0
DICTIONARY
  5
5530
330
552F
100
AcDbDictionary
280
     1
  3
ACDBCONTEXTDATAMANAGER
360
5531
  0
DICTIONARY
  5
2948
102
{ACAD_REACTORS
330
C
102
}
330
C
100
AcDbDictionary
  0
DICTIONARY
  5
D
102
{ACAD_REACTORS
330
C
102
}
330
C
100
AcDbDictionary
  3
*A1
350
427B
  0
DICTIONARY
  5
2816
102
{ACAD_REACTORS
330
C
102
}
330
C
100
AcDbDictionary
  0
DICTIONARY
  5
2947
102
{ACAD_REACTORS
330
C
102
}
330
C
100
AcDbDictionary
  3
BYBLOCK
350
4B2F
  3
BYLAYER
350
4B2E
  3
GLOBAL
350
4B30
  0
DICTIONARY
  5
4B33
102
{ACAD_REACTORS
330
C
102
}
330
C
100
AcDbDictionary
  3
STANDARD
350
4B34
  0
DICTIONARY
  5
E
102
{ACAD_REACTORS
330
C
102
}
330
C
100
AcDbDictionary
  3
STANDARD
350
13
  0
DICTIONARY
  5
2817
102
{ACAD_REACTORS
330
C
102
}
330
C
100
AcDbDictionary
  0
DICTIONARY
  5
4B0C
102
{ACAD_REACTORS
330
C
102
}
330
C
100
AcDbDictionary
  3
A0
350
4B0D
  3
A1
350
4B0E
  3
A2
350
4B0F
  3
A3
350
4B10
  3
A4
350
4B11
  3
A5
350
4B12
  3
A6
350
4B13
  3
A7
350
4B14
  3
A8
350
4B15
  3
A9
350
4B16
  3
B0
350
4B17
  3
B1
350
4B18
  3
B2
350
4B19
  3
B3
350
4B1A
  3
B4
350
4B1B
  3
B5
350
4B1C
  3
B6
350
4B1D
  3
B7
350
4B1E
  3
B8
350
4B1F
  3
B9
350
4B20
  3
C0
350
4B21
  3
C1
350
4B22
  3
C2
350
4B23
  3
C3
350
4B24
  3
C4
350
4B25
  3
C5
350
4B26
  3
C6
350
4B27
  3
C7
350
4B28
  3
C8
350
4B29
  3
C9
350
4B2A
  3
D0
350
4B2B
  3
D1
350
4B2C
  3
D2
350
4B2D
  0
DICTIONARY
  5
4AF3
102
{ACAD_REACTORS
330
C
102
}
330
C
100
AcDbDictionary
  3
2DWIREFRAME
350
4AF8
  3
BASIC
350
4AFB
  3
BRIGHTEN
350
4AFF
  3
COLORCHANGE
350
4B03
  3
CONCEPTUAL
350
4AFD
  3
DIM
350
4AFE
  3
EDGECOLOROFF
350
4B06
  3
FACEPATTERN
350
4B02
  3
FLAT
350
4AF4
  3
FLATWITHEDGES
350
4AF5
  3
GOURAUD
350
4AF6
  3
GOURAUDWITHEDGES
350
4AF7
  3
HIDDEN
350
4AFA
  3
JITTEROFF
350
4B04
  3
LINEPATTERN
350
4B01
  3
MODELING
350
4D09
  3
OVERHANGOFF
350
4B05
  3
REALISTIC
350
4AFC
  3
SHADED
350
4B0B
  3
SHADED_WITH_EDGES
350
4B0A
  3
SHADES_OF_GRAY
350
4B07
  3
SKETCHY
350
4B08
  3
THICKEN
350
4B00
  3
WIREFRAME
350
4AF9
  3
X-RAY
350
4B09
  0
XRECORD
  5
4166
102
{ACAD_REACTORS
330
C
102
}
330
C
100
AcDbXrecord
 90
   990106
  3

 60
     0
 61
     0
 62
     4
 63
     4
 64
     0
 65
     0
 66
     0
 67
     3
 68
     1
 69
     0
 70
     0
 71
     0
 72
     0
 40
0.0
170
     2
340
0
  0
DICTIONARY
  5
58C8
102
{ACAD_REACTORS
330
C
102
}
330
C
100
AcDbDictionary
  3
CEPSNID
350
58D2
  3
CEPSNTYPE
350
58D1
  3
COLORDICT
350
58EB
  3
DIMSTYLEDATA
350
58E8
  3
FINGERPRINTGUID
350
58D3
  3
HYPERLINKBASE
350
58CB
  3
INSUNITS
350
58D0
  3
LAYOUTDICT
350
58CD
  3
LWETCUNION
350
58CF
  3
MATERIALDICT
350
58EC
  3
PLOTSETDICT
350
58CE
  3
PSVPSCALE
350
58D5
  3
PUCSBASE
350
58D8
  3
PUCSORGBACK
350
58DE
  3
PUCSORGBOTTOM
350
58DA
  3
PUCSORGFRONT
350
58DD
  3
PUCSORGLEFT
350
58DB
  3
PUCSORGRIGHT
350
58DC
  3
PUCSORGTOP
350
58D9
  3
PUCSORTHOREF
350
58D6
  3
PUCSORTHOVIEW
350
58D7
  3
STYLESHEET
350
58CC
  3
TSTACKALIGN
350
58C9
  3
TSTACKSIZE
350
58CA
  3
UCSBASE
350
58E1
  3
UCSORGBACK
350
58E7
  3
UCSORGBOTTOM
350
58E3
  3
UCSORGFRONT
350
58E6
  3
UCSORGLEFT
350
58E4
  3
UCSORGRIGHT
350
58E5
  3
UCSORGTOP
350
58E2
  3
UCSORTHOREF
350
58DF
  3
UCSORTHOVIEW
350
58E0
  3
VERSIONGUID
350
58D4
  0
DICTIONARY
  5
4B5F
102
{ACAD_REACTORS
330
C
102
}
330
C
100
AcDbDictionary
  3
CANNOSCALE
350
4B60
  3
CMLEADERSTYLE
350
4B9F
  3
CTABLESTYLE
350
4B9E
  3
DIMASSOC
350
58E9
  3
HIDETEXT
350
58EA
  3
MSLTSCALE
350
4BA0
  3
XCLIPFRAME
350
4BA1
  0
XRECORD
  5
58ED
102
{ACAD_REACTORS
330
C
102
}
330
C
100
AcDbXrecord
  1
DWGPROPS COOKIE
  2

  3

  4

  6

  7

  8
takahashi
  9

300
=
301
=
302
=
303
=
304
=
305
=
306
=
307
=
308
=
309
=
 40
0.0
 41
2450576.222302431
 42
2457661.240450579
  1

 90
        0
  0
XRECORD
  5
58EF
102
{ACAD_REACTORS
330
58EE
102
}
330
58EE
100
AcDbXrecord
102
VTR_0.000_0.000_1.000_1.000_VISUALSTYLE
340
4AF8
102
VTR_0.000_0.000_1.000_1.000_GRIDDISPLAY
 70
     3
102
VTR_0.000_0.000_1.000_1.000_GRIDMAJOR
 70
     5
102
VTR_0.000_0.000_1.000_1.000_DEFAULTLIGHTING
280
     1
102
VTR_0.000_0.000_1.000_1.000_DEFAULTLIGHTINGTYPE
 70
     1
102
VTR_0.000_0.000_1.000_1.000_BRIGHTNESS
141
0.0
102
VTR_0.000_0.000_1.000_1.000_CONTRAST
142
0.0
  0
DICTIONARY
  5
2B0C
102
{ACAD_REACTORS
330
29EA
102
}
330
29EA
100
AcDbDictionary
  0
DICTIONARY
  5
29EB
102
{ACAD_REACTORS
330
29EA
102
}
330
29EA
100
AcDbDictionary
  0
DICTIONARY
  5
50C1
102
{ACAD_REACTORS
330
50C0
102
}
330
50C0
100
AcDbDictionary
  3
ACDB_ANNOTATIONSCALES
350
50C2
  0
DICTIONARY
  5
50C5
102
{ACAD_REACTORS
330
50C4
102
}
330
50C4
100
AcDbDictionary
  3
ACDB_ANNOTATIONSCALES
350
50C6
  0
DICTIONARY
  5
50C9
102
{ACAD_REACTORS
330
50C8
102
}
330
50C8
100
AcDbDictionary
  3
ACDB_ANNOTATIONSCALES
350
50CA
  0
DICTIONARY
  5
50CD
102
{ACAD_REACTORS
330
50CC
102
}
330
50CC
100
AcDbDictionary
  3
ACDB_ANNOTATIONSCALES
350
50CE
  0
DICTIONARY
  5
50D1
102
{ACAD_REACTORS
330
50D0
102
}
330
50D0
100
AcDbDictionary
  3
ACDB_ANNOTATIONSCALES
350
50D2
  0
DICTIONARY
  5
50D5
102
{ACAD_REACTORS
330
50D4
102
}
330
50D4
100
AcDbDictionary
  3
ACDB_ANNOTATIONSCALES
350
50D6
  0
DICTIONARY
  5
50D9
102
{ACAD_REACTORS
330
50D8
102
}
330
50D8
100
AcDbDictionary
  3
ACDB_ANNOTATIONSCALES
350
50DA
  0
DICTIONARY
  5
5118
102
{ACAD_REACTORS
330
5117
102
}
330
5117
100
AcDbDictionary
  3
ACDB_ANNOTATIONSCALES
350
5119
  0
DICTIONARY
  5
53E3
102
{ACAD_REACTORS
330
53E2
102
}
330
53E2
100
AcDbDictionary
  3
ACDB_ANNOTATIONSCALES
350
53E4
  0
DICTIONARY
  5
53E7
102
{ACAD_REACTORS
330
53E6
102
}
330
53E6
100
AcDbDictionary
  3
ACDB_ANNOTATIONSCALES
350
53E8
  0
DICTIONARY
  5
4DA4
102
{ACAD_REACTORS
330
4DA3
102
}
330
4DA3
100
AcDbDictionary
  3
ACDB_ANNOTATIONSCALES
350
4DA5
  0
DICTIONARY
  5
4F4A
102
{ACAD_REACTORS
330
4F49
102
}
330
4F49
100
AcDbDictionary
  3
ACDB_ANNOTATIONSCALES
350
4F4B
  0
DICTIONARY
  5
4FAF
102
{ACAD_REACTORS
330
4FAE
102
}
330
4FAE
100
AcDbDictionary
  3
ACDB_ANNOTATIONSCALES
350
4FB0
  0
DICTIONARY
  5
5225
102
{ACAD_REACTORS
330
5224
102
}
330
5224
100
AcDbDictionary
  3
ACDB_ANNOTATIONSCALES
350
5226
  0
DICTIONARY
  5
5531
102
{ACAD_REACTORS
330
5530
102
}
330
5530
100
AcDbDictionary
  3
ACDB_ANNOTATIONSCALES
350
5532
  0
GROUP
  5
427B
102
{ACAD_REACTORS
330
D
102
}
330
D
100
AcDbGroup
300

 70
     1
 71
     1
340
4279
340
427A
  0
MATERIAL
  5
4B2F
102
{ACAD_REACTORS
330
2947
102
}
102
{ACAD_XDICTIONARY
360
58F2
102
}
330
2947
100
AcDbMaterial
  1
BYBLOCK
  0
MATERIAL
  5
4B2E
102
{ACAD_REACTORS
330
2947
102
}
102
{ACAD_XDICTIONARY
360
58F0
102
}
330
2947
100
AcDbMaterial
  1
BYLAYER
  0
MATERIAL
  5
4B30
102
{ACAD_REACTORS
330
2947
102
}
102
{ACAD_XDICTIONARY
360
58F4
102
}
330
2947
100
AcDbMaterial
  1
GLOBAL
  0
ACAD_PROXY_OBJECT
  5
4B34
102
{ACAD_REACTORS
330
4B33
102
}
330
4B33
100
AcDbProxyObject
 90
      499
 91
      508
 93
      610
310
40901902A4063FBFFFFFE0000000000000020400000000000020404214DD185B99185C990000000000000104090141901A00000000000004100000000000000041025764000000000000039000
340
14
340
0
340
10
340
0
 94
        0
1001
ACAD_MLEADERVER
1070
     2
  0
MLINESTYLE
  5
13
102
{ACAD_REACTORS
330
E
102
}
330
E
100
AcDbMlineStyle
  2
STANDARD
 70
     0
  3

 62
     0
 51
90.0
 52
90.0
 71
     2
 49
0.5
 62
   256
  6
BYLAYER
 49
-0.5
 62
   256
  6
BYLAYER
  0
ACAD_PROXY_OBJECT
  5
4B0D
102
{ACAD_REACTORS
330
4B0C
102
}
330
4B0C
100
AcDbProxyObject
 90
      499
 91
      505
 93
       41
310
903313A31580
  0
ACAD_PROXY_OBJECT
  5
4B0E
102
{ACAD_REACTORS
330
4B0C
102
}
330
4B0C
100
AcDbProxyObject
 90
      499
 91
      505
 93
      105
310
903313A324000000000000004000
  0
ACAD_PROXY_OBJECT
  5
4B0F
102
{ACAD_REACTORS
330
4B0C
102
}
330
4B0C
100
AcDbProxyObject
 90
      499
 91
      505
 93
      105
310
903313A344000000000000104000
  0
ACAD_PROXY_OBJECT
  5
4B10
102
{ACAD_REACTORS
330
4B0C
102
}
330
4B0C
100
AcDbProxyObject
 90
      499
 91
      505
 93
      105
310
903313A354000000000000144000
  0
ACAD_PROXY_OBJECT
  5
4B11
102
{ACAD_REACTORS
330
4B0C
102
}
330
4B0C
100
AcDbProxyObject
 90
      499
 91
      505
 93
      105
310
903313A384000000000000204000
  0
ACAD_PROXY_OBJECT
  5
4B12
102
{ACAD_REACTORS
330
4B0C
102
}
330
4B0C
100
AcDbProxyObject
 90
      499
 91
      505
 93
      113
310
904313A31304000000000000244000
  0
ACAD_PROXY_OBJECT
  5
4B13
102
{ACAD_REACTORS
330
4B0C
102
}
330
4B0C
100
AcDbProxyObject
 90
      499
 91
      505
 93
      113
310
904313A31364000000000000304000
  0
ACAD_PROXY_OBJECT
  5
4B14
102
{ACAD_REACTORS
330
4B0C
102
}
330
4B0C
100
AcDbProxyObject
 90
      499
 91
      505
 93
      113
310
904313A32304000000000000344000
  0
ACAD_PROXY_OBJECT
  5
4B15
102
{ACAD_REACTORS
330
4B0C
102
}
330
4B0C
100
AcDbProxyObject
 90
      499
 91
      505
 93
      113
310
904313A333040000000000003E4000
  0
ACAD_PROXY_OBJECT
  5
4B16
102
{ACAD_REACTORS
330
4B0C
102
}
330
4B0C
100
AcDbProxyObject
 90
      499
 91
      505
 93
      113
310
904313A34304000000000000444000
  0
ACAD_PROXY_OBJECT
  5
4B17
102
{ACAD_REACTORS
330
4B0C
102
}
330
4B0C
100
AcDbProxyObject
 90
      499
 91
      505
 93
      113
310
904313A35304000000000000494000
  0
ACAD_PROXY_OBJECT
  5
4B18
102
{ACAD_REACTORS
330
4B0C
102
}
330
4B0C
100
AcDbProxyObject
 90
      499
 91
      505
 93
      121
310
905313A3130304000000000000594000
  0
ACAD_PROXY_OBJECT
  5
4B19
102
{ACAD_REACTORS
330
4B0C
102
}
330
4B0C
100
AcDbProxyObject
 90
      499
 91
      505
 93
      105
310
903323A310000000000000010100
  0
ACAD_PROXY_OBJECT
  5
4B1A
102
{ACAD_REACTORS
330
4B0C
102
}
330
4B0C
100
AcDbProxyObject
 90
      499
 91
      505
 93
      105
310
903343A310000000000000410100
  0
ACAD_PROXY_OBJECT
  5
4B1B
102
{ACAD_REACTORS
330
4B0C
102
}
330
4B0C
100
AcDbProxyObject
 90
      499
 91
      505
 93
      105
310
903383A310000000000000810100
  0
ACAD_PROXY_OBJECT
  5
4B1C
102
{ACAD_REACTORS
330
4B0C
102
}
330
4B0C
100
AcDbProxyObject
 90
      499
 91
      505
 93
      113
310
90431303A310000000000000910100
  0
ACAD_PROXY_OBJECT
  5
4B1D
102
{ACAD_REACTORS
330
4B0C
102
}
330
4B0C
100
AcDbProxyObject
 90
      499
 91
      505
 93
      121
310
9053130303A310000000000001650100
  0
ACAD_PROXY_OBJECT
  5
4B1E
102
{ACAD_REACTORS
330
4B0C
102
}
330
4B0C
100
AcDbProxyObject
 90
      499
 91
      505
 93
      257
310
90E312F31323822203D2031272D3022000000000000200FC000000000000284000
  0
ACAD_PROXY_OBJECT
  5
4B1F
102
{ACAD_REACTORS
330
4B0C
102
}
330
4B0C
100
AcDbProxyObject
 90
      499
 91
      505
 93
      249
310
90D312F363422203D2031272D3022000000000000240FC000000000000284000
  0
ACAD_PROXY_OBJECT
  5
4B20
102
{ACAD_REACTORS
330
4B0C
102
}
330
4B0C
100
AcDbProxyObject
 90
      499
 91
      505
 93
      249
310
90D312F333222203D2031272D3022000000000000280FC000000000000284000
  0
ACAD_PROXY_OBJECT
  5
4B21
102
{ACAD_REACTORS
330
4B0C
102
}
330
4B0C
100
AcDbProxyObject
 90
      499
 91
      505
 93
      249
310
90D312F313622203D2031272D30220000000000002C0FC000000000000284000
  0
ACAD_PROXY_OBJECT
  5
4B22
102
{ACAD_REACTORS
330
4B0C
102
}
330
4B0C
100
AcDbProxyObject
 90
      499
 91
      505
 93
      249
310
90D332F333222203D2031272D30220000000000002E0FC000000000000284000
  0
ACAD_PROXY_OBJECT
  5
4B23
102
{ACAD_REACTORS
330
4B0C
102
}
330
4B0C
100
AcDbProxyObject
 90
      499
 91
      505
 93
      241
310
90C312F3822203D2031272D3022000000000000300FC000000000000284000
  0
ACAD_PROXY_OBJECT
  5
4B24
102
{ACAD_REACTORS
330
4B0C
102
}
330
4B0C
100
AcDbProxyObject
 90
      499
 91
      505
 93
      249
310
90D332F313622203D2031272D3022000000000000320FC000000000000284000
  0
ACAD_PROXY_OBJECT
  5
4B25
102
{ACAD_REACTORS
330
4B0C
102
}
330
4B0C
100
AcDbProxyObject
 90
      499
 91
      505
 93
      241
310
90C312F3422203D2031272D3022000000000000340FC000000000000284000
  0
ACAD_PROXY_OBJECT
  5
4B26
102
{ACAD_REACTORS
330
4B0C
102
}
330
4B0C
100
AcDbProxyObject
 90
      499
 91
      505
 93
      241
310
90C332F3822203D2031272D3022000000000000360FC000000000000284000
  0
ACAD_PROXY_OBJECT
  5
4B27
102
{ACAD_REACTORS
330
4B0C
102
}
330
4B0C
100
AcDbProxyObject
 90
      499
 91
      505
 93
      241
310
90C312F3222203D2031272D3022000000000000380FC000000000000284000
  0
ACAD_PROXY_OBJECT
  5
4B28
102
{ACAD_REACTORS
330
4B0C
102
}
330
4B0C
100
AcDbProxyObject
 90
      499
 91
      505
 93
      241
310
90C332F3422203D2031272D30220000000000003A0FC000000000000284000
  0
ACAD_PROXY_OBJECT
  5
4B29
102
{ACAD_REACTORS
330
4B0C
102
}
330
4B0C
100
AcDbProxyObject
 90
      499
 91
      505
 93
      161
310
90A3122203D2031272D30224000000000000284000
  0
ACAD_PROXY_OBJECT
  5
4B2A
102
{ACAD_REACTORS
330
4B0C
102
}
330
4B0C
100
AcDbProxyObject
 90
      499
 91
      505
 93
      257
310
90E312D312F3222203D2031272D30220000000000003E0FC000000000000284000
  0
ACAD_PROXY_OBJECT
  5
4B2B
102
{ACAD_REACTORS
330
4B0C
102
}
330
4B0C
100
AcDbProxyObject
 90
      499
 91
      505
 93
      225
310
90A3322203D2031272D302200000000000002100000000000000284000
  0
ACAD_PROXY_OBJECT
  5
4B2C
102
{ACAD_REACTORS
330
4B0C
102
}
330
4B0C
100
AcDbProxyObject
 90
      499
 91
      505
 93
      225
310
90A3622203D2031272D302200000000000006100000000000000284000
  0
ACAD_PROXY_OBJECT
  5
4B2D
102
{ACAD_REACTORS
330
4B0C
102
}
330
4B0C
100
AcDbProxyObject
 90
      499
 91
      505
 93
      249
310
90D31272D3022203D2031272D30220000000000000A100000000000000284000
  0
ACAD_PROXY_OBJECT
  5
4AF8
102
{ACAD_REACTORS
330
4AF3
102
}
330
4AF3
100
AcDbProxyObject
 90
      499
 91
      504
 93
      436
310
42CC9915DA5C99599C985B595049028333333333333E33F0000000000000F90107901411070040501600405405064090741402480A0340
1001
ACAD
1000
AcDbSavedByObjectVersion
1070
     0
  0
ACAD_PROXY_OBJECT
  5
4AFB
102
{ACAD_REACTORS
330
4AF3
102
}
330
4AF3
100
AcDbProxyObject
 90
      499
 91
      504
 93
      388
310
4150985CDA58D07406404333333333333E33F0000000000000F90107A41107004050150841D405064090741402480A0350
1001
ACAD
1000
AcDbSavedByObjectVersion
1070
     0
  0
ACAD_PROXY_OBJECT
  5
4AFF
102
{ACAD_REACTORS
330
4AF3
102
}
330
4AF3
100
AcDbProxyObject
 90
      499
 91
      504
 93
      428
310
42109C9A59DA1D195B90C409028333333333333E33F0000000000000F9010790141107004050150841D405064090741402480A029950
1001
ACAD
1000
AcDbSavedByObjectVersion
1070
     0
  0
ACAD_PROXY_OBJECT
  5
4B03
102
{ACAD_REACTORS
330
4AF3
102
}
330
4AF3
100
AcDbProxyObject
 90
      499
 91
      504
 93
      452
310
42D0DBDB1BDC90DA185B99D95104090240C333333333333E33F0000000000000F90108901411070040501508421405064090741402480A0350
1001
ACAD
1000
AcDbSavedByObjectVersion
1070
     0
  0
ACAD_PROXY_OBJECT
  5
4AFD
102
{ACAD_REACTORS
330
4AF3
102
}
330
4AF3
100
AcDbProxyObject
 90
      499
 91
      504
 93
      500
310
4290DBDB98D95C1D1D585B10940D028333333333333E33F0000000000000F90107902409070040501000000000018199010841D405064090740C02480A0340
1001
ACAD
1000
AcDbSavedByObjectVersion
1070
     0
  0
ACAD_PROXY_OBJECT
  5
4AFE
102
{ACAD_REACTORS
330
4AF3
102
}
330
4AF3
100
AcDbProxyObject
 90
      499
 91
      504
 93
      412
310
40D11A5B50B409028333333333333E33F0000000000000F9010790141107004050150841D405064090741402480A02677FFFFFD0
1001
ACAD
1000
AcDbSavedByObjectVersion
1070
     0
  0
ACAD_PROXY_OBJECT
  5
4B06
102
{ACAD_REACTORS
330
4AF3
102
}
330
4AF3
100
AcDbProxyObject
 90
      499
 91
      504
 93
      452
310
43115919D950DBDB1BDC93D999916409028333333333333E33F0000000000000F9010790141107004050150841D405064090741402480A0350
1001
ACAD
1000
AcDbSavedByObjectVersion
1070
     0
  0
ACAD_PROXY_OBJECT
  5
4B02
102
{ACAD_REACTORS
330
4AF3
102
}
330
4AF3
100
AcDbProxyObject
 90
      499
 91
      504
 93
      444
310
42D19858D95C185D1D195C9B90F409028333333333333E33F0000000000000F9010790141107004050150841D405064090741402480A0350
1001
ACAD
1000
AcDbSavedByObjectVersion
1070
     0
  0
ACAD_PROXY_OBJECT
  5
4AF4
102
{ACAD_REACTORS
330
4AF3
102
}
330
4AF3
100
AcDbProxyObject
 90
      499
 91
      504
 93
      380
310
41119B185D240901404333333333333E33F0000000000000F9010740A907004050150841D405064090741402480A1B50
1001
ACAD
1000
AcDbSavedByObjectVersion
1070
     0
  0
ACAD_PROXY_OBJECT
  5
4AF5
102
{ACAD_REACTORS
330
4AF3
102
}
330
4AF3
100
AcDbProxyObject
 90
      499
 91
      504
 93
      468
310
43519B185D15DA5D1A115919D95CD0140901404333333333333E33F0000000000000F90107409019070040501600405405064090741402480A1B50
1001
ACAD
1000
AcDbSavedByObjectVersion
1070
     0
  0
ACAD_PROXY_OBJECT
  5
4AF6
102
{ACAD_REACTORS
330
4AF3
102
}
330
4AF3
100
AcDbProxyObject
 90
      499
 91
      504
 93
      404
310
41D1DBDD5C985D5910240902404333333333333E33F0000000000000F9010740A9070040501641D405064090741402480A1B50
1001
ACAD
1000
AcDbSavedByObjectVersion
1070
     0
  0
ACAD_PROXY_OBJECT
  5
4AF7
102
{ACAD_REACTORS
330
4AF3
102
}
330
4AF3
100
AcDbProxyObject
 90
      499
 91
      504
 93
      492
310
4411DBDD5C985D5915DA5D1A115919D95CD0340902404333333333333E33F0000000000000F90107409019070040501600405405064090741402480A1B50
1001
ACAD
1000
AcDbSavedByObjectVersion
1070
     0
  0
ACAD_PROXY_OBJECT
  5
4AFA
102
{ACAD_REACTORS
330
4AF3
102
}
330
4AF3
100
AcDbProxyObject
 90
      499
 91
      504
 93
      476
310
41921A5919195B90640502408333333333333E33F0000000000000F901079024090700405020000000000001110200405405064090740C02480A0340
1001
ACAD
1000
AcDbSavedByObjectVersion
1070
     0
  0
ACAD_PROXY_OBJECT
  5
4B04
102
{ACAD_REACTORS
330
4AF3
102
}
330
4AF3
100
AcDbProxyObject
 90
      499
 91
      504
 93
      428
310
42529A5D1D195C93D999914409028333333333333E33F0000000000000F9010790141107004050150A41D405064090741402480A0350
1001
ACAD
1000
AcDbSavedByObjectVersion
1070
     0
  0
ACAD_PROXY_OBJECT
  5
4B01
102
{ACAD_REACTORS
330
4AF3
102
}
330
4AF3
100
AcDbProxyObject
 90
      499
 91
      504
 93
      444
310
42D31A5B995C185D1D195C9B90E409028333333333333E33F0000000000000F9010790141107004050750841D405064090741402483A0350
1001
ACAD
1000
AcDbSavedByObjectVersion
1070
     0
  0
ACAD_PROXY_OBJECT
  5
4D09
102
{ACAD_REACTORS
330
4AF3
102
}
330
4AF3
100
AcDbProxyObject
 90
      499
 91
      504
 93
      412
310
90A409038333333333333E33F0000000000000F901074090290700405010000000000201990108421405064090741402480A1B40
1001
ACAD
1000
AcDbSavedByObjectVersion
1070
     0
  0
ACAD_PROXY_OBJECT
  5
4B05
102
{ACAD_REACTORS
330
4AF3
102
}
330
4AF3
100
AcDbProxyObject
 90
      499
 91
      504
 93
      444
310
42D3DD995C9A185B99D3D999915409028333333333333E33F0000000000000F9010790141107004050150941D405064090741402480A0350
1001
ACAD
1000
AcDbSavedByObjectVersion
1070
     0
  0
ACAD_PROXY_OBJECT
  5
4AFC
102
{ACAD_REACTORS
330
4AF3
102
}
330
4AF3
100
AcDbProxyObject
 90
      499
 91
      504
 93
      428
310
425499585B1A5CDD1A58D08409038333333333333E33F0000000000000F9010740A907004050150800405405064090740C02480A1B40
1001
ACAD
1000
AcDbSavedByObjectVersion
1070
     0
  0
ACAD_PROXY_OBJECT
  5
4B0B
102
{ACAD_REACTORS
330
4AF3
102
}
330
4AF3
100
AcDbProxyObject
 90
      499
 91
      504
 93
      420
310
4194DA1859195911B40902404333333333333E33F0000000000000F9010740A41107004050150800405405064090840C02480A0B40
1001
ACAD
1000
AcDbSavedByObjectVersion
1070
     0
  0
ACAD_PROXY_OBJECT
  5
4B0A
102
{ACAD_REACTORS
330
4AF3
102
}
330
4AF3
100
AcDbProxyObject
 90
      499
 91
      504
 93
      516
310
4454DA18591959081DDA5D1A08195919D95CD1A40902404333333333333E33F0000000000000F901074090142907004050250800405405064090740C02480A0B40
1001
ACAD
1000
AcDbSavedByObjectVersion
1070
     0
  0
ACAD_PROXY_OBJECT
  5
4B07
102
{ACAD_REACTORS
330
4AF3
102
}
330
4AF3
100
AcDbProxyObject
 90
      499
 91
      504
 93
      532
310
4394DA1859195CC81BD98811DC985E5174090240C333333333333E33F0000000000000F901079024090741D01000000000000111010841D405064090740C02480A0340
1001
ACAD
1000
AcDbSavedByObjectVersion
1070
     0
  0
ACAD_PROXY_OBJECT
  5
4B08
102
{ACAD_REACTORS
330
4AF3
102
}
330
4AF3
100
AcDbProxyObject
 90
      499
 91
      504
 93
      476
310
41D4DAD95D18DA1E51840502408333333333333E33F0000000000000F901079024090741D01000000000000111010B41D405064090741802480A0340
1001
ACAD
1000
AcDbSavedByObjectVersion
1070
     0
  0
ACAD_PROXY_OBJECT
  5
4B00
102
{ACAD_REACTORS
330
4AF3
102
}
330
4AF3
100
AcDbProxyObject
 90
      499
 91
      504
 93
      412
310
41D51A1A58DAD95B90D409028333333333333E33F0000000000000F9010790141107004050150C41D405064090741402480A0350
1001
ACAD
1000
AcDbSavedByObjectVersion
1070
     0
  0
ACAD_PROXY_OBJECT
  5
4AF9
102
{ACAD_REACTORS
330
4AF3
102
}
330
4AF3
100
AcDbProxyObject
 90
      499
 91
      504
 93
      420
310
4255DA5C99599C985B595059028333333333333E33F0000000000000F90107901411070040501600405405064090740C02480A0340
1001
ACAD
1000
AcDbSavedByObjectVersion
1070
     0
  0
ACAD_PROXY_OBJECT
  5
4B09
102
{ACAD_REACTORS
330
4AF3
102
}
330
4AF3
100
AcDbProxyObject
 90
      499
 91
      504
 93
      404
310
41560B54985E51940902404000000000000E03F0000000000000F9010740501907004050150841D405064090740C02480A1B40
1001
ACAD
1000
AcDbSavedByObjectVersion
1070
     0
  0
XRECORD
  5
58D2
102
{ACAD_REACTORS
330
58C8
102
}
330
58C8
100
AcDbXrecord
340
0
  0
XRECORD
  5
58D1
102
{ACAD_REACTORS
330
58C8
102
}
330
58C8
100
AcDbXrecord
 90
        0
  0
XRECORD
  5
58EB
102
{ACAD_REACTORS
330
58C8
102
}
330
58C8
100
AcDbXrecord
340
2948
  0
XRECORD
  5
58E8
102
{ACAD_REACTORS
330
58C8
102
}
330
58C8
100
AcDbXrecord
1000
DSTYLE
1002
{
1070
   171
 70
     2
1070
   143
 40
0.0394
1070
   274
 70
     2
1070
    41
 40
6.0
1070
   342
340
2AF4
1070
   271
 70
     1
1070
   278
 70
    46
1070
   341
340
2AF4
1070
   272
 70
     1
1070
    48
 40
0.1
1070
   283
 70
     1
1070
    47
 40
0.1
1070
   145
 40
1.0
1070
   340
340
10
1070
   140
 40
8.0
1070
   284
 70
     0
1002
}
  0
XRECORD
  5
58D3
102
{ACAD_REACTORS
330
58C8
102
}
330
58C8
100
AcDbXrecord
  1
{23698909-1D67-4744-B0E2-8DE11E3ED422}
  0
XRECORD
  5
58CB
102
{ACAD_REACTORS
330
58C8
102
}
330
58C8
100
AcDbXrecord
  1

  0
XRECORD
  5
58D0
102
{ACAD_REACTORS
330
58C8
102
}
330
58C8
100
AcDbXrecord
 90
        0
  0
XRECORD
  5
58CD
102
{ACAD_REACTORS
330
58C8
102
}
330
58C8
100
AcDbXrecord
340
2816
  0
XRECORD
  5
58CF
102
{ACAD_REACTORS
330
58C8
102
}
330
58C8
100
AcDbXrecord
 90
    10781
  0
XRECORD
  5
58EC
102
{ACAD_REACTORS
330
58C8
102
}
330
58C8
100
AcDbXrecord
340
2947
  0
XRECORD
  5
58CE
102
{ACAD_REACTORS
330
58C8
102
}
330
58C8
100
AcDbXrecord
340
2817
  0
XRECORD
  5
58D5
102
{ACAD_REACTORS
330
58C8
102
}
330
58C8
100
AcDbXrecord
 40
0.25
  0
XRECORD
  5
58D8
102
{ACAD_REACTORS
330
58C8
102
}
330
58C8
100
AcDbXrecord
340
0
  0
XRECORD
  5
58DE
102
{ACAD_REACTORS
330
58C8
102
}
330
58C8
100
AcDbXrecord
 10
0.0
 20
0.0
 30
0.0
  0
XRECORD
  5
58DA
102
{ACAD_REACTORS
330
58C8
102
}
330
58C8
100
AcDbXrecord
 10
0.0
 20
0.0
 30
0.0
  0
XRECORD
  5
58DD
102
{ACAD_REACTORS
330
58C8
102
}
330
58C8
100
AcDbXrecord
 10
0.0
 20
0.0
 30
0.0
  0
XRECORD
  5
58DB
102
{ACAD_REACTORS
330
58C8
102
}
330
58C8
100
AcDbXrecord
 10
0.0
 20
0.0
 30
0.0
  0
XRECORD
  5
58DC
102
{ACAD_REACTORS
330
58C8
102
}
330
58C8
100
AcDbXrecord
 10
0.0
 20
0.0
 30
0.0
  0
XRECORD
  5
58D9
102
{ACAD_REACTORS
330
58C8
102
}
330
58C8
100
AcDbXrecord
 10
0.0
 20
0.0
 30
0.0
  0
XRECORD
  5
58D6
102
{ACAD_REACTORS
330
58C8
102
}
330
58C8
100
AcDbXrecord
340
0
  0
XRECORD
  5
58D7
102
{ACAD_REACTORS
330
58C8
102
}
330
58C8
100
AcDbXrecord
 70
     0
  0
XRECORD
  5
58CC
102
{ACAD_REACTORS
330
58C8
102
}
330
58C8
100
AcDbXrecord
  1

  0
XRECORD
  5
58C9
102
{ACAD_REACTORS
330
58C8
102
}
330
58C8
100
AcDbXrecord
 90
        1
  0
XRECORD
  5
58CA
102
{ACAD_REACTORS
330
58C8
102
}
330
58C8
100
AcDbXrecord
 90
       70
  0
XRECORD
  5
58E1
102
{ACAD_REACTORS
330
58C8
102
}
330
58C8
100
AcDbXrecord
340
0
  0
XRECORD
  5
58E7
102
{ACAD_REACTORS
330
58C8
102
}
330
58C8
100
AcDbXrecord
 10
0.0
 20
0.0
 30
0.0
  0
XRECORD
  5
58E3
102
{ACAD_REACTORS
330
58C8
102
}
330
58C8
100
AcDbXrecord
 10
0.0
 20
0.0
 30
0.0
  0
XRECORD
  5
58E6
102
{ACAD_REACTORS
330
58C8
102
}
330
58C8
100
AcDbXrecord
 10
0.0
 20
0.0
 30
0.0
  0
XRECORD
  5
58E4
102
{ACAD_REACTORS
330
58C8
102
}
330
58C8
100
AcDbXrecord
 10
0.0
 20
0.0
 30
0.0
  0
XRECORD
  5
58E5
102
{ACAD_REACTORS
330
58C8
102
}
330
58C8
100
AcDbXrecord
 10
0.0
 20
0.0
 30
0.0
  0
XRECORD
  5
58E2
102
{ACAD_REACTORS
330
58C8
102
}
330
58C8
100
AcDbXrecord
 10
0.0
 20
0.0
 30
0.0
  0
XRECORD
  5
58DF
102
{ACAD_REACTORS
330
58C8
102
}
330
58C8
100
AcDbXrecord
340
0
  0
XRECORD
  5
58E0
102
{ACAD_REACTORS
330
58C8
102
}
330
58C8
100
AcDbXrecord
 70
     0
  0
XRECORD
  5
58D4
102
{ACAD_REACTORS
330
58C8
102
}
330
58C8
100
AcDbXrecord
  1
{21D8C105-5C92-4FBD-972F-6B75622CF1F4}
  0
DICTIONARYVAR
  5
4B60
102
{ACAD_REACTORS
330
4B5F
102
}
330
4B5F
100
DictionaryVariables
280
     0
  1
1:1
  0
DICTIONARYVAR
  5
4B9F
102
{ACAD_REACTORS
330
4B5F
102
}
330
4B5F
100
DictionaryVariables
280
     0
  1
Standard
  0
DICTIONARYVAR
  5
4B9E
102
{ACAD_REACTORS
330
4B5F
102
}
330
4B5F
100
DictionaryVariables
280
     0
  1
Standard
  0
DICTIONARYVAR
  5
58E9
102
{ACAD_REACTORS
330
4B5F
102
}
330
4B5F
100
DictionaryVariables
280
     0
  1
1
  0
DICTIONARYVAR
  5
58EA
102
{ACAD_REACTORS
330
4B5F
102
}
330
4B5F
100
DictionaryVariables
280
     0
  1
0
  0
DICTIONARYVAR
  5
4BA0
102
{ACAD_REACTORS
330
4B5F
102
}
330
4B5F
100
DictionaryVariables
280
     0
  1
0
  0
DICTIONARYVAR
  5
4BA1
102
{ACAD_REACTORS
330
4B5F
102
}
330
4B5F
100
DictionaryVariables
280
     0
  1
0
  0
DICTIONARY
  5
50C2
102
{ACAD_REACTORS
330
50C1
102
}
330
50C1
100
AcDbDictionary
  0
DICTIONARY
  5
50C6
102
{ACAD_REACTORS
330
50C5
102
}
330
50C5
100
AcDbDictionary
  0
DICTIONARY
  5
50CA
102
{ACAD_REACTORS
330
50C9
102
}
330
50C9
100
AcDbDictionary
  0
DICTIONARY
  5
50CE
102
{ACAD_REACTORS
330
50CD
102
}
330
50CD
100
AcDbDictionary
  0
DICTIONARY
  5
50D2
102
{ACAD_REACTORS
330
50D1
102
}
330
50D1
100
AcDbDictionary
  0
DICTIONARY
  5
50D6
102
{ACAD_REACTORS
330
50D5
102
}
330
50D5
100
AcDbDictionary
  0
DICTIONARY
  5
50DA
102
{ACAD_REACTORS
330
50D9
102
}
330
50D9
100
AcDbDictionary
  0
DICTIONARY
  5
5119
102
{ACAD_REACTORS
330
5118
102
}
330
5118
100
AcDbDictionary
  0
DICTIONARY
  5
53E4
102
{ACAD_REACTORS
330
53E3
102
}
330
53E3
100
AcDbDictionary
  0
DICTIONARY
  5
53E8
102
{ACAD_REACTORS
330
53E7
102
}
330
53E7
100
AcDbDictionary
  0
DICTIONARY
  5
4DA5
102
{ACAD_REACTORS
330
4DA4
102
}
330
4DA4
100
AcDbDictionary
  0
DICTIONARY
  5
4F4B
102
{ACAD_REACTORS
330
4F4A
102
}
330
4F4A
100
AcDbDictionary
  0
DICTIONARY
  5
4FB0
102
{ACAD_REACTORS
330
4FAF
102
}
330
4FAF
100
AcDbDictionary
  0
DICTIONARY
  5
5226
102
{ACAD_REACTORS
330
5225
102
}
330
5225
100
AcDbDictionary
  0
DICTIONARY
  5
5532
102
{ACAD_REACTORS
330
5531
102
}
330
5531
100
AcDbDictionary
  0
DICTIONARY
  5
58F2
330
4B2F
100
AcDbDictionary
280
     1
  3
ACAD_XREC_ROUNDTRIP
360
58F3
  0
DICTIONARY
  5
58F0
330
4B2E
100
AcDbDictionary
280
     1
  3
ACAD_XREC_ROUNDTRIP
360
58F1
  0
DICTIONARY
  5
58F4
330
4B30
100
AcDbDictionary
280
     1
  3
ACAD_XREC_ROUNDTRIP
360
58F5
  0
XRECORD
  5
58F3
102
{ACAD_REACTORS
330
58F2
102
}
330
58F2
100
AcDbXrecord
102
MATERIAL
148
0.0
149
0.0
149
0.0
 93
        0
 94
      127
282
     0
 72
     1
 77
     1
171
     1
175
     1
179
     1
273
     0
  0
XRECORD
  5
58F1
102
{ACAD_REACTORS
330
58F0
102
}
330
58F0
100
AcDbXrecord
102
MATERIAL
148
0.0
149
0.0
149
0.0
 93
        0
 94
      127
282
     0
 72
     1
 77
     1
171
     1
175
     1
179
     1
273
     0
  0
XRECORD
  5
58F5
102
{ACAD_REACTORS
330
58F4
102
}
330
58F4
100
AcDbXrecord
102
MATERIAL
148
0.0
149
0.0
149
0.0
 93
        0
 94
      127
282
     0
 72
     1
 77
     1
171
     1
175
     1
179
     1
273
     0
  0
ENDSEC
  0
EOF
