  0
SECTION
  2
HEADER
  9
$ACADVER
  1
AC1014
  9
$ACADMAINTVER
 70
     9
  9
$DWGCODEPAGE
  3
ANSI_932
  9
$INSBASE
 10
0.0
 20
0.0
 30
0.0
  9
$EXTMIN
 10
-105.256823730013
 20
121.469654336458
 30
0.0
  9
$EXTMAX
 10
622.469985383749
 20
538.314865264966
 30
0.0
  9
$LIMMIN
 10
-360.747566795242
 20
4.457354754526
  9
$LIMMAX
 10
-162.153696144267
 20
287.675440264018
  9
$ORTHOMODE
 70
     0
  9
$REGENMODE
 70
     1
  9
$FILLMODE
 70
     1
  9
$QTEXTMODE
 70
     0
  9
$MIRRTEXT
 70
     1
  9
$DRAGMODE
 70
     2
  9
$LTSCALE
 40
1.0
  9
$OSMODE
 70
   935
  9
$ATTMODE
 70
     1
  9
$TEXTSIZE
 40
4.0
  9
$TRACEWID
 40
1.0
  9
$TEXTSTYLE
  7
STANDARD
  9
$CLAYER
  8
下書線
  9
$CELTYPE
  6
BYLAYER
  9
$CECOLOR
 62
   256
  9
$CELTSCALE
 40
10.0
  9
$DELOBJ
 70
     1
  9
$DISPSILH
 70
     0
  9
$DIMSCALE
 40
1.0
  9
$DIMASZ
 40
6.0
  9
$DIMEXO
 40
0.625
  9
$DIMDLI
 40
3.75
  9
$DIMRND
 40
0.0
  9
$DIMDLE
 40
0.0
  9
$DIMEXE
 40
1.25
  9
$DIMTP
 40
0.1
  9
$DIMTM
 40
0.1
  9
$DIMTXT
 40
8.0
  9
$DIMCEN
 40
2.5
  9
$DIMTSZ
 40
0.0
  9
$DIMTOL
 70
     0
  9
$DIMLIM
 70
     0
  9
$DIMTIH
 70
     0
  9
$DIMTOH
 70
     0
  9
$DIMSE1
 70
     0
  9
$DIMSE2
 70
     0
  9
$DIMTAD
 70
     1
  9
$DIMZIN
 70
     8
  9
$DIMBLK
  1
OPEN30
  9
$DIMASO
 70
     1
  9
$DIMSHO
 70
     1
  9
$DIMPOST
  1

  9
$DIMAPOST
  1

  9
$DIMALT
 70
     0
  9
$DIMALTD
 70
     2
  9
$DIMALTF
 40
0.0394
  9
$DIMLFAC
 40
1.0
  9
$DIMTOFL
 70
     1
  9
$DIMTVP
 40
1.0
  9
$DIMTIX
 70
     0
  9
$DIMSOXD
 70
     0
  9
$DIMSAH
 70
     0
  9
$DIMBLK1
  1

  9
$DIMBLK2
  1

  9
$DIMSTYLE
  2
ISO-25
  9
$DIMCLRD
 70
     0
  9
$DIMCLRE
 70
     0
  9
$DIMCLRT
 70
     0
  9
$DIMTFAC
 40
1.0
  9
$DIMGAP
 40
0.625
  9
$DIMJUST
 70
     0
  9
$DIMSD1
 70
     0
  9
$DIMSD2
 70
     0
  9
$DIMTOLJ
 70
     1
  9
$DIMTZIN
 70
     0
  9
$DIMALTZ
 70
     0
  9
$DIMALTTZ
 70
     0
  9
$DIMFIT
 70
     3
  9
$DIMUPT
 70
     0
  9
$DIMUNIT
 70
     2
  9
$DIMDEC
 70
     1
  9
$DIMTDEC
 70
     1
  9
$DIMALTU
 70
     2
  9
$DIMALTTD
 70
     2
  9
$DIMTXSTY
  7
STANDARD
  9
$DIMAUNIT
 70
     0
  9
$LUNITS
 70
     2
  9
$LUPREC
 70
     4
  9
$SKETCHINC
 40
1.0
  9
$FILLETRAD
 40
6.5
  9
$AUNITS
 70
     0
  9
$AUPREC
 70
     0
  9
$MENU
  1
.
  9
$ELEVATION
 40
0.0
  9
$PELEVATION
 40
0.0
  9
$THICKNESS
 40
0.0
  9
$LIMCHECK
 70
     0
  9
$CHAMFERA
 40
0.5
  9
$CHAMFERB
 40
0.5
  9
$CHAMFERC
 40
20.0
  9
$CHAMFERD
 40
0.0
  9
$SKPOLY
 70
     0
  9
$TDCREATE
 40
2450576.597302431
  9
$TDUPDATE
 40
2457658.77794147
  9
$TDINDWG
 40
1.3411923611
  9
$TDUSRTIMER
 40
1.3411923611
  9
$USRTIMER
 70
     1
  9
$ANGBASE
 50
0.0
  9
$ANGDIR
 70
     0
  9
$PDMODE
 70
     0
  9
$PDSIZE
 40
0.0
  9
$PLINEWID
 40
0.0
  9
$COORDS
 70
     2
  9
$SPLFRAME
 70
     0
  9
$SPLINETYPE
 70
     6
  9
$SPLINESEGS
 70
     8
  9
$ATTDIA
 70
     0
  9
$ATTREQ
 70
     1
  9
$HANDLING
 70
     1
  9
$HANDSEED
  5
5468
  9
$SURFTAB1
 70
     6
  9
$SURFTAB2
 70
     6
  9
$SURFTYPE
 70
     6
  9
$SURFU
 70
     6
  9
$SURFV
 70
     6
  9
$UCSNAME
  2

  9
$UCSORG
 10
0.0
 20
0.0
 30
0.0
  9
$UCSXDIR
 10
1.0
 20
0.0
 30
0.0
  9
$UCSYDIR
 10
0.0
 20
1.0
 30
0.0
  9
$PUCSNAME
  2

  9
$PUCSORG
 10
0.0
 20
0.0
 30
0.0
  9
$PUCSXDIR
 10
1.0
 20
0.0
 30
0.0
  9
$PUCSYDIR
 10
0.0
 20
1.0
 30
0.0
  9
$USERI1
 70
     0
  9
$USERI2
 70
     0
  9
$USERI3
 70
     0
  9
$USERI4
 70
     0
  9
$USERI5
 70
     0
  9
$USERR1
 40
0.0
  9
$USERR2
 40
0.0
  9
$USERR3
 40
0.0
  9
$USERR4
 40
0.0
  9
$USERR5
 40
0.0
  9
$WORLDVIEW
 70
     1
  9
$SHADEDGE
 70
     3
  9
$SHADEDIF
 70
    70
  9
$TILEMODE
 70
     0
  9
$MAXACTVP
 70
    16
  9
$PINSBASE
 10
0.0
 20
0.0
 30
0.0
  9
$PLIMCHECK
 70
     0
  9
$PEXTMIN
 10
4.746305129083
 20
1.396645458131
 30
0.0
  9
$PEXTMAX
 10
400.746305129083
 20
278.596645458131
 30
0.0
  9
$PLIMMIN
 10
-6.869906624366
 20
-6.869895834773
  9
$PLIMMAX
 10
413.106722304664
 20
290.077231347397
  9
$UNITMODE
 70
     0
  9
$VISRETAIN
 70
     0
  9
$PLINEGEN
 70
     0
  9
$PSLTSCALE
 70
     1
  9
$TREEDEPTH
 70
  3020
  9
$PICKSTYLE
 70
     1
  9
$CMLSTYLE
  2
STANDARD
  9
$CMLJUST
 70
     0
  9
$CMLSCALE
 40
1.0
  9
$PROXYGRAPHICS
 70
     1
  9
$MEASUREMENT
 70
     1
  0
ENDSEC
  0
SECTION
  2
CLASSES
  0
CLASS
  1
ACDBDICTIONARYWDFLT
  2
AcDbDictionaryWithDefault
  3
ObjectDBX Classes
 90
        0
280
     0
281
     0
  0
CLASS
  1
ACDBPLACEHOLDER
  2
AcDbPlaceHolder
  3
ObjectDBX Classes
 90
        0
280
     0
281
     0
  0
CLASS
  1
LAYOUT
  2
AcDbLayout
  3
ObjectDBX Classes
 90
        0
280
     0
281
     0
  0
CLASS
  1
SORTENTSTABLE
  2
AcDbSortentsTable
  3
ObjectDBX Classes
 90
        0
280
     0
281
     0
  0
CLASS
  1
VISUALSTYLE
  2
AcDbVisualStyle
  3
ObjectDBX Classes
 90
     4095
280
     0
281
     0
  0
CLASS
  1
SCALE
  2
AcDbScale
  3
ObjectDBX Classes
 90
     1153
280
     0
281
     0
  0
CLASS
  1
MATERIAL
  2
AcDbMaterial
  3
ObjectDBX Classes
 90
     1153
280
     0
281
     0
  0
CLASS
  1
TABLESTYLE
  2
AcDbTableStyle
  3
ObjectDBX Classes
 90
     4095
280
     0
281
     0
  0
CLASS
  1
MLEADERSTYLE
  2
AcDbMLeaderStyle
  3
ACDB_MLEADERSTYLE_CLASS
 90
     4095
280
     0
281
     0
  0
CLASS
  1
SUN
  2
AcDbSun
  3
SCENEOE
 90
     1153
280
     0
281
     0
  0
CLASS
  1
DICTIONARYVAR
  2
AcDbDictionaryVar
  3
ObjectDBX Classes
 90
        0
280
     0
281
     0
  0
CLASS
  1
CELLSTYLEMAP
  2
AcDbCellStyleMap
  3
ObjectDBX Classes
 90
     1152
280
     0
281
     0
  0
CLASS
  1
XRECORD
  2
AcDbXrecord
  3
ObjectDBX Classes
 90
        0
280
     0
281
     0
  0
CLASS
  1
LWPOLYLINE
  2
AcDbPolyline
  3
ObjectDBX Classes
 90
        0
280
     0
281
     1
  0
CLASS
  1
HATCH
  2
AcDbHatch
  3
ObjectDBX Classes
 90
        0
280
     0
281
     1
  0
ENDSEC
  0
SECTION
  2
TABLES
  0
TABLE
  2
VPORT
  5
8
102
{ACAD_XDICTIONARY
360
5460
102
}
330
0
100
AcDbSymbolTable
 70
     3
  0
VPORT
  5
4386
330
8
100
AcDbSymbolTableRecord
100
AcDbViewportTableRecord
  2
*ACTIVE
 70
     0
 10
0.0
 20
0.0
 11
1.0
 21
1.0
 12
258.606580826868
 22
329.892259800712
 13
0.0
 23
0.0
 14
1.0
 24
1.0
 15
0.0
 25
0.0
 16
0.0
 26
0.0
 36
1.0
 17
0.0
 27
0.0
 37
0.0
 40
425.182115147078
 41
1.759407069555
 42
50.0
 43
0.0
 44
0.0
 50
0.0
 51
0.0
 71
    16
 72
   100
 73
     1
 74
     0
 75
     0
 76
     0
 77
     0
 78
     0
  0
ENDTAB
  0
TABLE
  2
LTYPE
  5
5
330
0
100
AcDbSymbolTable
 70
     5
  0
LTYPE
  5
14
330
5
100
AcDbSymbolTableRecord
100
AcDbLinetypeTableRecord
  2
BYBLOCK
 70
     0
  3

 72
    65
 73
     0
 40
0.0
  0
LTYPE
  5
15
330
5
100
AcDbSymbolTableRecord
100
AcDbLinetypeTableRecord
  2
BYLAYER
 70
     0
  3

 72
    65
 73
     0
 40
0.0
  0
LTYPE
  5
16
330
5
100
AcDbSymbolTableRecord
100
AcDbLinetypeTableRecord
  2
CONTINUOUS
 70
     0
  3
Solid line
 72
    65
 73
     0
 40
0.0
  0
LTYPE
  5
1EC
330
5
100
AcDbSymbolTableRecord
100
AcDbLinetypeTableRecord
  2
CENTER
 70
     0
  3
____ _ ____ _ ____ _ ____ _ ____ _ ____ _ ____ 
 72
    65
 73
     4
 40
2.0
 49
1.25
 74
     0
 49
-0.25
 74
     0
 49
0.25
 74
     0
 49
-0.25
 74
     0
  0
LTYPE
  5
1ED
330
5
100
AcDbSymbolTableRecord
100
AcDbLinetypeTableRecord
  2
DASHED
 70
     0
  3
__ __ __ __ __ __ __ __ __ __ __ __ __ __ __ __
 72
    65
 73
     2
 40
0.75
 49
0.5
 74
     0
 49
-0.25
 74
     0
  0
LTYPE
  5
2B1F
330
5
100
AcDbSymbolTableRecord
100
AcDbLinetypeTableRecord
  2
DASHDOT
 70
     0
  3
一点鎖線
 72
    65
 73
     4
 40
25.6
 49
20.0
 74
     0
 49
-2.0
 74
     0
 49
1.6
 74
     0
 49
-2.0
 74
     0
  0
LTYPE
  5
31A1
330
5
100
AcDbSymbolTableRecord
100
AcDbLinetypeTableRecord
  2
CENTER2
 70
     0
  3
Center (.5x) ___ _ ___ _ ___ _ ___ _ ___ _ ___
 72
    65
 73
     4
 40
28.575
 49
19.05
 74
     0
 49
-3.175
 74
     0
 49
3.175
 74
     0
 49
-3.175
 74
     0
  0
ENDTAB
  0
TABLE
  2
LAYER
  5
2
102
{ACAD_XDICTIONARY
360
29EA
102
}
330
0
100
AcDbSymbolTable
 70
    13
  0
LAYER
  5
F
330
2
100
AcDbSymbolTableRecord
100
AcDbLayerTableRecord
  2
0
 70
     0
 62
     7
  6
CONTINUOUS
  0
LAYER
  5
61
330
2
100
AcDbSymbolTableRecord
100
AcDbLayerTableRecord
  2
図枠太線
 70
     0
 62
   251
  6
CONTINUOUS
  0
LAYER
  5
62
330
2
100
AcDbSymbolTableRecord
100
AcDbLayerTableRecord
  2
図枠細線
 70
     0
 62
   252
  6
CONTINUOUS
  0
LAYER
  5
63
330
2
100
AcDbSymbolTableRecord
100
AcDbLayerTableRecord
  2
図枠ロゴマーク
 70
     0
 62
   253
  6
CONTINUOUS
  0
LAYER
  5
1EF
330
2
100
AcDbSymbolTableRecord
100
AcDbLayerTableRecord
  2
外形線
 70
     0
 62
     7
  6
CONTINUOUS
  0
LAYER
  5
1F0
330
2
100
AcDbSymbolTableRecord
100
AcDbLayerTableRecord
  2
寸法線
 70
     0
 62
     1
  6
CONTINUOUS
  0
LAYER
  5
1F1
330
2
100
AcDbSymbolTableRecord
100
AcDbLayerTableRecord
  2
中心線
 70
     0
 62
     4
  6
CENTER
  0
LAYER
  5
1F4
330
2
100
AcDbSymbolTableRecord
100
AcDbLayerTableRecord
  2
DEFPOINTS
 70
     0
 62
     7
  6
CONTINUOUS
  0
LAYER
  5
2AA2
330
2
100
AcDbSymbolTableRecord
100
AcDbLayerTableRecord
  2
下書線
 70
     0
 62
     2
  6
CONTINUOUS
  0
LAYER
  5
2AA3
330
2
100
AcDbSymbolTableRecord
100
AcDbLayerTableRecord
  2
隠れ線
 70
     0
 62
     3
  6
DASHED
  0
LAYER
  5
2AA4
330
2
100
AcDbSymbolTableRecord
100
AcDbLayerTableRecord
  2
細線
 70
     0
 62
     6
  6
CONTINUOUS
  0
LAYER
  5
2AA5
330
2
100
AcDbSymbolTableRecord
100
AcDbLayerTableRecord
  2
太線
 70
     0
 62
   190
  6
CONTINUOUS
  0
LAYER
  5
46C3
330
2
100
AcDbSymbolTableRecord
100
AcDbLayerTableRecord
  2
寸法線_文字
 70
     0
 62
     1
  6
CONTINUOUS
  0
ENDTAB
  0
TABLE
  2
STYLE
  5
3
330
0
100
AcDbSymbolTable
 70
     2
  0
STYLE
  5
10
330
3
100
AcDbSymbolTableRecord
100
AcDbTextStyleTableRecord
  2
STANDARD
 70
     0
 40
0.0
 41
1.0
 50
0.0
 71
     0
 42
4.0
  3
ISOCP
  4
bigfont.shx
  0
STYLE
  5
64
330
3
100
AcDbSymbolTableRecord
100
AcDbTextStyleTableRecord
  2
EXCADSTD
 70
     0
 40
0.0
 41
1.0
 50
0.0
 71
     0
 42
0.2
  3
monotxt
  4
bigfont
  0
ENDTAB
  0
TABLE
  2
VIEW
  5
6
330
0
100
AcDbSymbolTable
 70
     0
  0
ENDTAB
  0
TABLE
  2
UCS
  5
7
330
0
100
AcDbSymbolTable
 70
     0
  0
ENDTAB
  0
TABLE
  2
APPID
  5
9
330
0
100
AcDbSymbolTable
 70
     6
  0
APPID
  5
11
330
9
100
AcDbSymbolTableRecord
100
AcDbRegAppTableRecord
  2
ACAD
 70
     0
  0
APPID
  5
3507
330
9
100
AcDbSymbolTableRecord
100
AcDbRegAppTableRecord
  2
ACAD_DIMASSOC_CALC_DIMLFAC
 70
     0
  0
APPID
  5
3508
330
9
100
AcDbSymbolTableRecord
100
AcDbRegAppTableRecord
  2
ACAD_DIMASSOC_DIMLFAC
 70
     0
  0
APPID
  5
3509
330
9
100
AcDbSymbolTableRecord
100
AcDbRegAppTableRecord
  2
ACAD_DIMASSOC_OVERRIDDEN_D
 70
     0
  0
APPID
  5
43CA
330
9
100
AcDbSymbolTableRecord
100
AcDbRegAppTableRecord
  2
ACADANNOTATIVE
 70
     0
  0
APPID
  5
4B0D
330
9
100
AcDbSymbolTableRecord
100
AcDbRegAppTableRecord
  2
ACAD_MLEADERVER
 70
     0
  0
ENDTAB
  0
TABLE
  2
DIMSTYLE
  5
A
330
0
100
AcDbSymbolTable
 70
     2
  0
DIMSTYLE
105
1D
330
A
100
AcDbSymbolTableRecord
100
AcDbDimStyleTableRecord
  2
STANDARD
 70
     0
  3

  4

  5

  6

  7

 40
1.0
 41
0.18
 42
0.0625
 43
0.38
 44
0.18
 45
0.0
 46
0.0
 47
0.0
 48
0.0
140
0.18
141
0.09
142
0.0
143
25.4
144
1.0
145
0.0
146
1.0
147
0.09
 71
     0
 72
     0
 73
     1
 74
     1
 75
     0
 76
     0
 77
     0
 78
     0
170
     0
171
     2
172
     0
173
     0
174
     0
175
     0
176
     0
177
     0
178
     0
270
     2
271
     4
272
     4
273
     2
274
     2
340
10
275
     0
280
     0
281
     0
282
     0
283
     1
284
     0
285
     0
286
     0
287
     3
288
     0
  0
DIMSTYLE
105
24
102
{ACAD_REACTORS
330
4034
330
4120
330
417F
330
420E
330
42DB
330
461C
330
461D
330
461E
330
461F
330
4620
330
4628
330
52CD
102
}
330
A
100
AcDbSymbolTableRecord
100
AcDbDimStyleTableRecord
  2
ISO-25
 70
     0
  3

  4

  5

  6

  7

 40
1.0
 41
2.5
 42
0.625
 43
3.75
 44
1.25
 45
0.0
 46
0.0
 47
0.0
 48
0.0
140
2.5
141
2.5
142
0.0
143
0.0394
144
1.0
145
1.0
146
1.0
147
0.625
 71
     0
 72
     0
 73
     1
 74
     0
 75
     0
 76
     0
 77
     1
 78
     8
170
     0
171
     2
172
     1
173
     0
174
     0
175
     0
176
     0
177
     0
178
     0
270
     2
271
     4
272
     4
273
     2
274
     2
340
10
275
     0
280
     0
281
     0
282
     0
283
     1
284
     0
285
     0
286
     0
287
     3
288
     0
  0
ENDTAB
  0
TABLE
  2
BLOCK_RECORD
  5
1
330
0
100
AcDbSymbolTable
 70
    46
  0
BLOCK_RECORD
  5
1A
102
{ACAD_XDICTIONARY
360
4C1B
102
}
330
1
100
AcDbSymbolTableRecord
100
AcDbBlockTableRecord
  2
*MODEL_SPACE
  0
BLOCK_RECORD
  5
28FB
330
1
100
AcDbSymbolTableRecord
100
AcDbBlockTableRecord
  2
*PAPER_SPACE
  0
BLOCK_RECORD
  5
65
330
1
100
AcDbSymbolTableRecord
100
AcDbBlockTableRecord
  2
A$C3392
  0
BLOCK_RECORD
  5
29BF
330
1
100
AcDbSymbolTableRecord
100
AcDbBlockTableRecord
  2
A4横用_タイトル
1001
ACAD
1000
DesignCenter Data
1002
{
1070
     1
1070
     4
1002
}
  0
BLOCK_RECORD
  5
29F4
330
1
100
AcDbSymbolTableRecord
100
AcDbBlockTableRecord
  2
A4縦用_タイトル
1001
ACAD
1000
DesignCenter Data
1002
{
1070
     1
1070
     4
1002
}
  0
BLOCK_RECORD
  5
2A32
330
1
100
AcDbSymbolTableRecord
100
AcDbBlockTableRecord
  2
A3横用_タイトル
1001
ACAD
1000
DesignCenter Data
1002
{
1070
     1
1070
     4
1002
}
  0
BLOCK_RECORD
  5
2A6C
330
1
100
AcDbSymbolTableRecord
100
AcDbBlockTableRecord
  2
A3縦用_タイトル
1001
ACAD
1000
DesignCenter Data
1002
{
1070
     1
1070
     4
1002
}
  0
BLOCK_RECORD
  5
2AF4
330
1
100
AcDbSymbolTableRecord
100
AcDbBlockTableRecord
  2
_OPEN30
  0
BLOCK_RECORD
  5
4035
330
1
100
AcDbSymbolTableRecord
100
AcDbBlockTableRecord
  2
*D13
  0
BLOCK_RECORD
  5
4124
330
1
100
AcDbSymbolTableRecord
100
AcDbBlockTableRecord
  2
*D14
  0
BLOCK_RECORD
  5
4180
330
1
100
AcDbSymbolTableRecord
100
AcDbBlockTableRecord
  2
*D15
  0
BLOCK_RECORD
  5
420F
330
1
100
AcDbSymbolTableRecord
100
AcDbBlockTableRecord
  2
*D16
  0
BLOCK_RECORD
  5
42DC
330
1
100
AcDbSymbolTableRecord
100
AcDbBlockTableRecord
  2
*D17
  0
BLOCK_RECORD
  5
4665
330
1
100
AcDbSymbolTableRecord
100
AcDbBlockTableRecord
  2
*D36
  0
BLOCK_RECORD
  5
4670
330
1
100
AcDbSymbolTableRecord
100
AcDbBlockTableRecord
  2
*D37
  0
BLOCK_RECORD
  5
467B
330
1
100
AcDbSymbolTableRecord
100
AcDbBlockTableRecord
  2
*D38
  0
BLOCK_RECORD
  5
4686
330
1
100
AcDbSymbolTableRecord
100
AcDbBlockTableRecord
  2
*D39
  0
BLOCK_RECORD
  5
4691
330
1
100
AcDbSymbolTableRecord
100
AcDbBlockTableRecord
  2
*D40
  0
BLOCK_RECORD
  5
46A9
330
1
100
AcDbSymbolTableRecord
100
AcDbBlockTableRecord
  2
*D42
  0
BLOCK_RECORD
  5
52DC
330
1
100
AcDbSymbolTableRecord
100
AcDbBlockTableRecord
  2
*D45
  0
ENDTAB
  0
ENDSEC
  0
SECTION
  2
BLOCKS
  0
BLOCK
  5
1B
330
1A
100
AcDbEntity
  8
0
100
AcDbBlockBegin
  2
*MODEL_SPACE
 70
     0
 10
0.0
 20
0.0
 30
0.0
  3
*MODEL_SPACE
  1

  0
ENDBLK
  5
1C
330
1A
100
AcDbEntity
  8
0
100
AcDbBlockEnd
  0
BLOCK
  5
28FD
330
28FB
100
AcDbEntity
 67
     1
  8
0
 48
10.0
100
AcDbBlockBegin
  2
*PAPER_SPACE
 70
     0
 10
0.0
 20
0.0
 30
0.0
  3
*PAPER_SPACE
  1

  0
ENDBLK
  5
28FE
330
28FB
100
AcDbEntity
 67
     1
  8
0
 48
10.0
100
AcDbBlockEnd
  0
BLOCK
  5
93
330
65
100
AcDbEntity
  8
0
100
AcDbBlockBegin
  2
A$C3392
 70
     0
 10
0.0
 20
0.0
 30
0.0
  3
A$C3392
  1

  0
LINE
  5
66
330
65
100
AcDbEntity
  8
図枠太線
  6
CONTINUOUS
100
AcDbLine
 10
211.858584505185
 20
30.927375675439
 30
0.0
 11
211.858584505185
 21
0.927375675439
 31
0.0
  0
LINE
  5
67
330
65
100
AcDbEntity
  8
図枠細線
  6
CONTINUOUS
100
AcDbLine
 10
231.858592505185
 20
15.927377675439
 30
0.0
 11
287.858592505185
 21
15.927375675439
 31
0.0
  0
LINE
  5
68
330
65
100
AcDbEntity
  8
図枠細線
  6
CONTINUOUS
100
AcDbLine
 10
211.858592505185
 20
15.927377675439
 30
0.0
 11
231.858592505185
 21
15.927377675439
 31
0.0
  0
LINE
  5
69
330
65
100
AcDbEntity
  8
図枠太線
  6
CONTINUOUS
 62
   251
100
AcDbLine
 10
1.858584505185
 20
0.927375675439
 30
0.0
 11
1.858584505185
 21
275.927375675439
 31
0.0
  0
TEXT
  5
6A
330
65
100
AcDbEntity
  8
図枠細線
  6
CONTINUOUS
 62
   252
100
AcDbText
 10
351.358592505185
 20
28.427377675439
 30
0.0
 40
2.0
  1
ＴＩＴＬＥ
 41
0.903614457831
  7
EXCADSTD
 72
     5
 11
361.358592505185
 21
28.427377675439
 31
0.0
100
AcDbText
  0
TEXT
  5
6B
330
65
100
AcDbEntity
  8
図枠細線
  6
CONTINUOUS
 62
   252
100
AcDbText
 10
345.358592505185
 20
28.427377675439
 30
0.0
 40
2.0
  1
名称
 41
1.171875
  7
EXCADSTD
 72
     5
 11
350.358592505185
 21
28.427377675439
 31
0.0
100
AcDbText
  0
TEXT
  5
6C
330
65
100
AcDbEntity
  8
図枠細線
  6
CONTINUOUS
 62
   252
100
AcDbText
 10
274.358592505185
 20
25.927377675439
 30
0.0
 40
2.0
  1
ＤＲＡＷＮ
 41
0.882352941176
  7
EXCADSTD
 72
     5
 11
284.358592505185
 21
25.927377675439
 31
0.0
100
AcDbText
  0
TEXT
  5
6D
330
65
100
AcDbEntity
  8
図枠細線
  6
CONTINUOUS
 62
   252
100
AcDbText
 10
260.358592505185
 20
25.927377675439
 30
0.0
 40
2.0
  1
ＤＥＳＩＧＮＥＤ
 41
0.713043472041
  7
EXCADSTD
 72
     5
 11
273.478592390744
 21
25.927377675439
 31
0.0
100
AcDbText
  0
TEXT
  5
6E
330
65
100
AcDbEntity
  8
図枠細線
  6
CONTINUOUS
 62
   252
100
AcDbText
 10
246.358592505185
 20
25.927377675439
 30
0.0
 40
2.0
  1
ＣＨＥＣＫＥＤ
 41
0.831249989569
  7
EXCADSTD
 72
     5
 11
259.658592338292
 21
25.927377675439
 31
0.0
100
AcDbText
  0
TEXT
  5
6F
330
65
100
AcDbEntity
  8
図枠細線
  6
CONTINUOUS
 62
   252
100
AcDbText
 10
274.358592505185
 20
28.427377675439
 30
0.0
 40
2.0
  1
製図
 41
1.209677419355
  7
EXCADSTD
 72
     5
 11
279.358592505185
 21
28.427377675439
 31
0.0
100
AcDbText
  0
TEXT
  5
70
330
65
100
AcDbEntity
  8
図枠細線
  6
CONTINUOUS
 62
   252
100
AcDbText
 10
260.358592505185
 20
28.427377675439
 30
0.0
 40
2.0
  1
設計
 41
1.171875
  7
EXCADSTD
 72
     5
 11
265.358592505185
 21
28.427377675439
 31
0.0
100
AcDbText
  0
TEXT
  5
71
330
65
100
AcDbEntity
  8
図枠細線
  6
CONTINUOUS
 62
   252
100
AcDbText
 10
246.358592505185
 20
28.427377675439
 30
0.0
 40
2.0
  1
検図
 41
1.209677419355
  7
EXCADSTD
 72
     5
 11
251.358592505185
 21
28.427377675439
 31
0.0
100
AcDbText
  0
TEXT
  5
72
330
65
100
AcDbEntity
  8
図枠細線
  6
CONTINUOUS
 62
   252
100
AcDbText
 10
232.358592505185
 20
25.927377675439
 30
0.0
 40
2.0
  1
ＡＰＰＲＯＶＥＤ
 41
0.695652184279
  7
EXCADSTD
 72
     5
 11
245.15859269592
 21
25.927377675439
 31
0.0
100
AcDbText
  0
TEXT
  5
73
330
65
100
AcDbEntity
  8
図枠細線
  6
CONTINUOUS
 62
   252
100
AcDbText
 10
232.358592505185
 20
28.427377675439
 30
0.0
 40
2.0
  1
承認
 41
1.171875
  7
EXCADSTD
 72
     5
 11
237.358592505185
 21
28.427377675439
 31
0.0
100
AcDbText
  0
TEXT
  5
74
330
65
100
AcDbEntity
  8
図枠細線
  6
CONTINUOUS
 62
   252
100
AcDbText
 10
290.069888505185
 20
2.574868675439
 30
0.0
 40
3.5
  1
ＴＯＷＡ　ＳＥＩＤＥＮ　ＩＮＤＵＳＴＲＩＡＬ　ＣＯ．，ＬＴＤ．
 41
0.414568012377
  7
EXCADSTD
 72
     5
 11
342.692388209546
 21
2.574868675439
 31
0.0
100
AcDbText
  0
TEXT
  5
75
330
65
100
AcDbEntity
  8
図枠ロゴマーク
  6
CONTINUOUS
 62
   253
100
AcDbText
 10
290.107348505185
 20
7.519769675439
 30
0.0
 40
7.0
  1
東和制電工業株式会社
 41
0.639204545455
  7
EXCADSTD
 72
     5
 11
342.607348505185
 21
7.519769675439
 31
0.0
100
AcDbText
  0
TEXT
  5
76
330
65
100
AcDbEntity
  8
図枠細線
  6
CONTINUOUS
 62
   252
100
AcDbText
 10
232.499705505185
 20
5.759088675439
 30
0.0
 40
2.0
  1
ＰＲＯＪＥＣＴＩＯＮ
 41
0.754285710199
  7
EXCADSTD
 72
     5
 11
250.099705409817
 21
5.759088675439
 31
0.0
100
AcDbText
  0
TEXT
  5
77
330
65
100
AcDbEntity
  8
図枠細線
  6
CONTINUOUS
 62
   252
100
AcDbText
 10
232.574629505185
 20
8.681077675439
 30
0.0
 40
2.0
  1
ＴＨＩＲＤ　ＡＮＧＬＥ
 41
0.691099486738
  7
EXCADSTD
 72
     5
 11
250.174629767445
 21
8.681077675439
 31
0.0
100
AcDbText
  0
TEXT
  5
78
330
65
100
AcDbEntity
  8
図枠細線
  6
CONTINUOUS
 62
   252
100
AcDbText
 10
256.823999505185
 20
13.427377675439
 30
0.0
 40
2.0
  1
ＳＣＡＬＥ
 41
0.903614457831
  7
EXCADSTD
 72
     5
 11
266.823999505185
 21
13.427377675439
 31
0.0
100
AcDbText
  0
TEXT
  5
79
330
65
100
AcDbEntity
  8
図枠細線
  6
CONTINUOUS
 62
   252
100
AcDbText
 10
274.858592505185
 20
13.427377675439
 30
0.0
 40
2.0
  1
ＤＡＴＥ
 41
0.923076923077
  7
EXCADSTD
 72
     5
 11
282.858592505185
 21
13.427377675439
 31
0.0
100
AcDbText
  0
TEXT
  5
7A
330
65
100
AcDbEntity
  8
図枠細線
  6
CONTINUOUS
 62
   252
100
AcDbText
 10
356.358592505185
 20
13.427377675439
 30
0.0
 40
2.0
  1
ＤＲＧ．ＮＯ．
 41
0.9375
  7
EXCADSTD
 72
     5
 11
370.358592505185
 21
13.427377675439
 31
0.0
100
AcDbText
  0
TEXT
  5
7B
330
65
100
AcDbEntity
  8
図枠細線
  6
CONTINUOUS
 62
   252
100
AcDbText
 10
345.358592505185
 20
13.427377675439
 30
0.0
 40
2.0
  1
図面番号
 41
1.102941176471
  7
EXCADSTD
 72
     5
 11
355.358592505185
 21
13.427377675439
 31
0.0
100
AcDbText
  0
TEXT
  5
7C
330
65
100
AcDbEntity
  8
図枠細線
  6
CONTINUOUS
 62
   252
100
AcDbText
 10
269.358592505185
 20
13.427377675439
 30
0.0
 40
2.0
  1
日付
 41
1.171875
  7
EXCADSTD
 72
     5
 11
274.358592505185
 21
13.427377675439
 31
0.0
100
AcDbText
  0
TEXT
  5
7D
330
65
100
AcDbEntity
  8
図枠細線
  6
CONTINUOUS
 62
   252
100
AcDbText
 10
251.451512505185
 20
13.427377675439
 30
0.0
 40
2.0
  1
尺度
 41
1.171875
  7
EXCADSTD
 72
     5
 11
256.451512505185
 21
13.427377675439
 31
0.0
100
AcDbText
  0
TEXT
  5
7E
330
65
100
AcDbEntity
  8
図枠細線
  6
CONTINUOUS
 62
   252
100
AcDbText
 10
232.358592505185
 20
13.427377675439
 30
0.0
 40
2.0
  1
第三角法
 41
1.102941176471
  7
EXCADSTD
 72
     5
 11
242.358592505185
 21
13.427377675439
 31
0.0
100
AcDbText
  0
TEXT
  5
7F
330
65
100
AcDbEntity
  8
図枠細線
  6
CONTINUOUS
 62
   252
100
AcDbText
 10
212.358592505185
 20
28.427377675439
 30
0.0
 40
2.0
  1
ＮＯＴＥ
 41
0.923076923077
  7
EXCADSTD
 72
     5
 11
220.358592505185
 21
28.427377675439
 31
0.0
100
AcDbText
  0
LINE
  5
80
330
65
100
AcDbEntity
  8
図枠細線
  6
CONTINUOUS
 62
   252
100
AcDbLine
 10
287.858592505185
 20
23.427375675439
 30
0.0
 11
344.858592505185
 21
23.427375675439
 31
0.0
  0
LINE
  5
81
330
65
100
AcDbEntity
  8
図枠太線
  6
CONTINUOUS
 62
   251
100
AcDbLine
 10
287.858584505185
 20
15.927375675439
 30
0.0
 11
344.858592505185
 21
15.927375675439
 31
0.0
  0
LINE
  5
82
330
65
100
AcDbEntity
  8
図枠細線
  6
CONTINUOUS
 62
   252
100
AcDbLine
 10
344.858592505185
 20
15.927375675439
 30
0.0
 11
401.858584505185
 21
15.927375675439
 31
0.0
  0
LINE
  5
83
330
65
100
AcDbEntity
  8
図枠太線
  6
CONTINUOUS
 62
   251
100
AcDbLine
 10
344.858592505185
 20
0.927377675439
 30
0.0
 11
344.858592505185
 21
30.927375675439
 31
0.0
  0
LINE
  5
84
330
65
100
AcDbEntity
  8
図枠太線
  6
CONTINUOUS
 62
   251
100
AcDbLine
 10
287.858592505185
 20
0.927377675439
 30
0.0
 11
287.858592505185
 21
30.927375675439
 31
0.0
  0
LINE
  5
85
330
65
100
AcDbEntity
  8
図枠細線
  6
CONTINUOUS
 62
   252
100
AcDbLine
 10
268.858592505185
 20
0.927377675439
 30
0.0
 11
268.858592505185
 21
15.927375675439
 31
0.0
  0
LINE
  5
86
330
65
100
AcDbEntity
  8
図枠細線
  6
CONTINUOUS
 62
   252
100
AcDbLine
 10
250.858592505185
 20
0.927377675439
 30
0.0
 11
250.858592505185
 21
15.927375675439
 31
0.0
  0
LINE
  5
87
330
65
100
AcDbEntity
  8
図枠細線
  6
CONTINUOUS
 62
   252
100
AcDbLine
 10
273.858592505185
 20
30.927375675439
 30
0.0
 11
273.858592505185
 21
15.927375675439
 31
0.0
  0
LINE
  5
88
330
65
100
AcDbEntity
  8
図枠細線
  6
CONTINUOUS
 62
   252
100
AcDbLine
 10
259.858592505185
 20
30.927375675439
 30
0.0
 11
259.858592505185
 21
15.927375675439
 31
0.0
  0
LINE
  5
89
330
65
100
AcDbEntity
  8
図枠細線
  6
CONTINUOUS
 62
   252
100
AcDbLine
 10
245.858592505185
 20
30.927375675439
 30
0.0
 11
245.858592505185
 21
15.927375675439
 31
0.0
  0
LINE
  5
8A
330
65
100
AcDbEntity
  8
図枠太線
  6
CONTINUOUS
 62
   251
100
AcDbLine
 10
231.858592505185
 20
0.927377675439
 30
0.0
 11
231.858592505185
 21
30.927375675439
 31
0.0
  0
LINE
  5
8B
330
65
100
AcDbEntity
  8
図枠細線
  6
CONTINUOUS
 62
   252
100
AcDbLine
 10
211.858592505185
 20
25.927375675439
 30
0.0
 11
231.858592505185
 21
25.927375675439
 31
0.0
  0
LINE
  5
8C
330
65
100
AcDbEntity
  8
図枠細線
  6
CONTINUOUS
 62
   252
100
AcDbLine
 10
211.858592505185
 20
20.927375675439
 30
0.0
 11
231.858592505185
 21
20.927375675439
 31
0.0
  0
LINE
  5
8D
330
65
100
AcDbEntity
  8
図枠細線
  6
CONTINUOUS
 62
   252
100
AcDbLine
 10
211.858592505185
 20
10.927375675439
 30
0.0
 11
231.858592505185
 21
10.927375675439
 31
0.0
  0
LINE
  5
8E
330
65
100
AcDbEntity
  8
図枠細線
  6
CONTINUOUS
 62
   252
100
AcDbLine
 10
211.858592505185
 20
5.927377675439
 30
0.0
 11
231.858592505185
 21
5.927377675439
 31
0.0
  0
LINE
  5
8F
330
65
100
AcDbEntity
  8
図枠太線
  6
CONTINUOUS
 62
   251
100
AcDbLine
 10
211.858592505185
 20
30.927375675439
 30
0.0
 11
401.858584505185
 21
30.927375675439
 31
0.0
  0
LINE
  5
90
330
65
100
AcDbEntity
  8
図枠太線
  6
CONTINUOUS
 62
   251
100
AcDbLine
 10
1.858584505185
 20
275.927375675439
 30
0.0
 11
401.858584505185
 21
275.927375675439
 31
0.0
  0
LINE
  5
91
330
65
100
AcDbEntity
  8
図枠太線
  6
CONTINUOUS
 62
   251
100
AcDbLine
 10
401.858584505185
 20
0.927375675439
 30
0.0
 11
401.858584505185
 21
275.927375675439
 31
0.0
  0
LINE
  5
92
330
65
100
AcDbEntity
  8
図枠太線
  6
CONTINUOUS
 62
   251
100
AcDbLine
 10
1.858584505185
 20
0.927375675439
 30
0.0
 11
401.858584505185
 21
0.927375675439
 31
0.0
  0
ENDBLK
  5
94
330
65
100
AcDbEntity
  8
0
100
AcDbBlockEnd
  0
BLOCK
  5
29C0
330
29BF
100
AcDbEntity
  8
0
100
AcDbBlockBegin
  2
A4横用_タイトル
 70
     0
 10
0.0
 20
0.0
 30
0.0
  3
A4横用_タイトル
  1

  0
LINE
  5
29C1
330
29BF
100
AcDbEntity
  8
図枠細線
  6
CONTINUOUS
100
AcDbLine
 10
75.061011071051
 20
16.806607253358
 30
0.0
 11
144.061011071051
 21
16.806604789072
 31
0.0
  0
LINE
  5
29C2
330
29BF
100
AcDbEntity
  8
図枠細線
  6
CONTINUOUS
 62
   252
100
AcDbLine
 10
4.061011071051
 20
11.806606253358
 30
0.0
 11
75.061011071051
 21
11.806606253358
 31
0.0
  0
LINE
  5
29C3
330
29BF
100
AcDbEntity
  8
図枠細線
  6
CONTINUOUS
 62
   252
100
AcDbLine
 10
4.061011071051
 20
21.806606253358
 30
0.0
 11
75.061011071051
 21
21.806606253358
 31
0.0
  0
LINE
  5
29C4
330
29BF
100
AcDbEntity
  8
図枠細線
  6
CONTINUOUS
 62
   252
100
AcDbLine
 10
4.061011071051
 20
26.806606253358
 30
0.0
 11
75.061011071051
 21
26.806606253358
 31
0.0
  0
LINE
  5
29C5
330
29BF
100
AcDbEntity
  8
図枠細線
  6
CONTINUOUS
100
AcDbLine
 10
4.061011071051
 20
16.806608253358
 30
0.0
 11
75.061011071051
 21
16.806608253358
 31
0.0
  0
TEXT
  5
29C6
330
29BF
100
AcDbEntity
  8
図枠細線
  6
CONTINUOUS
 62
   252
100
AcDbText
 10
76.405475827713
 20
9.560308253358
 30
0.0
 40
2.0
  1
ＴＨＩＲＤ　ＡＮＧＬＥ
 41
0.691099486738
  7
EXCADSTD
 72
     5
 11
94.005476089973
 21
9.560308253358
 31
0.0
100
AcDbText
  0
TEXT
  5
29C7
330
29BF
100
AcDbEntity
  8
図枠細線
  6
CONTINUOUS
 62
   252
100
AcDbText
 10
76.705775880921
 20
14.306608253358
 30
0.0
 40
2.0
  1
第三角法
 41
1.102941176471
  7
EXCADSTD
 72
     5
 11
86.705775880921
 21
14.306608253358
 31
0.0
100
AcDbText
  0
TEXT
  5
29C8
330
29BF
100
AcDbEntity
  8
図枠細線
  6
CONTINUOUS
 62
   252
100
AcDbText
 10
76.705775880921
 20
26.806608253358
 30
0.0
 40
2.0
  1
ＡＰＰＲＯＶＥＤ
 41
0.695652184279
  7
EXCADSTD
 72
     5
 11
89.505776071656
 21
26.806608253358
 31
0.0
100
AcDbText
  0
TEXT
  5
29C9
330
29BF
100
AcDbEntity
  8
図枠細線
  6
CONTINUOUS
 62
   252
100
AcDbText
 10
76.705775880921
 20
29.306608253358
 30
0.0
 40
2.0
  1
承認
 41
1.171875
  7
EXCADSTD
 72
     5
 11
81.705775880921
 21
29.306608253358
 31
0.0
100
AcDbText
  0
LINE
  5
29CA
330
29BF
100
AcDbEntity
  8
図枠細線
  6
CONTINUOUS
 62
   252
100
AcDbLine
 10
98.061011071051
 20
31.806606253358
 30
0.0
 11
98.061011071051
 21
16.806606253358
 31
0.0
  0
TEXT
  5
29CB
330
29BF
100
AcDbEntity
  8
図枠細線
  6
CONTINUOUS
 62
   252
100
AcDbText
 10
104.216531119804
 20
14.306608253358
 30
0.0
 40
2.0
  1
ＳＣＡＬＥ
 41
0.903614457831
  7
EXCADSTD
 72
     5
 11
114.216531119804
 21
14.306608253358
 31
0.0
100
AcDbText
  0
TEXT
  5
29CC
330
29BF
100
AcDbEntity
  8
図枠細線
  6
CONTINUOUS
 62
   252
100
AcDbText
 10
98.844044119804
 20
14.306608253358
 30
0.0
 40
2.0
  1
尺度
 41
1.171875
  7
EXCADSTD
 72
     5
 11
103.844044119804
 21
14.306608253358
 31
0.0
100
AcDbText
  0
TEXT
  5
29CD
330
29BF
100
AcDbEntity
  8
図枠細線
  6
CONTINUOUS
 62
   252
100
AcDbText
 10
98.968727707497
 20
26.806608253358
 30
0.0
 40
2.0
  1
ＣＨＥＣＫＥＤ
 41
0.831249989569
  7
EXCADSTD
 72
     5
 11
112.268727540604
 21
26.806608253358
 31
0.0
100
AcDbText
  0
TEXT
  5
29CE
330
29BF
100
AcDbEntity
  8
図枠細線
  6
CONTINUOUS
 62
   252
100
AcDbText
 10
98.968727707497
 20
29.306608253358
 30
0.0
 40
2.0
  1
検図
 41
1.209677419355
  7
EXCADSTD
 72
     5
 11
103.968727707497
 21
29.306608253358
 31
0.0
100
AcDbText
  0
LINE
  5
29CF
330
29BF
100
AcDbEntity
  8
図枠細線
  6
CONTINUOUS
 62
   252
100
AcDbLine
 10
121.061011071051
 20
31.806606253358
 30
0.0
 11
121.061011071051
 21
16.806606253358
 31
0.0
  0
TEXT
  5
29D0
330
29BF
100
AcDbEntity
  8
図枠細線
  6
CONTINUOUS
 62
   252
100
AcDbText
 10
128.001465247253
 20
14.306608253358
 30
0.0
 40
2.0
  1
ＤＡＴＥ
 41
0.923076923077
  7
EXCADSTD
 72
     5
 11
136.001465247253
 21
14.306608253358
 31
0.0
100
AcDbText
  0
TEXT
  5
29D1
330
29BF
100
AcDbEntity
  8
図枠細線
  6
CONTINUOUS
 62
   252
100
AcDbText
 10
122.066415498841
 20
14.306608253358
 30
0.0
 40
2.0
  1
日付
 41
1.171875
  7
EXCADSTD
 72
     5
 11
127.066415498841
 21
14.306608253358
 31
0.0
100
AcDbText
  0
TEXT
  5
29D2
330
29BF
100
AcDbEntity
  8
図枠細線
  6
CONTINUOUS
 62
   252
100
AcDbText
 10
121.59429406571
 20
29.306608253358
 30
0.0
 40
2.0
  1
製図
 41
1.209677419355
  7
EXCADSTD
 72
     5
 11
126.59429406571
 21
29.306608253358
 31
0.0
100
AcDbText
  0
TEXT
  5
29D3
330
29BF
100
AcDbEntity
  8
図枠細線
  6
CONTINUOUS
 62
   252
100
AcDbText
 10
121.59429406571
 20
26.806608253358
 30
0.0
 40
2.0
  1
ＤＲＡＷＮ
 41
0.882352941176
  7
EXCADSTD
 72
     5
 11
131.59429406571
 21
26.806608253358
 31
0.0
100
AcDbText
  0
TEXT
  5
29D4
330
29BF
100
AcDbEntity
  8
図枠細線
  6
CONTINUOUS
 62
   252
100
AcDbText
 10
226.591229661348
 20
14.306608253358
 30
0.0
 40
2.0
  1
ＤＲＧ．ＮＯ．
 41
0.9375
  7
EXCADSTD
 72
     5
 11
240.591229661348
 21
14.306608253358
 31
0.0
100
AcDbText
  0
LINE
  5
29D5
330
29BF
100
AcDbEntity
  8
図枠太線
  6
CONTINUOUS
 62
   251
100
AcDbLine
 10
144.061003071051
 20
16.806606253358
 30
0.0
 11
214.061011071051
 21
16.806606253358
 31
0.0
  0
LINE
  5
29D6
330
29BF
100
AcDbEntity
  8
図枠細線
  6
CONTINUOUS
 62
   252
100
AcDbLine
 10
144.061011071051
 20
24.306606253358
 30
0.0
 11
214.061011071051
 21
24.306606253358
 31
0.0
  0
TEXT
  5
29D7
330
29BF
100
AcDbEntity
  8
図枠ロゴマーク
  6
CONTINUOUS
 62
   253
100
AcDbText
 10
146.433776781596
 20
8.399000253358
 30
0.0
 40
7.0
  1
東和制電工業株式会社
 41
0.80361088462
  7
EXCADSTD
 72
     5
 11
212.437017438349
 21
8.399000253358
 31
0.0
100
AcDbText
  0
TEXT
  5
29D8
330
29BF
100
AcDbEntity
  8
図枠細線
  6
CONTINUOUS
 62
   252
100
AcDbText
 10
215.156179912936
 20
14.306608253358
 30
0.0
 40
2.0
  1
図面番号
 41
1.102941176471
  7
EXCADSTD
 72
     5
 11
225.156179912936
 21
14.306608253358
 31
0.0
100
AcDbText
  0
TEXT
  5
29D9
330
29BF
100
AcDbEntity
  8
図枠細線
  6
CONTINUOUS
 62
   252
100
AcDbText
 10
221.591229661348
 20
29.306608253358
 30
0.0
 40
2.0
  1
ＴＩＴＬＥ
 41
0.903614457831
  7
EXCADSTD
 72
     5
 11
231.591229661348
 21
29.306608253358
 31
0.0
100
AcDbText
  0
TEXT
  5
29DA
330
29BF
100
AcDbEntity
  8
図枠細線
  6
CONTINUOUS
 62
   252
100
AcDbText
 10
215.156179912936
 20
29.306608253358
 30
0.0
 40
2.0
  1
名称
 41
1.171875
  7
EXCADSTD
 72
     5
 11
220.156179912936
 21
29.306608253358
 31
0.0
100
AcDbText
  0
LINE
  5
29DB
330
29BF
100
AcDbEntity
  8
図枠太線
  6
CONTINUOUS
 62
   251
100
AcDbLine
 10
4.061011071051
 20
1.806608253358
 30
0.0
 11
284.061011071051
 21
1.806608253358
 31
0.0
  0
LINE
  5
29DC
330
29BF
100
AcDbEntity
  8
図枠細線
  6
CONTINUOUS
 62
   252
100
AcDbLine
 10
4.061011071051
 20
6.806608253358
 30
0.0
 11
75.061011071051
 21
6.806608253358
 31
0.0
  0
LINE
  5
29DD
330
29BF
100
AcDbEntity
  8
図枠太線
  6
CONTINUOUS
 62
   251
100
AcDbLine
 10
75.061011071051
 20
1.806608253358
 30
0.0
 11
75.061011071051
 21
31.806606253358
 31
0.0
  0
TEXT
  5
29DE
330
29BF
100
AcDbEntity
  8
図枠細線
  6
CONTINUOUS
 62
   252
100
AcDbText
 10
76.330551827713
 20
6.638319253358
 30
0.0
 40
2.0
  1
ＰＲＯＪＥＣＴＩＯＮ
 41
0.754285710199
  7
EXCADSTD
 72
     5
 11
93.930551732346
 21
6.638319253358
 31
0.0
100
AcDbText
  0
LINE
  5
29DF
330
29BF
100
AcDbEntity
  8
図枠細線
  6
CONTINUOUS
 62
   252
100
AcDbLine
 10
98.061011071051
 20
1.806606931929
 30
0.0
 11
98.061011071051
 21
16.806604931929
 31
0.0
  0
LINE
  5
29E0
330
29BF
100
AcDbEntity
  8
図枠細線
  6
CONTINUOUS
 62
   252
100
AcDbLine
 10
121.061011071051
 20
1.806607574787
 30
0.0
 11
121.061011071051
 21
16.806605574787
 31
0.0
  0
LINE
  5
29E1
330
29BF
100
AcDbEntity
  8
図枠太線
  6
CONTINUOUS
 62
   251
100
AcDbLine
 10
284.061011071051
 20
1.806608253358
 30
0.0
 11
284.061011071051
 21
31.806606253358
 31
0.0
  0
LINE
  5
29E2
330
29BF
100
AcDbEntity
  8
図枠細線
  6
CONTINUOUS
 62
   252
100
AcDbLine
 10
214.061011071051
 20
16.806606253358
 30
0.0
 11
284.061011071051
 21
16.806606253358
 31
0.0
  0
TEXT
  5
29E3
330
29BF
100
AcDbEntity
  8
図枠細線
  6
CONTINUOUS
 62
   252
100
AcDbText
 10
146.199593676182
 20
3.454099253358
 30
0.0
 40
3.5
  1
ＴＯＷＡ　ＳＥＩＤＥＮ　ＩＮＤＵＳＴＲＩＡＬ　ＣＯ．，ＬＴＤ．
 41
0.528937826907
  7
EXCADSTD
 72
     5
 11
213.339435171588
 21
3.454099253358
 31
0.0
100
AcDbText
  0
LINE
  5
29E4
330
29BF
100
AcDbEntity
  8
図枠太線
  6
CONTINUOUS
 62
   251
100
AcDbLine
 10
144.061011071051
 20
1.806608253358
 30
0.0
 11
144.061011071051
 21
31.806606253358
 31
0.0
  0
LINE
  5
29E5
330
29BF
100
AcDbEntity
  8
図枠太線
  6
CONTINUOUS
 62
   251
100
AcDbLine
 10
214.061011071051
 20
1.806608253358
 30
0.0
 11
214.061011071051
 21
31.806606253358
 31
0.0
  0
MTEXT
  5
29E6
330
29BF
100
AcDbEntity
  8
図枠太線
100
AcDbMText
 10
5.064337346478
 20
31.010982137407
 30
0.0
 40
2.5
 41
8.67856098472
 71
     1
 72
     5
  1
{\Fmonotxt.shx,bigfont.shx|c128;図暦}
  0
LINE
  5
29E7
330
29BF
100
AcDbEntity
  8
図枠太線
  6
CONTINUOUS
 62
   251
100
AcDbLine
 10
4.061011071051
 20
1.806608253358
 30
0.0
 11
4.061011071051
 21
31.806606253358
 31
0.0
  0
TEXT
  5
29E8
330
29BF
100
AcDbEntity
  8
図枠細線
 48
10.0
100
AcDbText
 10
12.260817420402
 20
28.625419626495
 30
0.0
 40
2.0
  1
CHANGE NOTICE
100
AcDbText
  0
ENDBLK
  5
29E9
330
29BF
100
AcDbEntity
  8
0
100
AcDbBlockEnd
  0
BLOCK
  5
29F5
330
29F4
100
AcDbEntity
  8
0
100
AcDbBlockBegin
  2
A4縦用_タイトル
 70
     0
 10
0.0
 20
0.0
 30
0.0
  3
A4縦用_タイトル
  1

  0
LINE
  5
29F6
330
29F4
100
AcDbEntity
  8
図枠太線
  6
CONTINUOUS
 62
   251
100
AcDbLine
 10
2.368253864267
 20
4.525433224584
 30
0.0
 11
192.368245864267
 21
4.525433224584
 31
0.0
  0
LINE
  5
29F7
330
29F4
100
AcDbEntity
  8
図枠太線
  6
CONTINUOUS
 62
   251
100
AcDbLine
 10
78.368245864267
 20
19.525431224584
 30
0.0
 11
135.368253864267
 21
19.525431224584
 31
0.0
  0
LINE
  5
29F8
330
29F4
100
AcDbEntity
  8
図枠細線
  6
CONTINUOUS
 62
   252
100
AcDbLine
 10
78.368253864267
 20
27.025431224584
 30
0.0
 11
135.368253864267
 21
27.025431224584
 31
0.0
  0
TEXT
  5
29F9
330
29F4
100
AcDbEntity
  8
図枠ロゴマーク
  6
CONTINUOUS
 62
   253
100
AcDbText
 10
80.617009864267
 20
11.117825224584
 30
0.0
 40
7.0
  1
東和制電工業株式会社
 41
0.639204545455
  7
EXCADSTD
 72
     5
 11
133.117009864267
 21
11.117825224584
 31
0.0
100
AcDbText
  0
TEXT
  5
29FA
330
29F4
100
AcDbEntity
  8
図枠細線
  6
CONTINUOUS
 62
   252
100
AcDbText
 10
80.579549864267
 20
6.172924224584
 30
0.0
 40
3.5
  1
ＴＯＷＡ　ＳＥＩＤＥＮ　ＩＮＤＵＳＴＲＩＡＬ　ＣＯ．，ＬＴＤ．
 41
0.414568012377
  7
EXCADSTD
 72
     5
 11
133.202049568628
 21
6.172924224584
 31
0.0
100
AcDbText
  0
LINE
  5
29FB
330
29F4
100
AcDbEntity
  8
図枠太線
  6
CONTINUOUS
 62
   251
100
AcDbLine
 10
2.368253864267
 20
4.525433224584
 30
0.0
 11
2.368253864267
 21
34.525431224584
 31
0.0
  0
TEXT
  5
29FC
330
29F4
100
AcDbEntity
  8
図枠細線
  6
CONTINUOUS
 62
   252
100
AcDbText
 10
22.504308136501
 20
12.279133224584
 30
0.0
 40
2.0
  1
ＴＨＩＲＤ　ＡＮＧＬＥ
 41
0.691099486738
  7
EXCADSTD
 72
     5
 11
40.104308398762
 21
12.279133224584
 31
0.0
100
AcDbText
  0
TEXT
  5
29FD
330
29F4
100
AcDbEntity
  8
図枠細線
  6
CONTINUOUS
 62
   252
100
AcDbText
 10
22.429384136501
 20
9.357144224584
 30
0.0
 40
2.0
  1
ＰＲＯＪＥＣＴＩＯＮ
 41
0.754285710199
  7
EXCADSTD
 72
     5
 11
40.029384041134
 21
9.357144224584
 31
0.0
100
AcDbText
  0
LINE
  5
29FE
330
29F4
100
AcDbEntity
  8
図枠細線
  6
CONTINUOUS
100
AcDbLine
 10
22.368253864267
 20
19.525433224584
 30
0.0
 11
78.368253864267
 21
19.525431224584
 31
0.0
  0
TEXT
  5
29FF
330
29F4
100
AcDbEntity
  8
図枠細線
  6
CONTINUOUS
 62
   252
100
AcDbText
 10
22.868253864267
 20
17.025433224584
 30
0.0
 40
2.0
  1
第三角法
 41
1.102941176471
  7
EXCADSTD
 72
     5
 11
32.868253864267
 21
17.025433224584
 31
0.0
100
AcDbText
  0
TEXT
  5
2A00
330
29F4
100
AcDbEntity
  8
図枠細線
  6
CONTINUOUS
 62
   252
100
AcDbText
 10
22.868253864267
 20
29.525433224584
 30
0.0
 40
2.0
  1
ＡＰＰＲＯＶＥＤ
 41
0.695652184279
  7
EXCADSTD
 72
     5
 11
35.668254055002
 21
29.525433224584
 31
0.0
100
AcDbText
  0
LINE
  5
2A01
330
29F4
100
AcDbEntity
  8
図枠細線
  6
CONTINUOUS
 62
   252
100
AcDbLine
 10
2.368253864267
 20
9.525433224584
 30
0.0
 11
22.368253864267
 21
9.525433224584
 31
0.0
  0
LINE
  5
2A02
330
29F4
100
AcDbEntity
  8
図枠細線
  6
CONTINUOUS
 62
   252
100
AcDbLine
 10
2.368253864267
 20
14.525431224584
 30
0.0
 11
22.368253864267
 21
14.525431224584
 31
0.0
  0
LINE
  5
2A03
330
29F4
100
AcDbEntity
  8
図枠細線
  6
CONTINUOUS
 62
   252
100
AcDbLine
 10
2.368253864267
 20
24.525431224584
 30
0.0
 11
22.368253864267
 21
24.525431224584
 31
0.0
  0
LINE
  5
2A04
330
29F4
100
AcDbEntity
  8
図枠細線
  6
CONTINUOUS
 62
   252
100
AcDbLine
 10
2.368253864267
 20
29.525431224584
 30
0.0
 11
22.368253864267
 21
29.525431224584
 31
0.0
  0
LINE
  5
2A05
330
29F4
100
AcDbEntity
  8
図枠細線
  6
CONTINUOUS
100
AcDbLine
 10
2.368253864267
 20
19.525433224584
 30
0.0
 11
22.368253864267
 21
19.525433224584
 31
0.0
  0
TEXT
  5
2A06
330
29F4
100
AcDbEntity
  8
図枠細線
  6
CONTINUOUS
 62
   252
100
AcDbText
 10
2.868253864267
 20
32.025433224584
 30
0.0
 40
2.0
  1
ＮＯＴＥ
 41
0.923076923077
  7
EXCADSTD
 72
     5
 11
10.868253864267
 21
32.025433224584
 31
0.0
100
AcDbText
  0
LINE
  5
2A07
330
29F4
100
AcDbEntity
  8
図枠太線
  6
CONTINUOUS
 62
   251
100
AcDbLine
 10
22.368253864267
 20
4.525433224584
 30
0.0
 11
22.368253864267
 21
34.525431224584
 31
0.0
  0
TEXT
  5
2A08
330
29F4
100
AcDbEntity
  8
図枠細線
  6
CONTINUOUS
 62
   252
100
AcDbText
 10
22.868253864267
 20
32.025433224584
 30
0.0
 40
2.0
  1
承認
 41
1.171875
  7
EXCADSTD
 72
     5
 11
27.868253864267
 21
32.025433224584
 31
0.0
100
AcDbText
  0
TEXT
  5
2A09
330
29F4
100
AcDbEntity
  8
図枠細線
  6
CONTINUOUS
 62
   252
100
AcDbText
 10
60.711709035982
 20
32.025433224584
 30
0.0
 40
2.0
  1
製図
 41
1.209677419355
  7
EXCADSTD
 72
     5
 11
65.711709035982
 21
32.025433224584
 31
0.0
100
AcDbText
  0
TEXT
  5
2A0A
330
29F4
100
AcDbEntity
  8
図枠細線
  6
CONTINUOUS
 62
   252
100
AcDbText
 10
60.711709035982
 20
29.525433224584
 30
0.0
 40
2.0
  1
ＤＲＡＷＮ
 41
0.882352941176
  7
EXCADSTD
 72
     5
 11
70.711709035982
 21
29.525433224584
 31
0.0
100
AcDbText
  0
TEXT
  5
2A0B
330
29F4
100
AcDbEntity
  8
図枠細線
  6
CONTINUOUS
 62
   252
100
AcDbText
 10
60.834891743877
 20
17.025433224584
 30
0.0
 40
2.0
  1
日付
 41
1.171875
  7
EXCADSTD
 72
     5
 11
65.834891743877
 21
17.025433224584
 31
0.0
100
AcDbText
  0
TEXT
  5
2A0C
330
29F4
100
AcDbEntity
  8
図枠細線
  6
CONTINUOUS
 62
   252
100
AcDbText
 10
47.333660864267
 20
17.025433224584
 30
0.0
 40
2.0
  1
ＳＣＡＬＥ
 41
0.903614457831
  7
EXCADSTD
 72
     5
 11
57.333660864267
 21
17.025433224584
 31
0.0
100
AcDbText
  0
TEXT
  5
2A0D
330
29F4
100
AcDbEntity
  8
図枠細線
  6
CONTINUOUS
 62
   252
100
AcDbText
 10
42.281425990082
 20
29.525433224584
 30
0.0
 40
2.0
  1
ＣＨＥＣＫＥＤ
 41
0.831249989569
  7
EXCADSTD
 72
     5
 11
55.581425823189
 21
29.525433224584
 31
0.0
100
AcDbText
  0
LINE
  5
2A0E
330
29F4
100
AcDbEntity
  8
図枠細線
  6
CONTINUOUS
 62
   252
100
AcDbLine
 10
40.968253864267
 20
34.525431224584
 30
0.0
 11
40.968253864267
 21
19.525431224584
 31
0.0
  0
LINE
  5
2A0F
330
29F4
100
AcDbEntity
  8
図枠細線
  6
CONTINUOUS
 62
   252
100
AcDbLine
 10
40.968253864267
 20
4.525433224584
 30
0.0
 11
40.968253864267
 21
19.525431224584
 31
0.0
  0
TEXT
  5
2A10
330
29F4
100
AcDbEntity
  8
図枠細線
  6
CONTINUOUS
 62
   252
100
AcDbText
 10
41.961173864267
 20
17.025433224584
 30
0.0
 40
2.0
  1
尺度
 41
1.171875
  7
EXCADSTD
 72
     5
 11
46.961173864267
 21
17.025433224584
 31
0.0
100
AcDbText
  0
TEXT
  5
2A11
330
29F4
100
AcDbEntity
  8
図枠細線
  6
CONTINUOUS
 62
   252
100
AcDbText
 10
42.281425990082
 20
32.025433224584
 30
0.0
 40
2.0
  1
検図
 41
1.209677419355
  7
EXCADSTD
 72
     5
 11
47.281425990082
 21
32.025433224584
 31
0.0
100
AcDbText
  0
LINE
  5
2A12
330
29F4
100
AcDbEntity
  8
図枠細線
  6
CONTINUOUS
 62
   252
100
AcDbLine
 10
59.768253864267
 20
34.525431224584
 30
0.0
 11
59.768253864267
 21
19.525431224584
 31
0.0
  0
LINE
  5
2A13
330
29F4
100
AcDbEntity
  8
図枠細線
  6
CONTINUOUS
 62
   252
100
AcDbLine
 10
59.768253864267
 20
4.525433224584
 30
0.0
 11
59.768253864267
 21
19.525431224584
 31
0.0
  0
LINE
  5
2A14
330
29F4
100
AcDbEntity
  8
図枠太線
  6
CONTINUOUS
 62
   251
100
AcDbLine
 10
78.368253864267
 20
4.525433224584
 30
0.0
 11
78.368253864267
 21
34.525431224584
 31
0.0
  0
TEXT
  5
2A15
330
29F4
100
AcDbEntity
  8
図枠細線
  6
CONTINUOUS
 62
   252
100
AcDbText
 10
66.334891743877
 20
17.025433224584
 30
0.0
 40
2.0
  1
ＤＡＴＥ
 41
0.923076923077
  7
EXCADSTD
 72
     5
 11
74.334891743877
 21
17.025433224584
 31
0.0
100
AcDbText
  0
LINE
  5
2A16
330
29F4
100
AcDbEntity
  8
図枠細線
  6
CONTINUOUS
 62
   252
100
AcDbLine
 10
135.368253864267
 20
19.525431224584
 30
0.0
 11
192.368245864267
 21
19.525431224584
 31
0.0
  0
TEXT
  5
2A17
330
29F4
100
AcDbEntity
  8
図枠細線
  6
CONTINUOUS
 62
   252
100
AcDbText
 10
141.868253864267
 20
32.025433224584
 30
0.0
 40
2.0
  1
ＴＩＴＬＥ
 41
0.903614457831
  7
EXCADSTD
 72
     5
 11
151.868253864267
 21
32.025433224584
 31
0.0
100
AcDbText
  0
LINE
  5
2A18
330
29F4
100
AcDbEntity
  8
図枠太線
  6
CONTINUOUS
 62
   251
100
AcDbLine
 10
135.368253864267
 20
4.525433224584
 30
0.0
 11
135.368253864267
 21
34.525431224584
 31
0.0
  0
TEXT
  5
2A19
330
29F4
100
AcDbEntity
  8
図枠細線
  6
CONTINUOUS
 62
   252
100
AcDbText
 10
135.868253864267
 20
17.025433224584
 30
0.0
 40
2.0
  1
図面番号
 41
1.102941176471
  7
EXCADSTD
 72
     5
 11
145.868253864267
 21
17.025433224584
 31
0.0
100
AcDbText
  0
TEXT
  5
2A1A
330
29F4
100
AcDbEntity
  8
図枠細線
  6
CONTINUOUS
 62
   252
100
AcDbText
 10
135.868253864267
 20
32.025433224584
 30
0.0
 40
2.0
  1
名称
 41
1.171875
  7
EXCADSTD
 72
     5
 11
140.868253864267
 21
32.025433224584
 31
0.0
100
AcDbText
  0
TEXT
  5
2A1B
330
29F4
100
AcDbEntity
  8
図枠細線
  6
CONTINUOUS
 62
   252
100
AcDbText
 10
146.868253864267
 20
17.025433224584
 30
0.0
 40
2.0
  1
ＤＲＧ．ＮＯ．
 41
0.9375
  7
EXCADSTD
 72
     5
 11
160.868253864267
 21
17.025433224584
 31
0.0
100
AcDbText
  0
LINE
  5
2A1C
330
29F4
100
AcDbEntity
  8
図枠太線
  6
CONTINUOUS
 62
   251
100
AcDbLine
 10
192.368245864267
 20
4.525433224584
 30
0.0
 11
192.368245864267
 21
34.525431224584
 31
0.0
  0
ENDBLK
  5
2A1D
330
29F4
100
AcDbEntity
  8
0
100
AcDbBlockEnd
  0
BLOCK
  5
2A33
330
2A32
100
AcDbEntity
  8
0
100
AcDbBlockBegin
  2
A3横用_タイトル
 70
     0
 10
0.0
 20
0.0
 30
0.0
  3
A3横用_タイトル
  1

  0
LINE
  5
2A34
330
2A32
100
AcDbEntity
  8
図枠細線
  6
CONTINUOUS
 62
   252
100
AcDbLine
 10
205.098414535793
 20
33.525959753527
 30
0.0
 11
305.098414535793
 21
33.525959753527
 31
0.0
  0
LINE
  5
2A35
330
2A32
100
AcDbEntity
  8
図枠太線
  6
CONTINUOUS
 62
   251
100
AcDbLine
 10
205.098414535793
 20
23.525959753527
 30
0.0
 11
305.098414535793
 21
23.525959753527
 31
0.0
  0
LINE
  5
2A36
330
2A32
100
AcDbEntity
  8
図枠細線
  6
CONTINUOUS
100
AcDbLine
 10
5.098414535793
 20
23.525959753527
 30
0.0
 11
105.098414535793
 21
23.525959753527
 31
0.0
  0
LINE
  5
2A37
330
2A32
100
AcDbEntity
  8
図枠細線
  6
CONTINUOUS
 62
   252
100
AcDbLine
 10
5.098414535793
 20
36.725957753527
 30
0.0
 11
105.098414535793
 21
36.725957753527
 31
0.0
  0
LINE
  5
2A38
330
2A32
100
AcDbEntity
  8
図枠細線
  6
CONTINUOUS
 62
   252
100
AcDbLine
 10
5.098414535793
 20
30.125957753527
 30
0.0
 11
105.098414535793
 21
30.125957753527
 31
0.0
  0
LINE
  5
2A39
330
2A32
100
AcDbEntity
  8
図枠細線
  6
CONTINUOUS
 62
   252
100
AcDbLine
 10
5.098414535793
 20
16.725959753527
 30
0.0
 11
105.098414535793
 21
16.725959753527
 31
0.0
  0
LINE
  5
2A3A
330
2A32
100
AcDbEntity
  8
図枠細線
  6
CONTINUOUS
 62
   252
100
AcDbLine
 10
5.098414535793
 20
10.125959753527
 30
0.0
 11
105.098414535793
 21
10.125959753527
 31
0.0
  0
LINE
  5
2A3B
330
2A32
100
AcDbEntity
  8
図枠細線
  6
CONTINUOUS
100
AcDbLine
 10
105.098414535793
 20
23.525961753527
 30
0.0
 11
205.098414535793
 21
23.525959753527
 31
0.0
  0
LINE
  5
2A3C
330
2A32
100
AcDbEntity
  8
図枠細線
  6
CONTINUOUS
 62
   252
100
AcDbLine
 10
138.398414535793
 20
43.525959753527
 30
0.0
 11
138.398414535793
 21
18.525957753527
 31
0.0
  0
LINE
  5
2A3D
330
2A32
100
AcDbEntity
  8
図枠細線
  6
CONTINUOUS
 62
   252
100
AcDbLine
 10
171.698414535793
 20
43.525959753527
 30
0.0
 11
171.698414535793
 21
18.525957753527
 31
0.0
  0
LINE
  5
2A3E
330
2A32
100
AcDbEntity
  8
図枠細線
  6
CONTINUOUS
 62
   252
100
AcDbLine
 10
305.098414535793
 20
23.525959753527
 30
0.0
 11
405.098414535793
 21
23.525959753527
 31
0.0
  0
TEXT
  5
2A3F
330
2A32
100
AcDbEntity
  8
図枠ロゴマーク
  6
CONTINUOUS
 62
   253
100
AcDbText
 10
206.102509212755
 20
13.294257570546
 30
0.0
 40
7.0
  1
東和制電工業株式会社
 50
0.016555220185
 41
1.186384129432
  7
EXCADSTD
 72
     5
 11
303.544188309143
 21
13.322412672217
 31
0.0
100
AcDbText
  0
MTEXT
  5
2A40
330
2A32
100
AcDbEntity
  8
図枠細線
100
AcDbMText
 10
6.356764112375
 20
41.976594175478
 30
0.0
 40
2.5
 41
49.938282706292
 71
     1
 72
     5
  1
{\Fmonotxt.shx,bigfont.shx|c128;図暦　CHANGE　NOTICE}
  0
MTEXT
  5
2A41
330
2A32
100
AcDbEntity
  8
図枠細線
 48
10.0
100
AcDbMText
 10
306.544114926828
 20
41.701835800934
 30
0.0
 40
2.5
 41
28.002809618823
 71
     1
 72
     5
  1
{\Fmonotxt.shx,bigfont.shx|c128;名称　TITLE}
  0
MTEXT
  5
2A42
330
2A32
100
AcDbEntity
  8
図枠細線
 48
10.0
100
AcDbMText
 10
307.329617114284
 20
21.606206797226
 30
0.0
 40
2.5
 41
24.385612216707
 71
     1
 72
     5
  1
{\Fmonotxt.shx,bigfont.shx|c128;図面番号\PDRG.　No.}
  0
MTEXT
  5
2A43
330
2A32
100
AcDbEntity
  8
図枠細線
 48
10.0
100
AcDbMText
 10
173.726349404609
 20
21.73680662198
 30
0.0
 40
2.5
 41
25.735090160813
 71
     1
 72
     5
  1
{\Fmonotxt.shx,bigfont.shx|c128;日付 DATE}
  0
MTEXT
  5
2A44
330
2A32
100
AcDbEntity
  8
図枠細線
 48
10.0
100
AcDbMText
 10
173.48708833982
 20
41.621592044998
 30
0.0
 40
2.5
 41
24.983741184205
 71
     1
 72
     5
  1
{\Fmonotxt.shx,bigfont.shx|c128;製図　DRAWN}
  0
MTEXT
  5
2A45
330
2A32
100
AcDbEntity
  8
図枠細線
 48
10.0
100
AcDbMText
 10
139.28009927741
 20
21.866713069868
 30
0.0
 40
2.5
 41
22.629632913243
 71
     1
 72
     5
  1
{\Fmonotxt.shx,bigfont.shx|c128;尺度　SCALE}
  0
MTEXT
  5
2A46
330
2A32
100
AcDbEntity
  8
図枠細線
 48
10.0
100
AcDbMText
 10
139.910091179835
 20
41.311840415554
 30
0.0
 40
2.5
 41
28.998753428368
 71
     1
 72
     5
  1
{\Fmonotxt.shx,bigfont.shx|c128;検図  CHECKED}
  0
MTEXT
  5
2A47
330
2A32
100
AcDbEntity
  8
図枠細線
 48
10.0
100
AcDbMText
 10
114.253294667728
 20
21.916124850174
 30
0.0
 40
3.0
 41
19.692400475383
 71
     1
 72
     5
  1
{\Fmonotxt.shx,bigfont.shx|c128;第三角法}
  0
MTEXT
  5
2A48
330
2A32
100
AcDbEntity
  8
図枠細線
 48
10.0
100
AcDbMText
 10
108.986959929915
 20
15.282880185837
 30
0.0
 40
2.5
 41
27.954882823547
 71
     1
 72
     5
  1
{\Fmonotxt.shx,bigfont.shx|c128;THIRD ANGLE\PPROJECTION}
  0
MTEXT
  5
2A49
330
2A32
100
AcDbEntity
  8
図枠細線
 48
10.0
100
AcDbMText
 10
106.319432640184
 20
41.511437145487
 30
0.0
 40
2.5
 41
28.233595265074
 71
     1
 72
     5
  1
{\Fmonotxt.shx,bigfont.shx|c128;承認 APPROVED}
  0
LINE
  5
2A4A
330
2A32
100
AcDbEntity
  8
図枠太線
  6
CONTINUOUS
 62
   251
100
AcDbLine
 10
5.098414535793
 20
3.525959753527
 30
0.0
 11
405.098414535793
 21
3.525959753527
 31
0.0
  0
LINE
  5
2A4B
330
2A32
100
AcDbEntity
  8
図枠太線
 48
10.0
100
AcDbLine
 10
5.098414535793
 20
3.525959753527
 30
0.0
 11
5.098414535793
 21
43.525959753527
 31
0.0
  0
LINE
  5
2A4C
330
2A32
100
AcDbEntity
  8
図枠太線
  6
CONTINUOUS
 62
   251
100
AcDbLine
 10
105.098414535793
 20
3.525959753527
 30
0.0
 11
105.098414535793
 21
43.525959753527
 31
0.0
  0
LINE
  5
2A4D
330
2A32
100
AcDbEntity
  8
図枠細線
  6
CONTINUOUS
 62
   252
100
AcDbLine
 10
138.398414535793
 20
3.525959753527
 30
0.0
 11
138.398414535793
 21
18.525957753527
 31
0.0
  0
LINE
  5
2A4E
330
2A32
100
AcDbEntity
  8
図枠細線
  6
CONTINUOUS
 62
   252
100
AcDbLine
 10
171.698414535793
 20
3.525959753527
 30
0.0
 11
171.698414535793
 21
18.525957753527
 31
0.0
  0
LINE
  5
2A4F
330
2A32
100
AcDbEntity
  8
図枠太線
  6
CONTINUOUS
 62
   251
100
AcDbLine
 10
205.098414535793
 20
3.525959753527
 30
0.0
 11
205.098414535793
 21
43.525959753527
 31
0.0
  0
LINE
  5
2A50
330
2A32
100
AcDbEntity
  8
図枠太線
 48
10.0
100
AcDbLine
 10
405.098414535793
 20
43.525959753527
 30
0.0
 11
405.098414535793
 21
3.525959753527
 31
0.0
  0
TEXT
  5
2A51
330
2A32
100
AcDbEntity
  8
図枠細線
  6
CONTINUOUS
 62
   252
100
AcDbText
 10
208.519754474572
 20
6.482358407285
 30
0.0
 40
3.5
  1
ＴＯＷＡ　ＳＥＩＤＥＮ　ＩＮＤＵＳＴＲＩＡＬ　ＣＯ．，ＬＴＤ．
 41
0.746656297509
  7
EXCADSTD
 72
     5
 11
303.295327171727
 21
6.482358407285
 31
0.0
100
AcDbText
  0
LINE
  5
2A52
330
2A32
100
AcDbEntity
  8
図枠太線
  6
CONTINUOUS
 62
   251
100
AcDbLine
 10
305.098414535793
 20
3.525959753527
 30
0.0
 11
305.098414535793
 21
43.525959753527
 31
0.0
  0
ENDBLK
  5
2A53
330
2A32
100
AcDbEntity
  8
0
100
AcDbBlockEnd
  0
BLOCK
  5
2A6D
330
2A6C
100
AcDbEntity
  8
0
100
AcDbBlockBegin
  2
A3縦用_タイトル
 70
     0
 10
0.0
 20
0.0
 30
0.0
  3
A3縦用_タイトル
  1

  0
MTEXT
  5
2A6E
330
2A6C
100
AcDbEntity
  8
図枠細線
100
AcDbMText
 10
5.040804501593
 20
31.626098649005
 30
0.0
 40
2.5
 41
49.938282706292
 71
     1
 72
     5
  1
{\Fmonotxt.shx,bigfont.shx|c128;図暦　CHANGE　NOTICE}
  0
LINE
  5
2A6F
330
2A6C
100
AcDbEntity
  8
図枠太線
  6
CONTINUOUS
 62
   251
100
AcDbLine
 10
283.577871882961
 20
2.820844689254
 30
0.0
 11
283.577871882961
 21
32.820842689254
 31
0.0
  0
MTEXT
  5
2A70
330
2A6C
100
AcDbEntity
  8
図枠細線
 48
10.0
100
AcDbMText
 10
214.912458947454
 20
31.621488632308
 30
0.0
 40
2.5
 41
28.002809618823
 71
     1
 72
     5
  1
{\Fmonotxt.shx,bigfont.shx|c128;名称　TITLE}
  0
MTEXT
  5
2A71
330
2A6C
100
AcDbEntity
  8
図枠細線
 48
10.0
100
AcDbMText
 10
214.740030458938
 20
16.310225796722
 30
0.0
 40
2.5
 41
24.385612216707
 71
     1
 72
     5
  1
{\Fmonotxt.shx,bigfont.shx|c128;図面番号\PDRG.　No.}
  0
LINE
  5
2A72
330
2A6C
100
AcDbEntity
  8
図枠太線
  6
CONTINUOUS
 62
   251
100
AcDbLine
 10
213.577871882961
 20
2.820844689254
 30
0.0
 11
213.577871882961
 21
32.820842689254
 31
0.0
  0
LINE
  5
2A73
330
2A6C
100
AcDbEntity
  8
図枠太線
  6
CONTINUOUS
 62
   251
100
AcDbLine
 10
143.577871882961
 20
2.820844689254
 30
0.0
 11
143.577871882961
 21
32.820842689254
 31
0.0
  0
TEXT
  5
2A74
330
2A6C
100
AcDbEntity
  8
図枠細線
  6
CONTINUOUS
 62
   252
100
AcDbText
 10
145.716454488093
 20
4.468335689254
 30
0.0
 40
3.5
  1
ＴＯＷＡ　ＳＥＩＤＥＮ　ＩＮＤＵＳＴＲＩＡＬ　ＣＯ．，ＬＴＤ．
 41
0.528937826907
  7
EXCADSTD
 72
     5
 11
212.856295983498
 21
4.468335689254
 31
0.0
100
AcDbText
  0
TEXT
  5
2A75
330
2A6C
100
AcDbEntity
  8
図枠ロゴマーク
  6
CONTINUOUS
 62
   253
100
AcDbText
 10
145.950637593507
 20
9.413236689254
 30
0.0
 40
7.0
  1
東和制電工業株式会社
 41
0.80361088462
  7
EXCADSTD
 72
     5
 11
211.953878250259
 21
9.413236689254
 31
0.0
100
AcDbText
  0
LINE
  5
2A76
330
2A6C
100
AcDbEntity
  8
図枠細線
  6
CONTINUOUS
 62
   252
100
AcDbLine
 10
143.577871882961
 20
25.320842689254
 30
0.0
 11
213.577871882961
 21
25.320842689254
 31
0.0
  0
LINE
  5
2A77
330
2A6C
100
AcDbEntity
  8
図枠太線
  6
CONTINUOUS
 62
   251
100
AcDbLine
 10
143.577863882961
 20
17.820842689254
 30
0.0
 11
213.577871882961
 21
17.820842689254
 31
0.0
  0
LINE
  5
2A78
330
2A6C
100
AcDbEntity
  8
図枠細線
  6
CONTINUOUS
 62
   252
100
AcDbLine
 10
213.577871882961
 20
17.820842689254
 30
0.0
 11
283.577871882961
 21
17.820842689254
 31
0.0
  0
LINE
  5
2A79
330
2A6C
100
AcDbEntity
  8
図枠細線
  6
CONTINUOUS
 62
   252
100
AcDbLine
 10
120.577871882961
 20
32.820842689254
 30
0.0
 11
120.577871882961
 21
17.820842689254
 31
0.0
  0
MTEXT
  5
2A7A
330
2A6C
100
AcDbEntity
  8
図枠細線
 48
10.0
100
AcDbMText
 10
121.100885670352
 20
16.33785922638
 30
0.0
 40
2.0
 41
17.705978285068
 71
     1
 72
     5
  1
{\Fmonotxt.shx,bigfont.shx|c128;日付 DATE}
  0
MTEXT
  5
2A7B
330
2A6C
100
AcDbEntity
  8
図枠細線
 48
10.0
100
AcDbMText
 10
121.254842273491
 20
31.208993514037
 30
0.0
 40
2.0
 41
18.363799568758
 71
     1
 72
     5
  1
{\Fmonotxt.shx,bigfont.shx|c128;製図　DRAWN}
  0
LINE
  5
2A7C
330
2A6C
100
AcDbEntity
  8
図枠細線
  6
CONTINUOUS
 62
   252
100
AcDbLine
 10
97.577871882961
 20
32.820842689254
 30
0.0
 11
97.577871882961
 21
17.820842689254
 31
0.0
  0
MTEXT
  5
2A7D
330
2A6C
100
AcDbEntity
  8
図枠細線
 48
10.0
100
AcDbMText
 10
98.239734796872
 20
16.467764839281
 30
0.0
 40
2.0
 41
17.757791689903
 71
     1
 72
     5
  1
{\Fmonotxt.shx,bigfont.shx|c128;尺度　SCALE}
  0
MTEXT
  5
2A7E
330
2A6C
100
AcDbEntity
  8
図枠細線
 48
10.0
100
AcDbMText
 10
97.864744625154
 20
31.298433377664
 30
0.0
 40
2.0
 41
23.162655920976
 71
     1
 72
     5
  1
{\Fmonotxt.shx,bigfont.shx|c128;検図  CHECKED}
  0
LINE
  5
2A7F
330
2A6C
100
AcDbEntity
  8
図枠細線
  6
CONTINUOUS
 62
   252
100
AcDbLine
 10
97.577871882961
 20
2.820843367826
 30
0.0
 11
97.577871882961
 21
17.820841367826
 31
0.0
  0
LINE
  5
2A80
330
2A6C
100
AcDbEntity
  8
図枠細線
  6
CONTINUOUS
 62
   252
100
AcDbLine
 10
120.577871882961
 20
2.820844010683
 30
0.0
 11
120.577871882961
 21
17.820842010683
 31
0.0
  0
MTEXT
  5
2A81
330
2A6C
100
AcDbEntity
  8
図枠細線
 48
10.0
100
AcDbMText
 10
81.402399084102
 20
16.316484117426
 30
0.0
 40
2.0
 41
12.920322819369
 71
     1
 72
     5
  1
{\Fmonotxt.shx,bigfont.shx|c128;第三角法}
  0
MTEXT
  5
2A82
330
2A6C
100
AcDbEntity
  8
図枠細線
 48
10.0
100
AcDbMText
 10
75.736576535096
 20
11.080410931319
 30
0.0
 40
2.0
 41
21.072870671471
 71
     1
 72
     5
  1
{\Fmonotxt.shx,bigfont.shx|c128;THIRD ANGLE\PPROJECTION}
  0
LINE
  5
2A83
330
2A6C
100
AcDbEntity
  8
図枠太線
  6
CONTINUOUS
 62
   251
100
AcDbLine
 10
74.577871882961
 20
2.820844689254
 30
0.0
 11
74.577871882961
 21
32.820842689254
 31
0.0
  0
MTEXT
  5
2A84
330
2A6C
100
AcDbEntity
  8
図枠細線
 48
10.0
100
AcDbMText
 10
75.060214781573
 20
31.298434778555
 30
0.0
 40
2.0
 41
22.240928805967
 71
     1
 72
     5
  1
{\Fmonotxt.shx,bigfont.shx|c128;承認 APPROVED}
  0
LINE
  5
2A85
330
2A6C
100
AcDbEntity
  8
図枠細線
  6
CONTINUOUS
100
AcDbLine
 10
3.577871882961
 20
17.820844689254
 30
0.0
 11
74.577871882961
 21
17.820844689254
 31
0.0
  0
LINE
  5
2A86
330
2A6C
100
AcDbEntity
  8
図枠細線
  6
CONTINUOUS
 62
   252
100
AcDbLine
 10
3.577871882961
 20
27.820842689254
 30
0.0
 11
74.577871882961
 21
27.820842689254
 31
0.0
  0
LINE
  5
2A87
330
2A6C
100
AcDbEntity
  8
図枠細線
  6
CONTINUOUS
 62
   252
100
AcDbLine
 10
3.577871882961
 20
22.820842689254
 30
0.0
 11
74.577871882961
 21
22.820842689254
 31
0.0
  0
LINE
  5
2A88
330
2A6C
100
AcDbEntity
  8
図枠細線
  6
CONTINUOUS
 62
   252
100
AcDbLine
 10
3.577871882961
 20
12.820842689254
 30
0.0
 11
74.577871882961
 21
12.820842689254
 31
0.0
  0
LINE
  5
2A89
330
2A6C
100
AcDbEntity
  8
図枠細線
  6
CONTINUOUS
 62
   252
100
AcDbLine
 10
3.577871882961
 20
7.820844689254
 30
0.0
 11
74.577871882961
 21
7.820844689254
 31
0.0
  0
LINE
  5
2A8A
330
2A6C
100
AcDbEntity
  8
図枠細線
  6
CONTINUOUS
100
AcDbLine
 10
74.577871882961
 20
17.820843689254
 30
0.0
 11
143.577871882961
 21
17.820841224969
 31
0.0
  0
LINE
  5
2A8B
330
2A6C
100
AcDbEntity
  8
図枠太線
  6
CONTINUOUS
 62
   251
100
AcDbLine
 10
3.577871882961
 20
2.820844689254
 30
0.0
 11
283.577871882961
 21
2.820844689254
 31
0.0
  0
LINE
  5
2A8C
330
2A6C
100
AcDbEntity
  8
図枠太線
  6
CONTINUOUS
 62
   251
100
AcDbLine
 10
3.577871882961
 20
2.820844689254
 30
0.0
 11
3.577871882961
 21
32.820842689254
 31
0.0
  0
ENDBLK
  5
2A8D
330
2A6C
100
AcDbEntity
  8
0
100
AcDbBlockEnd
  0
BLOCK
  5
2AF8
330
2AF4
100
AcDbEntity
  8
0
 48
10.0
100
AcDbBlockBegin
  2
_OPEN30
 70
     0
 10
0.0
 20
0.0
 30
0.0
  3
_OPEN30
  1

  0
LINE
  5
2AF5
330
2AF4
100
AcDbEntity
  8
0
  6
BYBLOCK
 62
     0
100
AcDbLine
 10
-1.0
 20
0.26794919
 30
0.0
 11
0.0
 21
0.0
 31
0.0
  0
LINE
  5
2AF6
330
2AF4
100
AcDbEntity
  8
0
  6
BYBLOCK
 62
     0
100
AcDbLine
 10
0.0
 20
0.0
 30
0.0
 11
-1.0
 21
-0.26794919
 31
0.0
  0
LINE
  5
2AF7
330
2AF4
100
AcDbEntity
  8
0
  6
BYBLOCK
 62
     0
100
AcDbLine
 10
0.0
 20
0.0
 30
0.0
 11
-1.0
 21
0.0
 31
0.0
  0
ENDBLK
  5
2AF9
330
2AF4
100
AcDbEntity
  8
0
 48
10.0
100
AcDbBlockEnd
  0
BLOCK
  5
403F
330
4035
100
AcDbEntity
  8
0
 48
10.0
100
AcDbBlockBegin
  2
*D13
 70
     1
 10
0.0
 20
0.0
 30
0.0
  3
*D13
  1

  0
LINE
  5
4334
330
4035
100
AcDbEntity
  8
寸法線
 62
     0
 48
10.0
100
AcDbLine
 10
351.554355112404
 20
377.451465223134
 30
0.0
 11
351.554355112404
 21
299.266465075604
 31
0.0
  0
LINE
  5
4335
330
4035
100
AcDbEntity
  8
寸法線
 62
     0
 48
10.0
100
AcDbLine
 10
371.554355112404
 20
377.391465223134
 30
0.0
 11
371.554355112404
 21
299.266465075604
 31
0.0
  0
LINE
  5
4336
330
4035
100
AcDbEntity
  8
寸法線
 62
     0
 48
10.0
100
AcDbLine
 10
357.554355112404
 20
300.516465075604
 30
0.0
 11
365.554355112404
 21
300.516465075604
 31
0.0
  0
INSERT
  5
4337
330
4035
100
AcDbEntity
  8
寸法線
 62
     0
 48
10.0
100
AcDbBlockReference
  2
_OPEN30
 10
351.554355112404
 20
300.516465075604
 30
0.0
 41
6.0
 42
6.0
 43
6.0
 50
180.0
  0
INSERT
  5
4338
330
4035
100
AcDbEntity
  8
寸法線
 62
     0
 48
10.0
100
AcDbBlockReference
  2
_OPEN30
 10
371.554355112404
 20
300.516465075604
 30
0.0
 41
6.0
 42
6.0
 43
6.0
  0
MTEXT
  5
4339
330
4035
100
AcDbEntity
  8
寸法線
 62
     0
 48
10.0
100
AcDbMText
 10
361.554355112404
 20
305.142252477179
 30
0.0
 40
8.0
 41
0.0
 71
     5
 72
     1
  1
\A1;20
  0
POINT
  5
433A
330
4035
100
AcDbEntity
  8
DEFPOINTS
 62
     0
 48
10.0
100
AcDbPoint
 10
351.554355112404
 20
378.076465223134
 30
0.0
  0
POINT
  5
433B
330
4035
100
AcDbEntity
  8
DEFPOINTS
 62
     0
 48
10.0
100
AcDbPoint
 10
371.554355112404
 20
378.016465223134
 30
0.0
  0
POINT
  5
433C
330
4035
100
AcDbEntity
  8
DEFPOINTS
 62
     0
 48
10.0
100
AcDbPoint
 10
371.554355112404
 20
300.516465075604
 30
0.0
  0
ENDBLK
  5
4040
330
4035
100
AcDbEntity
  8
0
 48
10.0
100
AcDbBlockEnd
  0
BLOCK
  5
412E
330
4124
100
AcDbEntity
  8
0
 48
10.0
100
AcDbBlockBegin
  2
*D14
 70
     1
 10
0.0
 20
0.0
 30
0.0
  3
*D14
  1

  0
LINE
  5
432B
330
4124
100
AcDbEntity
  8
寸法線
 62
     0
 48
10.0
100
AcDbLine
 10
427.302393822536
 20
436.016502334809
 30
0.0
 11
485.540886856132
 21
436.016502334809
 31
0.0
  0
LINE
  5
432C
330
4124
100
AcDbEntity
  8
寸法線
 62
     0
 48
10.0
100
AcDbLine
 10
447.821355112404
 20
351.016465223133
 30
0.0
 11
485.540886856131
 21
351.016465223133
 31
0.0
  0
LINE
  5
432D
330
4124
100
AcDbEntity
  8
寸法線
 62
     0
 48
10.0
100
AcDbLine
 10
484.290886856132
 20
430.016502334809
 30
0.0
 11
484.290886856131
 21
357.016465223133
 31
0.0
  0
INSERT
  5
432E
330
4124
100
AcDbEntity
  8
寸法線
 62
     0
 48
10.0
100
AcDbBlockReference
  2
_OPEN30
 10
484.290886856132
 20
436.016502334809
 30
0.0
 41
6.0
 42
6.0
 43
6.0
 50
90.0
  0
INSERT
  5
432F
330
4124
100
AcDbEntity
  8
寸法線
 62
     0
 48
10.0
100
AcDbBlockReference
  2
_OPEN30
 10
484.290886856131
 20
351.016465223133
 30
0.0
 41
6.0
 42
6.0
 43
6.0
 50
270.0
  0
MTEXT
  5
4330
330
4124
100
AcDbEntity
  8
寸法線
 62
     0
 48
10.0
100
AcDbMText
 10
479.665886856131
 20
393.516483778971
 30
0.0
 40
8.0
 41
0.0
 71
     5
 72
     1
  1
\A1;85
 11
6.123031769111886E-17
 21
1.0
 31
0.0
  0
POINT
  5
4331
330
4124
100
AcDbEntity
  8
DEFPOINTS
 62
     0
 48
10.0
100
AcDbPoint
 10
426.677393822536
 20
436.016502334809
 30
0.0
  0
POINT
  5
4332
330
4124
100
AcDbEntity
  8
DEFPOINTS
 62
     0
 48
10.0
100
AcDbPoint
 10
447.196355112404
 20
351.016465223133
 30
0.0
  0
POINT
  5
4333
330
4124
100
AcDbEntity
  8
DEFPOINTS
 62
     0
 48
10.0
100
AcDbPoint
 10
484.290886856131
 20
351.016465223133
 30
0.0
  0
ENDBLK
  5
412F
330
4124
100
AcDbEntity
  8
0
 48
10.0
100
AcDbBlockEnd
  0
BLOCK
  5
418A
330
4180
100
AcDbEntity
  8
0
 48
10.0
100
AcDbBlockBegin
  2
*D15
 70
     1
 10
0.0
 20
0.0
 30
0.0
  3
*D15
  1

  0
LINE
  5
4322
330
4180
100
AcDbEntity
  8
寸法線
 62
     0
 48
10.0
100
AcDbLine
 10
326.554355112404
 20
380.641965223133
 30
0.0
 11
326.554355112404
 21
279.266465075604
 31
0.0
  0
LINE
  5
4323
330
4180
100
AcDbEntity
  8
寸法線
 62
     0
 48
10.0
100
AcDbLine
 10
461.554390686079
 20
369.387796520577
 30
0.0
 11
461.554390686079
 21
279.266465075604
 31
0.0
  0
LINE
  5
4324
330
4180
100
AcDbEntity
  8
寸法線
 62
     0
 48
10.0
100
AcDbLine
 10
332.554355112404
 20
280.516465075604
 30
0.0
 11
455.554390686079
 21
280.516465075604
 31
0.0
  0
INSERT
  5
4325
330
4180
100
AcDbEntity
  8
寸法線
 62
     0
 48
10.0
100
AcDbBlockReference
  2
_OPEN30
 10
326.554355112404
 20
280.516465075604
 30
0.0
 41
6.0
 42
6.0
 43
6.0
 50
180.0
  0
INSERT
  5
4326
330
4180
100
AcDbEntity
  8
寸法線
 62
     0
 48
10.0
100
AcDbBlockReference
  2
_OPEN30
 10
461.554390686079
 20
280.516465075604
 30
0.0
 41
6.0
 42
6.0
 43
6.0
  0
MTEXT
  5
4327
330
4180
100
AcDbEntity
  8
寸法線
 62
     0
 48
10.0
100
AcDbMText
 10
394.054372899242
 20
285.141465075604
 30
0.0
 40
8.0
 41
0.0
 71
     5
 72
     1
  1
\A1;135
  0
POINT
  5
4328
330
4180
100
AcDbEntity
  8
DEFPOINTS
 62
     0
 48
10.0
100
AcDbPoint
 10
326.554355112404
 20
381.266965223133
 30
0.0
  0
POINT
  5
4329
330
4180
100
AcDbEntity
  8
DEFPOINTS
 62
     0
 48
10.0
100
AcDbPoint
 10
461.554390686079
 20
370.012796520577
 30
0.0
  0
POINT
  5
432A
330
4180
100
AcDbEntity
  8
DEFPOINTS
 62
     0
 48
10.0
100
AcDbPoint
 10
461.554390686079
 20
280.516465075604
 30
0.0
  0
ENDBLK
  5
418B
330
4180
100
AcDbEntity
  8
0
 48
10.0
100
AcDbBlockEnd
  0
BLOCK
  5
4219
330
420F
100
AcDbEntity
  8
0
 48
10.0
100
AcDbBlockBegin
  2
*D16
 70
     1
 10
0.0
 20
0.0
 30
0.0
  3
*D16
  1

  0
LINE
  5
4319
330
420F
100
AcDbEntity
  8
寸法線
 62
     0
 48
10.0
100
AcDbLine
 10
371.554355112404
 20
377.391465223134
 30
0.0
 11
371.554355112404
 21
299.266465075604
 31
0.0
  0
LINE
  5
431A
330
420F
100
AcDbEntity
  8
寸法線
 62
     0
 48
10.0
100
AcDbLine
 10
461.554390686079
 20
369.387796520577
 30
0.0
 11
461.554390686079
 21
299.266465075604
 31
0.0
  0
LINE
  5
431B
330
420F
100
AcDbEntity
  8
寸法線
 62
     0
 48
10.0
100
AcDbLine
 10
377.554355112404
 20
300.516465075604
 30
0.0
 11
455.554390686079
 21
300.516465075604
 31
0.0
  0
INSERT
  5
431C
330
420F
100
AcDbEntity
  8
寸法線
 62
     0
 48
10.0
100
AcDbBlockReference
  2
_OPEN30
 10
371.554355112404
 20
300.516465075604
 30
0.0
 41
6.0
 42
6.0
 43
6.0
 50
180.0
  0
INSERT
  5
431D
330
420F
100
AcDbEntity
  8
寸法線
 62
     0
 48
10.0
100
AcDbBlockReference
  2
_OPEN30
 10
461.554390686079
 20
300.516465075604
 30
0.0
 41
6.0
 42
6.0
 43
6.0
  0
MTEXT
  5
431E
330
420F
100
AcDbEntity
  8
寸法線
 62
     0
 48
10.0
100
AcDbMText
 10
416.554372899242
 20
305.141465075604
 30
0.0
 40
8.0
 41
0.0
 71
     5
 72
     1
  1
\A1;90
  0
POINT
  5
431F
330
420F
100
AcDbEntity
  8
DEFPOINTS
 62
     0
 48
10.0
100
AcDbPoint
 10
371.554355112404
 20
378.016465223134
 30
0.0
  0
POINT
  5
4320
330
420F
100
AcDbEntity
  8
DEFPOINTS
 62
     0
 48
10.0
100
AcDbPoint
 10
461.554390686079
 20
370.012796520577
 30
0.0
  0
POINT
  5
4321
330
420F
100
AcDbEntity
  8
DEFPOINTS
 62
     0
 48
10.0
100
AcDbPoint
 10
461.554390686079
 20
300.516465075604
 30
0.0
  0
ENDBLK
  5
421A
330
420F
100
AcDbEntity
  8
0
 48
10.0
100
AcDbBlockEnd
  0
BLOCK
  5
42E6
330
42DC
100
AcDbEntity
  8
0
 48
10.0
100
AcDbBlockBegin
  2
*D17
 70
     1
 10
0.0
 20
0.0
 30
0.0
  3
*D17
  1

  0
LINE
  5
4310
330
42DC
100
AcDbEntity
  8
寸法線
 62
     0
 48
10.0
100
AcDbLine
 10
326.554355112404
 20
380.641965223133
 30
0.0
 11
326.554355112404
 21
299.266465075604
 31
0.0
  0
LINE
  5
4311
330
42DC
100
AcDbEntity
  8
寸法線
 62
     0
 48
10.0
100
AcDbLine
 10
351.554355112404
 20
377.451465223134
 30
0.0
 11
351.554355112404
 21
299.266465075604
 31
0.0
  0
LINE
  5
4312
330
42DC
100
AcDbEntity
  8
寸法線
 62
     0
 48
10.0
100
AcDbLine
 10
332.554355112404
 20
300.516465075604
 30
0.0
 11
345.554355112404
 21
300.516465075604
 31
0.0
  0
INSERT
  5
4313
330
42DC
100
AcDbEntity
  8
寸法線
 62
     0
 48
10.0
100
AcDbBlockReference
  2
_OPEN30
 10
326.554355112404
 20
300.516465075604
 30
0.0
 41
6.0
 42
6.0
 43
6.0
 50
180.0
  0
INSERT
  5
4314
330
42DC
100
AcDbEntity
  8
寸法線
 62
     0
 48
10.0
100
AcDbBlockReference
  2
_OPEN30
 10
351.554355112404
 20
300.516465075604
 30
0.0
 41
6.0
 42
6.0
 43
6.0
  0
MTEXT
  5
4315
330
42DC
100
AcDbEntity
  8
寸法線
 62
     0
 48
10.0
100
AcDbMText
 10
339.054355112404
 20
305.142252477179
 30
0.0
 40
8.0
 41
0.0
 71
     5
 72
     1
  1
\A1;25
  0
POINT
  5
4316
330
42DC
100
AcDbEntity
  8
DEFPOINTS
 62
     0
 48
10.0
100
AcDbPoint
 10
326.554355112404
 20
381.266965223133
 30
0.0
  0
POINT
  5
4317
330
42DC
100
AcDbEntity
  8
DEFPOINTS
 62
     0
 48
10.0
100
AcDbPoint
 10
351.554355112404
 20
378.076465223134
 30
0.0
  0
POINT
  5
4318
330
42DC
100
AcDbEntity
  8
DEFPOINTS
 62
     0
 48
10.0
100
AcDbPoint
 10
351.554355112404
 20
300.516465075604
 30
0.0
  0
ENDBLK
  5
42E7
330
42DC
100
AcDbEntity
  8
0
 48
10.0
100
AcDbBlockEnd
  0
BLOCK
  5
4666
330
4665
100
AcDbEntity
  8
0
100
AcDbBlockBegin
  2
*D36
 70
     1
 10
0.0
 20
0.0
 30
0.0
  3
*D36
  1

  0
LINE
  5
4668
330
4665
100
AcDbEntity
  8
寸法線
 62
     0
 48
10.0
100
AcDbLine
 10
76.554355112404
 20
389.390775454861
 30
0.0
 11
76.554355112404
 21
279.266465075604
 31
0.0
  0
LINE
  5
4669
330
4665
100
AcDbEntity
  8
寸法線
 62
     0
 48
10.0
100
AcDbLine
 10
326.554355112404
 20
380.641275454861
 30
0.0
 11
326.554355112404
 21
279.266465075604
 31
0.0
  0
LINE
  5
466A
330
4665
100
AcDbEntity
  8
寸法線
 62
     0
 48
10.0
100
AcDbLine
 10
82.554355112404
 20
280.516465075604
 30
0.0
 11
320.554355112404
 21
280.516465075604
 31
0.0
  0
INSERT
  5
466B
330
4665
100
AcDbEntity
  8
寸法線
 62
     0
100
AcDbBlockReference
  2
_OPEN30
 10
76.554355112404
 20
280.516465075604
 30
0.0
 41
6.0
 42
6.0
 43
6.0
 50
180.0
  0
INSERT
  5
466C
330
4665
100
AcDbEntity
  8
寸法線
 62
     0
100
AcDbBlockReference
  2
_OPEN30
 10
326.554355112404
 20
280.516465075604
 30
0.0
 41
6.0
 42
6.0
 43
6.0
  0
POINT
  5
466D
330
4665
100
AcDbEntity
  8
DEFPOINTS
 62
     0
100
AcDbPoint
 10
76.554355112404
 20
390.015775454861
 30
0.0
  0
POINT
  5
466E
330
4665
100
AcDbEntity
  8
DEFPOINTS
 62
     0
100
AcDbPoint
 10
326.554355112404
 20
381.266275454861
 30
0.0
  0
POINT
  5
466F
330
4665
100
AcDbEntity
  8
DEFPOINTS
 62
     0
100
AcDbPoint
 10
326.554355112404
 20
280.516465075604
 30
0.0
  0
ENDBLK
  5
4667
330
4665
100
AcDbEntity
  8
0
100
AcDbBlockEnd
  0
BLOCK
  5
4671
330
4670
100
AcDbEntity
  8
0
100
AcDbBlockBegin
  2
*D37
 70
     1
 10
0.0
 20
0.0
 30
0.0
  3
*D37
  1

  0
LINE
  5
4673
330
4670
100
AcDbEntity
  8
寸法線
 62
     0
 48
10.0
100
AcDbLine
 10
226.554355112404
 20
385.640775454861
 30
0.0
 11
226.554355112404
 21
299.266465075604
 31
0.0
  0
LINE
  5
4674
330
4670
100
AcDbEntity
  8
寸法線
 62
     0
 48
10.0
100
AcDbLine
 10
326.554355112404
 20
380.641275454861
 30
0.0
 11
326.554355112404
 21
299.266465075604
 31
0.0
  0
LINE
  5
4675
330
4670
100
AcDbEntity
  8
寸法線
 62
     0
 48
10.0
100
AcDbLine
 10
232.554355112404
 20
300.516465075604
 30
0.0
 11
320.554355112404
 21
300.516465075604
 31
0.0
  0
INSERT
  5
4676
330
4670
100
AcDbEntity
  8
寸法線
 62
     0
100
AcDbBlockReference
  2
_OPEN30
 10
226.554355112404
 20
300.516465075604
 30
0.0
 41
6.0
 42
6.0
 43
6.0
 50
180.0
  0
INSERT
  5
4677
330
4670
100
AcDbEntity
  8
寸法線
 62
     0
100
AcDbBlockReference
  2
_OPEN30
 10
326.554355112404
 20
300.516465075604
 30
0.0
 41
6.0
 42
6.0
 43
6.0
  0
POINT
  5
4678
330
4670
100
AcDbEntity
  8
DEFPOINTS
 62
     0
100
AcDbPoint
 10
226.554355112404
 20
386.265775454861
 30
0.0
  0
POINT
  5
4679
330
4670
100
AcDbEntity
  8
DEFPOINTS
 62
     0
100
AcDbPoint
 10
326.554355112404
 20
381.266275454861
 30
0.0
  0
POINT
  5
467A
330
4670
100
AcDbEntity
  8
DEFPOINTS
 62
     0
100
AcDbPoint
 10
326.554355112404
 20
300.516465075604
 30
0.0
  0
ENDBLK
  5
4672
330
4670
100
AcDbEntity
  8
0
100
AcDbBlockEnd
  0
BLOCK
  5
467C
330
467B
100
AcDbEntity
  8
0
100
AcDbBlockBegin
  2
*D38
 70
     1
 10
0.0
 20
0.0
 30
0.0
  3
*D38
  1

  0
LINE
  5
467E
330
467B
100
AcDbEntity
  8
寸法線
 62
     0
 48
10.0
100
AcDbLine
 10
176.554355112404
 20
386.140775454861
 30
0.0
 11
176.554355112404
 21
299.266465075604
 31
0.0
  0
LINE
  5
467F
330
467B
100
AcDbEntity
  8
寸法線
 62
     0
 48
10.0
100
AcDbLine
 10
226.554355112404
 20
385.640775454861
 30
0.0
 11
226.554355112404
 21
299.266465075604
 31
0.0
  0
LINE
  5
4680
330
467B
100
AcDbEntity
  8
寸法線
 62
     0
 48
10.0
100
AcDbLine
 10
182.554355112404
 20
300.516465075604
 30
0.0
 11
220.554355112404
 21
300.516465075604
 31
0.0
  0
INSERT
  5
4681
330
467B
100
AcDbEntity
  8
寸法線
 62
     0
100
AcDbBlockReference
  2
_OPEN30
 10
176.554355112404
 20
300.516465075604
 30
0.0
 41
6.0
 42
6.0
 43
6.0
 50
180.0
  0
INSERT
  5
4682
330
467B
100
AcDbEntity
  8
寸法線
 62
     0
100
AcDbBlockReference
  2
_OPEN30
 10
226.554355112404
 20
300.516465075604
 30
0.0
 41
6.0
 42
6.0
 43
6.0
  0
POINT
  5
4683
330
467B
100
AcDbEntity
  8
DEFPOINTS
 62
     0
100
AcDbPoint
 10
176.554355112404
 20
386.765775454861
 30
0.0
  0
POINT
  5
4684
330
467B
100
AcDbEntity
  8
DEFPOINTS
 62
     0
100
AcDbPoint
 10
226.554355112404
 20
386.265775454861
 30
0.0
  0
POINT
  5
4685
330
467B
100
AcDbEntity
  8
DEFPOINTS
 62
     0
100
AcDbPoint
 10
226.554355112404
 20
300.516465075604
 30
0.0
  0
ENDBLK
  5
467D
330
467B
100
AcDbEntity
  8
0
100
AcDbBlockEnd
  0
BLOCK
  5
4687
330
4686
100
AcDbEntity
  8
0
100
AcDbBlockBegin
  2
*D39
 70
     1
 10
0.0
 20
0.0
 30
0.0
  3
*D39
  1

  0
LINE
  5
4689
330
4686
100
AcDbEntity
  8
寸法線
 62
     0
 48
10.0
100
AcDbLine
 10
76.554355112404
 20
389.390775454861
 30
0.0
 11
76.554355112404
 21
299.266465075604
 31
0.0
  0
LINE
  5
468A
330
4686
100
AcDbEntity
  8
寸法線
 62
     0
 48
10.0
100
AcDbLine
 10
176.554355112404
 20
386.140775454861
 30
0.0
 11
176.554355112404
 21
299.266465075604
 31
0.0
  0
LINE
  5
468B
330
4686
100
AcDbEntity
  8
寸法線
 62
     0
 48
10.0
100
AcDbLine
 10
82.554355112404
 20
300.516465075604
 30
0.0
 11
170.554355112404
 21
300.516465075604
 31
0.0
  0
INSERT
  5
468C
330
4686
100
AcDbEntity
  8
寸法線
 62
     0
100
AcDbBlockReference
  2
_OPEN30
 10
76.554355112404
 20
300.516465075604
 30
0.0
 41
6.0
 42
6.0
 43
6.0
 50
180.0
  0
INSERT
  5
468D
330
4686
100
AcDbEntity
  8
寸法線
 62
     0
100
AcDbBlockReference
  2
_OPEN30
 10
176.554355112404
 20
300.516465075604
 30
0.0
 41
6.0
 42
6.0
 43
6.0
  0
POINT
  5
468E
330
4686
100
AcDbEntity
  8
DEFPOINTS
 62
     0
100
AcDbPoint
 10
76.554355112404
 20
390.015775454861
 30
0.0
  0
POINT
  5
468F
330
4686
100
AcDbEntity
  8
DEFPOINTS
 62
     0
100
AcDbPoint
 10
176.554355112404
 20
386.765775454861
 30
0.0
  0
POINT
  5
4690
330
4686
100
AcDbEntity
  8
DEFPOINTS
 62
     0
100
AcDbPoint
 10
176.554355112404
 20
300.516465075604
 30
0.0
  0
ENDBLK
  5
4688
330
4686
100
AcDbEntity
  8
0
100
AcDbBlockEnd
  0
BLOCK
  5
4692
330
4691
100
AcDbEntity
  8
0
100
AcDbBlockBegin
  2
*D40
 70
     1
 10
0.0
 20
0.0
 30
0.0
  3
*D40
  1

  0
LINE
  5
4694
330
4691
100
AcDbEntity
  8
寸法線
 62
     0
 48
10.0
100
AcDbLine
 10
213.915886856132
 20
407.765775454861
 30
0.0
 11
213.915886856132
 21
439.314794213144
 31
0.0
  0
LINE
  5
4695
330
4691
100
AcDbEntity
  8
寸法線
 62
     0
 48
10.0
100
AcDbLine
 10
213.915886856132
 20
401.765775454861
 30
0.0
 11
213.915886856132
 21
392.265775454861
 31
0.0
  0
INSERT
  5
4696
330
4691
100
AcDbEntity
  8
寸法線
 62
     0
100
AcDbBlockReference
  2
_OPEN30
 10
213.915886856132
 20
407.765775454861
 30
0.0
 41
6.0
 42
6.0
 43
6.0
 50
90.0
  0
INSERT
  5
4697
330
4691
100
AcDbEntity
  8
寸法線
 62
     0
100
AcDbBlockReference
  2
_OPEN30
 10
213.915886856132
 20
386.265775454861
 30
0.0
 41
6.0
 42
6.0
 43
6.0
 50
270.0
  0
MTEXT
  5
4698
330
4691
100
AcDbEntity
  8
寸法線
 62
     0
 48
10.0
100
AcDbMText
 10
209.286720189465
 20
426.756460879811
 30
0.0
 40
8.0
 41
0.0
 71
     5
 72
     1
  1
\A1;φ21.5
 11
0.0
 21
1.0
 31
0.0
  0
POINT
  5
4699
330
4691
100
AcDbEntity
  8
DEFPOINTS
 62
     0
100
AcDbPoint
 10
226.554355112404
 20
407.765775454861
 30
0.0
  0
POINT
  5
469A
330
4691
100
AcDbEntity
  8
DEFPOINTS
 62
     0
100
AcDbPoint
 10
226.554355112404
 20
386.265775454861
 30
0.0
  0
POINT
  5
469B
330
4691
100
AcDbEntity
  8
DEFPOINTS
 62
     0
100
AcDbPoint
 10
213.915886856132
 20
386.265775454861
 30
0.0
  0
ENDBLK
  5
4693
330
4691
100
AcDbEntity
  8
0
100
AcDbBlockEnd
  0
BLOCK
  5
46AA
330
46A9
100
AcDbEntity
  8
0
100
AcDbBlockBegin
  2
*D42
 70
     1
 10
0.0
 20
0.0
 30
0.0
  3
*D42
  1

  0
LINE
  5
46AC
330
46A9
100
AcDbEntity
  8
寸法線
 62
     0
 48
10.0
100
AcDbLine
 10
301.419132787312
 20
407.765775454861
 30
0.0
 11
301.419132787312
 21
439.314794213144
 31
0.0
  0
LINE
  5
46AD
330
46A9
100
AcDbEntity
  8
寸法線
 62
     0
 48
10.0
100
AcDbLine
 10
301.419132787312
 20
401.765775454861
 30
0.0
 11
301.419132787312
 21
392.265775454861
 31
0.0
  0
INSERT
  5
46AE
330
46A9
100
AcDbEntity
  8
寸法線
 62
     0
100
AcDbBlockReference
  2
_OPEN30
 10
301.419132787312
 20
407.765775454861
 30
0.0
 41
6.0
 42
6.0
 43
6.0
 50
90.0
  0
INSERT
  5
46AF
330
46A9
100
AcDbEntity
  8
寸法線
 62
     0
100
AcDbBlockReference
  2
_OPEN30
 10
301.419132787312
 20
386.265775454861
 30
0.0
 41
6.0
 42
6.0
 43
6.0
 50
270.0
  0
MTEXT
  5
46B0
330
46A9
100
AcDbEntity
  8
寸法線
 62
     0
 48
10.0
100
AcDbMText
 10
296.789966120645
 20
426.756460879811
 30
0.0
 40
8.0
 41
0.0
 71
     5
 72
     1
  1
\A1;φ21.5
 11
0.0
 21
1.0
 31
0.0
  0
POINT
  5
46B1
330
46A9
100
AcDbEntity
  8
DEFPOINTS
 62
     0
100
AcDbPoint
 10
313.082998945729
 20
407.765775454861
 30
0.0
  0
POINT
  5
46B2
330
46A9
100
AcDbEntity
  8
DEFPOINTS
 62
     0
100
AcDbPoint
 10
313.082998945729
 20
386.265775454861
 30
0.0
  0
POINT
  5
46B3
330
46A9
100
AcDbEntity
  8
DEFPOINTS
 62
     0
100
AcDbPoint
 10
301.419132787312
 20
386.265775454861
 30
0.0
  0
ENDBLK
  5
46AB
330
46A9
100
AcDbEntity
  8
0
100
AcDbBlockEnd
  0
BLOCK
  5
52DD
330
52DC
100
AcDbEntity
  8
0
100
AcDbBlockBegin
  2
*D45
 70
     1
 10
0.0
 20
0.0
 30
0.0
  3
*D45
  1

  0
LINE
  5
52DF
330
52DC
100
AcDbEntity
  8
寸法線
 62
     0
 48
10.0
100
AcDbLine
 10
76.929355112404
 20
407.765775454861
 30
0.0
 11
62.665886856132
 21
407.765775454861
 31
0.0
  0
LINE
  5
52E0
330
52DC
100
AcDbEntity
  8
寸法線
 62
     0
 48
10.0
100
AcDbLine
 10
76.929355112404
 20
386.265775454862
 30
0.0
 11
62.665886856132
 21
386.265775454862
 31
0.0
  0
LINE
  5
52E1
330
52DC
100
AcDbEntity
  8
寸法線
 62
     0
 48
10.0
100
AcDbLine
 10
63.915886856132
 20
407.765775454861
 30
0.0
 11
63.915886856132
 21
438.882442121528
 31
0.0
  0
LINE
  5
52E2
330
52DC
100
AcDbEntity
  8
寸法線
 62
     0
 48
10.0
100
AcDbLine
 10
63.915886856132
 20
401.765775454861
 30
0.0
 11
63.915886856132
 21
392.265775454862
 31
0.0
  0
INSERT
  5
52E3
330
52DC
100
AcDbEntity
  8
寸法線
 62
     0
100
AcDbBlockReference
  2
_OPEN30
 10
63.915886856132
 20
407.765775454861
 30
0.0
 41
6.0
 42
6.0
 43
6.0
 50
90.0
  0
INSERT
  5
52E4
330
52DC
100
AcDbEntity
  8
寸法線
 62
     0
100
AcDbBlockReference
  2
_OPEN30
 10
63.915886856132
 20
386.265775454862
 30
0.0
 41
6.0
 42
6.0
 43
6.0
 50
270.0
  0
MTEXT
  5
52E5
330
52DC
100
AcDbEntity
  8
寸法線
 62
     0
 48
10.0
100
AcDbMText
 10
59.286720189465
 20
426.324108788195
 30
0.0
 40
8.0
 41
0.0
 71
     5
 72
     1
  1
\A1;φ21.5
 11
0.0
 21
1.0
 31
0.0
  0
POINT
  5
52E6
330
52DC
100
AcDbEntity
  8
DEFPOINTS
 62
     0
100
AcDbPoint
 10
77.554355112404
 20
407.765775454861
 30
0.0
  0
POINT
  5
52E7
330
52DC
100
AcDbEntity
  8
DEFPOINTS
 62
     0
100
AcDbPoint
 10
77.554355112404
 20
386.265775454862
 30
0.0
  0
POINT
  5
52E8
330
52DC
100
AcDbEntity
  8
DEFPOINTS
 62
     0
100
AcDbPoint
 10
63.915886856132
 20
386.265775454862
 30
0.0
  0
ENDBLK
  5
52DE
330
52DC
100
AcDbEntity
  8
0
100
AcDbBlockEnd
  0
ENDSEC
  0
SECTION
  2
ENTITIES
  0
LINE
  5
2E8B
330
1A
100
AcDbEntity
  8
中心線
 48
10.0
100
AcDbLine
 10
68.496745974616
 20
397.016465223133
 30
0.0
 11
463.246107871944
 21
397.016465223134
 31
0.0
  0
LWPOLYLINE
  5
31A0
330
1A
100
AcDbEntity
  8
外形線
100
AcDbPolyline
 90
        4
 70
     1
 43
0.0
 10
371.554355112404
 20
378.016465223134
 10
374.554355112404
 20
378.016465223134
 10
374.554355112404
 20
416.016465223133
 10
371.554355112404
 20
416.016465223133
  0
DIMENSION
  5
4034
330
1A
100
AcDbEntity
  8
寸法線
 48
10.0
100
AcDbDimension
  2
*D13
 10
371.554355112404
 20
300.516465075604
 30
0.0
 11
361.554355112404
 21
305.142252477179
 31
0.0
 70
    32
  3
ISO-25
100
AcDbAlignedDimension
 13
351.554355112404
 23
378.076465223134
 33
0.0
 14
371.554355112404
 24
378.016465223134
 34
0.0
100
AcDbRotatedDimension
1001
ACAD
1000
DSTYLE
1002
{
1070
     5
1000
OPEN30
1070
    41
1040
6.0
1070
    47
1040
0.1
1070
    48
1040
0.1
1070
    73
1070
     0
1070
   140
1040
8.0
1070
   271
1070
     1
1070
   272
1070
     1
1070
   341
1005
2AF4
1002
}
  0
LINE
  5
40FC
102
{ACAD_REACTORS
330
4150
102
}
330
1A
100
AcDbEntity
  8
外形線
100
AcDbLine
 10
374.554355112404
 20
413.016465223134
 30
0.0
 11
374.554355112404
 21
381.016465223133
 31
0.0
  0
ARC
  5
40FD
102
{ACAD_REACTORS
330
4150
102
}
330
1A
100
AcDbEntity
  8
外形線
100
AcDbCircle
 10
376.054355112404
 20
413.016465223134
 30
0.0
 40
1.5
100
AcDbArc
 50
90.0
 51
180.0
  0
ARC
  5
40FE
102
{ACAD_REACTORS
330
4150
102
}
330
1A
100
AcDbEntity
  8
外形線
100
AcDbCircle
 10
376.054355112404
 20
381.016465223133
 30
0.0
 40
1.5
100
AcDbArc
 50
180.0
 51
270.0
  0
LINE
  5
40FF
102
{ACAD_REACTORS
330
4150
102
}
330
1A
100
AcDbEntity
  8
外形線
100
AcDbLine
 10
397.696355112404
 20
418.016465223133
 30
0.0
 11
397.696355112404
 21
376.016465223133
 31
0.0
  0
ARC
  5
4100
102
{ACAD_REACTORS
330
4150
102
}
330
1A
100
AcDbEntity
  8
外形線
100
AcDbCircle
 10
396.196355112404
 20
378.016465223133
 30
0.0
 40
1.5
100
AcDbArc
 50
0.0
 51
90.0
  0
ARC
  5
4101
102
{ACAD_REACTORS
330
4150
102
}
330
1A
100
AcDbEntity
  8
外形線
100
AcDbCircle
 10
396.196355112404
 20
416.016465223134
 30
0.0
 40
1.5
100
AcDbArc
 50
270.0
 51
0.0
  0
LINE
  5
4102
102
{ACAD_REACTORS
330
4150
102
}
330
1A
100
AcDbEntity
  8
外形線
100
AcDbLine
 10
448.647188403919
 20
367.112233530202
 30
0.0
 11
450.555411336629
 21
368.063638388516
 31
0.0
  0
LINE
  5
4103
102
{ACAD_REACTORS
330
4150
102
}
330
1A
100
AcDbEntity
  8
外形線
100
AcDbLine
 10
418.827788553791
 20
426.920696916065
 30
0.0
 11
420.7360114865
 21
427.87210177438
 31
0.0
  0
LINE
  5
4104
102
{ACAD_REACTORS
330
4150
102
}
330
1A
100
AcDbEntity
  8
外形線
100
AcDbLine
 10
420.7360114865
 20
427.87210177438
 30
0.0
 11
450.555411336629
 21
368.063638388516
 31
0.0
  0
LINE
  5
4105
102
{ACAD_REACTORS
330
4150
102
}
330
1A
100
AcDbEntity
  8
外形線
100
AcDbLine
 10
448.647188403919
 20
367.112233530202
 30
0.0
 11
418.827788553791
 21
426.920696916065
 31
0.0
  0
ARC
  5
4106
102
{ACAD_REACTORS
330
4150
102
}
330
1A
100
AcDbEntity
  8
細線
100
AcDbCircle
 10
432.193555521007
 20
338.005266857543
 30
0.0
 40
34.01119848081266
100
AcDbArc
 50
63.82505009863
 51
116.164440091243
  0
LINE
  5
4107
102
{ACAD_REACTORS
330
4150
102
}
330
1A
100
AcDbEntity
  8
外形線
100
AcDbLine
 10
447.196355112404
 20
351.016465223133
 30
0.0
 11
448.196355112404
 21
352.016465223133
 31
0.0
  0
LINE
  5
4108
102
{ACAD_REACTORS
330
4150
102
}
330
1A
100
AcDbEntity
  8
外形線
100
AcDbLine
 10
417.196355112404
 20
351.016465223133
 30
0.0
 11
447.196355112404
 21
351.016465223133
 31
0.0
  0
LINE
  5
4109
102
{ACAD_REACTORS
330
4150
102
}
330
1A
100
AcDbEntity
  8
外形線
100
AcDbLine
 10
416.196355112404
 20
352.016465223133
 30
0.0
 11
417.196355112404
 21
351.016465223133
 31
0.0
  0
LINE
  5
410A
102
{ACAD_REACTORS
330
4150
102
}
330
1A
100
AcDbEntity
  8
外形線
100
AcDbLine
 10
416.196355112404
 20
352.016465223133
 30
0.0
 11
416.196355112404
 21
367.016465223133
 31
0.0
  0
ARC
  5
410B
102
{ACAD_REACTORS
330
4150
102
}
330
1A
100
AcDbEntity
  8
外形線
100
AcDbCircle
 10
415.196355112404
 20
367.016465223133
 30
0.0
 40
1.0
100
AcDbArc
 50
0.0
 51
90.0
  0
ARC
  5
410C
102
{ACAD_REACTORS
330
4150
102
}
330
1A
100
AcDbEntity
  8
外形線
100
AcDbCircle
 10
405.696355112404
 20
418.016465223133
 30
0.0
 40
8.0
100
AcDbArc
 50
90.0
 51
180.0
  0
ARC
  5
410D
102
{ACAD_REACTORS
330
4150
102
}
330
1A
100
AcDbEntity
  8
外形線
100
AcDbCircle
 10
405.696355112404
 20
376.016465223133
 30
0.0
 40
8.0
100
AcDbArc
 50
180.0
 51
270.0
  0
ARC
  5
410E
102
{ACAD_REACTORS
330
414E
102
}
330
1A
100
AcDbEntity
  8
外形線
100
AcDbCircle
 10
426.203035509421
 20
433.054242354527
 30
0.0
 40
3.0
100
AcDbArc
 50
45.304483030749
 51
116.499999999995
  0
ARC
  5
410F
102
{ACAD_REACTORS
330
414E
102
}
330
1A
100
AcDbEntity
  8
外形線
100
AcDbCircle
 10
458.581409645332
 20
369.611070579971
 30
0.0
 40
3.0
100
AcDbArc
 50
296.499999999995
 51
7.69551696925
  0
LINE
  5
4110
102
{ACAD_REACTORS
330
414E
102
}
330
1A
100
AcDbEntity
  8
外形線
100
AcDbLine
 10
452.874003602582
 20
363.413261743046
 30
0.0
 11
459.920003084661
 21
366.926267495165
 31
0.0
  0
LINE
  5
4111
102
{ACAD_REACTORS
330
414E
102
}
330
1A
100
AcDbEntity
  8
外形線
100
AcDbLine
 10
463.248741558381
 20
401.174459337386
 30
0.0
 11
454.016780784455
 21
396.571573489236
 31
0.0
  0
LINE
  5
4112
102
{ACAD_REACTORS
330
414E
102
}
330
1A
100
AcDbEntity
  8
外形線
100
AcDbLine
 10
451.845309970257
 20
401.634620195099
 30
0.0
 11
460.794653586277
 21
406.096598326197
 31
0.0
  0
LINE
  5
4113
102
{ACAD_REACTORS
330
414E
102
}
330
1A
100
AcDbEntity
  8
外形線
100
AcDbLine
 10
448.275727465378
 20
408.794095087915
 30
0.0
 11
457.225071081398
 21
413.256073219013
 31
0.0
  0
LINE
  5
4114
102
{ACAD_REACTORS
330
414E
102
}
330
1A
100
AcDbEntity
  8
外形線
100
AcDbLine
 10
454.770983109295
 20
418.178212207825
 30
0.0
 11
445.539022335368
 21
413.575326359674
 31
0.0
  0
LINE
  5
4115
102
{ACAD_REACTORS
330
414E
102
}
330
1A
100
AcDbEntity
  8
外形線
100
AcDbLine
 10
457.225071081398
 20
413.256073219013
 30
0.0
 11
454.770983109295
 21
418.178212207825
 31
0.0
  0
LINE
  5
4116
102
{ACAD_REACTORS
330
414E
102
}
330
1A
100
AcDbEntity
  8
外形線
100
AcDbLine
 10
460.794653586277
 20
406.096598326197
 30
0.0
 11
463.248741558381
 21
401.174459337386
 31
0.0
  0
LINE
  5
4117
102
{ACAD_REACTORS
330
4150
102
}
330
1A
100
AcDbEntity
  8
外形線
100
AcDbLine
 10
448.196355112404
 20
352.016465223133
 30
0.0
 11
448.196355112404
 21
368.016465223133
 31
0.0
  0
LINE
  5
4118
102
{ACAD_REACTORS
330
4150
102
}
330
1A
100
AcDbEntity
  8
中心線
 48
10.0
100
AcDbLine
 10
432.196355112404
 20
377.016465223134
 30
0.0
 11
432.196355112404
 21
338.005266857543
 31
0.0
  0
LINE
  5
4119
102
{ACAD_REACTORS
330
414E
102
}
330
1A
100
AcDbEntity
  8
外形線
 48
10.0
100
AcDbLine
 10
418.417419220548
 20
432.52467841985
 30
0.0
 11
424.864442070092
 21
435.739045439333
 31
0.0
  0
ARC
  5
411A
102
{ACAD_REACTORS
330
414E
102
}
330
1A
100
AcDbEntity
  8
外形線
 48
10.0
100
AcDbCircle
 10
345.933679203362
 20
352.272963600158
 30
0.0
 40
116.880564807258
100
AcDbArc
 50
8.420101953743
 51
45.185262866737
  0
LINE
  5
411B
102
{ACAD_REACTORS
330
414E
102
}
330
1A
100
AcDbEntity
  8
外形線
 48
10.0
100
AcDbLine
 10
418.417419220548
 20
432.52467841985
 30
0.0
 11
452.874003602582
 21
363.413261743046
 31
0.0
  0
LINE
  5
411C
102
{ACAD_REACTORS
330
4150
102
}
330
1A
100
AcDbEntity
  8
外形線
 48
10.0
100
AcDbLine
 10
405.696355112404
 20
426.016465223133
 30
0.0
 11
419.237488478855
 21
426.016465223133
 31
0.0
  0
LINE
  5
411D
102
{ACAD_REACTORS
330
4150
102
}
330
1A
100
AcDbEntity
  8
外形線
 48
10.0
100
AcDbLine
 10
376.054355112404
 20
414.516465223134
 30
0.0
 11
396.196355112404
 21
414.516465223134
 31
0.0
  0
LINE
  5
411E
102
{ACAD_REACTORS
330
4150
102
}
330
1A
100
AcDbEntity
  8
外形線
 48
10.0
100
AcDbLine
 10
376.054355112404
 20
379.516465223133
 30
0.0
 11
396.196355112404
 21
379.516465223133
 31
0.0
  0
LINE
  5
411F
102
{ACAD_REACTORS
330
4150
102
}
330
1A
100
AcDbEntity
  8
外形線
 48
10.0
100
AcDbLine
 10
405.696355112404
 20
368.016465223133
 30
0.0
 11
415.196355112404
 21
368.016465223133
 31
0.0
  0
DIMENSION
  5
4120
330
1A
100
AcDbEntity
  8
寸法線
 48
10.0
100
AcDbDimension
  2
*D14
 10
484.290886856131
 20
351.016465223133
 30
0.0
 11
484.290886856131
 21
393.516483778971
 31
0.0
 70
   160
  3
ISO-25
100
AcDbAlignedDimension
 13
426.677393822536
 23
436.016502334809
 33
0.0
 14
447.196355112404
 24
351.016465223133
 34
0.0
 50
90.0
100
AcDbRotatedDimension
1001
ACAD
1000
DSTYLE
1002
{
1070
     5
1000
OPEN30
1070
    41
1040
6.0
1070
    47
1040
0.1
1070
    48
1040
0.1
1070
    73
1070
     0
1070
   140
1040
8.0
1070
   271
1070
     1
1070
   272
1070
     1
1070
   341
1005
2AF4
1002
}
  0
DIMENSION
  5
417F
330
1A
100
AcDbEntity
  8
寸法線
 48
10.0
100
AcDbDimension
  2
*D15
 10
461.554390686079
 20
280.516465075604
 30
0.0
 11
394.054372899242
 21
285.141465075604
 31
0.0
 70
    32
  3
ISO-25
100
AcDbAlignedDimension
 13
326.554355112404
 23
381.266965223133
 33
0.0
 14
461.554390686079
 24
370.012796520577
 34
0.0
100
AcDbRotatedDimension
1001
ACAD
1000
DSTYLE
1002
{
1070
     5
1000
OPEN30
1070
    41
1040
6.0
1070
    47
1040
0.1
1070
    48
1040
0.1
1070
    73
1070
     0
1070
   140
1040
8.0
1070
   271
1070
     1
1070
   272
1070
     1
1070
   341
1005
2AF4
1002
}
  0
DIMENSION
  5
420E
330
1A
100
AcDbEntity
  8
寸法線
 48
10.0
100
AcDbDimension
  2
*D16
 10
461.554390686079
 20
300.516465075604
 30
0.0
 11
416.554372899242
 21
305.141465075604
 31
0.0
 70
    32
  3
ISO-25
100
AcDbAlignedDimension
 13
371.554355112404
 23
378.016465223134
 33
0.0
 14
461.554390686079
 24
370.012796520577
 34
0.0
100
AcDbRotatedDimension
1001
ACAD
1000
DSTYLE
1002
{
1070
     5
1000
OPEN30
1070
    41
1040
6.0
1070
    47
1040
0.1
1070
    48
1040
0.1
1070
    73
1070
     0
1070
   140
1040
8.0
1070
   271
1070
     1
1070
   272
1070
     1
1070
   341
1005
2AF4
1002
}
  0
DIMENSION
  5
42DB
330
1A
100
AcDbEntity
  8
寸法線
 48
10.0
100
AcDbDimension
  2
*D17
 10
351.554355112404
 20
300.516465075604
 30
0.0
 11
339.054355112404
 21
305.142252477179
 31
0.0
 70
    32
  3
ISO-25
100
AcDbAlignedDimension
 13
326.554355112404
 23
381.266965223133
 33
0.0
 14
351.554355112404
 24
378.076465223134
 34
0.0
100
AcDbRotatedDimension
1001
ACAD
1000
DSTYLE
1002
{
1070
     5
1000
OPEN30
1070
    41
1040
6.0
1070
    47
1040
0.1
1070
    48
1040
0.1
1070
    73
1070
     0
1070
   140
1040
8.0
1070
   271
1070
     1
1070
   272
1070
     1
1070
   341
1005
2AF4
1002
}
  0
LINE
  5
45C1
330
1A
100
AcDbEntity
  8
寸法線
100
AcDbLine
 10
50.732185671126
 20
151.420254897132
 30
0.0
 11
622.469985383749
 21
151.420254897132
 31
0.0
  0
LINE
  5
45C3
330
1A
100
AcDbEntity
  8
寸法線
100
AcDbLine
 10
50.732185671126
 20
242.78863765017
 30
0.0
 11
622.469985383749
 21
242.78863765017
 31
0.0
  0
LINE
  5
45C4
330
1A
100
AcDbEntity
  8
寸法線
100
AcDbLine
 10
50.732185671126
 20
256.85863765017
 30
0.0
 11
622.469985383749
 21
256.85863765017
 31
0.0
  0
LINE
  5
45C7
330
1A
100
AcDbEntity
  8
寸法線
100
AcDbLine
 10
50.732185671126
 20
216.683385435017
 30
0.0
 11
622.469985383749
 21
216.683385435017
 31
0.0
  0
LINE
  5
45C8
330
1A
100
AcDbEntity
  8
寸法線
100
AcDbLine
 10
50.732185671126
 20
203.63075932744
 30
0.0
 11
622.469985383749
 21
203.63075932744
 31
0.0
  0
LINE
  5
45C9
330
1A
100
AcDbEntity
  8
寸法線
100
AcDbLine
 10
50.732185671126
 20
190.578133219864
 30
0.0
 11
622.469985383749
 21
190.578133219864
 31
0.0
  0
LINE
  5
45CA
330
1A
100
AcDbEntity
  8
寸法線
100
AcDbLine
 10
50.732185671126
 20
177.525507112286
 30
0.0
 11
622.469985383749
 21
177.525507112286
 31
0.0
  0
LINE
  5
45CB
330
1A
100
AcDbEntity
  8
寸法線
100
AcDbLine
 10
50.732185671126
 20
164.472881004709
 30
0.0
 11
622.469985383749
 21
164.472881004709
 31
0.0
  0
LINE
  5
45CD
330
1A
100
AcDbEntity
  8
寸法線
100
AcDbLine
 10
50.732185671126
 20
229.736011542593
 30
0.0
 11
622.469985383749
 21
229.736011542593
 31
0.0
  0
MTEXT
  5
45CE
102
{ACAD_XDICTIONARY
360
45CF
102
}
330
1A
100
AcDbEntity
  8
寸法線
 48
10.0
100
AcDbMText
 10
122.181020069945
 20
254.001856618776
 30
0.0
 40
8.0
 41
78.897728797637
 71
     2
 72
     5
  1
\PTSS-A4SA-025\PTSS-A4SA-030\PTSS-A4SA-035\PTSS-A4SA-040\PTSS-A4SA-045\PTSS-A4SA-050\PTSS-A4SA-055\PTSS-A4SA-060
1001
ACADANNOTATIVE
1000
AnnotativeData
1002
{
1070
     1
1070
     0
1002
}
1001
ACAD
1000
MTEXTBEGIN
1070
    44
1040
0.99
1000
MTEXTEND
  0
MTEXT
  5
45E7
102
{ACAD_XDICTIONARY
360
45E8
102
}
330
1A
100
AcDbEntity
  8
寸法線
 48
10.0
100
AcDbMText
 10
409.317169950594
 20
254.001856618776
 30
0.0
 40
8.0
 41
78.897728797637
 71
     2
 72
     5
  1
\PTSS-A4SA-065\PTSS-A4SA-070\PTSS-A4SA-075\PTSS-A4SA-080\PTSS-A4SA-085\PTSS-A4SA-090\PTSS-A4SA-095\PTSS-A4SA-100
1001
ACADANNOTATIVE
1000
AnnotativeData
1002
{
1070
     1
1070
     0
1002
}
1001
ACAD
1000
MTEXTBEGIN
1070
    44
1040
0.99
1000
MTEXTEND
  0
LINE
  5
4602
330
1A
100
AcDbEntity
  8
寸法線
100
AcDbLine
 10
50.732185671126
 20
138.367628789554
 30
0.0
 11
622.469985383749
 21
138.367628789555
 31
0.0
  0
ARC
  5
4609
330
1A
100
AcDbEntity
  8
細線
 48
10.0
100
AcDbCircle
 10
266.831698862404
 20
402.390775454862
 30
0.0
 40
8.222656249999796
100
AcDbArc
 50
319.180234332392
 51
40.819765667608
  0
ARC
  5
460A
330
1A
100
AcDbEntity
  8
細線
 48
10.0
100
AcDbCircle
 10
266.831698862404
 20
391.640775454862
 30
0.0
 40
8.222656249999796
100
AcDbArc
 50
319.180234332392
 51
40.819765667609
  0
ARC
  5
460B
330
1A
100
AcDbEntity
  8
細線
 48
10.0
100
AcDbCircle
 10
279.277011362404
 20
402.390775454861
 30
0.0
 40
8.222656249999796
100
AcDbArc
 50
139.180234332391
 51
220.819765667608
  0
ARC
  5
460C
330
1A
100
AcDbEntity
  8
細線
 48
10.0
100
AcDbCircle
 10
286.277011362404
 20
402.390775454862
 30
0.0
 40
8.222656249999796
100
AcDbArc
 50
139.180234332391
 51
220.819765667609
  0
ARC
  5
460D
330
1A
100
AcDbEntity
  8
細線
 48
10.0
100
AcDbCircle
 10
273.831698862404
 20
391.640775454862
 30
0.0
 40
8.222656249999796
100
AcDbArc
 50
319.180234332392
 51
40.819765667608
  0
ARC
  5
460E
330
1A
100
AcDbEntity
  8
細線
 48
10.0
100
AcDbCircle
 10
286.277011362404
 20
391.640775454862
 30
0.0
 40
8.222656249999796
100
AcDbArc
 50
139.180234332391
 51
220.819765667609
  0
ARC
  5
460F
330
1A
100
AcDbEntity
  8
細線
 48
10.0
100
AcDbCircle
 10
204.527011362404
 20
402.390775454861
 30
0.0
 40
8.222656249999796
100
AcDbArc
 50
139.180234332391
 51
220.819765667607
  0
ARC
  5
4610
330
1A
100
AcDbEntity
  8
細線
 48
10.0
100
AcDbCircle
 10
192.081698862404
 20
402.390775454862
 30
0.0
 40
8.222656249999796
100
AcDbArc
 50
319.180234332392
 51
40.819765667609
  0
ARC
  5
4611
330
1A
100
AcDbEntity
  8
細線
 48
10.0
100
AcDbCircle
 10
192.081698862404
 20
391.640775454862
 30
0.0
 40
8.222656249999796
100
AcDbArc
 50
319.180234332391
 51
40.819765667609
  0
ARC
  5
4612
330
1A
100
AcDbEntity
  8
細線
 48
10.0
100
AcDbCircle
 10
211.527011362404
 20
391.640775454862
 30
0.0
 40
8.222656249999796
100
AcDbArc
 50
139.180234332391
 51
220.819765667608
  0
ARC
  5
4613
330
1A
100
AcDbEntity
  8
細線
 48
10.0
100
AcDbCircle
 10
199.081698862404
 20
391.640775454862
 30
0.0
 40
8.222656249999796
100
AcDbArc
 50
319.180234332392
 51
40.819765667609
  0
ARC
  5
4614
330
1A
100
AcDbEntity
  8
細線
 48
10.0
100
AcDbCircle
 10
211.527011362404
 20
402.390775454861
 30
0.0
 40
8.222656249999796
100
AcDbArc
 50
139.180234332391
 51
220.819765667608
  0
SPLINE
  5
4615
330
1A
100
AcDbEntity
  8
寸法線
 48
10.0
100
AcDbSpline
210
0.0
220
0.0
230
1.0
 70
  1064
 71
     3
 72
    13
 73
     9
 74
     7
 42
0.000000001
 43
0.0000000001
 44
0.0000000001
 40
0.0
 40
0.0
 40
0.0
 40
0.0
 40
3.223685095176967
 40
8.435450993908002
 40
12.63609189519606
 40
15.54126966359024
 40
17.08609505184027
 40
18.20640635868928
 40
18.20640635868928
 40
18.20640635868928
 40
18.20640635868928
 10
122.5741675523365
 20
301.5316912174893
 30
0.0
 10
123.5328296151349
 20
301.9745355213113
 30
0.0
 10
126.0413708068767
 20
303.1333309099833
 30
0.0
 10
126.6458589035678
 20
311.2228371579999
 30
0.0
 10
123.0701288861617
 20
305.4045764089619
 30
0.0
 10
123.2267072463448
 20
302.4509240829906
 30
0.0
 10
125.1105996987532
 20
301.2938158313453
 30
0.0
 10
125.9438761335132
 20
301.7106495439538
 30
0.0
 10
126.2941504790314
 20
301.8858688946799
 30
0.0
 11
122.5741675523365
 21
301.5316912174893
 31
0.0
 11
125.1427270368354
 21
303.4796767840315
 31
0.0
 11
125.7184387579333
 21
308.6595474192276
 31
0.0
 11
123.4598783944257
 21
305.1177556317326
 31
0.0
 11
123.8584483821189
 21
302.2400482402694
 31
0.0
 11
125.2312979035377
 21
301.5316912174893
 31
0.0
 11
126.2941504790314
 21
301.8858688946799
 31
0.0
  0
TEXT
  5
4616
330
1A
100
AcDbEntity
  8
寸法線
 48
10.0
100
AcDbText
 10
128.660198057151
 20
301.580601189114
 30
0.0
 40
5.2
  1
1
100
AcDbText
  0
SPLINE
  5
4617
330
1A
100
AcDbEntity
  8
寸法線
 48
10.0
100
AcDbSpline
210
0.0
220
0.0
230
1.0
 70
  1064
 71
     3
 72
    13
 73
     9
 74
     7
 42
0.000000001
 43
0.0000000001
 44
0.0000000001
 40
0.0
 40
0.0
 40
0.0
 40
0.0
 40
3.223685095176967
 40
8.435450993908002
 40
12.63609189519606
 40
15.54126966359024
 40
17.08609505184027
 40
18.20640635868928
 40
18.20640635868928
 40
18.20640635868928
 40
18.20640635868928
 10
197.576930499786
 20
301.5316912174893
 30
0.0
 10
198.5355925625845
 20
301.9745355213113
 30
0.0
 10
201.0441337543263
 20
303.1333309099833
 30
0.0
 10
201.6486218510174
 20
311.2228371579999
 30
0.0
 10
198.0728918336113
 20
305.4045764089619
 30
0.0
 10
198.2294701937944
 20
302.4509240829906
 30
0.0
 10
200.1133626462028
 20
301.2938158313453
 30
0.0
 10
200.9466390809627
 20
301.7106495439538
 30
0.0
 10
201.296913426481
 20
301.8858688946799
 30
0.0
 11
197.576930499786
 21
301.5316912174893
 31
0.0
 11
200.1454899842849
 21
303.4796767840315
 31
0.0
 11
200.7212017053828
 21
308.6595474192276
 31
0.0
 11
198.4626413418753
 21
305.1177556317326
 31
0.0
 11
198.8612113295684
 21
302.2400482402694
 31
0.0
 11
200.2340608509873
 21
301.5316912174893
 31
0.0
 11
201.296913426481
 21
301.8858688946799
 31
0.0
  0
TEXT
  5
4618
330
1A
100
AcDbEntity
  8
寸法線
 48
10.0
100
AcDbText
 10
203.662961004601
 20
301.580601189114
 30
0.0
 40
5.2
  1
2
100
AcDbText
  0
TEXT
  5
4619
330
1A
100
AcDbEntity
  8
寸法線
 48
10.0
100
AcDbText
 10
277.866505047731
 20
301.580601189114
 30
0.0
 40
5.2
  1
3
100
AcDbText
  0
SPLINE
  5
461A
330
1A
100
AcDbEntity
  8
寸法線
 48
10.0
100
AcDbSpline
210
0.0
220
0.0
230
1.0
 70
  1064
 71
     3
 72
    13
 73
     9
 74
     7
 42
0.000000001
 43
0.0000000001
 44
0.0000000001
 40
0.0
 40
0.0
 40
0.0
 40
0.0
 40
3.223685095176967
 40
8.43545099390801
 40
12.6360918951961
 40
15.54126966359029
 40
17.08609505184032
 40
18.20640635868933
 40
18.20640635868933
 40
18.20640635868933
 40
18.20640635868933
 10
271.7804745429165
 20
301.5316912174893
 30
0.0
 10
272.739136605715
 20
301.9745355213113
 30
0.0
 10
275.2476777974568
 20
303.1333309099833
 30
0.0
 10
275.852165894148
 20
311.222837158
 30
0.0
 10
272.2764358767416
 20
305.4045764089618
 30
0.0
 10
272.4330142369249
 20
302.4509240829906
 30
0.0
 10
274.3169066893333
 20
301.2938158313451
 30
0.0
 10
275.1501831240933
 20
301.7106495439539
 30
0.0
 10
275.5004574696115
 20
301.8858688946799
 30
0.0
 11
271.7804745429165
 21
301.5316912174893
 31
0.0
 11
274.3490340274154
 21
303.4796767840315
 31
0.0
 11
274.9247457485134
 21
308.6595474192276
 31
0.0
 11
272.6661853850057
 21
305.1177556317326
 31
0.0
 11
273.064755372699
 21
302.2400482402694
 31
0.0
 11
274.4376048941178
 21
301.5316912174893
 31
0.0
 11
275.5004574696115
 21
301.8858688946799
 31
0.0
  0
SPLINE
  5
461B
330
1A
100
AcDbEntity
  8
寸法線
 48
10.0
100
AcDbSpline
210
0.0
220
0.0
230
1.0
 70
  1064
 71
     3
 72
    13
 73
     9
 74
     7
 42
0.000000001
 43
0.0000000001
 44
0.0000000001
 40
0.0
 40
0.0
 40
0.0
 40
0.0
 40
3.223685095176967
 40
8.435450993908116
 40
12.63609189519624
 40
15.54126966359041
 40
17.08609505184049
 40
18.20640635868945
 40
18.20640635868945
 40
18.20640635868945
 40
18.20640635868945
 10
200.2631560840675
 20
281.8509270211752
 30
0.0
 10
201.221818146866
 20
282.2937713249971
 30
0.0
 10
203.7303593386078
 20
283.4525667136692
 30
0.0
 10
204.3348474352989
 20
291.542072961686
 30
0.0
 10
200.7591174178929
 20
285.7238122126477
 30
0.0
 10
200.9156957780759
 20
282.7701598866765
 30
0.0
 10
202.7995882304843
 20
281.6130516350311
 30
0.0
 10
203.6328646652443
 20
282.0298853476398
 30
0.0
 10
203.9831390107625
 20
282.2051046983657
 30
0.0
 11
200.2631560840675
 21
281.8509270211752
 31
0.0
 11
202.8317155685664
 21
283.7989125877174
 31
0.0
 11
203.4074272896643
 21
288.9787832229135
 31
0.0
 11
201.1488669261568
 21
285.4369914354185
 31
0.0
 11
201.5474369138499
 21
282.5592840439552
 31
0.0
 11
202.9202864352688
 21
281.8509270211752
 31
0.0
 11
203.9831390107625
 21
282.2051046983657
 31
0.0
  0
DIMENSION
  5
461C
330
1A
100
AcDbEntity
  8
寸法線
 48
10.0
100
AcDbDimension
  2
*D36
 10
326.554355112404
 20
280.516465075604
 30
0.0
 11
201.554355112404
 21
282.51336407879
 31
0.0
 70
    32
  1
 
  3
ISO-25
100
AcDbAlignedDimension
 13
76.554355112404
 23
390.015775454861
 33
0.0
 14
326.554355112404
 24
381.266275454861
 34
0.0
100
AcDbRotatedDimension
1001
ACAD
1000
DSTYLE
1002
{
1070
     5
1000
OPEN30
1070
    41
1040
6.0
1070
    47
1040
0.1
1070
    48
1040
0.1
1070
    73
1070
     0
1070
   140
1040
8.0
1070
   271
1070
     1
1070
   272
1070
     1
1070
   341
1005
2AF4
1002
}
  0
DIMENSION
  5
461D
330
1A
100
AcDbEntity
  8
寸法線
 48
10.0
100
AcDbDimension
  2
*D37
 10
326.554355112404
 20
300.516465075604
 30
0.0
 11
276.554355112404
 21
302.51336407879
 31
0.0
 70
    32
  1
 
  3
ISO-25
100
AcDbAlignedDimension
 13
226.554355112404
 23
386.265775454861
 33
0.0
 14
326.554355112404
 24
381.266275454861
 34
0.0
100
AcDbRotatedDimension
1001
ACAD
1000
DSTYLE
1002
{
1070
     5
1000
OPEN30
1070
    41
1040
6.0
1070
    47
1040
0.1
1070
    48
1040
0.1
1070
    73
1070
     0
1070
   140
1040
8.0
1070
   271
1070
     1
1070
   272
1070
     1
1070
   341
1005
2AF4
1002
}
  0
DIMENSION
  5
461E
330
1A
100
AcDbEntity
  8
寸法線
 48
10.0
100
AcDbDimension
  2
*D38
 10
226.554355112404
 20
300.516465075604
 30
0.0
 11
201.554355112404
 21
302.51336407879
 31
0.0
 70
    32
  1
 
  3
ISO-25
100
AcDbAlignedDimension
 13
176.554355112404
 23
386.765775454861
 33
0.0
 14
226.554355112404
 24
386.265775454861
 34
0.0
100
AcDbRotatedDimension
1001
ACAD
1000
DSTYLE
1002
{
1070
     5
1000
OPEN30
1070
    41
1040
6.0
1070
    47
1040
0.1
1070
    48
1040
0.1
1070
    73
1070
     0
1070
   140
1040
8.0
1070
   271
1070
     1
1070
   272
1070
     1
1070
   341
1005
2AF4
1002
}
  0
DIMENSION
  5
461F
330
1A
100
AcDbEntity
  8
寸法線
 48
10.0
100
AcDbDimension
  2
*D39
 10
176.554355112404
 20
300.516465075604
 30
0.0
 11
126.554355112404
 21
302.51336407879
 31
0.0
 70
    32
  1
 
  3
ISO-25
100
AcDbAlignedDimension
 13
76.554355112404
 23
390.015775454861
 33
0.0
 14
176.554355112404
 24
386.765775454861
 34
0.0
100
AcDbRotatedDimension
1001
ACAD
1000
DSTYLE
1002
{
1070
     5
1000
OPEN30
1070
    41
1040
6.0
1070
    47
1040
0.1
1070
    48
1040
0.1
1070
    73
1070
     0
1070
   140
1040
8.0
1070
   271
1070
     1
1070
   272
1070
     1
1070
   341
1005
2AF4
1002
}
  0
DIMENSION
  5
4620
330
1A
100
AcDbEntity
  8
寸法線
 48
10.0
100
AcDbDimension
  2
*D40
 10
213.915886856132
 20
386.265775454861
 30
0.0
 11
213.915886856132
 21
426.756460879811
 31
0.0
 70
   160
  1
φ<>
  3
ISO-25
100
AcDbAlignedDimension
 13
226.554355112404
 23
407.765775454861
 33
0.0
 14
226.554355112404
 24
386.265775454861
 34
0.0
 50
90.0
100
AcDbRotatedDimension
1001
ACAD
1000
DSTYLE
1002
{
1070
     5
1000
OPEN30
1070
    76
1070
     1
1070
    75
1070
     1
1070
   282
1070
     0
1070
   281
1070
     0
1070
    41
1040
6.0
1070
    47
1040
0.1
1070
    48
1040
0.1
1070
    73
1070
     0
1070
   140
1040
8.0
1070
   271
1070
     1
1070
   272
1070
     1
1070
   341
1005
2AF4
1002
}
  0
LWPOLYLINE
  5
4622
330
1A
100
AcDbEntity
  8
外形線
100
AcDbPolyline
 90
        6
 70
     0
 43
0.0
 10
273.054355112404
 20
407.765775454862
 10
227.054355112404
 20
407.765775454862
 10
226.554355112404
 20
407.265775454862
 10
226.554355112404
 20
386.765775454862
 10
227.054355112404
 20
386.265775454862
 10
273.054355112404
 20
386.265775454862
  0
LWPOLYLINE
  5
4623
330
1A
100
AcDbEntity
  8
外形線
100
AcDbPolyline
 90
        6
 70
     0
 43
0.0
 10
198.304355112404
 20
407.765775454861
 10
177.054355112404
 20
407.765775454861
 10
176.554355112404
 20
407.265775454861
 10
176.554355112404
 20
386.765775454861
 10
177.054355112404
 20
386.265775454861
 10
198.304355112404
 20
386.265775454861
  0
LWPOLYLINE
  5
4625
330
1A
100
AcDbEntity
  8
外形線
100
AcDbPolyline
 90
        4
 70
     0
 43
0.0
 10
280.054355112404
 20
386.265775454862
 10
326.554355112404
 20
386.265775454862
 10
326.554355112404
 20
407.765775454862
 10
280.054355112404
 20
407.765775454862
  0
LWPOLYLINE
  5
4626
330
1A
100
AcDbEntity
  8
外形線
100
AcDbPolyline
 90
        4
 70
     0
 43
0.0
 10
205.304355112404
 20
386.265775454861
 10
226.554355112404
 20
386.265775454861
 10
226.554355112404
 20
407.765775454861
 10
205.304355112404
 20
407.765775454861
  0
DIMENSION
  5
4628
330
1A
100
AcDbEntity
  8
寸法線
 48
10.0
100
AcDbDimension
  2
*D42
 10
301.419132787312
 20
386.265775454861
 30
0.0
 11
301.419132787312
 21
426.756460879811
 31
0.0
 70
   160
  1
φ<>
  3
ISO-25
100
AcDbAlignedDimension
 13
313.082998945729
 23
407.765775454861
 33
0.0
 14
313.082998945729
 24
386.265775454861
 34
0.0
 50
90.0
100
AcDbRotatedDimension
1001
ACAD
1000
DSTYLE
1002
{
1070
     5
1000
OPEN30
1070
    76
1070
     1
1070
    75
1070
     1
1070
    41
1040
6.0
1070
    47
1040
0.1
1070
    48
1040
0.1
1070
    73
1070
     0
1070
   140
1040
8.0
1070
   271
1070
     1
1070
   272
1070
     1
1070
   341
1005
2AF4
1002
}
  0
LWPOLYLINE
  5
4745
330
1A
100
AcDbEntity
  8
外形線
100
AcDbPolyline
 90
       10
 70
     0
 43
0.0
 10
340.554355112404
 20
370.016465223134
 10
340.554355112404
 20
370.016465223134
 42
-0.414213562373
 10
342.554355112404
 20
372.016465223134
 10
343.054355112404
 20
372.016465223134
 10
343.554355112404
 20
372.516465223134
 10
343.554355112404
 20
421.516465223134
 10
343.054355112404
 20
422.016465223134
 10
342.554355112404
 20
422.016465223134
 42
-0.414213562373
 10
340.554355112404
 20
424.016465223134
 10
340.554355112404
 20
424.016465223134
  0
LINE
  5
4752
330
1A
100
AcDbEntity
  8
中心線
 48
10.0
100
AcDbLine
 10
345.554355112404
 20
462.016465223134
 30
0.0
 11
323.554355112404
 21
462.016465223134
 31
0.0
  0
LINE
  5
475F
330
1A
100
AcDbEntity
  8
中心線
 48
10.0
100
AcDbLine
 10
345.554355112404
 20
334.516465223134
 30
0.0
 11
323.554355112404
 21
334.516465223134
 31
0.0
  0
LINE
  5
4791
330
1A
100
AcDbEntity
  8
外形線
100
AcDbLine
 10
340.554355112404
 20
473.516465223134
 30
0.0
 11
339.554355112404
 21
474.516465223134
 31
0.0
  0
LINE
  5
4792
330
1A
100
AcDbEntity
  8
外形線
100
AcDbLine
 10
339.554355112404
 20
474.516465223134
 30
0.0
 11
329.054355112404
 21
474.516465223134
 31
0.0
  0
LINE
  5
4793
330
1A
100
AcDbEntity
  8
外形線
100
AcDbLine
 10
329.054355112404
 20
474.516465223134
 30
0.0
 11
328.554355112404
 21
474.016465223134
 31
0.0
  0
LINE
  5
4794
330
1A
100
AcDbEntity
  8
外形線
100
AcDbLine
 10
328.554355112404
 20
474.016465223134
 30
0.0
 11
328.554355112404
 21
320.016465223134
 31
0.0
  0
LINE
  5
4795
330
1A
100
AcDbEntity
  8
外形線
100
AcDbLine
 10
328.554355112404
 20
320.016465223134
 30
0.0
 11
329.054355112404
 21
319.516465223134
 31
0.0
  0
LINE
  5
4796
330
1A
100
AcDbEntity
  8
外形線
100
AcDbLine
 10
329.054355112404
 20
319.516465223134
 30
0.0
 11
339.554355112404
 21
319.516465223134
 31
0.0
  0
LINE
  5
4797
330
1A
100
AcDbEntity
  8
外形線
100
AcDbLine
 10
339.554355112404
 20
319.516465223134
 30
0.0
 11
340.554355112404
 21
320.516465223134
 31
0.0
  0
LINE
  5
4798
330
1A
100
AcDbEntity
  8
外形線
100
AcDbLine
 10
340.554355112404
 20
320.516465223134
 30
0.0
 11
340.554355112404
 21
473.516465223134
 31
0.0
  0
LINE
  5
479B
330
1A
100
AcDbEntity
  8
外形線
100
AcDbLine
 10
371.554355112404
 20
378.076465223134
 30
0.0
 11
371.554355112404
 21
415.956465223134
 31
0.0
  0
LINE
  5
48E0
330
1A
100
AcDbEntity
  8
細線
100
AcDbLine
 10
354.554355112404
 20
407.986465223133
 30
0.0
 11
368.554355112404
 21
407.986465223133
 31
0.0
  0
LINE
  5
48E1
330
1A
100
AcDbEntity
  8
細線
100
AcDbLine
 10
354.554355112404
 20
386.046465223134
 30
0.0
 11
368.554355112404
 21
386.046465223134
 31
0.0
  0
LWPOLYLINE
  5
48E2
330
1A
100
AcDbEntity
  8
外形線
100
AcDbPolyline
 90
        8
 70
     1
 43
0.0
 10
354.554355112404
 20
375.076465223133
 10
368.554355112404
 20
375.076465223133
 10
371.554355112404
 20
378.076465223133
 10
371.554355112404
 20
415.956465223134
 10
368.554355112404
 20
418.956465223134
 10
354.554355112404
 20
418.956465223134
 10
351.554355112404
 20
415.956465223134
 10
351.554355112404
 20
378.076465223133
  0
LINE
  5
48E3
330
1A
100
AcDbEntity
  8
外形線
100
AcDbLine
 10
326.554355112404
 20
381.266965223133
 30
0.0
 11
328.554355112404
 21
381.141965223133
 31
0.0
  0
LINE
  5
48E4
330
1A
100
AcDbEntity
  8
細線
100
AcDbLine
 10
326.554355112404
 20
382.745965223133
 30
0.0
 11
328.554355112404
 21
382.620965223133
 31
0.0
  0
LINE
  5
48E5
330
1A
100
AcDbEntity
  8
細線
100
AcDbLine
 10
326.554355112404
 20
411.286965223133
 30
0.0
 11
328.554355112404
 21
411.411965223133
 31
0.0
  0
LINE
  5
48E6
330
1A
100
AcDbEntity
  8
外形線
100
AcDbLine
 10
326.554355112404
 20
412.765965223133
 30
0.0
 11
326.554355112404
 21
381.266965223133
 31
0.0
  0
LINE
  5
48E7
330
1A
100
AcDbEntity
  8
外形線
100
AcDbLine
 10
326.554355112404
 20
412.765965223133
 30
0.0
 11
328.554355112404
 21
412.890965223133
 31
0.0
  0
ARC
  5
48E9
330
1A
100
AcDbEntity
  8
細線
 48
10.0
100
AcDbCircle
 10
349.997538445738
 20
397.016465223134
 30
0.0
 40
21.55681666666653
100
AcDbArc
 50
329.410228093566
 51
30.589771906434
  0
ARC
  5
48EA
330
1A
100
AcDbEntity
  8
細線
 48
10.0
100
AcDbCircle
 10
349.997538445738
 20
418.956465223133
 30
0.0
 40
21.55681666666653
100
AcDbArc
 50
329.410228093566
 51
352.495619345011
  0
ARC
  5
48EB
330
1A
100
AcDbEntity
  8
細線
 48
10.0
100
AcDbCircle
 10
349.997538445738
 20
375.076465223133
 30
0.0
 40
21.55681666666653
100
AcDbArc
 50
7.504380654989
 51
30.589771906434
  0
ARC
  5
48EC
330
1A
100
AcDbEntity
  8
細線
 48
10.0
100
AcDbCircle
 10
373.111171779071
 20
418.956465223133
 30
0.0
 40
21.55681666666653
100
AcDbArc
 50
187.504380654988
 51
210.589771906434
  0
ARC
  5
48ED
330
1A
100
AcDbEntity
  8
細線
 48
10.0
100
AcDbCircle
 10
373.111171779071
 20
397.016465223134
 30
0.0
 40
21.55681666666653
100
AcDbArc
 50
149.410228093566
 51
210.589771906434
  0
ARC
  5
48EE
330
1A
100
AcDbEntity
  8
細線
 48
10.0
100
AcDbCircle
 10
373.111171779071
 20
375.076465223133
 30
0.0
 40
21.55681666666653
100
AcDbArc
 50
149.410228093566
 51
172.495619345011
  0
LINE
  5
49CC
330
1A
100
AcDbEntity
  8
細線
100
AcDbLine
 10
343.554355112404
 20
381.683465223133
 30
0.0
 11
351.554355112404
 21
381.183465223133
 31
0.0
  0
LINE
  5
49CD
330
1A
100
AcDbEntity
  8
外形線
100
AcDbLine
 10
343.554355112404
 20
380.204465223133
 30
0.0
 11
351.554355112404
 21
379.704465223133
 31
0.0
  0
LINE
  5
49CE
330
1A
100
AcDbEntity
  8
外形線
100
AcDbLine
 10
343.554355112404
 20
413.828465223133
 30
0.0
 11
351.554355112404
 21
414.328465223133
 31
0.0
  0
LINE
  5
49CF
330
1A
100
AcDbEntity
  8
細線
100
AcDbLine
 10
343.554355112404
 20
412.349465223133
 30
0.0
 11
351.554355112404
 21
412.849465223133
 31
0.0
  0
MTEXT
  5
4A8E
102
{ACAD_XDICTIONARY
360
4A8F
102
}
330
1A
100
AcDbEntity
  8
寸法線
 48
10.0
100
AcDbMText
 10
176.251886850439
 20
240.203946705995
 30
0.0
 40
8.0
 41
23.854899029718
 71
     2
 72
     5
  1
250\P300\P350\P400\P450\P500\P550\P600
1001
ACADANNOTATIVE
1000
AnnotativeData
1002
{
1070
     1
1070
     0
1002
}
1001
ACAD
1000
MTEXTBEGIN
1070
    44
1040
0.98
1000
MTEXTEND
  0
MTEXT
  5
4A92
102
{ACAD_XDICTIONARY
360
4A93
102
}
330
1A
100
AcDbEntity
  8
寸法線
 48
10.0
100
AcDbMText
 10
200.686103239463
 20
240.203946705995
 30
0.0
 40
8.0
 41
23.854899029718
 71
     2
 72
     5
  1
100\P100\P100\P100\P100\P100\P150\P150
1001
ACADANNOTATIVE
1000
AnnotativeData
1002
{
1070
     1
1070
     0
1002
}
1001
ACAD
1000
MTEXTBEGIN
1070
    44
1040
0.98
1000
MTEXTEND
  0
MTEXT
  5
4A96
102
{ACAD_XDICTIONARY
360
4A97
102
}
330
1A
100
AcDbEntity
  8
寸法線
 48
10.0
100
AcDbMText
 10
226.350064351537
 20
240.203946705995
 30
0.0
 40
8.0
 41
23.854899029718
 71
     2
 72
     5
  1
50\P50\P50\P50\P50\P50\P50\P50
1001
ACADANNOTATIVE
1000
AnnotativeData
1002
{
1070
     1
1070
     0
1002
}
1001
ACAD
1000
MTEXTBEGIN
1070
    44
1040
0.98
1000
MTEXTEND
  0
MTEXT
  5
4A9A
102
{ACAD_XDICTIONARY
360
4A9B
102
}
330
1A
100
AcDbEntity
  8
寸法線
 48
10.0
100
AcDbMText
 10
251.594170973811
 20
240.203946705995
 30
0.0
 40
8.0
 41
23.854899029718
 71
     2
 72
     5
  1
100\P150\P200\P250\P300\P350\P350\P400
1001
ACADANNOTATIVE
1000
AnnotativeData
1002
{
1070
     1
1070
     0
1002
}
1001
ACAD
1000
MTEXTBEGIN
1070
    44
1040
0.98
1000
MTEXTEND
  0
MTEXT
  5
4A9E
102
{ACAD_XDICTIONARY
360
4A9F
102
}
330
1A
100
AcDbEntity
  8
寸法線
 48
10.0
100
AcDbMText
 10
489.753768520389
 20
240.203946705995
 30
0.0
 40
8.0
 41
23.854899029718
 71
     2
 72
     5
  1
150\P150\P150\P150\P150\P150\P150\P150
1001
ACADANNOTATIVE
1000
AnnotativeData
1002
{
1070
     1
1070
     0
1002
}
1001
ACAD
1000
MTEXTBEGIN
1070
    44
1040
0.98
1000
MTEXTEND
  0
MTEXT
  5
4AA2
102
{ACAD_XDICTIONARY
360
4AA3
102
}
330
1A
100
AcDbEntity
  8
寸法線
 48
10.0
100
AcDbMText
 10
514.971844304697
 20
240.203946705995
 30
0.0
 40
8.0
 41
23.854899029718
 71
     2
 72
     5
  1
50\P50\P50\P50\P50\P50\P50\P50
1001
ACADANNOTATIVE
1000
AnnotativeData
1002
{
1070
     1
1070
     0
1002
}
1001
ACAD
1000
MTEXTBEGIN
1070
    44
1040
0.98
1000
MTEXTEND
  0
MTEXT
  5
4AA6
102
{ACAD_XDICTIONARY
360
4AA7
102
}
330
1A
100
AcDbEntity
  8
寸法線
 48
10.0
100
AcDbMText
 10
538.33606233054
 20
240.203946705995
 30
0.0
 40
8.0
 41
23.854899029718
 71
     2
 72
     5
  1
450\P500\P550\P600\P650\P700\P750\P800
1001
ACADANNOTATIVE
1000
AnnotativeData
1002
{
1070
     1
1070
     0
1002
}
1001
ACAD
1000
MTEXTBEGIN
1070
    44
1040
0.98
1000
MTEXTEND
  0
MTEXT
  5
4AAA
102
{ACAD_XDICTIONARY
360
4AAB
102
}
330
1A
100
AcDbEntity
  8
寸法線
 48
10.0
100
AcDbMText
 10
464.202812473224
 20
240.203946705995
 30
0.0
 40
8.0
 41
23.854899029718
 71
     2
 72
     5
  1
650\P700\P750\P800\P850\P900\P950\P1000
1001
ACADANNOTATIVE
1000
AnnotativeData
1002
{
1070
     1
1070
     0
1002
}
1001
ACAD
1000
MTEXTBEGIN
1070
    44
1040
0.98
1000
MTEXTEND
  0
MTEXT
  5
4BD5
330
1A
100
AcDbEntity
  8
寸法線
 48
10.0
100
AcDbMText
 10
69.603087123317
 20
491.397260931587
 30
0.0
 40
8.0
 41
0.0
 71
     9
 72
     1
  1
DETECTING\PELECTRODE\PSUS304
  0
MTEXT
  5
4BD6
330
1A
100
AcDbEntity
  8
寸法線
 48
10.0
100
AcDbMText
 10
146.878508234536
 20
491.397260931587
 30
0.0
 40
8.0
 41
0.0
 71
     9
 72
     1
  1
INSULATOR\PPOLYACETAL
  0
MTEXT
  5
4BD7
330
1A
100
AcDbEntity
  8
寸法線
 48
10.0
100
AcDbMText
 10
169.851992103447
 20
491.397260931588
 30
0.0
 40
8.0
 41
0.0
 71
     7
 72
     1
  1
SEAL\PSILICON RUBBER
  0
MTEXT
  5
4BD8
330
1A
100
AcDbEntity
  8
寸法線
 48
10.0
100
AcDbMText
 10
262.812083189428
 20
491.397260931587
 30
0.0
 40
8.0
 41
0.0
 71
     7
 72
     1
  1
GROUNDING\PELECTRODE\PSUS304
  0
LEADER
  5
4BD9
330
1A
100
AcDbEntity
  8
寸法線
 48
10.0
100
AcDbLeader
  3
ISO-25
 76
     3
 10
100.304355112404
 20
407.765775454861
 30
0.0
 10
69.609128122186
 20
491.067396321444
 30
0.0
 10
60.561421991793
 20
491.067396321444
 30
0.0
1001
ACAD
1000
DSTYLE
1002
{
1070
     5
1000
OPEN30
1070
   147
1040
0.625
1070
    77
1070
     0
1070
    41
1040
6.0
1070
    47
1040
0.1
1070
    48
1040
0.1
1070
    73
1070
     0
1070
   140
1040
8.0
1070
   271
1070
     1
1070
   272
1070
     1
1070
   341
1005
2AF4
1070
   342
1005
2AF4
1002
}
  0
LEADER
  5
4BDA
330
1A
100
AcDbEntity
  8
寸法線
 48
10.0
100
AcDbLeader
  3
ISO-25
 76
     3
 10
186.240252028398
 20
407.833765594848
 30
0.0
 10
148.588081357984
 20
491.067396321444
 30
0.0
 10
132.943087156458
 20
491.067396321444
 30
0.0
1001
ACAD
1000
DSTYLE
1002
{
1070
     5
1000
OPEN30
1070
   147
1040
0.625
1070
    77
1070
     0
1070
    41
1040
6.0
1070
    47
1040
0.1
1070
    48
1040
0.1
1070
    73
1070
     0
1070
   140
1040
8.0
1070
   271
1070
     1
1070
   272
1070
     1
1070
   341
1005
2AF4
1070
   342
1005
2AF4
1002
}
  0
LEADER
  5
4BDB
330
1A
100
AcDbEntity
  8
寸法線
 48
10.0
100
AcDbLeader
  3
ISO-25
 76
     3
 10
226.554355299315
 20
407.765775212168
 30
0.0
 10
246.100103267168
 20
491.067396321444
 30
0.0
 10
232.71703425478
 20
491.067396321444
 30
0.0
1001
ACAD
1000
DSTYLE
1002
{
1070
     5
1000
OPEN30
1070
   147
1040
0.625
1070
    77
1070
     0
1070
    41
1040
6.0
1070
    47
1040
0.1
1070
    48
1040
0.1
1070
    73
1070
     0
1070
   140
1040
8.0
1070
   271
1070
     1
1070
   272
1070
     1
1070
   341
1005
2AF4
1070
   342
1005
2AF4
1002
}
  0
LEADER
  5
4BDC
330
1A
100
AcDbEntity
  8
寸法線
 48
10.0
100
AcDbLeader
  3
ISO-25
 76
     3
 10
261.447821365267
 20
407.762824343799
 30
0.0
 10
261.600650514678
 20
491.067396321444
 30
0.0
 10
274.606733786823
 20
491.067396321444
 30
0.0
213
0.0
223
-0.1883573891459491
233
0.0
1001
ACAD
1000
DSTYLE
1002
{
1070
     5
1000
OPEN30
1070
   147
1040
0.625
1070
    77
1070
     0
1070
    41
1040
6.0
1070
    47
1040
0.1
1070
    48
1040
0.1
1070
    73
1070
     0
1070
   140
1040
8.0
1070
   271
1070
     1
1070
   272
1070
     1
1070
   341
1005
2AF4
1070
   342
1005
2AF4
1002
}
  0
LEADER
  5
4C13
330
1A
100
AcDbEntity
  8
寸法線
 48
10.0
100
AcDbLeader
  3
ISO-25
 76
     3
 10
333.349069575385
 20
474.465628278911
 30
0.0
 10
330.454888395797
 20
491.068055847021
 30
0.0
 10
341.010548234843
 20
491.068055847021
 30
0.0
1001
ACAD
1000
DSTYLE
1002
{
1070
     5
1000
OPEN30
1070
   147
1040
0.625
1070
    77
1070
     0
1070
    41
1040
6.0
1070
    47
1040
0.1
1070
    48
1040
0.1
1070
    73
1070
     0
1070
   140
1040
8.0
1070
   271
1070
     1
1070
   272
1070
     1
1070
   341
1005
2AF4
1070
   342
1005
2AF4
1002
}
  0
MTEXT
  5
4C14
102
{ACAD_XDICTIONARY
360
4C15
102
}
330
1A
100
AcDbEntity
  8
寸法線
 48
10.0
100
AcDbMText
 10
330.109785547463
 20
491.635818556855
 30
0.0
 40
8.0
 41
0.0
 71
     7
 72
     1
  1
FLANGE\PALUMINUM\PCASTING\P
1001
ACADANNOTATIVE
1000
AnnotativeData
1002
{
1070
     1
1070
     0
1002
}
  0
MTEXT
  5
4C18
330
1A
100
AcDbEntity
  8
寸法線
 48
10.0
100
AcDbMText
 10
394.807980425538
 20
491.648445084728
 30
0.0
 40
8.0
 41
0.0
 71
     7
 72
     1
  1
R1"
  0
LEADER
  5
4C19
330
1A
100
AcDbEntity
  8
寸法線
 48
10.0
100
AcDbLeader
  3
ISO-25
 76
     3
 10
347.554355112404
 20
414.078465223133
 30
0.0
 10
394.339116923237
 20
491.067396321444
 30
0.0
 10
402.659899993857
 20
491.067396321444
 30
0.0
213
-3.365839362993256
223
0.0
233
0.0
1001
ACAD
1000
DSTYLE
1002
{
1070
     5
1000
OPEN30
1070
   147
1040
0.625
1070
    77
1070
     0
1070
    41
1040
6.0
1070
    47
1040
0.1
1070
    48
1040
0.1
1070
    73
1070
     0
1070
   140
1040
8.0
1070
   271
1070
     1
1070
   272
1070
     1
1070
   341
1005
2AF4
1070
   342
1005
2AF4
1002
}
  0
LINE
  5
4C1A
330
1A
100
AcDbEntity
  8
下書線
 48
10.0
100
AcDbLine
 10
-31.467200923877
 20
491.067396321444
 30
0.0
 11
578.784791821862
 21
491.067396321444
 31
0.0
  0
MTEXT
  5
4C83
102
{ACAD_XDICTIONARY
360
4C84
102
}
330
1A
100
AcDbEntity
  8
寸法線
 48
10.0
100
AcDbMText
 10
441.790415541621
 20
491.96160087701
 30
0.0
 40
8.0
 41
0.0
 71
     7
 72
     1
  1
ALUMINUM\PCASTING
1001
ACADANNOTATIVE
1000
AnnotativeData
1002
{
1070
     1
1070
     0
1002
}
  0
LEADER
  5
4C87
330
1A
100
AcDbEntity
  8
寸法線
 48
10.0
100
AcDbLeader
  3
ISO-25
 76
     3
 10
409.065023686426
 20
426.016465223133
 30
0.0
 10
439.741480329555
 20
491.067396321444
 30
0.0
 10
452.865485091868
 20
491.067396321444
 30
0.0
213
-5.684341886080801E-14
223
-0.08194239549834492
233
0.0
1001
ACAD
1000
DSTYLE
1002
{
1070
     5
1000
OPEN30
1070
   147
1040
0.625
1070
    77
1070
     0
1070
    41
1040
6.0
1070
    47
1040
0.1
1070
    48
1040
0.1
1070
    73
1070
     0
1070
   140
1040
8.0
1070
   271
1070
     1
1070
   272
1070
     1
1070
   341
1005
2AF4
1070
   342
1005
2AF4
1002
}
  0
TEXT
  5
4C88
330
1A
100
AcDbEntity
  8
寸法線
100
AcDbText
 10
454.936970330232
 20
530.714865264966
 30
0.0
 40
8.0
  1
COLOR：10YR7.5/14
100
AcDbText
  0
LINE
  5
4CD6
330
1A
100
AcDbEntity
  8
寸法線
100
AcDbLine
 10
-105.256823730013
 20
161.740521970893
 30
0.0
 11
22.332891804719
 21
161.740521970893
 31
0.0
  0
LINE
  5
4CD7
330
1A
100
AcDbEntity
  8
寸法線
100
AcDbLine
 10
-105.256823730013
 20
255.147822778898
 30
0.0
 11
22.332891804719
 21
255.147822778898
 31
0.0
  0
LINE
  5
4CD8
330
1A
100
AcDbEntity
  8
寸法線
 48
10.0
100
AcDbLine
 10
-105.256823730013
 20
255.147822778898
 30
0.0
 11
-105.256823730013
 21
161.740521970893
 31
0.0
  0
LINE
  5
4CD9
330
1A
100
AcDbEntity
  8
寸法線
 48
10.0
100
AcDbLine
 10
-45.369749614884
 20
255.147822778898
 30
0.0
 11
-45.369749614884
 21
161.740521970893
 31
0.0
  0
LINE
  5
4CDA
330
1A
100
AcDbEntity
  8
寸法線
 48
10.0
100
AcDbLine
 10
22.332891804719
 20
255.147822778898
 30
0.0
 11
22.332891804719
 21
161.740521970893
 31
0.0
  0
LINE
  5
4CDB
330
1A
100
AcDbEntity
  8
寸法線
100
AcDbLine
 10
-105.256823730013
 20
241.803922663469
 30
0.0
 11
22.332891804719
 21
241.803922663469
 31
0.0
  0
LINE
  5
4CDC
330
1A
100
AcDbEntity
  8
寸法線
100
AcDbLine
 10
-105.256823730013
 20
228.460022548039
 30
0.0
 11
22.332891804719
 21
228.460022548039
 31
0.0
  0
LINE
  5
4CDD
330
1A
100
AcDbEntity
  8
寸法線
100
AcDbLine
 10
-105.256823730013
 20
215.11612243261
 30
0.0
 11
22.332891804719
 21
215.11612243261
 31
0.0
  0
LINE
  5
4CDE
330
1A
100
AcDbEntity
  8
寸法線
100
AcDbLine
 10
-105.256823730013
 20
201.772222317181
 30
0.0
 11
22.332891804719
 21
201.772222317181
 31
0.0
  0
LINE
  5
4CDF
330
1A
100
AcDbEntity
  8
寸法線
100
AcDbLine
 10
-105.256823730013
 20
188.428322201752
 30
0.0
 11
22.332891804719
 21
188.428322201752
 31
0.0
  0
LINE
  5
4CE0
330
1A
100
AcDbEntity
  8
寸法線
100
AcDbLine
 10
-105.256823730013
 20
175.084422086322
 30
0.0
 11
22.332891804719
 21
175.084422086322
 31
0.0
  0
MTEXT
  5
4CE1
102
{ACAD_XDICTIONARY
360
4CE2
102
}
330
1A
100
AcDbEntity
  8
寸法線
 48
10.0
100
AcDbMText
 10
-96.932925537432
 20
252.086578624732
 30
0.0
 40
8.0
 41
60.717249709215
 71
     1
 72
     5
  1
FLANGE
1001
ACADANNOTATIVE
1000
AnnotativeData
1002
{
1070
     1
1070
     0
1002
}
  0
MTEXT
  5
4CE5
330
1A
100
AcDbEntity
  8
寸法線
 48
10.0
100
AcDbMText
 10
-96.924349546677
 20
238.712876747464
 30
0.0
 40
8.0
 41
60.717249709215
 71
     1
 72
     5
  1
MATERIAL
  0
MTEXT
  5
4CE6
330
1A
100
AcDbEntity
  8
寸法線
 48
10.0
100
AcDbMText
 10
-96.941687764393
 20
228.224971424152
 30
0.0
 40
4.5
 41
60.717249709215
 71
     1
 72
     5
  1
\P{\H1.111x;DIAMETER}
  0
MTEXT
  5
4CE7
330
1A
100
AcDbEntity
  8
寸法線
 48
10.0
100
AcDbMText
 10
-96.924349546677
 20
227.437620111998
 30
0.0
 40
4.5
 41
60.717249709215
 71
     1
 72
     5
  1
{\H1.111x;OUTSIDE}
  0
MTEXT
  5
4CE8
330
1A
100
AcDbEntity
  8
寸法線
 48
10.0
100
AcDbMText
 10
-96.924349546677
 20
214.07605842552
 30
0.0
 40
5.0
 41
60.717249709215
 71
     1
 72
     5
  1
{\H0.9999x;DIAMETER OF}
  0
MTEXT
  5
4CE9
330
1A
100
AcDbEntity
  8
寸法線
 48
10.0
100
AcDbMText
 10
-96.924349546677
 20
207.610786922686
 30
0.0
 40
5.0
 41
60.717249709215
 71
     1
 72
     5
  1
BOLT CIRCLE
  0
MTEXT
  5
4CEA
330
1A
100
AcDbEntity
  8
寸法線
 48
10.0
100
AcDbMText
 10
-96.924349546677
 20
200.435247888918
 30
0.0
 40
5.0
 41
60.717249709215
 71
     1
 72
     5
  1
{\H0.9999x;DIAMETER OF}
  0
MTEXT
  5
4CEB
330
1A
100
AcDbEntity
  8
寸法線
 48
10.0
100
AcDbMText
 10
-96.924349546677
 20
194.751265836148
 30
0.0
 40
5.0
 41
60.717249709215
 71
     1
 72
     5
  1
BOLT HOLES
  0
MTEXT
  5
4CEC
330
1A
100
AcDbEntity
  8
寸法線
 48
10.0
100
AcDbMText
 10
-96.924349546677
 20
187.003381995477
 30
0.0
 40
5.0
 41
60.717249709215
 71
     1
 72
     5
  1
NUMBER OF
  0
MTEXT
  5
4CED
330
1A
100
AcDbEntity
  8
寸法線
 48
10.0
100
AcDbMText
 10
-96.924349546677
 20
180.876518123744
 30
0.0
 40
5.0
 41
60.717249709215
 71
     1
 72
     5
  1
BOLT HOLES
  0
MTEXT
  5
4CEE
330
1A
100
AcDbEntity
  8
寸法線
 48
10.0
100
AcDbMText
 10
-100.425368187432
 20
171.78567708077
 30
0.0
 40
8.0
 41
135.142028985507
 71
     1
 72
     5
  1
THICKNESS
  0
MTEXT
  5
4CEF
102
{ACAD_XDICTIONARY
360
4CF0
102
}
330
1A
100
AcDbEntity
  8
寸法線
 48
10.0
100
AcDbMText
 10
-11.518428905083
 20
252.010140172542
 30
0.0
 40
8.0
 41
67.702641419603
 71
     2
 72
     5
  1
JIS5K 65A\P\Pφ155\Pφ130\Pφ15\P4\P12
1001
ACADANNOTATIVE
1000
AnnotativeData
1002
{
1070
     1
1070
     0
1002
}
  0
MTEXT
  5
4CF3
330
1A
100
AcDbEntity
  8
寸法線
 48
10.0
100
AcDbMText
 10
-43.350286627668
 20
232.375431064187
 30
0.0
 40
5.5
 41
0.0
 71
     7
 72
     1
  1
ALUMINUM CASTING
  0
CIRCLE
  5
4D31
330
1A
100
AcDbEntity
  8
寸法線
 48
10.0
100
AcDbCircle
 10
565.299734646748
 20
313.5825243154
 30
0.0
 40
2.0
  0
CIRCLE
  5
4D32
330
1A
100
AcDbEntity
  8
寸法線
 48
10.0
100
AcDbCircle
 10
587.500174646748
 20
313.5825243154
 30
0.0
 40
2.0
  0
LINE
  5
4D33
330
1A
100
AcDbEntity
  8
寸法線
 48
10.0
100
AcDbLine
 10
553.899466646748
 20
299.5822803154
 30
0.0
 11
556.899528646748
 21
294.7821083154
 31
0.0
  0
LINE
  5
4D34
330
1A
100
AcDbEntity
  8
寸法線
 48
10.0
100
AcDbLine
 10
556.899528646748
 20
294.7821083154
 30
0.0
 11
595.900382646748
 21
294.7821083154
 31
0.0
  0
LINE
  5
4D35
330
1A
100
AcDbEntity
  8
寸法線
 48
10.0
100
AcDbLine
 10
595.900382646748
 20
294.7821083154
 30
0.0
 11
598.900442646748
 21
299.5822803154
 31
0.0
  0
LINE
  5
4D36
330
1A
100
AcDbEntity
  8
寸法線
 48
10.0
100
AcDbLine
 10
553.101712605746
 20
332.3344763154
 30
0.0
 11
601.206162540191
 21
332.3344763154
 31
0.0
  0
MTEXT
  5
4D37
330
1A
100
AcDbEntity
  8
寸法線
 62
     1
 48
10.0
100
AcDbMText
 10
554.76549460408
 20
342.991050938804
 30
0.0
 40
8.0
 41
55.39356842411
 71
     1
 72
     5
  1
TERMINAL
  0
MTEXT
  5
4D38
330
1A
100
AcDbEntity
  8
寸法線
 62
     1
 48
10.0
100
AcDbMText
 10
542.938379928953
 20
288.146907538782
 30
0.0
 40
8.0
 41
74.443410852713
 71
     1
 72
     5
  1
TO CONVERTER
  0
MTEXT
  5
4D39
102
{ACAD_XDICTIONARY
360
4D3A
102
}
330
1A
100
AcDbEntity
  8
寸法線
 48
10.0
100
AcDbMText
 10
565.299734646748
 20
308.461098345788
 30
0.0
 40
8.0
 41
5.580100571959
 71
     2
 72
     5
  1
P
1001
ACADANNOTATIVE
1000
AnnotativeData
1002
{
1070
     1
1070
     0
1002
}
  0
MTEXT
  5
4D3D
102
{ACAD_XDICTIONARY
360
4D3E
102
}
330
1A
100
AcDbEntity
  8
寸法線
 48
10.0
100
AcDbMText
 10
587.500174646748
 20
308.461098345788
 30
0.0
 40
8.0
 41
5.580100571959
 71
     2
 72
     5
  1
E
1001
ACADANNOTATIVE
1000
AnnotativeData
1002
{
1070
     1
1070
     0
1002
}
  0
MTEXT
  5
4D6F
330
1A
100
AcDbEntity
  8
寸法線
 48
10.0
100
AcDbMText
 10
474.916852176938
 20
321.579955206941
 30
0.0
 40
8.0
 41
0.0
 71
     7
 72
     1
  1
CONDUIT\PG 1/2"
  0
LEADER
  5
4D70
330
1A
100
AcDbEntity
  8
寸法線
 48
10.0
100
AcDbLeader
  3
ISO-25
 76
     3
 10
433.290711535847
 20
349.682267509787
 30
0.0
 10
472.904011247038
 20
320.829805668515
 30
0.0
 10
510.700542058536
 20
320.829805668515
 30
0.0
1001
ACAD
1000
DSTYLE
1002
{
1070
     5
1000
OPEN30
1070
   147
1040
0.625
1070
    77
1070
     0
1070
    41
1040
6.0
1070
    47
1040
0.1
1070
    48
1040
0.1
1070
    73
1070
     0
1070
   140
1040
8.0
1070
   271
1070
     1
1070
   272
1070
     1
1070
   341
1005
2AF4
1070
   342
1005
2AF4
1002
}
  0
TEXT
  5
4E04
330
1A
100
AcDbEntity
  8
寸法線
 48
10.0
100
AcDbText
 10
106.006350538677
 20
123.269654336458
 30
0.0
 40
7.2
  1
○（Required length）
100
AcDbText
  0
LEADER
  5
4E05
330
1A
100
AcDbEntity
  8
寸法線
 48
10.0
100
AcDbLeader
  3
ISO-25
 76
     3
 10
65.395271110251
 20
138.367628789554
 30
0.0
 10
65.395271110251
 20
126.346978515042
 30
0.0
 10
102.608594792761
 20
126.346978515042
 30
0.0
213
0.0
223
5.564943123660839
233
0.0
1001
ACAD
1000
DSTYLE
1002
{
1070
     5
1000
OPEN30
1070
   147
1040
0.625
1070
    77
1070
     0
1070
    41
1040
6.0
1070
    47
1040
0.1
1070
    48
1040
0.1
1070
    73
1070
     0
1070
   140
1040
8.0
1070
   271
1070
     1
1070
   272
1070
     1
1070
   341
1005
2AF4
1070
   342
1005
2AF4
1002
}
  0
TEXT
  5
4E3A
330
1A
100
AcDbEntity
  8
寸法線
 48
10.0
100
AcDbText
 10
402.431314175816
 20
123.269654336458
 30
0.0
 40
7.2
  1
○（Required length）
100
AcDbText
  0
LEADER
  5
4E3B
330
1A
100
AcDbEntity
  8
寸法線
 48
10.0
100
AcDbLeader
  3
ISO-25
 76
     3
 10
353.3403879488
 20
138.367628789555
 30
0.0
 10
353.3403879488
 20
126.346978515042
 30
0.0
 10
390.55371163131
 20
126.346978515042
 30
0.0
213
0.0
223
5.564943123660839
233
0.0
1001
ACAD
1000
DSTYLE
1002
{
1070
     5
1000
OPEN30
1070
   147
1040
0.625
1070
    77
1070
     0
1070
    41
1040
6.0
1070
    47
1040
0.1
1070
    48
1040
0.1
1070
    73
1070
     0
1070
   140
1040
8.0
1070
   271
1070
     1
1070
   272
1070
     1
1070
   341
1005
2AF4
1070
   342
1005
2AF4
1002
}
  0
LINE
  5
5199
330
1A
100
AcDbEntity
  8
寸法線
100
AcDbLine
 10
82.732155671126
 20
138.367628789555
 30
0.0
 11
82.732155671126
 21
256.85863765017
 31
0.0
  0
LINE
  5
519A
330
1A
100
AcDbEntity
  8
寸法線
100
AcDbLine
 10
50.732185671126
 20
138.367628789555
 30
0.0
 11
50.732185671126
 21
256.85863765017
 31
0.0
  0
LINE
  5
519B
330
1A
100
AcDbEntity
  8
寸法線
100
AcDbLine
 10
303.577516938811
 20
138.367628789555
 30
0.0
 11
303.577516938811
 21
256.85863765017
 31
0.0
  0
LINE
  5
519C
330
1A
100
AcDbEntity
  8
寸法線
100
AcDbLine
 10
335.333835503099
 20
138.367628789555
 30
0.0
 11
335.333835503099
 21
256.85863765017
 31
0.0
  0
LINE
  5
519D
330
1A
100
AcDbEntity
  8
寸法線
 48
10.0
100
AcDbLine
 10
161.629884468763
 20
256.85863765017
 30
0.0
 11
161.629884468763
 21
138.367628789555
 31
0.0
  0
LINE
  5
519E
330
1A
100
AcDbEntity
  8
寸法線
 48
10.0
100
AcDbLine
 10
189.264018428493
 20
256.85863765017
 30
0.0
 11
189.264018428493
 21
138.367628789555
 31
0.0
  0
LINE
  5
519F
330
1A
100
AcDbEntity
  8
寸法線
 48
10.0
100
AcDbLine
 10
215.114593546005
 20
256.85863765017
 30
0.0
 11
215.114593546005
 21
138.367628789555
 31
0.0
  0
LINE
  5
51A0
330
1A
100
AcDbEntity
  8
寸法線
 48
10.0
100
AcDbLine
 10
239.181609821299
 20
256.85863765017
 30
0.0
 11
239.181609821299
 21
138.367628789555
 31
0.0
  0
LINE
  5
51A1
330
1A
100
AcDbEntity
  8
寸法線
 48
10.0
100
AcDbLine
 10
265.032184938811
 20
256.85863765017
 30
0.0
 11
265.032184938811
 21
138.367628789555
 31
0.0
  0
LINE
  5
51A2
330
1A
100
AcDbEntity
  8
寸法線
100
AcDbLine
 10
337.868335551776
 20
138.367628789555
 30
0.0
 11
337.868335551776
 21
256.85863765017
 31
0.0
  0
SPLINE
  5
51A3
330
1A
100
AcDbEntity
  8
寸法線
 48
10.0
100
AcDbSpline
210
0.0
220
0.0
230
1.0
 70
  1064
 71
     3
 72
    13
 73
     9
 74
     7
 42
0.000000001
 43
0.0000000001
 44
0.0000000001
 40
0.0
 40
0.0
 40
0.0
 40
0.0
 40
3.546053604694636
 40
9.278996093298913
 40
13.89970108471584
 40
17.09539662994941
 40
18.7947045570245
 40
20.02704699455836
 40
20.02704699455836
 40
20.02704699455836
 40
20.02704699455836
 10
172.7764995500126
 20
245.9774133421567
 30
0.0
 10
173.831027819091
 20
246.4645420763609
 30
0.0
 10
176.5904231300069
 20
247.7392170039002
 30
0.0
 10
177.2553600363671
 20
256.6376738767187
 30
0.0
 10
173.3220570172205
 20
250.2375870527765
 30
0.0
 10
173.4942932134218
 20
246.9885694942081
 30
0.0
 10
175.5665749110711
 20
245.7157504173982
 30
0.0
 10
176.483178989307
 20
246.1742675012678
 30
0.0
 10
176.8684807693771
 20
246.3670087870664
 30
0.0
 11
172.7764995500126
 21
245.9774133421567
 31
0.0
 11
175.6019149829614
 21
248.1201974653532
 31
0.0
 11
176.2351978761691
 21
253.8180551640689
 31
0.0
 11
173.7507814763109
 21
249.9220841978243
 31
0.0
 11
174.1892084627733
 21
246.7566060672148
 31
0.0
 11
175.6993429363341
 21
245.9774133421567
 31
0.0
 11
176.8684807693771
 21
246.3670087870664
 31
0.0
  0
SPLINE
  5
51A4
330
1A
100
AcDbEntity
  8
寸法線
 48
10.0
100
AcDbSpline
210
0.0
220
0.0
230
1.0
 70
  1064
 71
     3
 72
    13
 73
     9
 74
     7
 42
0.000000001
 43
0.0000000001
 44
0.0000000001
 40
0.0
 40
0.0
 40
0.0
 40
0.0
 40
3.546053604694636
 40
9.278996093298913
 40
13.89970108471584
 40
17.09539662994941
 40
18.7947045570245
 40
20.02704699455836
 40
20.02704699455836
 40
20.02704699455836
 40
20.02704699455836
 10
198.7989514964508
 20
245.9774133421567
 30
0.0
 10
199.8534797655291
 20
246.4645420763609
 30
0.0
 10
202.6128750764451
 20
247.7392170039002
 30
0.0
 10
203.2778119828053
 20
256.6376738767187
 30
0.0
 10
199.3445089636587
 20
250.2375870527765
 30
0.0
 10
199.51674515986
 20
246.9885694942081
 30
0.0
 10
201.5890268575093
 20
245.7157504173982
 30
0.0
 10
202.5056309357452
 20
246.1742675012678
 30
0.0
 10
202.8909327158153
 20
246.3670087870664
 30
0.0
 11
198.7989514964508
 21
245.9774133421567
 31
0.0
 11
201.6243669293996
 21
248.1201974653532
 31
0.0
 11
202.2576498226073
 21
253.8180551640689
 31
0.0
 11
199.7732334227491
 21
249.9220841978243
 31
0.0
 11
200.2116604092115
 21
246.7566060672148
 31
0.0
 11
201.7217948827723
 21
245.9774133421567
 31
0.0
 11
202.8909327158153
 21
246.3670087870664
 31
0.0
  0
TEXT
  5
51A5
330
1A
100
AcDbEntity
  8
寸法線
 48
10.0
100
AcDbText
 10
205.256980293935
 20
246.061741081501
 30
0.0
 40
5.2
  1
1
100
AcDbText
  0
SPLINE
  5
51A6
330
1A
100
AcDbEntity
  8
寸法線
 48
10.0
100
AcDbSpline
210
0.0
220
0.0
230
1.0
 70
  1064
 71
     3
 72
    13
 73
     9
 74
     7
 42
0.000000001
 43
0.0000000001
 44
0.0000000001
 40
0.0
 40
0.0
 40
0.0
 40
0.0
 40
3.546053604694681
 40
9.278996093298945
 40
13.89970108471587
 40
17.09539662994945
 40
18.79470455702454
 40
20.0270469945584
 40
20.0270469945584
 40
20.0270469945584
 40
20.0270469945584
 10
222.8659677717444
 20
245.9774133421567
 30
0.0
 10
223.9204960408227
 20
246.4645420763609
 30
0.0
 10
226.6798913517386
 20
247.7392170038999
 30
0.0
 10
227.3448282580987
 20
256.6376738767186
 30
0.0
 10
223.4115252389524
 20
250.2375870527767
 30
0.0
 10
223.5837614351535
 20
246.988569494208
 30
0.0
 10
225.6560431328029
 20
245.7157504173982
 30
0.0
 10
226.5726472110388
 20
246.1742675012677
 30
0.0
 10
226.9579489911089
 20
246.3670087870664
 30
0.0
 11
222.8659677717444
 21
245.9774133421567
 31
0.0
 11
225.6913832046932
 21
248.1201974653532
 31
0.0
 11
226.3246660979008
 21
253.8180551640689
 31
0.0
 11
223.8402496980426
 21
249.9220841978243
 31
0.0
 11
224.2786766845051
 21
246.7566060672148
 31
0.0
 11
225.7888111580659
 21
245.9774133421567
 31
0.0
 11
226.9579489911089
 21
246.3670087870664
 31
0.0
  0
TEXT
  5
51A7
330
1A
100
AcDbEntity
  8
寸法線
 48
10.0
100
AcDbText
 10
229.323996569228
 20
246.061741081501
 30
0.0
 40
5.2
  1
2
100
AcDbText
  0
TEXT
  5
51A8
330
1A
100
AcDbEntity
  8
寸法線
 48
10.0
100
AcDbText
 10
255.17457168674
 20
246.061741081501
 30
0.0
 40
5.2
  1
3
100
AcDbText
  0
SPLINE
  5
51A9
330
1A
100
AcDbEntity
  8
寸法線
 48
10.0
100
AcDbSpline
210
0.0
220
0.0
230
1.0
 70
  1064
 71
     3
 72
    13
 73
     9
 74
     7
 42
0.000000001
 43
0.0000000001
 44
0.0000000001
 40
0.0
 40
0.0
 40
0.0
 40
0.0
 40
3.546053604694681
 40
9.278996093298945
 40
13.89970108471587
 40
17.09539662994945
 40
18.79470455702454
 40
20.0270469945584
 40
20.0270469945584
 40
20.0270469945584
 40
20.0270469945584
 10
248.7165428892563
 20
245.9774133421567
 30
0.0
 10
249.7710711583346
 20
246.4645420763609
 30
0.0
 10
252.5304664692505
 20
247.7392170038999
 30
0.0
 10
253.1954033756106
 20
256.6376738767186
 30
0.0
 10
249.2621003564643
 20
250.2375870527767
 30
0.0
 10
249.4343365526654
 20
246.988569494208
 30
0.0
 10
251.5066182503147
 20
245.7157504173982
 30
0.0
 10
252.4232223285507
 20
246.1742675012677
 30
0.0
 10
252.8085241086208
 20
246.3670087870664
 30
0.0
 11
248.7165428892563
 21
245.9774133421567
 31
0.0
 11
251.5419583222051
 21
248.1201974653532
 31
0.0
 11
252.1752412154127
 21
253.8180551640689
 31
0.0
 11
249.6908248155545
 21
249.9220841978243
 31
0.0
 11
250.1292518020169
 21
246.7566060672148
 31
0.0
 11
251.6393862755777
 21
245.9774133421567
 31
0.0
 11
252.8085241086208
 21
246.3670087870664
 31
0.0
  0
MTEXT
  5
51AA
102
{ACAD_XDICTIONARY
360
51AB
102
}
330
1A
100
AcDbEntity
  8
寸法線
 48
10.0
100
AcDbMText
 10
119.227544013956
 20
254.001856618776
 30
0.0
 40
8.0
 41
72.990776685661
 71
     2
 72
     5
  1
MODEL
1001
ACADANNOTATIVE
1000
AnnotativeData
1002
{
1070
     1
1070
     0
1002
}
1001
ACAD
1000
MTEXTBEGIN
1070
    44
1040
0.99
1000
MTEXTEND
  0
MTEXT
  5
51AE
102
{ACAD_XDICTIONARY
360
51AF
102
}
330
1A
100
AcDbEntity
  8
寸法線
 48
10.0
100
AcDbMText
 10
319.175899566554
 20
254.169334984522
 30
0.0
 40
8.0
 41
31.756318564289
 71
     2
 72
     5
  1
Q'ty
1001
ACADANNOTATIVE
1000
AnnotativeData
1002
{
1070
     1
1070
     0
1002
}
  0
MTEXT
  5
51B2
102
{ACAD_XDICTIONARY
360
51B3
102
}
330
1A
100
AcDbEntity
  8
寸法線
 48
10.0
100
AcDbMText
 10
284.02507428441
 20
253.113604124682
 30
0.0
 40
8.0
 41
38.545332
 71
     2
 72
     5
  1
NOTE
1001
ACADANNOTATIVE
1000
AnnotativeData
1002
{
1070
     1
1070
     0
1002
}
  0
LINE
  5
51B6
330
1A
100
AcDbEntity
  8
寸法線
 48
10.0
100
AcDbLine
 10
50.732185671126
 20
242.78863765017
 30
0.0
 11
82.732155671126
 21
256.85863765017
 31
0.0
  0
LINE
  5
5202
330
1A
100
AcDbEntity
  8
寸法線
100
AcDbLine
 10
369.868305551776
 20
138.367628789555
 30
0.0
 11
369.868305551776
 21
256.85863765017
 31
0.0
  0
LINE
  5
5203
330
1A
100
AcDbEntity
  8
寸法線
100
AcDbLine
 10
337.868335551776
 20
138.367628789555
 30
0.0
 11
337.868335551776
 21
256.85863765017
 31
0.0
  0
LINE
  5
5204
330
1A
100
AcDbEntity
  8
寸法線
100
AcDbLine
 10
590.71366681946
 20
138.367628789555
 30
0.0
 11
590.71366681946
 21
256.85863765017
 31
0.0
  0
LINE
  5
5205
330
1A
100
AcDbEntity
  8
寸法線
100
AcDbLine
 10
622.469985383749
 20
138.367628789555
 30
0.0
 11
622.469985383749
 21
256.85863765017
 31
0.0
  0
LINE
  5
5206
330
1A
100
AcDbEntity
  8
寸法線
 48
10.0
100
AcDbLine
 10
448.766034349413
 20
256.85863765017
 30
0.0
 11
448.766034349413
 21
138.367628789555
 31
0.0
  0
LINE
  5
5207
330
1A
100
AcDbEntity
  8
寸法線
 48
10.0
100
AcDbLine
 10
476.400168309143
 20
256.85863765017
 30
0.0
 11
476.400168309143
 21
138.367628789555
 31
0.0
  0
LINE
  5
5208
330
1A
100
AcDbEntity
  8
寸法線
 48
10.0
100
AcDbLine
 10
502.250743426655
 20
256.85863765017
 30
0.0
 11
502.250743426655
 21
138.367628789555
 31
0.0
  0
LINE
  5
5209
330
1A
100
AcDbEntity
  8
寸法線
 48
10.0
100
AcDbLine
 10
526.317759701948
 20
256.85863765017
 30
0.0
 11
526.317759701948
 21
138.367628789555
 31
0.0
  0
LINE
  5
520A
330
1A
100
AcDbEntity
  8
寸法線
 48
10.0
100
AcDbLine
 10
552.16833481946
 20
256.85863765017
 30
0.0
 11
552.16833481946
 21
138.367628789555
 31
0.0
  0
SPLINE
  5
520C
330
1A
100
AcDbEntity
  8
寸法線
 48
10.0
100
AcDbSpline
210
0.0
220
0.0
230
1.0
 70
  1064
 71
     3
 72
    13
 73
     9
 74
     7
 42
0.000000001
 43
0.0000000001
 44
0.0000000001
 40
0.0
 40
0.0
 40
0.0
 40
0.0
 40
3.54605360469459
 40
9.278996093298868
 40
13.89970108471579
 40
17.09539662994937
 40
18.79470455702447
 40
20.02704699455833
 40
20.02704699455833
 40
20.02704699455833
 40
20.02704699455833
 10
459.9126494306622
 20
245.9774133421567
 30
0.0
 10
460.9671776997404
 20
246.4645420763609
 30
0.0
 10
463.7265730106564
 20
247.7392170039001
 30
0.0
 10
464.3915099170166
 20
256.6376738767187
 30
0.0
 10
460.4582068978701
 20
250.2375870527765
 30
0.0
 10
460.6304430940714
 20
246.9885694942081
 30
0.0
 10
462.7027247917207
 20
245.7157504173982
 30
0.0
 10
463.6193288699566
 20
246.1742675012677
 30
0.0
 10
464.0046306500267
 20
246.3670087870664
 30
0.0
 11
459.9126494306622
 21
245.9774133421567
 31
0.0
 11
462.7380648636109
 21
248.1201974653532
 31
0.0
 11
463.3713477568186
 21
253.8180551640689
 31
0.0
 11
460.8869313569604
 21
249.9220841978243
 31
0.0
 11
461.3253583434229
 21
246.7566060672148
 31
0.0
 11
462.8354928169837
 21
245.9774133421567
 31
0.0
 11
464.0046306500267
 21
246.3670087870664
 31
0.0
  0
SPLINE
  5
520D
330
1A
100
AcDbEntity
  8
寸法線
 48
10.0
100
AcDbSpline
210
0.0
220
0.0
230
1.0
 70
  1064
 71
     3
 72
    13
 73
     9
 74
     7
 42
0.000000001
 43
0.0000000001
 44
0.0000000001
 40
0.0
 40
0.0
 40
0.0
 40
0.0
 40
3.54605360469459
 40
9.278996093298868
 40
13.89970108471579
 40
17.09539662994937
 40
18.79470455702447
 40
20.02704699455833
 40
20.02704699455833
 40
20.02704699455833
 40
20.02704699455833
 10
485.9351013771004
 20
245.9774133421567
 30
0.0
 10
486.9896296461787
 20
246.4645420763609
 30
0.0
 10
489.7490249570946
 20
247.7392170039001
 30
0.0
 10
490.4139618634547
 20
256.6376738767187
 30
0.0
 10
486.4806588443083
 20
250.2375870527765
 30
0.0
 10
486.6528950405095
 20
246.9885694942081
 30
0.0
 10
488.7251767381589
 20
245.7157504173982
 30
0.0
 10
489.6417808163948
 20
246.1742675012677
 30
0.0
 10
490.0270825964649
 20
246.3670087870664
 30
0.0
 11
485.9351013771004
 21
245.9774133421567
 31
0.0
 11
488.7605168100491
 21
248.1201974653532
 31
0.0
 11
489.3937997032568
 21
253.8180551640689
 31
0.0
 11
486.9093833033986
 21
249.9220841978243
 31
0.0
 11
487.3478102898611
 21
246.7566060672148
 31
0.0
 11
488.8579447634219
 21
245.9774133421567
 31
0.0
 11
490.0270825964649
 21
246.3670087870664
 31
0.0
  0
TEXT
  5
520E
330
1A
100
AcDbEntity
  8
寸法線
 48
10.0
100
AcDbText
 10
492.393130174584
 20
246.061741081501
 30
0.0
 40
5.2
  1
1
100
AcDbText
  0
SPLINE
  5
520F
330
1A
100
AcDbEntity
  8
寸法線
 48
10.0
100
AcDbSpline
210
0.0
220
0.0
230
1.0
 70
  1064
 71
     3
 72
    13
 73
     9
 74
     7
 42
0.000000001
 43
0.0000000001
 44
0.0000000001
 40
0.0
 40
0.0
 40
0.0
 40
0.0
 40
3.546053604694681
 40
9.278996093298945
 40
13.89970108471587
 40
17.09539662994945
 40
18.79470455702454
 40
20.0270469945584
 40
20.0270469945584
 40
20.0270469945584
 40
20.0270469945584
 10
510.002117652394
 20
245.9774133421567
 30
0.0
 10
511.0566459214723
 20
246.4645420763609
 30
0.0
 10
513.8160412323881
 20
247.7392170038999
 30
0.0
 10
514.4809781387482
 20
256.6376738767186
 30
0.0
 10
510.5476751196021
 20
250.2375870527767
 30
0.0
 10
510.719911315803
 20
246.988569494208
 30
0.0
 10
512.7921930134526
 20
245.7157504173982
 30
0.0
 10
513.7087970916883
 20
246.1742675012677
 30
0.0
 10
514.0940988717584
 20
246.3670087870664
 30
0.0
 11
510.002117652394
 21
245.9774133421567
 31
0.0
 11
512.8275330853428
 21
248.1201974653532
 31
0.0
 11
513.4608159785504
 21
253.8180551640689
 31
0.0
 11
510.9763995786922
 21
249.9220841978243
 31
0.0
 11
511.4148265651546
 21
246.7566060672148
 31
0.0
 11
512.9249610387154
 21
245.9774133421567
 31
0.0
 11
514.0940988717584
 21
246.3670087870664
 31
0.0
  0
TEXT
  5
5210
330
1A
100
AcDbEntity
  8
寸法線
 48
10.0
100
AcDbText
 10
516.460146449878
 20
246.061741081501
 30
0.0
 40
5.2
  1
2
100
AcDbText
  0
TEXT
  5
5211
330
1A
100
AcDbEntity
  8
寸法線
 48
10.0
100
AcDbText
 10
542.31072156739
 20
246.061741081501
 30
0.0
 40
5.2
  1
3
100
AcDbText
  0
SPLINE
  5
5212
330
1A
100
AcDbEntity
  8
寸法線
 48
10.0
100
AcDbSpline
210
0.0
220
0.0
230
1.0
 70
  1064
 71
     3
 72
    13
 73
     9
 74
     7
 42
0.000000001
 43
0.0000000001
 44
0.0000000001
 40
0.0
 40
0.0
 40
0.0
 40
0.0
 40
3.546053604694681
 40
9.278996093298945
 40
13.89970108471587
 40
17.09539662994945
 40
18.79470455702454
 40
20.0270469945584
 40
20.0270469945584
 40
20.0270469945584
 40
20.0270469945584
 10
535.8526927699058
 20
245.9774133421567
 30
0.0
 10
536.9072210389842
 20
246.4645420763609
 30
0.0
 10
539.6666163499
 20
247.7392170038999
 30
0.0
 10
540.33155325626
 20
256.6376738767186
 30
0.0
 10
536.3982502371141
 20
250.2375870527767
 30
0.0
 10
536.5704864333147
 20
246.988569494208
 30
0.0
 10
538.6427681309644
 20
245.7157504173982
 30
0.0
 10
539.5593722092002
 20
246.1742675012677
 30
0.0
 10
539.9446739892703
 20
246.3670087870664
 30
0.0
 11
535.8526927699058
 21
245.9774133421567
 31
0.0
 11
538.6781082028547
 21
248.1201974653532
 31
0.0
 11
539.3113910960623
 21
253.8180551640689
 31
0.0
 11
536.826974696204
 21
249.9220841978243
 31
0.0
 11
537.2654016826665
 21
246.7566060672148
 31
0.0
 11
538.7755361562273
 21
245.9774133421567
 31
0.0
 11
539.9446739892703
 21
246.3670087870664
 31
0.0
  0
MTEXT
  5
5213
102
{ACAD_XDICTIONARY
360
5214
102
}
330
1A
100
AcDbEntity
  8
寸法線
 48
10.0
100
AcDbMText
 10
406.363693894606
 20
254.001856618776
 30
0.0
 40
8.0
 41
72.990776685661
 71
     2
 72
     5
  1
MODEL
1001
ACADANNOTATIVE
1000
AnnotativeData
1002
{
1070
     1
1070
     0
1002
}
1001
ACAD
1000
MTEXTBEGIN
1070
    44
1040
0.99
1000
MTEXTEND
  0
MTEXT
  5
5217
102
{ACAD_XDICTIONARY
360
5218
102
}
330
1A
100
AcDbEntity
  8
寸法線
 48
10.0
100
AcDbMText
 10
606.312049447204
 20
254.169334984522
 30
0.0
 40
8.0
 41
31.756318564289
 71
     2
 72
     5
  1
Q'ty
1001
ACADANNOTATIVE
1000
AnnotativeData
1002
{
1070
     1
1070
     0
1002
}
  0
MTEXT
  5
521B
102
{ACAD_XDICTIONARY
360
521C
102
}
330
1A
100
AcDbEntity
  8
寸法線
 48
10.0
100
AcDbMText
 10
571.161224165059
 20
253.113604124682
 30
0.0
 40
8.0
 41
38.545332
 71
     2
 72
     5
  1
NOTE
1001
ACADANNOTATIVE
1000
AnnotativeData
1002
{
1070
     1
1070
     0
1002
}
  0
LINE
  5
521F
330
1A
100
AcDbEntity
  8
寸法線
 48
10.0
100
AcDbLine
 10
337.868335551776
 20
242.78863765017
 30
0.0
 11
369.868305551776
 21
256.85863765017
 31
0.0
  0
DIMENSION
  5
52CD
330
1A
100
AcDbEntity
  8
寸法線
 48
10.0
100
AcDbDimension
  2
*D45
 10
63.915886856132
 20
386.265775454862
 30
0.0
 11
63.915886856132
 21
426.324108788195
 31
0.0
 70
   160
  1
φ<>
  3
ISO-25
100
AcDbAlignedDimension
 13
77.554355112404
 23
407.765775454861
 33
0.0
 14
77.554355112404
 24
386.265775454862
 34
0.0
 50
90.0
100
AcDbRotatedDimension
1001
ACAD
1000
DSTYLE
1002
{
1070
     5
1000
OPEN30
1070
    41
1040
6.0
1070
    47
1040
0.1
1070
    48
1040
0.1
1070
    73
1070
     0
1070
   140
1040
8.0
1070
   271
1070
     1
1070
   272
1070
     1
1070
   341
1005
2AF4
1002
}
  0
LINE
  5
52CE
330
1A
100
AcDbEntity
  8
外形線
100
AcDbLine
 10
176.554355112404
 20
386.265775454862
 30
0.0
 11
176.554355112404
 21
407.765775454861
 31
0.0
  0
LINE
  5
52CF
330
1A
100
AcDbEntity
  8
外形線
100
AcDbLine
 10
176.554355112404
 20
407.765775454861
 30
0.0
 11
130.054355112404
 21
407.765775454861
 31
0.0
  0
LINE
  5
52D0
330
1A
100
AcDbEntity
  8
外形線
100
AcDbLine
 10
77.554355112404
 20
407.765775454861
 30
0.0
 11
76.554355112404
 21
406.765775454861
 31
0.0
  0
LINE
  5
52D1
330
1A
100
AcDbEntity
  8
外形線
100
AcDbLine
 10
76.554355112404
 20
406.765775454861
 30
0.0
 11
76.554355112404
 21
387.265775454862
 31
0.0
  0
LINE
  5
52D2
330
1A
100
AcDbEntity
  8
外形線
100
AcDbLine
 10
77.554355112404
 20
386.265775454862
 30
0.0
 11
76.554355112404
 21
387.265775454862
 31
0.0
  0
LINE
  5
52D3
330
1A
100
AcDbEntity
  8
外形線
100
AcDbLine
 10
176.554355112404
 20
386.265775454862
 30
0.0
 11
130.054355112404
 21
386.265775454862
 31
0.0
  0
ARC
  5
52D4
330
1A
100
AcDbEntity
  8
細線
 48
10.0
100
AcDbCircle
 10
116.831698862404
 20
402.390775454862
 30
0.0
 40
8.222656249999796
100
AcDbArc
 50
319.180234332391
 51
40.819765667609
  0
ARC
  5
52D5
330
1A
100
AcDbEntity
  8
細線
 48
10.0
100
AcDbCircle
 10
116.831698862404
 20
391.640775454862
 30
0.0
 40
8.222656249999796
100
AcDbArc
 50
319.180234332391
 51
40.819765667609
  0
ARC
  5
52D6
330
1A
100
AcDbEntity
  8
細線
 48
10.0
100
AcDbCircle
 10
129.277011362404
 20
402.390775454862
 30
0.0
 40
8.222656249999796
100
AcDbArc
 50
139.180234332391
 51
220.819765667608
  0
ARC
  5
52D7
330
1A
100
AcDbEntity
  8
細線
 48
10.0
100
AcDbCircle
 10
136.277011362404
 20
402.390775454862
 30
0.0
 40
8.222656249999796
100
AcDbArc
 50
139.180234332391
 51
220.819765667608
  0
ARC
  5
52D8
330
1A
100
AcDbEntity
  8
細線
 48
10.0
100
AcDbCircle
 10
123.831698862404
 20
391.640775454862
 30
0.0
 40
8.222656249999796
100
AcDbArc
 50
319.180234332391
 51
40.819765667609
  0
ARC
  5
52D9
330
1A
100
AcDbEntity
  8
細線
 48
10.0
100
AcDbCircle
 10
136.277011362404
 20
391.640775454862
 30
0.0
 40
8.222656249999796
100
AcDbArc
 50
139.180234332391
 51
220.819765667608
  0
LINE
  5
52DA
330
1A
100
AcDbEntity
  8
外形線
100
AcDbLine
 10
123.054355112404
 20
407.765775454861
 30
0.0
 11
77.554355112404
 21
407.765775454861
 31
0.0
  0
LINE
  5
52DB
330
1A
100
AcDbEntity
  8
外形線
100
AcDbLine
 10
123.054355112404
 20
386.265775454862
 30
0.0
 11
77.554355112404
 21
386.265775454862
 31
0.0
  0
VIEWPORT
  5
2902
330
28FB
100
AcDbEntity
 67
     1
  8
0
 48
10.0
100
AcDbViewport
 10
0.0
 20
0.0
 30
0.0
 40
528.349942987457
 41
300.3
 68
     1
 69
     1
1001
ACAD
1000
MVIEW
1002
{
1070
    16
1010
0.0
1020
0.0
1030
0.0
1010
0.0
1020
0.0
1030
1.0
1040
0.0
1040
300.3
1040
205.756503333333
1040
143.551503333333
1040
50.0
1040
0.0
1040
0.0
1070
    16
1070
   100
1070
     0
1070
     1
1070
     0
1070
     0
1070
     0
1070
     0
1040
0.0
1040
0.0
1040
0.0
1040
10.0
1040
10.0
1040
10.0
1040
10.0
1070
     0
1002
{
1002
}
1002
}
  0
VIEWPORT
  5
2904
330
28FB
100
AcDbEntity
 67
     1
  8
図枠太線
 48
10.0
100
AcDbViewport
 10
202.746305129083
 20
159.796645458131
 30
0.0
 40
396.0
 41
237.6
 68
     2
 69
     2
1001
ACAD
1000
MVIEW
1002
{
1070
    16
1010
0.0
1020
0.0
1030
0.0
1010
0.0
1020
0.0
1030
1.0
1040
0.0
1040
475.200003194258
1040
262.709488528688
1040
322.286083282237
1040
50.0
1040
0.0
1040
0.0
1070
     0
1070
   100
1070
     0
1070
     0
1070
     0
1070
     0
1070
     0
1070
     0
1040
0.0
1040
0.0
1040
0.0
1040
1.0
1040
1.0
1040
0.0
1040
0.0
1070
     0
1002
{
1002
}
1002
}
  0
INSERT
  5
2A59
330
28FB
100
AcDbEntity
 67
     1
  8
図枠太線
100
AcDbBlockReference
  2
A3横用_タイトル
 10
-0.301125261351
 20
-2.09405469786
 30
0.0
 41
0.99
 42
0.99
 43
0.99
  0
MTEXT
  5
2E85
330
28FB
100
AcDbEntity
 67
     1
  8
寸法線
 48
10.0
100
AcDbMText
 10
149.12611673873
 20
14.255245025413
 30
0.0
 40
5.0
 41
11.452149180996
 71
     1
 72
     5
  1
{\H1.4x;1:2}
  0
MTEXT
  5
4E7E
102
{ACAD_XDICTIONARY
360
4E7F
102
}
330
28FB
100
AcDbEntity
 67
     1
  8
寸法線
 48
10.0
100
AcDbMText
 10
185.964878802205
 20
33.086520483444
 30
0.0
 40
5.0
 41
33.4
 71
     2
 72
     5
  1
takahashi
1001
ACADANNOTATIVE
1000
AnnotativeData
1002
{
1070
     1
1070
     0
1002
}
  0
MTEXT
  5
4E82
102
{ACAD_XDICTIONARY
360
4E83
102
}
330
28FB
100
AcDbEntity
 67
     1
  8
寸法線
 48
10.0
100
AcDbMText
 10
373.920856708546
 20
50.434223925331
 30
0.0
 40
5.0
 41
21.364427237501
 71
     1
 72
     5
  1
Q'ty: 
1001
ACADANNOTATIVE
1000
AnnotativeData
1002
{
1070
     1
1070
     0
1002
}
  0
MTEXT
  5
4F0B
102
{ACAD_XDICTIONARY
360
4F0C
102
}
330
28FB
100
AcDbEntity
 67
     1
  8
寸法線
 48
10.0
100
AcDbMText
 10
337.155313110839
 20
15.29393312214
 30
0.0
 40
8.0
 41
33.206594841881
 71
     1
 72
     5
  1
HE-13019
1001
ACADANNOTATIVE
1000
AnnotativeData
1002
{
1070
     1
1070
     0
1002
}
  0
MTEXT
  5
4F3D
330
28FB
100
AcDbEntity
 67
     1
  8
寸法線
 48
10.0
100
AcDbMText
 10
208.548677740965
 20
50.785679132829
 30
0.0
 40
5.0
 41
106.699923235854
 71
     1
 72
     5
  1
a reduced drawing（A3size～）
  0
LINE
  5
4F3E
330
28FB
100
AcDbEntity
 67
     1
  8
寸法線
 48
10.0
100
AcDbLine
 10
204.834699746824
 20
43.930291551503
 30
0.0
 11
301.487818087333
 21
43.930291551503
 31
0.0
  0
MTEXT
  5
5149
102
{ACAD_XDICTIONARY
360
514A
102
}
330
28FB
100
AcDbEntity
 67
     1
  8
寸法線
 48
10.0
100
AcDbMText
 10
303.871917838935
 20
32.014406608895
 30
0.0
 40
6.0
 41
45.0
 71
     1
 72
     5
  1
TSS-A4SA-□
1001
ACADANNOTATIVE
1000
AnnotativeData
1002
{
1070
     1
1070
     0
1002
}
  0
MTEXT
  5
514D
330
28FB
100
AcDbEntity
 67
     1
  8
寸法線
 48
10.0
100
AcDbMText
 10
357.549497831478
 20
34.670077613205
 30
0.0
 40
3.5
 41
59.837375094616
 71
     1
 72
     5
  1
CAPACITANCE TYPE\PLEVEL SENSOR
  0
MTEXT
  5
53D8
102
{ACAD_XDICTIONARY
360
53D9
102
}
330
28FB
100
AcDbEntity
 67
     1
  8
寸法線
 48
10.0
100
AcDbMText
 10
186.046305129083
 20
12.42384379707
 30
0.0
 40
5.0
 41
33.4
 71
     2
 72
     5
  1
\H0.9x;Sep.14.2016
1001
ACADANNOTATIVE
1000
AnnotativeData
1002
{
1070
     1
1070
     0
1002
}
  0
ENDSEC
  0
SECTION
  2
OBJECTS
  0
DICTIONARY
  5
C
330
0
100
AcDbDictionary
  3
ACAD_COLOR
350
2948
  3
ACAD_GROUP
350
D
  3
ACAD_LAYOUT
350
2816
  3
ACAD_MATERIAL
350
2947
  3
ACAD_MLEADERSTYLE
350
43C7
  3
ACAD_MLINESTYLE
350
E
  3
ACAD_PLOTSETTINGS
350
2817
  3
ACAD_SCALELIST
350
43A0
  3
ACAD_VISUALSTYLE
350
4387
  3
ACADDIM
350
3DAB
  3
ACDBHEADERROUNDTRIPXREC
350
543A
  3
ACDBVARIABLEDICTIONARY
350
46B7
  3
DWGPROPS
350
545F
  0
DICTIONARY
  5
5460
330
8
100
AcDbDictionary
280
     1
  3
ACAD_XREC_ROUNDTRIP
360
5461
  0
DICTIONARY
  5
29EA
330
2
100
AcDbDictionary
280
     1
  3
ACAD_LAYERFILTERS
360
2B0C
  3
ACAD_LAYERSTATES
360
29EB
  0
DICTIONARY
  5
4C1B
330
1A
100
AcDbDictionary
280
     1
  3
ACAD_SORTENTS
360
4C1C
  0
DICTIONARY
  5
45CF
330
45CE
100
AcDbDictionary
280
     1
  3
ACDBCONTEXTDATAMANAGER
360
45D0
  0
DICTIONARY
  5
45E8
330
45E7
100
AcDbDictionary
280
     1
  3
ACDBCONTEXTDATAMANAGER
360
45E9
  0
DICTIONARY
  5
4A8F
330
4A8E
100
AcDbDictionary
280
     1
  3
ACDBCONTEXTDATAMANAGER
360
4A90
  0
DICTIONARY
  5
4A93
330
4A92
100
AcDbDictionary
280
     1
  3
ACDBCONTEXTDATAMANAGER
360
4A94
  0
DICTIONARY
  5
4A97
330
4A96
100
AcDbDictionary
280
     1
  3
ACDBCONTEXTDATAMANAGER
360
4A98
  0
DICTIONARY
  5
4A9B
330
4A9A
100
AcDbDictionary
280
     1
  3
ACDBCONTEXTDATAMANAGER
360
4A9C
  0
DICTIONARY
  5
4A9F
330
4A9E
100
AcDbDictionary
280
     1
  3
ACDBCONTEXTDATAMANAGER
360
4AA0
  0
DICTIONARY
  5
4AA3
330
4AA2
100
AcDbDictionary
280
     1
  3
ACDBCONTEXTDATAMANAGER
360
4AA4
  0
DICTIONARY
  5
4AA7
330
4AA6
100
AcDbDictionary
280
     1
  3
ACDBCONTEXTDATAMANAGER
360
4AA8
  0
DICTIONARY
  5
4AAB
330
4AAA
100
AcDbDictionary
280
     1
  3
ACDBCONTEXTDATAMANAGER
360
4AAC
  0
DICTIONARY
  5
4C15
330
4C14
100
AcDbDictionary
280
     1
  3
ACDBCONTEXTDATAMANAGER
360
4C16
  0
DICTIONARY
  5
4C84
330
4C83
100
AcDbDictionary
280
     1
  3
ACDBCONTEXTDATAMANAGER
360
4C85
  0
DICTIONARY
  5
4CE2
330
4CE1
100
AcDbDictionary
280
     1
  3
ACDBCONTEXTDATAMANAGER
360
4CE3
  0
DICTIONARY
  5
4CF0
330
4CEF
100
AcDbDictionary
280
     1
  3
ACDBCONTEXTDATAMANAGER
360
4CF1
  0
DICTIONARY
  5
4D3A
330
4D39
100
AcDbDictionary
280
     1
  3
ACDBCONTEXTDATAMANAGER
360
4D3B
  0
DICTIONARY
  5
4D3E
330
4D3D
100
AcDbDictionary
280
     1
  3
ACDBCONTEXTDATAMANAGER
360
4D3F
  0
DICTIONARY
  5
51AB
330
51AA
100
AcDbDictionary
280
     1
  3
ACDBCONTEXTDATAMANAGER
360
51AC
  0
DICTIONARY
  5
51AF
330
51AE
100
AcDbDictionary
280
     1
  3
ACDBCONTEXTDATAMANAGER
360
51B0
  0
DICTIONARY
  5
51B3
330
51B2
100
AcDbDictionary
280
     1
  3
ACDBCONTEXTDATAMANAGER
360
51B4
  0
DICTIONARY
  5
5214
330
5213
100
AcDbDictionary
280
     1
  3
ACDBCONTEXTDATAMANAGER
360
5215
  0
DICTIONARY
  5
5218
330
5217
100
AcDbDictionary
280
     1
  3
ACDBCONTEXTDATAMANAGER
360
5219
  0
DICTIONARY
  5
521C
330
521B
100
AcDbDictionary
280
     1
  3
ACDBCONTEXTDATAMANAGER
360
521D
  0
DICTIONARY
  5
4E7F
330
4E7E
100
AcDbDictionary
280
     1
  3
ACDBCONTEXTDATAMANAGER
360
4E80
  0
DICTIONARY
  5
4E83
330
4E82
100
AcDbDictionary
280
     1
  3
ACDBCONTEXTDATAMANAGER
360
4E84
  0
DICTIONARY
  5
4F0C
330
4F0B
100
AcDbDictionary
280
     1
  3
ACDBCONTEXTDATAMANAGER
360
4F0D
  0
DICTIONARY
  5
514A
330
5149
100
AcDbDictionary
280
     1
  3
ACDBCONTEXTDATAMANAGER
360
514B
  0
DICTIONARY
  5
53D9
330
53D8
100
AcDbDictionary
280
     1
  3
ACDBCONTEXTDATAMANAGER
360
53DA
  0
DICTIONARY
  5
2948
102
{ACAD_REACTORS
330
C
102
}
330
C
100
AcDbDictionary
  0
DICTIONARY
  5
D
102
{ACAD_REACTORS
330
C
102
}
330
C
100
AcDbDictionary
  3
*A1
350
414E
  3
*A2
350
4150
  0
DICTIONARY
  5
2816
102
{ACAD_REACTORS
330
C
102
}
330
C
100
AcDbDictionary
  0
DICTIONARY
  5
2947
102
{ACAD_REACTORS
330
C
102
}
330
C
100
AcDbDictionary
  3
BYBLOCK
350
43C3
  3
BYLAYER
350
43C2
  3
GLOBAL
350
43C4
  0
DICTIONARY
  5
43C7
102
{ACAD_REACTORS
330
C
102
}
330
C
100
AcDbDictionary
  3
STANDARD
350
43C8
  0
DICTIONARY
  5
E
102
{ACAD_REACTORS
330
C
102
}
330
C
100
AcDbDictionary
  3
STANDARD
350
13
  0
DICTIONARY
  5
2817
102
{ACAD_REACTORS
330
C
102
}
330
C
100
AcDbDictionary
  0
DICTIONARY
  5
43A0
102
{ACAD_REACTORS
330
C
102
}
330
C
100
AcDbDictionary
  3
A0
350
43A1
  3
A1
350
43A2
  3
A2
350
43A3
  3
A3
350
43A4
  3
A4
350
43A5
  3
A5
350
43A6
  3
A6
350
43A7
  3
A7
350
43A8
  3
A8
350
43A9
  3
A9
350
43AA
  3
B0
350
43AB
  3
B1
350
43AC
  3
B2
350
43AD
  3
B3
350
43AE
  3
B4
350
43AF
  3
B5
350
43B0
  3
B6
350
43B1
  3
B7
350
43B2
  3
B8
350
43B3
  3
B9
350
43B4
  3
C0
350
43B5
  3
C1
350
43B6
  3
C2
350
43B7
  3
C3
350
43B8
  3
C4
350
43B9
  3
C5
350
43BA
  3
C6
350
43BB
  3
C7
350
43BC
  3
C8
350
43BD
  3
C9
350
43BE
  3
D0
350
43BF
  3
D1
350
43C0
  3
D2
350
43C1
  0
DICTIONARY
  5
4387
102
{ACAD_REACTORS
330
C
102
}
330
C
100
AcDbDictionary
  3
2DWIREFRAME
350
438C
  3
BASIC
350
438F
  3
BRIGHTEN
350
4393
  3
COLORCHANGE
350
4397
  3
CONCEPTUAL
350
4391
  3
DIM
350
4392
  3
EDGECOLOROFF
350
439A
  3
FACEPATTERN
350
4396
  3
FLAT
350
4388
  3
FLATWITHEDGES
350
4389
  3
GOURAUD
350
438A
  3
GOURAUDWITHEDGES
350
438B
  3
HIDDEN
350
438E
  3
JITTEROFF
350
4398
  3
LINEPATTERN
350
4395
  3
MODELING
350
4B9E
  3
OVERHANGOFF
350
4399
  3
REALISTIC
350
4390
  3
SHADED
350
439F
  3
SHADED_WITH_EDGES
350
439E
  3
SHADES_OF_GRAY
350
439B
  3
SKETCHY
350
439C
  3
THICKEN
350
4394
  3
WIREFRAME
350
438D
  3
X-RAY
350
439D
  0
XRECORD
  5
3DAB
102
{ACAD_REACTORS
330
C
102
}
330
C
100
AcDbXrecord
 90
   990106
  3

 60
     0
 61
     0
 62
     4
 63
     4
 64
     0
 65
     0
 66
     0
 67
     3
 68
     1
 69
     0
 70
     0
 71
     0
 72
     0
 40
0.0
170
     2
340
0
  0
DICTIONARY
  5
543A
102
{ACAD_REACTORS
330
C
102
}
330
C
100
AcDbDictionary
  3
CEPSNID
350
5444
  3
CEPSNTYPE
350
5443
  3
COLORDICT
350
545D
  3
DIMSTYLEDATA
350
545A
  3
FINGERPRINTGUID
350
5445
  3
HYPERLINKBASE
350
543D
  3
INSUNITS
350
5442
  3
LAYOUTDICT
350
543F
  3
LWETCUNION
350
5441
  3
MATERIALDICT
350
545E
  3
PLOTSETDICT
350
5440
  3
PSVPSCALE
350
5447
  3
PUCSBASE
350
544A
  3
PUCSORGBACK
350
5450
  3
PUCSORGBOTTOM
350
544C
  3
PUCSORGFRONT
350
544F
  3
PUCSORGLEFT
350
544D
  3
PUCSORGRIGHT
350
544E
  3
PUCSORGTOP
350
544B
  3
PUCSORTHOREF
350
5448
  3
PUCSORTHOVIEW
350
5449
  3
STYLESHEET
350
543E
  3
TSTACKALIGN
350
543B
  3
TSTACKSIZE
350
543C
  3
UCSBASE
350
5453
  3
UCSORGBACK
350
5459
  3
UCSORGBOTTOM
350
5455
  3
UCSORGFRONT
350
5458
  3
UCSORGLEFT
350
5456
  3
UCSORGRIGHT
350
5457
  3
UCSORGTOP
350
5454
  3
UCSORTHOREF
350
5451
  3
UCSORTHOVIEW
350
5452
  3
VERSIONGUID
350
5446
  0
DICTIONARY
  5
46B7
102
{ACAD_REACTORS
330
C
102
}
330
C
100
AcDbDictionary
  3
CANNOSCALE
350
46B8
  3
CMLEADERSTYLE
350
46BA
  3
CTABLESTYLE
350
46B9
  3
DIMASSOC
350
545B
  3
HIDETEXT
350
545C
  3
MSLTSCALE
350
46BB
  3
XCLIPFRAME
350
46BC
  0
XRECORD
  5
545F
102
{ACAD_REACTORS
330
C
102
}
330
C
100
AcDbXrecord
  1
DWGPROPS COOKIE
  2

  3

  4

  6

  7

  8
takahashi
  9

300
=
301
=
302
=
303
=
304
=
305
=
306
=
307
=
308
=
309
=
 40
0.0
 41
2450576.222302431
 42
2457658.40294147
  1

 90
        0
  0
XRECORD
  5
5461
102
{ACAD_REACTORS
330
5460
102
}
330
5460
100
AcDbXrecord
102
VTR_0.000_0.000_1.000_1.000_VISUALSTYLE
340
438C
102
VTR_0.000_0.000_1.000_1.000_GRIDDISPLAY
 70
     3
102
VTR_0.000_0.000_1.000_1.000_GRIDMAJOR
 70
     5
102
VTR_0.000_0.000_1.000_1.000_DEFAULTLIGHTING
280
     1
102
VTR_0.000_0.000_1.000_1.000_DEFAULTLIGHTINGTYPE
 70
     1
102
VTR_0.000_0.000_1.000_1.000_BRIGHTNESS
141
0.0
102
VTR_0.000_0.000_1.000_1.000_CONTRAST
142
0.0
  0
DICTIONARY
  5
2B0C
102
{ACAD_REACTORS
330
29EA
102
}
330
29EA
100
AcDbDictionary
  0
DICTIONARY
  5
29EB
102
{ACAD_REACTORS
330
29EA
102
}
330
29EA
100
AcDbDictionary
  0
SORTENTSTABLE
  5
4C1C
102
{ACAD_REACTORS
330
4C1B
102
}
330
4C1B
100
AcDbSortentsTable
330
1A
331
0
  5
3FA9
331
2E8B
  5
31A0
331
31A0
  5
36F5
331
4034
  5
40F9
331
40FC
  5
40FD
331
40FD
  5
40FE
331
40FE
  5
40FF
331
40FF
  5
4100
331
4100
  5
4101
331
4101
  5
4102
331
4102
  5
4103
331
4103
  5
4104
331
4104
  5
4105
331
4105
  5
4106
331
4106
  5
4107
331
4107
  5
4108
331
4108
  5
4109
331
4109
  5
410A
331
410A
  5
410B
331
410B
  5
410C
331
410C
  5
410D
331
410D
  5
410E
331
410E
  5
410F
331
410F
  5
4110
331
4110
  5
4111
331
4111
  5
4112
331
4112
  5
4113
331
4113
  5
4114
331
4114
  5
4115
331
4115
  5
4116
331
4116
  5
4117
331
4117
  5
4118
331
4118
  5
4119
331
4119
  5
411A
331
411A
  5
411B
331
411B
  5
411C
331
411C
  5
411D
331
411D
  5
411E
331
411E
  5
411F
331
411F
  5
4120
331
4120
  5
4123
331
417F
  5
420E
331
420E
  5
42B3
331
42DB
  5
42FD
331
45C1
  5
45C2
331
45C3
  5
45C4
331
45C4
  5
45C5
331
45C7
  5
45C8
331
45C8
  5
45C9
331
45C9
  5
45CA
331
45CA
  5
45CB
331
45CB
  5
45CC
331
45CD
  5
45CE
331
45CE
  5
45D2
331
45E7
  5
45EB
331
4602
  5
4603
331
4609
  5
460A
331
460A
  5
460B
331
460B
  5
460C
331
460C
  5
460D
331
460D
  5
460E
331
460E
  5
460F
331
460F
  5
4610
331
4610
  5
4611
331
4611
  5
4612
331
4612
  5
4613
331
4613
  5
4614
331
4614
  5
4615
331
4615
  5
4616
331
4616
  5
4617
331
4617
  5
4618
331
4618
  5
4619
331
4619
  5
461A
331
461A
  5
461B
331
461B
  5
461C
331
461C
  5
461D
331
461D
  5
461E
331
461E
  5
461F
331
461F
  5
4620
331
4620
  5
4621
331
4622
  5
4623
331
4623
  5
4624
331
4625
  5
4626
331
4626
  5
4627
331
4628
  5
4745
331
4745
  5
4752
331
4752
  5
475F
331
475F
  5
4791
331
4791
  5
4792
331
4792
  5
4793
331
4793
  5
4794
331
4794
  5
4795
331
4795
  5
4796
331
4796
  5
4797
331
4797
  5
4798
331
4798
  5
479B
331
479B
  5
48E0
331
48E0
  5
48E1
331
48E1
  5
48E2
331
48E2
  5
48E3
331
48E3
  5
48E4
331
48E4
  5
48E5
331
48E5
  5
48E6
331
48E6
  5
48E7
331
48E7
  5
48E9
331
48E9
  5
48EA
331
48EA
  5
48EB
331
48EB
  5
48EC
331
48EC
  5
48ED
331
48ED
  5
48EE
331
48EE
  5
49CC
331
49CC
  5
49CD
331
49CD
  5
49CE
331
49CE
  5
49CF
331
49CF
  5
4A8E
331
4A8E
  5
4A92
331
4A92
  5
4A96
331
4A96
  5
4A9A
331
4A9A
  5
4A9E
331
4A9E
  5
4AA2
331
4AA2
  5
4AA6
331
4AA6
  5
4AAA
331
4AAA
  5
4BD5
331
4BD5
  5
4BD6
331
4BD6
  5
4BD7
331
4BD7
  5
4BD8
331
4BD8
  5
4BD9
331
4BD9
  5
4BDA
331
4BDA
  5
4BDB
331
4BDB
  5
4BDC
331
4BDC
  5
4C13
331
4C13
  5
4C14
331
4C14
  5
4C18
331
4C18
  5
4C19
331
4C19
  5
4C1A
331
4C1A
  5
2E8B
  0
DICTIONARY
  5
45D0
102
{ACAD_REACTORS
330
45CF
102
}
330
45CF
100
AcDbDictionary
  3
ACDB_ANNOTATIONSCALES
350
45D1
  0
DICTIONARY
  5
45E9
102
{ACAD_REACTORS
330
45E8
102
}
330
45E8
100
AcDbDictionary
  3
ACDB_ANNOTATIONSCALES
350
45EA
  0
DICTIONARY
  5
4A90
102
{ACAD_REACTORS
330
4A8F
102
}
330
4A8F
100
AcDbDictionary
  3
ACDB_ANNOTATIONSCALES
350
4A91
  0
DICTIONARY
  5
4A94
102
{ACAD_REACTORS
330
4A93
102
}
330
4A93
100
AcDbDictionary
  3
ACDB_ANNOTATIONSCALES
350
4A95
  0
DICTIONARY
  5
4A98
102
{ACAD_REACTORS
330
4A97
102
}
330
4A97
100
AcDbDictionary
  3
ACDB_ANNOTATIONSCALES
350
4A99
  0
DICTIONARY
  5
4A9C
102
{ACAD_REACTORS
330
4A9B
102
}
330
4A9B
100
AcDbDictionary
  3
ACDB_ANNOTATIONSCALES
350
4A9D
  0
DICTIONARY
  5
4AA0
102
{ACAD_REACTORS
330
4A9F
102
}
330
4A9F
100
AcDbDictionary
  3
ACDB_ANNOTATIONSCALES
350
4AA1
  0
DICTIONARY
  5
4AA4
102
{ACAD_REACTORS
330
4AA3
102
}
330
4AA3
100
AcDbDictionary
  3
ACDB_ANNOTATIONSCALES
350
4AA5
  0
DICTIONARY
  5
4AA8
102
{ACAD_REACTORS
330
4AA7
102
}
330
4AA7
100
AcDbDictionary
  3
ACDB_ANNOTATIONSCALES
350
4AA9
  0
DICTIONARY
  5
4AAC
102
{ACAD_REACTORS
330
4AAB
102
}
330
4AAB
100
AcDbDictionary
  3
ACDB_ANNOTATIONSCALES
350
4AAD
  0
DICTIONARY
  5
4C16
102
{ACAD_REACTORS
330
4C15
102
}
330
4C15
100
AcDbDictionary
  3
ACDB_ANNOTATIONSCALES
350
4C17
  0
DICTIONARY
  5
4C85
102
{ACAD_REACTORS
330
4C84
102
}
330
4C84
100
AcDbDictionary
  3
ACDB_ANNOTATIONSCALES
350
4C86
  0
DICTIONARY
  5
4CE3
102
{ACAD_REACTORS
330
4CE2
102
}
330
4CE2
100
AcDbDictionary
  3
ACDB_ANNOTATIONSCALES
350
4CE4
  0
DICTIONARY
  5
4CF1
102
{ACAD_REACTORS
330
4CF0
102
}
330
4CF0
100
AcDbDictionary
  3
ACDB_ANNOTATIONSCALES
350
4CF2
  0
DICTIONARY
  5
4D3B
102
{ACAD_REACTORS
330
4D3A
102
}
330
4D3A
100
AcDbDictionary
  3
ACDB_ANNOTATIONSCALES
350
4D3C
  0
DICTIONARY
  5
4D3F
102
{ACAD_REACTORS
330
4D3E
102
}
330
4D3E
100
AcDbDictionary
  3
ACDB_ANNOTATIONSCALES
350
4D40
  0
DICTIONARY
  5
51AC
102
{ACAD_REACTORS
330
51AB
102
}
330
51AB
100
AcDbDictionary
  3
ACDB_ANNOTATIONSCALES
350
51AD
  0
DICTIONARY
  5
51B0
102
{ACAD_REACTORS
330
51AF
102
}
330
51AF
100
AcDbDictionary
  3
ACDB_ANNOTATIONSCALES
350
51B1
  0
DICTIONARY
  5
51B4
102
{ACAD_REACTORS
330
51B3
102
}
330
51B3
100
AcDbDictionary
  3
ACDB_ANNOTATIONSCALES
350
51B5
  0
DICTIONARY
  5
5215
102
{ACAD_REACTORS
330
5214
102
}
330
5214
100
AcDbDictionary
  3
ACDB_ANNOTATIONSCALES
350
5216
  0
DICTIONARY
  5
5219
102
{ACAD_REACTORS
330
5218
102
}
330
5218
100
AcDbDictionary
  3
ACDB_ANNOTATIONSCALES
350
521A
  0
DICTIONARY
  5
521D
102
{ACAD_REACTORS
330
521C
102
}
330
521C
100
AcDbDictionary
  3
ACDB_ANNOTATIONSCALES
350
521E
  0
DICTIONARY
  5
4E80
102
{ACAD_REACTORS
330
4E7F
102
}
330
4E7F
100
AcDbDictionary
  3
ACDB_ANNOTATIONSCALES
350
4E81
  0
DICTIONARY
  5
4E84
102
{ACAD_REACTORS
330
4E83
102
}
330
4E83
100
AcDbDictionary
  3
ACDB_ANNOTATIONSCALES
350
4E85
  0
DICTIONARY
  5
4F0D
102
{ACAD_REACTORS
330
4F0C
102
}
330
4F0C
100
AcDbDictionary
  3
ACDB_ANNOTATIONSCALES
350
4F0E
  0
DICTIONARY
  5
514B
102
{ACAD_REACTORS
330
514A
102
}
330
514A
100
AcDbDictionary
  3
ACDB_ANNOTATIONSCALES
350
514C
  0
DICTIONARY
  5
53DA
102
{ACAD_REACTORS
330
53D9
102
}
330
53D9
100
AcDbDictionary
  3
ACDB_ANNOTATIONSCALES
350
53DB
  0
GROUP
  5
414E
102
{ACAD_REACTORS
330
D
102
}
330
D
100
AcDbGroup
300

 70
     1
 71
     1
340
410E
340
4119
340
411B
340
411A
340
4116
340
4115
340
4114
340
4113
340
4112
340
4111
340
410F
340
4110
  0
GROUP
  5
4150
102
{ACAD_REACTORS
330
D
102
}
330
D
100
AcDbGroup
300

 70
     1
 71
     1
340
411D
340
411F
340
411E
340
411C
340
410D
340
410C
340
410B
340
4103
340
4101
340
4100
340
40FF
340
40FE
340
40FD
340
40FC
340
4117
340
410A
340
4109
340
4108
340
4107
340
4106
340
4102
340
4105
340
4104
340
4118
  0
MATERIAL
  5
43C3
102
{ACAD_REACTORS
330
2947
102
}
102
{ACAD_XDICTIONARY
360
5464
102
}
330
2947
100
AcDbMaterial
  1
BYBLOCK
  0
MATERIAL
  5
43C2
102
{ACAD_REACTORS
330
2947
102
}
102
{ACAD_XDICTIONARY
360
5462
102
}
330
2947
100
AcDbMaterial
  1
BYLAYER
  0
MATERIAL
  5
43C4
102
{ACAD_REACTORS
330
2947
102
}
102
{ACAD_XDICTIONARY
360
5466
102
}
330
2947
100
AcDbMaterial
  1
GLOBAL
  0
ACAD_PROXY_OBJECT
  5
43C8
102
{ACAD_REACTORS
330
43C7
102
}
330
43C7
100
AcDbProxyObject
 90
      499
 91
      508
 93
      610
310
40901902A4063FBFFFFFE0000000000000020400000000000020404214DD185B99185C990000000000000104090141901A00000000000004100000000000000041025764000000000000039000
340
14
340
0
340
10
340
0
 94
        0
1001
ACAD_MLEADERVER
1070
     2
  0
MLINESTYLE
  5
13
102
{ACAD_REACTORS
330
E
102
}
330
E
100
AcDbMlineStyle
  2
STANDARD
 70
     0
  3

 62
     0
 51
90.0
 52
90.0
 71
     2
 49
0.5
 62
   256
  6
BYLAYER
 49
-0.5
 62
   256
  6
BYLAYER
  0
ACAD_PROXY_OBJECT
  5
43A1
102
{ACAD_REACTORS
330
43A0
102
}
330
43A0
100
AcDbProxyObject
 90
      499
 91
      505
 93
       41
310
903313A31580
  0
ACAD_PROXY_OBJECT
  5
43A2
102
{ACAD_REACTORS
330
43A0
102
}
330
43A0
100
AcDbProxyObject
 90
      499
 91
      505
 93
      105
310
903313A324000000000000004000
  0
ACAD_PROXY_OBJECT
  5
43A3
102
{ACAD_REACTORS
330
43A0
102
}
330
43A0
100
AcDbProxyObject
 90
      499
 91
      505
 93
      105
310
903313A344000000000000104000
  0
ACAD_PROXY_OBJECT
  5
43A4
102
{ACAD_REACTORS
330
43A0
102
}
330
43A0
100
AcDbProxyObject
 90
      499
 91
      505
 93
      105
310
903313A354000000000000144000
  0
ACAD_PROXY_OBJECT
  5
43A5
102
{ACAD_REACTORS
330
43A0
102
}
330
43A0
100
AcDbProxyObject
 90
      499
 91
      505
 93
      105
310
903313A384000000000000204000
  0
ACAD_PROXY_OBJECT
  5
43A6
102
{ACAD_REACTORS
330
43A0
102
}
330
43A0
100
AcDbProxyObject
 90
      499
 91
      505
 93
      113
310
904313A31304000000000000244000
  0
ACAD_PROXY_OBJECT
  5
43A7
102
{ACAD_REACTORS
330
43A0
102
}
330
43A0
100
AcDbProxyObject
 90
      499
 91
      505
 93
      113
310
904313A31364000000000000304000
  0
ACAD_PROXY_OBJECT
  5
43A8
102
{ACAD_REACTORS
330
43A0
102
}
330
43A0
100
AcDbProxyObject
 90
      499
 91
      505
 93
      113
310
904313A32304000000000000344000
  0
ACAD_PROXY_OBJECT
  5
43A9
102
{ACAD_REACTORS
330
43A0
102
}
330
43A0
100
AcDbProxyObject
 90
      499
 91
      505
 93
      113
310
904313A333040000000000003E4000
  0
ACAD_PROXY_OBJECT
  5
43AA
102
{ACAD_REACTORS
330
43A0
102
}
330
43A0
100
AcDbProxyObject
 90
      499
 91
      505
 93
      113
310
904313A34304000000000000444000
  0
ACAD_PROXY_OBJECT
  5
43AB
102
{ACAD_REACTORS
330
43A0
102
}
330
43A0
100
AcDbProxyObject
 90
      499
 91
      505
 93
      113
310
904313A35304000000000000494000
  0
ACAD_PROXY_OBJECT
  5
43AC
102
{ACAD_REACTORS
330
43A0
102
}
330
43A0
100
AcDbProxyObject
 90
      499
 91
      505
 93
      121
310
905313A3130304000000000000594000
  0
ACAD_PROXY_OBJECT
  5
43AD
102
{ACAD_REACTORS
330
43A0
102
}
330
43A0
100
AcDbProxyObject
 90
      499
 91
      505
 93
      105
310
903323A310000000000000010100
  0
ACAD_PROXY_OBJECT
  5
43AE
102
{ACAD_REACTORS
330
43A0
102
}
330
43A0
100
AcDbProxyObject
 90
      499
 91
      505
 93
      105
310
903343A310000000000000410100
  0
ACAD_PROXY_OBJECT
  5
43AF
102
{ACAD_REACTORS
330
43A0
102
}
330
43A0
100
AcDbProxyObject
 90
      499
 91
      505
 93
      105
310
903383A310000000000000810100
  0
ACAD_PROXY_OBJECT
  5
43B0
102
{ACAD_REACTORS
330
43A0
102
}
330
43A0
100
AcDbProxyObject
 90
      499
 91
      505
 93
      113
310
90431303A310000000000000910100
  0
ACAD_PROXY_OBJECT
  5
43B1
102
{ACAD_REACTORS
330
43A0
102
}
330
43A0
100
AcDbProxyObject
 90
      499
 91
      505
 93
      121
310
9053130303A310000000000001650100
  0
ACAD_PROXY_OBJECT
  5
43B2
102
{ACAD_REACTORS
330
43A0
102
}
330
43A0
100
AcDbProxyObject
 90
      499
 91
      505
 93
      257
310
90E312F31323822203D2031272D3022000000000000200FC000000000000284000
  0
ACAD_PROXY_OBJECT
  5
43B3
102
{ACAD_REACTORS
330
43A0
102
}
330
43A0
100
AcDbProxyObject
 90
      499
 91
      505
 93
      249
310
90D312F363422203D2031272D3022000000000000240FC000000000000284000
  0
ACAD_PROXY_OBJECT
  5
43B4
102
{ACAD_REACTORS
330
43A0
102
}
330
43A0
100
AcDbProxyObject
 90
      499
 91
      505
 93
      249
310
90D312F333222203D2031272D3022000000000000280FC000000000000284000
  0
ACAD_PROXY_OBJECT
  5
43B5
102
{ACAD_REACTORS
330
43A0
102
}
330
43A0
100
AcDbProxyObject
 90
      499
 91
      505
 93
      249
310
90D312F313622203D2031272D30220000000000002C0FC000000000000284000
  0
ACAD_PROXY_OBJECT
  5
43B6
102
{ACAD_REACTORS
330
43A0
102
}
330
43A0
100
AcDbProxyObject
 90
      499
 91
      505
 93
      249
310
90D332F333222203D2031272D30220000000000002E0FC000000000000284000
  0
ACAD_PROXY_OBJECT
  5
43B7
102
{ACAD_REACTORS
330
43A0
102
}
330
43A0
100
AcDbProxyObject
 90
      499
 91
      505
 93
      241
310
90C312F3822203D2031272D3022000000000000300FC000000000000284000
  0
ACAD_PROXY_OBJECT
  5
43B8
102
{ACAD_REACTORS
330
43A0
102
}
330
43A0
100
AcDbProxyObject
 90
      499
 91
      505
 93
      249
310
90D332F313622203D2031272D3022000000000000320FC000000000000284000
  0
ACAD_PROXY_OBJECT
  5
43B9
102
{ACAD_REACTORS
330
43A0
102
}
330
43A0
100
AcDbProxyObject
 90
      499
 91
      505
 93
      241
310
90C312F3422203D2031272D3022000000000000340FC000000000000284000
  0
ACAD_PROXY_OBJECT
  5
43BA
102
{ACAD_REACTORS
330
43A0
102
}
330
43A0
100
AcDbProxyObject
 90
      499
 91
      505
 93
      241
310
90C332F3822203D2031272D3022000000000000360FC000000000000284000
  0
ACAD_PROXY_OBJECT
  5
43BB
102
{ACAD_REACTORS
330
43A0
102
}
330
43A0
100
AcDbProxyObject
 90
      499
 91
      505
 93
      241
310
90C312F3222203D2031272D3022000000000000380FC000000000000284000
  0
ACAD_PROXY_OBJECT
  5
43BC
102
{ACAD_REACTORS
330
43A0
102
}
330
43A0
100
AcDbProxyObject
 90
      499
 91
      505
 93
      241
310
90C332F3422203D2031272D30220000000000003A0FC000000000000284000
  0
ACAD_PROXY_OBJECT
  5
43BD
102
{ACAD_REACTORS
330
43A0
102
}
330
43A0
100
AcDbProxyObject
 90
      499
 91
      505
 93
      161
310
90A3122203D2031272D30224000000000000284000
  0
ACAD_PROXY_OBJECT
  5
43BE
102
{ACAD_REACTORS
330
43A0
102
}
330
43A0
100
AcDbProxyObject
 90
      499
 91
      505
 93
      257
310
90E312D312F3222203D2031272D30220000000000003E0FC000000000000284000
  0
ACAD_PROXY_OBJECT
  5
43BF
102
{ACAD_REACTORS
330
43A0
102
}
330
43A0
100
AcDbProxyObject
 90
      499
 91
      505
 93
      225
310
90A3322203D2031272D302200000000000002100000000000000284000
  0
ACAD_PROXY_OBJECT
  5
43C0
102
{ACAD_REACTORS
330
43A0
102
}
330
43A0
100
AcDbProxyObject
 90
      499
 91
      505
 93
      225
310
90A3622203D2031272D302200000000000006100000000000000284000
  0
ACAD_PROXY_OBJECT
  5
43C1
102
{ACAD_REACTORS
330
43A0
102
}
330
43A0
100
AcDbProxyObject
 90
      499
 91
      505
 93
      249
310
90D31272D3022203D2031272D30220000000000000A100000000000000284000
  0
ACAD_PROXY_OBJECT
  5
438C
102
{ACAD_REACTORS
330
4387
102
}
330
4387
100
AcDbProxyObject
 90
      499
 91
      504
 93
      436
310
42CC9915DA5C99599C985B595049028333333333333E33F0000000000000F90107901411070040501600405405064090741402480A0340
1001
ACAD
1000
AcDbSavedByObjectVersion
1070
     0
  0
ACAD_PROXY_OBJECT
  5
438F
102
{ACAD_REACTORS
330
4387
102
}
330
4387
100
AcDbProxyObject
 90
      499
 91
      504
 93
      388
310
4150985CDA58D07406404333333333333E33F0000000000000F90107A41107004050150841D405064090741402480A0350
1001
ACAD
1000
AcDbSavedByObjectVersion
1070
     0
  0
ACAD_PROXY_OBJECT
  5
4393
102
{ACAD_REACTORS
330
4387
102
}
330
4387
100
AcDbProxyObject
 90
      499
 91
      504
 93
      428
310
42109C9A59DA1D195B90C409028333333333333E33F0000000000000F9010790141107004050150841D405064090741402480A029950
1001
ACAD
1000
AcDbSavedByObjectVersion
1070
     0
  0
ACAD_PROXY_OBJECT
  5
4397
102
{ACAD_REACTORS
330
4387
102
}
330
4387
100
AcDbProxyObject
 90
      499
 91
      504
 93
      452
310
42D0DBDB1BDC90DA185B99D95104090240C333333333333E33F0000000000000F90108901411070040501508421405064090741402480A0350
1001
ACAD
1000
AcDbSavedByObjectVersion
1070
     0
  0
ACAD_PROXY_OBJECT
  5
4391
102
{ACAD_REACTORS
330
4387
102
}
330
4387
100
AcDbProxyObject
 90
      499
 91
      504
 93
      500
310
4290DBDB98D95C1D1D585B10940D028333333333333E33F0000000000000F90107902409070040501000000000018199010841D405064090740C02480A0340
1001
ACAD
1000
AcDbSavedByObjectVersion
1070
     0
  0
ACAD_PROXY_OBJECT
  5
4392
102
{ACAD_REACTORS
330
4387
102
}
330
4387
100
AcDbProxyObject
 90
      499
 91
      504
 93
      412
310
40D11A5B50B409028333333333333E33F0000000000000F9010790141107004050150841D405064090741402480A02677FFFFFD0
1001
ACAD
1000
AcDbSavedByObjectVersion
1070
     0
  0
ACAD_PROXY_OBJECT
  5
439A
102
{ACAD_REACTORS
330
4387
102
}
330
4387
100
AcDbProxyObject
 90
      499
 91
      504
 93
      452
310
43115919D950DBDB1BDC93D999916409028333333333333E33F0000000000000F9010790141107004050150841D405064090741402480A0350
1001
ACAD
1000
AcDbSavedByObjectVersion
1070
     0
  0
ACAD_PROXY_OBJECT
  5
4396
102
{ACAD_REACTORS
330
4387
102
}
330
4387
100
AcDbProxyObject
 90
      499
 91
      504
 93
      444
310
42D19858D95C185D1D195C9B90F409028333333333333E33F0000000000000F9010790141107004050150841D405064090741402480A0350
1001
ACAD
1000
AcDbSavedByObjectVersion
1070
     0
  0
ACAD_PROXY_OBJECT
  5
4388
102
{ACAD_REACTORS
330
4387
102
}
330
4387
100
AcDbProxyObject
 90
      499
 91
      504
 93
      380
310
41119B185D240901404333333333333E33F0000000000000F9010740A907004050150841D405064090741402480A1B50
1001
ACAD
1000
AcDbSavedByObjectVersion
1070
     0
  0
ACAD_PROXY_OBJECT
  5
4389
102
{ACAD_REACTORS
330
4387
102
}
330
4387
100
AcDbProxyObject
 90
      499
 91
      504
 93
      468
310
43519B185D15DA5D1A115919D95CD0140901404333333333333E33F0000000000000F90107409019070040501600405405064090741402480A1B50
1001
ACAD
1000
AcDbSavedByObjectVersion
1070
     0
  0
ACAD_PROXY_OBJECT
  5
438A
102
{ACAD_REACTORS
330
4387
102
}
330
4387
100
AcDbProxyObject
 90
      499
 91
      504
 93
      404
310
41D1DBDD5C985D5910240902404333333333333E33F0000000000000F9010740A9070040501641D405064090741402480A1B50
1001
ACAD
1000
AcDbSavedByObjectVersion
1070
     0
  0
ACAD_PROXY_OBJECT
  5
438B
102
{ACAD_REACTORS
330
4387
102
}
330
4387
100
AcDbProxyObject
 90
      499
 91
      504
 93
      492
310
4411DBDD5C985D5915DA5D1A115919D95CD0340902404333333333333E33F0000000000000F90107409019070040501600405405064090741402480A1B50
1001
ACAD
1000
AcDbSavedByObjectVersion
1070
     0
  0
ACAD_PROXY_OBJECT
  5
438E
102
{ACAD_REACTORS
330
4387
102
}
330
4387
100
AcDbProxyObject
 90
      499
 91
      504
 93
      476
310
41921A5919195B90640502408333333333333E33F0000000000000F901079024090700405020000000000001110200405405064090740C02480A0340
1001
ACAD
1000
AcDbSavedByObjectVersion
1070
     0
  0
ACAD_PROXY_OBJECT
  5
4398
102
{ACAD_REACTORS
330
4387
102
}
330
4387
100
AcDbProxyObject
 90
      499
 91
      504
 93
      428
310
42529A5D1D195C93D999914409028333333333333E33F0000000000000F9010790141107004050150A41D405064090741402480A0350
1001
ACAD
1000
AcDbSavedByObjectVersion
1070
     0
  0
ACAD_PROXY_OBJECT
  5
4395
102
{ACAD_REACTORS
330
4387
102
}
330
4387
100
AcDbProxyObject
 90
      499
 91
      504
 93
      444
310
42D31A5B995C185D1D195C9B90E409028333333333333E33F0000000000000F9010790141107004050750841D405064090741402483A0350
1001
ACAD
1000
AcDbSavedByObjectVersion
1070
     0
  0
ACAD_PROXY_OBJECT
  5
4B9E
102
{ACAD_REACTORS
330
4387
102
}
330
4387
100
AcDbProxyObject
 90
      499
 91
      504
 93
      412
310
90A409038333333333333E33F0000000000000F901074090290700405010000000000201990108421405064090741402480A1B40
1001
ACAD
1000
AcDbSavedByObjectVersion
1070
     0
  0
ACAD_PROXY_OBJECT
  5
4399
102
{ACAD_REACTORS
330
4387
102
}
330
4387
100
AcDbProxyObject
 90
      499
 91
      504
 93
      444
310
42D3DD995C9A185B99D3D999915409028333333333333E33F0000000000000F9010790141107004050150941D405064090741402480A0350
1001
ACAD
1000
AcDbSavedByObjectVersion
1070
     0
  0
ACAD_PROXY_OBJECT
  5
4390
102
{ACAD_REACTORS
330
4387
102
}
330
4387
100
AcDbProxyObject
 90
      499
 91
      504
 93
      428
310
425499585B1A5CDD1A58D08409038333333333333E33F0000000000000F9010740A907004050150800405405064090740C02480A1B40
1001
ACAD
1000
AcDbSavedByObjectVersion
1070
     0
  0
ACAD_PROXY_OBJECT
  5
439F
102
{ACAD_REACTORS
330
4387
102
}
330
4387
100
AcDbProxyObject
 90
      499
 91
      504
 93
      420
310
4194DA1859195911B40902404333333333333E33F0000000000000F9010740A41107004050150800405405064090840C02480A0B40
1001
ACAD
1000
AcDbSavedByObjectVersion
1070
     0
  0
ACAD_PROXY_OBJECT
  5
439E
102
{ACAD_REACTORS
330
4387
102
}
330
4387
100
AcDbProxyObject
 90
      499
 91
      504
 93
      516
310
4454DA18591959081DDA5D1A08195919D95CD1A40902404333333333333E33F0000000000000F901074090142907004050250800405405064090740C02480A0B40
1001
ACAD
1000
AcDbSavedByObjectVersion
1070
     0
  0
ACAD_PROXY_OBJECT
  5
439B
102
{ACAD_REACTORS
330
4387
102
}
330
4387
100
AcDbProxyObject
 90
      499
 91
      504
 93
      532
310
4394DA1859195CC81BD98811DC985E5174090240C333333333333E33F0000000000000F901079024090741D01000000000000111010841D405064090740C02480A0340
1001
ACAD
1000
AcDbSavedByObjectVersion
1070
     0
  0
ACAD_PROXY_OBJECT
  5
439C
102
{ACAD_REACTORS
330
4387
102
}
330
4387
100
AcDbProxyObject
 90
      499
 91
      504
 93
      476
310
41D4DAD95D18DA1E51840502408333333333333E33F0000000000000F901079024090741D01000000000000111010B41D405064090741802480A0340
1001
ACAD
1000
AcDbSavedByObjectVersion
1070
     0
  0
ACAD_PROXY_OBJECT
  5
4394
102
{ACAD_REACTORS
330
4387
102
}
330
4387
100
AcDbProxyObject
 90
      499
 91
      504
 93
      412
310
41D51A1A58DAD95B90D409028333333333333E33F0000000000000F9010790141107004050150C41D405064090741402480A0350
1001
ACAD
1000
AcDbSavedByObjectVersion
1070
     0
  0
ACAD_PROXY_OBJECT
  5
438D
102
{ACAD_REACTORS
330
4387
102
}
330
4387
100
AcDbProxyObject
 90
      499
 91
      504
 93
      420
310
4255DA5C99599C985B595059028333333333333E33F0000000000000F90107901411070040501600405405064090740C02480A0340
1001
ACAD
1000
AcDbSavedByObjectVersion
1070
     0
  0
ACAD_PROXY_OBJECT
  5
439D
102
{ACAD_REACTORS
330
4387
102
}
330
4387
100
AcDbProxyObject
 90
      499
 91
      504
 93
      404
310
41560B54985E51940902404000000000000E03F0000000000000F9010740501907004050150841D405064090740C02480A1B40
1001
ACAD
1000
AcDbSavedByObjectVersion
1070
     0
  0
XRECORD
  5
5444
102
{ACAD_REACTORS
330
543A
102
}
330
543A
100
AcDbXrecord
340
0
  0
XRECORD
  5
5443
102
{ACAD_REACTORS
330
543A
102
}
330
543A
100
AcDbXrecord
 90
        0
  0
XRECORD
  5
545D
102
{ACAD_REACTORS
330
543A
102
}
330
543A
100
AcDbXrecord
340
2948
  0
XRECORD
  5
545A
102
{ACAD_REACTORS
330
543A
102
}
330
543A
100
AcDbXrecord
1000
DSTYLE
1002
{
1070
   171
 70
     2
1070
   143
 40
0.0394
1070
   274
 70
     2
1070
    41
 40
6.0
1070
   342
340
2AF4
1070
   271
 70
     1
1070
   278
 70
    46
1070
   341
340
2AF4
1070
   272
 70
     1
1070
    48
 40
0.1
1070
   283
 70
     1
1070
    47
 40
0.1
1070
   145
 40
1.0
1070
   340
340
10
1070
   140
 40
8.0
1070
   284
 70
     0
1002
}
  0
XRECORD
  5
5445
102
{ACAD_REACTORS
330
543A
102
}
330
543A
100
AcDbXrecord
  1
{23698909-1D67-4744-B0E2-8DE11E3ED422}
  0
XRECORD
  5
543D
102
{ACAD_REACTORS
330
543A
102
}
330
543A
100
AcDbXrecord
  1

  0
XRECORD
  5
5442
102
{ACAD_REACTORS
330
543A
102
}
330
543A
100
AcDbXrecord
 90
        0
  0
XRECORD
  5
543F
102
{ACAD_REACTORS
330
543A
102
}
330
543A
100
AcDbXrecord
340
2816
  0
XRECORD
  5
5441
102
{ACAD_REACTORS
330
543A
102
}
330
543A
100
AcDbXrecord
 90
    10781
  0
XRECORD
  5
545E
102
{ACAD_REACTORS
330
543A
102
}
330
543A
100
AcDbXrecord
340
2947
  0
XRECORD
  5
5440
102
{ACAD_REACTORS
330
543A
102
}
330
543A
100
AcDbXrecord
340
2817
  0
XRECORD
  5
5447
102
{ACAD_REACTORS
330
543A
102
}
330
543A
100
AcDbXrecord
 40
0.25
  0
XRECORD
  5
544A
102
{ACAD_REACTORS
330
543A
102
}
330
543A
100
AcDbXrecord
340
0
  0
XRECORD
  5
5450
102
{ACAD_REACTORS
330
543A
102
}
330
543A
100
AcDbXrecord
 10
0.0
 20
0.0
 30
0.0
  0
XRECORD
  5
544C
102
{ACAD_REACTORS
330
543A
102
}
330
543A
100
AcDbXrecord
 10
0.0
 20
0.0
 30
0.0
  0
XRECORD
  5
544F
102
{ACAD_REACTORS
330
543A
102
}
330
543A
100
AcDbXrecord
 10
0.0
 20
0.0
 30
0.0
  0
XRECORD
  5
544D
102
{ACAD_REACTORS
330
543A
102
}
330
543A
100
AcDbXrecord
 10
0.0
 20
0.0
 30
0.0
  0
XRECORD
  5
544E
102
{ACAD_REACTORS
330
543A
102
}
330
543A
100
AcDbXrecord
 10
0.0
 20
0.0
 30
0.0
  0
XRECORD
  5
544B
102
{ACAD_REACTORS
330
543A
102
}
330
543A
100
AcDbXrecord
 10
0.0
 20
0.0
 30
0.0
  0
XRECORD
  5
5448
102
{ACAD_REACTORS
330
543A
102
}
330
543A
100
AcDbXrecord
340
0
  0
XRECORD
  5
5449
102
{ACAD_REACTORS
330
543A
102
}
330
543A
100
AcDbXrecord
 70
     0
  0
XRECORD
  5
543E
102
{ACAD_REACTORS
330
543A
102
}
330
543A
100
AcDbXrecord
  1

  0
XRECORD
  5
543B
102
{ACAD_REACTORS
330
543A
102
}
330
543A
100
AcDbXrecord
 90
        1
  0
XRECORD
  5
543C
102
{ACAD_REACTORS
330
543A
102
}
330
543A
100
AcDbXrecord
 90
       70
  0
XRECORD
  5
5453
102
{ACAD_REACTORS
330
543A
102
}
330
543A
100
AcDbXrecord
340
0
  0
XRECORD
  5
5459
102
{ACAD_REACTORS
330
543A
102
}
330
543A
100
AcDbXrecord
 10
0.0
 20
0.0
 30
0.0
  0
XRECORD
  5
5455
102
{ACAD_REACTORS
330
543A
102
}
330
543A
100
AcDbXrecord
 10
0.0
 20
0.0
 30
0.0
  0
XRECORD
  5
5458
102
{ACAD_REACTORS
330
543A
102
}
330
543A
100
AcDbXrecord
 10
0.0
 20
0.0
 30
0.0
  0
XRECORD
  5
5456
102
{ACAD_REACTORS
330
543A
102
}
330
543A
100
AcDbXrecord
 10
0.0
 20
0.0
 30
0.0
  0
XRECORD
  5
5457
102
{ACAD_REACTORS
330
543A
102
}
330
543A
100
AcDbXrecord
 10
0.0
 20
0.0
 30
0.0
  0
XRECORD
  5
5454
102
{ACAD_REACTORS
330
543A
102
}
330
543A
100
AcDbXrecord
 10
0.0
 20
0.0
 30
0.0
  0
XRECORD
  5
5451
102
{ACAD_REACTORS
330
543A
102
}
330
543A
100
AcDbXrecord
340
0
  0
XRECORD
  5
5452
102
{ACAD_REACTORS
330
543A
102
}
330
543A
100
AcDbXrecord
 70
     0
  0
XRECORD
  5
5446
102
{ACAD_REACTORS
330
543A
102
}
330
543A
100
AcDbXrecord
  1
{8C604CF4-DEB3-431E-A2CB-ED954EA284B6}
  0
DICTIONARYVAR
  5
46B8
102
{ACAD_REACTORS
330
46B7
102
}
330
46B7
100
DictionaryVariables
280
     0
  1
1:1
  0
DICTIONARYVAR
  5
46BA
102
{ACAD_REACTORS
330
46B7
102
}
330
46B7
100
DictionaryVariables
280
     0
  1
Standard
  0
DICTIONARYVAR
  5
46B9
102
{ACAD_REACTORS
330
46B7
102
}
330
46B7
100
DictionaryVariables
280
     0
  1
Standard
  0
DICTIONARYVAR
  5
545B
102
{ACAD_REACTORS
330
46B7
102
}
330
46B7
100
DictionaryVariables
280
     0
  1
1
  0
DICTIONARYVAR
  5
545C
102
{ACAD_REACTORS
330
46B7
102
}
330
46B7
100
DictionaryVariables
280
     0
  1
0
  0
DICTIONARYVAR
  5
46BB
102
{ACAD_REACTORS
330
46B7
102
}
330
46B7
100
DictionaryVariables
280
     0
  1
0
  0
DICTIONARYVAR
  5
46BC
102
{ACAD_REACTORS
330
46B7
102
}
330
46B7
100
DictionaryVariables
280
     0
  1
0
  0
DICTIONARY
  5
45D1
102
{ACAD_REACTORS
330
45D0
102
}
330
45D0
100
AcDbDictionary
  0
DICTIONARY
  5
45EA
102
{ACAD_REACTORS
330
45E9
102
}
330
45E9
100
AcDbDictionary
  0
DICTIONARY
  5
4A91
102
{ACAD_REACTORS
330
4A90
102
}
330
4A90
100
AcDbDictionary
  0
DICTIONARY
  5
4A95
102
{ACAD_REACTORS
330
4A94
102
}
330
4A94
100
AcDbDictionary
  0
DICTIONARY
  5
4A99
102
{ACAD_REACTORS
330
4A98
102
}
330
4A98
100
AcDbDictionary
  0
DICTIONARY
  5
4A9D
102
{ACAD_REACTORS
330
4A9C
102
}
330
4A9C
100
AcDbDictionary
  0
DICTIONARY
  5
4AA1
102
{ACAD_REACTORS
330
4AA0
102
}
330
4AA0
100
AcDbDictionary
  0
DICTIONARY
  5
4AA5
102
{ACAD_REACTORS
330
4AA4
102
}
330
4AA4
100
AcDbDictionary
  0
DICTIONARY
  5
4AA9
102
{ACAD_REACTORS
330
4AA8
102
}
330
4AA8
100
AcDbDictionary
  0
DICTIONARY
  5
4AAD
102
{ACAD_REACTORS
330
4AAC
102
}
330
4AAC
100
AcDbDictionary
  0
DICTIONARY
  5
4C17
102
{ACAD_REACTORS
330
4C16
102
}
330
4C16
100
AcDbDictionary
  0
DICTIONARY
  5
4C86
102
{ACAD_REACTORS
330
4C85
102
}
330
4C85
100
AcDbDictionary
  0
DICTIONARY
  5
4CE4
102
{ACAD_REACTORS
330
4CE3
102
}
330
4CE3
100
AcDbDictionary
  0
DICTIONARY
  5
4CF2
102
{ACAD_REACTORS
330
4CF1
102
}
330
4CF1
100
AcDbDictionary
  0
DICTIONARY
  5
4D3C
102
{ACAD_REACTORS
330
4D3B
102
}
330
4D3B
100
AcDbDictionary
  0
DICTIONARY
  5
4D40
102
{ACAD_REACTORS
330
4D3F
102
}
330
4D3F
100
AcDbDictionary
  0
DICTIONARY
  5
51AD
102
{ACAD_REACTORS
330
51AC
102
}
330
51AC
100
AcDbDictionary
  0
DICTIONARY
  5
51B1
102
{ACAD_REACTORS
330
51B0
102
}
330
51B0
100
AcDbDictionary
  0
DICTIONARY
  5
51B5
102
{ACAD_REACTORS
330
51B4
102
}
330
51B4
100
AcDbDictionary
  0
DICTIONARY
  5
5216
102
{ACAD_REACTORS
330
5215
102
}
330
5215
100
AcDbDictionary
  0
DICTIONARY
  5
521A
102
{ACAD_REACTORS
330
5219
102
}
330
5219
100
AcDbDictionary
  0
DICTIONARY
  5
521E
102
{ACAD_REACTORS
330
521D
102
}
330
521D
100
AcDbDictionary
  0
DICTIONARY
  5
4E81
102
{ACAD_REACTORS
330
4E80
102
}
330
4E80
100
AcDbDictionary
  0
DICTIONARY
  5
4E85
102
{ACAD_REACTORS
330
4E84
102
}
330
4E84
100
AcDbDictionary
  0
DICTIONARY
  5
4F0E
102
{ACAD_REACTORS
330
4F0D
102
}
330
4F0D
100
AcDbDictionary
  0
DICTIONARY
  5
514C
102
{ACAD_REACTORS
330
514B
102
}
330
514B
100
AcDbDictionary
  0
DICTIONARY
  5
53DB
102
{ACAD_REACTORS
330
53DA
102
}
330
53DA
100
AcDbDictionary
  0
DICTIONARY
  5
5464
330
43C3
100
AcDbDictionary
280
     1
  3
ACAD_XREC_ROUNDTRIP
360
5465
  0
DICTIONARY
  5
5462
330
43C2
100
AcDbDictionary
280
     1
  3
ACAD_XREC_ROUNDTRIP
360
5463
  0
DICTIONARY
  5
5466
330
43C4
100
AcDbDictionary
280
     1
  3
ACAD_XREC_ROUNDTRIP
360
5467
  0
XRECORD
  5
5465
102
{ACAD_REACTORS
330
5464
102
}
330
5464
100
AcDbXrecord
102
MATERIAL
148
0.0
149
0.0
149
0.0
 93
        0
 94
      127
282
     0
 72
     1
 77
     1
171
     1
175
     1
179
     1
273
     0
  0
XRECORD
  5
5463
102
{ACAD_REACTORS
330
5462
102
}
330
5462
100
AcDbXrecord
102
MATERIAL
148
0.0
149
0.0
149
0.0
 93
        0
 94
      127
282
     0
 72
     1
 77
     1
171
     1
175
     1
179
     1
273
     0
  0
XRECORD
  5
5467
102
{ACAD_REACTORS
330
5466
102
}
330
5466
100
AcDbXrecord
102
MATERIAL
148
0.0
149
0.0
149
0.0
 93
        0
 94
      127
282
     0
 72
     1
 77
     1
171
     1
175
     1
179
     1
273
     0
  0
ENDSEC
  0
EOF
