  0
SECTION
  2
HEADER
  9
$ACADVER
  1
AC1014
  9
$ACADMAINTVER
 70
     9
  9
$DWGCODEPAGE
  3
ANSI_932
  9
$INSBASE
 10
0.0
 20
0.0
 30
0.0
  9
$EXTMIN
 10
-106.181197599597
 20
114.148070104313
 30
0.0
  9
$EXTMAX
 10
625.626391176912
 20
548.89423004629
 30
0.0
  9
$LIMMIN
 10
-360.747566795242
 20
4.457354754526
  9
$LIMMAX
 10
-162.153696144267
 20
287.675440264018
  9
$ORTHOMODE
 70
     0
  9
$REGENMODE
 70
     1
  9
$FILLMODE
 70
     1
  9
$QTEXTMODE
 70
     0
  9
$MIRRTEXT
 70
     1
  9
$DRAGMODE
 70
     2
  9
$LTSCALE
 40
1.0
  9
$OSMODE
 70
   935
  9
$ATTMODE
 70
     1
  9
$TEXTSIZE
 40
4.0
  9
$TRACEWID
 40
1.0
  9
$TEXTSTYLE
  7
STANDARD
  9
$CLAYER
  8
寸法線
  9
$CELTYPE
  6
BYLAYER
  9
$CECOLOR
 62
   256
  9
$CELTSCALE
 40
10.0
  9
$DELOBJ
 70
     1
  9
$DISPSILH
 70
     0
  9
$DIMSCALE
 40
1.0
  9
$DIMASZ
 40
6.0
  9
$DIMEXO
 40
0.625
  9
$DIMDLI
 40
3.75
  9
$DIMRND
 40
0.0
  9
$DIMDLE
 40
0.0
  9
$DIMEXE
 40
1.25
  9
$DIMTP
 40
0.1
  9
$DIMTM
 40
0.1
  9
$DIMTXT
 40
8.0
  9
$DIMCEN
 40
2.5
  9
$DIMTSZ
 40
0.0
  9
$DIMTOL
 70
     0
  9
$DIMLIM
 70
     0
  9
$DIMTIH
 70
     0
  9
$DIMTOH
 70
     0
  9
$DIMSE1
 70
     0
  9
$DIMSE2
 70
     0
  9
$DIMTAD
 70
     1
  9
$DIMZIN
 70
     8
  9
$DIMBLK
  1
OPEN30
  9
$DIMASO
 70
     1
  9
$DIMSHO
 70
     1
  9
$DIMPOST
  1

  9
$DIMAPOST
  1

  9
$DIMALT
 70
     0
  9
$DIMALTD
 70
     2
  9
$DIMALTF
 40
0.0394
  9
$DIMLFAC
 40
1.0
  9
$DIMTOFL
 70
     1
  9
$DIMTVP
 40
1.0
  9
$DIMTIX
 70
     0
  9
$DIMSOXD
 70
     0
  9
$DIMSAH
 70
     0
  9
$DIMBLK1
  1

  9
$DIMBLK2
  1

  9
$DIMSTYLE
  2
ISO-25
  9
$DIMCLRD
 70
     0
  9
$DIMCLRE
 70
     0
  9
$DIMCLRT
 70
     0
  9
$DIMTFAC
 40
1.0
  9
$DIMGAP
 40
0.625
  9
$DIMJUST
 70
     0
  9
$DIMSD1
 70
     0
  9
$DIMSD2
 70
     0
  9
$DIMTOLJ
 70
     1
  9
$DIMTZIN
 70
     0
  9
$DIMALTZ
 70
     0
  9
$DIMALTTZ
 70
     0
  9
$DIMFIT
 70
     3
  9
$DIMUPT
 70
     0
  9
$DIMUNIT
 70
     2
  9
$DIMDEC
 70
     1
  9
$DIMTDEC
 70
     1
  9
$DIMALTU
 70
     2
  9
$DIMALTTD
 70
     2
  9
$DIMTXSTY
  7
STANDARD
  9
$DIMAUNIT
 70
     0
  9
$LUNITS
 70
     2
  9
$LUPREC
 70
     4
  9
$SKETCHINC
 40
1.0
  9
$FILLETRAD
 40
11.0
  9
$AUNITS
 70
     0
  9
$AUPREC
 70
     0
  9
$MENU
  1
.
  9
$ELEVATION
 40
0.0
  9
$PELEVATION
 40
0.0
  9
$THICKNESS
 40
0.0
  9
$LIMCHECK
 70
     0
  9
$CHAMFERA
 40
0.5
  9
$CHAMFERB
 40
0.5
  9
$CHAMFERC
 40
20.0
  9
$CHAMFERD
 40
0.0
  9
$SKPOLY
 70
     0
  9
$TDCREATE
 40
2450576.597302431
  9
$TDUPDATE
 40
2457658.777543669
  9
$TDINDWG
 40
1.298777419
  9
$TDUSRTIMER
 40
1.298777419
  9
$USRTIMER
 70
     1
  9
$ANGBASE
 50
0.0
  9
$ANGDIR
 70
     0
  9
$PDMODE
 70
     0
  9
$PDSIZE
 40
0.0
  9
$PLINEWID
 40
0.0
  9
$COORDS
 70
     2
  9
$SPLFRAME
 70
     0
  9
$SPLINETYPE
 70
     6
  9
$SPLINESEGS
 70
     8
  9
$ATTDIA
 70
     0
  9
$ATTREQ
 70
     1
  9
$HANDLING
 70
     1
  9
$HANDSEED
  5
58D6
  9
$SURFTAB1
 70
     6
  9
$SURFTAB2
 70
     6
  9
$SURFTYPE
 70
     6
  9
$SURFU
 70
     6
  9
$SURFV
 70
     6
  9
$UCSNAME
  2

  9
$UCSORG
 10
0.0
 20
0.0
 30
0.0
  9
$UCSXDIR
 10
1.0
 20
0.0
 30
0.0
  9
$UCSYDIR
 10
0.0
 20
1.0
 30
0.0
  9
$PUCSNAME
  2

  9
$PUCSORG
 10
0.0
 20
0.0
 30
0.0
  9
$PUCSXDIR
 10
1.0
 20
0.0
 30
0.0
  9
$PUCSYDIR
 10
0.0
 20
1.0
 30
0.0
  9
$USERI1
 70
     0
  9
$USERI2
 70
     0
  9
$USERI3
 70
     0
  9
$USERI4
 70
     0
  9
$USERI5
 70
     0
  9
$USERR1
 40
0.0
  9
$USERR2
 40
0.0
  9
$USERR3
 40
0.0
  9
$USERR4
 40
0.0
  9
$USERR5
 40
0.0
  9
$WORLDVIEW
 70
     1
  9
$SHADEDGE
 70
     3
  9
$SHADEDIF
 70
    70
  9
$TILEMODE
 70
     0
  9
$MAXACTVP
 70
    16
  9
$PINSBASE
 10
0.0
 20
0.0
 30
0.0
  9
$PLIMCHECK
 70
     0
  9
$PEXTMIN
 10
4.746305129083
 20
1.396645458131
 30
0.0
  9
$PEXTMAX
 10
404.746305129083
 20
281.396645458131
 30
0.0
  9
$PLIMMIN
 10
-6.946593322754
 20
-6.94658241272
  9
$PLIMMAX
 10
417.718108215332
 20
293.315276107788
  9
$UNITMODE
 70
     0
  9
$VISRETAIN
 70
     0
  9
$PLINEGEN
 70
     0
  9
$PSLTSCALE
 70
     1
  9
$TREEDEPTH
 70
  3020
  9
$PICKSTYLE
 70
     1
  9
$CMLSTYLE
  2
STANDARD
  9
$CMLJUST
 70
     0
  9
$CMLSCALE
 40
1.0
  9
$PROXYGRAPHICS
 70
     1
  9
$MEASUREMENT
 70
     1
  0
ENDSEC
  0
SECTION
  2
CLASSES
  0
CLASS
  1
ACDBDICTIONARYWDFLT
  2
AcDbDictionaryWithDefault
  3
ObjectDBX Classes
 90
        0
280
     0
281
     0
  0
CLASS
  1
ACDBPLACEHOLDER
  2
AcDbPlaceHolder
  3
ObjectDBX Classes
 90
        0
280
     0
281
     0
  0
CLASS
  1
LAYOUT
  2
AcDbLayout
  3
ObjectDBX Classes
 90
        0
280
     0
281
     0
  0
CLASS
  1
VISUALSTYLE
  2
AcDbVisualStyle
  3
ObjectDBX Classes
 90
     4095
280
     0
281
     0
  0
CLASS
  1
SCALE
  2
AcDbScale
  3
ObjectDBX Classes
 90
     1153
280
     0
281
     0
  0
CLASS
  1
MATERIAL
  2
AcDbMaterial
  3
ObjectDBX Classes
 90
     1153
280
     0
281
     0
  0
CLASS
  1
TABLESTYLE
  2
AcDbTableStyle
  3
ObjectDBX Classes
 90
     4095
280
     0
281
     0
  0
CLASS
  1
MLEADERSTYLE
  2
AcDbMLeaderStyle
  3
ACDB_MLEADERSTYLE_CLASS
 90
     4095
280
     0
281
     0
  0
CLASS
  1
SUN
  2
AcDbSun
  3
SCENEOE
 90
     1153
280
     0
281
     0
  0
CLASS
  1
DICTIONARYVAR
  2
AcDbDictionaryVar
  3
ObjectDBX Classes
 90
        0
280
     0
281
     0
  0
CLASS
  1
CELLSTYLEMAP
  2
AcDbCellStyleMap
  3
ObjectDBX Classes
 90
     1152
280
     0
281
     0
  0
CLASS
  1
SORTENTSTABLE
  2
AcDbSortentsTable
  3
ObjectDBX Classes
 90
        0
280
     0
281
     0
  0
CLASS
  1
XRECORD
  2
AcDbXrecord
  3
ObjectDBX Classes
 90
        0
280
     0
281
     0
  0
CLASS
  1
LWPOLYLINE
  2
AcDbPolyline
  3
ObjectDBX Classes
 90
        0
280
     0
281
     1
  0
CLASS
  1
HATCH
  2
AcDbHatch
  3
ObjectDBX Classes
 90
        0
280
     0
281
     1
  0
ENDSEC
  0
SECTION
  2
TABLES
  0
TABLE
  2
VPORT
  5
8
102
{ACAD_XDICTIONARY
360
58CE
102
}
330
0
100
AcDbSymbolTable
 70
     2
  0
VPORT
  5
4AAD
330
8
100
AcDbSymbolTableRecord
100
AcDbViewportTableRecord
  2
*ACTIVE
 70
     0
 10
0.0
 20
0.0
 11
1.0
 21
1.0
 12
259.722596788658
 22
331.521150075302
 13
0.0
 23
0.0
 14
1.0
 24
1.0
 15
0.0
 25
0.0
 16
0.0
 26
0.0
 36
1.0
 17
0.0
 27
0.0
 37
0.0
 40
443.441083140816
 41
1.759407069555
 42
50.0
 43
0.0
 44
0.0
 50
0.0
 51
0.0
 71
    16
 72
   100
 73
     1
 74
     0
 75
     0
 76
     0
 77
     0
 78
     0
  0
ENDTAB
  0
TABLE
  2
LTYPE
  5
5
330
0
100
AcDbSymbolTable
 70
     6
  0
LTYPE
  5
14
330
5
100
AcDbSymbolTableRecord
100
AcDbLinetypeTableRecord
  2
BYBLOCK
 70
     0
  3

 72
    65
 73
     0
 40
0.0
  0
LTYPE
  5
15
330
5
100
AcDbSymbolTableRecord
100
AcDbLinetypeTableRecord
  2
BYLAYER
 70
     0
  3

 72
    65
 73
     0
 40
0.0
  0
LTYPE
  5
16
330
5
100
AcDbSymbolTableRecord
100
AcDbLinetypeTableRecord
  2
CONTINUOUS
 70
     0
  3
Solid line
 72
    65
 73
     0
 40
0.0
  0
LTYPE
  5
1EC
330
5
100
AcDbSymbolTableRecord
100
AcDbLinetypeTableRecord
  2
CENTER
 70
     0
  3
____ _ ____ _ ____ _ ____ _ ____ _ ____ _ ____ 
 72
    65
 73
     4
 40
2.0
 49
1.25
 74
     0
 49
-0.25
 74
     0
 49
0.25
 74
     0
 49
-0.25
 74
     0
  0
LTYPE
  5
1ED
330
5
100
AcDbSymbolTableRecord
100
AcDbLinetypeTableRecord
  2
DASHED
 70
     0
  3
__ __ __ __ __ __ __ __ __ __ __ __ __ __ __ __
 72
    65
 73
     2
 40
0.75
 49
0.5
 74
     0
 49
-0.25
 74
     0
  0
LTYPE
  5
2B1F
330
5
100
AcDbSymbolTableRecord
100
AcDbLinetypeTableRecord
  2
DASHDOT
 70
     0
  3
一点鎖線
 72
    65
 73
     4
 40
25.6
 49
20.0
 74
     0
 49
-2.0
 74
     0
 49
1.6
 74
     0
 49
-2.0
 74
     0
  0
LTYPE
  5
31A1
330
5
100
AcDbSymbolTableRecord
100
AcDbLinetypeTableRecord
  2
CENTER2
 70
     0
  3
Center (.5x) ___ _ ___ _ ___ _ ___ _ ___ _ ___
 72
    65
 73
     4
 40
28.575
 49
19.05
 74
     0
 49
-3.175
 74
     0
 49
3.175
 74
     0
 49
-3.175
 74
     0
  0
LTYPE
  5
409E
330
5
100
AcDbSymbolTableRecord
100
AcDbLinetypeTableRecord
  2
DASHED2
 70
     0
  3
Dashed (.5x) _ _ _ _ _ _ _ _ _ _ _ _ _ _ _ _ _
 72
    65
 73
     2
 40
9.525
 49
6.35
 74
     0
 49
-3.175
 74
     0
  0
ENDTAB
  0
TABLE
  2
LAYER
  5
2
102
{ACAD_XDICTIONARY
360
29EA
102
}
330
0
100
AcDbSymbolTable
 70
    12
  0
LAYER
  5
F
330
2
100
AcDbSymbolTableRecord
100
AcDbLayerTableRecord
  2
0
 70
     0
 62
     7
  6
CONTINUOUS
  0
LAYER
  5
61
330
2
100
AcDbSymbolTableRecord
100
AcDbLayerTableRecord
  2
図枠太線
 70
     0
 62
   251
  6
CONTINUOUS
  0
LAYER
  5
62
330
2
100
AcDbSymbolTableRecord
100
AcDbLayerTableRecord
  2
図枠細線
 70
     0
 62
   252
  6
CONTINUOUS
  0
LAYER
  5
63
330
2
100
AcDbSymbolTableRecord
100
AcDbLayerTableRecord
  2
図枠ロゴマーク
 70
     0
 62
   253
  6
CONTINUOUS
  0
LAYER
  5
1EF
330
2
100
AcDbSymbolTableRecord
100
AcDbLayerTableRecord
  2
外形線
 70
     0
 62
     7
  6
CONTINUOUS
  0
LAYER
  5
1F0
330
2
100
AcDbSymbolTableRecord
100
AcDbLayerTableRecord
  2
寸法線
 70
     0
 62
     1
  6
CONTINUOUS
  0
LAYER
  5
1F1
330
2
100
AcDbSymbolTableRecord
100
AcDbLayerTableRecord
  2
中心線
 70
     0
 62
     4
  6
CENTER
  0
LAYER
  5
1F4
330
2
100
AcDbSymbolTableRecord
100
AcDbLayerTableRecord
  2
DEFPOINTS
 70
     0
 62
     7
  6
CONTINUOUS
  0
LAYER
  5
2AA2
330
2
100
AcDbSymbolTableRecord
100
AcDbLayerTableRecord
  2
下書線
 70
     0
 62
     2
  6
CONTINUOUS
  0
LAYER
  5
2AA3
330
2
100
AcDbSymbolTableRecord
100
AcDbLayerTableRecord
  2
隠れ線
 70
     0
 62
     3
  6
DASHED
  0
LAYER
  5
2AA4
330
2
100
AcDbSymbolTableRecord
100
AcDbLayerTableRecord
  2
細線
 70
     0
 62
     6
  6
CONTINUOUS
  0
LAYER
  5
2AA5
330
2
100
AcDbSymbolTableRecord
100
AcDbLayerTableRecord
  2
太線
 70
     0
 62
   190
  6
CONTINUOUS
  0
ENDTAB
  0
TABLE
  2
STYLE
  5
3
330
0
100
AcDbSymbolTable
 70
     2
  0
STYLE
  5
10
330
3
100
AcDbSymbolTableRecord
100
AcDbTextStyleTableRecord
  2
STANDARD
 70
     0
 40
0.0
 41
1.0
 50
0.0
 71
     0
 42
4.0
  3
ISOCP
  4
bigfont.shx
  0
STYLE
  5
64
330
3
100
AcDbSymbolTableRecord
100
AcDbTextStyleTableRecord
  2
EXCADSTD
 70
     0
 40
0.0
 41
1.0
 50
0.0
 71
     0
 42
0.2
  3
monotxt
  4
bigfont
  0
ENDTAB
  0
TABLE
  2
VIEW
  5
6
330
0
100
AcDbSymbolTable
 70
     0
  0
ENDTAB
  0
TABLE
  2
UCS
  5
7
330
0
100
AcDbSymbolTable
 70
     0
  0
ENDTAB
  0
TABLE
  2
APPID
  5
9
330
0
100
AcDbSymbolTable
 70
     6
  0
APPID
  5
11
330
9
100
AcDbSymbolTableRecord
100
AcDbRegAppTableRecord
  2
ACAD
 70
     0
  0
APPID
  5
3507
330
9
100
AcDbSymbolTableRecord
100
AcDbRegAppTableRecord
  2
ACAD_DIMASSOC_CALC_DIMLFAC
 70
     0
  0
APPID
  5
3508
330
9
100
AcDbSymbolTableRecord
100
AcDbRegAppTableRecord
  2
ACAD_DIMASSOC_DIMLFAC
 70
     0
  0
APPID
  5
3509
330
9
100
AcDbSymbolTableRecord
100
AcDbRegAppTableRecord
  2
ACAD_DIMASSOC_OVERRIDDEN_D
 70
     0
  0
APPID
  5
4AF7
330
9
100
AcDbSymbolTableRecord
100
AcDbRegAppTableRecord
  2
ACADANNOTATIVE
 70
     0
  0
APPID
  5
4F8B
330
9
100
AcDbSymbolTableRecord
100
AcDbRegAppTableRecord
  2
ACAD_MLEADERVER
 70
     0
  0
ENDTAB
  0
TABLE
  2
DIMSTYLE
  5
A
330
0
100
AcDbSymbolTable
 70
     2
  0
DIMSTYLE
105
1D
330
A
100
AcDbSymbolTableRecord
100
AcDbDimStyleTableRecord
  2
STANDARD
 70
     0
  3

  4

  5

  6

  7

 40
1.0
 41
0.18
 42
0.0625
 43
0.38
 44
0.18
 45
0.0
 46
0.0
 47
0.0
 48
0.0
140
0.18
141
0.09
142
0.0
143
25.4
144
1.0
145
0.0
146
1.0
147
0.09
 71
     0
 72
     0
 73
     1
 74
     1
 75
     0
 76
     0
 77
     0
 78
     0
170
     0
171
     2
172
     0
173
     0
174
     0
175
     0
176
     0
177
     0
178
     0
270
     2
271
     4
272
     4
273
     2
274
     2
340
10
275
     0
280
     0
281
     0
282
     0
283
     1
284
     0
285
     0
286
     0
287
     3
288
     0
  0
DIMSTYLE
105
24
102
{ACAD_REACTORS
330
417C
330
41B4
330
46CD
330
46DA
330
48A2
330
48AF
330
4BD6
330
4E39
330
4E3A
330
4E3C
330
4E3D
330
4E3E
330
4E5F
102
}
330
A
100
AcDbSymbolTableRecord
100
AcDbDimStyleTableRecord
  2
ISO-25
 70
     0
  3

  4

  5

  6

  7

 40
1.0
 41
2.5
 42
0.625
 43
3.75
 44
1.25
 45
0.0
 46
0.0
 47
0.0
 48
0.0
140
2.5
141
2.5
142
0.0
143
0.0394
144
1.0
145
1.0
146
1.0
147
0.625
 71
     0
 72
     0
 73
     1
 74
     0
 75
     0
 76
     0
 77
     1
 78
     8
170
     0
171
     2
172
     1
173
     0
174
     0
175
     0
176
     0
177
     0
178
     0
270
     2
271
     4
272
     4
273
     2
274
     2
340
10
275
     0
280
     0
281
     0
282
     0
283
     1
284
     0
285
     0
286
     0
287
     3
288
     0
  0
ENDTAB
  0
TABLE
  2
BLOCK_RECORD
  5
1
330
0
100
AcDbSymbolTable
 70
    70
  0
BLOCK_RECORD
  5
1A
330
1
100
AcDbSymbolTableRecord
100
AcDbBlockTableRecord
  2
*MODEL_SPACE
  0
BLOCK_RECORD
  5
28FB
330
1
100
AcDbSymbolTableRecord
100
AcDbBlockTableRecord
  2
*PAPER_SPACE
  0
BLOCK_RECORD
  5
65
330
1
100
AcDbSymbolTableRecord
100
AcDbBlockTableRecord
  2
A$C3392
  0
BLOCK_RECORD
  5
29BF
330
1
100
AcDbSymbolTableRecord
100
AcDbBlockTableRecord
  2
A4横用_タイトル
1001
ACAD
1000
DesignCenter Data
1002
{
1070
     1
1070
     4
1002
}
  0
BLOCK_RECORD
  5
29F4
330
1
100
AcDbSymbolTableRecord
100
AcDbBlockTableRecord
  2
A4縦用_タイトル
1001
ACAD
1000
DesignCenter Data
1002
{
1070
     1
1070
     4
1002
}
  0
BLOCK_RECORD
  5
2A32
330
1
100
AcDbSymbolTableRecord
100
AcDbBlockTableRecord
  2
A3横用_タイトル
1001
ACAD
1000
DesignCenter Data
1002
{
1070
     1
1070
     4
1002
}
  0
BLOCK_RECORD
  5
2A6C
330
1
100
AcDbSymbolTableRecord
100
AcDbBlockTableRecord
  2
A3縦用_タイトル
1001
ACAD
1000
DesignCenter Data
1002
{
1070
     1
1070
     4
1002
}
  0
BLOCK_RECORD
  5
2AF4
330
1
100
AcDbSymbolTableRecord
100
AcDbBlockTableRecord
  2
_OPEN30
  0
BLOCK_RECORD
  5
417D
330
1
100
AcDbSymbolTableRecord
100
AcDbBlockTableRecord
  2
*D10
  0
BLOCK_RECORD
  5
41B5
330
1
100
AcDbSymbolTableRecord
100
AcDbBlockTableRecord
  2
*D11
  0
BLOCK_RECORD
  5
4212
330
1
100
AcDbSymbolTableRecord
100
AcDbBlockTableRecord
  2
_DOTSMALL
  0
BLOCK_RECORD
  5
4216
330
1
100
AcDbSymbolTableRecord
100
AcDbBlockTableRecord
  2
_DOT
  0
BLOCK_RECORD
  5
4501
330
1
100
AcDbSymbolTableRecord
100
AcDbBlockTableRecord
  2
静電容量センサ
  0
BLOCK_RECORD
  5
46CE
330
1
100
AcDbSymbolTableRecord
100
AcDbBlockTableRecord
  2
*D20
  0
BLOCK_RECORD
  5
46DB
330
1
100
AcDbSymbolTableRecord
100
AcDbBlockTableRecord
  2
*D21
  0
BLOCK_RECORD
  5
490E
330
1
100
AcDbSymbolTableRecord
100
AcDbBlockTableRecord
  2
*D37
  0
BLOCK_RECORD
  5
4926
330
1
100
AcDbSymbolTableRecord
100
AcDbBlockTableRecord
  2
*D39
  0
BLOCK_RECORD
  5
4BD7
330
1
100
AcDbSymbolTableRecord
100
AcDbBlockTableRecord
  2
*D41
  0
BLOCK_RECORD
  5
4EB7
330
1
100
AcDbSymbolTableRecord
100
AcDbBlockTableRecord
  2
*D62
  0
BLOCK_RECORD
  5
4EC4
330
1
100
AcDbSymbolTableRecord
100
AcDbBlockTableRecord
  2
*D63
  0
BLOCK_RECORD
  5
4EDE
330
1
100
AcDbSymbolTableRecord
100
AcDbBlockTableRecord
  2
*D65
  0
BLOCK_RECORD
  5
4EEA
330
1
100
AcDbSymbolTableRecord
100
AcDbBlockTableRecord
  2
*D66
  0
BLOCK_RECORD
  5
4EF6
330
1
100
AcDbSymbolTableRecord
100
AcDbBlockTableRecord
  2
*D67
  0
BLOCK_RECORD
  5
4F0E
330
1
100
AcDbSymbolTableRecord
100
AcDbBlockTableRecord
  2
*D69
  0
ENDTAB
  0
ENDSEC
  0
SECTION
  2
BLOCKS
  0
BLOCK
  5
1B
330
1A
100
AcDbEntity
  8
0
100
AcDbBlockBegin
  2
*MODEL_SPACE
 70
     0
 10
0.0
 20
0.0
 30
0.0
  3
*MODEL_SPACE
  1

  0
ENDBLK
  5
1C
330
1A
100
AcDbEntity
  8
0
100
AcDbBlockEnd
  0
BLOCK
  5
28FD
330
28FB
100
AcDbEntity
 67
     1
  8
0
 48
10.0
100
AcDbBlockBegin
  2
*PAPER_SPACE
 70
     0
 10
0.0
 20
0.0
 30
0.0
  3
*PAPER_SPACE
  1

  0
ENDBLK
  5
28FE
330
28FB
100
AcDbEntity
 67
     1
  8
0
 48
10.0
100
AcDbBlockEnd
  0
BLOCK
  5
93
330
65
100
AcDbEntity
  8
0
100
AcDbBlockBegin
  2
A$C3392
 70
     0
 10
0.0
 20
0.0
 30
0.0
  3
A$C3392
  1

  0
LINE
  5
66
330
65
100
AcDbEntity
  8
図枠太線
  6
CONTINUOUS
100
AcDbLine
 10
211.858584505185
 20
30.927375675439
 30
0.0
 11
211.858584505185
 21
0.927375675439
 31
0.0
  0
LINE
  5
67
330
65
100
AcDbEntity
  8
図枠細線
  6
CONTINUOUS
100
AcDbLine
 10
231.858592505185
 20
15.927377675439
 30
0.0
 11
287.858592505185
 21
15.927375675439
 31
0.0
  0
LINE
  5
68
330
65
100
AcDbEntity
  8
図枠細線
  6
CONTINUOUS
100
AcDbLine
 10
211.858592505185
 20
15.927377675439
 30
0.0
 11
231.858592505185
 21
15.927377675439
 31
0.0
  0
LINE
  5
69
330
65
100
AcDbEntity
  8
図枠太線
  6
CONTINUOUS
 62
   251
100
AcDbLine
 10
1.858584505185
 20
0.927375675439
 30
0.0
 11
1.858584505185
 21
275.927375675439
 31
0.0
  0
TEXT
  5
6A
330
65
100
AcDbEntity
  8
図枠細線
  6
CONTINUOUS
 62
   252
100
AcDbText
 10
351.358592505185
 20
28.427377675439
 30
0.0
 40
2.0
  1
ＴＩＴＬＥ
 41
0.903614457831
  7
EXCADSTD
 72
     5
 11
361.358592505185
 21
28.427377675439
 31
0.0
100
AcDbText
  0
TEXT
  5
6B
330
65
100
AcDbEntity
  8
図枠細線
  6
CONTINUOUS
 62
   252
100
AcDbText
 10
345.358592505185
 20
28.427377675439
 30
0.0
 40
2.0
  1
名称
 41
1.171875
  7
EXCADSTD
 72
     5
 11
350.358592505185
 21
28.427377675439
 31
0.0
100
AcDbText
  0
TEXT
  5
6C
330
65
100
AcDbEntity
  8
図枠細線
  6
CONTINUOUS
 62
   252
100
AcDbText
 10
274.358592505185
 20
25.927377675439
 30
0.0
 40
2.0
  1
ＤＲＡＷＮ
 41
0.882352941176
  7
EXCADSTD
 72
     5
 11
284.358592505185
 21
25.927377675439
 31
0.0
100
AcDbText
  0
TEXT
  5
6D
330
65
100
AcDbEntity
  8
図枠細線
  6
CONTINUOUS
 62
   252
100
AcDbText
 10
260.358592505185
 20
25.927377675439
 30
0.0
 40
2.0
  1
ＤＥＳＩＧＮＥＤ
 41
0.713043472041
  7
EXCADSTD
 72
     5
 11
273.478592390744
 21
25.927377675439
 31
0.0
100
AcDbText
  0
TEXT
  5
6E
330
65
100
AcDbEntity
  8
図枠細線
  6
CONTINUOUS
 62
   252
100
AcDbText
 10
246.358592505185
 20
25.927377675439
 30
0.0
 40
2.0
  1
ＣＨＥＣＫＥＤ
 41
0.831249989569
  7
EXCADSTD
 72
     5
 11
259.658592338292
 21
25.927377675439
 31
0.0
100
AcDbText
  0
TEXT
  5
6F
330
65
100
AcDbEntity
  8
図枠細線
  6
CONTINUOUS
 62
   252
100
AcDbText
 10
274.358592505185
 20
28.427377675439
 30
0.0
 40
2.0
  1
製図
 41
1.209677419355
  7
EXCADSTD
 72
     5
 11
279.358592505185
 21
28.427377675439
 31
0.0
100
AcDbText
  0
TEXT
  5
70
330
65
100
AcDbEntity
  8
図枠細線
  6
CONTINUOUS
 62
   252
100
AcDbText
 10
260.358592505185
 20
28.427377675439
 30
0.0
 40
2.0
  1
設計
 41
1.171875
  7
EXCADSTD
 72
     5
 11
265.358592505185
 21
28.427377675439
 31
0.0
100
AcDbText
  0
TEXT
  5
71
330
65
100
AcDbEntity
  8
図枠細線
  6
CONTINUOUS
 62
   252
100
AcDbText
 10
246.358592505185
 20
28.427377675439
 30
0.0
 40
2.0
  1
検図
 41
1.209677419355
  7
EXCADSTD
 72
     5
 11
251.358592505185
 21
28.427377675439
 31
0.0
100
AcDbText
  0
TEXT
  5
72
330
65
100
AcDbEntity
  8
図枠細線
  6
CONTINUOUS
 62
   252
100
AcDbText
 10
232.358592505185
 20
25.927377675439
 30
0.0
 40
2.0
  1
ＡＰＰＲＯＶＥＤ
 41
0.695652184279
  7
EXCADSTD
 72
     5
 11
245.15859269592
 21
25.927377675439
 31
0.0
100
AcDbText
  0
TEXT
  5
73
330
65
100
AcDbEntity
  8
図枠細線
  6
CONTINUOUS
 62
   252
100
AcDbText
 10
232.358592505185
 20
28.427377675439
 30
0.0
 40
2.0
  1
承認
 41
1.171875
  7
EXCADSTD
 72
     5
 11
237.358592505185
 21
28.427377675439
 31
0.0
100
AcDbText
  0
TEXT
  5
74
330
65
100
AcDbEntity
  8
図枠細線
  6
CONTINUOUS
 62
   252
100
AcDbText
 10
290.069888505185
 20
2.574868675439
 30
0.0
 40
3.5
  1
ＴＯＷＡ　ＳＥＩＤＥＮ　ＩＮＤＵＳＴＲＩＡＬ　ＣＯ．，ＬＴＤ．
 41
0.414568012377
  7
EXCADSTD
 72
     5
 11
342.692388209546
 21
2.574868675439
 31
0.0
100
AcDbText
  0
TEXT
  5
75
330
65
100
AcDbEntity
  8
図枠ロゴマーク
  6
CONTINUOUS
 62
   253
100
AcDbText
 10
290.107348505185
 20
7.519769675439
 30
0.0
 40
7.0
  1
東和制電工業株式会社
 41
0.639204545455
  7
EXCADSTD
 72
     5
 11
342.607348505185
 21
7.519769675439
 31
0.0
100
AcDbText
  0
TEXT
  5
76
330
65
100
AcDbEntity
  8
図枠細線
  6
CONTINUOUS
 62
   252
100
AcDbText
 10
232.499705505185
 20
5.759088675439
 30
0.0
 40
2.0
  1
ＰＲＯＪＥＣＴＩＯＮ
 41
0.754285710199
  7
EXCADSTD
 72
     5
 11
250.099705409817
 21
5.759088675439
 31
0.0
100
AcDbText
  0
TEXT
  5
77
330
65
100
AcDbEntity
  8
図枠細線
  6
CONTINUOUS
 62
   252
100
AcDbText
 10
232.574629505185
 20
8.681077675439
 30
0.0
 40
2.0
  1
ＴＨＩＲＤ　ＡＮＧＬＥ
 41
0.691099486738
  7
EXCADSTD
 72
     5
 11
250.174629767445
 21
8.681077675439
 31
0.0
100
AcDbText
  0
TEXT
  5
78
330
65
100
AcDbEntity
  8
図枠細線
  6
CONTINUOUS
 62
   252
100
AcDbText
 10
256.823999505185
 20
13.427377675439
 30
0.0
 40
2.0
  1
ＳＣＡＬＥ
 41
0.903614457831
  7
EXCADSTD
 72
     5
 11
266.823999505185
 21
13.427377675439
 31
0.0
100
AcDbText
  0
TEXT
  5
79
330
65
100
AcDbEntity
  8
図枠細線
  6
CONTINUOUS
 62
   252
100
AcDbText
 10
274.858592505185
 20
13.427377675439
 30
0.0
 40
2.0
  1
ＤＡＴＥ
 41
0.923076923077
  7
EXCADSTD
 72
     5
 11
282.858592505185
 21
13.427377675439
 31
0.0
100
AcDbText
  0
TEXT
  5
7A
330
65
100
AcDbEntity
  8
図枠細線
  6
CONTINUOUS
 62
   252
100
AcDbText
 10
356.358592505185
 20
13.427377675439
 30
0.0
 40
2.0
  1
ＤＲＧ．ＮＯ．
 41
0.9375
  7
EXCADSTD
 72
     5
 11
370.358592505185
 21
13.427377675439
 31
0.0
100
AcDbText
  0
TEXT
  5
7B
330
65
100
AcDbEntity
  8
図枠細線
  6
CONTINUOUS
 62
   252
100
AcDbText
 10
345.358592505185
 20
13.427377675439
 30
0.0
 40
2.0
  1
図面番号
 41
1.102941176471
  7
EXCADSTD
 72
     5
 11
355.358592505185
 21
13.427377675439
 31
0.0
100
AcDbText
  0
TEXT
  5
7C
330
65
100
AcDbEntity
  8
図枠細線
  6
CONTINUOUS
 62
   252
100
AcDbText
 10
269.358592505185
 20
13.427377675439
 30
0.0
 40
2.0
  1
日付
 41
1.171875
  7
EXCADSTD
 72
     5
 11
274.358592505185
 21
13.427377675439
 31
0.0
100
AcDbText
  0
TEXT
  5
7D
330
65
100
AcDbEntity
  8
図枠細線
  6
CONTINUOUS
 62
   252
100
AcDbText
 10
251.451512505185
 20
13.427377675439
 30
0.0
 40
2.0
  1
尺度
 41
1.171875
  7
EXCADSTD
 72
     5
 11
256.451512505185
 21
13.427377675439
 31
0.0
100
AcDbText
  0
TEXT
  5
7E
330
65
100
AcDbEntity
  8
図枠細線
  6
CONTINUOUS
 62
   252
100
AcDbText
 10
232.358592505185
 20
13.427377675439
 30
0.0
 40
2.0
  1
第三角法
 41
1.102941176471
  7
EXCADSTD
 72
     5
 11
242.358592505185
 21
13.427377675439
 31
0.0
100
AcDbText
  0
TEXT
  5
7F
330
65
100
AcDbEntity
  8
図枠細線
  6
CONTINUOUS
 62
   252
100
AcDbText
 10
212.358592505185
 20
28.427377675439
 30
0.0
 40
2.0
  1
ＮＯＴＥ
 41
0.923076923077
  7
EXCADSTD
 72
     5
 11
220.358592505185
 21
28.427377675439
 31
0.0
100
AcDbText
  0
LINE
  5
80
330
65
100
AcDbEntity
  8
図枠細線
  6
CONTINUOUS
 62
   252
100
AcDbLine
 10
287.858592505185
 20
23.427375675439
 30
0.0
 11
344.858592505185
 21
23.427375675439
 31
0.0
  0
LINE
  5
81
330
65
100
AcDbEntity
  8
図枠太線
  6
CONTINUOUS
 62
   251
100
AcDbLine
 10
287.858584505185
 20
15.927375675439
 30
0.0
 11
344.858592505185
 21
15.927375675439
 31
0.0
  0
LINE
  5
82
330
65
100
AcDbEntity
  8
図枠細線
  6
CONTINUOUS
 62
   252
100
AcDbLine
 10
344.858592505185
 20
15.927375675439
 30
0.0
 11
401.858584505185
 21
15.927375675439
 31
0.0
  0
LINE
  5
83
330
65
100
AcDbEntity
  8
図枠太線
  6
CONTINUOUS
 62
   251
100
AcDbLine
 10
344.858592505185
 20
0.927377675439
 30
0.0
 11
344.858592505185
 21
30.927375675439
 31
0.0
  0
LINE
  5
84
330
65
100
AcDbEntity
  8
図枠太線
  6
CONTINUOUS
 62
   251
100
AcDbLine
 10
287.858592505185
 20
0.927377675439
 30
0.0
 11
287.858592505185
 21
30.927375675439
 31
0.0
  0
LINE
  5
85
330
65
100
AcDbEntity
  8
図枠細線
  6
CONTINUOUS
 62
   252
100
AcDbLine
 10
268.858592505185
 20
0.927377675439
 30
0.0
 11
268.858592505185
 21
15.927375675439
 31
0.0
  0
LINE
  5
86
330
65
100
AcDbEntity
  8
図枠細線
  6
CONTINUOUS
 62
   252
100
AcDbLine
 10
250.858592505185
 20
0.927377675439
 30
0.0
 11
250.858592505185
 21
15.927375675439
 31
0.0
  0
LINE
  5
87
330
65
100
AcDbEntity
  8
図枠細線
  6
CONTINUOUS
 62
   252
100
AcDbLine
 10
273.858592505185
 20
30.927375675439
 30
0.0
 11
273.858592505185
 21
15.927375675439
 31
0.0
  0
LINE
  5
88
330
65
100
AcDbEntity
  8
図枠細線
  6
CONTINUOUS
 62
   252
100
AcDbLine
 10
259.858592505185
 20
30.927375675439
 30
0.0
 11
259.858592505185
 21
15.927375675439
 31
0.0
  0
LINE
  5
89
330
65
100
AcDbEntity
  8
図枠細線
  6
CONTINUOUS
 62
   252
100
AcDbLine
 10
245.858592505185
 20
30.927375675439
 30
0.0
 11
245.858592505185
 21
15.927375675439
 31
0.0
  0
LINE
  5
8A
330
65
100
AcDbEntity
  8
図枠太線
  6
CONTINUOUS
 62
   251
100
AcDbLine
 10
231.858592505185
 20
0.927377675439
 30
0.0
 11
231.858592505185
 21
30.927375675439
 31
0.0
  0
LINE
  5
8B
330
65
100
AcDbEntity
  8
図枠細線
  6
CONTINUOUS
 62
   252
100
AcDbLine
 10
211.858592505185
 20
25.927375675439
 30
0.0
 11
231.858592505185
 21
25.927375675439
 31
0.0
  0
LINE
  5
8C
330
65
100
AcDbEntity
  8
図枠細線
  6
CONTINUOUS
 62
   252
100
AcDbLine
 10
211.858592505185
 20
20.927375675439
 30
0.0
 11
231.858592505185
 21
20.927375675439
 31
0.0
  0
LINE
  5
8D
330
65
100
AcDbEntity
  8
図枠細線
  6
CONTINUOUS
 62
   252
100
AcDbLine
 10
211.858592505185
 20
10.927375675439
 30
0.0
 11
231.858592505185
 21
10.927375675439
 31
0.0
  0
LINE
  5
8E
330
65
100
AcDbEntity
  8
図枠細線
  6
CONTINUOUS
 62
   252
100
AcDbLine
 10
211.858592505185
 20
5.927377675439
 30
0.0
 11
231.858592505185
 21
5.927377675439
 31
0.0
  0
LINE
  5
8F
330
65
100
AcDbEntity
  8
図枠太線
  6
CONTINUOUS
 62
   251
100
AcDbLine
 10
211.858592505185
 20
30.927375675439
 30
0.0
 11
401.858584505185
 21
30.927375675439
 31
0.0
  0
LINE
  5
90
330
65
100
AcDbEntity
  8
図枠太線
  6
CONTINUOUS
 62
   251
100
AcDbLine
 10
1.858584505185
 20
275.927375675439
 30
0.0
 11
401.858584505185
 21
275.927375675439
 31
0.0
  0
LINE
  5
91
330
65
100
AcDbEntity
  8
図枠太線
  6
CONTINUOUS
 62
   251
100
AcDbLine
 10
401.858584505185
 20
0.927375675439
 30
0.0
 11
401.858584505185
 21
275.927375675439
 31
0.0
  0
LINE
  5
92
330
65
100
AcDbEntity
  8
図枠太線
  6
CONTINUOUS
 62
   251
100
AcDbLine
 10
1.858584505185
 20
0.927375675439
 30
0.0
 11
401.858584505185
 21
0.927375675439
 31
0.0
  0
ENDBLK
  5
94
330
65
100
AcDbEntity
  8
0
100
AcDbBlockEnd
  0
BLOCK
  5
29C0
330
29BF
100
AcDbEntity
  8
0
100
AcDbBlockBegin
  2
A4横用_タイトル
 70
     0
 10
0.0
 20
0.0
 30
0.0
  3
A4横用_タイトル
  1

  0
LINE
  5
29C1
330
29BF
100
AcDbEntity
  8
図枠細線
  6
CONTINUOUS
100
AcDbLine
 10
75.061011071051
 20
16.806607253358
 30
0.0
 11
144.061011071051
 21
16.806604789072
 31
0.0
  0
LINE
  5
29C2
330
29BF
100
AcDbEntity
  8
図枠細線
  6
CONTINUOUS
 62
   252
100
AcDbLine
 10
4.061011071051
 20
11.806606253358
 30
0.0
 11
75.061011071051
 21
11.806606253358
 31
0.0
  0
LINE
  5
29C3
330
29BF
100
AcDbEntity
  8
図枠細線
  6
CONTINUOUS
 62
   252
100
AcDbLine
 10
4.061011071051
 20
21.806606253358
 30
0.0
 11
75.061011071051
 21
21.806606253358
 31
0.0
  0
LINE
  5
29C4
330
29BF
100
AcDbEntity
  8
図枠細線
  6
CONTINUOUS
 62
   252
100
AcDbLine
 10
4.061011071051
 20
26.806606253358
 30
0.0
 11
75.061011071051
 21
26.806606253358
 31
0.0
  0
LINE
  5
29C5
330
29BF
100
AcDbEntity
  8
図枠細線
  6
CONTINUOUS
100
AcDbLine
 10
4.061011071051
 20
16.806608253358
 30
0.0
 11
75.061011071051
 21
16.806608253358
 31
0.0
  0
TEXT
  5
29C6
330
29BF
100
AcDbEntity
  8
図枠細線
  6
CONTINUOUS
 62
   252
100
AcDbText
 10
76.405475827713
 20
9.560308253358
 30
0.0
 40
2.0
  1
ＴＨＩＲＤ　ＡＮＧＬＥ
 41
0.691099486738
  7
EXCADSTD
 72
     5
 11
94.005476089973
 21
9.560308253358
 31
0.0
100
AcDbText
  0
TEXT
  5
29C7
330
29BF
100
AcDbEntity
  8
図枠細線
  6
CONTINUOUS
 62
   252
100
AcDbText
 10
76.705775880921
 20
14.306608253358
 30
0.0
 40
2.0
  1
第三角法
 41
1.102941176471
  7
EXCADSTD
 72
     5
 11
86.705775880921
 21
14.306608253358
 31
0.0
100
AcDbText
  0
TEXT
  5
29C8
330
29BF
100
AcDbEntity
  8
図枠細線
  6
CONTINUOUS
 62
   252
100
AcDbText
 10
76.705775880921
 20
26.806608253358
 30
0.0
 40
2.0
  1
ＡＰＰＲＯＶＥＤ
 41
0.695652184279
  7
EXCADSTD
 72
     5
 11
89.505776071656
 21
26.806608253358
 31
0.0
100
AcDbText
  0
TEXT
  5
29C9
330
29BF
100
AcDbEntity
  8
図枠細線
  6
CONTINUOUS
 62
   252
100
AcDbText
 10
76.705775880921
 20
29.306608253358
 30
0.0
 40
2.0
  1
承認
 41
1.171875
  7
EXCADSTD
 72
     5
 11
81.705775880921
 21
29.306608253358
 31
0.0
100
AcDbText
  0
LINE
  5
29CA
330
29BF
100
AcDbEntity
  8
図枠細線
  6
CONTINUOUS
 62
   252
100
AcDbLine
 10
98.061011071051
 20
31.806606253358
 30
0.0
 11
98.061011071051
 21
16.806606253358
 31
0.0
  0
TEXT
  5
29CB
330
29BF
100
AcDbEntity
  8
図枠細線
  6
CONTINUOUS
 62
   252
100
AcDbText
 10
104.216531119804
 20
14.306608253358
 30
0.0
 40
2.0
  1
ＳＣＡＬＥ
 41
0.903614457831
  7
EXCADSTD
 72
     5
 11
114.216531119804
 21
14.306608253358
 31
0.0
100
AcDbText
  0
TEXT
  5
29CC
330
29BF
100
AcDbEntity
  8
図枠細線
  6
CONTINUOUS
 62
   252
100
AcDbText
 10
98.844044119804
 20
14.306608253358
 30
0.0
 40
2.0
  1
尺度
 41
1.171875
  7
EXCADSTD
 72
     5
 11
103.844044119804
 21
14.306608253358
 31
0.0
100
AcDbText
  0
TEXT
  5
29CD
330
29BF
100
AcDbEntity
  8
図枠細線
  6
CONTINUOUS
 62
   252
100
AcDbText
 10
98.968727707497
 20
26.806608253358
 30
0.0
 40
2.0
  1
ＣＨＥＣＫＥＤ
 41
0.831249989569
  7
EXCADSTD
 72
     5
 11
112.268727540604
 21
26.806608253358
 31
0.0
100
AcDbText
  0
TEXT
  5
29CE
330
29BF
100
AcDbEntity
  8
図枠細線
  6
CONTINUOUS
 62
   252
100
AcDbText
 10
98.968727707497
 20
29.306608253358
 30
0.0
 40
2.0
  1
検図
 41
1.209677419355
  7
EXCADSTD
 72
     5
 11
103.968727707497
 21
29.306608253358
 31
0.0
100
AcDbText
  0
LINE
  5
29CF
330
29BF
100
AcDbEntity
  8
図枠細線
  6
CONTINUOUS
 62
   252
100
AcDbLine
 10
121.061011071051
 20
31.806606253358
 30
0.0
 11
121.061011071051
 21
16.806606253358
 31
0.0
  0
TEXT
  5
29D0
330
29BF
100
AcDbEntity
  8
図枠細線
  6
CONTINUOUS
 62
   252
100
AcDbText
 10
128.001465247253
 20
14.306608253358
 30
0.0
 40
2.0
  1
ＤＡＴＥ
 41
0.923076923077
  7
EXCADSTD
 72
     5
 11
136.001465247253
 21
14.306608253358
 31
0.0
100
AcDbText
  0
TEXT
  5
29D1
330
29BF
100
AcDbEntity
  8
図枠細線
  6
CONTINUOUS
 62
   252
100
AcDbText
 10
122.066415498841
 20
14.306608253358
 30
0.0
 40
2.0
  1
日付
 41
1.171875
  7
EXCADSTD
 72
     5
 11
127.066415498841
 21
14.306608253358
 31
0.0
100
AcDbText
  0
TEXT
  5
29D2
330
29BF
100
AcDbEntity
  8
図枠細線
  6
CONTINUOUS
 62
   252
100
AcDbText
 10
121.59429406571
 20
29.306608253358
 30
0.0
 40
2.0
  1
製図
 41
1.209677419355
  7
EXCADSTD
 72
     5
 11
126.59429406571
 21
29.306608253358
 31
0.0
100
AcDbText
  0
TEXT
  5
29D3
330
29BF
100
AcDbEntity
  8
図枠細線
  6
CONTINUOUS
 62
   252
100
AcDbText
 10
121.59429406571
 20
26.806608253358
 30
0.0
 40
2.0
  1
ＤＲＡＷＮ
 41
0.882352941176
  7
EXCADSTD
 72
     5
 11
131.59429406571
 21
26.806608253358
 31
0.0
100
AcDbText
  0
TEXT
  5
29D4
330
29BF
100
AcDbEntity
  8
図枠細線
  6
CONTINUOUS
 62
   252
100
AcDbText
 10
226.591229661348
 20
14.306608253358
 30
0.0
 40
2.0
  1
ＤＲＧ．ＮＯ．
 41
0.9375
  7
EXCADSTD
 72
     5
 11
240.591229661348
 21
14.306608253358
 31
0.0
100
AcDbText
  0
LINE
  5
29D5
330
29BF
100
AcDbEntity
  8
図枠太線
  6
CONTINUOUS
 62
   251
100
AcDbLine
 10
144.061003071051
 20
16.806606253358
 30
0.0
 11
214.061011071051
 21
16.806606253358
 31
0.0
  0
LINE
  5
29D6
330
29BF
100
AcDbEntity
  8
図枠細線
  6
CONTINUOUS
 62
   252
100
AcDbLine
 10
144.061011071051
 20
24.306606253358
 30
0.0
 11
214.061011071051
 21
24.306606253358
 31
0.0
  0
TEXT
  5
29D7
330
29BF
100
AcDbEntity
  8
図枠ロゴマーク
  6
CONTINUOUS
 62
   253
100
AcDbText
 10
146.433776781596
 20
8.399000253358
 30
0.0
 40
7.0
  1
東和制電工業株式会社
 41
0.80361088462
  7
EXCADSTD
 72
     5
 11
212.437017438349
 21
8.399000253358
 31
0.0
100
AcDbText
  0
TEXT
  5
29D8
330
29BF
100
AcDbEntity
  8
図枠細線
  6
CONTINUOUS
 62
   252
100
AcDbText
 10
215.156179912936
 20
14.306608253358
 30
0.0
 40
2.0
  1
図面番号
 41
1.102941176471
  7
EXCADSTD
 72
     5
 11
225.156179912936
 21
14.306608253358
 31
0.0
100
AcDbText
  0
TEXT
  5
29D9
330
29BF
100
AcDbEntity
  8
図枠細線
  6
CONTINUOUS
 62
   252
100
AcDbText
 10
221.591229661348
 20
29.306608253358
 30
0.0
 40
2.0
  1
ＴＩＴＬＥ
 41
0.903614457831
  7
EXCADSTD
 72
     5
 11
231.591229661348
 21
29.306608253358
 31
0.0
100
AcDbText
  0
TEXT
  5
29DA
330
29BF
100
AcDbEntity
  8
図枠細線
  6
CONTINUOUS
 62
   252
100
AcDbText
 10
215.156179912936
 20
29.306608253358
 30
0.0
 40
2.0
  1
名称
 41
1.171875
  7
EXCADSTD
 72
     5
 11
220.156179912936
 21
29.306608253358
 31
0.0
100
AcDbText
  0
LINE
  5
29DB
330
29BF
100
AcDbEntity
  8
図枠太線
  6
CONTINUOUS
 62
   251
100
AcDbLine
 10
4.061011071051
 20
1.806608253358
 30
0.0
 11
284.061011071051
 21
1.806608253358
 31
0.0
  0
LINE
  5
29DC
330
29BF
100
AcDbEntity
  8
図枠細線
  6
CONTINUOUS
 62
   252
100
AcDbLine
 10
4.061011071051
 20
6.806608253358
 30
0.0
 11
75.061011071051
 21
6.806608253358
 31
0.0
  0
LINE
  5
29DD
330
29BF
100
AcDbEntity
  8
図枠太線
  6
CONTINUOUS
 62
   251
100
AcDbLine
 10
75.061011071051
 20
1.806608253358
 30
0.0
 11
75.061011071051
 21
31.806606253358
 31
0.0
  0
TEXT
  5
29DE
330
29BF
100
AcDbEntity
  8
図枠細線
  6
CONTINUOUS
 62
   252
100
AcDbText
 10
76.330551827713
 20
6.638319253358
 30
0.0
 40
2.0
  1
ＰＲＯＪＥＣＴＩＯＮ
 41
0.754285710199
  7
EXCADSTD
 72
     5
 11
93.930551732346
 21
6.638319253358
 31
0.0
100
AcDbText
  0
LINE
  5
29DF
330
29BF
100
AcDbEntity
  8
図枠細線
  6
CONTINUOUS
 62
   252
100
AcDbLine
 10
98.061011071051
 20
1.806606931929
 30
0.0
 11
98.061011071051
 21
16.806604931929
 31
0.0
  0
LINE
  5
29E0
330
29BF
100
AcDbEntity
  8
図枠細線
  6
CONTINUOUS
 62
   252
100
AcDbLine
 10
121.061011071051
 20
1.806607574787
 30
0.0
 11
121.061011071051
 21
16.806605574787
 31
0.0
  0
LINE
  5
29E1
330
29BF
100
AcDbEntity
  8
図枠太線
  6
CONTINUOUS
 62
   251
100
AcDbLine
 10
284.061011071051
 20
1.806608253358
 30
0.0
 11
284.061011071051
 21
31.806606253358
 31
0.0
  0
LINE
  5
29E2
330
29BF
100
AcDbEntity
  8
図枠細線
  6
CONTINUOUS
 62
   252
100
AcDbLine
 10
214.061011071051
 20
16.806606253358
 30
0.0
 11
284.061011071051
 21
16.806606253358
 31
0.0
  0
TEXT
  5
29E3
330
29BF
100
AcDbEntity
  8
図枠細線
  6
CONTINUOUS
 62
   252
100
AcDbText
 10
146.199593676182
 20
3.454099253358
 30
0.0
 40
3.5
  1
ＴＯＷＡ　ＳＥＩＤＥＮ　ＩＮＤＵＳＴＲＩＡＬ　ＣＯ．，ＬＴＤ．
 41
0.528937826907
  7
EXCADSTD
 72
     5
 11
213.339435171588
 21
3.454099253358
 31
0.0
100
AcDbText
  0
LINE
  5
29E4
330
29BF
100
AcDbEntity
  8
図枠太線
  6
CONTINUOUS
 62
   251
100
AcDbLine
 10
144.061011071051
 20
1.806608253358
 30
0.0
 11
144.061011071051
 21
31.806606253358
 31
0.0
  0
LINE
  5
29E5
330
29BF
100
AcDbEntity
  8
図枠太線
  6
CONTINUOUS
 62
   251
100
AcDbLine
 10
214.061011071051
 20
1.806608253358
 30
0.0
 11
214.061011071051
 21
31.806606253358
 31
0.0
  0
MTEXT
  5
29E6
330
29BF
100
AcDbEntity
  8
図枠太線
100
AcDbMText
 10
5.064337346478
 20
31.010982137407
 30
0.0
 40
2.5
 41
8.67856098472
 71
     1
 72
     5
  1
{\Fmonotxt.shx,bigfont.shx|c128;図暦}
  0
LINE
  5
29E7
330
29BF
100
AcDbEntity
  8
図枠太線
  6
CONTINUOUS
 62
   251
100
AcDbLine
 10
4.061011071051
 20
1.806608253358
 30
0.0
 11
4.061011071051
 21
31.806606253358
 31
0.0
  0
TEXT
  5
29E8
330
29BF
100
AcDbEntity
  8
図枠細線
 48
10.0
100
AcDbText
 10
12.260817420402
 20
28.625419626495
 30
0.0
 40
2.0
  1
CHANGE NOTICE
100
AcDbText
  0
ENDBLK
  5
29E9
330
29BF
100
AcDbEntity
  8
0
100
AcDbBlockEnd
  0
BLOCK
  5
29F5
330
29F4
100
AcDbEntity
  8
0
100
AcDbBlockBegin
  2
A4縦用_タイトル
 70
     0
 10
0.0
 20
0.0
 30
0.0
  3
A4縦用_タイトル
  1

  0
LINE
  5
29F6
330
29F4
100
AcDbEntity
  8
図枠太線
  6
CONTINUOUS
 62
   251
100
AcDbLine
 10
2.368253864267
 20
4.525433224584
 30
0.0
 11
192.368245864267
 21
4.525433224584
 31
0.0
  0
LINE
  5
29F7
330
29F4
100
AcDbEntity
  8
図枠太線
  6
CONTINUOUS
 62
   251
100
AcDbLine
 10
78.368245864267
 20
19.525431224584
 30
0.0
 11
135.368253864267
 21
19.525431224584
 31
0.0
  0
LINE
  5
29F8
330
29F4
100
AcDbEntity
  8
図枠細線
  6
CONTINUOUS
 62
   252
100
AcDbLine
 10
78.368253864267
 20
27.025431224584
 30
0.0
 11
135.368253864267
 21
27.025431224584
 31
0.0
  0
TEXT
  5
29F9
330
29F4
100
AcDbEntity
  8
図枠ロゴマーク
  6
CONTINUOUS
 62
   253
100
AcDbText
 10
80.617009864267
 20
11.117825224584
 30
0.0
 40
7.0
  1
東和制電工業株式会社
 41
0.639204545455
  7
EXCADSTD
 72
     5
 11
133.117009864267
 21
11.117825224584
 31
0.0
100
AcDbText
  0
TEXT
  5
29FA
330
29F4
100
AcDbEntity
  8
図枠細線
  6
CONTINUOUS
 62
   252
100
AcDbText
 10
80.579549864267
 20
6.172924224584
 30
0.0
 40
3.5
  1
ＴＯＷＡ　ＳＥＩＤＥＮ　ＩＮＤＵＳＴＲＩＡＬ　ＣＯ．，ＬＴＤ．
 41
0.414568012377
  7
EXCADSTD
 72
     5
 11
133.202049568628
 21
6.172924224584
 31
0.0
100
AcDbText
  0
LINE
  5
29FB
330
29F4
100
AcDbEntity
  8
図枠太線
  6
CONTINUOUS
 62
   251
100
AcDbLine
 10
2.368253864267
 20
4.525433224584
 30
0.0
 11
2.368253864267
 21
34.525431224584
 31
0.0
  0
TEXT
  5
29FC
330
29F4
100
AcDbEntity
  8
図枠細線
  6
CONTINUOUS
 62
   252
100
AcDbText
 10
22.504308136501
 20
12.279133224584
 30
0.0
 40
2.0
  1
ＴＨＩＲＤ　ＡＮＧＬＥ
 41
0.691099486738
  7
EXCADSTD
 72
     5
 11
40.104308398762
 21
12.279133224584
 31
0.0
100
AcDbText
  0
TEXT
  5
29FD
330
29F4
100
AcDbEntity
  8
図枠細線
  6
CONTINUOUS
 62
   252
100
AcDbText
 10
22.429384136501
 20
9.357144224584
 30
0.0
 40
2.0
  1
ＰＲＯＪＥＣＴＩＯＮ
 41
0.754285710199
  7
EXCADSTD
 72
     5
 11
40.029384041134
 21
9.357144224584
 31
0.0
100
AcDbText
  0
LINE
  5
29FE
330
29F4
100
AcDbEntity
  8
図枠細線
  6
CONTINUOUS
100
AcDbLine
 10
22.368253864267
 20
19.525433224584
 30
0.0
 11
78.368253864267
 21
19.525431224584
 31
0.0
  0
TEXT
  5
29FF
330
29F4
100
AcDbEntity
  8
図枠細線
  6
CONTINUOUS
 62
   252
100
AcDbText
 10
22.868253864267
 20
17.025433224584
 30
0.0
 40
2.0
  1
第三角法
 41
1.102941176471
  7
EXCADSTD
 72
     5
 11
32.868253864267
 21
17.025433224584
 31
0.0
100
AcDbText
  0
TEXT
  5
2A00
330
29F4
100
AcDbEntity
  8
図枠細線
  6
CONTINUOUS
 62
   252
100
AcDbText
 10
22.868253864267
 20
29.525433224584
 30
0.0
 40
2.0
  1
ＡＰＰＲＯＶＥＤ
 41
0.695652184279
  7
EXCADSTD
 72
     5
 11
35.668254055002
 21
29.525433224584
 31
0.0
100
AcDbText
  0
LINE
  5
2A01
330
29F4
100
AcDbEntity
  8
図枠細線
  6
CONTINUOUS
 62
   252
100
AcDbLine
 10
2.368253864267
 20
9.525433224584
 30
0.0
 11
22.368253864267
 21
9.525433224584
 31
0.0
  0
LINE
  5
2A02
330
29F4
100
AcDbEntity
  8
図枠細線
  6
CONTINUOUS
 62
   252
100
AcDbLine
 10
2.368253864267
 20
14.525431224584
 30
0.0
 11
22.368253864267
 21
14.525431224584
 31
0.0
  0
LINE
  5
2A03
330
29F4
100
AcDbEntity
  8
図枠細線
  6
CONTINUOUS
 62
   252
100
AcDbLine
 10
2.368253864267
 20
24.525431224584
 30
0.0
 11
22.368253864267
 21
24.525431224584
 31
0.0
  0
LINE
  5
2A04
330
29F4
100
AcDbEntity
  8
図枠細線
  6
CONTINUOUS
 62
   252
100
AcDbLine
 10
2.368253864267
 20
29.525431224584
 30
0.0
 11
22.368253864267
 21
29.525431224584
 31
0.0
  0
LINE
  5
2A05
330
29F4
100
AcDbEntity
  8
図枠細線
  6
CONTINUOUS
100
AcDbLine
 10
2.368253864267
 20
19.525433224584
 30
0.0
 11
22.368253864267
 21
19.525433224584
 31
0.0
  0
TEXT
  5
2A06
330
29F4
100
AcDbEntity
  8
図枠細線
  6
CONTINUOUS
 62
   252
100
AcDbText
 10
2.868253864267
 20
32.025433224584
 30
0.0
 40
2.0
  1
ＮＯＴＥ
 41
0.923076923077
  7
EXCADSTD
 72
     5
 11
10.868253864267
 21
32.025433224584
 31
0.0
100
AcDbText
  0
LINE
  5
2A07
330
29F4
100
AcDbEntity
  8
図枠太線
  6
CONTINUOUS
 62
   251
100
AcDbLine
 10
22.368253864267
 20
4.525433224584
 30
0.0
 11
22.368253864267
 21
34.525431224584
 31
0.0
  0
TEXT
  5
2A08
330
29F4
100
AcDbEntity
  8
図枠細線
  6
CONTINUOUS
 62
   252
100
AcDbText
 10
22.868253864267
 20
32.025433224584
 30
0.0
 40
2.0
  1
承認
 41
1.171875
  7
EXCADSTD
 72
     5
 11
27.868253864267
 21
32.025433224584
 31
0.0
100
AcDbText
  0
TEXT
  5
2A09
330
29F4
100
AcDbEntity
  8
図枠細線
  6
CONTINUOUS
 62
   252
100
AcDbText
 10
60.711709035982
 20
32.025433224584
 30
0.0
 40
2.0
  1
製図
 41
1.209677419355
  7
EXCADSTD
 72
     5
 11
65.711709035982
 21
32.025433224584
 31
0.0
100
AcDbText
  0
TEXT
  5
2A0A
330
29F4
100
AcDbEntity
  8
図枠細線
  6
CONTINUOUS
 62
   252
100
AcDbText
 10
60.711709035982
 20
29.525433224584
 30
0.0
 40
2.0
  1
ＤＲＡＷＮ
 41
0.882352941176
  7
EXCADSTD
 72
     5
 11
70.711709035982
 21
29.525433224584
 31
0.0
100
AcDbText
  0
TEXT
  5
2A0B
330
29F4
100
AcDbEntity
  8
図枠細線
  6
CONTINUOUS
 62
   252
100
AcDbText
 10
60.834891743877
 20
17.025433224584
 30
0.0
 40
2.0
  1
日付
 41
1.171875
  7
EXCADSTD
 72
     5
 11
65.834891743877
 21
17.025433224584
 31
0.0
100
AcDbText
  0
TEXT
  5
2A0C
330
29F4
100
AcDbEntity
  8
図枠細線
  6
CONTINUOUS
 62
   252
100
AcDbText
 10
47.333660864267
 20
17.025433224584
 30
0.0
 40
2.0
  1
ＳＣＡＬＥ
 41
0.903614457831
  7
EXCADSTD
 72
     5
 11
57.333660864267
 21
17.025433224584
 31
0.0
100
AcDbText
  0
TEXT
  5
2A0D
330
29F4
100
AcDbEntity
  8
図枠細線
  6
CONTINUOUS
 62
   252
100
AcDbText
 10
42.281425990082
 20
29.525433224584
 30
0.0
 40
2.0
  1
ＣＨＥＣＫＥＤ
 41
0.831249989569
  7
EXCADSTD
 72
     5
 11
55.581425823189
 21
29.525433224584
 31
0.0
100
AcDbText
  0
LINE
  5
2A0E
330
29F4
100
AcDbEntity
  8
図枠細線
  6
CONTINUOUS
 62
   252
100
AcDbLine
 10
40.968253864267
 20
34.525431224584
 30
0.0
 11
40.968253864267
 21
19.525431224584
 31
0.0
  0
LINE
  5
2A0F
330
29F4
100
AcDbEntity
  8
図枠細線
  6
CONTINUOUS
 62
   252
100
AcDbLine
 10
40.968253864267
 20
4.525433224584
 30
0.0
 11
40.968253864267
 21
19.525431224584
 31
0.0
  0
TEXT
  5
2A10
330
29F4
100
AcDbEntity
  8
図枠細線
  6
CONTINUOUS
 62
   252
100
AcDbText
 10
41.961173864267
 20
17.025433224584
 30
0.0
 40
2.0
  1
尺度
 41
1.171875
  7
EXCADSTD
 72
     5
 11
46.961173864267
 21
17.025433224584
 31
0.0
100
AcDbText
  0
TEXT
  5
2A11
330
29F4
100
AcDbEntity
  8
図枠細線
  6
CONTINUOUS
 62
   252
100
AcDbText
 10
42.281425990082
 20
32.025433224584
 30
0.0
 40
2.0
  1
検図
 41
1.209677419355
  7
EXCADSTD
 72
     5
 11
47.281425990082
 21
32.025433224584
 31
0.0
100
AcDbText
  0
LINE
  5
2A12
330
29F4
100
AcDbEntity
  8
図枠細線
  6
CONTINUOUS
 62
   252
100
AcDbLine
 10
59.768253864267
 20
34.525431224584
 30
0.0
 11
59.768253864267
 21
19.525431224584
 31
0.0
  0
LINE
  5
2A13
330
29F4
100
AcDbEntity
  8
図枠細線
  6
CONTINUOUS
 62
   252
100
AcDbLine
 10
59.768253864267
 20
4.525433224584
 30
0.0
 11
59.768253864267
 21
19.525431224584
 31
0.0
  0
LINE
  5
2A14
330
29F4
100
AcDbEntity
  8
図枠太線
  6
CONTINUOUS
 62
   251
100
AcDbLine
 10
78.368253864267
 20
4.525433224584
 30
0.0
 11
78.368253864267
 21
34.525431224584
 31
0.0
  0
TEXT
  5
2A15
330
29F4
100
AcDbEntity
  8
図枠細線
  6
CONTINUOUS
 62
   252
100
AcDbText
 10
66.334891743877
 20
17.025433224584
 30
0.0
 40
2.0
  1
ＤＡＴＥ
 41
0.923076923077
  7
EXCADSTD
 72
     5
 11
74.334891743877
 21
17.025433224584
 31
0.0
100
AcDbText
  0
LINE
  5
2A16
330
29F4
100
AcDbEntity
  8
図枠細線
  6
CONTINUOUS
 62
   252
100
AcDbLine
 10
135.368253864267
 20
19.525431224584
 30
0.0
 11
192.368245864267
 21
19.525431224584
 31
0.0
  0
TEXT
  5
2A17
330
29F4
100
AcDbEntity
  8
図枠細線
  6
CONTINUOUS
 62
   252
100
AcDbText
 10
141.868253864267
 20
32.025433224584
 30
0.0
 40
2.0
  1
ＴＩＴＬＥ
 41
0.903614457831
  7
EXCADSTD
 72
     5
 11
151.868253864267
 21
32.025433224584
 31
0.0
100
AcDbText
  0
LINE
  5
2A18
330
29F4
100
AcDbEntity
  8
図枠太線
  6
CONTINUOUS
 62
   251
100
AcDbLine
 10
135.368253864267
 20
4.525433224584
 30
0.0
 11
135.368253864267
 21
34.525431224584
 31
0.0
  0
TEXT
  5
2A19
330
29F4
100
AcDbEntity
  8
図枠細線
  6
CONTINUOUS
 62
   252
100
AcDbText
 10
135.868253864267
 20
17.025433224584
 30
0.0
 40
2.0
  1
図面番号
 41
1.102941176471
  7
EXCADSTD
 72
     5
 11
145.868253864267
 21
17.025433224584
 31
0.0
100
AcDbText
  0
TEXT
  5
2A1A
330
29F4
100
AcDbEntity
  8
図枠細線
  6
CONTINUOUS
 62
   252
100
AcDbText
 10
135.868253864267
 20
32.025433224584
 30
0.0
 40
2.0
  1
名称
 41
1.171875
  7
EXCADSTD
 72
     5
 11
140.868253864267
 21
32.025433224584
 31
0.0
100
AcDbText
  0
TEXT
  5
2A1B
330
29F4
100
AcDbEntity
  8
図枠細線
  6
CONTINUOUS
 62
   252
100
AcDbText
 10
146.868253864267
 20
17.025433224584
 30
0.0
 40
2.0
  1
ＤＲＧ．ＮＯ．
 41
0.9375
  7
EXCADSTD
 72
     5
 11
160.868253864267
 21
17.025433224584
 31
0.0
100
AcDbText
  0
LINE
  5
2A1C
330
29F4
100
AcDbEntity
  8
図枠太線
  6
CONTINUOUS
 62
   251
100
AcDbLine
 10
192.368245864267
 20
4.525433224584
 30
0.0
 11
192.368245864267
 21
34.525431224584
 31
0.0
  0
ENDBLK
  5
2A1D
330
29F4
100
AcDbEntity
  8
0
100
AcDbBlockEnd
  0
BLOCK
  5
2A33
330
2A32
100
AcDbEntity
  8
0
100
AcDbBlockBegin
  2
A3横用_タイトル
 70
     0
 10
0.0
 20
0.0
 30
0.0
  3
A3横用_タイトル
  1

  0
LINE
  5
2A34
330
2A32
100
AcDbEntity
  8
図枠細線
  6
CONTINUOUS
 62
   252
100
AcDbLine
 10
205.098414535793
 20
33.525959753527
 30
0.0
 11
305.098414535793
 21
33.525959753527
 31
0.0
  0
LINE
  5
2A35
330
2A32
100
AcDbEntity
  8
図枠太線
  6
CONTINUOUS
 62
   251
100
AcDbLine
 10
205.098414535793
 20
23.525959753527
 30
0.0
 11
305.098414535793
 21
23.525959753527
 31
0.0
  0
LINE
  5
2A36
330
2A32
100
AcDbEntity
  8
図枠細線
  6
CONTINUOUS
100
AcDbLine
 10
5.098414535793
 20
23.525959753527
 30
0.0
 11
105.098414535793
 21
23.525959753527
 31
0.0
  0
LINE
  5
2A37
330
2A32
100
AcDbEntity
  8
図枠細線
  6
CONTINUOUS
 62
   252
100
AcDbLine
 10
5.098414535793
 20
36.725957753527
 30
0.0
 11
105.098414535793
 21
36.725957753527
 31
0.0
  0
LINE
  5
2A38
330
2A32
100
AcDbEntity
  8
図枠細線
  6
CONTINUOUS
 62
   252
100
AcDbLine
 10
5.098414535793
 20
30.125957753527
 30
0.0
 11
105.098414535793
 21
30.125957753527
 31
0.0
  0
LINE
  5
2A39
330
2A32
100
AcDbEntity
  8
図枠細線
  6
CONTINUOUS
 62
   252
100
AcDbLine
 10
5.098414535793
 20
16.725959753527
 30
0.0
 11
105.098414535793
 21
16.725959753527
 31
0.0
  0
LINE
  5
2A3A
330
2A32
100
AcDbEntity
  8
図枠細線
  6
CONTINUOUS
 62
   252
100
AcDbLine
 10
5.098414535793
 20
10.125959753527
 30
0.0
 11
105.098414535793
 21
10.125959753527
 31
0.0
  0
LINE
  5
2A3B
330
2A32
100
AcDbEntity
  8
図枠細線
  6
CONTINUOUS
100
AcDbLine
 10
105.098414535793
 20
23.525961753527
 30
0.0
 11
205.098414535793
 21
23.525959753527
 31
0.0
  0
LINE
  5
2A3C
330
2A32
100
AcDbEntity
  8
図枠細線
  6
CONTINUOUS
 62
   252
100
AcDbLine
 10
138.398414535793
 20
43.525959753527
 30
0.0
 11
138.398414535793
 21
18.525957753527
 31
0.0
  0
LINE
  5
2A3D
330
2A32
100
AcDbEntity
  8
図枠細線
  6
CONTINUOUS
 62
   252
100
AcDbLine
 10
171.698414535793
 20
43.525959753527
 30
0.0
 11
171.698414535793
 21
18.525957753527
 31
0.0
  0
LINE
  5
2A3E
330
2A32
100
AcDbEntity
  8
図枠細線
  6
CONTINUOUS
 62
   252
100
AcDbLine
 10
305.098414535793
 20
23.525959753527
 30
0.0
 11
405.098414535793
 21
23.525959753527
 31
0.0
  0
TEXT
  5
2A3F
330
2A32
100
AcDbEntity
  8
図枠ロゴマーク
  6
CONTINUOUS
 62
   253
100
AcDbText
 10
206.102509212755
 20
13.294257570546
 30
0.0
 40
7.0
  1
東和制電工業株式会社
 50
0.016555220185
 41
1.186384129432
  7
EXCADSTD
 72
     5
 11
303.544188309143
 21
13.322412672217
 31
0.0
100
AcDbText
  0
MTEXT
  5
2A40
330
2A32
100
AcDbEntity
  8
図枠細線
100
AcDbMText
 10
6.356764112375
 20
41.976594175478
 30
0.0
 40
2.5
 41
49.938282706292
 71
     1
 72
     5
  1
{\Fmonotxt.shx,bigfont.shx|c128;図暦　CHANGE　NOTICE}
  0
MTEXT
  5
2A41
330
2A32
100
AcDbEntity
  8
図枠細線
 48
10.0
100
AcDbMText
 10
306.544114926828
 20
41.701835800934
 30
0.0
 40
2.5
 41
28.002809618823
 71
     1
 72
     5
  1
{\Fmonotxt.shx,bigfont.shx|c128;名称　TITLE}
  0
MTEXT
  5
2A42
330
2A32
100
AcDbEntity
  8
図枠細線
 48
10.0
100
AcDbMText
 10
307.329617114284
 20
21.606206797226
 30
0.0
 40
2.5
 41
24.385612216707
 71
     1
 72
     5
  1
{\Fmonotxt.shx,bigfont.shx|c128;図面番号\PDRG.　No.}
  0
MTEXT
  5
2A43
330
2A32
100
AcDbEntity
  8
図枠細線
 48
10.0
100
AcDbMText
 10
173.726349404609
 20
21.73680662198
 30
0.0
 40
2.5
 41
25.735090160813
 71
     1
 72
     5
  1
{\Fmonotxt.shx,bigfont.shx|c128;日付 DATE}
  0
MTEXT
  5
2A44
330
2A32
100
AcDbEntity
  8
図枠細線
 48
10.0
100
AcDbMText
 10
173.48708833982
 20
41.621592044998
 30
0.0
 40
2.5
 41
24.983741184205
 71
     1
 72
     5
  1
{\Fmonotxt.shx,bigfont.shx|c128;製図　DRAWN}
  0
MTEXT
  5
2A45
330
2A32
100
AcDbEntity
  8
図枠細線
 48
10.0
100
AcDbMText
 10
139.28009927741
 20
21.866713069868
 30
0.0
 40
2.5
 41
22.629632913243
 71
     1
 72
     5
  1
{\Fmonotxt.shx,bigfont.shx|c128;尺度　SCALE}
  0
MTEXT
  5
2A46
330
2A32
100
AcDbEntity
  8
図枠細線
 48
10.0
100
AcDbMText
 10
139.910091179835
 20
41.311840415554
 30
0.0
 40
2.5
 41
28.998753428368
 71
     1
 72
     5
  1
{\Fmonotxt.shx,bigfont.shx|c128;検図  CHECKED}
  0
MTEXT
  5
2A47
330
2A32
100
AcDbEntity
  8
図枠細線
 48
10.0
100
AcDbMText
 10
114.253294667728
 20
21.916124850174
 30
0.0
 40
3.0
 41
19.692400475383
 71
     1
 72
     5
  1
{\Fmonotxt.shx,bigfont.shx|c128;第三角法}
  0
MTEXT
  5
2A48
330
2A32
100
AcDbEntity
  8
図枠細線
 48
10.0
100
AcDbMText
 10
108.986959929915
 20
15.282880185837
 30
0.0
 40
2.5
 41
27.954882823547
 71
     1
 72
     5
  1
{\Fmonotxt.shx,bigfont.shx|c128;THIRD ANGLE\PPROJECTION}
  0
MTEXT
  5
2A49
330
2A32
100
AcDbEntity
  8
図枠細線
 48
10.0
100
AcDbMText
 10
106.319432640184
 20
41.511437145487
 30
0.0
 40
2.5
 41
28.233595265074
 71
     1
 72
     5
  1
{\Fmonotxt.shx,bigfont.shx|c128;承認 APPROVED}
  0
LINE
  5
2A4A
330
2A32
100
AcDbEntity
  8
図枠太線
  6
CONTINUOUS
 62
   251
100
AcDbLine
 10
5.098414535793
 20
3.525959753527
 30
0.0
 11
405.098414535793
 21
3.525959753527
 31
0.0
  0
LINE
  5
2A4B
330
2A32
100
AcDbEntity
  8
図枠太線
 48
10.0
100
AcDbLine
 10
5.098414535793
 20
3.525959753527
 30
0.0
 11
5.098414535793
 21
43.525959753527
 31
0.0
  0
LINE
  5
2A4C
330
2A32
100
AcDbEntity
  8
図枠太線
  6
CONTINUOUS
 62
   251
100
AcDbLine
 10
105.098414535793
 20
3.525959753527
 30
0.0
 11
105.098414535793
 21
43.525959753527
 31
0.0
  0
LINE
  5
2A4D
330
2A32
100
AcDbEntity
  8
図枠細線
  6
CONTINUOUS
 62
   252
100
AcDbLine
 10
138.398414535793
 20
3.525959753527
 30
0.0
 11
138.398414535793
 21
18.525957753527
 31
0.0
  0
LINE
  5
2A4E
330
2A32
100
AcDbEntity
  8
図枠細線
  6
CONTINUOUS
 62
   252
100
AcDbLine
 10
171.698414535793
 20
3.525959753527
 30
0.0
 11
171.698414535793
 21
18.525957753527
 31
0.0
  0
LINE
  5
2A4F
330
2A32
100
AcDbEntity
  8
図枠太線
  6
CONTINUOUS
 62
   251
100
AcDbLine
 10
205.098414535793
 20
3.525959753527
 30
0.0
 11
205.098414535793
 21
43.525959753527
 31
0.0
  0
LINE
  5
2A50
330
2A32
100
AcDbEntity
  8
図枠太線
 48
10.0
100
AcDbLine
 10
405.098414535793
 20
43.525959753527
 30
0.0
 11
405.098414535793
 21
3.525959753527
 31
0.0
  0
TEXT
  5
2A51
330
2A32
100
AcDbEntity
  8
図枠細線
  6
CONTINUOUS
 62
   252
100
AcDbText
 10
208.519754474572
 20
6.482358407285
 30
0.0
 40
3.5
  1
ＴＯＷＡ　ＳＥＩＤＥＮ　ＩＮＤＵＳＴＲＩＡＬ　ＣＯ．，ＬＴＤ．
 41
0.746656297509
  7
EXCADSTD
 72
     5
 11
303.295327171727
 21
6.482358407285
 31
0.0
100
AcDbText
  0
LINE
  5
2A52
330
2A32
100
AcDbEntity
  8
図枠太線
  6
CONTINUOUS
 62
   251
100
AcDbLine
 10
305.098414535793
 20
3.525959753527
 30
0.0
 11
305.098414535793
 21
43.525959753527
 31
0.0
  0
ENDBLK
  5
2A53
330
2A32
100
AcDbEntity
  8
0
100
AcDbBlockEnd
  0
BLOCK
  5
2A6D
330
2A6C
100
AcDbEntity
  8
0
100
AcDbBlockBegin
  2
A3縦用_タイトル
 70
     0
 10
0.0
 20
0.0
 30
0.0
  3
A3縦用_タイトル
  1

  0
MTEXT
  5
2A6E
330
2A6C
100
AcDbEntity
  8
図枠細線
100
AcDbMText
 10
5.040804501593
 20
31.626098649005
 30
0.0
 40
2.5
 41
49.938282706292
 71
     1
 72
     5
  1
{\Fmonotxt.shx,bigfont.shx|c128;図暦　CHANGE　NOTICE}
  0
LINE
  5
2A6F
330
2A6C
100
AcDbEntity
  8
図枠太線
  6
CONTINUOUS
 62
   251
100
AcDbLine
 10
283.577871882961
 20
2.820844689254
 30
0.0
 11
283.577871882961
 21
32.820842689254
 31
0.0
  0
MTEXT
  5
2A70
330
2A6C
100
AcDbEntity
  8
図枠細線
 48
10.0
100
AcDbMText
 10
214.912458947454
 20
31.621488632308
 30
0.0
 40
2.5
 41
28.002809618823
 71
     1
 72
     5
  1
{\Fmonotxt.shx,bigfont.shx|c128;名称　TITLE}
  0
MTEXT
  5
2A71
330
2A6C
100
AcDbEntity
  8
図枠細線
 48
10.0
100
AcDbMText
 10
214.740030458938
 20
16.310225796722
 30
0.0
 40
2.5
 41
24.385612216707
 71
     1
 72
     5
  1
{\Fmonotxt.shx,bigfont.shx|c128;図面番号\PDRG.　No.}
  0
LINE
  5
2A72
330
2A6C
100
AcDbEntity
  8
図枠太線
  6
CONTINUOUS
 62
   251
100
AcDbLine
 10
213.577871882961
 20
2.820844689254
 30
0.0
 11
213.577871882961
 21
32.820842689254
 31
0.0
  0
LINE
  5
2A73
330
2A6C
100
AcDbEntity
  8
図枠太線
  6
CONTINUOUS
 62
   251
100
AcDbLine
 10
143.577871882961
 20
2.820844689254
 30
0.0
 11
143.577871882961
 21
32.820842689254
 31
0.0
  0
TEXT
  5
2A74
330
2A6C
100
AcDbEntity
  8
図枠細線
  6
CONTINUOUS
 62
   252
100
AcDbText
 10
145.716454488093
 20
4.468335689254
 30
0.0
 40
3.5
  1
ＴＯＷＡ　ＳＥＩＤＥＮ　ＩＮＤＵＳＴＲＩＡＬ　ＣＯ．，ＬＴＤ．
 41
0.528937826907
  7
EXCADSTD
 72
     5
 11
212.856295983498
 21
4.468335689254
 31
0.0
100
AcDbText
  0
TEXT
  5
2A75
330
2A6C
100
AcDbEntity
  8
図枠ロゴマーク
  6
CONTINUOUS
 62
   253
100
AcDbText
 10
145.950637593507
 20
9.413236689254
 30
0.0
 40
7.0
  1
東和制電工業株式会社
 41
0.80361088462
  7
EXCADSTD
 72
     5
 11
211.953878250259
 21
9.413236689254
 31
0.0
100
AcDbText
  0
LINE
  5
2A76
330
2A6C
100
AcDbEntity
  8
図枠細線
  6
CONTINUOUS
 62
   252
100
AcDbLine
 10
143.577871882961
 20
25.320842689254
 30
0.0
 11
213.577871882961
 21
25.320842689254
 31
0.0
  0
LINE
  5
2A77
330
2A6C
100
AcDbEntity
  8
図枠太線
  6
CONTINUOUS
 62
   251
100
AcDbLine
 10
143.577863882961
 20
17.820842689254
 30
0.0
 11
213.577871882961
 21
17.820842689254
 31
0.0
  0
LINE
  5
2A78
330
2A6C
100
AcDbEntity
  8
図枠細線
  6
CONTINUOUS
 62
   252
100
AcDbLine
 10
213.577871882961
 20
17.820842689254
 30
0.0
 11
283.577871882961
 21
17.820842689254
 31
0.0
  0
LINE
  5
2A79
330
2A6C
100
AcDbEntity
  8
図枠細線
  6
CONTINUOUS
 62
   252
100
AcDbLine
 10
120.577871882961
 20
32.820842689254
 30
0.0
 11
120.577871882961
 21
17.820842689254
 31
0.0
  0
MTEXT
  5
2A7A
330
2A6C
100
AcDbEntity
  8
図枠細線
 48
10.0
100
AcDbMText
 10
121.100885670352
 20
16.33785922638
 30
0.0
 40
2.0
 41
17.705978285068
 71
     1
 72
     5
  1
{\Fmonotxt.shx,bigfont.shx|c128;日付 DATE}
  0
MTEXT
  5
2A7B
330
2A6C
100
AcDbEntity
  8
図枠細線
 48
10.0
100
AcDbMText
 10
121.254842273491
 20
31.208993514037
 30
0.0
 40
2.0
 41
18.363799568758
 71
     1
 72
     5
  1
{\Fmonotxt.shx,bigfont.shx|c128;製図　DRAWN}
  0
LINE
  5
2A7C
330
2A6C
100
AcDbEntity
  8
図枠細線
  6
CONTINUOUS
 62
   252
100
AcDbLine
 10
97.577871882961
 20
32.820842689254
 30
0.0
 11
97.577871882961
 21
17.820842689254
 31
0.0
  0
MTEXT
  5
2A7D
330
2A6C
100
AcDbEntity
  8
図枠細線
 48
10.0
100
AcDbMText
 10
98.239734796872
 20
16.467764839281
 30
0.0
 40
2.0
 41
17.757791689903
 71
     1
 72
     5
  1
{\Fmonotxt.shx,bigfont.shx|c128;尺度　SCALE}
  0
MTEXT
  5
2A7E
330
2A6C
100
AcDbEntity
  8
図枠細線
 48
10.0
100
AcDbMText
 10
97.864744625154
 20
31.298433377664
 30
0.0
 40
2.0
 41
23.162655920976
 71
     1
 72
     5
  1
{\Fmonotxt.shx,bigfont.shx|c128;検図  CHECKED}
  0
LINE
  5
2A7F
330
2A6C
100
AcDbEntity
  8
図枠細線
  6
CONTINUOUS
 62
   252
100
AcDbLine
 10
97.577871882961
 20
2.820843367826
 30
0.0
 11
97.577871882961
 21
17.820841367826
 31
0.0
  0
LINE
  5
2A80
330
2A6C
100
AcDbEntity
  8
図枠細線
  6
CONTINUOUS
 62
   252
100
AcDbLine
 10
120.577871882961
 20
2.820844010683
 30
0.0
 11
120.577871882961
 21
17.820842010683
 31
0.0
  0
MTEXT
  5
2A81
330
2A6C
100
AcDbEntity
  8
図枠細線
 48
10.0
100
AcDbMText
 10
81.402399084102
 20
16.316484117426
 30
0.0
 40
2.0
 41
12.920322819369
 71
     1
 72
     5
  1
{\Fmonotxt.shx,bigfont.shx|c128;第三角法}
  0
MTEXT
  5
2A82
330
2A6C
100
AcDbEntity
  8
図枠細線
 48
10.0
100
AcDbMText
 10
75.736576535096
 20
11.080410931319
 30
0.0
 40
2.0
 41
21.072870671471
 71
     1
 72
     5
  1
{\Fmonotxt.shx,bigfont.shx|c128;THIRD ANGLE\PPROJECTION}
  0
LINE
  5
2A83
330
2A6C
100
AcDbEntity
  8
図枠太線
  6
CONTINUOUS
 62
   251
100
AcDbLine
 10
74.577871882961
 20
2.820844689254
 30
0.0
 11
74.577871882961
 21
32.820842689254
 31
0.0
  0
MTEXT
  5
2A84
330
2A6C
100
AcDbEntity
  8
図枠細線
 48
10.0
100
AcDbMText
 10
75.060214781573
 20
31.298434778555
 30
0.0
 40
2.0
 41
22.240928805967
 71
     1
 72
     5
  1
{\Fmonotxt.shx,bigfont.shx|c128;承認 APPROVED}
  0
LINE
  5
2A85
330
2A6C
100
AcDbEntity
  8
図枠細線
  6
CONTINUOUS
100
AcDbLine
 10
3.577871882961
 20
17.820844689254
 30
0.0
 11
74.577871882961
 21
17.820844689254
 31
0.0
  0
LINE
  5
2A86
330
2A6C
100
AcDbEntity
  8
図枠細線
  6
CONTINUOUS
 62
   252
100
AcDbLine
 10
3.577871882961
 20
27.820842689254
 30
0.0
 11
74.577871882961
 21
27.820842689254
 31
0.0
  0
LINE
  5
2A87
330
2A6C
100
AcDbEntity
  8
図枠細線
  6
CONTINUOUS
 62
   252
100
AcDbLine
 10
3.577871882961
 20
22.820842689254
 30
0.0
 11
74.577871882961
 21
22.820842689254
 31
0.0
  0
LINE
  5
2A88
330
2A6C
100
AcDbEntity
  8
図枠細線
  6
CONTINUOUS
 62
   252
100
AcDbLine
 10
3.577871882961
 20
12.820842689254
 30
0.0
 11
74.577871882961
 21
12.820842689254
 31
0.0
  0
LINE
  5
2A89
330
2A6C
100
AcDbEntity
  8
図枠細線
  6
CONTINUOUS
 62
   252
100
AcDbLine
 10
3.577871882961
 20
7.820844689254
 30
0.0
 11
74.577871882961
 21
7.820844689254
 31
0.0
  0
LINE
  5
2A8A
330
2A6C
100
AcDbEntity
  8
図枠細線
  6
CONTINUOUS
100
AcDbLine
 10
74.577871882961
 20
17.820843689254
 30
0.0
 11
143.577871882961
 21
17.820841224969
 31
0.0
  0
LINE
  5
2A8B
330
2A6C
100
AcDbEntity
  8
図枠太線
  6
CONTINUOUS
 62
   251
100
AcDbLine
 10
3.577871882961
 20
2.820844689254
 30
0.0
 11
283.577871882961
 21
2.820844689254
 31
0.0
  0
LINE
  5
2A8C
330
2A6C
100
AcDbEntity
  8
図枠太線
  6
CONTINUOUS
 62
   251
100
AcDbLine
 10
3.577871882961
 20
2.820844689254
 30
0.0
 11
3.577871882961
 21
32.820842689254
 31
0.0
  0
ENDBLK
  5
2A8D
330
2A6C
100
AcDbEntity
  8
0
100
AcDbBlockEnd
  0
BLOCK
  5
2AF8
330
2AF4
100
AcDbEntity
  8
0
 48
10.0
100
AcDbBlockBegin
  2
_OPEN30
 70
     0
 10
0.0
 20
0.0
 30
0.0
  3
_OPEN30
  1

  0
LINE
  5
2AF5
330
2AF4
100
AcDbEntity
  8
0
  6
BYBLOCK
 62
     0
100
AcDbLine
 10
-1.0
 20
0.26794919
 30
0.0
 11
0.0
 21
0.0
 31
0.0
  0
LINE
  5
2AF6
330
2AF4
100
AcDbEntity
  8
0
  6
BYBLOCK
 62
     0
100
AcDbLine
 10
0.0
 20
0.0
 30
0.0
 11
-1.0
 21
-0.26794919
 31
0.0
  0
LINE
  5
2AF7
330
2AF4
100
AcDbEntity
  8
0
  6
BYBLOCK
 62
     0
100
AcDbLine
 10
0.0
 20
0.0
 30
0.0
 11
-1.0
 21
0.0
 31
0.0
  0
ENDBLK
  5
2AF9
330
2AF4
100
AcDbEntity
  8
0
 48
10.0
100
AcDbBlockEnd
  0
BLOCK
  5
4189
330
417D
100
AcDbEntity
  8
0
 48
10.0
100
AcDbBlockBegin
  2
*D10
 70
     1
 10
0.0
 20
0.0
 30
0.0
  3
*D10
  1

  0
LINE
  5
4717
330
417D
100
AcDbEntity
  8
寸法線
 62
     0
 48
10.0
100
AcDbLine
 10
308.638468256273
 20
380.461376184522
 30
0.0
 11
314.638468256273
 21
380.461376184522
 31
0.0
  0
LINE
  5
4718
330
417D
100
AcDbEntity
  8
寸法線
 62
     0
 48
10.0
100
AcDbLine
 10
293.638468256273
 20
380.461376184522
 30
0.0
 11
282.857097406375
 21
380.461376184522
 31
0.0
  0
LINE
  5
4719
330
417D
100
AcDbEntity
  8
寸法線
 62
     0
 48
10.0
100
AcDbLine
 10
302.638468256273
 20
380.461376184522
 30
0.0
 11
299.638468256273
 21
380.461376184522
 31
0.0
  0
INSERT
  5
471A
330
417D
100
AcDbEntity
  8
寸法線
 62
     0
 48
10.0
100
AcDbBlockReference
  2
_OPEN30
 10
302.638468256273
 20
380.461376184522
 30
0.0
 41
6.0
 42
6.0
 43
6.0
 50
180.0
  0
INSERT
  5
471B
330
417D
100
AcDbEntity
  8
寸法線
 62
     0
 48
10.0
100
AcDbBlockReference
  2
_OPEN30
 10
299.638468256273
 20
380.461376184522
 30
0.0
 41
6.0
 42
6.0
 43
6.0
  0
MTEXT
  5
471C
330
417D
100
AcDbEntity
  8
寸法線
 62
     0
 48
10.0
100
AcDbMText
 10
285.247782831324
 20
385.086376184522
 30
0.0
 40
8.0
 41
0.0
 71
     5
 72
     1
  1
\A1;3
  0
POINT
  5
471D
330
417D
100
AcDbEntity
  8
DEFPOINTS
 62
     0
 48
10.0
100
AcDbPoint
 10
299.638468256273
 20
357.5
 30
0.0
  0
POINT
  5
471E
330
417D
100
AcDbEntity
  8
DEFPOINTS
 62
     0
 48
10.0
100
AcDbPoint
 10
302.638468256273
 20
357.5
 30
0.0
  0
POINT
  5
471F
330
417D
100
AcDbEntity
  8
DEFPOINTS
 62
     0
 48
10.0
100
AcDbPoint
 10
302.638468256273
 20
380.461376184522
 30
0.0
  0
ENDBLK
  5
418A
330
417D
100
AcDbEntity
  8
0
 48
10.0
100
AcDbBlockEnd
  0
BLOCK
  5
41BF
330
41B5
100
AcDbEntity
  8
0
 48
10.0
100
AcDbBlockBegin
  2
*D11
 70
     1
 10
0.0
 20
0.0
 30
0.0
  3
*D11
  1

  0
LINE
  5
4729
330
41B5
100
AcDbEntity
  8
寸法線
 62
     0
 48
10.0
100
AcDbLine
 10
299.013468256273
 20
472.5
 30
0.0
 11
278.75
 21
472.5
 31
0.0
  0
LINE
  5
472A
330
41B5
100
AcDbEntity
  8
寸法線
 62
     0
 48
10.0
100
AcDbLine
 10
299.013468256273
 20
357.5
 30
0.0
 11
278.75
 21
357.5
 31
0.0
  0
LINE
  5
472B
330
41B5
100
AcDbEntity
  8
寸法線
 62
     0
 48
10.0
100
AcDbLine
 10
280.0
 20
466.5
 30
0.0
 11
280.0
 21
363.5
 31
0.0
  0
INSERT
  5
472C
330
41B5
100
AcDbEntity
  8
寸法線
 62
     0
 48
10.0
100
AcDbBlockReference
  2
_OPEN30
 10
280.0
 20
472.5
 30
0.0
 41
6.0
 42
6.0
 43
6.0
 50
90.0
  0
INSERT
  5
472D
330
41B5
100
AcDbEntity
  8
寸法線
 62
     0
 48
10.0
100
AcDbBlockReference
  2
_OPEN30
 10
280.0
 20
357.5
 30
0.0
 41
6.0
 42
6.0
 43
6.0
 50
270.0
  0
MTEXT
  5
472E
330
41B5
100
AcDbEntity
  8
寸法線
 62
     0
 48
10.0
100
AcDbMText
 10
275.375
 20
440.0
 30
0.0
 40
8.0
 41
0.0
 71
     5
 72
     1
  1
\A1;φ115
 11
6.123031769111886E-17
 21
1.0
 31
0.0
  0
POINT
  5
472F
330
41B5
100
AcDbEntity
  8
DEFPOINTS
 62
     0
 48
10.0
100
AcDbPoint
 10
299.638468256273
 20
472.5
 30
0.0
  0
POINT
  5
4730
330
41B5
100
AcDbEntity
  8
DEFPOINTS
 62
     0
 48
10.0
100
AcDbPoint
 10
299.638468256273
 20
357.5
 30
0.0
  0
POINT
  5
4731
330
41B5
100
AcDbEntity
  8
DEFPOINTS
 62
     0
 48
10.0
100
AcDbPoint
 10
280.0
 20
357.5
 30
0.0
  0
ENDBLK
  5
41C0
330
41B5
100
AcDbEntity
  8
0
 48
10.0
100
AcDbBlockEnd
  0
BLOCK
  5
4214
330
4212
100
AcDbEntity
  8
0
 48
10.0
100
AcDbBlockBegin
  2
_DOTSMALL
 70
     0
 10
0.0
 20
0.0
 30
0.0
  3
_DOTSMALL
  1

  0
LWPOLYLINE
  5
4213
330
4212
100
AcDbEntity
  8
0
  6
BYBLOCK
 62
     0
100
AcDbPolyline
 90
        2
 70
     1
 43
0.5
 10
-0.0625
 20
0.0
 42
1.0
 10
0.0625
 20
0.0
 42
1.0
  0
ENDBLK
  5
4215
330
4212
100
AcDbEntity
  8
0
 48
10.0
100
AcDbBlockEnd
  0
BLOCK
  5
4219
330
4216
100
AcDbEntity
  8
0
 48
10.0
100
AcDbBlockBegin
  2
_DOT
 70
     0
 10
0.0
 20
0.0
 30
0.0
  3
_DOT
  1

  0
LWPOLYLINE
  5
4217
330
4216
100
AcDbEntity
  8
0
  6
BYBLOCK
 62
     0
100
AcDbPolyline
 90
        2
 70
     1
 43
0.5
 10
-0.25
 20
0.0
 42
1.0
 10
0.25
 20
0.0
 42
1.0
  0
LINE
  5
4218
330
4216
100
AcDbEntity
  8
0
  6
BYBLOCK
 62
     0
100
AcDbLine
 10
-0.5
 20
0.0
 30
0.0
 11
-1.0
 21
0.0
 31
0.0
  0
ENDBLK
  5
421A
330
4216
100
AcDbEntity
  8
0
 48
10.0
100
AcDbBlockEnd
  0
BLOCK
  5
4502
330
4501
100
AcDbEntity
  8
0
 48
10.0
100
AcDbBlockBegin
  2
静電容量センサ
 70
     0
 10
0.0
 20
0.0
 30
0.0
  3
静電容量センサ
  1

  0
ARC
  5
4503
330
4501
100
AcDbEntity
  8
外形線
 48
10.0
100
AcDbCircle
 10
1021.898525663106
 20
1073.412780408912
 30
0.0
 40
1.0
100
AcDbArc
 50
180.0
 51
268.999999999998
  0
ARC
  5
4504
330
4501
100
AcDbEntity
  8
外形線
 48
10.0
100
AcDbCircle
 10
1021.898525663106
 20
1115.960781516243
 30
0.0
 40
1.0
100
AcDbArc
 50
91.000000000002
 51
180.0
  0
LINE
  5
4505
330
4501
100
AcDbEntity
  8
外形線
 48
10.0
100
AcDbLine
 10
1020.898525663106
 20
1115.960781516243
 30
0.0
 11
1020.898525663106
 21
1073.412780408912
 31
0.0
  0
LINE
  5
4506
330
4501
100
AcDbEntity
  8
外形線
 48
10.0
100
AcDbLine
 10
1035.026308504175
 20
1117.944859066978
 30
0.0
 11
1041.278741748243
 21
1143.02199911049
 31
0.0
  0
ARC
  5
4507
330
4501
100
AcDbEntity
  8
外形線
 48
10.0
100
AcDbCircle
 10
1046.130220379623
 20
1141.812389632491
 30
0.0
 40
5.0
100
AcDbArc
 50
91.3
 51
166.000000000004
  0
ARC
  5
4508
330
4501
100
AcDbEntity
  8
外形線
 48
10.0
100
AcDbCircle
 10
1034.056012777899
 20
1118.186780962578
 30
0.0
 40
1.0
100
AcDbArc
 50
270.0
 51
346.000000000004
  0
ARC
  5
4509
330
4501
100
AcDbEntity
  8
外形線
 48
10.0
100
AcDbCircle
 10
1034.056012777899
 20
1118.186780962578
 30
0.0
 40
1.0
100
AcDbArc
 50
270.0
 51
346.000000000004
  0
LINE
  5
450A
330
4501
100
AcDbEntity
  8
外形線
 48
10.0
100
AcDbLine
 10
1021.881073256669
 20
1116.960629211399
 30
0.0
 11
1034.056012777899
 21
1117.186780962578
 31
0.0
  0
ARC
  5
450B
330
4501
100
AcDbEntity
  8
外形線
 48
10.0
100
AcDbCircle
 10
1122.899564892808
 20
1151.93622955513
 30
0.0
 40
0.5
100
AcDbArc
 50
359.999254274584
 51
88.999999999998
  0
ARC
  5
450C
330
4501
100
AcDbEntity
  8
細線
 48
10.0
100
AcDbCircle
 10
1123.898525663106
 20
1107.819822714047
 30
0.0
 40
0.5
100
AcDbArc
 50
180.0
 51
264.089361084595
  0
ARC
  5
450D
330
4501
100
AcDbEntity
  8
外形線
 48
10.0
100
AcDbCircle
 10
1123.898525663106
 20
1100.44543233102
 30
0.0
 40
0.5
100
AcDbArc
 50
91.000000000002
 51
180.0
  0
ARC
  5
450E
330
4501
100
AcDbEntity
  8
細線
 48
10.0
100
AcDbCircle
 10
1123.898525663106
 20
1108.078641759149
 30
0.0
 40
0.5
100
AcDbArc
 50
180.0
 51
264.089361084595
  0
ARC
  5
450F
330
4501
100
AcDbEntity
  8
細線
 48
10.0
100
AcDbCircle
 10
1123.898525663106
 20
1129.71320712675
 30
0.0
 40
0.5
100
AcDbArc
 50
180.0
 51
254.206830951738
  0
ARC
  5
4510
330
4501
100
AcDbEntity
  8
細線
 48
10.0
100
AcDbCircle
 10
1123.898525663106
 20
1130.420313907937
 30
0.0
 40
0.5
100
AcDbArc
 50
180.0
 51
254.206830951738
  0
ARC
  5
4511
330
4501
100
AcDbEntity
  8
細線
 48
10.0
100
AcDbCircle
 10
1123.898525663106
 20
1142.359984147006
 30
0.0
 40
0.5
100
AcDbArc
 50
180.0
 51
248.874947125989
  0
ARC
  5
4512
330
4501
100
AcDbEntity
  8
細線
 48
10.0
100
AcDbCircle
 10
1123.898525663106
 20
1143.325909973296
 30
0.0
 40
0.5
100
AcDbArc
 50
180.0
 51
248.874947125989
  0
ARC
  5
4513
330
4501
100
AcDbEntity
  8
外形線
 48
10.0
100
AcDbCircle
 10
1123.898413585187
 20
1144.632076415673
 30
0.0
 40
0.5
100
AcDbArc
 50
180.019033969455
 51
248.025023881972
  0
LINE
  5
4514
330
4501
100
AcDbEntity
  8
外形線
 48
10.0
100
AcDbLine
 10
1123.398525663106
 20
1143.325909973296
 30
0.0
 11
1123.398525663106
 21
1144.294618045039
 31
0.0
  0
LINE
  5
4515
330
4501
100
AcDbEntity
  8
外形線
 48
10.0
100
AcDbLine
 10
1123.398525663106
 20
1142.359984147006
 30
0.0
 11
1123.398525663106
 21
1142.98307227703
 31
0.0
  0
LINE
  5
4516
330
4501
100
AcDbEntity
  8
外形線
 48
10.0
100
AcDbLine
 10
1123.398525663106
 20
1130.420313907937
 30
0.0
 11
1123.398525663106
 21
1142.017146450741
 31
0.0
  0
LINE
  5
4517
330
4501
100
AcDbEntity
  8
外形線
 48
10.0
100
AcDbLine
 10
1123.398525663106
 20
1129.71320712675
 30
0.0
 11
1123.398525663106
 21
1130.042120021904
 31
0.0
  0
LINE
  5
4518
330
4501
100
AcDbEntity
  8
外形線
 48
10.0
100
AcDbLine
 10
1123.398525663106
 20
1108.078641759149
 30
0.0
 11
1123.398525663106
 21
1130.420313907937
 31
0.0
  0
LINE
  5
4519
330
4501
100
AcDbEntity
  8
外形線
 48
10.0
100
AcDbLine
 10
1123.398525663106
 20
1107.819822714047
 30
0.0
 11
1123.398525663106
 21
1108.700149198143
 31
0.0
  0
LINE
  5
451A
330
4501
100
AcDbEntity
  8
外形線
 48
10.0
100
AcDbLine
 10
1123.398525663106
 20
1100.44543233102
 30
0.0
 11
1123.398525663106
 21
1108.078641759149
 31
0.0
  0
ARC
  5
451B
330
4501
100
AcDbEntity
  8
外形線
 48
10.0
100
AcDbCircle
 10
1123.898525663106
 20
1088.928129594135
 30
0.0
 40
0.5
100
AcDbArc
 50
180.0
 51
268.999999999998
  0
LINE
  5
451C
330
4501
100
AcDbEntity
  8
外形線
 48
10.0
100
AcDbLine
 10
1123.398525663106
 20
1088.928129594135
 30
0.0
 11
1123.398525663106
 21
1100.44543233102
 31
0.0
  0
ARC
  5
451D
330
4501
100
AcDbEntity
  8
外形線
 48
10.0
100
AcDbCircle
 10
1135.396646406818
 20
1087.727276821958
 30
0.0
 40
0.5
100
AcDbArc
 50
0.002863323129
 51
88.999999999998
  0
ARC
  5
451E
330
4501
100
AcDbEntity
  8
外形線
 48
10.0
100
AcDbCircle
 10
1135.396646406818
 20
1101.646285103198
 30
0.0
 40
0.5
100
AcDbArc
 50
271.000000000002
 51
359.997136676878
  0
ARC
  5
451F
330
4501
100
AcDbEntity
  8
細線
 48
10.0
100
AcDbCircle
 10
1135.398359871226
 20
1105.882746614783
 30
0.0
 40
0.5
100
AcDbArc
 50
359.978936747976
 51
84.089361084595
  0
ARC
  5
4520
330
4501
100
AcDbEntity
  8
細線
 48
10.0
100
AcDbCircle
 10
1135.396845195015
 20
1105.6240843805
 30
0.0
 40
0.5
100
AcDbArc
 50
359.997136676878
 51
84.089361084595
  0
ARC
  5
4521
330
4501
100
AcDbEntity
  8
細線
 48
10.0
100
AcDbCircle
 10
1135.398405428356
 20
1136.84472607817
 30
0.0
 40
0.5
100
AcDbArc
 50
359.997136676878
 51
68.874947125989
  0
ARC
  5
4522
330
4501
100
AcDbEntity
  8
細線
 48
10.0
100
AcDbCircle
 10
1135.398453699003
 20
1137.810633254114
 30
0.0
 40
0.5
100
AcDbArc
 50
359.997136676878
 51
68.874947125989
  0
ARC
  5
4523
330
4501
100
AcDbEntity
  8
外形線
 48
10.0
100
AcDbCircle
 10
1135.398508800797
 20
1138.913233296621
 30
0.0
 40
0.5
100
AcDbArc
 50
359.997136676878
 51
68.025023881972
  0
LINE
  5
4524
330
4501
100
AcDbEntity
  8
外形線
 48
10.0
100
AcDbLine
 10
1135.405372610037
 20
1101.146361255619
 30
0.0
 11
1123.889799459887
 21
1100.945356178598
 31
0.0
  0
LINE
  5
4525
330
4501
100
AcDbEntity
  8
外形線
 48
10.0
100
AcDbLine
 10
1135.405372610037
 20
1088.227200669536
 30
0.0
 11
1123.889799459887
 21
1088.428205746557
 31
0.0
  0
LINE
  5
4526
330
4501
100
AcDbEntity
  8
外形線
 48
10.0
100
AcDbLine
 10
1123.711312779708
 20
1144.168402728055
 30
0.0
 11
1135.585609606275
 21
1139.376906984239
 31
0.0
  0
LINE
  5
4527
330
4501
100
AcDbEntity
  8
細線
 48
10.0
100
AcDbLine
 10
1135.448333812772
 20
1106.121426237015
 30
0.0
 11
1123.847037045349
 21
1107.322480857532
 31
0.0
  0
LINE
  5
4528
330
4501
100
AcDbEntity
  8
細線
 48
10.0
100
AcDbLine
 10
1135.449848488983
 20
1106.380088471297
 30
0.0
 11
1123.847037045349
 21
1107.581299902634
 31
0.0
  0
LINE
  5
4529
330
4501
100
AcDbEntity
  8
細線
 48
10.0
100
AcDbLine
 10
1135.533952658586
 20
1126.609702933466
 30
0.0
 11
1123.762442899618
 21
1129.939188683612
 31
0.0
  0
LINE
  5
452A
330
4501
100
AcDbEntity
  8
細線
 48
10.0
100
AcDbLine
 10
1135.578607784566
 20
1137.311124095764
 30
0.0
 11
1123.718323306896
 21
1141.893586129411
 31
0.0
  0
LINE
  5
452B
330
4501
100
AcDbEntity
  8
細線
 48
10.0
100
AcDbLine
 10
1135.578656055213
 20
1138.277031271709
 30
0.0
 11
1123.718323306896
 21
1142.859511955701
 31
0.0
  0
LINE
  5
452C
330
4501
100
AcDbEntity
  8
外形線
 48
10.0
100
AcDbLine
 10
1108.899561566736
 20
1152.686780962578
 30
0.0
 11
1122.908291096026
 21
1152.436153402709
 31
0.0
  0
LINE
  5
452D
330
4501
100
AcDbEntity
  8
外形線
 48
10.0
100
AcDbLine
 10
1108.899561566736
 20
1152.686780962578
 30
0.0
 11
1108.399561566736
 21
1152.180676686204
 31
0.0
  0
LINE
  5
452E
330
4501
100
AcDbEntity
  8
外形線
 48
10.0
100
AcDbLine
 10
1108.399561566736
 20
1151.192885238951
 30
0.0
 11
1108.399561566736
 21
1150.692885238951
 31
0.0
  0
ARC
  5
452F
330
4501
100
AcDbEntity
  8
外形線
 48
10.0
100
AcDbCircle
 10
1098.998525663106
 20
1152.414559409545
 30
0.0
 40
4.4
100
AcDbArc
 50
271.3
 51
0.0
  0
LINE
  5
4530
330
4501
100
AcDbEntity
  8
外形線
 48
10.0
100
AcDbLine
 10
1046.016783711759
 20
1146.811102679105
 30
0.0
 11
1099.098349930826
 21
1148.015691928525
 31
0.0
  0
LINE
  5
4531
330
4501
100
AcDbEntity
  8
外形線
 48
10.0
100
AcDbLine
 10
1103.398525663105
 20
1152.686780962578
 30
0.0
 11
1103.398525663105
 21
1152.414559409545
 31
0.0
  0
LINE
  5
4532
330
4501
100
AcDbEntity
  8
外形線
 48
10.0
100
AcDbLine
 10
1106.398525663105
 20
1152.686780962578
 30
0.0
 11
1103.398525663105
 21
1152.686780962578
 31
0.0
  0
ARC
  5
4533
330
4501
100
AcDbEntity
  8
外形線
 48
10.0
100
AcDbCircle
 10
1107.898525663105
 20
1150.161780962577
 30
0.0
 40
1.500000000000156
100
AcDbArc
 50
70.528779365514
 51
179.999999999993
  0
LINE
  5
4534
330
4501
100
AcDbEntity
  8
細線
 48
10.0
100
AcDbLine
 10
1108.899561566736
 20
1152.686780962578
 30
0.0
 11
1108.899561566736
 21
1036.686780962578
 31
0.0
  0
LINE
  5
4535
330
4501
100
AcDbEntity
  8
細線
 48
10.0
100
AcDbLine
 10
1108.899561566736
 20
1152.680676686204
 30
0.0
 11
1108.899561566736
 21
1036.692885238951
 31
0.0
  0
LINE
  5
4536
330
4501
100
AcDbEntity
  8
外形線
 48
10.0
100
AcDbLine
 10
1123.398525663106
 20
1072.956444458874
 30
0.0
 11
1123.398525663106
 21
1059.660354798405
 31
0.0
  0
ARC
  5
4537
330
4501
100
AcDbEntity
  8
細線
 48
10.0
100
AcDbCircle
 10
1123.898525663106
 20
1047.013577778149
 30
0.0
 40
0.5
100
AcDbArc
 50
111.125052874011
 51
180.0
  0
ARC
  5
4538
330
4501
100
AcDbEntity
  8
細線
 48
10.0
100
AcDbCircle
 10
1123.898066965619
 20
1046.04747472476
 30
0.0
 40
0.5
100
AcDbArc
 50
111.125052874011
 51
179.923306313171
  0
ARC
  5
4539
330
4501
100
AcDbEntity
  8
細線
 48
10.0
100
AcDbCircle
 10
1123.898525663106
 20
1059.660354798405
 30
0.0
 40
0.5
100
AcDbArc
 50
105.793169048262
 51
180.0
  0
ARC
  5
453A
330
4501
100
AcDbEntity
  8
細線
 48
10.0
100
AcDbCircle
 10
1123.898525663106
 20
1058.953248017218
 30
0.0
 40
0.5
100
AcDbArc
 50
105.793169048262
 51
180.0
  0
ARC
  5
453B
330
4501
100
AcDbEntity
  8
細線
 48
10.0
100
AcDbCircle
 10
1123.898525663106
 20
1081.294920166006
 30
0.0
 40
0.5
100
AcDbArc
 50
95.910638915405
 51
180.0
  0
ARC
  5
453C
330
4501
100
AcDbEntity
  8
細線
 48
10.0
100
AcDbCircle
 10
1123.898525663106
 20
1081.553739211108
 30
0.0
 40
0.5
100
AcDbArc
 50
95.910638915405
 51
180.0
  0
LINE
  5
453D
330
4501
100
AcDbEntity
  8
外形線
 48
10.0
100
AcDbLine
 10
1123.398525663106
 20
1081.294920166006
 30
0.0
 11
1123.398525663106
 21
1088.928129594135
 31
0.0
  0
LINE
  5
453E
330
4501
100
AcDbEntity
  8
外形線
 48
10.0
100
AcDbLine
 10
1123.398525663106
 20
1081.745828707453
 30
0.0
 11
1123.398525663106
 21
1082.004647752555
 31
0.0
  0
LINE
  5
453F
330
4501
100
AcDbEntity
  8
外形線
 48
10.0
100
AcDbLine
 10
1123.398525663106
 20
1072.956444458874
 30
0.0
 11
1123.398525663106
 21
1081.294920166006
 31
0.0
  0
LINE
  5
4540
330
4501
100
AcDbEntity
  8
外形線
 48
10.0
100
AcDbLine
 10
1123.398525663106
 20
1058.953248017218
 30
0.0
 11
1123.398525663106
 21
1059.660354798405
 31
0.0
  0
LINE
  5
4541
330
4501
100
AcDbEntity
  8
外形線
 48
10.0
100
AcDbLine
 10
1123.398525663106
 20
1047.013577778149
 30
0.0
 11
1123.398525663106
 21
1058.953248017218
 31
0.0
  0
LINE
  5
4542
330
4501
100
AcDbEntity
  8
外形線
 48
10.0
100
AcDbLine
 10
1123.398067413553
 20
1046.048144003235
 30
0.0
 11
1123.398525663106
 21
1047.013577778149
 31
0.0
  0
LINE
  5
4543
330
4501
100
AcDbEntity
  8
外形線
 48
10.0
100
AcDbLine
 10
1123.396317242873
 20
1044.740639597053
 30
0.0
 11
1123.398067413553
 21
1046.048144003235
 31
0.0
  0
ARC
  5
4544
330
4501
100
AcDbEntity
  8
外形線
 48
10.0
100
AcDbCircle
 10
1123.896317242873
 20
1044.740639597053
 30
0.0
 40
0.5
100
AcDbArc
 50
111.974976118028
 51
180.0
  0
ARC
  5
4545
330
4501
100
AcDbEntity
  8
細線
 48
10.0
100
AcDbCircle
 10
1135.398494161258
 20
1063.952267566336
 30
0.0
 40
0.5
100
AcDbArc
 50
285.793169048262
 51
0.004772330144
  0
ARC
  5
4546
330
4501
100
AcDbEntity
  8
細線
 48
10.0
100
AcDbCircle
 10
1135.398525663106
 20
1063.245169695216
 30
0.0
 40
0.5
100
AcDbArc
 50
285.793169048262
 51
0.0
  0
ARC
  5
4547
330
4501
100
AcDbEntity
  8
細線
 48
10.0
100
AcDbCircle
 10
1135.398525663106
 20
1052.528882302126
 30
0.0
 40
0.5
100
AcDbArc
 50
291.125052874011
 51
0.0
  0
ARC
  5
4548
330
4501
100
AcDbEntity
  8
細線
 48
10.0
100
AcDbCircle
 10
1135.398525663106
 20
1051.562956475835
 30
0.0
 40
0.5
100
AcDbArc
 50
291.125052874011
 51
0.0
  0
ARC
  5
4549
330
4501
100
AcDbEntity
  8
外形線
 48
10.0
100
AcDbCircle
 10
1135.398525663106
 20
1050.460335432784
 30
0.0
 40
0.5
100
AcDbArc
 50
291.974976118028
 51
0.0
  0
LINE
  5
454A
330
4501
100
AcDbEntity
  8
外形線
 48
10.0
100
AcDbLine
 10
1135.898525663106
 20
1051.562956475835
 30
0.0
 11
1135.898525663106
 21
1050.460335432784
 31
0.0
  0
LINE
  5
454B
330
4501
100
AcDbEntity
  8
外形線
 48
10.0
100
AcDbLine
 10
1135.898525663106
 20
1052.528882302126
 30
0.0
 11
1135.898525663106
 21
1051.562956475835
 31
0.0
  0
LINE
  5
454C
330
4501
100
AcDbEntity
  8
外形線
 48
10.0
100
AcDbLine
 10
1135.898525663106
 20
1063.245169695216
 30
0.0
 11
1135.898525663106
 21
1052.528882302126
 31
0.0
  0
LINE
  5
454D
330
4501
100
AcDbEntity
  8
外形線
 48
10.0
100
AcDbLine
 10
1135.898494159523
 20
1063.952309212773
 30
0.0
 11
1135.898525663106
 21
1063.245169695216
 31
0.0
  0
LINE
  5
454E
330
4501
100
AcDbEntity
  8
外形線
 48
10.0
100
AcDbLine
 10
1135.896845194391
 20
1083.749502531863
 30
0.0
 11
1135.898494159523
 21
1063.952309212773
 31
0.0
  0
ARC
  5
454F
330
4501
100
AcDbEntity
  8
細線
 48
10.0
100
AcDbCircle
 10
1135.396794220963
 20
1083.49065322233
 30
0.0
 40
0.5
100
AcDbArc
 50
275.910638915405
 51
0.00199902817
  0
ARC
  5
4550
330
4501
100
AcDbEntity
  8
細線
 48
10.0
100
AcDbCircle
 10
1135.396845195015
 20
1083.749477544655
 30
0.0
 40
0.5
100
AcDbArc
 50
275.910638915405
 51
0.002863323129
  0
ARC
  5
4551
330
4501
100
AcDbEntity
  8
外形線
 48
10.0
100
AcDbCircle
 10
1122.897486448612
 20
1037.437296090646
 30
0.0
 40
0.5
100
AcDbArc
 50
271.000000000002
 51
359.984453673186
  0
LINE
  5
4552
330
4501
100
AcDbEntity
  8
外形線
 48
10.0
100
AcDbLine
 10
1135.896646406194
 20
1087.727301809166
 30
0.0
 11
1135.896794220659
 21
1083.490670667142
 31
0.0
  0
LINE
  5
4553
330
4501
100
AcDbEntity
  8
外形線
 48
10.0
100
AcDbLine
 10
1123.709216437395
 20
1045.204313284671
 30
0.0
 11
1135.585626468584
 21
1049.996661745166
 31
0.0
  0
LINE
  5
4554
330
4501
100
AcDbEntity
  8
細線
 48
10.0
100
AcDbLine
 10
1135.578728019316
 20
1052.062484284531
 30
0.0
 11
1123.718323306896
 21
1047.479975795744
 31
0.0
  0
LINE
  5
4555
330
4501
100
AcDbEntity
  8
細線
 48
10.0
100
AcDbLine
 10
1135.578728019316
 20
1051.09655845824
 30
0.0
 11
1123.717864609409
 21
1046.513872742355
 31
0.0
  0
LINE
  5
4556
330
4501
100
AcDbEntity
  8
細線
 48
10.0
100
AcDbLine
 10
1135.534608426593
 20
1062.764044470891
 30
0.0
 11
1123.762442899618
 21
1059.434373241543
 31
0.0
  0
LINE
  5
4557
330
4501
100
AcDbEntity
  8
細線
 48
10.0
100
AcDbLine
 10
1135.534576924746
 20
1063.471142342011
 30
0.0
 11
1123.762442899618
 21
1060.141480022729
 31
0.0
  0
LINE
  5
4558
330
4501
100
AcDbEntity
  8
細線
 48
10.0
100
AcDbLine
 10
1135.44828283872
 20
1082.993311365815
 30
0.0
 11
1123.847037045349
 21
1081.792262022521
 31
0.0
  0
LINE
  5
4559
330
4501
100
AcDbEntity
  8
細線
 48
10.0
100
AcDbLine
 10
1135.448333812772
 20
1083.25213568814
 30
0.0
 11
1123.847037045349
 21
1082.051081067623
 31
0.0
  0
LINE
  5
455A
330
4501
100
AcDbEntity
  8
外形線
 48
10.0
100
AcDbLine
 10
1123.399470041665
 20
1044.747733739171
 30
0.0
 11
1123.397486430207
 21
1037.437160423353
 31
0.0
  0
LINE
  5
455B
330
4501
100
AcDbEntity
  8
外形線
 48
10.0
100
AcDbLine
 10
1123.399564892765
 20
1151.936223047449
 30
0.0
 11
1123.397486430207
 21
1037.437160423353
 31
0.0
  0
LINE
  5
455C
330
4501
100
AcDbEntity
  8
外形線
 48
10.0
100
AcDbLine
 10
1108.399561566736
 20
1152.180676686204
 30
0.0
 11
1108.399561566736
 21
1037.192885238951
 31
0.0
  0
LINE
  5
455D
330
4501
100
AcDbEntity
  8
外形線
 48
10.0
100
AcDbLine
 10
1108.899561566736
 20
1036.686780962578
 30
0.0
 11
1122.906212651831
 21
1036.937372243068
 31
0.0
  0
LINE
  5
455E
330
4501
100
AcDbEntity
  8
外形線
 48
10.0
100
AcDbLine
 10
1108.899561566736
 20
1036.686780962578
 30
0.0
 11
1108.399561566736
 21
1037.192885238951
 31
0.0
  0
LINE
  5
455F
330
4501
100
AcDbEntity
  8
外形線
 48
10.0
100
AcDbLine
 10
1108.399561566736
 20
1038.192885238951
 30
0.0
 11
1108.399561566736
 21
1038.692885238951
 31
0.0
  0
LINE
  5
4560
330
4501
100
AcDbEntity
  8
外形線
 48
10.0
100
AcDbLine
 10
1035.022931603883
 20
1071.442246865485
 30
0.0
 11
1041.278741748243
 21
1046.351562814666
 31
0.0
  0
ARC
  5
4561
330
4501
100
AcDbEntity
  8
外形線
 48
10.0
100
AcDbCircle
 10
1046.130220379623
 20
1047.561172292664
 30
0.0
 40
5.0
100
AcDbArc
 50
193.999999999996
 51
268.7
  0
ARC
  5
4562
330
4501
100
AcDbEntity
  8
外形線
 48
10.0
100
AcDbCircle
 10
1034.052635877606
 20
1071.200324969886
 30
0.0
 40
1.0
100
AcDbArc
 50
13.999999999996
 51
89.000000000011
  0
ARC
  5
4563
330
4501
100
AcDbEntity
  8
外形線
 48
10.0
100
AcDbCircle
 10
1069.398525663106
 20
1041.031595836918
 30
0.0
 40
1.0
100
AcDbArc
 50
0.0
 51
88.7
  0
ARC
  5
4564
330
4501
100
AcDbEntity
  8
外形線
 48
10.0
100
AcDbCircle
 10
1071.398525663106
 20
1031.186780962577
 30
0.0
 40
1.0
100
AcDbArc
 50
180.0
 51
270.0
  0
ARC
  5
4565
330
4501
100
AcDbEntity
  8
外形線
 48
10.0
100
AcDbCircle
 10
1105.398525663105
 20
1031.186780962577
 30
0.0
 40
1.0
100
AcDbArc
 50
270.0
 51
0.0
  0
LINE
  5
4566
330
4501
100
AcDbEntity
  8
外形線
 48
10.0
100
AcDbLine
 10
1070.398525663106
 20
1031.186780962577
 30
0.0
 11
1070.398525663106
 21
1041.031595836918
 31
0.0
  0
LINE
  5
4567
330
4501
100
AcDbEntity
  8
外形線
 48
10.0
100
AcDbLine
 10
1046.016783711759
 20
1042.56245924605
 30
0.0
 11
1099.098349930826
 21
1041.35786999663
 31
0.0
  0
LINE
  5
4568
330
4501
100
AcDbEntity
  8
外形線
 48
10.0
100
AcDbLine
 10
1021.881073256668
 20
1072.412932713756
 30
0.0
 11
1034.070088284044
 21
1072.200172665042
 31
0.0
  0
LINE
  5
4569
330
4501
100
AcDbEntity
  8
外形線
 48
10.0
100
AcDbLine
 10
1106.398525663105
 20
1040.711780962577
 30
0.0
 11
1106.398525663105
 21
1031.186780962577
 31
0.0
  0
LINE
  5
456A
330
4501
100
AcDbEntity
  8
外形線
 48
10.0
100
AcDbLine
 10
1106.398525663105
 20
1040.711780962577
 30
0.0
 11
1106.398525663105
 21
1152.686780962578
 31
0.0
  0
LINE
  5
456B
330
4501
100
AcDbEntity
  8
外形線
 48
10.0
100
AcDbLine
 10
1105.398525663105
 20
1030.186780962577
 30
0.0
 11
1071.398525663106
 21
1030.186780962577
 31
0.0
  0
LINE
  5
456C
330
4501
100
AcDbEntity
  8
外形線
 48
10.0
100
AcDbLine
 10
1103.398525663106
 20
1036.95900251561
 30
0.0
 11
1103.398525663105
 21
1036.692885238951
 31
0.0
  0
LINE
  5
456D
330
4501
100
AcDbEntity
  8
外形線
 48
10.0
100
AcDbLine
 10
1106.398525663105
 20
1036.692885238951
 30
0.0
 11
1103.398525663105
 21
1036.692885238951
 31
0.0
  0
ARC
  5
456E
330
4501
100
AcDbEntity
  8
外形線
 48
10.0
100
AcDbCircle
 10
1107.898525663105
 20
1039.211780962577
 30
0.0
 40
1.499999999999659
100
AcDbArc
 50
179.99999999998
 51
289.471220634515
  0
ARC
  5
456F
330
4501
100
AcDbEntity
  8
外形線
 48
10.0
100
AcDbCircle
 10
1098.998525663106
 20
1036.95900251561
 30
0.0
 40
4.4
100
AcDbArc
 50
0.0
 51
88.7
  0
LINE
  5
4570
330
4501
100
AcDbEntity
  8
細線
 48
10.0
100
AcDbLine
 10
1103.398525663105
 20
1152.686780962578
 30
0.0
 11
1103.398525663106
 21
1036.95900251561
 31
0.0
  0
LINE
  5
4571
330
4501
100
AcDbEntity
  8
細線
 48
10.0
100
AcDbLine
 10
1034.837298404406
 20
1072.186780962578
 30
0.0
 11
1034.840933619068
 21
1117.201361012233
 31
0.0
  0
LINE
  5
4572
330
4501
100
AcDbEntity
  8
細線
 48
10.0
100
AcDbLine
 10
1042.201886517784
 20
1144.905639229587
 30
0.0
 11
1042.201886517784
 21
1044.467922695569
 31
0.0
  0
LINE
  5
4573
330
4501
100
AcDbEntity
  8
外形線
 48
10.0
100
AcDbLine
 10
1135.898508800172
 20
1138.913208309413
 30
0.0
 11
1135.896646406194
 21
1101.646260115989
 31
0.0
  0
ARC
  5
4574
330
4501
100
AcDbEntity
  8
細線
 48
10.0
100
AcDbCircle
 10
1135.397834558349
 20
1125.421480922695
 30
0.0
 40
0.5
100
AcDbArc
 50
359.997136676878
 51
74.206830951738
  0
ARC
  5
4575
330
4501
100
AcDbEntity
  8
細線
 48
10.0
100
AcDbCircle
 10
1135.397869895098
 20
1126.128577709141
 30
0.0
 40
0.5
100
AcDbArc
 50
359.997136676878
 51
74.206830951738
  0
LINE
  5
4576
330
4501
100
AcDbEntity
  8
細線
 48
10.0
100
AcDbLine
 10
1135.533917321837
 20
1125.90260614702
 30
0.0
 11
1123.762442899618
 21
1129.232081902426
 31
0.0
  0
LINE
  5
4577
330
4501
100
AcDbEntity
  8
中心線
 48
10.0
100
AcDbLine
 10
1088.398525663106
 20
1052.03299312045
 30
0.0
 11
1088.398525663106
 21
1013.722487401784
 31
0.0
  0
ENDBLK
  5
4578
330
4501
100
AcDbEntity
  8
0
 48
10.0
100
AcDbBlockEnd
  0
BLOCK
  5
46D8
330
46CE
100
AcDbEntity
  8
0
 48
10.0
100
AcDbBlockBegin
  2
*D20
 70
     1
 10
0.0
 20
0.0
 30
0.0
  3
*D20
  1

  0
LINE
  5
4A62
330
46CE
100
AcDbEntity
  8
寸法線
 62
     0
 48
10.0
100
AcDbLine
 10
327.638468256273
 20
395.324677306075
 30
0.0
 11
327.638468256273
 21
313.99659200722
 31
0.0
  0
LINE
  5
4A63
330
46CE
100
AcDbEntity
  8
寸法線
 62
     0
 48
10.0
100
AcDbLine
 10
347.638468256273
 20
395.324677306074
 30
0.0
 11
347.638468256273
 21
313.99659200722
 31
0.0
  0
LINE
  5
4A64
330
46CE
100
AcDbEntity
  8
寸法線
 62
     0
 48
10.0
100
AcDbLine
 10
333.638468256273
 20
315.24659200722
 30
0.0
 11
341.638468256273
 21
315.24659200722
 31
0.0
  0
INSERT
  5
4A65
330
46CE
100
AcDbEntity
  8
寸法線
 62
     0
 48
10.0
100
AcDbBlockReference
  2
_OPEN30
 10
327.638468256273
 20
315.24659200722
 30
0.0
 41
6.0
 42
6.0
 43
6.0
 50
180.0
  0
INSERT
  5
4A66
330
46CE
100
AcDbEntity
  8
寸法線
 62
     0
 48
10.0
100
AcDbBlockReference
  2
_OPEN30
 10
347.638468256273
 20
315.24659200722
 30
0.0
 41
6.0
 42
6.0
 43
6.0
  0
MTEXT
  5
4A67
330
46CE
100
AcDbEntity
  8
寸法線
 62
     0
 48
10.0
100
AcDbMText
 10
337.638468256273
 20
319.872379408795
 30
0.0
 40
8.0
 41
0.0
 71
     5
 72
     1
  1
\A1;20
  0
POINT
  5
4A68
330
46CE
100
AcDbEntity
  8
DEFPOINTS
 62
     0
 48
10.0
100
AcDbPoint
 10
327.638468256273
 20
395.949677306075
 30
0.0
  0
POINT
  5
4A69
330
46CE
100
AcDbEntity
  8
DEFPOINTS
 62
     0
 48
10.0
100
AcDbPoint
 10
347.638468256273
 20
395.949677306074
 30
0.0
  0
POINT
  5
4A6A
330
46CE
100
AcDbEntity
  8
DEFPOINTS
 62
     0
 48
10.0
100
AcDbPoint
 10
347.638468256273
 20
315.24659200722
 30
0.0
  0
ENDBLK
  5
46D9
330
46CE
100
AcDbEntity
  8
0
 48
10.0
100
AcDbBlockEnd
  0
BLOCK
  5
46E5
330
46DB
100
AcDbEntity
  8
0
 48
10.0
100
AcDbBlockBegin
  2
*D21
 70
     1
 10
0.0
 20
0.0
 30
0.0
  3
*D21
  1

  0
LINE
  5
4A59
330
46DB
100
AcDbEntity
  8
寸法線
 62
     0
 48
10.0
100
AcDbLine
 10
302.638468256273
 20
337.375
 30
0.0
 11
302.638468256273
 21
313.99659200722
 31
0.0
  0
LINE
  5
4A5A
330
46DB
100
AcDbEntity
  8
寸法線
 62
     0
 48
10.0
100
AcDbLine
 10
327.638468256273
 20
395.324677306075
 30
0.0
 11
327.638468256273
 21
313.99659200722
 31
0.0
  0
LINE
  5
4A5B
330
46DB
100
AcDbEntity
  8
寸法線
 62
     0
 48
10.0
100
AcDbLine
 10
308.638468256273
 20
315.24659200722
 30
0.0
 11
321.638468256273
 21
315.24659200722
 31
0.0
  0
INSERT
  5
4A5C
330
46DB
100
AcDbEntity
  8
寸法線
 62
     0
 48
10.0
100
AcDbBlockReference
  2
_OPEN30
 10
302.638468256273
 20
315.24659200722
 30
0.0
 41
6.0
 42
6.0
 43
6.0
 50
180.0
  0
INSERT
  5
4A5D
330
46DB
100
AcDbEntity
  8
寸法線
 62
     0
 48
10.0
100
AcDbBlockReference
  2
_OPEN30
 10
327.638468256273
 20
315.24659200722
 30
0.0
 41
6.0
 42
6.0
 43
6.0
  0
MTEXT
  5
4A5E
330
46DB
100
AcDbEntity
  8
寸法線
 62
     0
 48
10.0
100
AcDbMText
 10
315.138468256273
 20
319.872379408795
 30
0.0
 40
8.0
 41
0.0
 71
     5
 72
     1
  1
\A1;25
  0
POINT
  5
4A5F
330
46DB
100
AcDbEntity
  8
DEFPOINTS
 62
     0
 48
10.0
100
AcDbPoint
 10
302.638468256273
 20
338.0
 30
0.0
  0
POINT
  5
4A60
330
46DB
100
AcDbEntity
  8
DEFPOINTS
 62
     0
 48
10.0
100
AcDbPoint
 10
327.638468256273
 20
395.949677306075
 30
0.0
  0
POINT
  5
4A61
330
46DB
100
AcDbEntity
  8
DEFPOINTS
 62
     0
 48
10.0
100
AcDbPoint
 10
327.638468256273
 20
315.24659200722
 30
0.0
  0
ENDBLK
  5
46E6
330
46DB
100
AcDbEntity
  8
0
 48
10.0
100
AcDbBlockEnd
  0
BLOCK
  5
4918
330
490E
100
AcDbEntity
  8
0
 48
10.0
100
AcDbBlockBegin
  2
*D37
 70
     1
 10
0.0
 20
0.0
 30
0.0
  3
*D37
  1

  0
LINE
  5
4A9A
330
490E
100
AcDbEntity
  8
寸法線
 62
     0
 48
10.0
100
AcDbLine
 10
347.638468256273
 20
395.375
 30
0.0
 11
347.638468256273
 21
313.99659200722
 31
0.0
  0
LINE
  5
4A9B
330
490E
100
AcDbEntity
  8
寸法線
 62
     0
 48
10.0
100
AcDbLine
 10
437.638503829948
 20
383.330570906421
 30
0.0
 11
437.638503829948
 21
313.99659200722
 31
0.0
  0
LINE
  5
4A9C
330
490E
100
AcDbEntity
  8
寸法線
 62
     0
 48
10.0
100
AcDbLine
 10
353.638468256273
 20
315.24659200722
 30
0.0
 11
431.638503829948
 21
315.24659200722
 31
0.0
  0
INSERT
  5
4A9D
330
490E
100
AcDbEntity
  8
寸法線
 62
     0
100
AcDbBlockReference
  2
_OPEN30
 10
347.638468256273
 20
315.24659200722
 30
0.0
 41
6.0
 42
6.0
 43
6.0
 50
180.0
  0
INSERT
  5
4A9E
330
490E
100
AcDbEntity
  8
寸法線
 62
     0
100
AcDbBlockReference
  2
_OPEN30
 10
437.638503829948
 20
315.24659200722
 30
0.0
 41
6.0
 42
6.0
 43
6.0
  0
MTEXT
  5
4A9F
330
490E
100
AcDbEntity
  8
寸法線
 62
     0
 48
10.0
100
AcDbMText
 10
392.63848604311
 20
319.87159200722
 30
0.0
 40
8.0
 41
0.0
 71
     5
 72
     1
  1
\A1;90
  0
POINT
  5
4AA0
330
490E
100
AcDbEntity
  8
DEFPOINTS
 62
     0
100
AcDbPoint
 10
347.638468256273
 20
396.0
 30
0.0
  0
POINT
  5
4AA1
330
490E
100
AcDbEntity
  8
DEFPOINTS
 62
     0
100
AcDbPoint
 10
437.638503829948
 20
383.955570906421
 30
0.0
  0
POINT
  5
4AA2
330
490E
100
AcDbEntity
  8
DEFPOINTS
 62
     0
100
AcDbPoint
 10
437.638503829948
 20
315.24659200722
 30
0.0
  0
ENDBLK
  5
4919
330
490E
100
AcDbEntity
  8
0
 48
10.0
100
AcDbBlockEnd
  0
BLOCK
  5
4930
330
4926
100
AcDbEntity
  8
0
 48
10.0
100
AcDbBlockBegin
  2
*D39
 70
     1
 10
0.0
 20
0.0
 30
0.0
  3
*D39
  1

  0
LINE
  5
49FC
330
4926
100
AcDbEntity
  8
寸法線
 62
     0
 48
10.0
100
AcDbLine
 10
403.386506966404
 20
454.000037111675
 30
0.0
 11
461.625
 21
454.000037111675
 31
0.0
  0
LINE
  5
49FD
330
4926
100
AcDbEntity
  8
寸法線
 62
     0
 48
10.0
100
AcDbLine
 10
423.905468256273
 20
369.0
 30
0.0
 11
461.625
 21
369.0
 31
0.0
  0
LINE
  5
49FE
330
4926
100
AcDbEntity
  8
寸法線
 62
     0
 48
10.0
100
AcDbLine
 10
460.375
 20
448.000037111675
 30
0.0
 11
460.375
 21
375.0
 31
0.0
  0
INSERT
  5
49FF
330
4926
100
AcDbEntity
  8
寸法線
 62
     0
 48
10.0
100
AcDbBlockReference
  2
_OPEN30
 10
460.375
 20
454.000037111675
 30
0.0
 41
6.0
 42
6.0
 43
6.0
 50
90.0
  0
INSERT
  5
4A00
330
4926
100
AcDbEntity
  8
寸法線
 62
     0
 48
10.0
100
AcDbBlockReference
  2
_OPEN30
 10
460.375
 20
369.0
 30
0.0
 41
6.0
 42
6.0
 43
6.0
 50
270.0
  0
MTEXT
  5
4A01
330
4926
100
AcDbEntity
  8
寸法線
 62
     0
 48
10.0
100
AcDbMText
 10
455.75
 20
411.500018555838
 30
0.0
 40
8.0
 41
0.0
 71
     5
 72
     1
  1
\A1;85
 11
6.123031769111886E-17
 21
1.0
 31
0.0
  0
POINT
  5
4A02
330
4926
100
AcDbEntity
  8
DEFPOINTS
 62
     0
 48
10.0
100
AcDbPoint
 10
402.761506966404
 20
454.000037111675
 30
0.0
  0
POINT
  5
4A03
330
4926
100
AcDbEntity
  8
DEFPOINTS
 62
     0
 48
10.0
100
AcDbPoint
 10
423.280468256273
 20
369.0
 30
0.0
  0
POINT
  5
4A04
330
4926
100
AcDbEntity
  8
DEFPOINTS
 62
     0
 48
10.0
100
AcDbPoint
 10
460.375
 20
369.0
 30
0.0
  0
ENDBLK
  5
4931
330
4926
100
AcDbEntity
  8
0
 48
10.0
100
AcDbBlockEnd
  0
BLOCK
  5
4BD8
330
4BD7
100
AcDbEntity
  8
0
100
AcDbBlockBegin
  2
*D41
 70
     1
 10
0.0
 20
0.0
 30
0.0
  3
*D41
  1

  0
LINE
  5
4BDA
330
4BD7
100
AcDbEntity
  8
寸法線
 62
     0
 48
10.0
100
AcDbLine
 10
302.638468256273
 20
314.62159200722
 30
0.0
 11
302.638468256273
 21
293.931741407772
 31
0.0
  0
LINE
  5
4BDB
330
4BD7
100
AcDbEntity
  8
寸法線
 62
     0
 48
10.0
100
AcDbLine
 10
437.638503829948
 20
314.62159200722
 30
0.0
 11
437.638503829948
 21
293.931741407772
 31
0.0
  0
LINE
  5
4BDC
330
4BD7
100
AcDbEntity
  8
寸法線
 62
     0
 48
10.0
100
AcDbLine
 10
308.638468256273
 20
295.181741407772
 30
0.0
 11
431.638503829948
 21
295.181741407772
 31
0.0
  0
INSERT
  5
4BDD
330
4BD7
100
AcDbEntity
  8
寸法線
 62
     0
100
AcDbBlockReference
  2
_OPEN30
 10
302.638468256273
 20
295.181741407772
 30
0.0
 41
6.0
 42
6.0
 43
6.0
 50
180.0
  0
INSERT
  5
4BDE
330
4BD7
100
AcDbEntity
  8
寸法線
 62
     0
100
AcDbBlockReference
  2
_OPEN30
 10
437.638503829948
 20
295.181741407772
 30
0.0
 41
6.0
 42
6.0
 43
6.0
  0
MTEXT
  5
4BDF
330
4BD7
100
AcDbEntity
  8
寸法線
 62
     0
 48
10.0
100
AcDbMText
 10
370.13848604311
 20
299.810908074439
 30
0.0
 40
8.0
 41
0.0
 71
     5
 72
     1
  1
\A1;135
  0
POINT
  5
4BE0
330
4BD7
100
AcDbEntity
  8
DEFPOINTS
 62
     0
100
AcDbPoint
 10
302.638468256273
 20
315.24659200722
 30
0.0
  0
POINT
  5
4BE1
330
4BD7
100
AcDbEntity
  8
DEFPOINTS
 62
     0
100
AcDbPoint
 10
437.638503829948
 20
315.24659200722
 30
0.0
  0
POINT
  5
4BE2
330
4BD7
100
AcDbEntity
  8
DEFPOINTS
 62
     0
100
AcDbPoint
 10
437.638503829948
 20
295.181741407772
 30
0.0
  0
ENDBLK
  5
4BD9
330
4BD7
100
AcDbEntity
  8
0
100
AcDbBlockEnd
  0
BLOCK
  5
4EB8
330
4EB7
100
AcDbEntity
  8
0
100
AcDbBlockBegin
  2
*D62
 70
     1
 10
0.0
 20
0.0
 30
0.0
  3
*D62
  1

  0
LINE
  5
4EBA
330
4EB7
100
AcDbEntity
  8
寸法線
 62
     0
 48
10.0
100
AcDbLine
 10
29.240942798759
 20
425.914658855225
 30
0.0
 11
-7.167106481369
 21
425.914658855225
 31
0.0
  0
LINE
  5
4EBB
330
4EB7
100
AcDbEntity
  8
寸法線
 62
     0
 48
10.0
100
AcDbLine
 10
29.423647070792
 20
403.914658855225
 30
0.0
 11
-7.167106481369
 21
403.914658855225
 31
0.0
  0
LINE
  5
4EBC
330
4EB7
100
AcDbEntity
  8
寸法線
 62
     0
 48
10.0
100
AcDbLine
 10
-5.917106481369
 20
425.914658855225
 30
0.0
 11
-5.917106481369
 21
451.13822840903
 31
0.0
  0
LINE
  5
4EBD
330
4EB7
100
AcDbEntity
  8
寸法線
 62
     0
 48
10.0
100
AcDbLine
 10
-5.917106481369
 20
419.914658855225
 30
0.0
 11
-5.917106481369
 21
409.914658855225
 31
0.0
  0
INSERT
  5
4EBE
330
4EB7
100
AcDbEntity
  8
寸法線
 62
     0
100
AcDbBlockReference
  2
_OPEN30
 10
-5.917106481369
 20
425.914658855225
 30
0.0
 41
6.0
 42
6.0
 43
6.0
 50
90.0
  0
INSERT
  5
4EBF
330
4EB7
100
AcDbEntity
  8
寸法線
 62
     0
100
AcDbBlockReference
  2
_OPEN30
 10
-5.917106481369
 20
403.914658855225
 30
0.0
 41
6.0
 42
6.0
 43
6.0
 50
270.0
  0
MTEXT
  5
4EC0
330
4EB7
100
AcDbEntity
  8
寸法線
 62
     0
 48
10.0
100
AcDbMText
 10
-10.550439814703
 20
441.779895075697
 30
0.0
 40
8.0
 41
0.0
 71
     5
 72
     1
  1
\A1;φ22
 11
0.0
 21
1.0
 31
0.0
  0
POINT
  5
4EC1
330
4EB7
100
AcDbEntity
  8
DEFPOINTS
 62
     0
100
AcDbPoint
 10
29.865942798759
 20
425.914658855225
 30
0.0
  0
POINT
  5
4EC2
330
4EB7
100
AcDbEntity
  8
DEFPOINTS
 62
     0
100
AcDbPoint
 10
30.048647070792
 20
403.914658855225
 30
0.0
  0
POINT
  5
4EC3
330
4EB7
100
AcDbEntity
  8
DEFPOINTS
 62
     0
100
AcDbPoint
 10
-5.917106481369
 20
403.914658855225
 30
0.0
  0
ENDBLK
  5
4EB9
330
4EB7
100
AcDbEntity
  8
0
100
AcDbBlockEnd
  0
BLOCK
  5
4EC5
330
4EC4
100
AcDbEntity
  8
0
100
AcDbBlockBegin
  2
*D63
 70
     1
 10
0.0
 20
0.0
 30
0.0
  3
*D63
  1

  0
LINE
  5
4EC7
330
4EC4
100
AcDbEntity
  8
寸法線
 62
     0
 48
10.0
100
AcDbLine
 10
27.689321454582
 20
423.414658855225
 30
0.0
 11
8.832893518631
 21
423.414658855225
 31
0.0
  0
LINE
  5
4EC8
330
4EC4
100
AcDbEntity
  8
寸法線
 62
     0
 48
10.0
100
AcDbLine
 10
27.332035596989
 20
406.414658855225
 30
0.0
 11
8.832893518631
 21
406.414658855225
 31
0.0
  0
LINE
  5
4EC9
330
4EC4
100
AcDbEntity
  8
寸法線
 62
     0
 48
10.0
100
AcDbLine
 10
10.082893518631
 20
423.414658855225
 30
0.0
 11
10.082893518631
 21
446.797992188558
 31
0.0
  0
LINE
  5
4ECA
330
4EC4
100
AcDbEntity
  8
寸法線
 62
     0
 48
10.0
100
AcDbLine
 10
10.082893518631
 20
417.414658855225
 30
0.0
 11
10.082893518631
 21
412.414658855225
 31
0.0
  0
INSERT
  5
4ECB
330
4EC4
100
AcDbEntity
  8
寸法線
 62
     0
100
AcDbBlockReference
  2
_OPEN30
 10
10.082893518631
 20
423.414658855225
 30
0.0
 41
6.0
 42
6.0
 43
6.0
 50
90.0
  0
INSERT
  5
4ECC
330
4EC4
100
AcDbEntity
  8
寸法線
 62
     0
100
AcDbBlockReference
  2
_OPEN30
 10
10.082893518631
 20
406.414658855225
 30
0.0
 41
6.0
 42
6.0
 43
6.0
 50
270.0
  0
MTEXT
  5
4ECD
330
4EC4
100
AcDbEntity
  8
寸法線
 62
     0
 48
10.0
100
AcDbMText
 10
5.457893518631
 20
438.239658855225
 30
0.0
 40
8.0
 41
0.0
 71
     5
 72
     1
  1
\A1;φ17
 11
0.0
 21
1.0
 31
0.0
  0
POINT
  5
4ECE
330
4EC4
100
AcDbEntity
  8
DEFPOINTS
 62
     0
100
AcDbPoint
 10
28.314321454582
 20
423.414658855225
 30
0.0
  0
POINT
  5
4ECF
330
4EC4
100
AcDbEntity
  8
DEFPOINTS
 62
     0
100
AcDbPoint
 10
27.957035596989
 20
406.414658855225
 30
0.0
  0
POINT
  5
4ED0
330
4EC4
100
AcDbEntity
  8
DEFPOINTS
 62
     0
100
AcDbPoint
 10
10.082893518631
 20
406.414658855225
 30
0.0
  0
ENDBLK
  5
4EC6
330
4EC4
100
AcDbEntity
  8
0
100
AcDbBlockEnd
  0
BLOCK
  5
4EDF
330
4EDE
100
AcDbEntity
  8
0
100
AcDbBlockBegin
  2
*D65
 70
     1
 10
0.0
 20
0.0
 30
0.0
  3
*D65
  1

  0
LINE
  5
4EE1
330
4EDE
100
AcDbEntity
  8
寸法線
 62
     0
 48
10.0
100
AcDbLine
 10
42.721361774903
 20
317.913623667948
 30
0.0
 11
42.721361774903
 21
293.931741407772
 31
0.0
  0
LINE
  5
4EE2
330
4EDE
100
AcDbEntity
  8
寸法線
 62
     0
 48
10.0
100
AcDbLine
 10
302.638468256273
 20
337.375
 30
0.0
 11
302.638468256273
 21
293.931741407772
 31
0.0
  0
LINE
  5
4EE3
330
4EDE
100
AcDbEntity
  8
寸法線
 62
     0
 48
10.0
100
AcDbLine
 10
48.721361774903
 20
295.181741407772
 30
0.0
 11
296.638468256273
 21
295.181741407772
 31
0.0
  0
INSERT
  5
4EE4
330
4EDE
100
AcDbEntity
  8
寸法線
 62
     0
100
AcDbBlockReference
  2
_OPEN30
 10
42.721361774903
 20
295.181741407772
 30
0.0
 41
6.0
 42
6.0
 43
6.0
 50
180.0
  0
INSERT
  5
4EE5
330
4EDE
100
AcDbEntity
  8
寸法線
 62
     0
100
AcDbBlockReference
  2
_OPEN30
 10
302.638468256273
 20
295.181741407772
 30
0.0
 41
6.0
 42
6.0
 43
6.0
  0
MTEXT
  5
4EE6
330
4EDE
100
AcDbEntity
  8
寸法線
 62
     0
 48
10.0
100
AcDbMText
 10
172.679915015588
 20
299.806741407772
 30
0.0
 40
8.0
 41
0.0
 71
     5
 72
     1
  1
\A1;　
  0
POINT
  5
4EE7
330
4EDE
100
AcDbEntity
  8
DEFPOINTS
 62
     0
100
AcDbPoint
 10
42.721361774903
 20
318.538623667948
 30
0.0
  0
POINT
  5
4EE8
330
4EDE
100
AcDbEntity
  8
DEFPOINTS
 62
     0
100
AcDbPoint
 10
302.638468256273
 20
338.0
 30
0.0
  0
POINT
  5
4EE9
330
4EDE
100
AcDbEntity
  8
DEFPOINTS
 62
     0
100
AcDbPoint
 10
302.638468256273
 20
295.181741407772
 30
0.0
  0
ENDBLK
  5
4EE0
330
4EDE
100
AcDbEntity
  8
0
100
AcDbBlockEnd
  0
BLOCK
  5
4EEB
330
4EEA
100
AcDbEntity
  8
0
100
AcDbBlockBegin
  2
*D66
 70
     1
 10
0.0
 20
0.0
 30
0.0
  3
*D66
  1

  0
LINE
  5
4EED
330
4EEA
100
AcDbEntity
  8
寸法線
 62
     0
 48
10.0
100
AcDbLine
 10
42.721361774903
 20
406.789658855225
 30
0.0
 11
42.721361774903
 21
313.99659200722
 31
0.0
  0
LINE
  5
4EEE
330
4EEA
100
AcDbEntity
  8
寸法線
 62
     0
 48
10.0
100
AcDbLine
 10
142.721361774903
 20
405.789658855225
 30
0.0
 11
142.721361774903
 21
313.99659200722
 31
0.0
  0
LINE
  5
4EEF
330
4EEA
100
AcDbEntity
  8
寸法線
 62
     0
 48
10.0
100
AcDbLine
 10
48.721361774903
 20
315.24659200722
 30
0.0
 11
136.721361774903
 21
315.24659200722
 31
0.0
  0
INSERT
  5
4EF0
330
4EEA
100
AcDbEntity
  8
寸法線
 62
     0
100
AcDbBlockReference
  2
_OPEN30
 10
42.721361774903
 20
315.24659200722
 30
0.0
 41
6.0
 42
6.0
 43
6.0
 50
180.0
  0
INSERT
  5
4EF1
330
4EEA
100
AcDbEntity
  8
寸法線
 62
     0
100
AcDbBlockReference
  2
_OPEN30
 10
142.721361774903
 20
315.24659200722
 30
0.0
 41
6.0
 42
6.0
 43
6.0
  0
MTEXT
  5
4EF2
330
4EEA
100
AcDbEntity
  8
寸法線
 62
     0
 48
10.0
100
AcDbMText
 10
92.721361774903
 20
317.87159200722
 30
0.0
 40
4.0
 41
0.0
 71
     5
 72
     1
  1
\A1;1
  0
POINT
  5
4EF3
330
4EEA
100
AcDbEntity
  8
DEFPOINTS
 62
     0
100
AcDbPoint
 10
42.721361774903
 20
407.414658855225
 30
0.0
  0
POINT
  5
4EF4
330
4EEA
100
AcDbEntity
  8
DEFPOINTS
 62
     0
100
AcDbPoint
 10
142.721361774903
 20
406.414658855225
 30
0.0
  0
POINT
  5
4EF5
330
4EEA
100
AcDbEntity
  8
DEFPOINTS
 62
     0
100
AcDbPoint
 10
142.721361774903
 20
315.24659200722
 30
0.0
  0
ENDBLK
  5
4EEC
330
4EEA
100
AcDbEntity
  8
0
100
AcDbBlockEnd
  0
BLOCK
  5
4EF7
330
4EF6
100
AcDbEntity
  8
0
100
AcDbBlockBegin
  2
*D67
 70
     1
 10
0.0
 20
0.0
 30
0.0
  3
*D67
  1

  0
LINE
  5
4EF9
330
4EF6
100
AcDbEntity
  8
寸法線
 62
     0
 48
10.0
100
AcDbLine
 10
192.721361774903
 20
405.789658855225
 30
0.0
 11
192.721361774903
 21
313.99659200722
 31
0.0
  0
LINE
  5
4EFA
330
4EF6
100
AcDbEntity
  8
寸法線
 62
     0
 48
10.0
100
AcDbLine
 10
302.638468256273
 20
337.289658855224
 30
0.0
 11
302.638468256273
 21
313.99659200722
 31
0.0
  0
LINE
  5
4EFB
330
4EF6
100
AcDbEntity
  8
寸法線
 62
     0
 48
10.0
100
AcDbLine
 10
198.721361774903
 20
315.24659200722
 30
0.0
 11
296.638468256273
 21
315.24659200722
 31
0.0
  0
INSERT
  5
4EFC
330
4EF6
100
AcDbEntity
  8
寸法線
 62
     0
100
AcDbBlockReference
  2
_OPEN30
 10
192.721361774903
 20
315.24659200722
 30
0.0
 41
6.0
 42
6.0
 43
6.0
 50
180.0
  0
INSERT
  5
4EFD
330
4EF6
100
AcDbEntity
  8
寸法線
 62
     0
100
AcDbBlockReference
  2
_OPEN30
 10
302.638468256273
 20
315.24659200722
 30
0.0
 41
6.0
 42
6.0
 43
6.0
  0
MTEXT
  5
4EFE
330
4EF6
100
AcDbEntity
  8
寸法線
 62
     0
 48
10.0
100
AcDbMText
 10
247.679915015588
 20
317.873675340553
 30
0.0
 40
4.0
 41
0.0
 71
     5
 72
     1
  1
\A1;3
  0
POINT
  5
4EFF
330
4EF6
100
AcDbEntity
  8
DEFPOINTS
 62
     0
100
AcDbPoint
 10
192.721361774903
 20
406.414658855225
 30
0.0
  0
POINT
  5
4F00
330
4EF6
100
AcDbEntity
  8
DEFPOINTS
 62
     0
100
AcDbPoint
 10
302.638468256273
 20
337.914658855224
 30
0.0
  0
POINT
  5
4F01
330
4EF6
100
AcDbEntity
  8
DEFPOINTS
 62
     0
100
AcDbPoint
 10
302.638468256273
 20
315.24659200722
 30
0.0
  0
ENDBLK
  5
4EF8
330
4EF6
100
AcDbEntity
  8
0
100
AcDbBlockEnd
  0
BLOCK
  5
4F0F
330
4F0E
100
AcDbEntity
  8
0
100
AcDbBlockBegin
  2
*D69
 70
     1
 10
0.0
 20
0.0
 30
0.0
  3
*D69
  1

  0
LINE
  5
4F11
330
4F0E
100
AcDbEntity
  8
寸法線
 62
     0
 48
10.0
100
AcDbLine
 10
142.721361774903
 20
403.289658855225
 30
0.0
 11
142.721361774903
 21
313.99659200722
 31
0.0
  0
LINE
  5
4F12
330
4F0E
100
AcDbEntity
  8
寸法線
 62
     0
 48
10.0
100
AcDbLine
 10
192.721361774903
 20
403.289658855225
 30
0.0
 11
192.721361774903
 21
313.99659200722
 31
0.0
  0
LINE
  5
4F13
330
4F0E
100
AcDbEntity
  8
寸法線
 62
     0
 48
10.0
100
AcDbLine
 10
148.721361774903
 20
315.24659200722
 30
0.0
 11
186.721361774903
 21
315.24659200722
 31
0.0
  0
INSERT
  5
4F14
330
4F0E
100
AcDbEntity
  8
寸法線
 62
     0
100
AcDbBlockReference
  2
_OPEN30
 10
142.721361774903
 20
315.24659200722
 30
0.0
 41
6.0
 42
6.0
 43
6.0
 50
180.0
  0
INSERT
  5
4F15
330
4F0E
100
AcDbEntity
  8
寸法線
 62
     0
100
AcDbBlockReference
  2
_OPEN30
 10
192.721361774903
 20
315.24659200722
 30
0.0
 41
6.0
 42
6.0
 43
6.0
  0
MTEXT
  5
4F16
330
4F0E
100
AcDbEntity
  8
寸法線
 62
     0
 48
10.0
100
AcDbMText
 10
167.721361774903
 20
317.873675340553
 30
0.0
 40
4.0
 41
0.0
 71
     5
 72
     1
  1
\A1;2
  0
POINT
  5
4F17
330
4F0E
100
AcDbEntity
  8
DEFPOINTS
 62
     0
100
AcDbPoint
 10
142.721361774903
 20
403.914658855225
 30
0.0
  0
POINT
  5
4F18
330
4F0E
100
AcDbEntity
  8
DEFPOINTS
 62
     0
100
AcDbPoint
 10
192.721361774903
 20
403.914658855225
 30
0.0
  0
POINT
  5
4F19
330
4F0E
100
AcDbEntity
  8
DEFPOINTS
 62
     0
100
AcDbPoint
 10
192.721361774903
 20
315.24659200722
 30
0.0
  0
ENDBLK
  5
4F10
330
4F0E
100
AcDbEntity
  8
0
100
AcDbBlockEnd
  0
ENDSEC
  0
SECTION
  2
ENTITIES
  0
LINE
  5
2E01
330
1A
100
AcDbEntity
  8
下書線
100
AcDbLine
 10
591.218802400403
 20
509.002647469029
 30
0.0
 11
-106.181197599597
 21
509.002647469029
 31
0.0
  0
LINE
  5
40E4
102
{ACAD_REACTORS
330
43F3
102
}
330
1A
100
AcDbEntity
  8
外形線
 48
10.0
100
AcDbLine
 10
316.638468256273
 20
432.451056846624
 30
0.0
 11
327.638468256273
 21
432.451056846624
 31
0.0
  0
LINE
  5
40E5
102
{ACAD_REACTORS
330
43F3
102
}
330
1A
100
AcDbEntity
  8
外形線
 48
10.0
100
AcDbLine
 10
316.638468256273
 20
397.451056846624
 30
0.0
 11
327.638468256273
 21
397.451056846624
 31
0.0
  0
LWPOLYLINE
  5
40E7
102
{ACAD_REACTORS
330
43F3
102
}
330
1A
100
AcDbEntity
  8
外形線
 48
10.0
100
AcDbPolyline
 90
        8
 70
     1
 43
0.0
 10
303.138468256273
 20
337.5
 10
316.138468256273
 20
337.5
 10
316.638468256273
 20
338.0
 10
316.638468256273
 20
492.0
 10
316.138468256273
 20
492.5
 10
303.138468256273
 20
492.5
 10
302.638468256273
 20
492.0
 10
302.638468256273
 20
338.0
  0
LINE
  5
40E8
102
{ACAD_REACTORS
330
43F3
102
}
330
1A
100
AcDbEntity
  8
中心線
 48
10.0
100
AcDbLine
 10
297.138468256273
 20
480.000000000001
 30
0.0
 11
322.138468256273
 21
480.000000000001
 31
0.0
  0
LINE
  5
40E9
102
{ACAD_REACTORS
330
43F3
102
}
330
1A
100
AcDbEntity
  8
中心線
 48
10.0
100
AcDbLine
 10
297.138468256273
 20
350.000000000001
 30
0.0
 11
322.138468256273
 21
350.000000000001
 31
0.0
  0
DIMENSION
  5
417C
330
1A
100
AcDbEntity
  8
寸法線
 48
10.0
100
AcDbDimension
  2
*D10
 10
302.638468256273
 20
380.461376184522
 30
0.0
 11
285.247782831324
 21
380.461376184522
 31
0.0
 70
   160
  3
ISO-25
100
AcDbAlignedDimension
 13
299.638468256273
 23
357.5
 33
0.0
 14
302.638468256273
 24
357.5
 34
0.0
100
AcDbRotatedDimension
1001
ACAD
1000
DSTYLE
1002
{
1070
     5
1000
OPEN30
1070
    76
1070
     1
1070
    75
1070
     1
1070
    41
1040
6.0
1070
    47
1040
0.1
1070
    48
1040
0.1
1070
    73
1070
     0
1070
   140
1040
8.0
1070
   271
1070
     1
1070
   272
1070
     1
1070
   341
1005
2AF4
1002
}
  0
DIMENSION
  5
41B4
330
1A
100
AcDbEntity
  8
寸法線
 48
10.0
100
AcDbDimension
  2
*D11
 10
280.0
 20
357.5
 30
0.0
 11
280.0
 21
440.0
 31
0.0
 70
   160
  1
φ<>
  3
ISO-25
100
AcDbAlignedDimension
 13
299.638468256273
 23
472.5
 33
0.0
 14
299.638468256273
 24
357.5
 34
0.0
 50
90.0
100
AcDbRotatedDimension
1001
ACAD
1000
DSTYLE
1002
{
1070
     5
1000
OPEN30
1070
    41
1040
6.0
1070
    47
1040
0.1
1070
    48
1040
0.1
1070
    73
1070
     0
1070
   140
1040
8.0
1070
   271
1070
     1
1070
   272
1070
     1
1070
   341
1005
2AF4
1002
}
  0
LINE
  5
41F7
330
1A
100
AcDbEntity
  8
中心線
 48
10.0
100
AcDbLine
 10
17.275443344541
 20
415.0
 30
0.0
 11
439.550510280691
 21
415.0
 31
0.0
  0
LINE
  5
4395
102
{ACAD_REACTORS
330
43F3
102
}
330
1A
100
AcDbEntity
  8
外形線
 48
10.0
100
AcDbLine
 10
347.638468256273
 20
433.951056847663
 30
0.0
 11
347.638468256273
 21
395.949677306075
 31
0.0
  0
LINE
  5
4396
102
{ACAD_REACTORS
330
43F3
102
}
330
1A
100
AcDbEntity
  8
外形線
 48
10.0
100
AcDbLine
 10
327.638468256273
 20
433.951056847663
 30
0.0
 11
327.638468256273
 21
395.949677306075
 31
0.0
  0
ARC
  5
4397
102
{ACAD_REACTORS
330
43F3
102
}
330
1A
100
AcDbEntity
  8
細線
 48
10.0
100
AcDbCircle
 10
348.928994159277
 20
392.571936491046
 30
0.0
 40
21.5568
100
AcDbArc
 50
148.046790151163
 51
170.985160447973
  0
ARC
  5
4398
102
{ACAD_REACTORS
330
43F3
102
}
330
1A
100
AcDbEntity
  8
細線
 48
10.0
100
AcDbCircle
 10
326.347942353269
 20
392.571936491046
 30
0.0
 40
21.5568
100
AcDbArc
 50
9.014839552025
 51
31.953209848837
  0
ARC
  5
4399
102
{ACAD_REACTORS
330
43F3
102
}
330
1A
100
AcDbEntity
  8
外形線
 48
10.0
100
AcDbCircle
 10
331.123808278937
 20
409.804699214141
 30
0.0
 40
21.5568
100
AcDbArc
 50
308.824173789179
 51
320.004933775737
  0
ARC
  5
439A
102
{ACAD_REACTORS
330
43F3
102
}
330
1A
100
AcDbEntity
  8
外形線
 48
10.0
100
AcDbCircle
 10
344.153128233609
 20
409.804699214141
 30
0.0
 40
21.5568
100
AcDbArc
 50
219.995066224262
 51
231.17582621082
  0
ARC
  5
439B
102
{ACAD_REACTORS
330
43F3
102
}
330
1A
100
AcDbEntity
  8
細線
 48
10.0
100
AcDbCircle
 10
326.347942353269
 20
437.328797662692
 30
0.0
 40
21.5568
100
AcDbArc
 50
328.046790151163
 51
350.985160447974
  0
ARC
  5
439C
102
{ACAD_REACTORS
330
43F3
102
}
330
1A
100
AcDbEntity
  8
外形線
 48
10.0
100
AcDbCircle
 10
331.123808278938
 20
420.096034939597
 30
0.0
 40
21.5568
100
AcDbArc
 50
39.995066224263
 51
51.175826210821
  0
ARC
  5
439D
102
{ACAD_REACTORS
330
43F3
102
}
330
1A
100
AcDbEntity
  8
外形線
 48
10.0
100
AcDbCircle
 10
344.153128233609
 20
420.096034939597
 30
0.0
 40
21.5568
100
AcDbArc
 50
128.824173789179
 51
140.004933775737
  0
ARC
  5
439E
102
{ACAD_REACTORS
330
43F3
102
}
330
1A
100
AcDbEntity
  8
細線
 48
10.0
100
AcDbCircle
 10
348.928994159277
 20
437.328797662692
 30
0.0
 40
21.5568
100
AcDbArc
 50
189.014839552026
 51
211.953209848837
  0
LINE
  5
439F
102
{ACAD_REACTORS
330
43F3
102
}
330
1A
100
AcDbEntity
  8
外形線
 48
10.0
100
AcDbLine
 10
330.638468256273
 20
393.011746618458
 30
0.0
 11
344.638468256273
 21
393.011746618458
 31
0.0
  0
LINE
  5
43A0
102
{ACAD_REACTORS
330
43F3
102
}
330
1A
100
AcDbEntity
  8
外形線
 48
10.0
100
AcDbLine
 10
330.638468256273
 20
436.890367076869
 30
0.0
 11
344.638468256273
 21
436.890367076869
 31
0.0
  0
ARC
  5
43A1
102
{ACAD_REACTORS
330
43F3
102
}
330
1A
100
AcDbEntity
  8
細線
 48
10.0
100
AcDbCircle
 10
326.081651668904
 20
414.950367076869
 30
0.0
 40
21.55681659840436
100
AcDbArc
 50
329.410227986311
 51
30.589772013689
  0
ARC
  5
43A2
102
{ACAD_REACTORS
330
43F3
102
}
330
1A
100
AcDbEntity
  8
細線
 48
10.0
100
AcDbCircle
 10
349.195284843643
 20
414.950367076869
 30
0.0
 40
21.5568165984052
100
AcDbArc
 50
149.410227986311
 51
210.589772013689
  0
LINE
  5
43B9
102
{ACAD_REACTORS
330
43F3
102
}
330
1A
100
AcDbEntity
  8
細線
100
AcDbLine
 10
330.638468256273
 20
403.980367076869
 30
0.0
 11
344.638468256273
 21
403.980367076869
 31
0.0
  0
LINE
  5
43BA
102
{ACAD_REACTORS
330
43F3
102
}
330
1A
100
AcDbEntity
  8
細線
100
AcDbLine
 10
330.638468256273
 20
425.920367076869
 30
0.0
 11
344.638468256273
 21
425.920367076869
 31
0.0
  0
DIMENSION
  5
46CD
330
1A
100
AcDbEntity
  8
寸法線
 48
10.0
100
AcDbDimension
  2
*D20
 10
347.638468256273
 20
315.24659200722
 30
0.0
 11
337.638468256273
 21
319.872379408795
 31
0.0
 70
    32
  3
ISO-25
100
AcDbAlignedDimension
 13
327.638468256273
 23
395.949677306075
 33
0.0
 14
347.638468256273
 24
395.949677306074
 34
0.0
100
AcDbRotatedDimension
1001
ACAD
1000
DSTYLE
1002
{
1070
     5
1000
OPEN30
1070
    41
1040
6.0
1070
    47
1040
0.1
1070
    48
1040
0.1
1070
    73
1070
     0
1070
   140
1040
8.0
1070
   271
1070
     1
1070
   272
1070
     1
1070
   341
1005
2AF4
1002
}
  0
DIMENSION
  5
46DA
330
1A
100
AcDbEntity
  8
寸法線
 48
10.0
100
AcDbDimension
  2
*D21
 10
327.638468256273
 20
315.24659200722
 30
0.0
 11
315.138468256273
 21
315.24659200722
 31
0.0
 70
   160
  3
ISO-25
100
AcDbAlignedDimension
 13
302.638468256273
 23
338.0
 33
0.0
 14
327.638468256273
 24
395.949677306075
 34
0.0
100
AcDbRotatedDimension
1001
ACAD
1000
DSTYLE
1002
{
1070
     5
1000
OPEN30
1070
    41
1040
6.0
1070
    47
1040
0.1
1070
    48
1040
0.1
1070
    73
1070
     0
1070
   140
1040
8.0
1070
   271
1070
     1
1070
   272
1070
     1
1070
   341
1005
2AF4
1002
}
  0
LINE
  5
470D
330
1A
100
AcDbEntity
  8
外形線
 48
10.0
100
AcDbLine
 10
299.638468256273
 20
357.5
 30
0.0
 11
302.638468256273
 21
357.5
 31
0.0
  0
LINE
  5
470E
330
1A
100
AcDbEntity
  8
外形線
 48
10.0
100
AcDbLine
 10
302.638468256273
 20
365.038623815478
 30
0.0
 11
302.638468256273
 21
465.038623815478
 31
0.0
  0
LINE
  5
470F
330
1A
100
AcDbEntity
  8
外形線
 48
10.0
100
AcDbLine
 10
302.638468256273
 20
472.5
 30
0.0
 11
299.638468256273
 21
472.5
 31
0.0
  0
LINE
  5
4710
330
1A
100
AcDbEntity
  8
外形線
 48
10.0
100
AcDbLine
 10
299.638468256273
 20
472.5
 30
0.0
 11
299.638468256273
 21
357.5
 31
0.0
  0
LINE
  5
4712
330
1A
100
AcDbEntity
  8
外形線
 48
10.0
100
AcDbLine
 10
299.638468256273
 20
404.02862381535
 30
0.0
 11
299.638468256273
 21
426.02862381535
 31
0.0
  0
DIMENSION
  5
48A2
330
1A
100
AcDbEntity
  8
寸法線
 48
10.0
100
AcDbDimension
  2
*D37
 10
437.638503829948
 20
315.24659200722
 30
0.0
 11
392.63848604311
 21
319.87159200722
 31
0.0
 70
    32
  3
ISO-25
100
AcDbAlignedDimension
 13
347.638468256273
 23
396.0
 33
0.0
 14
437.638503829948
 24
383.955570906421
 34
0.0
100
AcDbRotatedDimension
1001
ACAD
1000
DSTYLE
1002
{
1070
     5
1000
OPEN30
1070
    41
1040
6.0
1070
    47
1040
0.1
1070
    48
1040
0.1
1070
    73
1070
     0
1070
   140
1040
8.0
1070
   271
1070
     1
1070
   272
1070
     1
1070
   341
1005
2AF4
1002
}
  0
DIMENSION
  5
48AF
330
1A
100
AcDbEntity
  8
寸法線
 48
10.0
100
AcDbDimension
  2
*D39
 10
460.375
 20
369.0
 30
0.0
 11
460.375
 21
411.500018555838
 31
0.0
 70
   160
  3
ISO-25
100
AcDbAlignedDimension
 13
402.761506966404
 23
454.000037111675
 33
0.0
 14
423.280468256273
 24
369.0
 34
0.0
 50
90.0
100
AcDbRotatedDimension
1001
ACAD
1000
DSTYLE
1002
{
1070
     5
1000
OPEN30
1070
    41
1040
6.0
1070
    47
1040
0.1
1070
    48
1040
0.1
1070
    73
1070
     0
1070
   140
1040
8.0
1070
   271
1070
     1
1070
   272
1070
     1
1070
   341
1005
2AF4
1002
}
  0
LINE
  5
48B0
330
1A
100
AcDbEntity
  8
外形線
 48
10.0
100
AcDbLine
 10
381.780468256273
 20
386.0
 30
0.0
 11
391.280468256273
 21
386.0
 31
0.0
  0
LINE
  5
48B1
330
1A
100
AcDbEntity
  8
外形線
 48
10.0
100
AcDbLine
 10
352.138468256273
 20
397.5
 30
0.0
 11
372.280468256273
 21
397.5
 31
0.0
  0
LINE
  5
48B2
330
1A
100
AcDbEntity
  8
外形線
 48
10.0
100
AcDbLine
 10
352.138468256273
 20
432.5
 30
0.0
 11
372.280468256273
 21
432.5
 31
0.0
  0
LINE
  5
48B3
330
1A
100
AcDbEntity
  8
外形線
 48
10.0
100
AcDbLine
 10
381.780468256273
 20
444.0
 30
0.0
 11
395.321601622723
 21
444.0
 31
0.0
  0
LINE
  5
48B4
330
1A
100
AcDbEntity
  8
外形線
 48
10.0
100
AcDbLine
 10
394.501532364416
 20
450.508213196717
 30
0.0
 11
428.95811674645
 21
381.396796519912
 31
0.0
  0
ARC
  5
48B5
330
1A
100
AcDbEntity
  8
外形線
 48
10.0
100
AcDbCircle
 10
322.01779234723
 20
370.256498377025
 30
0.0
 40
116.880564807258
100
AcDbArc
 50
8.420101953746
 51
45.185262866739
  0
LINE
  5
48B6
330
1A
100
AcDbEntity
  8
外形線
 48
10.0
100
AcDbLine
 10
394.501532364416
 20
450.508213196717
 30
0.0
 11
400.94855521396
 21
453.7225802162
 31
0.0
  0
LINE
  5
48B7
330
1A
100
AcDbEntity
  8
中心線
 48
10.0
100
AcDbLine
 10
408.280468256273
 20
395.0
 30
0.0
 11
408.280468256273
 21
355.98880163441
 31
0.0
  0
LINE
  5
48B8
330
1A
100
AcDbEntity
  8
外形線
100
AcDbLine
 10
424.280468256273
 20
370.0
 30
0.0
 11
424.280468256273
 21
386.0
 31
0.0
  0
LINE
  5
48B9
330
1A
100
AcDbEntity
  8
外形線
100
AcDbLine
 10
436.878766730146
 20
424.080133103064
 30
0.0
 11
439.33285470225
 21
419.157994114252
 31
0.0
  0
LINE
  5
48BA
330
1A
100
AcDbEntity
  8
外形線
100
AcDbLine
 10
433.309184225267
 20
431.23960799588
 30
0.0
 11
430.855096253163
 21
436.161746984691
 31
0.0
  0
LINE
  5
48BB
330
1A
100
AcDbEntity
  8
外形線
100
AcDbLine
 10
430.855096253163
 20
436.161746984691
 30
0.0
 11
421.623135479237
 21
431.558861136541
 31
0.0
  0
LINE
  5
48BC
330
1A
100
AcDbEntity
  8
外形線
100
AcDbLine
 10
424.359840609247
 20
426.777629864782
 30
0.0
 11
433.309184225267
 21
431.23960799588
 31
0.0
  0
LINE
  5
48BD
330
1A
100
AcDbEntity
  8
外形線
100
AcDbLine
 10
427.929423114125
 20
419.618154971966
 30
0.0
 11
436.878766730146
 21
424.080133103064
 31
0.0
  0
LINE
  5
48BE
330
1A
100
AcDbEntity
  8
外形線
100
AcDbLine
 10
439.33285470225
 20
419.157994114252
 30
0.0
 11
430.100893928323
 21
414.555108266102
 31
0.0
  0
LINE
  5
48BF
330
1A
100
AcDbEntity
  8
外形線
100
AcDbLine
 10
428.95811674645
 20
381.396796519912
 30
0.0
 11
436.00411622853
 21
384.909802272031
 31
0.0
  0
ARC
  5
48C0
330
1A
100
AcDbEntity
  8
外形線
100
AcDbCircle
 10
434.6655227892
 20
387.594605356838
 30
0.0
 40
3.0
100
AcDbArc
 50
296.499999999995
 51
7.695516969253
  0
ARC
  5
48C1
330
1A
100
AcDbEntity
  8
外形線
100
AcDbCircle
 10
402.28714865329
 20
451.037777131394
 30
0.0
 40
3.0
100
AcDbArc
 50
45.30448303075
 51
116.499999999995
  0
ARC
  5
48C2
330
1A
100
AcDbEntity
  8
外形線
100
AcDbCircle
 10
381.780468256273
 20
394.0
 30
0.0
 40
8.0
100
AcDbArc
 50
180.0
 51
270.0
  0
ARC
  5
48C3
330
1A
100
AcDbEntity
  8
外形線
100
AcDbCircle
 10
381.780468256273
 20
436.0
 30
0.0
 40
8.0
100
AcDbArc
 50
90.0
 51
180.0
  0
ARC
  5
48C4
330
1A
100
AcDbEntity
  8
外形線
100
AcDbCircle
 10
391.280468256273
 20
385.0
 30
0.0
 40
1.0
100
AcDbArc
 50
0.0
 51
90.0
  0
LINE
  5
48C5
330
1A
100
AcDbEntity
  8
外形線
100
AcDbLine
 10
392.280468256273
 20
370.0
 30
0.0
 11
392.280468256273
 21
385.0
 31
0.0
  0
LINE
  5
48C6
330
1A
100
AcDbEntity
  8
外形線
100
AcDbLine
 10
392.280468256273
 20
370.0
 30
0.0
 11
393.280468256273
 21
369.0
 31
0.0
  0
LINE
  5
48C7
330
1A
100
AcDbEntity
  8
外形線
100
AcDbLine
 10
393.280468256273
 20
369.0
 30
0.0
 11
423.280468256273
 21
369.0
 31
0.0
  0
LINE
  5
48C8
330
1A
100
AcDbEntity
  8
外形線
100
AcDbLine
 10
423.280468256273
 20
369.0
 30
0.0
 11
424.280468256273
 21
370.0
 31
0.0
  0
ARC
  5
48C9
330
1A
100
AcDbEntity
  8
細線
100
AcDbCircle
 10
408.277668664875
 20
355.98880163441
 30
0.0
 40
34.01119848081266
100
AcDbArc
 50
63.82505009863
 51
116.164440091244
  0
LINE
  5
48CA
330
1A
100
AcDbEntity
  8
外形線
100
AcDbLine
 10
424.731301547788
 20
385.095768307068
 30
0.0
 11
394.911901697659
 21
444.904231692932
 31
0.0
  0
LINE
  5
48CB
330
1A
100
AcDbEntity
  8
外形線
100
AcDbLine
 10
396.820124630369
 20
445.855636551246
 30
0.0
 11
426.639524480497
 21
386.047173165383
 31
0.0
  0
LINE
  5
48CC
330
1A
100
AcDbEntity
  8
外形線
100
AcDbLine
 10
394.911901697659
 20
444.904231692932
 30
0.0
 11
396.820124630369
 21
445.855636551246
 31
0.0
  0
LINE
  5
48CD
330
1A
100
AcDbEntity
  8
外形線
100
AcDbLine
 10
424.731301547788
 20
385.095768307068
 30
0.0
 11
426.639524480497
 21
386.047173165383
 31
0.0
  0
ARC
  5
48CE
330
1A
100
AcDbEntity
  8
外形線
100
AcDbCircle
 10
372.280468256273
 20
434.0
 30
0.0
 40
1.5
100
AcDbArc
 50
270.0
 51
0.0
  0
ARC
  5
48CF
330
1A
100
AcDbEntity
  8
外形線
100
AcDbCircle
 10
372.280468256273
 20
396.0
 30
0.0
 40
1.5
100
AcDbArc
 50
0.0
 51
90.0
  0
LINE
  5
48D0
330
1A
100
AcDbEntity
  8
外形線
100
AcDbLine
 10
373.780468256273
 20
436.0
 30
0.0
 11
373.780468256273
 21
394.0
 31
0.0
  0
ARC
  5
48D1
330
1A
100
AcDbEntity
  8
外形線
100
AcDbCircle
 10
352.138468256273
 20
399.0
 30
0.0
 40
1.5
100
AcDbArc
 50
180.0
 51
270.0
  0
ARC
  5
48D2
330
1A
100
AcDbEntity
  8
外形線
100
AcDbCircle
 10
352.138468256273
 20
431.0
 30
0.0
 40
1.5
100
AcDbArc
 50
90.0
 51
180.0
  0
LINE
  5
48D3
330
1A
100
AcDbEntity
  8
外形線
100
AcDbLine
 10
350.638468256273
 20
431.0
 30
0.0
 11
350.638468256273
 21
399.0
 31
0.0
  0
LWPOLYLINE
  5
4900
330
1A
100
AcDbEntity
  8
外形線
100
AcDbPolyline
 90
        4
 70
     1
 43
0.0
 10
347.638468256273
 20
396.0
 10
350.638468256273
 20
396.0
 10
350.638468256273
 20
434.0
 10
347.638468256273
 20
434.0
  0
LINE
  5
4B77
330
1A
100
AcDbEntity
  8
寸法線
100
AcDbLine
 10
53.888591464289
 20
172.098469494204
 30
0.0
 11
625.626391176912
 21
172.098469494204
 31
0.0
  0
LINE
  5
4B79
330
1A
100
AcDbEntity
  8
寸法線
100
AcDbLine
 10
53.888591464289
 20
263.466852247242
 30
0.0
 11
625.626391176912
 21
263.466852247242
 31
0.0
  0
LINE
  5
4B7A
330
1A
100
AcDbEntity
  8
寸法線
100
AcDbLine
 10
53.888591464289
 20
277.536852247242
 30
0.0
 11
625.626391176912
 21
277.536852247242
 31
0.0
  0
LINE
  5
4B7D
330
1A
100
AcDbEntity
  8
寸法線
100
AcDbLine
 10
53.888591464289
 20
237.361600032089
 30
0.0
 11
625.626391176912
 21
237.361600032089
 31
0.0
  0
LINE
  5
4B7E
330
1A
100
AcDbEntity
  8
寸法線
100
AcDbLine
 10
53.888591464289
 20
224.308973924512
 30
0.0
 11
625.626391176912
 21
224.308973924512
 31
0.0
  0
LINE
  5
4B7F
330
1A
100
AcDbEntity
  8
寸法線
100
AcDbLine
 10
53.888591464289
 20
211.256347816936
 30
0.0
 11
625.626391176912
 21
211.256347816936
 31
0.0
  0
LINE
  5
4B80
330
1A
100
AcDbEntity
  8
寸法線
100
AcDbLine
 10
53.888591464289
 20
198.203721709358
 30
0.0
 11
625.626391176912
 21
198.203721709358
 31
0.0
  0
LINE
  5
4B81
330
1A
100
AcDbEntity
  8
寸法線
100
AcDbLine
 10
53.888591464289
 20
185.151095601781
 30
0.0
 11
625.626391176912
 21
185.151095601781
 31
0.0
  0
LINE
  5
4B83
330
1A
100
AcDbEntity
  8
寸法線
100
AcDbLine
 10
53.888591464289
 20
250.414226139666
 30
0.0
 11
625.626391176912
 21
250.414226139666
 31
0.0
  0
MTEXT
  5
4B84
102
{ACAD_XDICTIONARY
360
4B85
102
}
330
1A
100
AcDbEntity
  8
寸法線
 48
10.0
100
AcDbMText
 10
125.337425863108
 20
274.680071215848
 30
0.0
 40
8.0
 41
78.897728797637
 71
     2
 72
     5
  1
\PTSS-A8FA-025\PTSS-A8FA-030\PTSS-A8FA-035\PTSS-A8FA-040\PTSS-A8FA-045\PTSS-A8FA-050\PTSS-A8FA-055\PTSS-A8FA-060
1001
ACADANNOTATIVE
1000
AnnotativeData
1002
{
1070
     1
1070
     0
1002
}
1001
ACAD
1000
MTEXTBEGIN
1070
    44
1040
0.99
1000
MTEXTEND
  0
MTEXT
  5
4B99
102
{ACAD_XDICTIONARY
360
4B9A
102
}
330
1A
100
AcDbEntity
  8
寸法線
 48
10.0
100
AcDbMText
 10
412.473575743757
 20
274.680071215848
 30
0.0
 40
8.0
 41
78.897728797637
 71
     2
 72
     5
  1
\PTSS-A8FA-065\PTSS-A8FA-070\PTSS-A8FA-075\PTSS-A8FA-080\PTSS-A8FA-085\PTSS-A8FA-090\PTSS-A8FA-095\PTSS-A8FA-100
1001
ACADANNOTATIVE
1000
AnnotativeData
1002
{
1070
     1
1070
     0
1002
}
1001
ACAD
1000
MTEXTBEGIN
1070
    44
1040
0.99
1000
MTEXTEND
  0
LINE
  5
4BAF
330
1A
100
AcDbEntity
  8
寸法線
100
AcDbLine
 10
53.888591464289
 20
159.045843386627
 30
0.0
 11
625.626391176912
 21
159.045843386627
 31
0.0
  0
MTEXT
  5
4BB0
102
{ACAD_XDICTIONARY
360
4BB1
102
}
330
1A
100
AcDbEntity
  8
寸法線
 48
10.0
100
AcDbMText
 10
178.6903009689
 20
260.427424605781
 30
0.0
 40
8.0
 41
23.854899029718
 71
     2
 72
     5
  1
250\P300\P350\P400\P450\P500\P550\P600
1001
ACADANNOTATIVE
1000
AnnotativeData
1002
{
1070
     1
1070
     0
1002
}
1001
ACAD
1000
MTEXTBEGIN
1070
    44
1040
0.98
1000
MTEXTEND
  0
MTEXT
  5
4BB4
102
{ACAD_XDICTIONARY
360
4BB5
102
}
330
1A
100
AcDbEntity
  8
寸法線
 48
10.0
100
AcDbMText
 10
204.428754440188
 20
260.427424605781
 30
0.0
 40
8.0
 41
23.854899029718
 71
     2
 72
     5
  1
100\P100\P100\P100\P100\P100\P150\P150
1001
ACADANNOTATIVE
1000
AnnotativeData
1002
{
1070
     1
1070
     0
1002
}
1001
ACAD
1000
MTEXTBEGIN
1070
    44
1040
0.98
1000
MTEXTEND
  0
MTEXT
  5
4BB8
102
{ACAD_XDICTIONARY
360
4BB9
102
}
330
1A
100
AcDbEntity
  8
寸法線
 48
10.0
100
AcDbMText
 10
228.627517142738
 20
260.427424605781
 30
0.0
 40
8.0
 41
23.854899029718
 71
     2
 72
     5
  1
50\P50\P50\P50\P50\P50\P50\P50
1001
ACADANNOTATIVE
1000
AnnotativeData
1002
{
1070
     1
1070
     0
1002
}
1001
ACAD
1000
MTEXTBEGIN
1070
    44
1040
0.98
1000
MTEXTEND
  0
MTEXT
  5
4BBC
102
{ACAD_XDICTIONARY
360
4BBD
102
}
330
1A
100
AcDbEntity
  8
寸法線
 48
10.0
100
AcDbMText
 10
254.746851903419
 20
260.427424605781
 30
0.0
 40
8.0
 41
23.854899029718
 71
     2
 72
     5
  1
100\P150\P200\P250\P300\P350\P350\P400
1001
ACADANNOTATIVE
1000
AnnotativeData
1002
{
1070
     1
1070
     0
1002
}
1001
ACAD
1000
MTEXTBEGIN
1070
    44
1040
0.98
1000
MTEXTEND
  0
MTEXT
  5
4BC0
102
{ACAD_XDICTIONARY
360
4BC1
102
}
330
1A
100
AcDbEntity
  8
寸法線
 48
10.0
100
AcDbMText
 10
492.040700701832
 20
260.427424605781
 30
0.0
 40
8.0
 41
23.854899029718
 71
     2
 72
     5
  1
150\P150\P150\P150\P150\P150\P150\P150
1001
ACADANNOTATIVE
1000
AnnotativeData
1002
{
1070
     1
1070
     0
1002
}
1001
ACAD
1000
MTEXTBEGIN
1070
    44
1040
0.98
1000
MTEXTEND
  0
MTEXT
  5
4BC4
102
{ACAD_XDICTIONARY
360
4BC5
102
}
330
1A
100
AcDbEntity
  8
寸法線
 48
10.0
100
AcDbMText
 10
517.033488693961
 20
260.427424605781
 30
0.0
 40
8.0
 41
23.854899029718
 71
     2
 72
     5
  1
50\P50\P50\P50\P50\P50\P50\P50
1001
ACADANNOTATIVE
1000
AnnotativeData
1002
{
1070
     1
1070
     0
1002
}
1001
ACAD
1000
MTEXTBEGIN
1070
    44
1040
0.98
1000
MTEXTEND
  0
MTEXT
  5
4BC8
102
{ACAD_XDICTIONARY
360
4BC9
102
}
330
1A
100
AcDbEntity
  8
寸法線
 48
10.0
100
AcDbMText
 10
541.272110986275
 20
260.427424605781
 30
0.0
 40
8.0
 41
23.854899029718
 71
     2
 72
     5
  1
450\P500\P550\P600\P650\P700\P750\P800
1001
ACADANNOTATIVE
1000
AnnotativeData
1002
{
1070
     1
1070
     0
1002
}
1001
ACAD
1000
MTEXTBEGIN
1070
    44
1040
0.98
1000
MTEXTEND
  0
MTEXT
  5
4BCC
102
{ACAD_XDICTIONARY
360
4BCD
102
}
330
1A
100
AcDbEntity
  8
寸法線
 48
10.0
100
AcDbMText
 10
465.539581310072
 20
260.427424605781
 30
0.0
 40
8.0
 41
23.854899029718
 71
     2
 72
     5
  1
650\P700\P750\P800\P850\P900\P950\P1000
1001
ACADANNOTATIVE
1000
AnnotativeData
1002
{
1070
     1
1070
     0
1002
}
1001
ACAD
1000
MTEXTBEGIN
1070
    44
1040
0.98
1000
MTEXTEND
  0
DIMENSION
  5
4BD6
330
1A
100
AcDbEntity
  8
寸法線
 48
10.0
100
AcDbDimension
  2
*D41
 10
437.638503829948
 20
295.181741407772
 30
0.0
 11
370.13848604311
 21
299.810908074439
 31
0.0
 70
    32
  3
ISO-25
100
AcDbAlignedDimension
 13
302.638468256273
 23
315.24659200722
 33
0.0
 14
437.638503829948
 24
315.24659200722
 34
0.0
100
AcDbRotatedDimension
1001
ACAD
1000
DSTYLE
1002
{
1070
     5
1000
OPEN30
1070
    41
1040
6.0
1070
   271
1070
     1
1070
   341
1005
2AF4
1070
   272
1070
     1
1070
    73
1070
     0
1070
    48
1040
0.1
1070
    47
1040
0.1
1070
   140
1040
8.0
1002
}
  0
LINE
  5
4E0F
330
1A
100
AcDbEntity
  8
隠れ線
 48
10.0
100
AcDbLine
 10
302.638468256273
 20
406.453282670702
 30
0.0
 11
302.638468256273
 21
423.453282670702
 31
0.0
  0
SPLINE
  5
4E11
330
1A
100
AcDbEntity
  8
寸法線
 48
10.0
100
AcDbSpline
210
0.0
220
0.0
230
1.0
 70
  1064
 71
     3
 72
    13
 73
     9
 74
     7
 42
0.000000001
 43
0.0000000001
 44
0.0000000001
 40
0.0
 40
0.0
 40
0.0
 40
0.0
 40
3.223685095176967
 40
8.435450993908228
 40
12.63609189519645
 40
15.54126966359062
 40
17.0860950518407
 40
18.20640635868966
 40
18.20640635868966
 40
18.20640635868966
 40
18.20640635868966
 10
87.57868525972142
 20
316.1634075879489
 30
0.0
 10
88.5373473225199
 20
316.606251891771
 30
0.0
 10
91.04588851426172
 20
317.7650472804429
 30
0.0
 10
91.65037661095272
 20
325.8545535284601
 30
0.0
 10
88.07464659354676
 20
320.0362927794215
 30
0.0
 10
88.23122495372978
 20
317.0826404534503
 30
0.0
 10
90.11511740613818
 20
315.9255322018049
 30
0.0
 10
90.94839384089815
 20
316.3423659144135
 30
0.0
 10
91.29866818641639
 20
316.5175852651395
 30
0.0
 11
87.57868525972142
 21
316.1634075879489
 31
0.0
 11
90.14724474422033
 21
318.1113931544912
 31
0.0
 11
90.72295646531822
 21
323.2912637896874
 31
0.0
 11
88.4643961018107
 21
319.7494720021922
 31
0.0
 11
88.86296608950383
 21
316.871764610729
 31
0.0
 11
90.23581561092274
 21
316.1634075879489
 31
0.0
 11
91.29866818641639
 21
316.5175852651395
 31
0.0
  0
SPLINE
  5
4E12
330
1A
100
AcDbEntity
  8
寸法線
 48
10.0
100
AcDbSpline
210
0.0
220
0.0
230
1.0
 70
  1064
 71
     3
 72
    13
 73
     9
 74
     7
 42
0.000000001
 43
0.0000000001
 44
0.0000000001
 40
0.0
 40
0.0
 40
0.0
 40
0.0
 40
3.223685095176967
 40
8.435450993908228
 40
12.63609189519645
 40
15.54126966359062
 40
17.0860950518407
 40
18.20640635868966
 40
18.20640635868966
 40
18.20640635868966
 40
18.20640635868966
 10
166.3008718416134
 20
296.2734088175071
 30
0.0
 10
167.2595339044119
 20
296.7162531213291
 30
0.0
 10
169.7680750961537
 20
297.8750485100011
 30
0.0
 10
170.3725631928446
 20
305.964554758018
 30
0.0
 10
166.7968331754387
 20
300.1462940089797
 30
0.0
 10
166.9534115356217
 20
297.1926416830083
 30
0.0
 10
168.8373039880302
 20
296.0355334313631
 30
0.0
 10
169.6705804227901
 20
296.4523671439716
 30
0.0
 10
170.0208547683083
 20
296.6275864946977
 30
0.0
 11
166.3008718416134
 21
296.2734088175071
 31
0.0
 11
168.8694313261123
 21
298.2213943840493
 31
0.0
 11
169.4451430472102
 21
303.4012650192456
 31
0.0
 11
167.1865826837027
 21
299.8594732317504
 31
0.0
 11
167.5851526713958
 21
296.9817658402872
 31
0.0
 11
168.9580021928147
 21
296.2734088175071
 31
0.0
 11
170.0208547683083
 21
296.6275864946977
 31
0.0
  0
SPLINE
  5
4E13
330
1A
100
AcDbEntity
  8
寸法線
 48
10.0
100
AcDbSpline
210
0.0
220
0.0
230
1.0
 70
  1064
 71
     3
 72
    13
 73
     9
 74
     7
 42
0.000000001
 43
0.0000000001
 44
0.0000000001
 40
0.0
 40
0.0
 40
0.0
 40
0.0
 40
3.223685095176967
 40
8.435450993908228
 40
12.63609189519648
 40
15.54126966359066
 40
17.08609505184069
 40
18.2064063586897
 40
18.2064063586897
 40
18.2064063586897
 40
18.2064063586897
 10
241.9624029635734
 20
316.2489356855771
 30
0.0
 10
242.9210650263719
 20
316.6917799893991
 30
0.0
 10
245.4296062181136
 20
317.8505753780711
 30
0.0
 10
246.0340943148048
 20
325.9400816260884
 30
0.0
 10
242.4583642973986
 20
320.1218208770497
 30
0.0
 10
242.6149426575817
 20
317.1681685510783
 30
0.0
 10
244.49883510999
 20
316.011060299433
 30
0.0
 10
245.3321115447501
 20
316.4278940120417
 30
0.0
 10
245.6823858902684
 20
316.6031133627677
 30
0.0
 11
241.9624029635734
 21
316.2489356855771
 31
0.0
 11
244.5309624480723
 21
318.1969212521194
 31
0.0
 11
245.1066741691702
 21
323.3767918873156
 31
0.0
 11
242.8481138056626
 21
319.8350000998204
 31
0.0
 11
243.2466837933558
 21
316.9572927083572
 31
0.0
 11
244.6195333147747
 21
316.2489356855771
 31
0.0
 11
245.6823858902684
 21
316.6031133627677
 31
0.0
  0
LWPOLYLINE
  5
4E14
330
1A
100
AcDbEntity
  8
外形線
 48
10.0
100
AcDbPolyline
 90
        2
 70
     0
 43
0.0
 10
104.236873945587
 20
403.914658855225
 10
160.997035620149
 20
403.914658855225
  0
LWPOLYLINE
  5
4E15
330
1A
100
AcDbEntity
  8
隠れ線
 48
10.0
100
AcDbPolyline
 90
        4
 70
     0
 43
0.0
 10
105.694124954814
 20
406.414658855225
 10
142.721361774903
 20
406.414658855225
 10
142.721361774903
 20
423.414658855225
 10
102.77962293636
 20
423.414658855225
  0
LWPOLYLINE
  5
4E16
330
1A
100
AcDbEntity
  8
外形線
 48
10.0
100
AcDbPolyline
 90
        6
 70
     0
 43
0.0
 10
87.205623945587
 20
425.914658855225
 10
33.721361774903
 20
425.914658855225
 42
0.414213562373
 10
22.721361774903
 20
414.914658855225
 10
22.721361774903
 20
414.914658855225
 42
0.414213562373
 10
33.721361774903
 20
403.914658855225
 10
87.205623945587
 20
403.914658855225
  0
ARC
  5
4E17
330
1A
100
AcDbEntity
  8
細線
 48
10.0
100
AcDbCircle
 10
80.643123945587
 20
420.414658855225
 30
0.0
 40
8.562500000000037
100
AcDbArc
 50
20.714274763079
 51
39.9662130438
  0
LINE
  5
4E18
330
1A
100
AcDbEntity
  8
細線
 48
10.0
100
AcDbLine
 10
92.221248945587
 20
423.443282670574
 30
0.0
 11
85.759138739264
 21
423.443282670574
 31
0.0
  0
LINE
  5
4E19
330
1A
100
AcDbEntity
  8
細線
 48
10.0
100
AcDbLine
 10
99.221248945587
 20
423.443282670574
 30
0.0
 11
102.790388739264
 21
423.443282670575
 31
0.0
  0
ARC
  5
4E1A
330
1A
100
AcDbEntity
  8
細線
 48
10.0
100
AcDbCircle
 10
110.799373945587
 20
409.414658855225
 30
0.0
 40
8.562500000000037
100
AcDbArc
 50
200.305277337843
 51
219.966213043798
  0
LINE
  5
4E1B
330
1A
100
AcDbEntity
  8
細線
 48
10.0
100
AcDbLine
 10
99.255567923778
 20
406.414658855225
 30
0.0
 11
105.704774297954
 21
406.443282670574
 31
0.0
  0
LINE
  5
4E1C
330
1A
100
AcDbEntity
  8
細線
 48
10.0
100
AcDbLine
 10
92.221248945587
 20
406.443282670574
 30
0.0
 11
88.673524297954
 21
406.443282670574
 31
0.0
  0
ARC
  5
4E1D
330
1A
100
AcDbEntity
  8
細線
 48
10.0
100
AcDbCircle
 10
80.643123945587
 20
409.414658855225
 30
0.0
 40
8.562500000000037
100
AcDbArc
 50
320.033786956202
 51
39.9662130438
  0
ARC
  5
4E1E
330
1A
100
AcDbEntity
  8
細線
 48
10.0
100
AcDbCircle
 10
97.674373945587
 20
409.414658855225
 30
0.0
 40
8.562500000000037
100
AcDbArc
 50
320.0337869562
 51
39.966213043798
  0
ARC
  5
4E1F
330
1A
100
AcDbEntity
  8
細線
 48
10.0
100
AcDbCircle
 10
88.705623945587
 20
410.693282670574
 30
0.0
 40
5.515625000000036
100
AcDbArc
 50
309.597752709047
 51
50.402247290953
  0
ARC
  5
4E20
330
1A
100
AcDbEntity
  8
細線
 48
10.0
100
AcDbCircle
 10
95.705623945587
 20
410.693282670574
 30
0.0
 40
5.515625000000036
100
AcDbArc
 50
309.597752709047
 51
50.402247290953
  0
ARC
  5
4E21
330
1A
100
AcDbEntity
  8
細線
 48
10.0
100
AcDbCircle
 10
102.771192923778
 20
410.664658855225
 30
0.0
 40
5.515625000000036
100
AcDbArc
 50
129.597752709047
 51
230.402247290953
  0
ARC
  5
4E22
330
1A
100
AcDbEntity
  8
細線
 48
10.0
100
AcDbCircle
 10
95.736873945587
 20
419.193282670574
 30
0.0
 40
5.515625000000036
100
AcDbArc
 50
129.597752709047
 51
230.402247290953
  0
ARC
  5
4E23
330
1A
100
AcDbEntity
  8
細線
 48
10.0
100
AcDbCircle
 10
88.705623945587
 20
419.193282670574
 30
0.0
 40
5.515625000000036
100
AcDbArc
 50
309.597752709047
 51
50.402247290953
  0
ARC
  5
4E24
330
1A
100
AcDbEntity
  8
細線
 48
10.0
100
AcDbCircle
 10
93.768123945587
 20
420.414658855225
 30
0.0
 40
8.562500000000037
100
AcDbArc
 50
140.033786956202
 51
219.9662130438
  0
ARC
  5
4E25
330
1A
100
AcDbEntity
  8
細線
 48
10.0
100
AcDbCircle
 10
102.736873945587
 20
419.193282670574
 30
0.0
 40
5.515625000000036
100
AcDbArc
 50
129.597752709047
 51
230.402247290953
  0
ARC
  5
4E26
330
1A
100
AcDbEntity
  8
細線
 48
10.0
100
AcDbCircle
 10
110.799373945587
 20
420.414658855225
 30
0.0
 40
8.562500000000037
100
AcDbArc
 50
140.0337869562
 51
219.966213043798
  0
LWPOLYLINE
  5
4E27
330
1A
100
AcDbEntity
  8
隠れ線
 48
10.0
100
AcDbPolyline
 90
        6
 70
     0
 43
0.0
 10
245.983388004389
 20
406.414658855225
 10
193.221361774903
 20
406.414658855225
 10
192.721361774903
 20
406.914658855225
 10
192.721361774903
 20
422.914658855225
 10
193.221361774903
 20
423.414658855225
 10
243.504452362607
 20
423.414658855225
  0
LWPOLYLINE
  5
4E28
330
1A
100
AcDbEntity
  8
外形線
 48
10.0
100
AcDbPolyline
 90
        4
 70
     0
 43
0.0
 10
261.777844951998
 20
403.914658855225
 10
299.638468256273
 20
403.914658855225
 10
299.638468256273
 20
425.914658855225
 10
261.777844951998
 20
425.914658855225
  0
ARC
  5
4E29
330
1A
100
AcDbEntity
  8
細線
 48
10.0
100
AcDbCircle
 10
268.340344951998
 20
409.414658855225
 30
0.0
 40
8.562500000000037
100
AcDbArc
 50
200.305277337844
 51
219.966213043799
  0
LINE
  5
4E2A
330
1A
100
AcDbEntity
  8
細線
 48
10.0
100
AcDbLine
 10
249.762219951998
 20
406.443282670574
 30
0.0
 11
246.214495304365
 21
406.443282670574
 31
0.0
  0
LINE
  5
4E2B
330
1A
100
AcDbEntity
  8
細線
 48
10.0
100
AcDbLine
 10
256.796538930189
 20
406.414658855225
 30
0.0
 11
263.245745304365
 21
406.443282670574
 31
0.0
  0
ARC
  5
4E2C
330
1A
100
AcDbEntity
  8
細線
 48
10.0
100
AcDbCircle
 10
260.312163930189
 20
410.664658855225
 30
0.0
 40
5.515625000000036
100
AcDbArc
 50
129.597752709047
 51
230.402247290953
  0
ARC
  5
4E2D
330
1A
100
AcDbEntity
  8
細線
 48
10.0
100
AcDbCircle
 10
253.246594951998
 20
410.693282670574
 30
0.0
 40
5.515625000000036
100
AcDbArc
 50
309.597752709047
 51
50.402247290953
  0
ARC
  5
4E2E
330
1A
100
AcDbEntity
  8
細線
 48
10.0
100
AcDbCircle
 10
246.246594951998
 20
410.693282670574
 30
0.0
 40
5.515625000000036
100
AcDbArc
 50
309.597752709047
 51
50.402247290953
  0
ARC
  5
4E2F
330
1A
100
AcDbEntity
  8
細線
 48
10.0
100
AcDbCircle
 10
255.215344951998
 20
409.414658855225
 30
0.0
 40
8.562500000000037
100
AcDbArc
 50
320.0337869562
 51
39.966213043799
  0
ARC
  5
4E30
330
1A
100
AcDbEntity
  8
細線
 48
10.0
100
AcDbCircle
 10
238.184094951998
 20
409.414658855225
 30
0.0
 40
8.562500000000037
100
AcDbArc
 50
320.033786956201
 51
39.9662130438
  0
LINE
  5
4E31
330
1A
100
AcDbEntity
  8
細線
 48
10.0
100
AcDbLine
 10
256.762219951998
 20
423.443282670574
 30
0.0
 11
260.331359745675
 21
423.443282670575
 31
0.0
  0
LINE
  5
4E32
330
1A
100
AcDbEntity
  8
細線
 48
10.0
100
AcDbLine
 10
249.762219951998
 20
423.443282670574
 30
0.0
 11
243.300109745675
 21
423.443282670574
 31
0.0
  0
ARC
  5
4E33
330
1A
100
AcDbEntity
  8
細線
 48
10.0
100
AcDbCircle
 10
238.184094951998
 20
420.414658855225
 30
0.0
 40
8.562500000000037
100
AcDbArc
 50
20.714274763079
 51
39.9662130438
  0
ARC
  5
4E34
330
1A
100
AcDbEntity
  8
細線
 48
10.0
100
AcDbCircle
 10
268.340344951998
 20
420.414658855225
 30
0.0
 40
8.562500000000037
100
AcDbArc
 50
140.033786956201
 51
219.966213043799
  0
ARC
  5
4E35
330
1A
100
AcDbEntity
  8
細線
 48
10.0
100
AcDbCircle
 10
260.277844951998
 20
419.193282670574
 30
0.0
 40
5.515625000000036
100
AcDbArc
 50
129.597752709047
 51
230.402247290953
  0
ARC
  5
4E36
330
1A
100
AcDbEntity
  8
細線
 48
10.0
100
AcDbCircle
 10
251.309094951998
 20
420.414658855225
 30
0.0
 40
8.562500000000037
100
AcDbArc
 50
140.033786956201
 51
219.9662130438
  0
ARC
  5
4E37
330
1A
100
AcDbEntity
  8
細線
 48
10.0
100
AcDbCircle
 10
246.246594951998
 20
419.193282670574
 30
0.0
 40
5.515625000000036
100
AcDbArc
 50
309.597752709047
 51
50.402247290953
  0
ARC
  5
4E38
330
1A
100
AcDbEntity
  8
細線
 48
10.0
100
AcDbCircle
 10
253.277844951998
 20
419.193282670574
 30
0.0
 40
5.515625000000036
100
AcDbArc
 50
129.597752709047
 51
230.402247290953
  0
DIMENSION
  5
4E39
330
1A
100
AcDbEntity
  8
寸法線
 48
10.0
100
AcDbDimension
  2
*D62
 10
-5.917106481369
 20
403.914658855225
 30
0.0
 11
-5.917106481369
 21
441.779895075697
 31
0.0
 70
   160
  1
φ<>
  3
ISO-25
100
AcDbAlignedDimension
 13
29.865942798759
 23
425.914658855225
 33
0.0
 14
30.048647070792
 24
403.914658855225
 34
0.0
 50
90.0
100
AcDbRotatedDimension
1001
ACAD
1000
DSTYLE
1002
{
1070
     5
1000
OPEN30
1070
    41
1040
6.0
1070
    47
1040
0.1
1070
    48
1040
0.1
1070
    73
1070
     0
1070
   140
1040
8.0
1070
   271
1070
     1
1070
   272
1070
     1
1070
   341
1005
2AF4
1002
}
  0
DIMENSION
  5
4E3A
330
1A
100
AcDbEntity
  8
寸法線
 48
10.0
100
AcDbDimension
  2
*D63
 10
10.082893518631
 20
406.414658855225
 30
0.0
 11
10.082893518631
 21
438.239658855225
 31
0.0
 70
   160
  1
φ<>
  3
ISO-25
100
AcDbAlignedDimension
 13
28.314321454582
 23
423.414658855225
 33
0.0
 14
27.957035596989
 24
406.414658855225
 34
0.0
 50
90.0
100
AcDbRotatedDimension
1001
ACAD
1000
DSTYLE
1002
{
1070
     5
1000
OPEN30
1070
    41
1040
6.0
1070
    47
1040
0.1
1070
    48
1040
0.1
1070
    73
1070
     0
1070
   140
1040
8.0
1070
   271
1070
     1
1070
   272
1070
     1
1070
   341
1005
2AF4
1002
}
  0
DIMENSION
  5
4E3C
330
1A
100
AcDbEntity
  8
寸法線
 48
10.0
100
AcDbDimension
  2
*D65
 10
302.638468256273
 20
295.181741407772
 30
0.0
 11
172.679915015588
 21
299.806741407772
 31
0.0
 70
    32
  1
　
  3
ISO-25
100
AcDbAlignedDimension
 13
42.721361774903
 23
318.538623667948
 33
0.0
 14
302.638468256273
 24
338.0
 34
0.0
100
AcDbRotatedDimension
1001
ACAD
1000
DSTYLE
1002
{
1070
     5
1000
OPEN30
1070
    41
1040
6.0
1070
    47
1040
0.1
1070
    48
1040
0.1
1070
    73
1070
     0
1070
   140
1040
8.0
1070
   271
1070
     1
1070
   272
1070
     1
1070
   341
1005
2AF4
1002
}
  0
DIMENSION
  5
4E3D
330
1A
100
AcDbEntity
  8
寸法線
 48
10.0
100
AcDbDimension
  2
*D66
 10
142.721361774903
 20
315.24659200722
 30
0.0
 11
92.721361774903
 21
317.87159200722
 31
0.0
 70
    32
  1
1
  3
ISO-25
100
AcDbAlignedDimension
 13
42.721361774903
 23
407.414658855225
 33
0.0
 14
142.721361774903
 24
406.414658855225
 34
0.0
100
AcDbRotatedDimension
1001
ACAD
1000
DSTYLE
1002
{
1070
     5
1000
OPEN30
1070
    41
1040
6.0
1070
    47
1040
0.1
1070
    48
1040
0.1
1070
    73
1070
     0
1070
   140
1040
4.0
1070
   271
1070
     1
1070
   272
1070
     1
1070
   341
1005
2AF4
1002
}
  0
DIMENSION
  5
4E3E
330
1A
100
AcDbEntity
  8
寸法線
 48
10.0
100
AcDbDimension
  2
*D67
 10
302.638468256273
 20
315.24659200722
 30
0.0
 11
247.679915015588
 21
317.873675340553
 31
0.0
 70
    32
  1
3
  3
ISO-25
100
AcDbAlignedDimension
 13
192.721361774903
 23
406.414658855225
 33
0.0
 14
302.638468256273
 24
337.914658855224
 34
0.0
100
AcDbRotatedDimension
1001
ACAD
1000
DSTYLE
1002
{
1070
     5
1000
OPEN30
1070
    41
1040
6.0
1070
    47
1040
0.1
1070
    48
1040
0.1
1070
    73
1070
     0
1070
   140
1040
4.0
1070
   271
1070
     1
1070
   272
1070
     1
1070
   341
1005
2AF4
1002
}
  0
LWPOLYLINE
  5
4E3F
330
1A
100
AcDbEntity
  8
隠れ線
 48
10.0
100
AcDbPolyline
 90
        6
 70
     0
 43
0.0
 10
85.74837293636
 20
423.414658855225
 10
43.721361774903
 20
423.414658855225
 10
42.721361774903
 20
422.414658855225
 10
42.721361774903
 20
407.414658855225
 10
43.721361774903
 20
406.414658855225
 10
88.662874954814
 20
406.414658855225
  0
LWPOLYLINE
  5
4E40
330
1A
100
AcDbEntity
  8
隠れ線
 48
10.0
100
AcDbPolyline
 90
        4
 70
     0
 43
0.0
 10
260.320593942771
 20
423.414658855225
 10
302.638468256273
 20
423.414658855225
 10
302.638468256273
 20
406.414658855225
 10
263.235095961225
 20
406.414658855225
  0
LWPOLYLINE
  5
4E41
330
1A
100
AcDbEntity
  8
外形線
 48
10.0
100
AcDbPolyline
 90
        2
 70
     0
 43
0.0
 10
244.746594951998
 20
425.914658855225
 10
178.010581388096
 20
425.914658855225
  0
ARC
  5
4E42
330
1A
100
AcDbEntity
  8
細線
 48
10.0
100
AcDbCircle
 10
184.590785620149
 20
420.414658855225
 30
0.0
 40
8.562500000000037
100
AcDbArc
 50
140.0337869562
 51
219.966213043798
  0
ARC
  5
4E43
330
1A
100
AcDbEntity
  8
細線
 48
10.0
100
AcDbCircle
 10
176.563961184741
 20
419.210071171559
 30
0.0
 40
5.551325950815908
100
AcDbArc
 50
130.764267381837
 51
230.228971261848
  0
ARC
  5
4E44
330
1A
100
AcDbEntity
  8
細線
 48
10.0
100
AcDbCircle
 10
167.559535620149
 20
420.414658855225
 30
0.0
 40
8.562500000000037
100
AcDbArc
 50
140.033786956202
 51
219.9662130438
  0
ARC
  5
4E45
330
1A
100
AcDbEntity
  8
細線
 48
10.0
100
AcDbCircle
 10
162.497035620149
 20
419.193282670574
 30
0.0
 40
5.515625000000036
100
AcDbArc
 50
309.597752709047
 51
50.402247290953
  0
ARC
  5
4E46
330
1A
100
AcDbEntity
  8
細線
 48
10.0
100
AcDbCircle
 10
169.528285620149
 20
419.193282670574
 30
0.0
 40
5.515625000000036
100
AcDbArc
 50
129.597752709047
 51
230.402247290953
  0
ARC
  5
4E47
330
1A
100
AcDbEntity
  8
細線
 48
10.0
100
AcDbCircle
 10
176.56260459834
 20
410.664658855225
 30
0.0
 40
5.515625000000036
100
AcDbArc
 50
129.597752709047
 51
230.402247290951
  0
ARC
  5
4E48
330
1A
100
AcDbEntity
  8
細線
 48
10.0
100
AcDbCircle
 10
169.53135459834
 20
410.664658855225
 30
0.0
 40
5.515625000000036
100
AcDbArc
 50
309.597752709047
 51
50.402247290953
  0
ARC
  5
4E49
330
1A
100
AcDbEntity
  8
細線
 48
10.0
100
AcDbCircle
 10
162.497035620149
 20
410.693282670574
 30
0.0
 40
5.515625000000036
100
AcDbArc
 50
309.597752709047
 51
50.402247290953
  0
ARC
  5
4E4A
330
1A
100
AcDbEntity
  8
細線
 48
10.0
100
AcDbCircle
 10
171.465785620149
 20
409.414658855225
 30
0.0
 40
8.562500000000037
100
AcDbArc
 50
320.0337869562
 51
39.966213043798
  0
ARC
  5
4E4B
330
1A
100
AcDbEntity
  8
細線
 48
10.0
100
AcDbCircle
 10
154.434535620149
 20
409.414658855225
 30
0.0
 40
8.562500000000037
100
AcDbArc
 50
320.033786956201
 51
39.9662130438
  0
LINE
  5
4E4C
330
1A
100
AcDbEntity
  8
細線
 48
10.0
100
AcDbLine
 10
166.012660620149
 20
406.443282670574
 30
0.0
 11
162.464935972516
 21
406.443282670574
 31
0.0
  0
ARC
  5
4E4D
330
1A
100
AcDbEntity
  8
細線
 48
10.0
100
AcDbCircle
 10
184.590785620149
 20
409.414658855225
 30
0.0
 40
8.562500000000037
100
AcDbArc
 50
200.509639531999
 51
219.966213043798
  0
LINE
  5
4E4E
330
1A
100
AcDbEntity
  8
細線
 48
10.0
100
AcDbLine
 10
166.012660620149
 20
423.443282670574
 30
0.0
 11
159.550550413827
 21
423.443282670574
 31
0.0
  0
ARC
  5
4E4F
330
1A
100
AcDbEntity
  8
細線
 48
10.0
100
AcDbCircle
 10
154.434535620149
 20
420.414658855225
 30
0.0
 40
8.562500000000037
100
AcDbArc
 50
20.714274763079
 51
39.9662130438
  0
LINE
  5
4E50
330
1A
100
AcDbEntity
  8
隠れ線
 48
10.0
100
AcDbLine
 10
192.721361774903
 20
423.414658855225
 30
0.0
 11
192.721361774903
 21
406.414658855225
 31
0.0
  0
LINE
  5
4E51
330
1A
100
AcDbEntity
  8
隠れ線
 48
10.0
100
AcDbLine
 10
143.221361774903
 20
406.414658855225
 30
0.0
 11
142.721361774903
 21
406.914658855225
 31
0.0
  0
LINE
  5
4E52
330
1A
100
AcDbEntity
  8
隠れ線
 48
10.0
100
AcDbLine
 10
142.721361774903
 20
406.914658855225
 30
0.0
 11
142.721361774903
 21
422.914658855225
 31
0.0
  0
LINE
  5
4E53
330
1A
100
AcDbEntity
  8
隠れ線
 48
10.0
100
AcDbLine
 10
142.721361774903
 20
422.914658855225
 30
0.0
 11
143.221361774903
 21
423.414658855225
 31
0.0
  0
LWPOLYLINE
  5
4E54
330
1A
100
AcDbEntity
  8
外形線
 48
10.0
100
AcDbPolyline
 90
        2
 70
     0
 43
0.0
 10
160.997035620149
 20
425.914658855225
 10
104.236873945587
 20
425.914658855225
  0
LWPOLYLINE
  5
4E55
330
1A
100
AcDbEntity
  8
外形線
 48
10.0
100
AcDbPolyline
 90
        2
 70
     0
 43
0.0
 10
178.010581388096
 20
403.914658855225
 10
244.746594951998
 20
403.914658855225
  0
LINE
  5
4E56
330
1A
100
AcDbEntity
  8
隠れ線
 48
10.0
100
AcDbLine
 10
192.721361774903
 20
423.414658855225
 30
0.0
 11
176.571034610922
 21
423.414658855225
 31
0.0
  0
LINE
  5
4E57
330
1A
100
AcDbEntity
  8
隠れ線
 48
10.0
100
AcDbLine
 10
192.721361774903
 20
406.414658855225
 30
0.0
 11
179.485536629377
 21
406.414658855225
 31
0.0
  0
LINE
  5
4E58
330
1A
100
AcDbEntity
  8
細線
 48
10.0
100
AcDbLine
 10
172.939231922773
 20
423.414658855225
 30
0.0
 11
176.571034610922
 21
423.414658855225
 31
0.0
  0
LINE
  5
4E59
330
1A
100
AcDbEntity
  8
細線
 48
10.0
100
AcDbLine
 10
173.04697959834
 20
406.414658855225
 30
0.0
 11
179.485536629377
 21
406.414658855225
 31
0.0
  0
LINE
  5
4E5A
330
1A
100
AcDbEntity
  8
隠れ線
 48
10.0
100
AcDbLine
 10
143.221361774903
 20
423.414658855225
 30
0.0
 11
159.539784610922
 21
423.414658855225
 31
0.0
  0
LINE
  5
4E5B
330
1A
100
AcDbEntity
  8
隠れ線
 48
10.0
100
AcDbLine
 10
143.221361774903
 20
406.414658855225
 30
0.0
 11
162.454286629376
 21
406.414658855225
 31
0.0
  0
LINE
  5
4E5D
330
1A
100
AcDbEntity
  8
寸法線
 48
10.0
100
AcDbLine
 10
142.721361774903
 20
405.789658855225
 30
0.0
 11
142.721361774903
 21
317.288623667948
 31
0.0
  0
LINE
  5
4E5E
330
1A
100
AcDbEntity
  8
寸法線
 48
10.0
100
AcDbLine
 10
192.721361774903
 20
405.789658855225
 30
0.0
 11
192.721361774903
 21
317.288623667948
 31
0.0
  0
DIMENSION
  5
4E5F
330
1A
100
AcDbEntity
  8
寸法線
 48
10.0
100
AcDbDimension
  2
*D69
 10
192.721361774903
 20
315.24659200722
 30
0.0
 11
167.721361774903
 21
317.873675340553
 31
0.0
 70
    32
  1
2
  3
ISO-25
100
AcDbAlignedDimension
 13
142.721361774903
 23
403.914658855225
 33
0.0
 14
192.721361774903
 24
403.914658855225
 34
0.0
100
AcDbRotatedDimension
1001
ACAD
1000
DSTYLE
1002
{
1070
     5
1000
OPEN30
1070
    41
1040
6.0
1070
    47
1040
0.1
1070
    48
1040
0.1
1070
    73
1070
     0
1070
   140
1040
4.0
1070
   271
1070
     1
1070
   272
1070
     1
1070
   341
1005
2AF4
1002
}
  0
SPLINE
  5
4E60
330
1A
100
AcDbEntity
  8
寸法線
 48
10.0
100
AcDbSpline
210
0.0
220
0.0
230
1.0
 70
  1064
 71
     3
 72
    13
 73
     9
 74
     7
 42
0.000000001
 43
0.0000000001
 44
0.0000000001
 40
0.0
 40
0.0
 40
0.0
 40
0.0
 40
3.223685095176967
 40
8.435450993908228
 40
12.63609189519645
 40
15.54126966359062
 40
17.0860950518407
 40
18.20640635868966
 40
18.20640635868966
 40
18.20640635868966
 40
18.20640635868966
 10
161.8106095481337
 20
316.1634075879489
 30
0.0
 10
162.7692716109322
 20
316.606251891771
 30
0.0
 10
165.277812802674
 20
317.7650472804429
 30
0.0
 10
165.882300899365
 20
325.8545535284601
 30
0.0
 10
162.306570881959
 20
320.0362927794215
 30
0.0
 10
162.4631492421421
 20
317.0826404534503
 30
0.0
 10
164.3470416945505
 20
315.9255322018049
 30
0.0
 10
165.1803181293105
 20
316.3423659144135
 30
0.0
 10
165.5305924748287
 20
316.5175852651395
 30
0.0
 11
161.8106095481337
 21
316.1634075879489
 31
0.0
 11
164.3791690326326
 21
318.1113931544912
 31
0.0
 11
164.9548807537305
 21
323.2912637896874
 31
0.0
 11
162.696320390223
 21
319.7494720021922
 31
0.0
 11
163.0948903779161
 21
316.871764610729
 31
0.0
 11
164.467739899335
 21
316.1634075879489
 31
0.0
 11
165.5305924748287
 21
316.5175852651395
 31
0.0
  0
ARC
  5
4E78
330
1A
100
AcDbEntity
  8
隠れ線
 48
10.0
100
AcDbCircle
 10
33.721361774903
 20
415.0
 30
0.0
 40
8.4146588552249
100
AcDbArc
 50
90.0
 51
270.0
  0
LINE
  5
4E79
330
1A
100
AcDbEntity
  8
隠れ線
 48
10.0
100
AcDbLine
 10
43.721361774903
 20
423.414658855225
 30
0.0
 11
33.721361774903
 21
423.414658855225
 31
0.0
  0
LINE
  5
4E7A
330
1A
100
AcDbEntity
  8
隠れ線
 48
10.0
100
AcDbLine
 10
43.721361774903
 20
406.414658855225
 30
0.0
 11
33.721361774903
 21
406.585341144775
 31
0.0
  0
MTEXT
  5
505B
330
1A
100
AcDbEntity
  8
寸法線
 48
10.0
100
AcDbMText
 10
238.896257222709
 20
509.332512079172
 30
0.0
 40
8.0
 41
0.0
 71
     7
 72
     1
  1
GROUNDING\PELECTRODE\PSUS304
  0
LEADER
  5
505C
330
1A
100
AcDbEntity
  8
寸法線
 48
10.0
100
AcDbLeader
  3
ISO-25
 76
     3
 10
237.320145695225
 20
419.264074268163
 30
0.0
 10
237.684824547959
 20
509.002647469029
 30
0.0
 10
250.690907820105
 20
509.002647469029
 30
0.0
213
0.0
223
-0.1883573891459491
233
0.0
1001
ACAD
1000
DSTYLE
1002
{
1070
     5
1000
DOTSMALL
1070
   147
1040
0.625
1070
    77
1070
     0
1070
    41
1040
6.0
1070
    47
1040
0.1
1070
    48
1040
0.1
1070
    73
1070
     0
1070
   140
1040
8.0
1070
   271
1070
     1
1070
   272
1070
     1
1070
   341
1005
4212
1070
   342
1005
2AF4
1002
}
  0
LEADER
  5
505D
330
1A
100
AcDbEntity
  8
寸法線
 48
10.0
100
AcDbLeader
  3
ISO-25
 76
     3
 10
309.433243608666
 20
492.400219900918
 30
0.0
 10
306.539062429078
 20
509.002647469029
 30
0.0
 10
317.094722268124
 20
509.002647469029
 30
0.0
1001
ACAD
1000
DSTYLE
1002
{
1070
     5
1000
OPEN30
1070
   147
1040
0.625
1070
    77
1070
     0
1070
    41
1040
6.0
1070
    47
1040
0.1
1070
    48
1040
0.1
1070
    73
1070
     0
1070
   140
1040
8.0
1070
   271
1070
     1
1070
   272
1070
     1
1070
   341
1005
2AF4
1070
   342
1005
2AF4
1002
}
  0
MTEXT
  5
505E
102
{ACAD_XDICTIONARY
360
505F
102
}
330
1A
100
AcDbEntity
  8
寸法線
 48
10.0
100
AcDbMText
 10
306.193959580744
 20
509.570410178863
 30
0.0
 40
8.0
 41
0.0
 71
     7
 72
     1
  1
FLANGE\PSUS304
1001
ACADANNOTATIVE
1000
AnnotativeData
1002
{
1070
     1
1070
     0
1002
}
  0
LEADER
  5
5062
330
1A
100
AcDbEntity
  8
寸法線
 48
10.0
100
AcDbLeader
  3
ISO-25
 76
     3
 10
148.740155870135
 20
419.432888431576
 30
0.0
 10
129.843063669554
 20
509.002647469029
 30
0.0
 10
116.146267789663
 20
509.002647469029
 30
0.0
213
-5.529113781733201
223
0.5630185124462059
233
0.0
1001
ACAD
1000
DSTYLE
1002
{
1070
     5
1000
DOTSMALL
1070
   147
1040
0.625
1070
    77
1070
     0
1070
    41
1040
6.0
1070
    47
1040
0.1
1070
    48
1040
0.1
1070
    73
1070
     0
1070
   140
1040
8.0
1070
   271
1070
     1
1070
   272
1070
     1
1070
   341
1005
4212
1070
   342
1005
2AF4
1002
}
  0
LEADER
  5
5063
330
1A
100
AcDbEntity
  8
寸法線
 48
10.0
100
AcDbLeader
  3
ISO-25
 76
     3
 10
57.530071868847
 20
419.739462891108
 30
0.0
 10
47.321306422211
 20
509.002647469029
 30
0.0
 10
36.571389462851
 20
509.002647469029
 30
0.0
213
-2.863878848937418
223
0.2815743888752422
233
0.0
1001
ACAD
1000
DSTYLE
1002
{
1070
     5
1000
DOTSMALL
1070
   147
1040
0.625
1070
    77
1070
     0
1070
    41
1040
6.0
1070
    47
1040
0.1
1070
    48
1040
0.1
1070
    73
1070
     0
1070
   140
1040
8.0
1070
   271
1070
     1
1070
   272
1070
     1
1070
   341
1005
4212
1070
   342
1005
2AF4
1002
}
  0
MTEXT
  5
5064
330
1A
100
AcDbEntity
  8
寸法線
 48
10.0
100
AcDbMText
 10
46.06600871737
 20
509.632515786899
 30
0.0
 40
8.0
 41
0.0
 71
     9
 72
     1
  1
DETECTING\PELECTRODE\PSUS304
  0
MTEXT
  5
5065
330
1A
100
AcDbEntity
  8
寸法線
 48
10.0
100
AcDbMText
 10
128.429214036999
 20
509.905243363795
 30
0.0
 40
8.0
 41
0.0
 71
     9
 72
     1
  1
INSULATOR\PPOLYACETAL
  0
LEADER
  5
5066
330
1A
100
AcDbEntity
  8
寸法線
 48
10.0
100
AcDbLeader
  3
ISO-25
 76
     3
 10
219.611327510495
 20
425.914658855225
 30
0.0
 10
225.264552719197
 20
509.002647469029
 30
0.0
 10
213.360278887756
 20
509.002647469029
 30
0.0
213
0.0
223
0.2876516479300335
233
0.0
1001
ACAD
1000
DSTYLE
1002
{
1070
     5
1000
OPEN30
1070
   147
1040
0.625
1070
    77
1070
     0
1070
    41
1040
6.0
1070
    47
1040
0.1
1070
    48
1040
0.1
1070
    73
1070
     0
1070
   140
1040
8.0
1070
   271
1070
     1
1070
   272
1070
     1
1070
   341
1005
2AF4
1070
   342
1005
2AF4
1002
}
  0
MTEXT
  5
5067
330
1A
100
AcDbEntity
  8
寸法線
 48
10.0
100
AcDbMText
 10
223.525440952546
 20
509.887339827487
 30
0.0
 40
8.0
 41
0.0
 71
     9
 72
     1
  1
ELECTRODE\PPORTION COATED\PTEFLON TUBE
  0
MTEXT
  5
509A
102
{ACAD_XDICTIONARY
360
509B
102
}
330
1A
100
AcDbEntity
  8
寸法線
 48
10.0
100
AcDbMText
 10
417.87452868549
 20
509.896852024595
 30
0.0
 40
8.0
 41
0.0
 71
     7
 72
     1
  1
ALUMINUM\PCASTING
1001
ACADANNOTATIVE
1000
AnnotativeData
1002
{
1070
     1
1070
     0
1002
}
  0
LEADER
  5
509E
330
1A
100
AcDbEntity
  8
寸法線
 48
10.0
100
AcDbLeader
  3
ISO-25
 76
     3
 10
385.149136830295
 20
444.0
 30
0.0
 10
415.825593473423
 20
509.002647469029
 30
0.0
 10
428.949598235736
 20
509.002647469029
 30
0.0
213
-5.684341886080801E-14
223
-0.08194239549834492
233
0.0
1001
ACAD
1000
DSTYLE
1002
{
1070
     5
1000
OPEN30
1070
   147
1040
0.625
1070
    77
1070
     0
1070
    41
1040
6.0
1070
    47
1040
0.1
1070
    48
1040
0.1
1070
    73
1070
     0
1070
   140
1040
8.0
1070
   271
1070
     1
1070
   272
1070
     1
1070
   341
1005
2AF4
1070
   342
1005
2AF4
1002
}
  0
TEXT
  5
50CC
330
1A
100
AcDbEntity
  8
寸法線
100
AcDbText
 10
483.006073718239
 20
541.29423004629
 30
0.0
 40
8.0
  1
COLOR：10YR7.5/14
100
AcDbText
  0
MTEXT
  5
50FB
330
1A
100
AcDbEntity
  8
寸法線
 48
10.0
100
AcDbMText
 10
451.000965320806
 20
339.563489983808
 30
0.0
 40
8.0
 41
0.0
 71
     7
 72
     1
  1
CONDUIT\PG 1/2"
  0
LEADER
  5
50FC
330
1A
100
AcDbEntity
  8
寸法線
 48
10.0
100
AcDbLeader
  3
ISO-25
 76
     3
 10
409.374824679715
 20
367.665802286654
 30
0.0
 10
448.988124390907
 20
338.813340445382
 30
0.0
 10
486.784655202404
 20
338.813340445382
 30
0.0
1001
ACAD
1000
DSTYLE
1002
{
1070
     5
1000
OPEN30
1070
   147
1040
0.625
1070
    77
1070
     0
1070
    41
1040
6.0
1070
    47
1040
0.1
1070
    48
1040
0.1
1070
    73
1070
     0
1070
   140
1040
8.0
1070
   271
1070
     1
1070
   272
1070
     1
1070
   341
1005
2AF4
1070
   342
1005
2AF4
1002
}
  0
MTEXT
  5
5131
102
{ACAD_XDICTIONARY
360
5132
102
}
330
1A
100
AcDbEntity
  8
寸法線
 48
10.0
100
AcDbMText
 10
205.143504198394
 20
334.24605575989
 30
0.0
 40
8.0
 41
0.0
 71
     7
 72
     1
  1
Fixed to \Pthe Teflon tube
1001
ACADANNOTATIVE
1000
AnnotativeData
1002
{
1070
     1
1070
     0
1002
}
  0
LEADER
  5
5135
330
1A
100
AcDbEntity
  8
寸法線
 48
10.0
100
AcDbLeader
  3
ISO-25
 76
     3
 10
299.281147919798
 20
365.061644566709
 30
0.0
 10
281.791347779713
 20
332.871991371231
 30
0.0
 10
272.462670552491
 20
332.871991371231
 30
0.0
1001
ACAD
1000
DSTYLE
1002
{
1070
     5
1000
OPEN30
1070
   147
1040
0.625
1070
    77
1070
     0
1070
    41
1040
6.0
1070
    47
1040
0.1
1070
    48
1040
0.1
1070
    73
1070
     0
1070
   140
1040
8.0
1070
   271
1070
     1
1070
   272
1070
     1
1070
   341
1005
2AF4
1070
   342
1005
2AF4
1002
}
  0
LINE
  5
5182
330
1A
100
AcDbEntity
  8
寸法線
100
AcDbLine
 10
-88.619390669448
 20
158.732252140578
 30
0.0
 11
38.970324865284
 21
158.732252140578
 31
0.0
  0
LINE
  5
5183
330
1A
100
AcDbEntity
  8
寸法線
100
AcDbLine
 10
-88.619390669448
 20
252.139552948583
 30
0.0
 11
38.970324865284
 21
252.139552948583
 31
0.0
  0
LINE
  5
5184
330
1A
100
AcDbEntity
  8
寸法線
 48
10.0
100
AcDbLine
 10
-88.619390669448
 20
252.139552948583
 30
0.0
 11
-88.619390669448
 21
158.732252140578
 31
0.0
  0
LINE
  5
5185
330
1A
100
AcDbEntity
  8
寸法線
 48
10.0
100
AcDbLine
 10
-28.73231655432
 20
252.139552948583
 30
0.0
 11
-28.73231655432
 21
158.732252140578
 31
0.0
  0
LINE
  5
5186
330
1A
100
AcDbEntity
  8
寸法線
 48
10.0
100
AcDbLine
 10
38.970324865284
 20
252.139552948583
 30
0.0
 11
38.970324865284
 21
158.732252140578
 31
0.0
  0
LINE
  5
5187
330
1A
100
AcDbEntity
  8
寸法線
100
AcDbLine
 10
-88.619390669448
 20
238.795652833154
 30
0.0
 11
38.970324865284
 21
238.795652833154
 31
0.0
  0
LINE
  5
5188
330
1A
100
AcDbEntity
  8
寸法線
100
AcDbLine
 10
-88.619390669448
 20
225.451752717725
 30
0.0
 11
38.970324865284
 21
225.451752717725
 31
0.0
  0
LINE
  5
5189
330
1A
100
AcDbEntity
  8
寸法線
100
AcDbLine
 10
-88.619390669448
 20
212.107852602295
 30
0.0
 11
38.970324865284
 21
212.107852602295
 31
0.0
  0
LINE
  5
518A
330
1A
100
AcDbEntity
  8
寸法線
100
AcDbLine
 10
-88.619390669448
 20
198.763952486866
 30
0.0
 11
38.970324865284
 21
198.763952486866
 31
0.0
  0
LINE
  5
518B
330
1A
100
AcDbEntity
  8
寸法線
100
AcDbLine
 10
-88.619390669448
 20
185.420052371437
 30
0.0
 11
38.970324865284
 21
185.420052371437
 31
0.0
  0
LINE
  5
518C
330
1A
100
AcDbEntity
  8
寸法線
100
AcDbLine
 10
-88.619390669448
 20
172.076152256007
 30
0.0
 11
38.970324865284
 21
172.076152256007
 31
0.0
  0
MTEXT
  5
518D
102
{ACAD_XDICTIONARY
360
518E
102
}
330
1A
100
AcDbEntity
  8
寸法線
 48
10.0
100
AcDbMText
 10
-80.295492476868
 20
249.078308794417
 30
0.0
 40
8.0
 41
60.717249709215
 71
     1
 72
     5
  1
FLANGE
1001
ACADANNOTATIVE
1000
AnnotativeData
1002
{
1070
     1
1070
     0
1002
}
  0
MTEXT
  5
5191
330
1A
100
AcDbEntity
  8
寸法線
 48
10.0
100
AcDbMText
 10
-80.286916486112
 20
235.704606917149
 30
0.0
 40
8.0
 41
60.717249709215
 71
     1
 72
     5
  1
MATERIAL
  0
MTEXT
  5
5192
330
1A
100
AcDbEntity
  8
寸法線
 48
10.0
100
AcDbMText
 10
-80.304254703828
 20
225.216701593837
 30
0.0
 40
4.5
 41
60.717249709215
 71
     1
 72
     5
  1
\P{\H1.111x;DIAMETER}
  0
MTEXT
  5
5193
330
1A
100
AcDbEntity
  8
寸法線
 48
10.0
100
AcDbMText
 10
-80.286916486112
 20
224.429350281683
 30
0.0
 40
4.5
 41
60.717249709215
 71
     1
 72
     5
  1
{\H1.111x;OUTSIDE}
  0
MTEXT
  5
5194
330
1A
100
AcDbEntity
  8
寸法線
 48
10.0
100
AcDbMText
 10
-80.286916486112
 20
211.067788595205
 30
0.0
 40
5.0
 41
60.717249709215
 71
     1
 72
     5
  1
{\H0.9999x;DIAMETER OF}
  0
MTEXT
  5
5195
330
1A
100
AcDbEntity
  8
寸法線
 48
10.0
100
AcDbMText
 10
-80.286916486112
 20
204.602517092371
 30
0.0
 40
5.0
 41
60.717249709215
 71
     1
 72
     5
  1
BOLT CIRCLE
  0
MTEXT
  5
5196
330
1A
100
AcDbEntity
  8
寸法線
 48
10.0
100
AcDbMText
 10
-80.286916486112
 20
197.426978058604
 30
0.0
 40
5.0
 41
60.717249709215
 71
     1
 72
     5
  1
{\H0.9999x;DIAMETER OF}
  0
MTEXT
  5
5197
330
1A
100
AcDbEntity
  8
寸法線
 48
10.0
100
AcDbMText
 10
-80.286916486112
 20
191.742996005833
 30
0.0
 40
5.0
 41
60.717249709215
 71
     1
 72
     5
  1
BOLT HOLES
  0
MTEXT
  5
5198
330
1A
100
AcDbEntity
  8
寸法線
 48
10.0
100
AcDbMText
 10
-80.286916486112
 20
183.995112165162
 30
0.0
 40
5.0
 41
60.717249709215
 71
     1
 72
     5
  1
NUMBER OF
  0
MTEXT
  5
5199
330
1A
100
AcDbEntity
  8
寸法線
 48
10.0
100
AcDbMText
 10
-80.286916486112
 20
177.868248293429
 30
0.0
 40
5.0
 41
60.717249709215
 71
     1
 72
     5
  1
BOLT HOLES
  0
MTEXT
  5
519A
330
1A
100
AcDbEntity
  8
寸法線
 48
10.0
100
AcDbMText
 10
-83.787935126867
 20
168.777407250455
 30
0.0
 40
8.0
 41
135.142028985507
 71
     1
 72
     5
  1
THICKNESS
  0
MTEXT
  5
519B
102
{ACAD_XDICTIONARY
360
519C
102
}
330
1A
100
AcDbEntity
  8
寸法線
 48
10.0
100
AcDbMText
 10
5.119004155482
 20
249.001870342227
 30
0.0
 40
8.0
 41
67.702641419603
 71
     2
 72
     5
  1
JIS5K 65A\PSUS304\Pφ155\Pφ130\Pφ15\P4\P14
1001
ACADANNOTATIVE
1000
AnnotativeData
1002
{
1070
     1
1070
     0
1002
}
  0
TEXT
  5
51CF
330
1A
100
AcDbEntity
  8
寸法線
 48
10.0
100
AcDbText
 10
115.304330206013
 20
141.220741881482
 30
0.0
 40
8.0
  1
○（Required length）
100
AcDbText
  0
LEADER
  5
51D0
330
1A
100
AcDbEntity
  8
寸法線
 48
10.0
100
AcDbLeader
  3
ISO-25
 76
     3
 10
70.180908618872
 20
157.715543511476
 30
0.0
 10
70.180908618872
 20
144.974009949427
 30
0.0
 10
111.529046043883
 20
144.974009949427
 30
0.0
1001
ACAD
1000
DSTYLE
1002
{
1070
     5
1000
OPEN30
1070
   147
1040
0.625
1070
    77
1070
     0
1070
    41
1040
6.0
1070
    47
1040
0.1
1070
    48
1040
0.1
1070
    73
1070
     0
1070
   140
1040
8.0
1070
   271
1070
     1
1070
   272
1070
     1
1070
   341
1005
2AF4
1070
   342
1005
2AF4
1002
}
  0
TEXT
  5
51D1
330
1A
100
AcDbEntity
  8
寸法線
 48
10.0
100
AcDbText
 10
400.908964518675
 20
141.220741881482
 30
0.0
 40
8.0
  1
○（Required length）
100
AcDbText
  0
LEADER
  5
51D2
330
1A
100
AcDbEntity
  8
寸法線
 48
10.0
100
AcDbLeader
  3
ISO-25
 76
     3
 10
355.785542931535
 20
157.715543511476
 30
0.0
 10
355.785542931535
 20
144.974009949427
 30
0.0
 10
397.133680356546
 20
144.974009949427
 30
0.0
1001
ACAD
1000
DSTYLE
1002
{
1070
     5
1000
OPEN30
1070
   147
1040
0.625
1070
    77
1070
     0
1070
    41
1040
6.0
1070
    47
1040
0.1
1070
    48
1040
0.1
1070
    73
1070
     0
1070
   140
1040
8.0
1070
   271
1070
     1
1070
   272
1070
     1
1070
   341
1005
2AF4
1070
   342
1005
2AF4
1002
}
  0
MTEXT
  5
5202
330
1A
100
AcDbEntity
  8
寸法線
 48
10.0
100
AcDbMText
 10
-59.888216143933
 20
124.123070104313
 30
0.0
 40
8.0
 41
327.414305633044
 71
     1
 72
     5
  1
Attention:Teflon tube does not have fixed only covered.
1001
ACAD
1000
MTEXTBEGIN
1070
    44
1040
1.05
1000
MTEXTEND
  0
CIRCLE
  5
5291
330
1A
100
AcDbEntity
  8
寸法線
 48
10.0
100
AcDbCircle
 10
535.530384172106
 20
325.286793664525
 30
0.0
 40
2.0
  0
CIRCLE
  5
5292
330
1A
100
AcDbEntity
  8
寸法線
 48
10.0
100
AcDbCircle
 10
557.730824172106
 20
325.286793664525
 30
0.0
 40
2.0
  0
LINE
  5
5293
330
1A
100
AcDbEntity
  8
寸法線
 48
10.0
100
AcDbLine
 10
524.130116172106
 20
311.286549664525
 30
0.0
 11
527.130178172106
 21
306.486377664525
 31
0.0
  0
LINE
  5
5294
330
1A
100
AcDbEntity
  8
寸法線
 48
10.0
100
AcDbLine
 10
527.130178172106
 20
306.486377664525
 30
0.0
 11
566.131032172106
 21
306.486377664525
 31
0.0
  0
LINE
  5
5295
330
1A
100
AcDbEntity
  8
寸法線
 48
10.0
100
AcDbLine
 10
566.131032172106
 20
306.486377664525
 30
0.0
 11
569.131092172106
 21
311.286549664525
 31
0.0
  0
LINE
  5
5296
330
1A
100
AcDbEntity
  8
寸法線
 48
10.0
100
AcDbLine
 10
523.332362131104
 20
344.038745664525
 30
0.0
 11
571.436812065549
 21
344.038745664525
 31
0.0
  0
MTEXT
  5
5297
330
1A
100
AcDbEntity
  8
寸法線
 62
     1
 48
10.0
100
AcDbMText
 10
524.996144129438
 20
354.695320287929
 30
0.0
 40
8.0
 41
55.39356842411
 71
     1
 72
     5
  1
TERMINAL
  0
MTEXT
  5
5298
330
1A
100
AcDbEntity
  8
寸法線
 62
     1
 48
10.0
100
AcDbMText
 10
513.169029454311
 20
299.851176887906
 30
0.0
 40
8.0
 41
74.443410852713
 71
     1
 72
     5
  1
TO CONVERTER
  0
MTEXT
  5
5299
102
{ACAD_XDICTIONARY
360
529A
102
}
330
1A
100
AcDbEntity
  8
寸法線
 48
10.0
100
AcDbMText
 10
535.530384172106
 20
320.165367694913
 30
0.0
 40
8.0
 41
5.580100571959
 71
     2
 72
     5
  1
P
1001
ACADANNOTATIVE
1000
AnnotativeData
1002
{
1070
     1
1070
     0
1002
}
  0
MTEXT
  5
529D
102
{ACAD_XDICTIONARY
360
529E
102
}
330
1A
100
AcDbEntity
  8
寸法線
 48
10.0
100
AcDbMText
 10
557.730824172106
 20
320.165367694913
 30
0.0
 40
8.0
 41
5.580100571959
 71
     2
 72
     5
  1
E
1001
ACADANNOTATIVE
1000
AnnotativeData
1002
{
1070
     1
1070
     0
1002
}
  0
LINE
  5
561E
330
1A
100
AcDbEntity
  8
寸法線
100
AcDbLine
 10
85.888561464289
 20
159.045843386627
 30
0.0
 11
85.888561464289
 21
277.536852247242
 31
0.0
  0
LINE
  5
561F
330
1A
100
AcDbEntity
  8
寸法線
100
AcDbLine
 10
53.888591464289
 20
159.045843386627
 30
0.0
 11
53.888591464289
 21
277.536852247242
 31
0.0
  0
LINE
  5
5620
330
1A
100
AcDbEntity
  8
寸法線
100
AcDbLine
 10
306.733922731974
 20
159.045843386627
 30
0.0
 11
306.733922731974
 21
277.536852247242
 31
0.0
  0
LINE
  5
5621
330
1A
100
AcDbEntity
  8
寸法線
100
AcDbLine
 10
338.490241296263
 20
159.045843386627
 30
0.0
 11
338.490241296263
 21
277.536852247242
 31
0.0
  0
LINE
  5
5622
330
1A
100
AcDbEntity
  8
寸法線
 48
10.0
100
AcDbLine
 10
164.786290261926
 20
277.536852247242
 30
0.0
 11
164.786290261926
 21
159.045843386627
 31
0.0
  0
LINE
  5
5623
330
1A
100
AcDbEntity
  8
寸法線
 48
10.0
100
AcDbLine
 10
192.420424221657
 20
277.536852247242
 30
0.0
 11
192.420424221657
 21
159.045843386627
 31
0.0
  0
LINE
  5
5624
330
1A
100
AcDbEntity
  8
寸法線
 48
10.0
100
AcDbLine
 10
218.270999339168
 20
277.536852247242
 30
0.0
 11
218.270999339168
 21
159.045843386627
 31
0.0
  0
LINE
  5
5625
330
1A
100
AcDbEntity
  8
寸法線
 48
10.0
100
AcDbLine
 10
242.338015614462
 20
277.536852247242
 30
0.0
 11
242.338015614462
 21
159.045843386627
 31
0.0
  0
LINE
  5
5626
330
1A
100
AcDbEntity
  8
寸法線
 48
10.0
100
AcDbLine
 10
268.188590731974
 20
277.536852247242
 30
0.0
 11
268.188590731974
 21
159.045843386627
 31
0.0
  0
LINE
  5
5627
330
1A
100
AcDbEntity
  8
寸法線
100
AcDbLine
 10
341.024741344939
 20
159.045843386627
 30
0.0
 11
341.024741344939
 21
277.536852247242
 31
0.0
  0
SPLINE
  5
5628
330
1A
100
AcDbEntity
  8
寸法線
 48
10.0
100
AcDbSpline
210
0.0
220
0.0
230
1.0
 70
  1064
 71
     3
 72
    13
 73
     9
 74
     7
 42
0.000000001
 43
0.0000000001
 44
0.0000000001
 40
0.0
 40
0.0
 40
0.0
 40
0.0
 40
3.546053604694653
 40
9.27899609329893
 40
13.89970108471585
 40
17.09539662994942
 40
18.79470455702453
 40
20.0270469945584
 40
20.0270469945584
 40
20.0270469945584
 40
20.0270469945584
 10
175.9329053431759
 20
266.655627939229
 30
0.0
 10
176.9874336122542
 20
267.1427566734332
 30
0.0
 10
179.7468289231701
 20
268.4174316009723
 30
0.0
 10
180.4117658295303
 20
277.315888473791
 30
0.0
 10
176.4784628103837
 20
270.9158016498487
 30
0.0
 10
176.650699006585
 20
267.6667840912804
 30
0.0
 10
178.7229807042343
 20
266.3939650144705
 30
0.0
 10
179.6395847824703
 20
266.8524820983401
 30
0.0
 10
180.0248865625403
 20
267.0452233841388
 30
0.0
 11
175.9329053431759
 21
266.655627939229
 31
0.0
 11
178.7583207761246
 21
268.7984120624255
 31
0.0
 11
179.3916036693323
 21
274.4962697611413
 31
0.0
 11
176.9071872694741
 21
270.6002987948967
 31
0.0
 11
177.3456142559365
 21
267.4348206642871
 31
0.0
 11
178.8557487294973
 21
266.655627939229
 31
0.0
 11
180.0248865625403
 21
267.0452233841388
 31
0.0
  0
SPLINE
  5
5629
330
1A
100
AcDbEntity
  8
寸法線
 48
10.0
100
AcDbSpline
210
0.0
220
0.0
230
1.0
 70
  1064
 71
     3
 72
    13
 73
     9
 74
     7
 42
0.000000001
 43
0.0000000001
 44
0.0000000001
 40
0.0
 40
0.0
 40
0.0
 40
0.0
 40
3.546053604694653
 40
9.27899609329893
 40
13.89970108471585
 40
17.09539662994942
 40
18.79470455702453
 40
20.0270469945584
 40
20.0270469945584
 40
20.0270469945584
 40
20.0270469945584
 10
201.9553572896141
 20
266.655627939229
 30
0.0
 10
203.0098855586924
 20
267.1427566734332
 30
0.0
 10
205.7692808696082
 20
268.4174316009723
 30
0.0
 10
206.4342177759685
 20
277.315888473791
 30
0.0
 10
202.5009147568219
 20
270.9158016498487
 30
0.0
 10
202.6731509530233
 20
267.6667840912804
 30
0.0
 10
204.7454326506725
 20
266.3939650144705
 30
0.0
 10
205.6620367289085
 20
266.8524820983401
 30
0.0
 10
206.0473385089785
 20
267.0452233841388
 30
0.0
 11
201.9553572896141
 21
266.655627939229
 31
0.0
 11
204.7807727225628
 21
268.7984120624255
 31
0.0
 11
205.4140556157705
 21
274.4962697611413
 31
0.0
 11
202.9296392159123
 21
270.6002987948967
 31
0.0
 11
203.3680662023747
 21
267.4348206642871
 31
0.0
 11
204.8782006759355
 21
266.655627939229
 31
0.0
 11
206.0473385089785
 21
267.0452233841388
 31
0.0
  0
TEXT
  5
562A
330
1A
100
AcDbEntity
  8
寸法線
 48
10.0
100
AcDbText
 10
208.413386087098
 20
266.739955678573
 30
0.0
 40
5.2
  1
1
100
AcDbText
  0
SPLINE
  5
562B
330
1A
100
AcDbEntity
  8
寸法線
 48
10.0
100
AcDbSpline
210
0.0
220
0.0
230
1.0
 70
  1064
 71
     3
 72
    13
 73
     9
 74
     7
 42
0.000000001
 43
0.0000000001
 44
0.0000000001
 40
0.0
 40
0.0
 40
0.0
 40
0.0
 40
3.546053604694698
 40
9.27899609329897
 40
13.89970108471589
 40
17.09539662994946
 40
18.79470455702457
 40
20.02704699455844
 40
20.02704699455844
 40
20.02704699455844
 40
20.02704699455844
 10
226.0223735649076
 20
266.655627939229
 30
0.0
 10
227.076901833986
 20
267.1427566734332
 30
0.0
 10
229.8362971449019
 20
268.4174316009723
 30
0.0
 10
230.501234051262
 20
277.315888473791
 30
0.0
 10
226.5679310321155
 20
270.9158016498487
 30
0.0
 10
226.7401672283167
 20
267.6667840912804
 30
0.0
 10
228.812448925966
 20
266.3939650144705
 30
0.0
 10
229.7290530042021
 20
266.8524820983401
 30
0.0
 10
230.1143547842721
 20
267.0452233841388
 30
0.0
 11
226.0223735649076
 21
266.655627939229
 31
0.0
 11
228.8477889978564
 21
268.7984120624255
 31
0.0
 11
229.4810718910641
 21
274.4962697611413
 31
0.0
 11
226.9966554912059
 21
270.6002987948967
 31
0.0
 11
227.4350824776683
 21
267.4348206642871
 31
0.0
 11
228.9452169512291
 21
266.655627939229
 31
0.0
 11
230.1143547842721
 21
267.0452233841388
 31
0.0
  0
TEXT
  5
562C
330
1A
100
AcDbEntity
  8
寸法線
 48
10.0
100
AcDbText
 10
232.480402362392
 20
266.739955678573
 30
0.0
 40
5.2
  1
2
100
AcDbText
  0
TEXT
  5
562D
330
1A
100
AcDbEntity
  8
寸法線
 48
10.0
100
AcDbText
 10
258.330977479904
 20
266.739955678573
 30
0.0
 40
5.2
  1
3
100
AcDbText
  0
SPLINE
  5
562E
330
1A
100
AcDbEntity
  8
寸法線
 48
10.0
100
AcDbSpline
210
0.0
220
0.0
230
1.0
 70
  1064
 71
     3
 72
    13
 73
     9
 74
     7
 42
0.000000001
 43
0.0000000001
 44
0.0000000001
 40
0.0
 40
0.0
 40
0.0
 40
0.0
 40
3.546053604694698
 40
9.27899609329897
 40
13.89970108471593
 40
17.09539662994951
 40
18.79470455702461
 40
20.02704699455848
 40
20.02704699455848
 40
20.02704699455848
 40
20.02704699455848
 10
251.8729486824195
 20
266.655627939229
 30
0.0
 10
252.9274769514979
 20
267.1427566734332
 30
0.0
 10
255.6868722624138
 20
268.4174316009723
 30
0.0
 10
256.3518091687738
 20
277.3158884737909
 30
0.0
 10
252.4185061496273
 20
270.915801649849
 30
0.0
 10
252.5907423458286
 20
267.6667840912804
 30
0.0
 10
254.6630240434779
 20
266.3939650144704
 30
0.0
 10
255.5796281217139
 20
266.8524820983401
 30
0.0
 10
255.964929901784
 20
267.0452233841388
 30
0.0
 11
251.8729486824195
 21
266.655627939229
 31
0.0
 11
254.6983641153683
 21
268.7984120624255
 31
0.0
 11
255.331647008576
 21
274.4962697611413
 31
0.0
 11
252.8472306087177
 21
270.6002987948967
 31
0.0
 11
253.2856575951801
 21
267.4348206642871
 31
0.0
 11
254.795792068741
 21
266.655627939229
 31
0.0
 11
255.964929901784
 21
267.0452233841388
 31
0.0
  0
MTEXT
  5
562F
102
{ACAD_XDICTIONARY
360
5630
102
}
330
1A
100
AcDbEntity
  8
寸法線
 48
10.0
100
AcDbMText
 10
122.38394980712
 20
274.680071215848
 30
0.0
 40
8.0
 41
72.990776685661
 71
     2
 72
     5
  1
MODEL
1001
ACADANNOTATIVE
1000
AnnotativeData
1002
{
1070
     1
1070
     0
1002
}
1001
ACAD
1000
MTEXTBEGIN
1070
    44
1040
0.99
1000
MTEXTEND
  0
MTEXT
  5
5633
102
{ACAD_XDICTIONARY
360
5634
102
}
330
1A
100
AcDbEntity
  8
寸法線
 48
10.0
100
AcDbMText
 10
322.332305359717
 20
274.847549581594
 30
0.0
 40
8.0
 41
31.756318564289
 71
     2
 72
     5
  1
Q'ty
1001
ACADANNOTATIVE
1000
AnnotativeData
1002
{
1070
     1
1070
     0
1002
}
  0
MTEXT
  5
5637
102
{ACAD_XDICTIONARY
360
5638
102
}
330
1A
100
AcDbEntity
  8
寸法線
 48
10.0
100
AcDbMText
 10
287.181480077573
 20
273.791818721754
 30
0.0
 40
8.0
 41
38.545332
 71
     2
 72
     5
  1
NOTE
1001
ACADANNOTATIVE
1000
AnnotativeData
1002
{
1070
     1
1070
     0
1002
}
  0
LINE
  5
563B
330
1A
100
AcDbEntity
  8
寸法線
 48
10.0
100
AcDbLine
 10
53.888591464289
 20
263.466852247242
 30
0.0
 11
85.888561464289
 21
277.536852247242
 31
0.0
  0
LINE
  5
5687
330
1A
100
AcDbEntity
  8
寸法線
100
AcDbLine
 10
373.024711344939
 20
159.045843386627
 30
0.0
 11
373.024711344939
 21
277.536852247242
 31
0.0
  0
LINE
  5
5688
330
1A
100
AcDbEntity
  8
寸法線
100
AcDbLine
 10
341.024741344939
 20
159.045843386627
 30
0.0
 11
341.024741344939
 21
277.536852247242
 31
0.0
  0
LINE
  5
5689
330
1A
100
AcDbEntity
  8
寸法線
100
AcDbLine
 10
593.870072612623
 20
159.045843386627
 30
0.0
 11
593.870072612623
 21
277.536852247242
 31
0.0
  0
LINE
  5
568A
330
1A
100
AcDbEntity
  8
寸法線
100
AcDbLine
 10
625.626391176912
 20
159.045843386627
 30
0.0
 11
625.626391176912
 21
277.536852247242
 31
0.0
  0
LINE
  5
568B
330
1A
100
AcDbEntity
  8
寸法線
 48
10.0
100
AcDbLine
 10
451.922440142576
 20
277.536852247242
 30
0.0
 11
451.922440142576
 21
159.045843386627
 31
0.0
  0
LINE
  5
568C
330
1A
100
AcDbEntity
  8
寸法線
 48
10.0
100
AcDbLine
 10
479.556574102306
 20
277.536852247242
 30
0.0
 11
479.556574102306
 21
159.045843386627
 31
0.0
  0
LINE
  5
568D
330
1A
100
AcDbEntity
  8
寸法線
 48
10.0
100
AcDbLine
 10
505.407149219818
 20
277.536852247242
 30
0.0
 11
505.407149219818
 21
159.045843386627
 31
0.0
  0
LINE
  5
568E
330
1A
100
AcDbEntity
  8
寸法線
 48
10.0
100
AcDbLine
 10
529.474165495111
 20
277.536852247242
 30
0.0
 11
529.474165495111
 21
159.045843386627
 31
0.0
  0
LINE
  5
568F
330
1A
100
AcDbEntity
  8
寸法線
 48
10.0
100
AcDbLine
 10
555.324740612623
 20
277.536852247242
 30
0.0
 11
555.324740612623
 21
159.045843386627
 31
0.0
  0
SPLINE
  5
5691
330
1A
100
AcDbEntity
  8
寸法線
 48
10.0
100
AcDbSpline
210
0.0
220
0.0
230
1.0
 70
  1064
 71
     3
 72
    13
 73
     9
 74
     7
 42
0.000000001
 43
0.0000000001
 44
0.0000000001
 40
0.0
 40
0.0
 40
0.0
 40
0.0
 40
3.546053604694607
 40
9.278996093298884
 40
13.89970108471581
 40
17.09539662994939
 40
18.79470455702449
 40
20.02704699455836
 40
20.02704699455836
 40
20.02704699455836
 40
20.02704699455836
 10
463.0690552238254
 20
266.655627939229
 30
0.0
 10
464.1235834929038
 20
267.1427566734332
 30
0.0
 10
466.8829788038198
 20
268.4174316009726
 30
0.0
 10
467.5479157101795
 20
277.3158884737908
 30
0.0
 10
463.6146126910336
 20
270.915801649849
 30
0.0
 10
463.7868488872345
 20
267.6667840912804
 30
0.0
 10
465.8591305848839
 20
266.3939650144704
 30
0.0
 10
466.7757346631199
 20
266.8524820983401
 30
0.0
 10
467.1610364431899
 20
267.0452233841388
 30
0.0
 11
463.0690552238254
 21
266.655627939229
 31
0.0
 11
465.8944706567742
 21
268.7984120624255
 31
0.0
 11
466.5277535499819
 21
274.4962697611413
 31
0.0
 11
464.0433371501236
 21
270.6002987948967
 31
0.0
 11
464.4817641365861
 21
267.4348206642871
 31
0.0
 11
465.9918986101469
 21
266.655627939229
 31
0.0
 11
467.1610364431899
 21
267.0452233841388
 31
0.0
  0
SPLINE
  5
5692
330
1A
100
AcDbEntity
  8
寸法線
 48
10.0
100
AcDbSpline
210
0.0
220
0.0
230
1.0
 70
  1064
 71
     3
 72
    13
 73
     9
 74
     7
 42
0.000000001
 43
0.0000000001
 44
0.0000000001
 40
0.0
 40
0.0
 40
0.0
 40
0.0
 40
3.546053604694607
 40
9.278996093298884
 40
13.89970108471581
 40
17.09539662994939
 40
18.79470455702449
 40
20.02704699455836
 40
20.02704699455836
 40
20.02704699455836
 40
20.02704699455836
 10
489.0915071702636
 20
266.655627939229
 30
0.0
 10
490.146035439342
 20
267.1427566734332
 30
0.0
 10
492.9054307502581
 20
268.4174316009726
 30
0.0
 10
493.5703676566176
 20
277.3158884737908
 30
0.0
 10
489.6370646374718
 20
270.915801649849
 30
0.0
 10
489.8093008336726
 20
267.6667840912804
 30
0.0
 10
491.8815825313221
 20
266.3939650144704
 30
0.0
 10
492.7981866095581
 20
266.8524820983401
 30
0.0
 10
493.1834883896281
 20
267.0452233841388
 30
0.0
 11
489.0915071702636
 21
266.655627939229
 31
0.0
 11
491.9169226032124
 21
268.7984120624255
 31
0.0
 11
492.5502054964201
 21
274.4962697611413
 31
0.0
 11
490.0657890965618
 21
270.6002987948967
 31
0.0
 11
490.5042160830243
 21
267.4348206642871
 31
0.0
 11
492.0143505565851
 21
266.655627939229
 31
0.0
 11
493.1834883896281
 21
267.0452233841388
 31
0.0
  0
TEXT
  5
5693
330
1A
100
AcDbEntity
  8
寸法線
 48
10.0
100
AcDbText
 10
495.549535967748
 20
266.739955678573
 30
0.0
 40
5.2
  1
1
100
AcDbText
  0
SPLINE
  5
5694
330
1A
100
AcDbEntity
  8
寸法線
 48
10.0
100
AcDbSpline
210
0.0
220
0.0
230
1.0
 70
  1064
 71
     3
 72
    13
 73
     9
 74
     7
 42
0.000000001
 43
0.0000000001
 44
0.0000000001
 40
0.0
 40
0.0
 40
0.0
 40
0.0
 40
3.546053604694698
 40
9.278996093298963
 40
13.89970108471589
 40
17.09539662994947
 40
18.79470455702457
 40
20.02704699455844
 40
20.02704699455844
 40
20.02704699455844
 40
20.02704699455844
 10
513.1585234455572
 20
266.655627939229
 30
0.0
 10
514.2130517146355
 20
267.1427566734332
 30
0.0
 10
516.9724470255516
 20
268.4174316009723
 30
0.0
 10
517.6373839319115
 20
277.3158884737909
 30
0.0
 10
513.7040809127651
 20
270.915801649849
 30
0.0
 10
513.8763171089663
 20
267.6667840912804
 30
0.0
 10
515.9485988066156
 20
266.3939650144704
 30
0.0
 10
516.8652028848517
 20
266.8524820983401
 30
0.0
 10
517.2505046649217
 20
267.0452233841388
 30
0.0
 11
513.1585234455572
 21
266.655627939229
 31
0.0
 11
515.983938878506
 21
268.7984120624255
 31
0.0
 11
516.6172217717136
 21
274.4962697611413
 31
0.0
 11
514.1328053718554
 21
270.6002987948967
 31
0.0
 11
514.5712323583178
 21
267.4348206642871
 31
0.0
 11
516.0813668318787
 21
266.655627939229
 31
0.0
 11
517.2505046649217
 21
267.0452233841388
 31
0.0
  0
TEXT
  5
5695
330
1A
100
AcDbEntity
  8
寸法線
 48
10.0
100
AcDbText
 10
519.616552243041
 20
266.739955678573
 30
0.0
 40
5.2
  1
2
100
AcDbText
  0
TEXT
  5
5696
330
1A
100
AcDbEntity
  8
寸法線
 48
10.0
100
AcDbText
 10
545.467127360553
 20
266.739955678573
 30
0.0
 40
5.2
  1
3
100
AcDbText
  0
SPLINE
  5
5697
330
1A
100
AcDbEntity
  8
寸法線
 48
10.0
100
AcDbSpline
210
0.0
220
0.0
230
1.0
 70
  1064
 71
     3
 72
    13
 73
     9
 74
     7
 42
0.000000001
 43
0.0000000001
 44
0.0000000001
 40
0.0
 40
0.0
 40
0.0
 40
0.0
 40
3.546053604694698
 40
9.278996093298963
 40
13.89970108471589
 40
17.09539662994947
 40
18.79470455702457
 40
20.02704699455844
 40
20.02704699455844
 40
20.02704699455844
 40
20.02704699455844
 10
539.0090985630691
 20
266.655627939229
 30
0.0
 10
540.0636268321474
 20
267.1427566734332
 30
0.0
 10
542.8230221430634
 20
268.4174316009723
 30
0.0
 10
543.4879590494234
 20
277.3158884737909
 30
0.0
 10
539.5546560302771
 20
270.915801649849
 30
0.0
 10
539.7268922264782
 20
267.6667840912804
 30
0.0
 10
541.7991739241274
 20
266.3939650144704
 30
0.0
 10
542.7157780023635
 20
266.8524820983401
 30
0.0
 10
543.1010797824335
 20
267.0452233841388
 30
0.0
 11
539.0090985630691
 21
266.655627939229
 31
0.0
 11
541.8345139960179
 21
268.7984120624255
 31
0.0
 11
542.4677968892255
 21
274.4962697611413
 31
0.0
 11
539.9833804893673
 21
270.6002987948967
 31
0.0
 11
540.4218074758297
 21
267.4348206642871
 31
0.0
 11
541.9319419493905
 21
266.655627939229
 31
0.0
 11
543.1010797824335
 21
267.0452233841388
 31
0.0
  0
MTEXT
  5
5698
102
{ACAD_XDICTIONARY
360
5699
102
}
330
1A
100
AcDbEntity
  8
寸法線
 48
10.0
100
AcDbMText
 10
409.520099687769
 20
274.680071215848
 30
0.0
 40
8.0
 41
72.990776685661
 71
     2
 72
     5
  1
MODEL
1001
ACADANNOTATIVE
1000
AnnotativeData
1002
{
1070
     1
1070
     0
1002
}
1001
ACAD
1000
MTEXTBEGIN
1070
    44
1040
0.99
1000
MTEXTEND
  0
MTEXT
  5
569C
102
{ACAD_XDICTIONARY
360
569D
102
}
330
1A
100
AcDbEntity
  8
寸法線
 48
10.0
100
AcDbMText
 10
609.468455240367
 20
274.847549581594
 30
0.0
 40
8.0
 41
31.756318564289
 71
     2
 72
     5
  1
Q'ty
1001
ACADANNOTATIVE
1000
AnnotativeData
1002
{
1070
     1
1070
     0
1002
}
  0
MTEXT
  5
56A0
102
{ACAD_XDICTIONARY
360
56A1
102
}
330
1A
100
AcDbEntity
  8
寸法線
 48
10.0
100
AcDbMText
 10
574.317629958222
 20
273.791818721754
 30
0.0
 40
8.0
 41
38.545332
 71
     2
 72
     5
  1
NOTE
1001
ACADANNOTATIVE
1000
AnnotativeData
1002
{
1070
     1
1070
     0
1002
}
  0
LINE
  5
56A4
330
1A
100
AcDbEntity
  8
寸法線
 48
10.0
100
AcDbLine
 10
341.024741344939
 20
263.466852247242
 30
0.0
 11
373.024711344939
 21
277.536852247242
 31
0.0
  0
VIEWPORT
  5
2902
330
28FB
100
AcDbEntity
 67
     1
  8
0
 48
10.0
100
AcDbViewport
 10
0.0
 20
0.0
 30
0.0
 40
528.349942987457
 41
300.3
 68
     1
 69
     1
1001
ACAD
1000
MVIEW
1002
{
1070
    16
1010
0.0
1020
0.0
1030
0.0
1010
0.0
1020
0.0
1030
1.0
1040
0.0
1040
300.3
1040
205.756503333333
1040
143.551503333333
1040
50.0
1040
0.0
1040
0.0
1070
    16
1070
   100
1070
     0
1070
     1
1070
     0
1070
     0
1070
     0
1070
     0
1040
0.0
1040
0.0
1040
0.0
1040
10.0
1040
10.0
1040
10.0
1040
10.0
1070
     0
1002
{
1002
}
1002
}
  0
VIEWPORT
  5
2904
330
28FB
100
AcDbEntity
 67
     1
  8
図枠太線
 48
10.0
100
AcDbViewport
 10
204.746305129083
 20
161.396645458131
 30
0.0
 40
400.0
 41
240.0
 68
     2
 69
     2
1001
ACAD
1000
MVIEW
1002
{
1070
    16
1010
0.0
1020
0.0
1030
0.0
1010
0.0
1020
0.0
1030
1.0
1040
0.0
1040
480.0
1040
244.008253470256
1040
338.249365882307
1040
50.0
1040
0.0
1040
0.0
1070
     0
1070
   100
1070
     0
1070
     0
1070
     0
1070
     0
1070
     0
1070
     0
1040
0.0
1040
0.0
1040
0.0
1040
1.0
1040
1.0
1040
0.0
1040
0.0
1070
     0
1002
{
1002
}
1002
}
  0
INSERT
  5
2A59
330
28FB
100
AcDbEntity
 67
     1
  8
図枠太線
100
AcDbBlockReference
  2
A3横用_タイトル
 10
-0.352109406709
 20
-2.129314295396
 30
0.0
  0
MTEXT
  5
2E85
330
28FB
100
AcDbEntity
 67
     1
  8
寸法線
 48
10.0
100
AcDbMText
 10
149.12611673873
 20
14.255245025413
 30
0.0
 40
5.0
 41
11.452149180996
 71
     1
 72
     5
  1
{\H1.4x;1:2}
  0
MTEXT
  5
52E6
102
{ACAD_XDICTIONARY
360
52E7
102
}
330
28FB
100
AcDbEntity
 67
     1
  8
寸法線
 48
10.0
100
AcDbMText
 10
188.374763351806
 20
33.486520483444
 30
0.0
 40
5.0
 41
33.4
 71
     2
 72
     5
  1
takahashi
1001
ACADANNOTATIVE
1000
AnnotativeData
1002
{
1070
     1
1070
     0
1002
}
  0
MTEXT
  5
52EA
102
{ACAD_XDICTIONARY
360
52EB
102
}
330
28FB
100
AcDbEntity
 67
     1
  8
寸法線
 48
10.0
100
AcDbMText
 10
377.920856708546
 20
50.834223925331
 30
0.0
 40
5.0
 41
21.364427237501
 71
     1
 72
     5
  1
Q'ty: 
1001
ACADANNOTATIVE
1000
AnnotativeData
1002
{
1070
     1
1070
     0
1002
}
  0
MTEXT
  5
52EF
102
{ACAD_XDICTIONARY
360
52F0
102
}
330
28FB
100
AcDbEntity
 67
     1
  8
寸法線
 48
10.0
100
AcDbMText
 10
341.155313110839
 20
15.69393312214
 30
0.0
 40
8.0
 41
33.206594841881
 71
     1
 72
     5
  1
HE-13021
1001
ACADANNOTATIVE
1000
AnnotativeData
1002
{
1070
     1
1070
     0
1002
}
  0
MTEXT
  5
52F3
330
28FB
100
AcDbEntity
 67
     1
  8
寸法線
 48
10.0
100
AcDbMText
 10
212.548677740965
 20
51.185679132829
 30
0.0
 40
5.0
 41
106.699923235854
 71
     1
 72
     5
  1
a reduced drawing（A3size～）
  0
LINE
  5
52F4
330
28FB
100
AcDbEntity
 67
     1
  8
寸法線
 48
10.0
100
AcDbLine
 10
208.834699746824
 20
44.330291551503
 30
0.0
 11
305.487818087333
 21
44.330291551503
 31
0.0
  0
MTEXT
  5
5527
102
{ACAD_XDICTIONARY
360
5528
102
}
330
28FB
100
AcDbEntity
 67
     1
  8
寸法線
 48
10.0
100
AcDbMText
 10
307.871917838935
 20
32.414406608895
 30
0.0
 40
6.0
 41
45.0
 71
     1
 72
     5
  1
TSS-A8FA-□
1001
ACADANNOTATIVE
1000
AnnotativeData
1002
{
1070
     1
1070
     0
1002
}
  0
MTEXT
  5
552B
330
28FB
100
AcDbEntity
 67
     1
  8
寸法線
 48
10.0
100
AcDbMText
 10
361.549497831478
 20
35.070077613205
 30
0.0
 40
3.5
 41
59.837375094616
 71
     1
 72
     5
  1
CAPACITANCE TYPE\PLEVEL SENSOR
  0
MTEXT
  5
5848
102
{ACAD_XDICTIONARY
360
5849
102
}
330
28FB
100
AcDbEntity
 67
     1
  8
寸法線
 48
10.0
100
AcDbMText
 10
188.046305129083
 20
12.62384379707
 30
0.0
 40
5.0
 41
33.4
 71
     2
 72
     5
  1
\H0.9x;Sep.14.2016
1001
ACADANNOTATIVE
1000
AnnotativeData
1002
{
1070
     1
1070
     0
1002
}
  0
ENDSEC
  0
SECTION
  2
OBJECTS
  0
DICTIONARY
  5
C
330
0
100
AcDbDictionary
  3
ACAD_COLOR
350
2948
  3
ACAD_GROUP
350
D
  3
ACAD_LAYOUT
350
2816
  3
ACAD_MATERIAL
350
2947
  3
ACAD_MLEADERSTYLE
350
4AEE
  3
ACAD_MLINESTYLE
350
E
  3
ACAD_PLOTSETTINGS
350
2817
  3
ACAD_SCALELIST
350
4AC7
  3
ACAD_VISUALSTYLE
350
4AAE
  3
ACADDIM
350
4A22
  3
ACDBHEADERROUNDTRIPXREC
350
58A8
  3
ACDBVARIABLEDICTIONARY
350
4F26
  3
DWGPROPS
350
58CD
  0
DICTIONARY
  5
58CE
330
8
100
AcDbDictionary
280
     1
  3
ACAD_XREC_ROUNDTRIP
360
58CF
  0
DICTIONARY
  5
29EA
330
2
100
AcDbDictionary
280
     1
  3
ACAD_LAYERFILTERS
360
2B0C
  3
ACAD_LAYERSTATES
360
29EB
  0
DICTIONARY
  5
4B85
330
4B84
100
AcDbDictionary
280
     1
  3
ACDBCONTEXTDATAMANAGER
360
4B86
  0
DICTIONARY
  5
4B9A
330
4B99
100
AcDbDictionary
280
     1
  3
ACDBCONTEXTDATAMANAGER
360
4B9B
  0
DICTIONARY
  5
4BB1
330
4BB0
100
AcDbDictionary
280
     1
  3
ACDBCONTEXTDATAMANAGER
360
4BB2
  0
DICTIONARY
  5
4BB5
330
4BB4
100
AcDbDictionary
280
     1
  3
ACDBCONTEXTDATAMANAGER
360
4BB6
  0
DICTIONARY
  5
4BB9
330
4BB8
100
AcDbDictionary
280
     1
  3
ACDBCONTEXTDATAMANAGER
360
4BBA
  0
DICTIONARY
  5
4BBD
330
4BBC
100
AcDbDictionary
280
     1
  3
ACDBCONTEXTDATAMANAGER
360
4BBE
  0
DICTIONARY
  5
4BC1
330
4BC0
100
AcDbDictionary
280
     1
  3
ACDBCONTEXTDATAMANAGER
360
4BC2
  0
DICTIONARY
  5
4BC5
330
4BC4
100
AcDbDictionary
280
     1
  3
ACDBCONTEXTDATAMANAGER
360
4BC6
  0
DICTIONARY
  5
4BC9
330
4BC8
100
AcDbDictionary
280
     1
  3
ACDBCONTEXTDATAMANAGER
360
4BCA
  0
DICTIONARY
  5
4BCD
330
4BCC
100
AcDbDictionary
280
     1
  3
ACDBCONTEXTDATAMANAGER
360
4BCE
  0
DICTIONARY
  5
505F
330
505E
100
AcDbDictionary
280
     1
  3
ACDBCONTEXTDATAMANAGER
360
5060
  0
DICTIONARY
  5
509B
330
509A
100
AcDbDictionary
280
     1
  3
ACDBCONTEXTDATAMANAGER
360
509C
  0
DICTIONARY
  5
5132
330
5131
100
AcDbDictionary
280
     1
  3
ACDBCONTEXTDATAMANAGER
360
5133
  0
DICTIONARY
  5
518E
330
518D
100
AcDbDictionary
280
     1
  3
ACDBCONTEXTDATAMANAGER
360
518F
  0
DICTIONARY
  5
519C
330
519B
100
AcDbDictionary
280
     1
  3
ACDBCONTEXTDATAMANAGER
360
519D
  0
DICTIONARY
  5
529A
330
5299
100
AcDbDictionary
280
     1
  3
ACDBCONTEXTDATAMANAGER
360
529B
  0
DICTIONARY
  5
529E
330
529D
100
AcDbDictionary
280
     1
  3
ACDBCONTEXTDATAMANAGER
360
529F
  0
DICTIONARY
  5
5630
330
562F
100
AcDbDictionary
280
     1
  3
ACDBCONTEXTDATAMANAGER
360
5631
  0
DICTIONARY
  5
5634
330
5633
100
AcDbDictionary
280
     1
  3
ACDBCONTEXTDATAMANAGER
360
5635
  0
DICTIONARY
  5
5638
330
5637
100
AcDbDictionary
280
     1
  3
ACDBCONTEXTDATAMANAGER
360
5639
  0
DICTIONARY
  5
5699
330
5698
100
AcDbDictionary
280
     1
  3
ACDBCONTEXTDATAMANAGER
360
569A
  0
DICTIONARY
  5
569D
330
569C
100
AcDbDictionary
280
     1
  3
ACDBCONTEXTDATAMANAGER
360
569E
  0
DICTIONARY
  5
56A1
330
56A0
100
AcDbDictionary
280
     1
  3
ACDBCONTEXTDATAMANAGER
360
56A2
  0
DICTIONARY
  5
52E7
330
52E6
100
AcDbDictionary
280
     1
  3
ACDBCONTEXTDATAMANAGER
360
52E8
  0
DICTIONARY
  5
52EB
330
52EA
100
AcDbDictionary
280
     1
  3
ACDBCONTEXTDATAMANAGER
360
52EC
  0
DICTIONARY
  5
52F0
330
52EF
100
AcDbDictionary
280
     1
  3
ACDBCONTEXTDATAMANAGER
360
52F1
  0
DICTIONARY
  5
5528
330
5527
100
AcDbDictionary
280
     1
  3
ACDBCONTEXTDATAMANAGER
360
5529
  0
DICTIONARY
  5
5849
330
5848
100
AcDbDictionary
280
     1
  3
ACDBCONTEXTDATAMANAGER
360
584A
  0
DICTIONARY
  5
2948
102
{ACAD_REACTORS
330
C
102
}
330
C
100
AcDbDictionary
  0
DICTIONARY
  5
D
102
{ACAD_REACTORS
330
C
102
}
330
C
100
AcDbDictionary
  3
*A1
350
43F3
  0
DICTIONARY
  5
2816
102
{ACAD_REACTORS
330
C
102
}
330
C
100
AcDbDictionary
  0
DICTIONARY
  5
2947
102
{ACAD_REACTORS
330
C
102
}
330
C
100
AcDbDictionary
  3
BYBLOCK
350
4AEA
  3
BYLAYER
350
4AE9
  3
GLOBAL
350
4AEB
  0
DICTIONARY
  5
4AEE
102
{ACAD_REACTORS
330
C
102
}
330
C
100
AcDbDictionary
  3
STANDARD
350
4AEF
  0
DICTIONARY
  5
E
102
{ACAD_REACTORS
330
C
102
}
330
C
100
AcDbDictionary
  3
STANDARD
350
13
  0
DICTIONARY
  5
2817
102
{ACAD_REACTORS
330
C
102
}
330
C
100
AcDbDictionary
  0
DICTIONARY
  5
4AC7
102
{ACAD_REACTORS
330
C
102
}
330
C
100
AcDbDictionary
  3
A0
350
4AC8
  3
A1
350
4AC9
  3
A2
350
4ACA
  3
A3
350
4ACB
  3
A4
350
4ACC
  3
A5
350
4ACD
  3
A6
350
4ACE
  3
A7
350
4ACF
  3
A8
350
4AD0
  3
A9
350
4AD1
  3
B0
350
4AD2
  3
B1
350
4AD3
  3
B2
350
4AD4
  3
B3
350
4AD5
  3
B4
350
4AD6
  3
B5
350
4AD7
  3
B6
350
4AD8
  3
B7
350
4AD9
  3
B8
350
4ADA
  3
B9
350
4ADB
  3
C0
350
4ADC
  3
C1
350
4ADD
  3
C2
350
4ADE
  3
C3
350
4ADF
  3
C4
350
4AE0
  3
C5
350
4AE1
  3
C6
350
4AE2
  3
C7
350
4AE3
  3
C8
350
4AE4
  3
C9
350
4AE5
  3
D0
350
4AE6
  3
D1
350
4AE7
  3
D2
350
4AE8
  0
DICTIONARY
  5
4AAE
102
{ACAD_REACTORS
330
C
102
}
330
C
100
AcDbDictionary
  3
2DWIREFRAME
350
4AB3
  3
BASIC
350
4AB6
  3
BRIGHTEN
350
4ABA
  3
COLORCHANGE
350
4ABE
  3
CONCEPTUAL
350
4AB8
  3
DIM
350
4AB9
  3
EDGECOLOROFF
350
4AC1
  3
FACEPATTERN
350
4ABD
  3
FLAT
350
4AAF
  3
FLATWITHEDGES
350
4AB0
  3
GOURAUD
350
4AB1
  3
GOURAUDWITHEDGES
350
4AB2
  3
HIDDEN
350
4AB5
  3
JITTEROFF
350
4ABF
  3
LINEPATTERN
350
4ABC
  3
MODELING
350
501A
  3
OVERHANGOFF
350
4AC0
  3
REALISTIC
350
4AB7
  3
SHADED
350
4AC6
  3
SHADED_WITH_EDGES
350
4AC5
  3
SHADES_OF_GRAY
350
4AC2
  3
SKETCHY
350
4AC3
  3
THICKEN
350
4ABB
  3
WIREFRAME
350
4AB4
  3
X-RAY
350
4AC4
  0
XRECORD
  5
4A22
102
{ACAD_REACTORS
330
C
102
}
330
C
100
AcDbXrecord
 90
   990106
  3

 60
     0
 61
     0
 62
     4
 63
     4
 64
     0
 65
     0
 66
     0
 67
     3
 68
     1
 69
     0
 70
     0
 71
     0
 72
     0
 40
0.0
170
     2
340
0
  0
DICTIONARY
  5
58A8
102
{ACAD_REACTORS
330
C
102
}
330
C
100
AcDbDictionary
  3
CEPSNID
350
58B2
  3
CEPSNTYPE
350
58B1
  3
COLORDICT
350
58CB
  3
DIMSTYLEDATA
350
58C8
  3
FINGERPRINTGUID
350
58B3
  3
HYPERLINKBASE
350
58AB
  3
INSUNITS
350
58B0
  3
LAYOUTDICT
350
58AD
  3
LWETCUNION
350
58AF
  3
MATERIALDICT
350
58CC
  3
PLOTSETDICT
350
58AE
  3
PSVPSCALE
350
58B5
  3
PUCSBASE
350
58B8
  3
PUCSORGBACK
350
58BE
  3
PUCSORGBOTTOM
350
58BA
  3
PUCSORGFRONT
350
58BD
  3
PUCSORGLEFT
350
58BB
  3
PUCSORGRIGHT
350
58BC
  3
PUCSORGTOP
350
58B9
  3
PUCSORTHOREF
350
58B6
  3
PUCSORTHOVIEW
350
58B7
  3
STYLESHEET
350
58AC
  3
TSTACKALIGN
350
58A9
  3
TSTACKSIZE
350
58AA
  3
UCSBASE
350
58C1
  3
UCSORGBACK
350
58C7
  3
UCSORGBOTTOM
350
58C3
  3
UCSORGFRONT
350
58C6
  3
UCSORGLEFT
350
58C4
  3
UCSORGRIGHT
350
58C5
  3
UCSORGTOP
350
58C2
  3
UCSORTHOREF
350
58BF
  3
UCSORTHOVIEW
350
58C0
  3
VERSIONGUID
350
58B4
  0
DICTIONARY
  5
4F26
102
{ACAD_REACTORS
330
C
102
}
330
C
100
AcDbDictionary
  3
CANNOSCALE
350
4F27
  3
CMLEADERSTYLE
350
4F29
  3
CTABLESTYLE
350
4F28
  3
DIMASSOC
350
58C9
  3
HIDETEXT
350
58CA
  3
MSLTSCALE
350
4F2A
  3
XCLIPFRAME
350
4F2B
  0
XRECORD
  5
58CD
102
{ACAD_REACTORS
330
C
102
}
330
C
100
AcDbXrecord
  1
DWGPROPS COOKIE
  2

  3

  4

  6

  7

  8
takahashi
  9

300
=
301
=
302
=
303
=
304
=
305
=
306
=
307
=
308
=
309
=
 40
0.0
 41
2450576.222302431
 42
2457658.402543669
  1

 90
        0
  0
XRECORD
  5
58CF
102
{ACAD_REACTORS
330
58CE
102
}
330
58CE
100
AcDbXrecord
102
VTR_0.000_0.000_1.000_1.000_VISUALSTYLE
340
4AB3
102
VTR_0.000_0.000_1.000_1.000_GRIDDISPLAY
 70
     3
102
VTR_0.000_0.000_1.000_1.000_GRIDMAJOR
 70
     5
102
VTR_0.000_0.000_1.000_1.000_DEFAULTLIGHTING
280
     1
102
VTR_0.000_0.000_1.000_1.000_DEFAULTLIGHTINGTYPE
 70
     1
102
VTR_0.000_0.000_1.000_1.000_BRIGHTNESS
141
0.0
102
VTR_0.000_0.000_1.000_1.000_CONTRAST
142
0.0
  0
DICTIONARY
  5
2B0C
102
{ACAD_REACTORS
330
29EA
102
}
330
29EA
100
AcDbDictionary
  0
DICTIONARY
  5
29EB
102
{ACAD_REACTORS
330
29EA
102
}
330
29EA
100
AcDbDictionary
  0
DICTIONARY
  5
4B86
102
{ACAD_REACTORS
330
4B85
102
}
330
4B85
100
AcDbDictionary
  3
ACDB_ANNOTATIONSCALES
350
4B87
  0
DICTIONARY
  5
4B9B
102
{ACAD_REACTORS
330
4B9A
102
}
330
4B9A
100
AcDbDictionary
  3
ACDB_ANNOTATIONSCALES
350
4B9C
  0
DICTIONARY
  5
4BB2
102
{ACAD_REACTORS
330
4BB1
102
}
330
4BB1
100
AcDbDictionary
  3
ACDB_ANNOTATIONSCALES
350
4BB3
  0
DICTIONARY
  5
4BB6
102
{ACAD_REACTORS
330
4BB5
102
}
330
4BB5
100
AcDbDictionary
  3
ACDB_ANNOTATIONSCALES
350
4BB7
  0
DICTIONARY
  5
4BBA
102
{ACAD_REACTORS
330
4BB9
102
}
330
4BB9
100
AcDbDictionary
  3
ACDB_ANNOTATIONSCALES
350
4BBB
  0
DICTIONARY
  5
4BBE
102
{ACAD_REACTORS
330
4BBD
102
}
330
4BBD
100
AcDbDictionary
  3
ACDB_ANNOTATIONSCALES
350
4BBF
  0
DICTIONARY
  5
4BC2
102
{ACAD_REACTORS
330
4BC1
102
}
330
4BC1
100
AcDbDictionary
  3
ACDB_ANNOTATIONSCALES
350
4BC3
  0
DICTIONARY
  5
4BC6
102
{ACAD_REACTORS
330
4BC5
102
}
330
4BC5
100
AcDbDictionary
  3
ACDB_ANNOTATIONSCALES
350
4BC7
  0
DICTIONARY
  5
4BCA
102
{ACAD_REACTORS
330
4BC9
102
}
330
4BC9
100
AcDbDictionary
  3
ACDB_ANNOTATIONSCALES
350
4BCB
  0
DICTIONARY
  5
4BCE
102
{ACAD_REACTORS
330
4BCD
102
}
330
4BCD
100
AcDbDictionary
  3
ACDB_ANNOTATIONSCALES
350
4BCF
  0
DICTIONARY
  5
5060
102
{ACAD_REACTORS
330
505F
102
}
330
505F
100
AcDbDictionary
  3
ACDB_ANNOTATIONSCALES
350
5061
  0
DICTIONARY
  5
509C
102
{ACAD_REACTORS
330
509B
102
}
330
509B
100
AcDbDictionary
  3
ACDB_ANNOTATIONSCALES
350
509D
  0
DICTIONARY
  5
5133
102
{ACAD_REACTORS
330
5132
102
}
330
5132
100
AcDbDictionary
  3
ACDB_ANNOTATIONSCALES
350
5134
  0
DICTIONARY
  5
518F
102
{ACAD_REACTORS
330
518E
102
}
330
518E
100
AcDbDictionary
  3
ACDB_ANNOTATIONSCALES
350
5190
  0
DICTIONARY
  5
519D
102
{ACAD_REACTORS
330
519C
102
}
330
519C
100
AcDbDictionary
  3
ACDB_ANNOTATIONSCALES
350
519E
  0
DICTIONARY
  5
529B
102
{ACAD_REACTORS
330
529A
102
}
330
529A
100
AcDbDictionary
  3
ACDB_ANNOTATIONSCALES
350
529C
  0
DICTIONARY
  5
529F
102
{ACAD_REACTORS
330
529E
102
}
330
529E
100
AcDbDictionary
  3
ACDB_ANNOTATIONSCALES
350
52A0
  0
DICTIONARY
  5
5631
102
{ACAD_REACTORS
330
5630
102
}
330
5630
100
AcDbDictionary
  3
ACDB_ANNOTATIONSCALES
350
5632
  0
DICTIONARY
  5
5635
102
{ACAD_REACTORS
330
5634
102
}
330
5634
100
AcDbDictionary
  3
ACDB_ANNOTATIONSCALES
350
5636
  0
DICTIONARY
  5
5639
102
{ACAD_REACTORS
330
5638
102
}
330
5638
100
AcDbDictionary
  3
ACDB_ANNOTATIONSCALES
350
563A
  0
DICTIONARY
  5
569A
102
{ACAD_REACTORS
330
5699
102
}
330
5699
100
AcDbDictionary
  3
ACDB_ANNOTATIONSCALES
350
569B
  0
DICTIONARY
  5
569E
102
{ACAD_REACTORS
330
569D
102
}
330
569D
100
AcDbDictionary
  3
ACDB_ANNOTATIONSCALES
350
569F
  0
DICTIONARY
  5
56A2
102
{ACAD_REACTORS
330
56A1
102
}
330
56A1
100
AcDbDictionary
  3
ACDB_ANNOTATIONSCALES
350
56A3
  0
DICTIONARY
  5
52E8
102
{ACAD_REACTORS
330
52E7
102
}
330
52E7
100
AcDbDictionary
  3
ACDB_ANNOTATIONSCALES
350
52E9
  0
DICTIONARY
  5
52EC
102
{ACAD_REACTORS
330
52EB
102
}
330
52EB
100
AcDbDictionary
  3
ACDB_ANNOTATIONSCALES
350
52ED
  0
DICTIONARY
  5
52F1
102
{ACAD_REACTORS
330
52F0
102
}
330
52F0
100
AcDbDictionary
  3
ACDB_ANNOTATIONSCALES
350
52F2
  0
DICTIONARY
  5
5529
102
{ACAD_REACTORS
330
5528
102
}
330
5528
100
AcDbDictionary
  3
ACDB_ANNOTATIONSCALES
350
552A
  0
DICTIONARY
  5
584A
102
{ACAD_REACTORS
330
5849
102
}
330
5849
100
AcDbDictionary
  3
ACDB_ANNOTATIONSCALES
350
584B
  0
GROUP
  5
43F3
102
{ACAD_REACTORS
330
D
102
}
330
D
100
AcDbGroup
300

 70
     1
 71
     1
340
43BA
340
43B9
340
43A2
340
43A1
340
43A0
340
439F
340
439E
340
439D
340
439C
340
439B
340
439A
340
4399
340
4398
340
4397
340
4396
340
4395
340
40E9
340
40E8
340
40E7
340
40E5
340
40E4
  0
MATERIAL
  5
4AEA
102
{ACAD_REACTORS
330
2947
102
}
102
{ACAD_XDICTIONARY
360
58D2
102
}
330
2947
100
AcDbMaterial
  1
BYBLOCK
  0
MATERIAL
  5
4AE9
102
{ACAD_REACTORS
330
2947
102
}
102
{ACAD_XDICTIONARY
360
58D0
102
}
330
2947
100
AcDbMaterial
  1
BYLAYER
  0
MATERIAL
  5
4AEB
102
{ACAD_REACTORS
330
2947
102
}
102
{ACAD_XDICTIONARY
360
58D4
102
}
330
2947
100
AcDbMaterial
  1
GLOBAL
  0
ACAD_PROXY_OBJECT
  5
4AEF
102
{ACAD_REACTORS
330
4AEE
102
}
330
4AEE
100
AcDbProxyObject
 90
      499
 91
      507
 93
      610
310
40901902A4063FBFFFFFE0000000000000020400000000000020404214DD185B99185C990000000000000104090141901A00000000000004100000000000000041025764000000000000039000
340
14
340
0
340
10
340
0
 94
        0
1001
ACAD_MLEADERVER
1070
     2
  0
MLINESTYLE
  5
13
102
{ACAD_REACTORS
330
E
102
}
330
E
100
AcDbMlineStyle
  2
STANDARD
 70
     0
  3

 62
     0
 51
90.0
 52
90.0
 71
     2
 49
0.5
 62
   256
  6
BYLAYER
 49
-0.5
 62
   256
  6
BYLAYER
  0
ACAD_PROXY_OBJECT
  5
4AC8
102
{ACAD_REACTORS
330
4AC7
102
}
330
4AC7
100
AcDbProxyObject
 90
      499
 91
      504
 93
       41
310
903313A31580
  0
ACAD_PROXY_OBJECT
  5
4AC9
102
{ACAD_REACTORS
330
4AC7
102
}
330
4AC7
100
AcDbProxyObject
 90
      499
 91
      504
 93
      105
310
903313A324000000000000004000
  0
ACAD_PROXY_OBJECT
  5
4ACA
102
{ACAD_REACTORS
330
4AC7
102
}
330
4AC7
100
AcDbProxyObject
 90
      499
 91
      504
 93
      105
310
903313A344000000000000104000
  0
ACAD_PROXY_OBJECT
  5
4ACB
102
{ACAD_REACTORS
330
4AC7
102
}
330
4AC7
100
AcDbProxyObject
 90
      499
 91
      504
 93
      105
310
903313A354000000000000144000
  0
ACAD_PROXY_OBJECT
  5
4ACC
102
{ACAD_REACTORS
330
4AC7
102
}
330
4AC7
100
AcDbProxyObject
 90
      499
 91
      504
 93
      105
310
903313A384000000000000204000
  0
ACAD_PROXY_OBJECT
  5
4ACD
102
{ACAD_REACTORS
330
4AC7
102
}
330
4AC7
100
AcDbProxyObject
 90
      499
 91
      504
 93
      113
310
904313A31304000000000000244000
  0
ACAD_PROXY_OBJECT
  5
4ACE
102
{ACAD_REACTORS
330
4AC7
102
}
330
4AC7
100
AcDbProxyObject
 90
      499
 91
      504
 93
      113
310
904313A31364000000000000304000
  0
ACAD_PROXY_OBJECT
  5
4ACF
102
{ACAD_REACTORS
330
4AC7
102
}
330
4AC7
100
AcDbProxyObject
 90
      499
 91
      504
 93
      113
310
904313A32304000000000000344000
  0
ACAD_PROXY_OBJECT
  5
4AD0
102
{ACAD_REACTORS
330
4AC7
102
}
330
4AC7
100
AcDbProxyObject
 90
      499
 91
      504
 93
      113
310
904313A333040000000000003E4000
  0
ACAD_PROXY_OBJECT
  5
4AD1
102
{ACAD_REACTORS
330
4AC7
102
}
330
4AC7
100
AcDbProxyObject
 90
      499
 91
      504
 93
      113
310
904313A34304000000000000444000
  0
ACAD_PROXY_OBJECT
  5
4AD2
102
{ACAD_REACTORS
330
4AC7
102
}
330
4AC7
100
AcDbProxyObject
 90
      499
 91
      504
 93
      113
310
904313A35304000000000000494000
  0
ACAD_PROXY_OBJECT
  5
4AD3
102
{ACAD_REACTORS
330
4AC7
102
}
330
4AC7
100
AcDbProxyObject
 90
      499
 91
      504
 93
      121
310
905313A3130304000000000000594000
  0
ACAD_PROXY_OBJECT
  5
4AD4
102
{ACAD_REACTORS
330
4AC7
102
}
330
4AC7
100
AcDbProxyObject
 90
      499
 91
      504
 93
      105
310
903323A310000000000000010100
  0
ACAD_PROXY_OBJECT
  5
4AD5
102
{ACAD_REACTORS
330
4AC7
102
}
330
4AC7
100
AcDbProxyObject
 90
      499
 91
      504
 93
      105
310
903343A310000000000000410100
  0
ACAD_PROXY_OBJECT
  5
4AD6
102
{ACAD_REACTORS
330
4AC7
102
}
330
4AC7
100
AcDbProxyObject
 90
      499
 91
      504
 93
      105
310
903383A310000000000000810100
  0
ACAD_PROXY_OBJECT
  5
4AD7
102
{ACAD_REACTORS
330
4AC7
102
}
330
4AC7
100
AcDbProxyObject
 90
      499
 91
      504
 93
      113
310
90431303A310000000000000910100
  0
ACAD_PROXY_OBJECT
  5
4AD8
102
{ACAD_REACTORS
330
4AC7
102
}
330
4AC7
100
AcDbProxyObject
 90
      499
 91
      504
 93
      121
310
9053130303A310000000000001650100
  0
ACAD_PROXY_OBJECT
  5
4AD9
102
{ACAD_REACTORS
330
4AC7
102
}
330
4AC7
100
AcDbProxyObject
 90
      499
 91
      504
 93
      257
310
90E312F31323822203D2031272D3022000000000000200FC000000000000284000
  0
ACAD_PROXY_OBJECT
  5
4ADA
102
{ACAD_REACTORS
330
4AC7
102
}
330
4AC7
100
AcDbProxyObject
 90
      499
 91
      504
 93
      249
310
90D312F363422203D2031272D3022000000000000240FC000000000000284000
  0
ACAD_PROXY_OBJECT
  5
4ADB
102
{ACAD_REACTORS
330
4AC7
102
}
330
4AC7
100
AcDbProxyObject
 90
      499
 91
      504
 93
      249
310
90D312F333222203D2031272D3022000000000000280FC000000000000284000
  0
ACAD_PROXY_OBJECT
  5
4ADC
102
{ACAD_REACTORS
330
4AC7
102
}
330
4AC7
100
AcDbProxyObject
 90
      499
 91
      504
 93
      249
310
90D312F313622203D2031272D30220000000000002C0FC000000000000284000
  0
ACAD_PROXY_OBJECT
  5
4ADD
102
{ACAD_REACTORS
330
4AC7
102
}
330
4AC7
100
AcDbProxyObject
 90
      499
 91
      504
 93
      249
310
90D332F333222203D2031272D30220000000000002E0FC000000000000284000
  0
ACAD_PROXY_OBJECT
  5
4ADE
102
{ACAD_REACTORS
330
4AC7
102
}
330
4AC7
100
AcDbProxyObject
 90
      499
 91
      504
 93
      241
310
90C312F3822203D2031272D3022000000000000300FC000000000000284000
  0
ACAD_PROXY_OBJECT
  5
4ADF
102
{ACAD_REACTORS
330
4AC7
102
}
330
4AC7
100
AcDbProxyObject
 90
      499
 91
      504
 93
      249
310
90D332F313622203D2031272D3022000000000000320FC000000000000284000
  0
ACAD_PROXY_OBJECT
  5
4AE0
102
{ACAD_REACTORS
330
4AC7
102
}
330
4AC7
100
AcDbProxyObject
 90
      499
 91
      504
 93
      241
310
90C312F3422203D2031272D3022000000000000340FC000000000000284000
  0
ACAD_PROXY_OBJECT
  5
4AE1
102
{ACAD_REACTORS
330
4AC7
102
}
330
4AC7
100
AcDbProxyObject
 90
      499
 91
      504
 93
      241
310
90C332F3822203D2031272D3022000000000000360FC000000000000284000
  0
ACAD_PROXY_OBJECT
  5
4AE2
102
{ACAD_REACTORS
330
4AC7
102
}
330
4AC7
100
AcDbProxyObject
 90
      499
 91
      504
 93
      241
310
90C312F3222203D2031272D3022000000000000380FC000000000000284000
  0
ACAD_PROXY_OBJECT
  5
4AE3
102
{ACAD_REACTORS
330
4AC7
102
}
330
4AC7
100
AcDbProxyObject
 90
      499
 91
      504
 93
      241
310
90C332F3422203D2031272D30220000000000003A0FC000000000000284000
  0
ACAD_PROXY_OBJECT
  5
4AE4
102
{ACAD_REACTORS
330
4AC7
102
}
330
4AC7
100
AcDbProxyObject
 90
      499
 91
      504
 93
      161
310
90A3122203D2031272D30224000000000000284000
  0
ACAD_PROXY_OBJECT
  5
4AE5
102
{ACAD_REACTORS
330
4AC7
102
}
330
4AC7
100
AcDbProxyObject
 90
      499
 91
      504
 93
      257
310
90E312D312F3222203D2031272D30220000000000003E0FC000000000000284000
  0
ACAD_PROXY_OBJECT
  5
4AE6
102
{ACAD_REACTORS
330
4AC7
102
}
330
4AC7
100
AcDbProxyObject
 90
      499
 91
      504
 93
      225
310
90A3322203D2031272D302200000000000002100000000000000284000
  0
ACAD_PROXY_OBJECT
  5
4AE7
102
{ACAD_REACTORS
330
4AC7
102
}
330
4AC7
100
AcDbProxyObject
 90
      499
 91
      504
 93
      225
310
90A3622203D2031272D302200000000000006100000000000000284000
  0
ACAD_PROXY_OBJECT
  5
4AE8
102
{ACAD_REACTORS
330
4AC7
102
}
330
4AC7
100
AcDbProxyObject
 90
      499
 91
      504
 93
      249
310
90D31272D3022203D2031272D30220000000000000A100000000000000284000
  0
ACAD_PROXY_OBJECT
  5
4AB3
102
{ACAD_REACTORS
330
4AAE
102
}
330
4AAE
100
AcDbProxyObject
 90
      499
 91
      503
 93
      436
310
42CC9915DA5C99599C985B595049028333333333333E33F0000000000000F90107901411070040501600405405064090741402480A0340
1001
ACAD
1000
AcDbSavedByObjectVersion
1070
     0
  0
ACAD_PROXY_OBJECT
  5
4AB6
102
{ACAD_REACTORS
330
4AAE
102
}
330
4AAE
100
AcDbProxyObject
 90
      499
 91
      503
 93
      388
310
4150985CDA58D07406404333333333333E33F0000000000000F90107A41107004050150841D405064090741402480A0350
1001
ACAD
1000
AcDbSavedByObjectVersion
1070
     0
  0
ACAD_PROXY_OBJECT
  5
4ABA
102
{ACAD_REACTORS
330
4AAE
102
}
330
4AAE
100
AcDbProxyObject
 90
      499
 91
      503
 93
      428
310
42109C9A59DA1D195B90C409028333333333333E33F0000000000000F9010790141107004050150841D405064090741402480A029950
1001
ACAD
1000
AcDbSavedByObjectVersion
1070
     0
  0
ACAD_PROXY_OBJECT
  5
4ABE
102
{ACAD_REACTORS
330
4AAE
102
}
330
4AAE
100
AcDbProxyObject
 90
      499
 91
      503
 93
      452
310
42D0DBDB1BDC90DA185B99D95104090240C333333333333E33F0000000000000F90108901411070040501508421405064090741402480A0350
1001
ACAD
1000
AcDbSavedByObjectVersion
1070
     0
  0
ACAD_PROXY_OBJECT
  5
4AB8
102
{ACAD_REACTORS
330
4AAE
102
}
330
4AAE
100
AcDbProxyObject
 90
      499
 91
      503
 93
      500
310
4290DBDB98D95C1D1D585B10940D028333333333333E33F0000000000000F90107902409070040501000000000018199010841D405064090740C02480A0340
1001
ACAD
1000
AcDbSavedByObjectVersion
1070
     0
  0
ACAD_PROXY_OBJECT
  5
4AB9
102
{ACAD_REACTORS
330
4AAE
102
}
330
4AAE
100
AcDbProxyObject
 90
      499
 91
      503
 93
      412
310
40D11A5B50B409028333333333333E33F0000000000000F9010790141107004050150841D405064090741402480A02677FFFFFD0
1001
ACAD
1000
AcDbSavedByObjectVersion
1070
     0
  0
ACAD_PROXY_OBJECT
  5
4AC1
102
{ACAD_REACTORS
330
4AAE
102
}
330
4AAE
100
AcDbProxyObject
 90
      499
 91
      503
 93
      452
310
43115919D950DBDB1BDC93D999916409028333333333333E33F0000000000000F9010790141107004050150841D405064090741402480A0350
1001
ACAD
1000
AcDbSavedByObjectVersion
1070
     0
  0
ACAD_PROXY_OBJECT
  5
4ABD
102
{ACAD_REACTORS
330
4AAE
102
}
330
4AAE
100
AcDbProxyObject
 90
      499
 91
      503
 93
      444
310
42D19858D95C185D1D195C9B90F409028333333333333E33F0000000000000F9010790141107004050150841D405064090741402480A0350
1001
ACAD
1000
AcDbSavedByObjectVersion
1070
     0
  0
ACAD_PROXY_OBJECT
  5
4AAF
102
{ACAD_REACTORS
330
4AAE
102
}
330
4AAE
100
AcDbProxyObject
 90
      499
 91
      503
 93
      380
310
41119B185D240901404333333333333E33F0000000000000F9010740A907004050150841D405064090741402480A1B50
1001
ACAD
1000
AcDbSavedByObjectVersion
1070
     0
  0
ACAD_PROXY_OBJECT
  5
4AB0
102
{ACAD_REACTORS
330
4AAE
102
}
330
4AAE
100
AcDbProxyObject
 90
      499
 91
      503
 93
      468
310
43519B185D15DA5D1A115919D95CD0140901404333333333333E33F0000000000000F90107409019070040501600405405064090741402480A1B50
1001
ACAD
1000
AcDbSavedByObjectVersion
1070
     0
  0
ACAD_PROXY_OBJECT
  5
4AB1
102
{ACAD_REACTORS
330
4AAE
102
}
330
4AAE
100
AcDbProxyObject
 90
      499
 91
      503
 93
      404
310
41D1DBDD5C985D5910240902404333333333333E33F0000000000000F9010740A9070040501641D405064090741402480A1B50
1001
ACAD
1000
AcDbSavedByObjectVersion
1070
     0
  0
ACAD_PROXY_OBJECT
  5
4AB2
102
{ACAD_REACTORS
330
4AAE
102
}
330
4AAE
100
AcDbProxyObject
 90
      499
 91
      503
 93
      492
310
4411DBDD5C985D5915DA5D1A115919D95CD0340902404333333333333E33F0000000000000F90107409019070040501600405405064090741402480A1B50
1001
ACAD
1000
AcDbSavedByObjectVersion
1070
     0
  0
ACAD_PROXY_OBJECT
  5
4AB5
102
{ACAD_REACTORS
330
4AAE
102
}
330
4AAE
100
AcDbProxyObject
 90
      499
 91
      503
 93
      476
310
41921A5919195B90640502408333333333333E33F0000000000000F901079024090700405020000000000001110200405405064090740C02480A0340
1001
ACAD
1000
AcDbSavedByObjectVersion
1070
     0
  0
ACAD_PROXY_OBJECT
  5
4ABF
102
{ACAD_REACTORS
330
4AAE
102
}
330
4AAE
100
AcDbProxyObject
 90
      499
 91
      503
 93
      428
310
42529A5D1D195C93D999914409028333333333333E33F0000000000000F9010790141107004050150A41D405064090741402480A0350
1001
ACAD
1000
AcDbSavedByObjectVersion
1070
     0
  0
ACAD_PROXY_OBJECT
  5
4ABC
102
{ACAD_REACTORS
330
4AAE
102
}
330
4AAE
100
AcDbProxyObject
 90
      499
 91
      503
 93
      444
310
42D31A5B995C185D1D195C9B90E409028333333333333E33F0000000000000F9010790141107004050750841D405064090741402483A0350
1001
ACAD
1000
AcDbSavedByObjectVersion
1070
     0
  0
ACAD_PROXY_OBJECT
  5
501A
102
{ACAD_REACTORS
330
4AAE
102
}
330
4AAE
100
AcDbProxyObject
 90
      499
 91
      503
 93
      412
310
90A409038333333333333E33F0000000000000F901074090290700405010000000000201990108421405064090741402480A1B40
1001
ACAD
1000
AcDbSavedByObjectVersion
1070
     0
  0
ACAD_PROXY_OBJECT
  5
4AC0
102
{ACAD_REACTORS
330
4AAE
102
}
330
4AAE
100
AcDbProxyObject
 90
      499
 91
      503
 93
      444
310
42D3DD995C9A185B99D3D999915409028333333333333E33F0000000000000F9010790141107004050150941D405064090741402480A0350
1001
ACAD
1000
AcDbSavedByObjectVersion
1070
     0
  0
ACAD_PROXY_OBJECT
  5
4AB7
102
{ACAD_REACTORS
330
4AAE
102
}
330
4AAE
100
AcDbProxyObject
 90
      499
 91
      503
 93
      428
310
425499585B1A5CDD1A58D08409038333333333333E33F0000000000000F9010740A907004050150800405405064090740C02480A1B40
1001
ACAD
1000
AcDbSavedByObjectVersion
1070
     0
  0
ACAD_PROXY_OBJECT
  5
4AC6
102
{ACAD_REACTORS
330
4AAE
102
}
330
4AAE
100
AcDbProxyObject
 90
      499
 91
      503
 93
      420
310
4194DA1859195911B40902404333333333333E33F0000000000000F9010740A41107004050150800405405064090840C02480A0B40
1001
ACAD
1000
AcDbSavedByObjectVersion
1070
     0
  0
ACAD_PROXY_OBJECT
  5
4AC5
102
{ACAD_REACTORS
330
4AAE
102
}
330
4AAE
100
AcDbProxyObject
 90
      499
 91
      503
 93
      516
310
4454DA18591959081DDA5D1A08195919D95CD1A40902404333333333333E33F0000000000000F901074090142907004050250800405405064090740C02480A0B40
1001
ACAD
1000
AcDbSavedByObjectVersion
1070
     0
  0
ACAD_PROXY_OBJECT
  5
4AC2
102
{ACAD_REACTORS
330
4AAE
102
}
330
4AAE
100
AcDbProxyObject
 90
      499
 91
      503
 93
      532
310
4394DA1859195CC81BD98811DC985E5174090240C333333333333E33F0000000000000F901079024090741D01000000000000111010841D405064090740C02480A0340
1001
ACAD
1000
AcDbSavedByObjectVersion
1070
     0
  0
ACAD_PROXY_OBJECT
  5
4AC3
102
{ACAD_REACTORS
330
4AAE
102
}
330
4AAE
100
AcDbProxyObject
 90
      499
 91
      503
 93
      476
310
41D4DAD95D18DA1E51840502408333333333333E33F0000000000000F901079024090741D01000000000000111010B41D405064090741802480A0340
1001
ACAD
1000
AcDbSavedByObjectVersion
1070
     0
  0
ACAD_PROXY_OBJECT
  5
4ABB
102
{ACAD_REACTORS
330
4AAE
102
}
330
4AAE
100
AcDbProxyObject
 90
      499
 91
      503
 93
      412
310
41D51A1A58DAD95B90D409028333333333333E33F0000000000000F9010790141107004050150C41D405064090741402480A0350
1001
ACAD
1000
AcDbSavedByObjectVersion
1070
     0
  0
ACAD_PROXY_OBJECT
  5
4AB4
102
{ACAD_REACTORS
330
4AAE
102
}
330
4AAE
100
AcDbProxyObject
 90
      499
 91
      503
 93
      420
310
4255DA5C99599C985B595059028333333333333E33F0000000000000F90107901411070040501600405405064090740C02480A0340
1001
ACAD
1000
AcDbSavedByObjectVersion
1070
     0
  0
ACAD_PROXY_OBJECT
  5
4AC4
102
{ACAD_REACTORS
330
4AAE
102
}
330
4AAE
100
AcDbProxyObject
 90
      499
 91
      503
 93
      404
310
41560B54985E51940902404000000000000E03F0000000000000F9010740501907004050150841D405064090740C02480A1B40
1001
ACAD
1000
AcDbSavedByObjectVersion
1070
     0
  0
XRECORD
  5
58B2
102
{ACAD_REACTORS
330
58A8
102
}
330
58A8
100
AcDbXrecord
340
0
  0
XRECORD
  5
58B1
102
{ACAD_REACTORS
330
58A8
102
}
330
58A8
100
AcDbXrecord
 90
        0
  0
XRECORD
  5
58CB
102
{ACAD_REACTORS
330
58A8
102
}
330
58A8
100
AcDbXrecord
340
2948
  0
XRECORD
  5
58C8
102
{ACAD_REACTORS
330
58A8
102
}
330
58A8
100
AcDbXrecord
1000
DSTYLE
1002
{
1070
   171
 70
     2
1070
   143
 40
0.0394
1070
   274
 70
     2
1070
    41
 40
6.0
1070
   342
340
2AF4
1070
   271
 70
     1
1070
   278
 70
    46
1070
   341
340
2AF4
1070
   272
 70
     1
1070
    48
 40
0.1
1070
   283
 70
     1
1070
    47
 40
0.1
1070
   145
 40
1.0
1070
   340
340
10
1070
   140
 40
8.0
1070
   284
 70
     0
1002
}
  0
XRECORD
  5
58B3
102
{ACAD_REACTORS
330
58A8
102
}
330
58A8
100
AcDbXrecord
  1
{23698909-1D67-4744-B0E2-8DE11E3ED422}
  0
XRECORD
  5
58AB
102
{ACAD_REACTORS
330
58A8
102
}
330
58A8
100
AcDbXrecord
  1

  0
XRECORD
  5
58B0
102
{ACAD_REACTORS
330
58A8
102
}
330
58A8
100
AcDbXrecord
 90
        0
  0
XRECORD
  5
58AD
102
{ACAD_REACTORS
330
58A8
102
}
330
58A8
100
AcDbXrecord
340
2816
  0
XRECORD
  5
58AF
102
{ACAD_REACTORS
330
58A8
102
}
330
58A8
100
AcDbXrecord
 90
    10781
  0
XRECORD
  5
58CC
102
{ACAD_REACTORS
330
58A8
102
}
330
58A8
100
AcDbXrecord
340
2947
  0
XRECORD
  5
58AE
102
{ACAD_REACTORS
330
58A8
102
}
330
58A8
100
AcDbXrecord
340
2817
  0
XRECORD
  5
58B5
102
{ACAD_REACTORS
330
58A8
102
}
330
58A8
100
AcDbXrecord
 40
0.25
  0
XRECORD
  5
58B8
102
{ACAD_REACTORS
330
58A8
102
}
330
58A8
100
AcDbXrecord
340
0
  0
XRECORD
  5
58BE
102
{ACAD_REACTORS
330
58A8
102
}
330
58A8
100
AcDbXrecord
 10
0.0
 20
0.0
 30
0.0
  0
XRECORD
  5
58BA
102
{ACAD_REACTORS
330
58A8
102
}
330
58A8
100
AcDbXrecord
 10
0.0
 20
0.0
 30
0.0
  0
XRECORD
  5
58BD
102
{ACAD_REACTORS
330
58A8
102
}
330
58A8
100
AcDbXrecord
 10
0.0
 20
0.0
 30
0.0
  0
XRECORD
  5
58BB
102
{ACAD_REACTORS
330
58A8
102
}
330
58A8
100
AcDbXrecord
 10
0.0
 20
0.0
 30
0.0
  0
XRECORD
  5
58BC
102
{ACAD_REACTORS
330
58A8
102
}
330
58A8
100
AcDbXrecord
 10
0.0
 20
0.0
 30
0.0
  0
XRECORD
  5
58B9
102
{ACAD_REACTORS
330
58A8
102
}
330
58A8
100
AcDbXrecord
 10
0.0
 20
0.0
 30
0.0
  0
XRECORD
  5
58B6
102
{ACAD_REACTORS
330
58A8
102
}
330
58A8
100
AcDbXrecord
340
0
  0
XRECORD
  5
58B7
102
{ACAD_REACTORS
330
58A8
102
}
330
58A8
100
AcDbXrecord
 70
     0
  0
XRECORD
  5
58AC
102
{ACAD_REACTORS
330
58A8
102
}
330
58A8
100
AcDbXrecord
  1

  0
XRECORD
  5
58A9
102
{ACAD_REACTORS
330
58A8
102
}
330
58A8
100
AcDbXrecord
 90
        1
  0
XRECORD
  5
58AA
102
{ACAD_REACTORS
330
58A8
102
}
330
58A8
100
AcDbXrecord
 90
       70
  0
XRECORD
  5
58C1
102
{ACAD_REACTORS
330
58A8
102
}
330
58A8
100
AcDbXrecord
340
0
  0
XRECORD
  5
58C7
102
{ACAD_REACTORS
330
58A8
102
}
330
58A8
100
AcDbXrecord
 10
0.0
 20
0.0
 30
0.0
  0
XRECORD
  5
58C3
102
{ACAD_REACTORS
330
58A8
102
}
330
58A8
100
AcDbXrecord
 10
0.0
 20
0.0
 30
0.0
  0
XRECORD
  5
58C6
102
{ACAD_REACTORS
330
58A8
102
}
330
58A8
100
AcDbXrecord
 10
0.0
 20
0.0
 30
0.0
  0
XRECORD
  5
58C4
102
{ACAD_REACTORS
330
58A8
102
}
330
58A8
100
AcDbXrecord
 10
0.0
 20
0.0
 30
0.0
  0
XRECORD
  5
58C5
102
{ACAD_REACTORS
330
58A8
102
}
330
58A8
100
AcDbXrecord
 10
0.0
 20
0.0
 30
0.0
  0
XRECORD
  5
58C2
102
{ACAD_REACTORS
330
58A8
102
}
330
58A8
100
AcDbXrecord
 10
0.0
 20
0.0
 30
0.0
  0
XRECORD
  5
58BF
102
{ACAD_REACTORS
330
58A8
102
}
330
58A8
100
AcDbXrecord
340
0
  0
XRECORD
  5
58C0
102
{ACAD_REACTORS
330
58A8
102
}
330
58A8
100
AcDbXrecord
 70
     0
  0
XRECORD
  5
58B4
102
{ACAD_REACTORS
330
58A8
102
}
330
58A8
100
AcDbXrecord
  1
{38551A36-3072-4757-9F5B-2AF4771ADE5B}
  0
DICTIONARYVAR
  5
4F27
102
{ACAD_REACTORS
330
4F26
102
}
330
4F26
100
DictionaryVariables
280
     0
  1
1:1
  0
DICTIONARYVAR
  5
4F29
102
{ACAD_REACTORS
330
4F26
102
}
330
4F26
100
DictionaryVariables
280
     0
  1
Standard
  0
DICTIONARYVAR
  5
4F28
102
{ACAD_REACTORS
330
4F26
102
}
330
4F26
100
DictionaryVariables
280
     0
  1
Standard
  0
DICTIONARYVAR
  5
58C9
102
{ACAD_REACTORS
330
4F26
102
}
330
4F26
100
DictionaryVariables
280
     0
  1
1
  0
DICTIONARYVAR
  5
58CA
102
{ACAD_REACTORS
330
4F26
102
}
330
4F26
100
DictionaryVariables
280
     0
  1
0
  0
DICTIONARYVAR
  5
4F2A
102
{ACAD_REACTORS
330
4F26
102
}
330
4F26
100
DictionaryVariables
280
     0
  1
0
  0
DICTIONARYVAR
  5
4F2B
102
{ACAD_REACTORS
330
4F26
102
}
330
4F26
100
DictionaryVariables
280
     0
  1
0
  0
DICTIONARY
  5
4B87
102
{ACAD_REACTORS
330
4B86
102
}
330
4B86
100
AcDbDictionary
  0
DICTIONARY
  5
4B9C
102
{ACAD_REACTORS
330
4B9B
102
}
330
4B9B
100
AcDbDictionary
  0
DICTIONARY
  5
4BB3
102
{ACAD_REACTORS
330
4BB2
102
}
330
4BB2
100
AcDbDictionary
  0
DICTIONARY
  5
4BB7
102
{ACAD_REACTORS
330
4BB6
102
}
330
4BB6
100
AcDbDictionary
  0
DICTIONARY
  5
4BBB
102
{ACAD_REACTORS
330
4BBA
102
}
330
4BBA
100
AcDbDictionary
  0
DICTIONARY
  5
4BBF
102
{ACAD_REACTORS
330
4BBE
102
}
330
4BBE
100
AcDbDictionary
  0
DICTIONARY
  5
4BC3
102
{ACAD_REACTORS
330
4BC2
102
}
330
4BC2
100
AcDbDictionary
  0
DICTIONARY
  5
4BC7
102
{ACAD_REACTORS
330
4BC6
102
}
330
4BC6
100
AcDbDictionary
  0
DICTIONARY
  5
4BCB
102
{ACAD_REACTORS
330
4BCA
102
}
330
4BCA
100
AcDbDictionary
  0
DICTIONARY
  5
4BCF
102
{ACAD_REACTORS
330
4BCE
102
}
330
4BCE
100
AcDbDictionary
  0
DICTIONARY
  5
5061
102
{ACAD_REACTORS
330
5060
102
}
330
5060
100
AcDbDictionary
  0
DICTIONARY
  5
509D
102
{ACAD_REACTORS
330
509C
102
}
330
509C
100
AcDbDictionary
  0
DICTIONARY
  5
5134
102
{ACAD_REACTORS
330
5133
102
}
330
5133
100
AcDbDictionary
  0
DICTIONARY
  5
5190
102
{ACAD_REACTORS
330
518F
102
}
330
518F
100
AcDbDictionary
  0
DICTIONARY
  5
519E
102
{ACAD_REACTORS
330
519D
102
}
330
519D
100
AcDbDictionary
  0
DICTIONARY
  5
529C
102
{ACAD_REACTORS
330
529B
102
}
330
529B
100
AcDbDictionary
  0
DICTIONARY
  5
52A0
102
{ACAD_REACTORS
330
529F
102
}
330
529F
100
AcDbDictionary
  0
DICTIONARY
  5
5632
102
{ACAD_REACTORS
330
5631
102
}
330
5631
100
AcDbDictionary
  0
DICTIONARY
  5
5636
102
{ACAD_REACTORS
330
5635
102
}
330
5635
100
AcDbDictionary
  0
DICTIONARY
  5
563A
102
{ACAD_REACTORS
330
5639
102
}
330
5639
100
AcDbDictionary
  0
DICTIONARY
  5
569B
102
{ACAD_REACTORS
330
569A
102
}
330
569A
100
AcDbDictionary
  0
DICTIONARY
  5
569F
102
{ACAD_REACTORS
330
569E
102
}
330
569E
100
AcDbDictionary
  0
DICTIONARY
  5
56A3
102
{ACAD_REACTORS
330
56A2
102
}
330
56A2
100
AcDbDictionary
  0
DICTIONARY
  5
52E9
102
{ACAD_REACTORS
330
52E8
102
}
330
52E8
100
AcDbDictionary
  0
DICTIONARY
  5
52ED
102
{ACAD_REACTORS
330
52EC
102
}
330
52EC
100
AcDbDictionary
  0
DICTIONARY
  5
52F2
102
{ACAD_REACTORS
330
52F1
102
}
330
52F1
100
AcDbDictionary
  0
DICTIONARY
  5
552A
102
{ACAD_REACTORS
330
5529
102
}
330
5529
100
AcDbDictionary
  0
DICTIONARY
  5
584B
102
{ACAD_REACTORS
330
584A
102
}
330
584A
100
AcDbDictionary
  0
DICTIONARY
  5
58D2
330
4AEA
100
AcDbDictionary
280
     1
  3
ACAD_XREC_ROUNDTRIP
360
58D3
  0
DICTIONARY
  5
58D0
330
4AE9
100
AcDbDictionary
280
     1
  3
ACAD_XREC_ROUNDTRIP
360
58D1
  0
DICTIONARY
  5
58D4
330
4AEB
100
AcDbDictionary
280
     1
  3
ACAD_XREC_ROUNDTRIP
360
58D5
  0
XRECORD
  5
58D3
102
{ACAD_REACTORS
330
58D2
102
}
330
58D2
100
AcDbXrecord
102
MATERIAL
148
0.0
149
0.0
149
0.0
 93
        0
 94
      127
282
     0
 72
     1
 77
     1
171
     1
175
     1
179
     1
273
     0
  0
XRECORD
  5
58D1
102
{ACAD_REACTORS
330
58D0
102
}
330
58D0
100
AcDbXrecord
102
MATERIAL
148
0.0
149
0.0
149
0.0
 93
        0
 94
      127
282
     0
 72
     1
 77
     1
171
     1
175
     1
179
     1
273
     0
  0
XRECORD
  5
58D5
102
{ACAD_REACTORS
330
58D4
102
}
330
58D4
100
AcDbXrecord
102
MATERIAL
148
0.0
149
0.0
149
0.0
 93
        0
 94
      127
282
     0
 72
     1
 77
     1
171
     1
175
     1
179
     1
273
     0
  0
ENDSEC
  0
EOF
