  0
SECTION
  2
HEADER
  9
$ACADVER
  1
AC1014
  9
$ACADMAINTVER
 70
     9
  9
$DWGCODEPAGE
  3
ANSI_932
  9
$INSBASE
 10
0.0
 20
0.0
 30
0.0
  9
$EXTMIN
 10
-91.960418667081
 20
142.345357276226
 30
0.0
  9
$EXTMAX
 10
585.268968089871
 20
548.932853861768
 30
0.0
  9
$LIMMIN
 10
-360.747566795242
 20
4.457354754526
  9
$LIMMAX
 10
-162.153696144267
 20
287.675440264018
  9
$ORTHOMODE
 70
     0
  9
$REGENMODE
 70
     1
  9
$FILLMODE
 70
     1
  9
$QTEXTMODE
 70
     0
  9
$MIRRTEXT
 70
     1
  9
$DRAGMODE
 70
     2
  9
$LTSCALE
 40
1.0
  9
$OSMODE
 70
   935
  9
$ATTMODE
 70
     1
  9
$TEXTSIZE
 40
4.0
  9
$TRACEWID
 40
1.0
  9
$TEXTSTYLE
  7
STANDARD
  9
$CLAYER
  8
寸法線
  9
$CELTYPE
  6
BYLAYER
  9
$CECOLOR
 62
   256
  9
$CELTSCALE
 40
10.0
  9
$DELOBJ
 70
     1
  9
$DISPSILH
 70
     0
  9
$DIMSCALE
 40
1.0
  9
$DIMASZ
 40
6.0
  9
$DIMEXO
 40
0.625
  9
$DIMDLI
 40
3.75
  9
$DIMRND
 40
0.0
  9
$DIMDLE
 40
0.0
  9
$DIMEXE
 40
1.25
  9
$DIMTP
 40
0.1
  9
$DIMTM
 40
0.1
  9
$DIMTXT
 40
8.0
  9
$DIMCEN
 40
2.5
  9
$DIMTSZ
 40
0.0
  9
$DIMTOL
 70
     0
  9
$DIMLIM
 70
     0
  9
$DIMTIH
 70
     0
  9
$DIMTOH
 70
     0
  9
$DIMSE1
 70
     0
  9
$DIMSE2
 70
     0
  9
$DIMTAD
 70
     1
  9
$DIMZIN
 70
     8
  9
$DIMBLK
  1
OPEN30
  9
$DIMASO
 70
     1
  9
$DIMSHO
 70
     1
  9
$DIMPOST
  1

  9
$DIMAPOST
  1

  9
$DIMALT
 70
     0
  9
$DIMALTD
 70
     2
  9
$DIMALTF
 40
0.0394
  9
$DIMLFAC
 40
1.0
  9
$DIMTOFL
 70
     1
  9
$DIMTVP
 40
1.0
  9
$DIMTIX
 70
     0
  9
$DIMSOXD
 70
     0
  9
$DIMSAH
 70
     0
  9
$DIMBLK1
  1

  9
$DIMBLK2
  1

  9
$DIMSTYLE
  2
ISO-25
  9
$DIMCLRD
 70
     0
  9
$DIMCLRE
 70
     0
  9
$DIMCLRT
 70
     0
  9
$DIMTFAC
 40
1.0
  9
$DIMGAP
 40
0.625
  9
$DIMJUST
 70
     0
  9
$DIMSD1
 70
     0
  9
$DIMSD2
 70
     0
  9
$DIMTOLJ
 70
     1
  9
$DIMTZIN
 70
     0
  9
$DIMALTZ
 70
     0
  9
$DIMALTTZ
 70
     0
  9
$DIMFIT
 70
     3
  9
$DIMUPT
 70
     0
  9
$DIMUNIT
 70
     2
  9
$DIMDEC
 70
     1
  9
$DIMTDEC
 70
     1
  9
$DIMALTU
 70
     2
  9
$DIMALTTD
 70
     2
  9
$DIMTXSTY
  7
STANDARD
  9
$DIMAUNIT
 70
     0
  9
$LUNITS
 70
     2
  9
$LUPREC
 70
     4
  9
$SKETCHINC
 40
1.0
  9
$FILLETRAD
 40
1.0
  9
$AUNITS
 70
     0
  9
$AUPREC
 70
     0
  9
$MENU
  1
.
  9
$ELEVATION
 40
0.0
  9
$PELEVATION
 40
0.0
  9
$THICKNESS
 40
0.0
  9
$LIMCHECK
 70
     0
  9
$CHAMFERA
 40
0.5
  9
$CHAMFERB
 40
0.5
  9
$CHAMFERC
 40
20.0
  9
$CHAMFERD
 40
0.0
  9
$SKPOLY
 70
     0
  9
$TDCREATE
 40
2450576.597302431
  9
$TDUPDATE
 40
2457658.777873877
  9
$TDINDWG
 40
1.3994428009
  9
$TDUSRTIMER
 40
1.3994428009
  9
$USRTIMER
 70
     1
  9
$ANGBASE
 50
0.0
  9
$ANGDIR
 70
     0
  9
$PDMODE
 70
     0
  9
$PDSIZE
 40
0.0
  9
$PLINEWID
 40
0.0
  9
$COORDS
 70
     2
  9
$SPLFRAME
 70
     0
  9
$SPLINETYPE
 70
     6
  9
$SPLINESEGS
 70
     8
  9
$ATTDIA
 70
     0
  9
$ATTREQ
 70
     1
  9
$HANDLING
 70
     1
  9
$HANDSEED
  5
5832
  9
$SURFTAB1
 70
     6
  9
$SURFTAB2
 70
     6
  9
$SURFTYPE
 70
     6
  9
$SURFU
 70
     6
  9
$SURFV
 70
     6
  9
$UCSNAME
  2

  9
$UCSORG
 10
0.0
 20
0.0
 30
0.0
  9
$UCSXDIR
 10
1.0
 20
0.0
 30
0.0
  9
$UCSYDIR
 10
0.0
 20
1.0
 30
0.0
  9
$PUCSNAME
  2

  9
$PUCSORG
 10
0.0
 20
0.0
 30
0.0
  9
$PUCSXDIR
 10
1.0
 20
0.0
 30
0.0
  9
$PUCSYDIR
 10
0.0
 20
1.0
 30
0.0
  9
$USERI1
 70
     0
  9
$USERI2
 70
     0
  9
$USERI3
 70
     0
  9
$USERI4
 70
     0
  9
$USERI5
 70
     0
  9
$USERR1
 40
0.0
  9
$USERR2
 40
0.0
  9
$USERR3
 40
0.0
  9
$USERR4
 40
0.0
  9
$USERR5
 40
0.0
  9
$WORLDVIEW
 70
     1
  9
$SHADEDGE
 70
     3
  9
$SHADEDIF
 70
    70
  9
$TILEMODE
 70
     0
  9
$MAXACTVP
 70
    16
  9
$PINSBASE
 10
0.0
 20
0.0
 30
0.0
  9
$PLIMCHECK
 70
     0
  9
$PEXTMIN
 10
4.746305129083
 20
1.396645458131
 30
0.0
  9
$PEXTMAX
 10
404.746305129083
 20
281.396645458131
 30
0.0
  9
$PLIMMIN
 10
-6.946593322754
 20
-6.94658241272
  9
$PLIMMAX
 10
417.718108215332
 20
293.315276107788
  9
$UNITMODE
 70
     0
  9
$VISRETAIN
 70
     0
  9
$PLINEGEN
 70
     0
  9
$PSLTSCALE
 70
     1
  9
$TREEDEPTH
 70
  3020
  9
$PICKSTYLE
 70
     1
  9
$CMLSTYLE
  2
STANDARD
  9
$CMLJUST
 70
     0
  9
$CMLSCALE
 40
1.0
  9
$PROXYGRAPHICS
 70
     1
  9
$MEASUREMENT
 70
     1
  0
ENDSEC
  0
SECTION
  2
CLASSES
  0
CLASS
  1
ACDBDICTIONARYWDFLT
  2
AcDbDictionaryWithDefault
  3
ObjectDBX Classes
 90
        0
280
     0
281
     0
  0
CLASS
  1
ACDBPLACEHOLDER
  2
AcDbPlaceHolder
  3
ObjectDBX Classes
 90
        0
280
     0
281
     0
  0
CLASS
  1
LAYOUT
  2
AcDbLayout
  3
ObjectDBX Classes
 90
        0
280
     0
281
     0
  0
CLASS
  1
SORTENTSTABLE
  2
AcDbSortentsTable
  3
ObjectDBX Classes
 90
        0
280
     0
281
     0
  0
CLASS
  1
VISUALSTYLE
  2
AcDbVisualStyle
  3
ObjectDBX Classes
 90
     4095
280
     0
281
     0
  0
CLASS
  1
SCALE
  2
AcDbScale
  3
ObjectDBX Classes
 90
     1153
280
     0
281
     0
  0
CLASS
  1
MATERIAL
  2
AcDbMaterial
  3
ObjectDBX Classes
 90
     1153
280
     0
281
     0
  0
CLASS
  1
TABLESTYLE
  2
AcDbTableStyle
  3
ObjectDBX Classes
 90
     4095
280
     0
281
     0
  0
CLASS
  1
MLEADERSTYLE
  2
AcDbMLeaderStyle
  3
ACDB_MLEADERSTYLE_CLASS
 90
     4095
280
     0
281
     0
  0
CLASS
  1
SUN
  2
AcDbSun
  3
SCENEOE
 90
     1153
280
     0
281
     0
  0
CLASS
  1
DICTIONARYVAR
  2
AcDbDictionaryVar
  3
ObjectDBX Classes
 90
        0
280
     0
281
     0
  0
CLASS
  1
CELLSTYLEMAP
  2
AcDbCellStyleMap
  3
ObjectDBX Classes
 90
     1152
280
     0
281
     0
  0
CLASS
  1
XRECORD
  2
AcDbXrecord
  3
ObjectDBX Classes
 90
        0
280
     0
281
     0
  0
CLASS
  1
LWPOLYLINE
  2
AcDbPolyline
  3
ObjectDBX Classes
 90
        0
280
     0
281
     1
  0
CLASS
  1
HATCH
  2
AcDbHatch
  3
ObjectDBX Classes
 90
        0
280
     0
281
     1
  0
ENDSEC
  0
SECTION
  2
TABLES
  0
TABLE
  2
VPORT
  5
8
102
{ACAD_XDICTIONARY
360
582A
102
}
330
0
100
AcDbSymbolTable
 70
     1
  0
VPORT
  5
4D3C
330
8
100
AcDbSymbolTableRecord
100
AcDbViewportTableRecord
  2
*ACTIVE
 70
     0
 10
0.0
 20
0.0
 11
1.0
 21
1.0
 12
246.654274711395
 22
345.639105568997
 13
0.0
 23
0.0
 14
1.0
 24
1.0
 15
0.0
 25
0.0
 16
0.0
 26
0.0
 36
1.0
 17
0.0
 27
0.0
 37
0.0
 40
414.719246517252
 41
1.759407069555
 42
50.0
 43
0.0
 44
0.0
 50
0.0
 51
0.0
 71
    16
 72
   100
 73
     1
 74
     0
 75
     0
 76
     0
 77
     0
 78
     0
  0
ENDTAB
  0
TABLE
  2
LTYPE
  5
5
330
0
100
AcDbSymbolTable
 70
     6
  0
LTYPE
  5
14
330
5
100
AcDbSymbolTableRecord
100
AcDbLinetypeTableRecord
  2
BYBLOCK
 70
     0
  3

 72
    65
 73
     0
 40
0.0
  0
LTYPE
  5
15
330
5
100
AcDbSymbolTableRecord
100
AcDbLinetypeTableRecord
  2
BYLAYER
 70
     0
  3

 72
    65
 73
     0
 40
0.0
  0
LTYPE
  5
16
330
5
100
AcDbSymbolTableRecord
100
AcDbLinetypeTableRecord
  2
CONTINUOUS
 70
     0
  3
Solid line
 72
    65
 73
     0
 40
0.0
  0
LTYPE
  5
1EC
330
5
100
AcDbSymbolTableRecord
100
AcDbLinetypeTableRecord
  2
CENTER
 70
     0
  3
____ _ ____ _ ____ _ ____ _ ____ _ ____ _ ____ 
 72
    65
 73
     4
 40
2.0
 49
1.25
 74
     0
 49
-0.25
 74
     0
 49
0.25
 74
     0
 49
-0.25
 74
     0
  0
LTYPE
  5
1ED
330
5
100
AcDbSymbolTableRecord
100
AcDbLinetypeTableRecord
  2
DASHED
 70
     0
  3
__ __ __ __ __ __ __ __ __ __ __ __ __ __ __ __
 72
    65
 73
     2
 40
0.75
 49
0.5
 74
     0
 49
-0.25
 74
     0
  0
LTYPE
  5
2B1F
330
5
100
AcDbSymbolTableRecord
100
AcDbLinetypeTableRecord
  2
DASHDOT
 70
     0
  3
一点鎖線
 72
    65
 73
     4
 40
25.6
 49
20.0
 74
     0
 49
-2.0
 74
     0
 49
1.6
 74
     0
 49
-2.0
 74
     0
  0
LTYPE
  5
31A1
330
5
100
AcDbSymbolTableRecord
100
AcDbLinetypeTableRecord
  2
CENTER2
 70
     0
  3
Center (.5x) ___ _ ___ _ ___ _ ___ _ ___ _ ___
 72
    65
 73
     4
 40
28.575
 49
19.05
 74
     0
 49
-3.175
 74
     0
 49
3.175
 74
     0
 49
-3.175
 74
     0
  0
LTYPE
  5
4002
330
5
100
AcDbSymbolTableRecord
100
AcDbLinetypeTableRecord
  2
DASHED2
 70
     0
  3
Dashed (.5x) _ _ _ _ _ _ _ _ _ _ _ _ _ _ _ _ _
 72
    65
 73
     2
 40
9.525
 49
6.35
 74
     0
 49
-3.175
 74
     0
  0
ENDTAB
  0
TABLE
  2
LAYER
  5
2
102
{ACAD_XDICTIONARY
360
29EA
102
}
330
0
100
AcDbSymbolTable
 70
    12
  0
LAYER
  5
F
330
2
100
AcDbSymbolTableRecord
100
AcDbLayerTableRecord
  2
0
 70
     0
 62
     7
  6
CONTINUOUS
  0
LAYER
  5
61
330
2
100
AcDbSymbolTableRecord
100
AcDbLayerTableRecord
  2
図枠太線
 70
     0
 62
   251
  6
CONTINUOUS
  0
LAYER
  5
62
330
2
100
AcDbSymbolTableRecord
100
AcDbLayerTableRecord
  2
図枠細線
 70
     0
 62
   252
  6
CONTINUOUS
  0
LAYER
  5
63
330
2
100
AcDbSymbolTableRecord
100
AcDbLayerTableRecord
  2
図枠ロゴマーク
 70
     0
 62
   253
  6
CONTINUOUS
  0
LAYER
  5
1EF
330
2
100
AcDbSymbolTableRecord
100
AcDbLayerTableRecord
  2
外形線
 70
     0
 62
     7
  6
CONTINUOUS
  0
LAYER
  5
1F0
330
2
100
AcDbSymbolTableRecord
100
AcDbLayerTableRecord
  2
寸法線
 70
     0
 62
     1
  6
CONTINUOUS
  0
LAYER
  5
1F1
330
2
100
AcDbSymbolTableRecord
100
AcDbLayerTableRecord
  2
中心線
 70
     0
 62
     4
  6
CENTER
  0
LAYER
  5
1F4
330
2
100
AcDbSymbolTableRecord
100
AcDbLayerTableRecord
  2
DEFPOINTS
 70
     0
 62
     7
  6
CONTINUOUS
  0
LAYER
  5
2AA2
330
2
100
AcDbSymbolTableRecord
100
AcDbLayerTableRecord
  2
下書線
 70
     0
 62
     2
  6
CONTINUOUS
  0
LAYER
  5
2AA3
330
2
100
AcDbSymbolTableRecord
100
AcDbLayerTableRecord
  2
隠れ線
 70
     0
 62
     3
  6
DASHED
  0
LAYER
  5
2AA4
330
2
100
AcDbSymbolTableRecord
100
AcDbLayerTableRecord
  2
細線
 70
     0
 62
     6
  6
CONTINUOUS
  0
LAYER
  5
2AA5
330
2
100
AcDbSymbolTableRecord
100
AcDbLayerTableRecord
  2
太線
 70
     0
 62
   190
  6
CONTINUOUS
  0
ENDTAB
  0
TABLE
  2
STYLE
  5
3
330
0
100
AcDbSymbolTable
 70
     2
  0
STYLE
  5
10
330
3
100
AcDbSymbolTableRecord
100
AcDbTextStyleTableRecord
  2
STANDARD
 70
     0
 40
0.0
 41
1.0
 50
0.0
 71
     0
 42
4.0
  3
ISOCP
  4
bigfont.shx
  0
STYLE
  5
64
330
3
100
AcDbSymbolTableRecord
100
AcDbTextStyleTableRecord
  2
EXCADSTD
 70
     0
 40
0.0
 41
1.0
 50
0.0
 71
     0
 42
0.2
  3
monotxt
  4
bigfont
  0
ENDTAB
  0
TABLE
  2
VIEW
  5
6
330
0
100
AcDbSymbolTable
 70
     0
  0
ENDTAB
  0
TABLE
  2
UCS
  5
7
330
0
100
AcDbSymbolTable
 70
     0
  0
ENDTAB
  0
TABLE
  2
APPID
  5
9
330
0
100
AcDbSymbolTable
 70
     6
  0
APPID
  5
11
330
9
100
AcDbSymbolTableRecord
100
AcDbRegAppTableRecord
  2
ACAD
 70
     0
  0
APPID
  5
3507
330
9
100
AcDbSymbolTableRecord
100
AcDbRegAppTableRecord
  2
ACAD_DIMASSOC_CALC_DIMLFAC
 70
     0
  0
APPID
  5
3508
330
9
100
AcDbSymbolTableRecord
100
AcDbRegAppTableRecord
  2
ACAD_DIMASSOC_DIMLFAC
 70
     0
  0
APPID
  5
3509
330
9
100
AcDbSymbolTableRecord
100
AcDbRegAppTableRecord
  2
ACAD_DIMASSOC_OVERRIDDEN_D
 70
     0
  0
APPID
  5
4D8A
330
9
100
AcDbSymbolTableRecord
100
AcDbRegAppTableRecord
  2
ACADANNOTATIVE
 70
     0
  0
APPID
  5
50FC
330
9
100
AcDbSymbolTableRecord
100
AcDbRegAppTableRecord
  2
ACAD_MLEADERVER
 70
     0
  0
ENDTAB
  0
TABLE
  2
DIMSTYLE
  5
A
330
0
100
AcDbSymbolTable
 70
     2
  0
DIMSTYLE
105
1D
330
A
100
AcDbSymbolTableRecord
100
AcDbDimStyleTableRecord
  2
STANDARD
 70
     0
  3

  4

  5

  6

  7

 40
1.0
 41
0.18
 42
0.0625
 43
0.38
 44
0.18
 45
0.0
 46
0.0
 47
0.0
 48
0.0
140
0.18
141
0.09
142
0.0
143
25.4
144
1.0
145
0.0
146
1.0
147
0.09
 71
     0
 72
     0
 73
     1
 74
     1
 75
     0
 76
     0
 77
     0
 78
     0
170
     0
171
     2
172
     0
173
     0
174
     0
175
     0
176
     0
177
     0
178
     0
270
     2
271
     4
272
     4
273
     2
274
     2
340
10
275
     0
280
     0
281
     0
282
     0
283
     1
284
     0
285
     0
286
     0
287
     3
288
     0
  0
DIMSTYLE
105
24
102
{ACAD_REACTORS
330
49F0
330
4A0A
330
4A17
330
4A24
330
4A5D
330
4BE3
330
4BF2
330
4FA0
330
4FA2
330
4FA3
330
4FA4
330
4FA5
330
4FA6
330
569D
102
}
330
A
100
AcDbSymbolTableRecord
100
AcDbDimStyleTableRecord
  2
ISO-25
 70
     0
  3

  4

  5

  6

  7

 40
1.0
 41
2.5
 42
0.625
 43
3.75
 44
1.25
 45
0.0
 46
0.0
 47
0.0
 48
0.0
140
2.5
141
2.5
142
0.0
143
0.0394
144
1.0
145
1.0
146
1.0
147
0.625
 71
     0
 72
     0
 73
     1
 74
     0
 75
     0
 76
     0
 77
     1
 78
     8
170
     0
171
     2
172
     1
173
     0
174
     0
175
     0
176
     0
177
     0
178
     0
270
     2
271
     4
272
     4
273
     2
274
     2
340
10
275
     0
280
     0
281
     0
282
     0
283
     1
284
     0
285
     0
286
     0
287
     3
288
     0
  0
ENDTAB
  0
TABLE
  2
BLOCK_RECORD
  5
1
330
0
100
AcDbSymbolTable
 70
    76
  0
BLOCK_RECORD
  5
1A
330
1
100
AcDbSymbolTableRecord
100
AcDbBlockTableRecord
  2
*MODEL_SPACE
  0
BLOCK_RECORD
  5
28FB
330
1
100
AcDbSymbolTableRecord
100
AcDbBlockTableRecord
  2
*PAPER_SPACE
  0
BLOCK_RECORD
  5
65
330
1
100
AcDbSymbolTableRecord
100
AcDbBlockTableRecord
  2
A$C3392
  0
BLOCK_RECORD
  5
29BF
330
1
100
AcDbSymbolTableRecord
100
AcDbBlockTableRecord
  2
A4横用_タイトル
1001
ACAD
1000
DesignCenter Data
1002
{
1070
     1
1070
     4
1002
}
  0
BLOCK_RECORD
  5
29F4
330
1
100
AcDbSymbolTableRecord
100
AcDbBlockTableRecord
  2
A4縦用_タイトル
1001
ACAD
1000
DesignCenter Data
1002
{
1070
     1
1070
     4
1002
}
  0
BLOCK_RECORD
  5
2A32
330
1
100
AcDbSymbolTableRecord
100
AcDbBlockTableRecord
  2
A3横用_タイトル
1001
ACAD
1000
DesignCenter Data
1002
{
1070
     1
1070
     4
1002
}
  0
BLOCK_RECORD
  5
2A6C
330
1
100
AcDbSymbolTableRecord
100
AcDbBlockTableRecord
  2
A3縦用_タイトル
1001
ACAD
1000
DesignCenter Data
1002
{
1070
     1
1070
     4
1002
}
  0
BLOCK_RECORD
  5
2AF4
330
1
100
AcDbSymbolTableRecord
100
AcDbBlockTableRecord
  2
_OPEN30
  0
BLOCK_RECORD
  5
47F5
330
1
100
AcDbSymbolTableRecord
100
AcDbBlockTableRecord
  2
静電容量センサ
  0
BLOCK_RECORD
  5
49F1
330
1
100
AcDbSymbolTableRecord
100
AcDbBlockTableRecord
  2
*D14
  0
BLOCK_RECORD
  5
4A0B
330
1
100
AcDbSymbolTableRecord
100
AcDbBlockTableRecord
  2
*D15
  0
BLOCK_RECORD
  5
4A18
330
1
100
AcDbSymbolTableRecord
100
AcDbBlockTableRecord
  2
*D16
  0
BLOCK_RECORD
  5
4A25
330
1
100
AcDbSymbolTableRecord
100
AcDbBlockTableRecord
  2
*D17
  0
BLOCK_RECORD
  5
4A5E
330
1
100
AcDbSymbolTableRecord
100
AcDbBlockTableRecord
  2
*D20
  0
BLOCK_RECORD
  5
4A6A
330
1
100
AcDbSymbolTableRecord
100
AcDbBlockTableRecord
  2
A$C26DD65FC
  0
BLOCK_RECORD
  5
4C64
330
1
100
AcDbSymbolTableRecord
100
AcDbBlockTableRecord
  2
*D44
  0
BLOCK_RECORD
  5
4C7C
330
1
100
AcDbSymbolTableRecord
100
AcDbBlockTableRecord
  2
*D46
  0
BLOCK_RECORD
  5
5052
330
1
100
AcDbSymbolTableRecord
100
AcDbBlockTableRecord
  2
*D66
  0
BLOCK_RECORD
  5
505D
330
1
100
AcDbSymbolTableRecord
100
AcDbBlockTableRecord
  2
*D67
  0
BLOCK_RECORD
  5
5068
330
1
100
AcDbSymbolTableRecord
100
AcDbBlockTableRecord
  2
*D68
  0
BLOCK_RECORD
  5
5073
330
1
100
AcDbSymbolTableRecord
100
AcDbBlockTableRecord
  2
*D69
  0
BLOCK_RECORD
  5
507E
330
1
100
AcDbSymbolTableRecord
100
AcDbBlockTableRecord
  2
*D70
  0
BLOCK_RECORD
  5
5089
330
1
100
AcDbSymbolTableRecord
100
AcDbBlockTableRecord
  2
*D71
  0
BLOCK_RECORD
  5
56AC
330
1
100
AcDbSymbolTableRecord
100
AcDbBlockTableRecord
  2
*D75
  0
ENDTAB
  0
ENDSEC
  0
SECTION
  2
BLOCKS
  0
BLOCK
  5
1B
330
1A
100
AcDbEntity
  8
0
100
AcDbBlockBegin
  2
*MODEL_SPACE
 70
     0
 10
0.0
 20
0.0
 30
0.0
  3
*MODEL_SPACE
  1

  0
ENDBLK
  5
1C
330
1A
100
AcDbEntity
  8
0
100
AcDbBlockEnd
  0
BLOCK
  5
28FD
330
28FB
100
AcDbEntity
 67
     1
  8
0
 48
10.0
100
AcDbBlockBegin
  2
*PAPER_SPACE
 70
     0
 10
0.0
 20
0.0
 30
0.0
  3
*PAPER_SPACE
  1

  0
ENDBLK
  5
28FE
330
28FB
100
AcDbEntity
 67
     1
  8
0
 48
10.0
100
AcDbBlockEnd
  0
BLOCK
  5
93
330
65
100
AcDbEntity
  8
0
100
AcDbBlockBegin
  2
A$C3392
 70
     0
 10
0.0
 20
0.0
 30
0.0
  3
A$C3392
  1

  0
LINE
  5
66
330
65
100
AcDbEntity
  8
図枠太線
  6
CONTINUOUS
100
AcDbLine
 10
211.858584505185
 20
30.927375675439
 30
0.0
 11
211.858584505185
 21
0.927375675439
 31
0.0
  0
LINE
  5
67
330
65
100
AcDbEntity
  8
図枠細線
  6
CONTINUOUS
100
AcDbLine
 10
231.858592505185
 20
15.927377675439
 30
0.0
 11
287.858592505185
 21
15.927375675439
 31
0.0
  0
LINE
  5
68
330
65
100
AcDbEntity
  8
図枠細線
  6
CONTINUOUS
100
AcDbLine
 10
211.858592505185
 20
15.927377675439
 30
0.0
 11
231.858592505185
 21
15.927377675439
 31
0.0
  0
LINE
  5
69
330
65
100
AcDbEntity
  8
図枠太線
  6
CONTINUOUS
 62
   251
100
AcDbLine
 10
1.858584505185
 20
0.927375675439
 30
0.0
 11
1.858584505185
 21
275.927375675439
 31
0.0
  0
TEXT
  5
6A
330
65
100
AcDbEntity
  8
図枠細線
  6
CONTINUOUS
 62
   252
100
AcDbText
 10
351.358592505185
 20
28.427377675439
 30
0.0
 40
2.0
  1
ＴＩＴＬＥ
 41
0.903614457831
  7
EXCADSTD
 72
     5
 11
361.358592505185
 21
28.427377675439
 31
0.0
100
AcDbText
  0
TEXT
  5
6B
330
65
100
AcDbEntity
  8
図枠細線
  6
CONTINUOUS
 62
   252
100
AcDbText
 10
345.358592505185
 20
28.427377675439
 30
0.0
 40
2.0
  1
名称
 41
1.171875
  7
EXCADSTD
 72
     5
 11
350.358592505185
 21
28.427377675439
 31
0.0
100
AcDbText
  0
TEXT
  5
6C
330
65
100
AcDbEntity
  8
図枠細線
  6
CONTINUOUS
 62
   252
100
AcDbText
 10
274.358592505185
 20
25.927377675439
 30
0.0
 40
2.0
  1
ＤＲＡＷＮ
 41
0.882352941176
  7
EXCADSTD
 72
     5
 11
284.358592505185
 21
25.927377675439
 31
0.0
100
AcDbText
  0
TEXT
  5
6D
330
65
100
AcDbEntity
  8
図枠細線
  6
CONTINUOUS
 62
   252
100
AcDbText
 10
260.358592505185
 20
25.927377675439
 30
0.0
 40
2.0
  1
ＤＥＳＩＧＮＥＤ
 41
0.713043472041
  7
EXCADSTD
 72
     5
 11
273.478592390744
 21
25.927377675439
 31
0.0
100
AcDbText
  0
TEXT
  5
6E
330
65
100
AcDbEntity
  8
図枠細線
  6
CONTINUOUS
 62
   252
100
AcDbText
 10
246.358592505185
 20
25.927377675439
 30
0.0
 40
2.0
  1
ＣＨＥＣＫＥＤ
 41
0.831249989569
  7
EXCADSTD
 72
     5
 11
259.658592338292
 21
25.927377675439
 31
0.0
100
AcDbText
  0
TEXT
  5
6F
330
65
100
AcDbEntity
  8
図枠細線
  6
CONTINUOUS
 62
   252
100
AcDbText
 10
274.358592505185
 20
28.427377675439
 30
0.0
 40
2.0
  1
製図
 41
1.209677419355
  7
EXCADSTD
 72
     5
 11
279.358592505185
 21
28.427377675439
 31
0.0
100
AcDbText
  0
TEXT
  5
70
330
65
100
AcDbEntity
  8
図枠細線
  6
CONTINUOUS
 62
   252
100
AcDbText
 10
260.358592505185
 20
28.427377675439
 30
0.0
 40
2.0
  1
設計
 41
1.171875
  7
EXCADSTD
 72
     5
 11
265.358592505185
 21
28.427377675439
 31
0.0
100
AcDbText
  0
TEXT
  5
71
330
65
100
AcDbEntity
  8
図枠細線
  6
CONTINUOUS
 62
   252
100
AcDbText
 10
246.358592505185
 20
28.427377675439
 30
0.0
 40
2.0
  1
検図
 41
1.209677419355
  7
EXCADSTD
 72
     5
 11
251.358592505185
 21
28.427377675439
 31
0.0
100
AcDbText
  0
TEXT
  5
72
330
65
100
AcDbEntity
  8
図枠細線
  6
CONTINUOUS
 62
   252
100
AcDbText
 10
232.358592505185
 20
25.927377675439
 30
0.0
 40
2.0
  1
ＡＰＰＲＯＶＥＤ
 41
0.695652184279
  7
EXCADSTD
 72
     5
 11
245.15859269592
 21
25.927377675439
 31
0.0
100
AcDbText
  0
TEXT
  5
73
330
65
100
AcDbEntity
  8
図枠細線
  6
CONTINUOUS
 62
   252
100
AcDbText
 10
232.358592505185
 20
28.427377675439
 30
0.0
 40
2.0
  1
承認
 41
1.171875
  7
EXCADSTD
 72
     5
 11
237.358592505185
 21
28.427377675439
 31
0.0
100
AcDbText
  0
TEXT
  5
74
330
65
100
AcDbEntity
  8
図枠細線
  6
CONTINUOUS
 62
   252
100
AcDbText
 10
290.069888505185
 20
2.574868675439
 30
0.0
 40
3.5
  1
ＴＯＷＡ　ＳＥＩＤＥＮ　ＩＮＤＵＳＴＲＩＡＬ　ＣＯ．，ＬＴＤ．
 41
0.414568012377
  7
EXCADSTD
 72
     5
 11
342.692388209546
 21
2.574868675439
 31
0.0
100
AcDbText
  0
TEXT
  5
75
330
65
100
AcDbEntity
  8
図枠ロゴマーク
  6
CONTINUOUS
 62
   253
100
AcDbText
 10
290.107348505185
 20
7.519769675439
 30
0.0
 40
7.0
  1
東和制電工業株式会社
 41
0.639204545455
  7
EXCADSTD
 72
     5
 11
342.607348505185
 21
7.519769675439
 31
0.0
100
AcDbText
  0
TEXT
  5
76
330
65
100
AcDbEntity
  8
図枠細線
  6
CONTINUOUS
 62
   252
100
AcDbText
 10
232.499705505185
 20
5.759088675439
 30
0.0
 40
2.0
  1
ＰＲＯＪＥＣＴＩＯＮ
 41
0.754285710199
  7
EXCADSTD
 72
     5
 11
250.099705409817
 21
5.759088675439
 31
0.0
100
AcDbText
  0
TEXT
  5
77
330
65
100
AcDbEntity
  8
図枠細線
  6
CONTINUOUS
 62
   252
100
AcDbText
 10
232.574629505185
 20
8.681077675439
 30
0.0
 40
2.0
  1
ＴＨＩＲＤ　ＡＮＧＬＥ
 41
0.691099486738
  7
EXCADSTD
 72
     5
 11
250.174629767445
 21
8.681077675439
 31
0.0
100
AcDbText
  0
TEXT
  5
78
330
65
100
AcDbEntity
  8
図枠細線
  6
CONTINUOUS
 62
   252
100
AcDbText
 10
256.823999505185
 20
13.427377675439
 30
0.0
 40
2.0
  1
ＳＣＡＬＥ
 41
0.903614457831
  7
EXCADSTD
 72
     5
 11
266.823999505185
 21
13.427377675439
 31
0.0
100
AcDbText
  0
TEXT
  5
79
330
65
100
AcDbEntity
  8
図枠細線
  6
CONTINUOUS
 62
   252
100
AcDbText
 10
274.858592505185
 20
13.427377675439
 30
0.0
 40
2.0
  1
ＤＡＴＥ
 41
0.923076923077
  7
EXCADSTD
 72
     5
 11
282.858592505185
 21
13.427377675439
 31
0.0
100
AcDbText
  0
TEXT
  5
7A
330
65
100
AcDbEntity
  8
図枠細線
  6
CONTINUOUS
 62
   252
100
AcDbText
 10
356.358592505185
 20
13.427377675439
 30
0.0
 40
2.0
  1
ＤＲＧ．ＮＯ．
 41
0.9375
  7
EXCADSTD
 72
     5
 11
370.358592505185
 21
13.427377675439
 31
0.0
100
AcDbText
  0
TEXT
  5
7B
330
65
100
AcDbEntity
  8
図枠細線
  6
CONTINUOUS
 62
   252
100
AcDbText
 10
345.358592505185
 20
13.427377675439
 30
0.0
 40
2.0
  1
図面番号
 41
1.102941176471
  7
EXCADSTD
 72
     5
 11
355.358592505185
 21
13.427377675439
 31
0.0
100
AcDbText
  0
TEXT
  5
7C
330
65
100
AcDbEntity
  8
図枠細線
  6
CONTINUOUS
 62
   252
100
AcDbText
 10
269.358592505185
 20
13.427377675439
 30
0.0
 40
2.0
  1
日付
 41
1.171875
  7
EXCADSTD
 72
     5
 11
274.358592505185
 21
13.427377675439
 31
0.0
100
AcDbText
  0
TEXT
  5
7D
330
65
100
AcDbEntity
  8
図枠細線
  6
CONTINUOUS
 62
   252
100
AcDbText
 10
251.451512505185
 20
13.427377675439
 30
0.0
 40
2.0
  1
尺度
 41
1.171875
  7
EXCADSTD
 72
     5
 11
256.451512505185
 21
13.427377675439
 31
0.0
100
AcDbText
  0
TEXT
  5
7E
330
65
100
AcDbEntity
  8
図枠細線
  6
CONTINUOUS
 62
   252
100
AcDbText
 10
232.358592505185
 20
13.427377675439
 30
0.0
 40
2.0
  1
第三角法
 41
1.102941176471
  7
EXCADSTD
 72
     5
 11
242.358592505185
 21
13.427377675439
 31
0.0
100
AcDbText
  0
TEXT
  5
7F
330
65
100
AcDbEntity
  8
図枠細線
  6
CONTINUOUS
 62
   252
100
AcDbText
 10
212.358592505185
 20
28.427377675439
 30
0.0
 40
2.0
  1
ＮＯＴＥ
 41
0.923076923077
  7
EXCADSTD
 72
     5
 11
220.358592505185
 21
28.427377675439
 31
0.0
100
AcDbText
  0
LINE
  5
80
330
65
100
AcDbEntity
  8
図枠細線
  6
CONTINUOUS
 62
   252
100
AcDbLine
 10
287.858592505185
 20
23.427375675439
 30
0.0
 11
344.858592505185
 21
23.427375675439
 31
0.0
  0
LINE
  5
81
330
65
100
AcDbEntity
  8
図枠太線
  6
CONTINUOUS
 62
   251
100
AcDbLine
 10
287.858584505185
 20
15.927375675439
 30
0.0
 11
344.858592505185
 21
15.927375675439
 31
0.0
  0
LINE
  5
82
330
65
100
AcDbEntity
  8
図枠細線
  6
CONTINUOUS
 62
   252
100
AcDbLine
 10
344.858592505185
 20
15.927375675439
 30
0.0
 11
401.858584505185
 21
15.927375675439
 31
0.0
  0
LINE
  5
83
330
65
100
AcDbEntity
  8
図枠太線
  6
CONTINUOUS
 62
   251
100
AcDbLine
 10
344.858592505185
 20
0.927377675439
 30
0.0
 11
344.858592505185
 21
30.927375675439
 31
0.0
  0
LINE
  5
84
330
65
100
AcDbEntity
  8
図枠太線
  6
CONTINUOUS
 62
   251
100
AcDbLine
 10
287.858592505185
 20
0.927377675439
 30
0.0
 11
287.858592505185
 21
30.927375675439
 31
0.0
  0
LINE
  5
85
330
65
100
AcDbEntity
  8
図枠細線
  6
CONTINUOUS
 62
   252
100
AcDbLine
 10
268.858592505185
 20
0.927377675439
 30
0.0
 11
268.858592505185
 21
15.927375675439
 31
0.0
  0
LINE
  5
86
330
65
100
AcDbEntity
  8
図枠細線
  6
CONTINUOUS
 62
   252
100
AcDbLine
 10
250.858592505185
 20
0.927377675439
 30
0.0
 11
250.858592505185
 21
15.927375675439
 31
0.0
  0
LINE
  5
87
330
65
100
AcDbEntity
  8
図枠細線
  6
CONTINUOUS
 62
   252
100
AcDbLine
 10
273.858592505185
 20
30.927375675439
 30
0.0
 11
273.858592505185
 21
15.927375675439
 31
0.0
  0
LINE
  5
88
330
65
100
AcDbEntity
  8
図枠細線
  6
CONTINUOUS
 62
   252
100
AcDbLine
 10
259.858592505185
 20
30.927375675439
 30
0.0
 11
259.858592505185
 21
15.927375675439
 31
0.0
  0
LINE
  5
89
330
65
100
AcDbEntity
  8
図枠細線
  6
CONTINUOUS
 62
   252
100
AcDbLine
 10
245.858592505185
 20
30.927375675439
 30
0.0
 11
245.858592505185
 21
15.927375675439
 31
0.0
  0
LINE
  5
8A
330
65
100
AcDbEntity
  8
図枠太線
  6
CONTINUOUS
 62
   251
100
AcDbLine
 10
231.858592505185
 20
0.927377675439
 30
0.0
 11
231.858592505185
 21
30.927375675439
 31
0.0
  0
LINE
  5
8B
330
65
100
AcDbEntity
  8
図枠細線
  6
CONTINUOUS
 62
   252
100
AcDbLine
 10
211.858592505185
 20
25.927375675439
 30
0.0
 11
231.858592505185
 21
25.927375675439
 31
0.0
  0
LINE
  5
8C
330
65
100
AcDbEntity
  8
図枠細線
  6
CONTINUOUS
 62
   252
100
AcDbLine
 10
211.858592505185
 20
20.927375675439
 30
0.0
 11
231.858592505185
 21
20.927375675439
 31
0.0
  0
LINE
  5
8D
330
65
100
AcDbEntity
  8
図枠細線
  6
CONTINUOUS
 62
   252
100
AcDbLine
 10
211.858592505185
 20
10.927375675439
 30
0.0
 11
231.858592505185
 21
10.927375675439
 31
0.0
  0
LINE
  5
8E
330
65
100
AcDbEntity
  8
図枠細線
  6
CONTINUOUS
 62
   252
100
AcDbLine
 10
211.858592505185
 20
5.927377675439
 30
0.0
 11
231.858592505185
 21
5.927377675439
 31
0.0
  0
LINE
  5
8F
330
65
100
AcDbEntity
  8
図枠太線
  6
CONTINUOUS
 62
   251
100
AcDbLine
 10
211.858592505185
 20
30.927375675439
 30
0.0
 11
401.858584505185
 21
30.927375675439
 31
0.0
  0
LINE
  5
90
330
65
100
AcDbEntity
  8
図枠太線
  6
CONTINUOUS
 62
   251
100
AcDbLine
 10
1.858584505185
 20
275.927375675439
 30
0.0
 11
401.858584505185
 21
275.927375675439
 31
0.0
  0
LINE
  5
91
330
65
100
AcDbEntity
  8
図枠太線
  6
CONTINUOUS
 62
   251
100
AcDbLine
 10
401.858584505185
 20
0.927375675439
 30
0.0
 11
401.858584505185
 21
275.927375675439
 31
0.0
  0
LINE
  5
92
330
65
100
AcDbEntity
  8
図枠太線
  6
CONTINUOUS
 62
   251
100
AcDbLine
 10
1.858584505185
 20
0.927375675439
 30
0.0
 11
401.858584505185
 21
0.927375675439
 31
0.0
  0
ENDBLK
  5
94
330
65
100
AcDbEntity
  8
0
100
AcDbBlockEnd
  0
BLOCK
  5
29C0
330
29BF
100
AcDbEntity
  8
0
100
AcDbBlockBegin
  2
A4横用_タイトル
 70
     0
 10
0.0
 20
0.0
 30
0.0
  3
A4横用_タイトル
  1

  0
LINE
  5
29C1
330
29BF
100
AcDbEntity
  8
図枠細線
  6
CONTINUOUS
100
AcDbLine
 10
75.061011071051
 20
16.806607253358
 30
0.0
 11
144.061011071051
 21
16.806604789072
 31
0.0
  0
LINE
  5
29C2
330
29BF
100
AcDbEntity
  8
図枠細線
  6
CONTINUOUS
 62
   252
100
AcDbLine
 10
4.061011071051
 20
11.806606253358
 30
0.0
 11
75.061011071051
 21
11.806606253358
 31
0.0
  0
LINE
  5
29C3
330
29BF
100
AcDbEntity
  8
図枠細線
  6
CONTINUOUS
 62
   252
100
AcDbLine
 10
4.061011071051
 20
21.806606253358
 30
0.0
 11
75.061011071051
 21
21.806606253358
 31
0.0
  0
LINE
  5
29C4
330
29BF
100
AcDbEntity
  8
図枠細線
  6
CONTINUOUS
 62
   252
100
AcDbLine
 10
4.061011071051
 20
26.806606253358
 30
0.0
 11
75.061011071051
 21
26.806606253358
 31
0.0
  0
LINE
  5
29C5
330
29BF
100
AcDbEntity
  8
図枠細線
  6
CONTINUOUS
100
AcDbLine
 10
4.061011071051
 20
16.806608253358
 30
0.0
 11
75.061011071051
 21
16.806608253358
 31
0.0
  0
TEXT
  5
29C6
330
29BF
100
AcDbEntity
  8
図枠細線
  6
CONTINUOUS
 62
   252
100
AcDbText
 10
76.405475827713
 20
9.560308253358
 30
0.0
 40
2.0
  1
ＴＨＩＲＤ　ＡＮＧＬＥ
 41
0.691099486738
  7
EXCADSTD
 72
     5
 11
94.005476089973
 21
9.560308253358
 31
0.0
100
AcDbText
  0
TEXT
  5
29C7
330
29BF
100
AcDbEntity
  8
図枠細線
  6
CONTINUOUS
 62
   252
100
AcDbText
 10
76.705775880921
 20
14.306608253358
 30
0.0
 40
2.0
  1
第三角法
 41
1.102941176471
  7
EXCADSTD
 72
     5
 11
86.705775880921
 21
14.306608253358
 31
0.0
100
AcDbText
  0
TEXT
  5
29C8
330
29BF
100
AcDbEntity
  8
図枠細線
  6
CONTINUOUS
 62
   252
100
AcDbText
 10
76.705775880921
 20
26.806608253358
 30
0.0
 40
2.0
  1
ＡＰＰＲＯＶＥＤ
 41
0.695652184279
  7
EXCADSTD
 72
     5
 11
89.505776071656
 21
26.806608253358
 31
0.0
100
AcDbText
  0
TEXT
  5
29C9
330
29BF
100
AcDbEntity
  8
図枠細線
  6
CONTINUOUS
 62
   252
100
AcDbText
 10
76.705775880921
 20
29.306608253358
 30
0.0
 40
2.0
  1
承認
 41
1.171875
  7
EXCADSTD
 72
     5
 11
81.705775880921
 21
29.306608253358
 31
0.0
100
AcDbText
  0
LINE
  5
29CA
330
29BF
100
AcDbEntity
  8
図枠細線
  6
CONTINUOUS
 62
   252
100
AcDbLine
 10
98.061011071051
 20
31.806606253358
 30
0.0
 11
98.061011071051
 21
16.806606253358
 31
0.0
  0
TEXT
  5
29CB
330
29BF
100
AcDbEntity
  8
図枠細線
  6
CONTINUOUS
 62
   252
100
AcDbText
 10
104.216531119804
 20
14.306608253358
 30
0.0
 40
2.0
  1
ＳＣＡＬＥ
 41
0.903614457831
  7
EXCADSTD
 72
     5
 11
114.216531119804
 21
14.306608253358
 31
0.0
100
AcDbText
  0
TEXT
  5
29CC
330
29BF
100
AcDbEntity
  8
図枠細線
  6
CONTINUOUS
 62
   252
100
AcDbText
 10
98.844044119804
 20
14.306608253358
 30
0.0
 40
2.0
  1
尺度
 41
1.171875
  7
EXCADSTD
 72
     5
 11
103.844044119804
 21
14.306608253358
 31
0.0
100
AcDbText
  0
TEXT
  5
29CD
330
29BF
100
AcDbEntity
  8
図枠細線
  6
CONTINUOUS
 62
   252
100
AcDbText
 10
98.968727707497
 20
26.806608253358
 30
0.0
 40
2.0
  1
ＣＨＥＣＫＥＤ
 41
0.831249989569
  7
EXCADSTD
 72
     5
 11
112.268727540604
 21
26.806608253358
 31
0.0
100
AcDbText
  0
TEXT
  5
29CE
330
29BF
100
AcDbEntity
  8
図枠細線
  6
CONTINUOUS
 62
   252
100
AcDbText
 10
98.968727707497
 20
29.306608253358
 30
0.0
 40
2.0
  1
検図
 41
1.209677419355
  7
EXCADSTD
 72
     5
 11
103.968727707497
 21
29.306608253358
 31
0.0
100
AcDbText
  0
LINE
  5
29CF
330
29BF
100
AcDbEntity
  8
図枠細線
  6
CONTINUOUS
 62
   252
100
AcDbLine
 10
121.061011071051
 20
31.806606253358
 30
0.0
 11
121.061011071051
 21
16.806606253358
 31
0.0
  0
TEXT
  5
29D0
330
29BF
100
AcDbEntity
  8
図枠細線
  6
CONTINUOUS
 62
   252
100
AcDbText
 10
128.001465247253
 20
14.306608253358
 30
0.0
 40
2.0
  1
ＤＡＴＥ
 41
0.923076923077
  7
EXCADSTD
 72
     5
 11
136.001465247253
 21
14.306608253358
 31
0.0
100
AcDbText
  0
TEXT
  5
29D1
330
29BF
100
AcDbEntity
  8
図枠細線
  6
CONTINUOUS
 62
   252
100
AcDbText
 10
122.066415498841
 20
14.306608253358
 30
0.0
 40
2.0
  1
日付
 41
1.171875
  7
EXCADSTD
 72
     5
 11
127.066415498841
 21
14.306608253358
 31
0.0
100
AcDbText
  0
TEXT
  5
29D2
330
29BF
100
AcDbEntity
  8
図枠細線
  6
CONTINUOUS
 62
   252
100
AcDbText
 10
121.59429406571
 20
29.306608253358
 30
0.0
 40
2.0
  1
製図
 41
1.209677419355
  7
EXCADSTD
 72
     5
 11
126.59429406571
 21
29.306608253358
 31
0.0
100
AcDbText
  0
TEXT
  5
29D3
330
29BF
100
AcDbEntity
  8
図枠細線
  6
CONTINUOUS
 62
   252
100
AcDbText
 10
121.59429406571
 20
26.806608253358
 30
0.0
 40
2.0
  1
ＤＲＡＷＮ
 41
0.882352941176
  7
EXCADSTD
 72
     5
 11
131.59429406571
 21
26.806608253358
 31
0.0
100
AcDbText
  0
TEXT
  5
29D4
330
29BF
100
AcDbEntity
  8
図枠細線
  6
CONTINUOUS
 62
   252
100
AcDbText
 10
226.591229661348
 20
14.306608253358
 30
0.0
 40
2.0
  1
ＤＲＧ．ＮＯ．
 41
0.9375
  7
EXCADSTD
 72
     5
 11
240.591229661348
 21
14.306608253358
 31
0.0
100
AcDbText
  0
LINE
  5
29D5
330
29BF
100
AcDbEntity
  8
図枠太線
  6
CONTINUOUS
 62
   251
100
AcDbLine
 10
144.061003071051
 20
16.806606253358
 30
0.0
 11
214.061011071051
 21
16.806606253358
 31
0.0
  0
LINE
  5
29D6
330
29BF
100
AcDbEntity
  8
図枠細線
  6
CONTINUOUS
 62
   252
100
AcDbLine
 10
144.061011071051
 20
24.306606253358
 30
0.0
 11
214.061011071051
 21
24.306606253358
 31
0.0
  0
TEXT
  5
29D7
330
29BF
100
AcDbEntity
  8
図枠ロゴマーク
  6
CONTINUOUS
 62
   253
100
AcDbText
 10
146.433776781596
 20
8.399000253358
 30
0.0
 40
7.0
  1
東和制電工業株式会社
 41
0.80361088462
  7
EXCADSTD
 72
     5
 11
212.437017438349
 21
8.399000253358
 31
0.0
100
AcDbText
  0
TEXT
  5
29D8
330
29BF
100
AcDbEntity
  8
図枠細線
  6
CONTINUOUS
 62
   252
100
AcDbText
 10
215.156179912936
 20
14.306608253358
 30
0.0
 40
2.0
  1
図面番号
 41
1.102941176471
  7
EXCADSTD
 72
     5
 11
225.156179912936
 21
14.306608253358
 31
0.0
100
AcDbText
  0
TEXT
  5
29D9
330
29BF
100
AcDbEntity
  8
図枠細線
  6
CONTINUOUS
 62
   252
100
AcDbText
 10
221.591229661348
 20
29.306608253358
 30
0.0
 40
2.0
  1
ＴＩＴＬＥ
 41
0.903614457831
  7
EXCADSTD
 72
     5
 11
231.591229661348
 21
29.306608253358
 31
0.0
100
AcDbText
  0
TEXT
  5
29DA
330
29BF
100
AcDbEntity
  8
図枠細線
  6
CONTINUOUS
 62
   252
100
AcDbText
 10
215.156179912936
 20
29.306608253358
 30
0.0
 40
2.0
  1
名称
 41
1.171875
  7
EXCADSTD
 72
     5
 11
220.156179912936
 21
29.306608253358
 31
0.0
100
AcDbText
  0
LINE
  5
29DB
330
29BF
100
AcDbEntity
  8
図枠太線
  6
CONTINUOUS
 62
   251
100
AcDbLine
 10
4.061011071051
 20
1.806608253358
 30
0.0
 11
284.061011071051
 21
1.806608253358
 31
0.0
  0
LINE
  5
29DC
330
29BF
100
AcDbEntity
  8
図枠細線
  6
CONTINUOUS
 62
   252
100
AcDbLine
 10
4.061011071051
 20
6.806608253358
 30
0.0
 11
75.061011071051
 21
6.806608253358
 31
0.0
  0
LINE
  5
29DD
330
29BF
100
AcDbEntity
  8
図枠太線
  6
CONTINUOUS
 62
   251
100
AcDbLine
 10
75.061011071051
 20
1.806608253358
 30
0.0
 11
75.061011071051
 21
31.806606253358
 31
0.0
  0
TEXT
  5
29DE
330
29BF
100
AcDbEntity
  8
図枠細線
  6
CONTINUOUS
 62
   252
100
AcDbText
 10
76.330551827713
 20
6.638319253358
 30
0.0
 40
2.0
  1
ＰＲＯＪＥＣＴＩＯＮ
 41
0.754285710199
  7
EXCADSTD
 72
     5
 11
93.930551732346
 21
6.638319253358
 31
0.0
100
AcDbText
  0
LINE
  5
29DF
330
29BF
100
AcDbEntity
  8
図枠細線
  6
CONTINUOUS
 62
   252
100
AcDbLine
 10
98.061011071051
 20
1.806606931929
 30
0.0
 11
98.061011071051
 21
16.806604931929
 31
0.0
  0
LINE
  5
29E0
330
29BF
100
AcDbEntity
  8
図枠細線
  6
CONTINUOUS
 62
   252
100
AcDbLine
 10
121.061011071051
 20
1.806607574787
 30
0.0
 11
121.061011071051
 21
16.806605574787
 31
0.0
  0
LINE
  5
29E1
330
29BF
100
AcDbEntity
  8
図枠太線
  6
CONTINUOUS
 62
   251
100
AcDbLine
 10
284.061011071051
 20
1.806608253358
 30
0.0
 11
284.061011071051
 21
31.806606253358
 31
0.0
  0
LINE
  5
29E2
330
29BF
100
AcDbEntity
  8
図枠細線
  6
CONTINUOUS
 62
   252
100
AcDbLine
 10
214.061011071051
 20
16.806606253358
 30
0.0
 11
284.061011071051
 21
16.806606253358
 31
0.0
  0
TEXT
  5
29E3
330
29BF
100
AcDbEntity
  8
図枠細線
  6
CONTINUOUS
 62
   252
100
AcDbText
 10
146.199593676182
 20
3.454099253358
 30
0.0
 40
3.5
  1
ＴＯＷＡ　ＳＥＩＤＥＮ　ＩＮＤＵＳＴＲＩＡＬ　ＣＯ．，ＬＴＤ．
 41
0.528937826907
  7
EXCADSTD
 72
     5
 11
213.339435171588
 21
3.454099253358
 31
0.0
100
AcDbText
  0
LINE
  5
29E4
330
29BF
100
AcDbEntity
  8
図枠太線
  6
CONTINUOUS
 62
   251
100
AcDbLine
 10
144.061011071051
 20
1.806608253358
 30
0.0
 11
144.061011071051
 21
31.806606253358
 31
0.0
  0
LINE
  5
29E5
330
29BF
100
AcDbEntity
  8
図枠太線
  6
CONTINUOUS
 62
   251
100
AcDbLine
 10
214.061011071051
 20
1.806608253358
 30
0.0
 11
214.061011071051
 21
31.806606253358
 31
0.0
  0
MTEXT
  5
29E6
330
29BF
100
AcDbEntity
  8
図枠太線
100
AcDbMText
 10
5.064337346478
 20
31.010982137407
 30
0.0
 40
2.5
 41
8.67856098472
 71
     1
 72
     5
  1
{\Fmonotxt.shx,bigfont.shx|c128;図暦}
  0
LINE
  5
29E7
330
29BF
100
AcDbEntity
  8
図枠太線
  6
CONTINUOUS
 62
   251
100
AcDbLine
 10
4.061011071051
 20
1.806608253358
 30
0.0
 11
4.061011071051
 21
31.806606253358
 31
0.0
  0
TEXT
  5
29E8
330
29BF
100
AcDbEntity
  8
図枠細線
 48
10.0
100
AcDbText
 10
12.260817420402
 20
28.625419626495
 30
0.0
 40
2.0
  1
CHANGE NOTICE
100
AcDbText
  0
ENDBLK
  5
29E9
330
29BF
100
AcDbEntity
  8
0
100
AcDbBlockEnd
  0
BLOCK
  5
29F5
330
29F4
100
AcDbEntity
  8
0
100
AcDbBlockBegin
  2
A4縦用_タイトル
 70
     0
 10
0.0
 20
0.0
 30
0.0
  3
A4縦用_タイトル
  1

  0
LINE
  5
29F6
330
29F4
100
AcDbEntity
  8
図枠太線
  6
CONTINUOUS
 62
   251
100
AcDbLine
 10
2.368253864267
 20
4.525433224584
 30
0.0
 11
192.368245864267
 21
4.525433224584
 31
0.0
  0
LINE
  5
29F7
330
29F4
100
AcDbEntity
  8
図枠太線
  6
CONTINUOUS
 62
   251
100
AcDbLine
 10
78.368245864267
 20
19.525431224584
 30
0.0
 11
135.368253864267
 21
19.525431224584
 31
0.0
  0
LINE
  5
29F8
330
29F4
100
AcDbEntity
  8
図枠細線
  6
CONTINUOUS
 62
   252
100
AcDbLine
 10
78.368253864267
 20
27.025431224584
 30
0.0
 11
135.368253864267
 21
27.025431224584
 31
0.0
  0
TEXT
  5
29F9
330
29F4
100
AcDbEntity
  8
図枠ロゴマーク
  6
CONTINUOUS
 62
   253
100
AcDbText
 10
80.617009864267
 20
11.117825224584
 30
0.0
 40
7.0
  1
東和制電工業株式会社
 41
0.639204545455
  7
EXCADSTD
 72
     5
 11
133.117009864267
 21
11.117825224584
 31
0.0
100
AcDbText
  0
TEXT
  5
29FA
330
29F4
100
AcDbEntity
  8
図枠細線
  6
CONTINUOUS
 62
   252
100
AcDbText
 10
80.579549864267
 20
6.172924224584
 30
0.0
 40
3.5
  1
ＴＯＷＡ　ＳＥＩＤＥＮ　ＩＮＤＵＳＴＲＩＡＬ　ＣＯ．，ＬＴＤ．
 41
0.414568012377
  7
EXCADSTD
 72
     5
 11
133.202049568628
 21
6.172924224584
 31
0.0
100
AcDbText
  0
LINE
  5
29FB
330
29F4
100
AcDbEntity
  8
図枠太線
  6
CONTINUOUS
 62
   251
100
AcDbLine
 10
2.368253864267
 20
4.525433224584
 30
0.0
 11
2.368253864267
 21
34.525431224584
 31
0.0
  0
TEXT
  5
29FC
330
29F4
100
AcDbEntity
  8
図枠細線
  6
CONTINUOUS
 62
   252
100
AcDbText
 10
22.504308136501
 20
12.279133224584
 30
0.0
 40
2.0
  1
ＴＨＩＲＤ　ＡＮＧＬＥ
 41
0.691099486738
  7
EXCADSTD
 72
     5
 11
40.104308398762
 21
12.279133224584
 31
0.0
100
AcDbText
  0
TEXT
  5
29FD
330
29F4
100
AcDbEntity
  8
図枠細線
  6
CONTINUOUS
 62
   252
100
AcDbText
 10
22.429384136501
 20
9.357144224584
 30
0.0
 40
2.0
  1
ＰＲＯＪＥＣＴＩＯＮ
 41
0.754285710199
  7
EXCADSTD
 72
     5
 11
40.029384041134
 21
9.357144224584
 31
0.0
100
AcDbText
  0
LINE
  5
29FE
330
29F4
100
AcDbEntity
  8
図枠細線
  6
CONTINUOUS
100
AcDbLine
 10
22.368253864267
 20
19.525433224584
 30
0.0
 11
78.368253864267
 21
19.525431224584
 31
0.0
  0
TEXT
  5
29FF
330
29F4
100
AcDbEntity
  8
図枠細線
  6
CONTINUOUS
 62
   252
100
AcDbText
 10
22.868253864267
 20
17.025433224584
 30
0.0
 40
2.0
  1
第三角法
 41
1.102941176471
  7
EXCADSTD
 72
     5
 11
32.868253864267
 21
17.025433224584
 31
0.0
100
AcDbText
  0
TEXT
  5
2A00
330
29F4
100
AcDbEntity
  8
図枠細線
  6
CONTINUOUS
 62
   252
100
AcDbText
 10
22.868253864267
 20
29.525433224584
 30
0.0
 40
2.0
  1
ＡＰＰＲＯＶＥＤ
 41
0.695652184279
  7
EXCADSTD
 72
     5
 11
35.668254055002
 21
29.525433224584
 31
0.0
100
AcDbText
  0
LINE
  5
2A01
330
29F4
100
AcDbEntity
  8
図枠細線
  6
CONTINUOUS
 62
   252
100
AcDbLine
 10
2.368253864267
 20
9.525433224584
 30
0.0
 11
22.368253864267
 21
9.525433224584
 31
0.0
  0
LINE
  5
2A02
330
29F4
100
AcDbEntity
  8
図枠細線
  6
CONTINUOUS
 62
   252
100
AcDbLine
 10
2.368253864267
 20
14.525431224584
 30
0.0
 11
22.368253864267
 21
14.525431224584
 31
0.0
  0
LINE
  5
2A03
330
29F4
100
AcDbEntity
  8
図枠細線
  6
CONTINUOUS
 62
   252
100
AcDbLine
 10
2.368253864267
 20
24.525431224584
 30
0.0
 11
22.368253864267
 21
24.525431224584
 31
0.0
  0
LINE
  5
2A04
330
29F4
100
AcDbEntity
  8
図枠細線
  6
CONTINUOUS
 62
   252
100
AcDbLine
 10
2.368253864267
 20
29.525431224584
 30
0.0
 11
22.368253864267
 21
29.525431224584
 31
0.0
  0
LINE
  5
2A05
330
29F4
100
AcDbEntity
  8
図枠細線
  6
CONTINUOUS
100
AcDbLine
 10
2.368253864267
 20
19.525433224584
 30
0.0
 11
22.368253864267
 21
19.525433224584
 31
0.0
  0
TEXT
  5
2A06
330
29F4
100
AcDbEntity
  8
図枠細線
  6
CONTINUOUS
 62
   252
100
AcDbText
 10
2.868253864267
 20
32.025433224584
 30
0.0
 40
2.0
  1
ＮＯＴＥ
 41
0.923076923077
  7
EXCADSTD
 72
     5
 11
10.868253864267
 21
32.025433224584
 31
0.0
100
AcDbText
  0
LINE
  5
2A07
330
29F4
100
AcDbEntity
  8
図枠太線
  6
CONTINUOUS
 62
   251
100
AcDbLine
 10
22.368253864267
 20
4.525433224584
 30
0.0
 11
22.368253864267
 21
34.525431224584
 31
0.0
  0
TEXT
  5
2A08
330
29F4
100
AcDbEntity
  8
図枠細線
  6
CONTINUOUS
 62
   252
100
AcDbText
 10
22.868253864267
 20
32.025433224584
 30
0.0
 40
2.0
  1
承認
 41
1.171875
  7
EXCADSTD
 72
     5
 11
27.868253864267
 21
32.025433224584
 31
0.0
100
AcDbText
  0
TEXT
  5
2A09
330
29F4
100
AcDbEntity
  8
図枠細線
  6
CONTINUOUS
 62
   252
100
AcDbText
 10
60.711709035982
 20
32.025433224584
 30
0.0
 40
2.0
  1
製図
 41
1.209677419355
  7
EXCADSTD
 72
     5
 11
65.711709035982
 21
32.025433224584
 31
0.0
100
AcDbText
  0
TEXT
  5
2A0A
330
29F4
100
AcDbEntity
  8
図枠細線
  6
CONTINUOUS
 62
   252
100
AcDbText
 10
60.711709035982
 20
29.525433224584
 30
0.0
 40
2.0
  1
ＤＲＡＷＮ
 41
0.882352941176
  7
EXCADSTD
 72
     5
 11
70.711709035982
 21
29.525433224584
 31
0.0
100
AcDbText
  0
TEXT
  5
2A0B
330
29F4
100
AcDbEntity
  8
図枠細線
  6
CONTINUOUS
 62
   252
100
AcDbText
 10
60.834891743877
 20
17.025433224584
 30
0.0
 40
2.0
  1
日付
 41
1.171875
  7
EXCADSTD
 72
     5
 11
65.834891743877
 21
17.025433224584
 31
0.0
100
AcDbText
  0
TEXT
  5
2A0C
330
29F4
100
AcDbEntity
  8
図枠細線
  6
CONTINUOUS
 62
   252
100
AcDbText
 10
47.333660864267
 20
17.025433224584
 30
0.0
 40
2.0
  1
ＳＣＡＬＥ
 41
0.903614457831
  7
EXCADSTD
 72
     5
 11
57.333660864267
 21
17.025433224584
 31
0.0
100
AcDbText
  0
TEXT
  5
2A0D
330
29F4
100
AcDbEntity
  8
図枠細線
  6
CONTINUOUS
 62
   252
100
AcDbText
 10
42.281425990082
 20
29.525433224584
 30
0.0
 40
2.0
  1
ＣＨＥＣＫＥＤ
 41
0.831249989569
  7
EXCADSTD
 72
     5
 11
55.581425823189
 21
29.525433224584
 31
0.0
100
AcDbText
  0
LINE
  5
2A0E
330
29F4
100
AcDbEntity
  8
図枠細線
  6
CONTINUOUS
 62
   252
100
AcDbLine
 10
40.968253864267
 20
34.525431224584
 30
0.0
 11
40.968253864267
 21
19.525431224584
 31
0.0
  0
LINE
  5
2A0F
330
29F4
100
AcDbEntity
  8
図枠細線
  6
CONTINUOUS
 62
   252
100
AcDbLine
 10
40.968253864267
 20
4.525433224584
 30
0.0
 11
40.968253864267
 21
19.525431224584
 31
0.0
  0
TEXT
  5
2A10
330
29F4
100
AcDbEntity
  8
図枠細線
  6
CONTINUOUS
 62
   252
100
AcDbText
 10
41.961173864267
 20
17.025433224584
 30
0.0
 40
2.0
  1
尺度
 41
1.171875
  7
EXCADSTD
 72
     5
 11
46.961173864267
 21
17.025433224584
 31
0.0
100
AcDbText
  0
TEXT
  5
2A11
330
29F4
100
AcDbEntity
  8
図枠細線
  6
CONTINUOUS
 62
   252
100
AcDbText
 10
42.281425990082
 20
32.025433224584
 30
0.0
 40
2.0
  1
検図
 41
1.209677419355
  7
EXCADSTD
 72
     5
 11
47.281425990082
 21
32.025433224584
 31
0.0
100
AcDbText
  0
LINE
  5
2A12
330
29F4
100
AcDbEntity
  8
図枠細線
  6
CONTINUOUS
 62
   252
100
AcDbLine
 10
59.768253864267
 20
34.525431224584
 30
0.0
 11
59.768253864267
 21
19.525431224584
 31
0.0
  0
LINE
  5
2A13
330
29F4
100
AcDbEntity
  8
図枠細線
  6
CONTINUOUS
 62
   252
100
AcDbLine
 10
59.768253864267
 20
4.525433224584
 30
0.0
 11
59.768253864267
 21
19.525431224584
 31
0.0
  0
LINE
  5
2A14
330
29F4
100
AcDbEntity
  8
図枠太線
  6
CONTINUOUS
 62
   251
100
AcDbLine
 10
78.368253864267
 20
4.525433224584
 30
0.0
 11
78.368253864267
 21
34.525431224584
 31
0.0
  0
TEXT
  5
2A15
330
29F4
100
AcDbEntity
  8
図枠細線
  6
CONTINUOUS
 62
   252
100
AcDbText
 10
66.334891743877
 20
17.025433224584
 30
0.0
 40
2.0
  1
ＤＡＴＥ
 41
0.923076923077
  7
EXCADSTD
 72
     5
 11
74.334891743877
 21
17.025433224584
 31
0.0
100
AcDbText
  0
LINE
  5
2A16
330
29F4
100
AcDbEntity
  8
図枠細線
  6
CONTINUOUS
 62
   252
100
AcDbLine
 10
135.368253864267
 20
19.525431224584
 30
0.0
 11
192.368245864267
 21
19.525431224584
 31
0.0
  0
TEXT
  5
2A17
330
29F4
100
AcDbEntity
  8
図枠細線
  6
CONTINUOUS
 62
   252
100
AcDbText
 10
141.868253864267
 20
32.025433224584
 30
0.0
 40
2.0
  1
ＴＩＴＬＥ
 41
0.903614457831
  7
EXCADSTD
 72
     5
 11
151.868253864267
 21
32.025433224584
 31
0.0
100
AcDbText
  0
LINE
  5
2A18
330
29F4
100
AcDbEntity
  8
図枠太線
  6
CONTINUOUS
 62
   251
100
AcDbLine
 10
135.368253864267
 20
4.525433224584
 30
0.0
 11
135.368253864267
 21
34.525431224584
 31
0.0
  0
TEXT
  5
2A19
330
29F4
100
AcDbEntity
  8
図枠細線
  6
CONTINUOUS
 62
   252
100
AcDbText
 10
135.868253864267
 20
17.025433224584
 30
0.0
 40
2.0
  1
図面番号
 41
1.102941176471
  7
EXCADSTD
 72
     5
 11
145.868253864267
 21
17.025433224584
 31
0.0
100
AcDbText
  0
TEXT
  5
2A1A
330
29F4
100
AcDbEntity
  8
図枠細線
  6
CONTINUOUS
 62
   252
100
AcDbText
 10
135.868253864267
 20
32.025433224584
 30
0.0
 40
2.0
  1
名称
 41
1.171875
  7
EXCADSTD
 72
     5
 11
140.868253864267
 21
32.025433224584
 31
0.0
100
AcDbText
  0
TEXT
  5
2A1B
330
29F4
100
AcDbEntity
  8
図枠細線
  6
CONTINUOUS
 62
   252
100
AcDbText
 10
146.868253864267
 20
17.025433224584
 30
0.0
 40
2.0
  1
ＤＲＧ．ＮＯ．
 41
0.9375
  7
EXCADSTD
 72
     5
 11
160.868253864267
 21
17.025433224584
 31
0.0
100
AcDbText
  0
LINE
  5
2A1C
330
29F4
100
AcDbEntity
  8
図枠太線
  6
CONTINUOUS
 62
   251
100
AcDbLine
 10
192.368245864267
 20
4.525433224584
 30
0.0
 11
192.368245864267
 21
34.525431224584
 31
0.0
  0
ENDBLK
  5
2A1D
330
29F4
100
AcDbEntity
  8
0
100
AcDbBlockEnd
  0
BLOCK
  5
2A33
330
2A32
100
AcDbEntity
  8
0
100
AcDbBlockBegin
  2
A3横用_タイトル
 70
     0
 10
0.0
 20
0.0
 30
0.0
  3
A3横用_タイトル
  1

  0
LINE
  5
2A34
330
2A32
100
AcDbEntity
  8
図枠細線
  6
CONTINUOUS
 62
   252
100
AcDbLine
 10
205.098414535793
 20
33.525959753527
 30
0.0
 11
305.098414535793
 21
33.525959753527
 31
0.0
  0
LINE
  5
2A35
330
2A32
100
AcDbEntity
  8
図枠太線
  6
CONTINUOUS
 62
   251
100
AcDbLine
 10
205.098414535793
 20
23.525959753527
 30
0.0
 11
305.098414535793
 21
23.525959753527
 31
0.0
  0
LINE
  5
2A36
330
2A32
100
AcDbEntity
  8
図枠細線
  6
CONTINUOUS
100
AcDbLine
 10
5.098414535793
 20
23.525959753527
 30
0.0
 11
105.098414535793
 21
23.525959753527
 31
0.0
  0
LINE
  5
2A37
330
2A32
100
AcDbEntity
  8
図枠細線
  6
CONTINUOUS
 62
   252
100
AcDbLine
 10
5.098414535793
 20
36.725957753527
 30
0.0
 11
105.098414535793
 21
36.725957753527
 31
0.0
  0
LINE
  5
2A38
330
2A32
100
AcDbEntity
  8
図枠細線
  6
CONTINUOUS
 62
   252
100
AcDbLine
 10
5.098414535793
 20
30.125957753527
 30
0.0
 11
105.098414535793
 21
30.125957753527
 31
0.0
  0
LINE
  5
2A39
330
2A32
100
AcDbEntity
  8
図枠細線
  6
CONTINUOUS
 62
   252
100
AcDbLine
 10
5.098414535793
 20
16.725959753527
 30
0.0
 11
105.098414535793
 21
16.725959753527
 31
0.0
  0
LINE
  5
2A3A
330
2A32
100
AcDbEntity
  8
図枠細線
  6
CONTINUOUS
 62
   252
100
AcDbLine
 10
5.098414535793
 20
10.125959753527
 30
0.0
 11
105.098414535793
 21
10.125959753527
 31
0.0
  0
LINE
  5
2A3B
330
2A32
100
AcDbEntity
  8
図枠細線
  6
CONTINUOUS
100
AcDbLine
 10
105.098414535793
 20
23.525961753527
 30
0.0
 11
205.098414535793
 21
23.525959753527
 31
0.0
  0
LINE
  5
2A3C
330
2A32
100
AcDbEntity
  8
図枠細線
  6
CONTINUOUS
 62
   252
100
AcDbLine
 10
138.398414535793
 20
43.525959753527
 30
0.0
 11
138.398414535793
 21
18.525957753527
 31
0.0
  0
LINE
  5
2A3D
330
2A32
100
AcDbEntity
  8
図枠細線
  6
CONTINUOUS
 62
   252
100
AcDbLine
 10
171.698414535793
 20
43.525959753527
 30
0.0
 11
171.698414535793
 21
18.525957753527
 31
0.0
  0
LINE
  5
2A3E
330
2A32
100
AcDbEntity
  8
図枠細線
  6
CONTINUOUS
 62
   252
100
AcDbLine
 10
305.098414535793
 20
23.525959753527
 30
0.0
 11
405.098414535793
 21
23.525959753527
 31
0.0
  0
TEXT
  5
2A3F
330
2A32
100
AcDbEntity
  8
図枠ロゴマーク
  6
CONTINUOUS
 62
   253
100
AcDbText
 10
206.102509212755
 20
13.294257570546
 30
0.0
 40
7.0
  1
東和制電工業株式会社
 50
0.016555220185
 41
1.186384129432
  7
EXCADSTD
 72
     5
 11
303.544188309143
 21
13.322412672217
 31
0.0
100
AcDbText
  0
MTEXT
  5
2A40
330
2A32
100
AcDbEntity
  8
図枠細線
100
AcDbMText
 10
6.356764112375
 20
41.976594175478
 30
0.0
 40
2.5
 41
49.938282706292
 71
     1
 72
     5
  1
{\Fmonotxt.shx,bigfont.shx|c128;図暦　CHANGE　NOTICE}
  0
MTEXT
  5
2A41
330
2A32
100
AcDbEntity
  8
図枠細線
 48
10.0
100
AcDbMText
 10
306.544114926828
 20
41.701835800934
 30
0.0
 40
2.5
 41
28.002809618823
 71
     1
 72
     5
  1
{\Fmonotxt.shx,bigfont.shx|c128;名称　TITLE}
  0
MTEXT
  5
2A42
330
2A32
100
AcDbEntity
  8
図枠細線
 48
10.0
100
AcDbMText
 10
307.329617114284
 20
21.606206797226
 30
0.0
 40
2.5
 41
24.385612216707
 71
     1
 72
     5
  1
{\Fmonotxt.shx,bigfont.shx|c128;図面番号\PDRG.　No.}
  0
MTEXT
  5
2A43
330
2A32
100
AcDbEntity
  8
図枠細線
 48
10.0
100
AcDbMText
 10
173.726349404609
 20
21.73680662198
 30
0.0
 40
2.5
 41
25.735090160813
 71
     1
 72
     5
  1
{\Fmonotxt.shx,bigfont.shx|c128;日付 DATE}
  0
MTEXT
  5
2A44
330
2A32
100
AcDbEntity
  8
図枠細線
 48
10.0
100
AcDbMText
 10
173.48708833982
 20
41.621592044998
 30
0.0
 40
2.5
 41
24.983741184205
 71
     1
 72
     5
  1
{\Fmonotxt.shx,bigfont.shx|c128;製図　DRAWN}
  0
MTEXT
  5
2A45
330
2A32
100
AcDbEntity
  8
図枠細線
 48
10.0
100
AcDbMText
 10
139.28009927741
 20
21.866713069868
 30
0.0
 40
2.5
 41
22.629632913243
 71
     1
 72
     5
  1
{\Fmonotxt.shx,bigfont.shx|c128;尺度　SCALE}
  0
MTEXT
  5
2A46
330
2A32
100
AcDbEntity
  8
図枠細線
 48
10.0
100
AcDbMText
 10
139.910091179835
 20
41.311840415554
 30
0.0
 40
2.5
 41
28.998753428368
 71
     1
 72
     5
  1
{\Fmonotxt.shx,bigfont.shx|c128;検図  CHECKED}
  0
MTEXT
  5
2A47
330
2A32
100
AcDbEntity
  8
図枠細線
 48
10.0
100
AcDbMText
 10
114.253294667728
 20
21.916124850174
 30
0.0
 40
3.0
 41
19.692400475383
 71
     1
 72
     5
  1
{\Fmonotxt.shx,bigfont.shx|c128;第三角法}
  0
MTEXT
  5
2A48
330
2A32
100
AcDbEntity
  8
図枠細線
 48
10.0
100
AcDbMText
 10
108.986959929915
 20
15.282880185837
 30
0.0
 40
2.5
 41
27.954882823547
 71
     1
 72
     5
  1
{\Fmonotxt.shx,bigfont.shx|c128;THIRD ANGLE\PPROJECTION}
  0
MTEXT
  5
2A49
330
2A32
100
AcDbEntity
  8
図枠細線
 48
10.0
100
AcDbMText
 10
106.319432640184
 20
41.511437145487
 30
0.0
 40
2.5
 41
28.233595265074
 71
     1
 72
     5
  1
{\Fmonotxt.shx,bigfont.shx|c128;承認 APPROVED}
  0
LINE
  5
2A4A
330
2A32
100
AcDbEntity
  8
図枠太線
  6
CONTINUOUS
 62
   251
100
AcDbLine
 10
5.098414535793
 20
3.525959753527
 30
0.0
 11
405.098414535793
 21
3.525959753527
 31
0.0
  0
LINE
  5
2A4B
330
2A32
100
AcDbEntity
  8
図枠太線
 48
10.0
100
AcDbLine
 10
5.098414535793
 20
3.525959753527
 30
0.0
 11
5.098414535793
 21
43.525959753527
 31
0.0
  0
LINE
  5
2A4C
330
2A32
100
AcDbEntity
  8
図枠太線
  6
CONTINUOUS
 62
   251
100
AcDbLine
 10
105.098414535793
 20
3.525959753527
 30
0.0
 11
105.098414535793
 21
43.525959753527
 31
0.0
  0
LINE
  5
2A4D
330
2A32
100
AcDbEntity
  8
図枠細線
  6
CONTINUOUS
 62
   252
100
AcDbLine
 10
138.398414535793
 20
3.525959753527
 30
0.0
 11
138.398414535793
 21
18.525957753527
 31
0.0
  0
LINE
  5
2A4E
330
2A32
100
AcDbEntity
  8
図枠細線
  6
CONTINUOUS
 62
   252
100
AcDbLine
 10
171.698414535793
 20
3.525959753527
 30
0.0
 11
171.698414535793
 21
18.525957753527
 31
0.0
  0
LINE
  5
2A4F
330
2A32
100
AcDbEntity
  8
図枠太線
  6
CONTINUOUS
 62
   251
100
AcDbLine
 10
205.098414535793
 20
3.525959753527
 30
0.0
 11
205.098414535793
 21
43.525959753527
 31
0.0
  0
LINE
  5
2A50
330
2A32
100
AcDbEntity
  8
図枠太線
 48
10.0
100
AcDbLine
 10
405.098414535793
 20
43.525959753527
 30
0.0
 11
405.098414535793
 21
3.525959753527
 31
0.0
  0
TEXT
  5
2A51
330
2A32
100
AcDbEntity
  8
図枠細線
  6
CONTINUOUS
 62
   252
100
AcDbText
 10
208.519754474572
 20
6.482358407285
 30
0.0
 40
3.5
  1
ＴＯＷＡ　ＳＥＩＤＥＮ　ＩＮＤＵＳＴＲＩＡＬ　ＣＯ．，ＬＴＤ．
 41
0.746656297509
  7
EXCADSTD
 72
     5
 11
303.295327171727
 21
6.482358407285
 31
0.0
100
AcDbText
  0
LINE
  5
2A52
330
2A32
100
AcDbEntity
  8
図枠太線
  6
CONTINUOUS
 62
   251
100
AcDbLine
 10
305.098414535793
 20
3.525959753527
 30
0.0
 11
305.098414535793
 21
43.525959753527
 31
0.0
  0
ENDBLK
  5
2A53
330
2A32
100
AcDbEntity
  8
0
100
AcDbBlockEnd
  0
BLOCK
  5
2A6D
330
2A6C
100
AcDbEntity
  8
0
100
AcDbBlockBegin
  2
A3縦用_タイトル
 70
     0
 10
0.0
 20
0.0
 30
0.0
  3
A3縦用_タイトル
  1

  0
MTEXT
  5
2A6E
330
2A6C
100
AcDbEntity
  8
図枠細線
100
AcDbMText
 10
5.040804501593
 20
31.626098649005
 30
0.0
 40
2.5
 41
49.938282706292
 71
     1
 72
     5
  1
{\Fmonotxt.shx,bigfont.shx|c128;図暦　CHANGE　NOTICE}
  0
LINE
  5
2A6F
330
2A6C
100
AcDbEntity
  8
図枠太線
  6
CONTINUOUS
 62
   251
100
AcDbLine
 10
283.577871882961
 20
2.820844689254
 30
0.0
 11
283.577871882961
 21
32.820842689254
 31
0.0
  0
MTEXT
  5
2A70
330
2A6C
100
AcDbEntity
  8
図枠細線
 48
10.0
100
AcDbMText
 10
214.912458947454
 20
31.621488632308
 30
0.0
 40
2.5
 41
28.002809618823
 71
     1
 72
     5
  1
{\Fmonotxt.shx,bigfont.shx|c128;名称　TITLE}
  0
MTEXT
  5
2A71
330
2A6C
100
AcDbEntity
  8
図枠細線
 48
10.0
100
AcDbMText
 10
214.740030458938
 20
16.310225796722
 30
0.0
 40
2.5
 41
24.385612216707
 71
     1
 72
     5
  1
{\Fmonotxt.shx,bigfont.shx|c128;図面番号\PDRG.　No.}
  0
LINE
  5
2A72
330
2A6C
100
AcDbEntity
  8
図枠太線
  6
CONTINUOUS
 62
   251
100
AcDbLine
 10
213.577871882961
 20
2.820844689254
 30
0.0
 11
213.577871882961
 21
32.820842689254
 31
0.0
  0
LINE
  5
2A73
330
2A6C
100
AcDbEntity
  8
図枠太線
  6
CONTINUOUS
 62
   251
100
AcDbLine
 10
143.577871882961
 20
2.820844689254
 30
0.0
 11
143.577871882961
 21
32.820842689254
 31
0.0
  0
TEXT
  5
2A74
330
2A6C
100
AcDbEntity
  8
図枠細線
  6
CONTINUOUS
 62
   252
100
AcDbText
 10
145.716454488093
 20
4.468335689254
 30
0.0
 40
3.5
  1
ＴＯＷＡ　ＳＥＩＤＥＮ　ＩＮＤＵＳＴＲＩＡＬ　ＣＯ．，ＬＴＤ．
 41
0.528937826907
  7
EXCADSTD
 72
     5
 11
212.856295983498
 21
4.468335689254
 31
0.0
100
AcDbText
  0
TEXT
  5
2A75
330
2A6C
100
AcDbEntity
  8
図枠ロゴマーク
  6
CONTINUOUS
 62
   253
100
AcDbText
 10
145.950637593507
 20
9.413236689254
 30
0.0
 40
7.0
  1
東和制電工業株式会社
 41
0.80361088462
  7
EXCADSTD
 72
     5
 11
211.953878250259
 21
9.413236689254
 31
0.0
100
AcDbText
  0
LINE
  5
2A76
330
2A6C
100
AcDbEntity
  8
図枠細線
  6
CONTINUOUS
 62
   252
100
AcDbLine
 10
143.577871882961
 20
25.320842689254
 30
0.0
 11
213.577871882961
 21
25.320842689254
 31
0.0
  0
LINE
  5
2A77
330
2A6C
100
AcDbEntity
  8
図枠太線
  6
CONTINUOUS
 62
   251
100
AcDbLine
 10
143.577863882961
 20
17.820842689254
 30
0.0
 11
213.577871882961
 21
17.820842689254
 31
0.0
  0
LINE
  5
2A78
330
2A6C
100
AcDbEntity
  8
図枠細線
  6
CONTINUOUS
 62
   252
100
AcDbLine
 10
213.577871882961
 20
17.820842689254
 30
0.0
 11
283.577871882961
 21
17.820842689254
 31
0.0
  0
LINE
  5
2A79
330
2A6C
100
AcDbEntity
  8
図枠細線
  6
CONTINUOUS
 62
   252
100
AcDbLine
 10
120.577871882961
 20
32.820842689254
 30
0.0
 11
120.577871882961
 21
17.820842689254
 31
0.0
  0
MTEXT
  5
2A7A
330
2A6C
100
AcDbEntity
  8
図枠細線
 48
10.0
100
AcDbMText
 10
121.100885670352
 20
16.33785922638
 30
0.0
 40
2.0
 41
17.705978285068
 71
     1
 72
     5
  1
{\Fmonotxt.shx,bigfont.shx|c128;日付 DATE}
  0
MTEXT
  5
2A7B
330
2A6C
100
AcDbEntity
  8
図枠細線
 48
10.0
100
AcDbMText
 10
121.254842273491
 20
31.208993514037
 30
0.0
 40
2.0
 41
18.363799568758
 71
     1
 72
     5
  1
{\Fmonotxt.shx,bigfont.shx|c128;製図　DRAWN}
  0
LINE
  5
2A7C
330
2A6C
100
AcDbEntity
  8
図枠細線
  6
CONTINUOUS
 62
   252
100
AcDbLine
 10
97.577871882961
 20
32.820842689254
 30
0.0
 11
97.577871882961
 21
17.820842689254
 31
0.0
  0
MTEXT
  5
2A7D
330
2A6C
100
AcDbEntity
  8
図枠細線
 48
10.0
100
AcDbMText
 10
98.239734796872
 20
16.467764839281
 30
0.0
 40
2.0
 41
17.757791689903
 71
     1
 72
     5
  1
{\Fmonotxt.shx,bigfont.shx|c128;尺度　SCALE}
  0
MTEXT
  5
2A7E
330
2A6C
100
AcDbEntity
  8
図枠細線
 48
10.0
100
AcDbMText
 10
97.864744625154
 20
31.298433377664
 30
0.0
 40
2.0
 41
23.162655920976
 71
     1
 72
     5
  1
{\Fmonotxt.shx,bigfont.shx|c128;検図  CHECKED}
  0
LINE
  5
2A7F
330
2A6C
100
AcDbEntity
  8
図枠細線
  6
CONTINUOUS
 62
   252
100
AcDbLine
 10
97.577871882961
 20
2.820843367826
 30
0.0
 11
97.577871882961
 21
17.820841367826
 31
0.0
  0
LINE
  5
2A80
330
2A6C
100
AcDbEntity
  8
図枠細線
  6
CONTINUOUS
 62
   252
100
AcDbLine
 10
120.577871882961
 20
2.820844010683
 30
0.0
 11
120.577871882961
 21
17.820842010683
 31
0.0
  0
MTEXT
  5
2A81
330
2A6C
100
AcDbEntity
  8
図枠細線
 48
10.0
100
AcDbMText
 10
81.402399084102
 20
16.316484117426
 30
0.0
 40
2.0
 41
12.920322819369
 71
     1
 72
     5
  1
{\Fmonotxt.shx,bigfont.shx|c128;第三角法}
  0
MTEXT
  5
2A82
330
2A6C
100
AcDbEntity
  8
図枠細線
 48
10.0
100
AcDbMText
 10
75.736576535096
 20
11.080410931319
 30
0.0
 40
2.0
 41
21.072870671471
 71
     1
 72
     5
  1
{\Fmonotxt.shx,bigfont.shx|c128;THIRD ANGLE\PPROJECTION}
  0
LINE
  5
2A83
330
2A6C
100
AcDbEntity
  8
図枠太線
  6
CONTINUOUS
 62
   251
100
AcDbLine
 10
74.577871882961
 20
2.820844689254
 30
0.0
 11
74.577871882961
 21
32.820842689254
 31
0.0
  0
MTEXT
  5
2A84
330
2A6C
100
AcDbEntity
  8
図枠細線
 48
10.0
100
AcDbMText
 10
75.060214781573
 20
31.298434778555
 30
0.0
 40
2.0
 41
22.240928805967
 71
     1
 72
     5
  1
{\Fmonotxt.shx,bigfont.shx|c128;承認 APPROVED}
  0
LINE
  5
2A85
330
2A6C
100
AcDbEntity
  8
図枠細線
  6
CONTINUOUS
100
AcDbLine
 10
3.577871882961
 20
17.820844689254
 30
0.0
 11
74.577871882961
 21
17.820844689254
 31
0.0
  0
LINE
  5
2A86
330
2A6C
100
AcDbEntity
  8
図枠細線
  6
CONTINUOUS
 62
   252
100
AcDbLine
 10
3.577871882961
 20
27.820842689254
 30
0.0
 11
74.577871882961
 21
27.820842689254
 31
0.0
  0
LINE
  5
2A87
330
2A6C
100
AcDbEntity
  8
図枠細線
  6
CONTINUOUS
 62
   252
100
AcDbLine
 10
3.577871882961
 20
22.820842689254
 30
0.0
 11
74.577871882961
 21
22.820842689254
 31
0.0
  0
LINE
  5
2A88
330
2A6C
100
AcDbEntity
  8
図枠細線
  6
CONTINUOUS
 62
   252
100
AcDbLine
 10
3.577871882961
 20
12.820842689254
 30
0.0
 11
74.577871882961
 21
12.820842689254
 31
0.0
  0
LINE
  5
2A89
330
2A6C
100
AcDbEntity
  8
図枠細線
  6
CONTINUOUS
 62
   252
100
AcDbLine
 10
3.577871882961
 20
7.820844689254
 30
0.0
 11
74.577871882961
 21
7.820844689254
 31
0.0
  0
LINE
  5
2A8A
330
2A6C
100
AcDbEntity
  8
図枠細線
  6
CONTINUOUS
100
AcDbLine
 10
74.577871882961
 20
17.820843689254
 30
0.0
 11
143.577871882961
 21
17.820841224969
 31
0.0
  0
LINE
  5
2A8B
330
2A6C
100
AcDbEntity
  8
図枠太線
  6
CONTINUOUS
 62
   251
100
AcDbLine
 10
3.577871882961
 20
2.820844689254
 30
0.0
 11
283.577871882961
 21
2.820844689254
 31
0.0
  0
LINE
  5
2A8C
330
2A6C
100
AcDbEntity
  8
図枠太線
  6
CONTINUOUS
 62
   251
100
AcDbLine
 10
3.577871882961
 20
2.820844689254
 30
0.0
 11
3.577871882961
 21
32.820842689254
 31
0.0
  0
ENDBLK
  5
2A8D
330
2A6C
100
AcDbEntity
  8
0
100
AcDbBlockEnd
  0
BLOCK
  5
2AF8
330
2AF4
100
AcDbEntity
  8
0
 48
10.0
100
AcDbBlockBegin
  2
_OPEN30
 70
     0
 10
0.0
 20
0.0
 30
0.0
  3
_OPEN30
  1

  0
LINE
  5
2AF5
330
2AF4
100
AcDbEntity
  8
0
  6
BYBLOCK
 62
     0
100
AcDbLine
 10
-1.0
 20
0.26794919
 30
0.0
 11
0.0
 21
0.0
 31
0.0
  0
LINE
  5
2AF6
330
2AF4
100
AcDbEntity
  8
0
  6
BYBLOCK
 62
     0
100
AcDbLine
 10
0.0
 20
0.0
 30
0.0
 11
-1.0
 21
-0.26794919
 31
0.0
  0
LINE
  5
2AF7
330
2AF4
100
AcDbEntity
  8
0
  6
BYBLOCK
 62
     0
100
AcDbLine
 10
0.0
 20
0.0
 30
0.0
 11
-1.0
 21
0.0
 31
0.0
  0
ENDBLK
  5
2AF9
330
2AF4
100
AcDbEntity
  8
0
 48
10.0
100
AcDbBlockEnd
  0
BLOCK
  5
47F6
330
47F5
100
AcDbEntity
  8
0
 48
10.0
100
AcDbBlockBegin
  2
静電容量センサ
 70
     0
 10
0.0
 20
0.0
 30
0.0
  3
静電容量センサ
  1

  0
ARC
  5
47F7
330
47F5
100
AcDbEntity
  8
外形線
 48
10.0
100
AcDbCircle
 10
1021.898525663106
 20
1073.412780408912
 30
0.0
 40
1.0
100
AcDbArc
 50
180.0
 51
268.999999999998
  0
ARC
  5
47F8
330
47F5
100
AcDbEntity
  8
外形線
 48
10.0
100
AcDbCircle
 10
1021.898525663106
 20
1115.960781516243
 30
0.0
 40
1.0
100
AcDbArc
 50
91.000000000002
 51
180.0
  0
LINE
  5
47F9
330
47F5
100
AcDbEntity
  8
外形線
 48
10.0
100
AcDbLine
 10
1020.898525663106
 20
1115.960781516243
 30
0.0
 11
1020.898525663106
 21
1073.412780408912
 31
0.0
  0
LINE
  5
47FA
330
47F5
100
AcDbEntity
  8
外形線
 48
10.0
100
AcDbLine
 10
1035.026308504175
 20
1117.944859066978
 30
0.0
 11
1041.278741748243
 21
1143.02199911049
 31
0.0
  0
ARC
  5
47FB
330
47F5
100
AcDbEntity
  8
外形線
 48
10.0
100
AcDbCircle
 10
1046.130220379623
 20
1141.812389632491
 30
0.0
 40
5.0
100
AcDbArc
 50
91.3
 51
166.000000000004
  0
ARC
  5
47FC
330
47F5
100
AcDbEntity
  8
外形線
 48
10.0
100
AcDbCircle
 10
1034.056012777899
 20
1118.186780962578
 30
0.0
 40
1.0
100
AcDbArc
 50
270.0
 51
346.000000000004
  0
ARC
  5
47FD
330
47F5
100
AcDbEntity
  8
外形線
 48
10.0
100
AcDbCircle
 10
1034.056012777899
 20
1118.186780962578
 30
0.0
 40
1.0
100
AcDbArc
 50
270.0
 51
346.000000000004
  0
LINE
  5
47FE
330
47F5
100
AcDbEntity
  8
外形線
 48
10.0
100
AcDbLine
 10
1021.881073256669
 20
1116.960629211399
 30
0.0
 11
1034.056012777899
 21
1117.186780962578
 31
0.0
  0
ARC
  5
47FF
330
47F5
100
AcDbEntity
  8
外形線
 48
10.0
100
AcDbCircle
 10
1122.899564892808
 20
1151.93622955513
 30
0.0
 40
0.5
100
AcDbArc
 50
359.999254274584
 51
88.999999999998
  0
ARC
  5
4800
330
47F5
100
AcDbEntity
  8
細線
 48
10.0
100
AcDbCircle
 10
1123.898525663106
 20
1107.819822714047
 30
0.0
 40
0.5
100
AcDbArc
 50
180.0
 51
264.089361084595
  0
ARC
  5
4801
330
47F5
100
AcDbEntity
  8
外形線
 48
10.0
100
AcDbCircle
 10
1123.898525663106
 20
1100.44543233102
 30
0.0
 40
0.5
100
AcDbArc
 50
91.000000000002
 51
180.0
  0
ARC
  5
4802
330
47F5
100
AcDbEntity
  8
細線
 48
10.0
100
AcDbCircle
 10
1123.898525663106
 20
1108.078641759149
 30
0.0
 40
0.5
100
AcDbArc
 50
180.0
 51
264.089361084595
  0
ARC
  5
4803
330
47F5
100
AcDbEntity
  8
細線
 48
10.0
100
AcDbCircle
 10
1123.898525663106
 20
1129.71320712675
 30
0.0
 40
0.5
100
AcDbArc
 50
180.0
 51
254.206830951738
  0
ARC
  5
4804
330
47F5
100
AcDbEntity
  8
細線
 48
10.0
100
AcDbCircle
 10
1123.898525663106
 20
1130.420313907937
 30
0.0
 40
0.5
100
AcDbArc
 50
180.0
 51
254.206830951738
  0
ARC
  5
4805
330
47F5
100
AcDbEntity
  8
細線
 48
10.0
100
AcDbCircle
 10
1123.898525663106
 20
1142.359984147006
 30
0.0
 40
0.5
100
AcDbArc
 50
180.0
 51
248.874947125989
  0
ARC
  5
4806
330
47F5
100
AcDbEntity
  8
細線
 48
10.0
100
AcDbCircle
 10
1123.898525663106
 20
1143.325909973296
 30
0.0
 40
0.5
100
AcDbArc
 50
180.0
 51
248.874947125989
  0
ARC
  5
4807
330
47F5
100
AcDbEntity
  8
外形線
 48
10.0
100
AcDbCircle
 10
1123.898413585187
 20
1144.632076415673
 30
0.0
 40
0.5
100
AcDbArc
 50
180.019033969455
 51
248.025023881972
  0
LINE
  5
4808
330
47F5
100
AcDbEntity
  8
外形線
 48
10.0
100
AcDbLine
 10
1123.398525663106
 20
1143.325909973296
 30
0.0
 11
1123.398525663106
 21
1144.294618045039
 31
0.0
  0
LINE
  5
4809
330
47F5
100
AcDbEntity
  8
外形線
 48
10.0
100
AcDbLine
 10
1123.398525663106
 20
1142.359984147006
 30
0.0
 11
1123.398525663106
 21
1142.98307227703
 31
0.0
  0
LINE
  5
480A
330
47F5
100
AcDbEntity
  8
外形線
 48
10.0
100
AcDbLine
 10
1123.398525663106
 20
1130.420313907937
 30
0.0
 11
1123.398525663106
 21
1142.017146450741
 31
0.0
  0
LINE
  5
480B
330
47F5
100
AcDbEntity
  8
外形線
 48
10.0
100
AcDbLine
 10
1123.398525663106
 20
1129.71320712675
 30
0.0
 11
1123.398525663106
 21
1130.042120021904
 31
0.0
  0
LINE
  5
480C
330
47F5
100
AcDbEntity
  8
外形線
 48
10.0
100
AcDbLine
 10
1123.398525663106
 20
1108.078641759149
 30
0.0
 11
1123.398525663106
 21
1130.420313907937
 31
0.0
  0
LINE
  5
480D
330
47F5
100
AcDbEntity
  8
外形線
 48
10.0
100
AcDbLine
 10
1123.398525663106
 20
1107.819822714047
 30
0.0
 11
1123.398525663106
 21
1108.700149198143
 31
0.0
  0
LINE
  5
480E
330
47F5
100
AcDbEntity
  8
外形線
 48
10.0
100
AcDbLine
 10
1123.398525663106
 20
1100.44543233102
 30
0.0
 11
1123.398525663106
 21
1108.078641759149
 31
0.0
  0
ARC
  5
480F
330
47F5
100
AcDbEntity
  8
外形線
 48
10.0
100
AcDbCircle
 10
1123.898525663106
 20
1088.928129594135
 30
0.0
 40
0.5
100
AcDbArc
 50
180.0
 51
268.999999999998
  0
LINE
  5
4810
330
47F5
100
AcDbEntity
  8
外形線
 48
10.0
100
AcDbLine
 10
1123.398525663106
 20
1088.928129594135
 30
0.0
 11
1123.398525663106
 21
1100.44543233102
 31
0.0
  0
ARC
  5
4811
330
47F5
100
AcDbEntity
  8
外形線
 48
10.0
100
AcDbCircle
 10
1135.396646406818
 20
1087.727276821958
 30
0.0
 40
0.5
100
AcDbArc
 50
0.002863323129
 51
88.999999999998
  0
ARC
  5
4812
330
47F5
100
AcDbEntity
  8
外形線
 48
10.0
100
AcDbCircle
 10
1135.396646406818
 20
1101.646285103198
 30
0.0
 40
0.5
100
AcDbArc
 50
271.000000000002
 51
359.997136676878
  0
ARC
  5
4813
330
47F5
100
AcDbEntity
  8
細線
 48
10.0
100
AcDbCircle
 10
1135.398359871226
 20
1105.882746614783
 30
0.0
 40
0.5
100
AcDbArc
 50
359.978936747976
 51
84.089361084595
  0
ARC
  5
4814
330
47F5
100
AcDbEntity
  8
細線
 48
10.0
100
AcDbCircle
 10
1135.396845195015
 20
1105.6240843805
 30
0.0
 40
0.5
100
AcDbArc
 50
359.997136676878
 51
84.089361084595
  0
ARC
  5
4815
330
47F5
100
AcDbEntity
  8
細線
 48
10.0
100
AcDbCircle
 10
1135.398405428356
 20
1136.84472607817
 30
0.0
 40
0.5
100
AcDbArc
 50
359.997136676878
 51
68.874947125989
  0
ARC
  5
4816
330
47F5
100
AcDbEntity
  8
細線
 48
10.0
100
AcDbCircle
 10
1135.398453699003
 20
1137.810633254114
 30
0.0
 40
0.5
100
AcDbArc
 50
359.997136676878
 51
68.874947125989
  0
ARC
  5
4817
330
47F5
100
AcDbEntity
  8
外形線
 48
10.0
100
AcDbCircle
 10
1135.398508800797
 20
1138.913233296621
 30
0.0
 40
0.5
100
AcDbArc
 50
359.997136676878
 51
68.025023881972
  0
LINE
  5
4818
330
47F5
100
AcDbEntity
  8
外形線
 48
10.0
100
AcDbLine
 10
1135.405372610037
 20
1101.146361255619
 30
0.0
 11
1123.889799459887
 21
1100.945356178598
 31
0.0
  0
LINE
  5
4819
330
47F5
100
AcDbEntity
  8
外形線
 48
10.0
100
AcDbLine
 10
1135.405372610037
 20
1088.227200669536
 30
0.0
 11
1123.889799459887
 21
1088.428205746557
 31
0.0
  0
LINE
  5
481A
330
47F5
100
AcDbEntity
  8
外形線
 48
10.0
100
AcDbLine
 10
1123.711312779708
 20
1144.168402728055
 30
0.0
 11
1135.585609606275
 21
1139.376906984239
 31
0.0
  0
LINE
  5
481B
330
47F5
100
AcDbEntity
  8
細線
 48
10.0
100
AcDbLine
 10
1135.448333812772
 20
1106.121426237015
 30
0.0
 11
1123.847037045349
 21
1107.322480857532
 31
0.0
  0
LINE
  5
481C
330
47F5
100
AcDbEntity
  8
細線
 48
10.0
100
AcDbLine
 10
1135.449848488983
 20
1106.380088471297
 30
0.0
 11
1123.847037045349
 21
1107.581299902634
 31
0.0
  0
LINE
  5
481D
330
47F5
100
AcDbEntity
  8
細線
 48
10.0
100
AcDbLine
 10
1135.533952658586
 20
1126.609702933466
 30
0.0
 11
1123.762442899618
 21
1129.939188683612
 31
0.0
  0
LINE
  5
481E
330
47F5
100
AcDbEntity
  8
細線
 48
10.0
100
AcDbLine
 10
1135.578607784566
 20
1137.311124095764
 30
0.0
 11
1123.718323306896
 21
1141.893586129411
 31
0.0
  0
LINE
  5
481F
330
47F5
100
AcDbEntity
  8
細線
 48
10.0
100
AcDbLine
 10
1135.578656055213
 20
1138.277031271709
 30
0.0
 11
1123.718323306896
 21
1142.859511955701
 31
0.0
  0
LINE
  5
4820
330
47F5
100
AcDbEntity
  8
外形線
 48
10.0
100
AcDbLine
 10
1108.899561566736
 20
1152.686780962578
 30
0.0
 11
1122.908291096026
 21
1152.436153402709
 31
0.0
  0
LINE
  5
4821
330
47F5
100
AcDbEntity
  8
外形線
 48
10.0
100
AcDbLine
 10
1108.899561566736
 20
1152.686780962578
 30
0.0
 11
1108.399561566736
 21
1152.180676686204
 31
0.0
  0
LINE
  5
4822
330
47F5
100
AcDbEntity
  8
外形線
 48
10.0
100
AcDbLine
 10
1108.399561566736
 20
1151.192885238951
 30
0.0
 11
1108.399561566736
 21
1150.692885238951
 31
0.0
  0
ARC
  5
4823
330
47F5
100
AcDbEntity
  8
外形線
 48
10.0
100
AcDbCircle
 10
1098.998525663106
 20
1152.414559409545
 30
0.0
 40
4.4
100
AcDbArc
 50
271.3
 51
0.0
  0
LINE
  5
4824
330
47F5
100
AcDbEntity
  8
外形線
 48
10.0
100
AcDbLine
 10
1046.016783711759
 20
1146.811102679105
 30
0.0
 11
1099.098349930826
 21
1148.015691928525
 31
0.0
  0
LINE
  5
4825
330
47F5
100
AcDbEntity
  8
外形線
 48
10.0
100
AcDbLine
 10
1103.398525663105
 20
1152.686780962578
 30
0.0
 11
1103.398525663105
 21
1152.414559409545
 31
0.0
  0
LINE
  5
4826
330
47F5
100
AcDbEntity
  8
外形線
 48
10.0
100
AcDbLine
 10
1106.398525663105
 20
1152.686780962578
 30
0.0
 11
1103.398525663105
 21
1152.686780962578
 31
0.0
  0
ARC
  5
4827
330
47F5
100
AcDbEntity
  8
外形線
 48
10.0
100
AcDbCircle
 10
1107.898525663105
 20
1150.161780962577
 30
0.0
 40
1.500000000000156
100
AcDbArc
 50
70.528779365514
 51
179.999999999993
  0
LINE
  5
4828
330
47F5
100
AcDbEntity
  8
細線
 48
10.0
100
AcDbLine
 10
1108.899561566736
 20
1152.686780962578
 30
0.0
 11
1108.899561566736
 21
1036.686780962578
 31
0.0
  0
LINE
  5
4829
330
47F5
100
AcDbEntity
  8
細線
 48
10.0
100
AcDbLine
 10
1108.899561566736
 20
1152.680676686204
 30
0.0
 11
1108.899561566736
 21
1036.692885238951
 31
0.0
  0
LINE
  5
482A
330
47F5
100
AcDbEntity
  8
外形線
 48
10.0
100
AcDbLine
 10
1123.398525663106
 20
1072.956444458874
 30
0.0
 11
1123.398525663106
 21
1059.660354798405
 31
0.0
  0
ARC
  5
482B
330
47F5
100
AcDbEntity
  8
細線
 48
10.0
100
AcDbCircle
 10
1123.898525663106
 20
1047.013577778149
 30
0.0
 40
0.5
100
AcDbArc
 50
111.125052874011
 51
180.0
  0
ARC
  5
482C
330
47F5
100
AcDbEntity
  8
細線
 48
10.0
100
AcDbCircle
 10
1123.898066965619
 20
1046.04747472476
 30
0.0
 40
0.5
100
AcDbArc
 50
111.125052874011
 51
179.923306313171
  0
ARC
  5
482D
330
47F5
100
AcDbEntity
  8
細線
 48
10.0
100
AcDbCircle
 10
1123.898525663106
 20
1059.660354798405
 30
0.0
 40
0.5
100
AcDbArc
 50
105.793169048262
 51
180.0
  0
ARC
  5
482E
330
47F5
100
AcDbEntity
  8
細線
 48
10.0
100
AcDbCircle
 10
1123.898525663106
 20
1058.953248017218
 30
0.0
 40
0.5
100
AcDbArc
 50
105.793169048262
 51
180.0
  0
ARC
  5
482F
330
47F5
100
AcDbEntity
  8
細線
 48
10.0
100
AcDbCircle
 10
1123.898525663106
 20
1081.294920166006
 30
0.0
 40
0.5
100
AcDbArc
 50
95.910638915405
 51
180.0
  0
ARC
  5
4830
330
47F5
100
AcDbEntity
  8
細線
 48
10.0
100
AcDbCircle
 10
1123.898525663106
 20
1081.553739211108
 30
0.0
 40
0.5
100
AcDbArc
 50
95.910638915405
 51
180.0
  0
LINE
  5
4831
330
47F5
100
AcDbEntity
  8
外形線
 48
10.0
100
AcDbLine
 10
1123.398525663106
 20
1081.294920166006
 30
0.0
 11
1123.398525663106
 21
1088.928129594135
 31
0.0
  0
LINE
  5
4832
330
47F5
100
AcDbEntity
  8
外形線
 48
10.0
100
AcDbLine
 10
1123.398525663106
 20
1081.745828707453
 30
0.0
 11
1123.398525663106
 21
1082.004647752555
 31
0.0
  0
LINE
  5
4833
330
47F5
100
AcDbEntity
  8
外形線
 48
10.0
100
AcDbLine
 10
1123.398525663106
 20
1072.956444458874
 30
0.0
 11
1123.398525663106
 21
1081.294920166006
 31
0.0
  0
LINE
  5
4834
330
47F5
100
AcDbEntity
  8
外形線
 48
10.0
100
AcDbLine
 10
1123.398525663106
 20
1058.953248017218
 30
0.0
 11
1123.398525663106
 21
1059.660354798405
 31
0.0
  0
LINE
  5
4835
330
47F5
100
AcDbEntity
  8
外形線
 48
10.0
100
AcDbLine
 10
1123.398525663106
 20
1047.013577778149
 30
0.0
 11
1123.398525663106
 21
1058.953248017218
 31
0.0
  0
LINE
  5
4836
330
47F5
100
AcDbEntity
  8
外形線
 48
10.0
100
AcDbLine
 10
1123.398067413553
 20
1046.048144003235
 30
0.0
 11
1123.398525663106
 21
1047.013577778149
 31
0.0
  0
LINE
  5
4837
330
47F5
100
AcDbEntity
  8
外形線
 48
10.0
100
AcDbLine
 10
1123.396317242873
 20
1044.740639597053
 30
0.0
 11
1123.398067413553
 21
1046.048144003235
 31
0.0
  0
ARC
  5
4838
330
47F5
100
AcDbEntity
  8
外形線
 48
10.0
100
AcDbCircle
 10
1123.896317242873
 20
1044.740639597053
 30
0.0
 40
0.5
100
AcDbArc
 50
111.974976118028
 51
180.0
  0
ARC
  5
4839
330
47F5
100
AcDbEntity
  8
細線
 48
10.0
100
AcDbCircle
 10
1135.398494161258
 20
1063.952267566336
 30
0.0
 40
0.5
100
AcDbArc
 50
285.793169048262
 51
0.004772330144
  0
ARC
  5
483A
330
47F5
100
AcDbEntity
  8
細線
 48
10.0
100
AcDbCircle
 10
1135.398525663106
 20
1063.245169695216
 30
0.0
 40
0.5
100
AcDbArc
 50
285.793169048262
 51
0.0
  0
ARC
  5
483B
330
47F5
100
AcDbEntity
  8
細線
 48
10.0
100
AcDbCircle
 10
1135.398525663106
 20
1052.528882302126
 30
0.0
 40
0.5
100
AcDbArc
 50
291.125052874011
 51
0.0
  0
ARC
  5
483C
330
47F5
100
AcDbEntity
  8
細線
 48
10.0
100
AcDbCircle
 10
1135.398525663106
 20
1051.562956475835
 30
0.0
 40
0.5
100
AcDbArc
 50
291.125052874011
 51
0.0
  0
ARC
  5
483D
330
47F5
100
AcDbEntity
  8
外形線
 48
10.0
100
AcDbCircle
 10
1135.398525663106
 20
1050.460335432784
 30
0.0
 40
0.5
100
AcDbArc
 50
291.974976118028
 51
0.0
  0
LINE
  5
483E
330
47F5
100
AcDbEntity
  8
外形線
 48
10.0
100
AcDbLine
 10
1135.898525663106
 20
1051.562956475835
 30
0.0
 11
1135.898525663106
 21
1050.460335432784
 31
0.0
  0
LINE
  5
483F
330
47F5
100
AcDbEntity
  8
外形線
 48
10.0
100
AcDbLine
 10
1135.898525663106
 20
1052.528882302126
 30
0.0
 11
1135.898525663106
 21
1051.562956475835
 31
0.0
  0
LINE
  5
4840
330
47F5
100
AcDbEntity
  8
外形線
 48
10.0
100
AcDbLine
 10
1135.898525663106
 20
1063.245169695216
 30
0.0
 11
1135.898525663106
 21
1052.528882302126
 31
0.0
  0
LINE
  5
4841
330
47F5
100
AcDbEntity
  8
外形線
 48
10.0
100
AcDbLine
 10
1135.898494159523
 20
1063.952309212773
 30
0.0
 11
1135.898525663106
 21
1063.245169695216
 31
0.0
  0
LINE
  5
4842
330
47F5
100
AcDbEntity
  8
外形線
 48
10.0
100
AcDbLine
 10
1135.896845194391
 20
1083.749502531863
 30
0.0
 11
1135.898494159523
 21
1063.952309212773
 31
0.0
  0
ARC
  5
4843
330
47F5
100
AcDbEntity
  8
細線
 48
10.0
100
AcDbCircle
 10
1135.396794220963
 20
1083.49065322233
 30
0.0
 40
0.5
100
AcDbArc
 50
275.910638915405
 51
0.00199902817
  0
ARC
  5
4844
330
47F5
100
AcDbEntity
  8
細線
 48
10.0
100
AcDbCircle
 10
1135.396845195015
 20
1083.749477544655
 30
0.0
 40
0.5
100
AcDbArc
 50
275.910638915405
 51
0.002863323129
  0
ARC
  5
4845
330
47F5
100
AcDbEntity
  8
外形線
 48
10.0
100
AcDbCircle
 10
1122.897486448612
 20
1037.437296090646
 30
0.0
 40
0.5
100
AcDbArc
 50
271.000000000002
 51
359.984453673186
  0
LINE
  5
4846
330
47F5
100
AcDbEntity
  8
外形線
 48
10.0
100
AcDbLine
 10
1135.896646406194
 20
1087.727301809166
 30
0.0
 11
1135.896794220659
 21
1083.490670667142
 31
0.0
  0
LINE
  5
4847
330
47F5
100
AcDbEntity
  8
外形線
 48
10.0
100
AcDbLine
 10
1123.709216437395
 20
1045.204313284671
 30
0.0
 11
1135.585626468584
 21
1049.996661745166
 31
0.0
  0
LINE
  5
4848
330
47F5
100
AcDbEntity
  8
細線
 48
10.0
100
AcDbLine
 10
1135.578728019316
 20
1052.062484284531
 30
0.0
 11
1123.718323306896
 21
1047.479975795744
 31
0.0
  0
LINE
  5
4849
330
47F5
100
AcDbEntity
  8
細線
 48
10.0
100
AcDbLine
 10
1135.578728019316
 20
1051.09655845824
 30
0.0
 11
1123.717864609409
 21
1046.513872742355
 31
0.0
  0
LINE
  5
484A
330
47F5
100
AcDbEntity
  8
細線
 48
10.0
100
AcDbLine
 10
1135.534608426593
 20
1062.764044470891
 30
0.0
 11
1123.762442899618
 21
1059.434373241543
 31
0.0
  0
LINE
  5
484B
330
47F5
100
AcDbEntity
  8
細線
 48
10.0
100
AcDbLine
 10
1135.534576924746
 20
1063.471142342011
 30
0.0
 11
1123.762442899618
 21
1060.141480022729
 31
0.0
  0
LINE
  5
484C
330
47F5
100
AcDbEntity
  8
細線
 48
10.0
100
AcDbLine
 10
1135.44828283872
 20
1082.993311365815
 30
0.0
 11
1123.847037045349
 21
1081.792262022521
 31
0.0
  0
LINE
  5
484D
330
47F5
100
AcDbEntity
  8
細線
 48
10.0
100
AcDbLine
 10
1135.448333812772
 20
1083.25213568814
 30
0.0
 11
1123.847037045349
 21
1082.051081067623
 31
0.0
  0
LINE
  5
484E
330
47F5
100
AcDbEntity
  8
外形線
 48
10.0
100
AcDbLine
 10
1123.399470041665
 20
1044.747733739171
 30
0.0
 11
1123.397486430207
 21
1037.437160423353
 31
0.0
  0
LINE
  5
484F
330
47F5
100
AcDbEntity
  8
外形線
 48
10.0
100
AcDbLine
 10
1123.399564892765
 20
1151.936223047449
 30
0.0
 11
1123.397486430207
 21
1037.437160423353
 31
0.0
  0
LINE
  5
4850
330
47F5
100
AcDbEntity
  8
外形線
 48
10.0
100
AcDbLine
 10
1108.399561566736
 20
1152.180676686204
 30
0.0
 11
1108.399561566736
 21
1037.192885238951
 31
0.0
  0
LINE
  5
4851
330
47F5
100
AcDbEntity
  8
外形線
 48
10.0
100
AcDbLine
 10
1108.899561566736
 20
1036.686780962578
 30
0.0
 11
1122.906212651831
 21
1036.937372243068
 31
0.0
  0
LINE
  5
4852
330
47F5
100
AcDbEntity
  8
外形線
 48
10.0
100
AcDbLine
 10
1108.899561566736
 20
1036.686780962578
 30
0.0
 11
1108.399561566736
 21
1037.192885238951
 31
0.0
  0
LINE
  5
4853
330
47F5
100
AcDbEntity
  8
外形線
 48
10.0
100
AcDbLine
 10
1108.399561566736
 20
1038.192885238951
 30
0.0
 11
1108.399561566736
 21
1038.692885238951
 31
0.0
  0
LINE
  5
4854
330
47F5
100
AcDbEntity
  8
外形線
 48
10.0
100
AcDbLine
 10
1035.022931603883
 20
1071.442246865485
 30
0.0
 11
1041.278741748243
 21
1046.351562814666
 31
0.0
  0
ARC
  5
4855
330
47F5
100
AcDbEntity
  8
外形線
 48
10.0
100
AcDbCircle
 10
1046.130220379623
 20
1047.561172292664
 30
0.0
 40
5.0
100
AcDbArc
 50
193.999999999996
 51
268.7
  0
ARC
  5
4856
330
47F5
100
AcDbEntity
  8
外形線
 48
10.0
100
AcDbCircle
 10
1034.052635877606
 20
1071.200324969886
 30
0.0
 40
1.0
100
AcDbArc
 50
13.999999999996
 51
89.000000000011
  0
ARC
  5
4857
330
47F5
100
AcDbEntity
  8
外形線
 48
10.0
100
AcDbCircle
 10
1069.398525663106
 20
1041.031595836918
 30
0.0
 40
1.0
100
AcDbArc
 50
0.0
 51
88.7
  0
ARC
  5
4858
330
47F5
100
AcDbEntity
  8
外形線
 48
10.0
100
AcDbCircle
 10
1071.398525663106
 20
1031.186780962577
 30
0.0
 40
1.0
100
AcDbArc
 50
180.0
 51
270.0
  0
ARC
  5
4859
330
47F5
100
AcDbEntity
  8
外形線
 48
10.0
100
AcDbCircle
 10
1105.398525663105
 20
1031.186780962577
 30
0.0
 40
1.0
100
AcDbArc
 50
270.0
 51
0.0
  0
LINE
  5
485A
330
47F5
100
AcDbEntity
  8
外形線
 48
10.0
100
AcDbLine
 10
1070.398525663106
 20
1031.186780962577
 30
0.0
 11
1070.398525663106
 21
1041.031595836918
 31
0.0
  0
LINE
  5
485B
330
47F5
100
AcDbEntity
  8
外形線
 48
10.0
100
AcDbLine
 10
1046.016783711759
 20
1042.56245924605
 30
0.0
 11
1099.098349930826
 21
1041.35786999663
 31
0.0
  0
LINE
  5
485C
330
47F5
100
AcDbEntity
  8
外形線
 48
10.0
100
AcDbLine
 10
1021.881073256668
 20
1072.412932713756
 30
0.0
 11
1034.070088284044
 21
1072.200172665042
 31
0.0
  0
LINE
  5
485D
330
47F5
100
AcDbEntity
  8
外形線
 48
10.0
100
AcDbLine
 10
1106.398525663105
 20
1040.711780962577
 30
0.0
 11
1106.398525663105
 21
1031.186780962577
 31
0.0
  0
LINE
  5
485E
330
47F5
100
AcDbEntity
  8
外形線
 48
10.0
100
AcDbLine
 10
1106.398525663105
 20
1040.711780962577
 30
0.0
 11
1106.398525663105
 21
1152.686780962578
 31
0.0
  0
LINE
  5
485F
330
47F5
100
AcDbEntity
  8
外形線
 48
10.0
100
AcDbLine
 10
1105.398525663105
 20
1030.186780962577
 30
0.0
 11
1071.398525663106
 21
1030.186780962577
 31
0.0
  0
LINE
  5
4860
330
47F5
100
AcDbEntity
  8
外形線
 48
10.0
100
AcDbLine
 10
1103.398525663106
 20
1036.95900251561
 30
0.0
 11
1103.398525663105
 21
1036.692885238951
 31
0.0
  0
LINE
  5
4861
330
47F5
100
AcDbEntity
  8
外形線
 48
10.0
100
AcDbLine
 10
1106.398525663105
 20
1036.692885238951
 30
0.0
 11
1103.398525663105
 21
1036.692885238951
 31
0.0
  0
ARC
  5
4862
330
47F5
100
AcDbEntity
  8
外形線
 48
10.0
100
AcDbCircle
 10
1107.898525663105
 20
1039.211780962577
 30
0.0
 40
1.499999999999659
100
AcDbArc
 50
179.99999999998
 51
289.471220634515
  0
ARC
  5
4863
330
47F5
100
AcDbEntity
  8
外形線
 48
10.0
100
AcDbCircle
 10
1098.998525663106
 20
1036.95900251561
 30
0.0
 40
4.4
100
AcDbArc
 50
0.0
 51
88.7
  0
LINE
  5
4864
330
47F5
100
AcDbEntity
  8
細線
 48
10.0
100
AcDbLine
 10
1103.398525663105
 20
1152.686780962578
 30
0.0
 11
1103.398525663106
 21
1036.95900251561
 31
0.0
  0
LINE
  5
4865
330
47F5
100
AcDbEntity
  8
細線
 48
10.0
100
AcDbLine
 10
1034.837298404406
 20
1072.186780962578
 30
0.0
 11
1034.840933619068
 21
1117.201361012233
 31
0.0
  0
LINE
  5
4866
330
47F5
100
AcDbEntity
  8
細線
 48
10.0
100
AcDbLine
 10
1042.201886517784
 20
1144.905639229587
 30
0.0
 11
1042.201886517784
 21
1044.467922695569
 31
0.0
  0
LINE
  5
4867
330
47F5
100
AcDbEntity
  8
外形線
 48
10.0
100
AcDbLine
 10
1135.898508800172
 20
1138.913208309413
 30
0.0
 11
1135.896646406194
 21
1101.646260115989
 31
0.0
  0
ARC
  5
4868
330
47F5
100
AcDbEntity
  8
細線
 48
10.0
100
AcDbCircle
 10
1135.397834558349
 20
1125.421480922695
 30
0.0
 40
0.5
100
AcDbArc
 50
359.997136676878
 51
74.206830951738
  0
ARC
  5
4869
330
47F5
100
AcDbEntity
  8
細線
 48
10.0
100
AcDbCircle
 10
1135.397869895098
 20
1126.128577709141
 30
0.0
 40
0.5
100
AcDbArc
 50
359.997136676878
 51
74.206830951738
  0
LINE
  5
486A
330
47F5
100
AcDbEntity
  8
細線
 48
10.0
100
AcDbLine
 10
1135.533917321837
 20
1125.90260614702
 30
0.0
 11
1123.762442899618
 21
1129.232081902426
 31
0.0
  0
LINE
  5
486B
330
47F5
100
AcDbEntity
  8
中心線
 48
10.0
100
AcDbLine
 10
1088.398525663106
 20
1052.03299312045
 30
0.0
 11
1088.398525663106
 21
1013.722487401784
 31
0.0
  0
ENDBLK
  5
486C
330
47F5
100
AcDbEntity
  8
0
 48
10.0
100
AcDbBlockEnd
  0
BLOCK
  5
49FB
330
49F1
100
AcDbEntity
  8
0
 48
10.0
100
AcDbBlockBegin
  2
*D14
 70
     1
 10
0.0
 20
0.0
 30
0.0
  3
*D14
  1

  0
LINE
  5
49F2
330
49F1
100
AcDbEntity
  8
寸法線
 62
     0
 48
10.0
100
AcDbLine
 10
262.95381907805
 20
398.664123815478
 30
0.0
 11
262.95381907805
 21
319.783844373484
 31
0.0
  0
LINE
  5
49F3
330
49F1
100
AcDbEntity
  8
寸法線
 62
     0
 48
10.0
100
AcDbLine
 10
287.953819078049
 20
395.412244276412
 30
0.0
 11
287.953819078049
 21
319.783844373484
 31
0.0
  0
LINE
  5
49F4
330
49F1
100
AcDbEntity
  8
寸法線
 62
     0
 48
10.0
100
AcDbLine
 10
268.95381907805
 20
321.033844373484
 30
0.0
 11
281.953819078049
 21
321.033844373484
 31
0.0
  0
INSERT
  5
49F5
330
49F1
100
AcDbEntity
  8
寸法線
 62
     0
 48
10.0
100
AcDbBlockReference
  2
_OPEN30
 10
262.95381907805
 20
321.033844373484
 30
0.0
 41
6.0
 42
6.0
 43
6.0
 50
180.0
  0
INSERT
  5
49F6
330
49F1
100
AcDbEntity
  8
寸法線
 62
     0
 48
10.0
100
AcDbBlockReference
  2
_OPEN30
 10
287.953819078049
 20
321.033844373484
 30
0.0
 41
6.0
 42
6.0
 43
6.0
  0
MTEXT
  5
49F7
330
49F1
100
AcDbEntity
  8
寸法線
 62
     0
 48
10.0
100
AcDbMText
 10
275.45381907805
 20
325.659631775059
 30
0.0
 40
8.0
 41
0.0
 71
     5
 72
     1
  1
\A1;25
  0
POINT
  5
49F8
330
49F1
100
AcDbEntity
  8
DEFPOINTS
 62
     0
 48
10.0
100
AcDbPoint
 10
262.95381907805
 20
399.289123815478
 30
0.0
  0
POINT
  5
49F9
330
49F1
100
AcDbEntity
  8
DEFPOINTS
 62
     0
 48
10.0
100
AcDbPoint
 10
287.953819078049
 20
396.037244276412
 30
0.0
  0
POINT
  5
49FA
330
49F1
100
AcDbEntity
  8
DEFPOINTS
 62
     0
 48
10.0
100
AcDbPoint
 10
287.953819078049
 20
321.033844373484
 30
0.0
  0
ENDBLK
  5
49FC
330
49F1
100
AcDbEntity
  8
0
 48
10.0
100
AcDbBlockEnd
  0
BLOCK
  5
4A15
330
4A0B
100
AcDbEntity
  8
0
 48
10.0
100
AcDbBlockBegin
  2
*D15
 70
     1
 10
0.0
 20
0.0
 30
0.0
  3
*D15
  1

  0
LINE
  5
4A0C
330
4A0B
100
AcDbEntity
  8
寸法線
 62
     0
 48
10.0
100
AcDbLine
 10
287.95381907805
 20
395.412244276412
 30
0.0
 11
287.95381907805
 21
319.783844373484
 31
0.0
  0
LINE
  5
4A0D
330
4A0B
100
AcDbEntity
  8
寸法線
 62
     0
 48
10.0
100
AcDbLine
 10
307.95381907805
 20
395.412244276411
 30
0.0
 11
307.95381907805
 21
319.783844373484
 31
0.0
  0
LINE
  5
4A0E
330
4A0B
100
AcDbEntity
  8
寸法線
 62
     0
 48
10.0
100
AcDbLine
 10
293.95381907805
 20
321.033844373484
 30
0.0
 11
301.95381907805
 21
321.033844373484
 31
0.0
  0
INSERT
  5
4A0F
330
4A0B
100
AcDbEntity
  8
寸法線
 62
     0
 48
10.0
100
AcDbBlockReference
  2
_OPEN30
 10
287.95381907805
 20
321.033844373484
 30
0.0
 41
6.0
 42
6.0
 43
6.0
 50
180.0
  0
INSERT
  5
4A10
330
4A0B
100
AcDbEntity
  8
寸法線
 62
     0
 48
10.0
100
AcDbBlockReference
  2
_OPEN30
 10
307.95381907805
 20
321.033844373484
 30
0.0
 41
6.0
 42
6.0
 43
6.0
  0
MTEXT
  5
4A11
330
4A0B
100
AcDbEntity
  8
寸法線
 62
     0
 48
10.0
100
AcDbMText
 10
297.95381907805
 20
325.659631775059
 30
0.0
 40
8.0
 41
0.0
 71
     5
 72
     1
  1
\A1;20
  0
POINT
  5
4A12
330
4A0B
100
AcDbEntity
  8
DEFPOINTS
 62
     0
 48
10.0
100
AcDbPoint
 10
287.95381907805
 20
396.037244276412
 30
0.0
  0
POINT
  5
4A13
330
4A0B
100
AcDbEntity
  8
DEFPOINTS
 62
     0
 48
10.0
100
AcDbPoint
 10
307.95381907805
 20
396.037244276411
 30
0.0
  0
POINT
  5
4A14
330
4A0B
100
AcDbEntity
  8
DEFPOINTS
 62
     0
 48
10.0
100
AcDbPoint
 10
307.95381907805
 20
321.033844373484
 30
0.0
  0
ENDBLK
  5
4A16
330
4A0B
100
AcDbEntity
  8
0
 48
10.0
100
AcDbBlockEnd
  0
BLOCK
  5
4A22
330
4A18
100
AcDbEntity
  8
0
 48
10.0
100
AcDbBlockBegin
  2
*D16
 70
     1
 10
0.0
 20
0.0
 30
0.0
  3
*D16
  1

  0
LINE
  5
4A19
330
4A18
100
AcDbEntity
  8
寸法線
 62
     0
 48
10.0
100
AcDbLine
 10
307.95381907805
 20
395.412244276411
 30
0.0
 11
307.95381907805
 21
319.783844373484
 31
0.0
  0
LINE
  5
4A1A
330
4A18
100
AcDbEntity
  8
寸法線
 62
     0
 48
10.0
100
AcDbLine
 10
362.95381907805
 20
354.413623815478
 30
0.0
 11
362.95381907805
 21
319.783844373484
 31
0.0
  0
LINE
  5
4A1B
330
4A18
100
AcDbEntity
  8
寸法線
 62
     0
 48
10.0
100
AcDbLine
 10
313.95381907805
 20
321.033844373484
 30
0.0
 11
356.95381907805
 21
321.033844373484
 31
0.0
  0
INSERT
  5
4A1C
330
4A18
100
AcDbEntity
  8
寸法線
 62
     0
 48
10.0
100
AcDbBlockReference
  2
_OPEN30
 10
307.95381907805
 20
321.033844373484
 30
0.0
 41
6.0
 42
6.0
 43
6.0
 50
180.0
  0
INSERT
  5
4A1D
330
4A18
100
AcDbEntity
  8
寸法線
 62
     0
 48
10.0
100
AcDbBlockReference
  2
_OPEN30
 10
362.95381907805
 20
321.033844373484
 30
0.0
 41
6.0
 42
6.0
 43
6.0
  0
MTEXT
  5
4A1E
330
4A18
100
AcDbEntity
  8
寸法線
 62
     0
 48
10.0
100
AcDbMText
 10
335.45381907805
 20
325.658844373484
 30
0.0
 40
8.0
 41
0.0
 71
     5
 72
     1
  1
\A1;55
  0
POINT
  5
4A1F
330
4A18
100
AcDbEntity
  8
DEFPOINTS
 62
     0
 48
10.0
100
AcDbPoint
 10
307.95381907805
 20
396.037244276411
 30
0.0
  0
POINT
  5
4A20
330
4A18
100
AcDbEntity
  8
DEFPOINTS
 62
     0
 48
10.0
100
AcDbPoint
 10
362.95381907805
 20
355.038623815478
 30
0.0
  0
POINT
  5
4A21
330
4A18
100
AcDbEntity
  8
DEFPOINTS
 62
     0
 48
10.0
100
AcDbPoint
 10
362.95381907805
 20
321.033844373484
 30
0.0
  0
ENDBLK
  5
4A23
330
4A18
100
AcDbEntity
  8
0
 48
10.0
100
AcDbBlockEnd
  0
BLOCK
  5
4A2F
330
4A25
100
AcDbEntity
  8
0
 48
10.0
100
AcDbBlockBegin
  2
*D17
 70
     1
 10
0.0
 20
0.0
 30
0.0
  3
*D17
  1

  0
LINE
  5
4A26
330
4A25
100
AcDbEntity
  8
寸法線
 62
     0
 48
10.0
100
AcDbLine
 10
362.95381907805
 20
354.413623815478
 30
0.0
 11
362.95381907805
 21
319.783844373484
 31
0.0
  0
LINE
  5
4A27
330
4A25
100
AcDbEntity
  8
寸法線
 62
     0
 48
10.0
100
AcDbLine
 10
387.95381907805
 20
354.413623815478
 30
0.0
 11
387.95381907805
 21
319.783844373484
 31
0.0
  0
LINE
  5
4A28
330
4A25
100
AcDbEntity
  8
寸法線
 62
     0
 48
10.0
100
AcDbLine
 10
368.95381907805
 20
321.033844373484
 30
0.0
 11
381.95381907805
 21
321.033844373484
 31
0.0
  0
INSERT
  5
4A29
330
4A25
100
AcDbEntity
  8
寸法線
 62
     0
 48
10.0
100
AcDbBlockReference
  2
_OPEN30
 10
362.95381907805
 20
321.033844373484
 30
0.0
 41
6.0
 42
6.0
 43
6.0
 50
180.0
  0
INSERT
  5
4A2A
330
4A25
100
AcDbEntity
  8
寸法線
 62
     0
 48
10.0
100
AcDbBlockReference
  2
_OPEN30
 10
387.95381907805
 20
321.033844373484
 30
0.0
 41
6.0
 42
6.0
 43
6.0
  0
MTEXT
  5
4A2B
330
4A25
100
AcDbEntity
  8
寸法線
 62
     0
 48
10.0
100
AcDbMText
 10
375.45381907805
 20
325.659631775059
 30
0.0
 40
8.0
 41
0.0
 71
     5
 72
     1
  1
\A1;25
  0
POINT
  5
4A2C
330
4A25
100
AcDbEntity
  8
DEFPOINTS
 62
     0
 48
10.0
100
AcDbPoint
 10
362.95381907805
 20
355.038623815478
 30
0.0
  0
POINT
  5
4A2D
330
4A25
100
AcDbEntity
  8
DEFPOINTS
 62
     0
 48
10.0
100
AcDbPoint
 10
387.95381907805
 20
355.038623815478
 30
0.0
  0
POINT
  5
4A2E
330
4A25
100
AcDbEntity
  8
DEFPOINTS
 62
     0
 48
10.0
100
AcDbPoint
 10
387.95381907805
 20
321.033844373484
 30
0.0
  0
ENDBLK
  5
4A30
330
4A25
100
AcDbEntity
  8
0
 48
10.0
100
AcDbBlockEnd
  0
BLOCK
  5
4A68
330
4A5E
100
AcDbEntity
  8
0
 48
10.0
100
AcDbBlockBegin
  2
*D20
 70
     1
 10
0.0
 20
0.0
 30
0.0
  3
*D20
  1

  0
LINE
  5
4D05
330
4A5E
100
AcDbEntity
  8
寸法線
 62
     0
 48
10.0
100
AcDbLine
 10
262.95381907805
 20
398.664123815478
 30
0.0
 11
262.95381907805
 21
299.783844373484
 31
0.0
  0
LINE
  5
4D06
330
4A5E
100
AcDbEntity
  8
寸法線
 62
     0
 48
10.0
100
AcDbLine
 10
477.953854651725
 20
328.913623667948
 30
0.0
 11
477.953854651725
 21
299.783844373484
 31
0.0
  0
LINE
  5
4D07
330
4A5E
100
AcDbEntity
  8
寸法線
 62
     0
 48
10.0
100
AcDbLine
 10
268.95381907805
 20
301.033844373484
 30
0.0
 11
471.953854651725
 21
301.033844373484
 31
0.0
  0
INSERT
  5
4D08
330
4A5E
100
AcDbEntity
  8
寸法線
 62
     0
 48
10.0
100
AcDbBlockReference
  2
_OPEN30
 10
262.95381907805
 20
301.033844373484
 30
0.0
 41
6.0
 42
6.0
 43
6.0
 50
180.0
  0
INSERT
  5
4D09
330
4A5E
100
AcDbEntity
  8
寸法線
 62
     0
 48
10.0
100
AcDbBlockReference
  2
_OPEN30
 10
477.953854651725
 20
301.033844373484
 30
0.0
 41
6.0
 42
6.0
 43
6.0
  0
MTEXT
  5
4D0A
330
4A5E
100
AcDbEntity
  8
寸法線
 62
     0
 48
10.0
100
AcDbMText
 10
370.453836864887
 20
305.659631775059
 30
0.0
 40
8.0
 41
0.0
 71
     5
 72
     1
  1
\A1;215
  0
POINT
  5
4D0B
330
4A5E
100
AcDbEntity
  8
DEFPOINTS
 62
     0
 48
10.0
100
AcDbPoint
 10
262.95381907805
 20
399.289123815478
 30
0.0
  0
POINT
  5
4D0C
330
4A5E
100
AcDbEntity
  8
DEFPOINTS
 62
     0
 48
10.0
100
AcDbPoint
 10
477.953854651725
 20
329.538623667948
 30
0.0
  0
POINT
  5
4D0D
330
4A5E
100
AcDbEntity
  8
DEFPOINTS
 62
     0
 48
10.0
100
AcDbPoint
 10
477.953854651725
 20
301.033844373484
 30
0.0
  0
ENDBLK
  5
4A69
330
4A5E
100
AcDbEntity
  8
0
 48
10.0
100
AcDbBlockEnd
  0
BLOCK
  5
4A6E
330
4A6A
100
AcDbEntity
  8
0
 48
10.0
100
AcDbBlockBegin
  2
A$C26DD65FC
 70
     0
 10
0.0
 20
0.0
 30
0.0
  3
A$C26DD65FC
  1

  0
LINE
  5
4A6B
330
4A6A
100
AcDbEntity
  8
下書線
 48
10.0
100
AcDbLine
 10
-0.000000056756
 20
20.000000321913
 30
0.0
 11
697.621709805368
 21
20.000000321913
 31
0.0
  0
LINE
  5
4A6C
330
4A6A
100
AcDbEntity
  8
下書線
 48
10.0
100
AcDbLine
 10
-0.000000056756
 20
0.000000321913
 30
0.0
 11
697.621709805368
 21
0.000000321913
 31
0.0
  0
LWPOLYLINE
  5
4A6D
330
4A6A
100
AcDbEntity
  8
外形線
100
AcDbPolyline
 90
        6
 70
     1
 43
0.0
 10
157.968151692237
 20
106.004779763906
 10
256.968151692237
 20
106.004779763906
 10
256.968151692237
 20
122.004779763906
 10
157.968151692237
 20
122.004779763906
 10
156.968151692237
 20
121.004779763906
 10
156.968151692237
 20
107.004779763906
  0
ENDBLK
  5
4A6F
330
4A6A
100
AcDbEntity
  8
0
 48
10.0
100
AcDbBlockEnd
  0
BLOCK
  5
4C6E
330
4C64
100
AcDbEntity
  8
0
 48
10.0
100
AcDbBlockBegin
  2
*D44
 70
     1
 10
0.0
 20
0.0
 30
0.0
  3
*D44
  1

  0
LINE
  5
4CFC
330
4C64
100
AcDbEntity
  8
寸法線
 62
     0
 48
10.0
100
AcDbLine
 10
443.701857788181
 20
454.038660927153
 30
0.0
 11
506.565350821777
 21
454.038660927153
 31
0.0
  0
LINE
  5
4CFD
330
4C64
100
AcDbEntity
  8
寸法線
 62
     0
 48
10.0
100
AcDbLine
 10
464.22081907805
 20
369.038623815478
 30
0.0
 11
506.565350821777
 21
369.038623815478
 31
0.0
  0
LINE
  5
4CFE
330
4C64
100
AcDbEntity
  8
寸法線
 62
     0
 48
10.0
100
AcDbLine
 10
505.315350821777
 20
448.038660927153
 30
0.0
 11
505.315350821777
 21
375.038623815478
 31
0.0
  0
INSERT
  5
4CFF
330
4C64
100
AcDbEntity
  8
寸法線
 62
     0
 48
10.0
100
AcDbBlockReference
  2
_OPEN30
 10
505.315350821777
 20
454.038660927153
 30
0.0
 41
6.0
 42
6.0
 43
6.0
 50
90.0
  0
INSERT
  5
4D00
330
4C64
100
AcDbEntity
  8
寸法線
 62
     0
 48
10.0
100
AcDbBlockReference
  2
_OPEN30
 10
505.315350821777
 20
369.038623815478
 30
0.0
 41
6.0
 42
6.0
 43
6.0
 50
270.0
  0
MTEXT
  5
4D01
330
4C64
100
AcDbEntity
  8
寸法線
 62
     0
 48
10.0
100
AcDbMText
 10
500.690350821777
 20
411.538642371315
 30
0.0
 40
8.0
 41
0.0
 71
     5
 72
     1
  1
\A1;85
 11
6.123031769111886E-17
 21
1.0
 31
0.0
  0
POINT
  5
4D02
330
4C64
100
AcDbEntity
  8
DEFPOINTS
 62
     0
 48
10.0
100
AcDbPoint
 10
443.076857788181
 20
454.038660927153
 30
0.0
  0
POINT
  5
4D03
330
4C64
100
AcDbEntity
  8
DEFPOINTS
 62
     0
 48
10.0
100
AcDbPoint
 10
463.59581907805
 20
369.038623815478
 30
0.0
  0
POINT
  5
4D04
330
4C64
100
AcDbEntity
  8
DEFPOINTS
 62
     0
 48
10.0
100
AcDbPoint
 10
505.315350821777
 20
369.038623815478
 30
0.0
  0
ENDBLK
  5
4C6F
330
4C64
100
AcDbEntity
  8
0
 48
10.0
100
AcDbBlockEnd
  0
BLOCK
  5
4C86
330
4C7C
100
AcDbEntity
  8
0
 48
10.0
100
AcDbBlockBegin
  2
*D46
 70
     1
 10
0.0
 20
0.0
 30
0.0
  3
*D46
  1

  0
LINE
  5
4D20
330
4C7C
100
AcDbEntity
  8
寸法線
 62
     0
 48
10.0
100
AcDbLine
 10
387.95381907805
 20
354.413623815478
 30
0.0
 11
387.95381907805
 21
319.783844373484
 31
0.0
  0
LINE
  5
4D21
330
4C7C
100
AcDbEntity
  8
寸法線
 62
     0
 48
10.0
100
AcDbLine
 10
477.953854651725
 20
387.409955112921
 30
0.0
 11
477.953854651725
 21
319.783844373484
 31
0.0
  0
LINE
  5
4D22
330
4C7C
100
AcDbEntity
  8
寸法線
 62
     0
 48
10.0
100
AcDbLine
 10
393.95381907805
 20
321.033844373484
 30
0.0
 11
471.953854651725
 21
321.033844373484
 31
0.0
  0
INSERT
  5
4D23
330
4C7C
100
AcDbEntity
  8
寸法線
 62
     0
 48
10.0
100
AcDbBlockReference
  2
_OPEN30
 10
387.95381907805
 20
321.033844373484
 30
0.0
 41
6.0
 42
6.0
 43
6.0
 50
180.0
  0
INSERT
  5
4D24
330
4C7C
100
AcDbEntity
  8
寸法線
 62
     0
 48
10.0
100
AcDbBlockReference
  2
_OPEN30
 10
477.953854651725
 20
321.033844373484
 30
0.0
 41
6.0
 42
6.0
 43
6.0
  0
MTEXT
  5
4D25
330
4C7C
100
AcDbEntity
  8
寸法線
 62
     0
 48
10.0
100
AcDbMText
 10
432.953836864887
 20
325.658844373484
 30
0.0
 40
8.0
 41
0.0
 71
     5
 72
     1
  1
\A1;90
  0
POINT
  5
4D26
330
4C7C
100
AcDbEntity
  8
DEFPOINTS
 62
     0
 48
10.0
100
AcDbPoint
 10
387.95381907805
 20
355.038623815478
 30
0.0
  0
POINT
  5
4D27
330
4C7C
100
AcDbEntity
  8
DEFPOINTS
 62
     0
 48
10.0
100
AcDbPoint
 10
477.953854651725
 20
388.034955112921
 30
0.0
  0
POINT
  5
4D28
330
4C7C
100
AcDbEntity
  8
DEFPOINTS
 62
     0
 48
10.0
100
AcDbPoint
 10
477.953854651725
 20
321.033844373484
 30
0.0
  0
ENDBLK
  5
4C87
330
4C7C
100
AcDbEntity
  8
0
 48
10.0
100
AcDbBlockEnd
  0
BLOCK
  5
5053
330
5052
100
AcDbEntity
  8
0
100
AcDbBlockBegin
  2
*D66
 70
     1
 10
0.0
 20
0.0
 30
0.0
  3
*D66
  1

  0
LINE
  5
5055
330
5052
100
AcDbEntity
  8
寸法線
 62
     0
 48
10.0
100
AcDbLine
 10
237.818596752957
 20
426.415842855534
 30
0.0
 11
237.818596752957
 21
457.964861613816
 31
0.0
  0
LINE
  5
5056
330
5052
100
AcDbEntity
  8
寸法線
 62
     0
 48
10.0
100
AcDbLine
 10
237.818596752957
 20
420.415842855534
 30
0.0
 11
237.818596752957
 21
410.915842855534
 31
0.0
  0
INSERT
  5
5057
330
5052
100
AcDbEntity
  8
寸法線
 62
     0
100
AcDbBlockReference
  2
_OPEN30
 10
237.818596752957
 20
426.415842855534
 30
0.0
 41
6.0
 42
6.0
 43
6.0
 50
90.0
  0
INSERT
  5
5058
330
5052
100
AcDbEntity
  8
寸法線
 62
     0
100
AcDbBlockReference
  2
_OPEN30
 10
237.818596752957
 20
404.915842855534
 30
0.0
 41
6.0
 42
6.0
 43
6.0
 50
270.0
  0
MTEXT
  5
5059
330
5052
100
AcDbEntity
  8
寸法線
 62
     0
 48
10.0
100
AcDbMText
 10
233.189430086291
 20
445.406528280483
 30
0.0
 40
8.0
 41
0.0
 71
     5
 72
     1
  1
\A1;φ21.5
 11
0.0
 21
1.0
 31
0.0
  0
POINT
  5
505A
330
5052
100
AcDbEntity
  8
DEFPOINTS
 62
     0
100
AcDbPoint
 10
249.482462911374
 20
426.415842855534
 30
0.0
  0
POINT
  5
505B
330
5052
100
AcDbEntity
  8
DEFPOINTS
 62
     0
100
AcDbPoint
 10
249.482462911374
 20
404.915842855534
 30
0.0
  0
POINT
  5
505C
330
5052
100
AcDbEntity
  8
DEFPOINTS
 62
     0
100
AcDbPoint
 10
237.818596752957
 20
404.915842855534
 30
0.0
  0
ENDBLK
  5
5054
330
5052
100
AcDbEntity
  8
0
100
AcDbBlockEnd
  0
BLOCK
  5
505E
330
505D
100
AcDbEntity
  8
0
100
AcDbBlockBegin
  2
*D67
 70
     1
 10
0.0
 20
0.0
 30
0.0
  3
*D67
  1

  0
LINE
  5
5060
330
505D
100
AcDbEntity
  8
寸法線
 62
     0
 48
10.0
100
AcDbLine
 10
150.315350821777
 20
426.415842855534
 30
0.0
 11
150.315350821777
 21
457.964861613816
 31
0.0
  0
LINE
  5
5061
330
505D
100
AcDbEntity
  8
寸法線
 62
     0
 48
10.0
100
AcDbLine
 10
150.315350821777
 20
420.415842855534
 30
0.0
 11
150.315350821777
 21
410.915842855534
 31
0.0
  0
INSERT
  5
5062
330
505D
100
AcDbEntity
  8
寸法線
 62
     0
100
AcDbBlockReference
  2
_OPEN30
 10
150.315350821777
 20
426.415842855534
 30
0.0
 41
6.0
 42
6.0
 43
6.0
 50
90.0
  0
INSERT
  5
5063
330
505D
100
AcDbEntity
  8
寸法線
 62
     0
100
AcDbBlockReference
  2
_OPEN30
 10
150.315350821777
 20
404.915842855534
 30
0.0
 41
6.0
 42
6.0
 43
6.0
 50
270.0
  0
MTEXT
  5
5064
330
505D
100
AcDbEntity
  8
寸法線
 62
     0
 48
10.0
100
AcDbMText
 10
145.68618415511
 20
445.406528280483
 30
0.0
 40
8.0
 41
0.0
 71
     5
 72
     1
  1
\A1;φ21.5
 11
0.0
 21
1.0
 31
0.0
  0
POINT
  5
5065
330
505D
100
AcDbEntity
  8
DEFPOINTS
 62
     0
100
AcDbPoint
 10
162.95381907805
 20
426.415842855534
 30
0.0
  0
POINT
  5
5066
330
505D
100
AcDbEntity
  8
DEFPOINTS
 62
     0
100
AcDbPoint
 10
162.95381907805
 20
404.915842855534
 30
0.0
  0
POINT
  5
5067
330
505D
100
AcDbEntity
  8
DEFPOINTS
 62
     0
100
AcDbPoint
 10
150.315350821777
 20
404.915842855534
 30
0.0
  0
ENDBLK
  5
505F
330
505D
100
AcDbEntity
  8
0
100
AcDbBlockEnd
  0
BLOCK
  5
5069
330
5068
100
AcDbEntity
  8
0
100
AcDbBlockBegin
  2
*D68
 70
     1
 10
0.0
 20
0.0
 30
0.0
  3
*D68
  1

  0
LINE
  5
506B
330
5068
100
AcDbEntity
  8
寸法線
 62
     0
 48
10.0
100
AcDbLine
 10
12.95381907805
 20
408.040842855534
 30
0.0
 11
12.95381907805
 21
319.783844373484
 31
0.0
  0
LINE
  5
506C
330
5068
100
AcDbEntity
  8
寸法線
 62
     0
 48
10.0
100
AcDbLine
 10
112.95381907805
 20
404.790842855534
 30
0.0
 11
112.95381907805
 21
319.783844373484
 31
0.0
  0
LINE
  5
506D
330
5068
100
AcDbEntity
  8
寸法線
 62
     0
 48
10.0
100
AcDbLine
 10
18.95381907805
 20
321.033844373484
 30
0.0
 11
106.95381907805
 21
321.033844373484
 31
0.0
  0
INSERT
  5
506E
330
5068
100
AcDbEntity
  8
寸法線
 62
     0
100
AcDbBlockReference
  2
_OPEN30
 10
12.95381907805
 20
321.033844373484
 30
0.0
 41
6.0
 42
6.0
 43
6.0
 50
180.0
  0
INSERT
  5
506F
330
5068
100
AcDbEntity
  8
寸法線
 62
     0
100
AcDbBlockReference
  2
_OPEN30
 10
112.95381907805
 20
321.033844373484
 30
0.0
 41
6.0
 42
6.0
 43
6.0
  0
POINT
  5
5070
330
5068
100
AcDbEntity
  8
DEFPOINTS
 62
     0
100
AcDbPoint
 10
12.95381907805
 20
408.665842855534
 30
0.0
  0
POINT
  5
5071
330
5068
100
AcDbEntity
  8
DEFPOINTS
 62
     0
100
AcDbPoint
 10
112.95381907805
 20
405.415842855534
 30
0.0
  0
POINT
  5
5072
330
5068
100
AcDbEntity
  8
DEFPOINTS
 62
     0
100
AcDbPoint
 10
112.95381907805
 20
321.033844373484
 30
0.0
  0
ENDBLK
  5
506A
330
5068
100
AcDbEntity
  8
0
100
AcDbBlockEnd
  0
BLOCK
  5
5074
330
5073
100
AcDbEntity
  8
0
100
AcDbBlockBegin
  2
*D69
 70
     1
 10
0.0
 20
0.0
 30
0.0
  3
*D69
  1

  0
LINE
  5
5076
330
5073
100
AcDbEntity
  8
寸法線
 62
     0
 48
10.0
100
AcDbLine
 10
112.95381907805
 20
404.790842855534
 30
0.0
 11
112.95381907805
 21
319.783844373484
 31
0.0
  0
LINE
  5
5077
330
5073
100
AcDbEntity
  8
寸法線
 62
     0
 48
10.0
100
AcDbLine
 10
162.95381907805
 20
404.290842855534
 30
0.0
 11
162.95381907805
 21
319.783844373484
 31
0.0
  0
LINE
  5
5078
330
5073
100
AcDbEntity
  8
寸法線
 62
     0
 48
10.0
100
AcDbLine
 10
118.95381907805
 20
321.033844373484
 30
0.0
 11
156.95381907805
 21
321.033844373484
 31
0.0
  0
INSERT
  5
5079
330
5073
100
AcDbEntity
  8
寸法線
 62
     0
100
AcDbBlockReference
  2
_OPEN30
 10
112.95381907805
 20
321.033844373484
 30
0.0
 41
6.0
 42
6.0
 43
6.0
 50
180.0
  0
INSERT
  5
507A
330
5073
100
AcDbEntity
  8
寸法線
 62
     0
100
AcDbBlockReference
  2
_OPEN30
 10
162.95381907805
 20
321.033844373484
 30
0.0
 41
6.0
 42
6.0
 43
6.0
  0
POINT
  5
507B
330
5073
100
AcDbEntity
  8
DEFPOINTS
 62
     0
100
AcDbPoint
 10
112.95381907805
 20
405.415842855534
 30
0.0
  0
POINT
  5
507C
330
5073
100
AcDbEntity
  8
DEFPOINTS
 62
     0
100
AcDbPoint
 10
162.95381907805
 20
404.915842855534
 30
0.0
  0
POINT
  5
507D
330
5073
100
AcDbEntity
  8
DEFPOINTS
 62
     0
100
AcDbPoint
 10
162.95381907805
 20
321.033844373484
 30
0.0
  0
ENDBLK
  5
5075
330
5073
100
AcDbEntity
  8
0
100
AcDbBlockEnd
  0
BLOCK
  5
507F
330
507E
100
AcDbEntity
  8
0
100
AcDbBlockBegin
  2
*D70
 70
     1
 10
0.0
 20
0.0
 30
0.0
  3
*D70
  1

  0
LINE
  5
5081
330
507E
100
AcDbEntity
  8
寸法線
 62
     0
 48
10.0
100
AcDbLine
 10
162.95381907805
 20
404.290842855534
 30
0.0
 11
162.95381907805
 21
319.783844373484
 31
0.0
  0
LINE
  5
5082
330
507E
100
AcDbEntity
  8
寸法線
 62
     0
 48
10.0
100
AcDbLine
 10
262.95381907805
 20
399.291342855534
 30
0.0
 11
262.95381907805
 21
319.783844373484
 31
0.0
  0
LINE
  5
5083
330
507E
100
AcDbEntity
  8
寸法線
 62
     0
 48
10.0
100
AcDbLine
 10
168.95381907805
 20
321.033844373484
 30
0.0
 11
256.95381907805
 21
321.033844373484
 31
0.0
  0
INSERT
  5
5084
330
507E
100
AcDbEntity
  8
寸法線
 62
     0
100
AcDbBlockReference
  2
_OPEN30
 10
162.95381907805
 20
321.033844373484
 30
0.0
 41
6.0
 42
6.0
 43
6.0
 50
180.0
  0
INSERT
  5
5085
330
507E
100
AcDbEntity
  8
寸法線
 62
     0
100
AcDbBlockReference
  2
_OPEN30
 10
262.95381907805
 20
321.033844373484
 30
0.0
 41
6.0
 42
6.0
 43
6.0
  0
POINT
  5
5086
330
507E
100
AcDbEntity
  8
DEFPOINTS
 62
     0
100
AcDbPoint
 10
162.95381907805
 20
404.915842855534
 30
0.0
  0
POINT
  5
5087
330
507E
100
AcDbEntity
  8
DEFPOINTS
 62
     0
100
AcDbPoint
 10
262.95381907805
 20
399.916342855534
 30
0.0
  0
POINT
  5
5088
330
507E
100
AcDbEntity
  8
DEFPOINTS
 62
     0
100
AcDbPoint
 10
262.95381907805
 20
321.033844373484
 30
0.0
  0
ENDBLK
  5
5080
330
507E
100
AcDbEntity
  8
0
100
AcDbBlockEnd
  0
BLOCK
  5
508A
330
5089
100
AcDbEntity
  8
0
100
AcDbBlockBegin
  2
*D71
 70
     1
 10
0.0
 20
0.0
 30
0.0
  3
*D71
  1

  0
LINE
  5
508C
330
5089
100
AcDbEntity
  8
寸法線
 62
     0
 48
10.0
100
AcDbLine
 10
12.95381907805
 20
408.040842855534
 30
0.0
 11
12.95381907805
 21
299.783844373484
 31
0.0
  0
LINE
  5
508D
330
5089
100
AcDbEntity
  8
寸法線
 62
     0
 48
10.0
100
AcDbLine
 10
262.95381907805
 20
399.291342855534
 30
0.0
 11
262.95381907805
 21
299.783844373484
 31
0.0
  0
LINE
  5
508E
330
5089
100
AcDbEntity
  8
寸法線
 62
     0
 48
10.0
100
AcDbLine
 10
18.95381907805
 20
301.033844373484
 30
0.0
 11
256.95381907805
 21
301.033844373484
 31
0.0
  0
INSERT
  5
508F
330
5089
100
AcDbEntity
  8
寸法線
 62
     0
100
AcDbBlockReference
  2
_OPEN30
 10
12.95381907805
 20
301.033844373484
 30
0.0
 41
6.0
 42
6.0
 43
6.0
 50
180.0
  0
INSERT
  5
5090
330
5089
100
AcDbEntity
  8
寸法線
 62
     0
100
AcDbBlockReference
  2
_OPEN30
 10
262.95381907805
 20
301.033844373484
 30
0.0
 41
6.0
 42
6.0
 43
6.0
  0
POINT
  5
5091
330
5089
100
AcDbEntity
  8
DEFPOINTS
 62
     0
100
AcDbPoint
 10
12.95381907805
 20
408.665842855534
 30
0.0
  0
POINT
  5
5092
330
5089
100
AcDbEntity
  8
DEFPOINTS
 62
     0
100
AcDbPoint
 10
262.95381907805
 20
399.916342855534
 30
0.0
  0
POINT
  5
5093
330
5089
100
AcDbEntity
  8
DEFPOINTS
 62
     0
100
AcDbPoint
 10
262.95381907805
 20
301.033844373484
 30
0.0
  0
ENDBLK
  5
508B
330
5089
100
AcDbEntity
  8
0
100
AcDbBlockEnd
  0
BLOCK
  5
56AD
330
56AC
100
AcDbEntity
  8
0
100
AcDbBlockBegin
  2
*D75
 70
     1
 10
0.0
 20
0.0
 30
0.0
  3
*D75
  1

  0
LINE
  5
56AF
330
56AC
100
AcDbEntity
  8
寸法線
 62
     0
 48
10.0
100
AcDbLine
 10
13.32881907805
 20
426.415842855534
 30
0.0
 11
-0.934649178223
 21
426.415842855534
 31
0.0
  0
LINE
  5
56B0
330
56AC
100
AcDbEntity
  8
寸法線
 62
     0
 48
10.0
100
AcDbLine
 10
13.32881907805
 20
404.915842855534
 30
0.0
 11
-0.934649178223
 21
404.915842855534
 31
0.0
  0
LINE
  5
56B1
330
56AC
100
AcDbEntity
  8
寸法線
 62
     0
 48
10.0
100
AcDbLine
 10
0.315350821777
 20
426.415842855534
 30
0.0
 11
0.315350821777
 21
457.5325095222
 31
0.0
  0
LINE
  5
56B2
330
56AC
100
AcDbEntity
  8
寸法線
 62
     0
 48
10.0
100
AcDbLine
 10
0.315350821777
 20
420.415842855534
 30
0.0
 11
0.315350821777
 21
410.915842855534
 31
0.0
  0
INSERT
  5
56B3
330
56AC
100
AcDbEntity
  8
寸法線
 62
     0
100
AcDbBlockReference
  2
_OPEN30
 10
0.315350821777
 20
426.415842855534
 30
0.0
 41
6.0
 42
6.0
 43
6.0
 50
90.0
  0
INSERT
  5
56B4
330
56AC
100
AcDbEntity
  8
寸法線
 62
     0
100
AcDbBlockReference
  2
_OPEN30
 10
0.315350821777
 20
404.915842855534
 30
0.0
 41
6.0
 42
6.0
 43
6.0
 50
270.0
  0
MTEXT
  5
56B5
330
56AC
100
AcDbEntity
  8
寸法線
 62
     0
 48
10.0
100
AcDbMText
 10
-4.31381584489
 20
444.974176188867
 30
0.0
 40
8.0
 41
0.0
 71
     5
 72
     1
  1
\A1;φ21.5
 11
8.262124834419814E-17
 21
1.0
 31
0.0
  0
POINT
  5
56B6
330
56AC
100
AcDbEntity
  8
DEFPOINTS
 62
     0
100
AcDbPoint
 10
13.95381907805
 20
426.415842855534
 30
0.0
  0
POINT
  5
56B7
330
56AC
100
AcDbEntity
  8
DEFPOINTS
 62
     0
100
AcDbPoint
 10
13.95381907805
 20
404.915842855534
 30
0.0
  0
POINT
  5
56B8
330
56AC
100
AcDbEntity
  8
DEFPOINTS
 62
     0
100
AcDbPoint
 10
0.315350821777
 20
404.915842855534
 30
0.0
  0
ENDBLK
  5
56AE
330
56AC
100
AcDbEntity
  8
0
100
AcDbBlockEnd
  0
ENDSEC
  0
SECTION
  2
ENTITIES
  0
LINE
  5
3E98
330
1A
100
AcDbEntity
  8
下書線
100
AcDbLine
 10
504.894502466007
 20
499.208759057804
 30
0.0
 11
-44.097128290888
 21
499.208759057804
 31
0.0
  0
LWPOLYLINE
  5
441E
330
1A
100
AcDbEntity
  8
外形線
100
AcDbPolyline
 90
        4
 70
     1
 43
0.0
 10
307.95381907805
 20
398.038623815478
 10
362.95381907805
 20
398.038623815478
 10
362.95381907805
 20
432.038623815478
 10
307.95381907805
 20
432.038623815478
  0
LWPOLYLINE
  5
441F
102
{ACAD_REACTORS
330
447F
102
}
330
1A
100
AcDbEntity
  8
外形線
100
AcDbPolyline
 90
        4
 70
     1
 43
0.0
 10
386.45381907805
 20
355.038623815478
 10
387.95381907805
 20
355.038623815478
 10
387.95381907805
 20
475.038623815478
 10
386.45381907805
 20
475.038623815478
  0
LWPOLYLINE
  5
4420
102
{ACAD_REACTORS
330
447F
102
}
330
1A
100
AcDbEntity
  8
外形線
100
AcDbPolyline
 90
        8
 70
     1
 43
0.0
 10
376.70381907805
 20
396.038623815478
 10
385.95381907805
 20
396.038623815478
 10
386.45381907805
 20
396.538623815478
 10
386.45381907805
 20
433.538623815478
 10
385.95381907805
 20
434.038623815478
 10
376.70381907805
 20
434.038623815478
 10
376.20381907805
 20
433.538623815478
 10
376.20381907805
 20
396.538623815478
  0
LWPOLYLINE
  5
4421
102
{ACAD_REACTORS
330
447F
102
}
330
1A
100
AcDbEntity
  8
外形線
100
AcDbPolyline
 90
        4
 70
     1
 43
0.0
 10
374.70381907805
 20
355.038623815478
 10
376.20381907805
 20
355.038623815478
 10
376.20381907805
 20
475.038623815478
 10
374.70381907805
 20
475.038623815478
  0
LWPOLYLINE
  5
4422
102
{ACAD_REACTORS
330
447F
102
}
330
1A
100
AcDbEntity
  8
外形線
100
AcDbPolyline
 90
        8
 70
     1
 43
0.0
 10
364.95381907805
 20
396.038623815478
 10
374.20381907805
 20
396.038623815478
 10
374.70381907805
 20
396.538623815478
 10
374.70381907805
 20
433.538623815478
 10
374.20381907805
 20
434.038623815478
 10
364.95381907805
 20
434.038623815478
 10
364.45381907805
 20
433.538623815478
 10
364.45381907805
 20
396.538623815478
  0
LWPOLYLINE
  5
4423
102
{ACAD_REACTORS
330
447F
102
}
330
1A
100
AcDbEntity
  8
外形線
100
AcDbPolyline
 90
        4
 70
     1
 43
0.0
 10
362.95381907805
 20
355.038623815478
 10
364.45381907805
 20
355.038623815478
 10
364.45381907805
 20
475.038623815478
 10
362.95381907805
 20
475.038623815478
  0
LINE
  5
4481
330
1A
100
AcDbEntity
  8
中心線
 48
10.0
100
AcDbLine
 10
6.213180652234
 20
415.038623815478
 30
0.0
 11
479.848973944582
 21
415.038623815478
 31
0.0
  0
LINE
  5
4658
102
{ACAD_REACTORS
330
46B3
102
}
330
1A
100
AcDbEntity
  8
外形線
 48
10.0
100
AcDbLine
 10
307.95381907805
 20
434.038623818
 30
0.0
 11
307.95381907805
 21
396.037244276411
 31
0.0
  0
LINE
  5
4659
102
{ACAD_REACTORS
330
46B3
102
}
330
1A
100
AcDbEntity
  8
外形線
 48
10.0
100
AcDbLine
 10
287.95381907805
 20
434.038623818
 30
0.0
 11
287.95381907805
 21
396.037244276412
 31
0.0
  0
ARC
  5
465A
102
{ACAD_REACTORS
330
46B3
102
}
330
1A
100
AcDbEntity
  8
細線
 48
10.0
100
AcDbCircle
 10
309.244344981054
 20
392.659503461383
 30
0.0
 40
21.5568
100
AcDbArc
 50
148.046790151162
 51
170.985160447973
  0
ARC
  5
465B
102
{ACAD_REACTORS
330
46B3
102
}
330
1A
100
AcDbEntity
  8
細線
 48
10.0
100
AcDbCircle
 10
286.663293175046
 20
392.659503461383
 30
0.0
 40
21.5568
100
AcDbArc
 50
9.014839552025
 51
31.953209848837
  0
ARC
  5
465C
102
{ACAD_REACTORS
330
46B3
102
}
330
1A
100
AcDbEntity
  8
外形線
 48
10.0
100
AcDbCircle
 10
291.439159100714
 20
409.892266184478
 30
0.0
 40
21.5568
100
AcDbArc
 50
308.824173789179
 51
320.004933775737
  0
ARC
  5
465D
102
{ACAD_REACTORS
330
46B3
102
}
330
1A
100
AcDbEntity
  8
外形線
 48
10.0
100
AcDbCircle
 10
304.468479055385
 20
409.892266184478
 30
0.0
 40
21.5568
100
AcDbArc
 50
219.995066224261
 51
231.175826210819
  0
ARC
  5
465E
102
{ACAD_REACTORS
330
46B3
102
}
330
1A
100
AcDbEntity
  8
細線
 48
10.0
100
AcDbCircle
 10
286.663293175046
 20
437.416364633028
 30
0.0
 40
21.5568
100
AcDbArc
 50
328.046790151162
 51
350.985160447974
  0
ARC
  5
465F
102
{ACAD_REACTORS
330
46B3
102
}
330
1A
100
AcDbEntity
  8
外形線
 48
10.0
100
AcDbCircle
 10
291.439159100714
 20
420.183601909934
 30
0.0
 40
21.5568
100
AcDbArc
 50
39.995066224263
 51
51.175826210821
  0
ARC
  5
4660
102
{ACAD_REACTORS
330
46B3
102
}
330
1A
100
AcDbEntity
  8
外形線
 48
10.0
100
AcDbCircle
 10
304.468479055385
 20
420.183601909934
 30
0.0
 40
21.5568
100
AcDbArc
 50
128.824173789179
 51
140.004933775737
  0
ARC
  5
4661
102
{ACAD_REACTORS
330
46B3
102
}
330
1A
100
AcDbEntity
  8
細線
 48
10.0
100
AcDbCircle
 10
309.244344981054
 20
437.416364633028
 30
0.0
 40
21.5568
100
AcDbArc
 50
189.014839552026
 51
211.953209848838
  0
LINE
  5
4662
102
{ACAD_REACTORS
330
46B3
102
}
330
1A
100
AcDbEntity
  8
外形線
 48
10.0
100
AcDbLine
 10
290.95381907805
 20
393.099313588794
 30
0.0
 11
304.95381907805
 21
393.099313588794
 31
0.0
  0
LINE
  5
4663
102
{ACAD_REACTORS
330
46B3
102
}
330
1A
100
AcDbEntity
  8
外形線
 48
10.0
100
AcDbLine
 10
290.95381907805
 20
436.977934047206
 30
0.0
 11
304.95381907805
 21
436.977934047206
 31
0.0
  0
ARC
  5
4664
102
{ACAD_REACTORS
330
46B3
102
}
330
1A
100
AcDbEntity
  8
細線
 48
10.0
100
AcDbCircle
 10
286.397002490681
 20
415.037934047206
 30
0.0
 40
21.55681659840436
100
AcDbArc
 50
329.410227986311
 51
30.589772013689
  0
ARC
  5
4665
102
{ACAD_REACTORS
330
46B3
102
}
330
1A
100
AcDbEntity
  8
細線
 48
10.0
100
AcDbCircle
 10
309.510635665419
 20
415.037934047206
 30
0.0
 40
21.5568165984052
100
AcDbArc
 50
149.410227986311
 51
210.589772013689
  0
LINE
  5
4677
102
{ACAD_REACTORS
330
46B3
102
}
330
1A
100
AcDbEntity
  8
外形線
100
AcDbLine
 10
262.95381907805
 20
430.788123815478
 30
0.0
 11
287.95381907805
 21
432.350623815478
 31
0.0
  0
LINE
  5
4678
102
{ACAD_REACTORS
330
46B3
102
}
330
1A
100
AcDbEntity
  8
外形線
100
AcDbLine
 10
262.95381907805
 20
430.788123815478
 30
0.0
 11
262.95381907805
 21
399.289123815478
 31
0.0
  0
LINE
  5
4679
102
{ACAD_REACTORS
330
46B3
102
}
330
1A
100
AcDbEntity
  8
細線
100
AcDbLine
 10
262.95381907805
 20
429.309123815478
 30
0.0
 11
287.95381907805
 21
430.871623815478
 31
0.0
  0
LINE
  5
467A
102
{ACAD_REACTORS
330
46B3
102
}
330
1A
100
AcDbEntity
  8
細線
100
AcDbLine
 10
262.95381907805
 20
400.768123815477
 30
0.0
 11
287.95381907805
 21
399.205623815477
 31
0.0
  0
LINE
  5
467B
102
{ACAD_REACTORS
330
46B3
102
}
330
1A
100
AcDbEntity
  8
外形線
100
AcDbLine
 10
262.95381907805
 20
399.289123815478
 30
0.0
 11
287.95381907805
 21
397.726623815478
 31
0.0
  0
LINE
  5
467C
102
{ACAD_REACTORS
330
46B3
102
}
330
1A
100
AcDbEntity
  8
細線
100
AcDbLine
 10
290.95381907805
 20
404.067934047206
 30
0.0
 11
304.95381907805
 21
404.067934047206
 31
0.0
  0
LINE
  5
467D
102
{ACAD_REACTORS
330
46B3
102
}
330
1A
100
AcDbEntity
  8
細線
100
AcDbLine
 10
290.95381907805
 20
426.007934047206
 30
0.0
 11
304.95381907805
 21
426.007934047206
 31
0.0
  0
DIMENSION
  5
49F0
330
1A
100
AcDbEntity
  8
寸法線
 48
10.0
100
AcDbDimension
  2
*D14
 10
287.953819078049
 20
321.033844373484
 30
0.0
 11
275.45381907805
 21
325.659631775059
 31
0.0
 70
    32
  3
ISO-25
100
AcDbAlignedDimension
 13
262.95381907805
 23
399.289123815478
 33
0.0
 14
287.953819078049
 24
396.037244276412
 34
0.0
100
AcDbRotatedDimension
1001
ACAD
1000
DSTYLE
1002
{
1070
     5
1000
OPEN30
1070
    41
1040
6.0
1070
    47
1040
0.1
1070
    48
1040
0.1
1070
    73
1070
     0
1070
   140
1040
8.0
1070
   271
1070
     1
1070
   272
1070
     1
1070
   341
1005
2AF4
1002
}
  0
DIMENSION
  5
4A0A
330
1A
100
AcDbEntity
  8
寸法線
 48
10.0
100
AcDbDimension
  2
*D15
 10
307.95381907805
 20
321.033844373484
 30
0.0
 11
297.95381907805
 21
325.659631775059
 31
0.0
 70
    32
  3
ISO-25
100
AcDbAlignedDimension
 13
287.95381907805
 23
396.037244276412
 33
0.0
 14
307.95381907805
 24
396.037244276411
 34
0.0
100
AcDbRotatedDimension
1001
ACAD
1000
DSTYLE
1002
{
1070
     5
1000
OPEN30
1070
    41
1040
6.0
1070
    47
1040
0.1
1070
    48
1040
0.1
1070
    73
1070
     0
1070
   140
1040
8.0
1070
   271
1070
     1
1070
   272
1070
     1
1070
   341
1005
2AF4
1002
}
  0
DIMENSION
  5
4A17
330
1A
100
AcDbEntity
  8
寸法線
 48
10.0
100
AcDbDimension
  2
*D16
 10
362.95381907805
 20
321.033844373484
 30
0.0
 11
335.45381907805
 21
325.658844373484
 31
0.0
 70
    32
  3
ISO-25
100
AcDbAlignedDimension
 13
307.95381907805
 23
396.037244276411
 33
0.0
 14
362.95381907805
 24
355.038623815478
 34
0.0
100
AcDbRotatedDimension
1001
ACAD
1000
DSTYLE
1002
{
1070
     5
1000
OPEN30
1070
    41
1040
6.0
1070
    47
1040
0.1
1070
    48
1040
0.1
1070
    73
1070
     0
1070
   140
1040
8.0
1070
   271
1070
     1
1070
   272
1070
     1
1070
   341
1005
2AF4
1002
}
  0
DIMENSION
  5
4A24
330
1A
100
AcDbEntity
  8
寸法線
 48
10.0
100
AcDbDimension
  2
*D17
 10
387.95381907805
 20
321.033844373484
 30
0.0
 11
375.45381907805
 21
325.659631775059
 31
0.0
 70
    32
  3
ISO-25
100
AcDbAlignedDimension
 13
362.95381907805
 23
355.038623815478
 33
0.0
 14
387.95381907805
 24
355.038623815478
 34
0.0
100
AcDbRotatedDimension
1001
ACAD
1000
DSTYLE
1002
{
1070
     5
1000
OPEN30
1070
    41
1040
6.0
1070
    47
1040
0.1
1070
    48
1040
0.1
1070
    73
1070
     0
1070
   140
1040
8.0
1070
   271
1070
     1
1070
   272
1070
     1
1070
   341
1005
2AF4
1002
}
  0
DIMENSION
  5
4A5D
330
1A
100
AcDbEntity
  8
寸法線
 48
10.0
100
AcDbDimension
  2
*D20
 10
477.953854651725
 20
301.033844373484
 30
0.0
 11
370.453836864887
 21
305.659631775059
 31
0.0
 70
    32
  3
ISO-25
100
AcDbAlignedDimension
 13
262.95381907805
 23
399.289123815478
 33
0.0
 14
477.953854651725
 24
329.538623667948
 34
0.0
100
AcDbRotatedDimension
1001
ACAD
1000
DSTYLE
1002
{
1070
     5
1000
OPEN30
1070
    41
1040
6.0
1070
    47
1040
0.1
1070
    48
1040
0.1
1070
    73
1070
     0
1070
   140
1040
8.0
1070
   271
1070
     1
1070
   272
1070
     1
1070
   341
1005
2AF4
1002
}
  0
LWPOLYLINE
  5
4B9D
330
1A
100
AcDbEntity
  8
外形線
100
AcDbPolyline
 90
        4
 70
     1
 43
0.0
 10
387.95381907805
 20
396.038623815478
 10
390.95381907805
 20
396.038623815478
 10
390.95381907805
 20
434.038623815478
 10
387.95381907805
 20
434.038623815478
  0
LINE
  5
4BBF
330
1A
100
AcDbEntity
  8
外形線
100
AcDbLine
 10
390.95381907805
 20
431.038623815478
 30
0.0
 11
390.95381907805
 21
399.038623815478
 31
0.0
  0
ARC
  5
4BC0
330
1A
100
AcDbEntity
  8
外形線
100
AcDbCircle
 10
392.45381907805
 20
431.038623815478
 30
0.0
 40
1.5
100
AcDbArc
 50
90.0
 51
180.0
  0
ARC
  5
4BC1
330
1A
100
AcDbEntity
  8
外形線
100
AcDbCircle
 10
392.45381907805
 20
399.038623815478
 30
0.0
 40
1.5
100
AcDbArc
 50
180.0
 51
270.0
  0
LINE
  5
4BC2
330
1A
100
AcDbEntity
  8
外形線
100
AcDbLine
 10
414.09581907805
 20
436.038623815478
 30
0.0
 11
414.09581907805
 21
394.038623815478
 31
0.0
  0
ARC
  5
4BC3
330
1A
100
AcDbEntity
  8
外形線
100
AcDbCircle
 10
412.59581907805
 20
396.038623815478
 30
0.0
 40
1.5
100
AcDbArc
 50
0.0
 51
90.0
  0
ARC
  5
4BC4
330
1A
100
AcDbEntity
  8
外形線
100
AcDbCircle
 10
412.59581907805
 20
434.038623815478
 30
0.0
 40
1.5
100
AcDbArc
 50
270.0
 51
0.0
  0
LINE
  5
4BC5
330
1A
100
AcDbEntity
  8
外形線
100
AcDbLine
 10
465.046652369565
 20
385.134392122546
 30
0.0
 11
466.954875302274
 21
386.085796980861
 31
0.0
  0
LINE
  5
4BC6
330
1A
100
AcDbEntity
  8
外形線
100
AcDbLine
 10
435.227252519436
 20
444.942855508409
 30
0.0
 11
437.135475452146
 21
445.894260366724
 31
0.0
  0
LINE
  5
4BC7
330
1A
100
AcDbEntity
  8
外形線
100
AcDbLine
 10
437.135475452146
 20
445.894260366724
 30
0.0
 11
466.954875302274
 21
386.085796980861
 31
0.0
  0
LINE
  5
4BC8
330
1A
100
AcDbEntity
  8
外形線
100
AcDbLine
 10
465.046652369565
 20
385.134392122546
 30
0.0
 11
435.227252519436
 21
444.942855508409
 31
0.0
  0
ARC
  5
4BC9
330
1A
100
AcDbEntity
  8
細線
100
AcDbCircle
 10
448.593019486652
 20
356.027425449887
 30
0.0
 40
34.01119848081266
100
AcDbArc
 50
63.825050098629
 51
116.164440091243
  0
LINE
  5
4BCA
330
1A
100
AcDbEntity
  8
外形線
100
AcDbLine
 10
463.59581907805
 20
369.038623815478
 30
0.0
 11
464.59581907805
 21
370.038623815478
 31
0.0
  0
LINE
  5
4BCB
330
1A
100
AcDbEntity
  8
外形線
100
AcDbLine
 10
433.59581907805
 20
369.038623815478
 30
0.0
 11
463.59581907805
 21
369.038623815478
 31
0.0
  0
LINE
  5
4BCC
330
1A
100
AcDbEntity
  8
外形線
100
AcDbLine
 10
432.59581907805
 20
370.038623815478
 30
0.0
 11
433.59581907805
 21
369.038623815478
 31
0.0
  0
LINE
  5
4BCD
330
1A
100
AcDbEntity
  8
外形線
100
AcDbLine
 10
432.59581907805
 20
370.038623815478
 30
0.0
 11
432.59581907805
 21
385.038623815478
 31
0.0
  0
ARC
  5
4BCE
330
1A
100
AcDbEntity
  8
外形線
100
AcDbCircle
 10
431.59581907805
 20
385.038623815478
 30
0.0
 40
1.0
100
AcDbArc
 50
0.0
 51
90.0
  0
ARC
  5
4BCF
330
1A
100
AcDbEntity
  8
外形線
100
AcDbCircle
 10
422.09581907805
 20
436.038623815478
 30
0.0
 40
8.0
100
AcDbArc
 50
90.0
 51
180.0
  0
ARC
  5
4BD0
330
1A
100
AcDbEntity
  8
外形線
100
AcDbCircle
 10
422.09581907805
 20
394.038623815478
 30
0.0
 40
8.0
100
AcDbArc
 50
180.0
 51
270.0
  0
ARC
  5
4BD1
330
1A
100
AcDbEntity
  8
外形線
100
AcDbCircle
 10
442.602499475067
 20
451.076400946871
 30
0.0
 40
3.0
100
AcDbArc
 50
45.30448303075
 51
116.499999999996
  0
ARC
  5
4BD2
330
1A
100
AcDbEntity
  8
外形線
100
AcDbCircle
 10
474.980873610977
 20
387.633229172315
 30
0.0
 40
3.0
100
AcDbArc
 50
296.499999999996
 51
7.695516969253
  0
LINE
  5
4BD3
330
1A
100
AcDbEntity
  8
外形線
100
AcDbLine
 10
469.273467568227
 20
381.43542033539
 30
0.0
 11
476.319467050306
 21
384.948426087509
 31
0.0
  0
LINE
  5
4BD4
330
1A
100
AcDbEntity
  8
外形線
100
AcDbLine
 10
479.648205524026
 20
419.19661792973
 30
0.0
 11
470.4162447501
 21
414.59373208158
 31
0.0
  0
LINE
  5
4BD5
330
1A
100
AcDbEntity
  8
外形線
100
AcDbLine
 10
468.244773935902
 20
419.656778787443
 30
0.0
 11
477.194117551922
 21
424.118756918541
 31
0.0
  0
LINE
  5
4BD6
330
1A
100
AcDbEntity
  8
外形線
100
AcDbLine
 10
464.675191431024
 20
426.816253680259
 30
0.0
 11
473.624535047044
 21
431.278231811358
 31
0.0
  0
LINE
  5
4BD7
330
1A
100
AcDbEntity
  8
外形線
100
AcDbLine
 10
471.17044707494
 20
436.200370800169
 30
0.0
 11
461.938486301014
 21
431.597484952018
 31
0.0
  0
LINE
  5
4BD8
330
1A
100
AcDbEntity
  8
外形線
100
AcDbLine
 10
473.624535047044
 20
431.278231811358
 30
0.0
 11
471.17044707494
 21
436.200370800169
 31
0.0
  0
LINE
  5
4BD9
330
1A
100
AcDbEntity
  8
外形線
100
AcDbLine
 10
477.194117551922
 20
424.118756918541
 30
0.0
 11
479.648205524026
 21
419.19661792973
 31
0.0
  0
LINE
  5
4BDA
330
1A
100
AcDbEntity
  8
外形線
100
AcDbLine
 10
464.59581907805
 20
370.038623815478
 30
0.0
 11
464.59581907805
 21
386.038623815478
 31
0.0
  0
LINE
  5
4BDB
330
1A
100
AcDbEntity
  8
中心線
 48
10.0
100
AcDbLine
 10
448.59581907805
 20
395.038623815478
 30
0.0
 11
448.59581907805
 21
356.027425449887
 31
0.0
  0
LINE
  5
4BDC
330
1A
100
AcDbEntity
  8
外形線
 48
10.0
100
AcDbLine
 10
434.816883186193
 20
450.546837012195
 30
0.0
 11
441.263906035737
 21
453.761204031677
 31
0.0
  0
ARC
  5
4BDD
330
1A
100
AcDbEntity
  8
外形線
 48
10.0
100
AcDbCircle
 10
362.333143169007
 20
370.295122192502
 30
0.0
 40
116.880564807258
100
AcDbArc
 50
8.420101953746
 51
45.185262866733
  0
LINE
  5
4BDE
330
1A
100
AcDbEntity
  8
外形線
 48
10.0
100
AcDbLine
 10
434.816883186193
 20
450.546837012195
 30
0.0
 11
469.273467568227
 21
381.43542033539
 31
0.0
  0
LINE
  5
4BDF
330
1A
100
AcDbEntity
  8
外形線
 48
10.0
100
AcDbLine
 10
422.09581907805
 20
444.038623815478
 30
0.0
 11
435.6369524445
 21
444.038623815478
 31
0.0
  0
LINE
  5
4BE0
330
1A
100
AcDbEntity
  8
外形線
 48
10.0
100
AcDbLine
 10
392.45381907805
 20
432.538623815478
 30
0.0
 11
412.59581907805
 21
432.538623815478
 31
0.0
  0
LINE
  5
4BE1
330
1A
100
AcDbEntity
  8
外形線
 48
10.0
100
AcDbLine
 10
392.45381907805
 20
397.538623815478
 30
0.0
 11
412.59581907805
 21
397.538623815478
 31
0.0
  0
LINE
  5
4BE2
330
1A
100
AcDbEntity
  8
外形線
 48
10.0
100
AcDbLine
 10
422.09581907805
 20
386.038623815478
 30
0.0
 11
431.59581907805
 21
386.038623815478
 31
0.0
  0
DIMENSION
  5
4BE3
330
1A
100
AcDbEntity
  8
寸法線
 48
10.0
100
AcDbDimension
  2
*D44
 10
505.315350821777
 20
369.038623815478
 30
0.0
 11
500.690350821777
 21
411.538642371315
 31
0.0
 70
    32
  3
ISO-25
100
AcDbAlignedDimension
 13
443.076857788181
 23
454.038660927153
 33
0.0
 14
463.59581907805
 24
369.038623815478
 34
0.0
 50
90.0
100
AcDbRotatedDimension
1001
ACAD
1000
DSTYLE
1002
{
1070
     5
1000
OPEN30
1070
    41
1040
6.0
1070
    47
1040
0.1
1070
    48
1040
0.1
1070
    73
1070
     0
1070
   140
1040
8.0
1070
   271
1070
     1
1070
   272
1070
     1
1070
   341
1005
2AF4
1002
}
  0
DIMENSION
  5
4BF2
330
1A
100
AcDbEntity
  8
寸法線
 48
10.0
100
AcDbDimension
  2
*D46
 10
477.953854651725
 20
321.033844373484
 30
0.0
 11
432.953836864887
 21
325.658844373484
 31
0.0
 70
    32
  3
ISO-25
100
AcDbAlignedDimension
 13
387.95381907805
 23
355.038623815478
 33
0.0
 14
477.953854651725
 24
388.034955112921
 34
0.0
100
AcDbRotatedDimension
1001
ACAD
1000
DSTYLE
1002
{
1070
     5
1000
OPEN30
1070
    41
1040
6.0
1070
    47
1040
0.1
1070
    48
1040
0.1
1070
    73
1070
     0
1070
   140
1040
8.0
1070
   271
1070
     1
1070
   272
1070
     1
1070
   341
1005
2AF4
1002
}
  0
LWPOLYLINE
  5
4F8B
330
1A
100
AcDbEntity
  8
外形線
100
AcDbPolyline
 90
        4
 70
     0
 43
0.0
 10
141.703819078049
 20
404.915842855534
 10
162.95381907805
 20
404.915842855534
 10
162.95381907805
 20
426.415842855534
 10
141.70381907805
 20
426.415842855534
  0
LWPOLYLINE
  5
4F8C
330
1A
100
AcDbEntity
  8
外形線
100
AcDbPolyline
 90
        6
 70
     0
 43
0.0
 10
134.70381907805
 20
426.415842855534
 10
113.45381907805
 20
426.415842855534
 10
112.95381907805
 20
425.915842855534
 10
112.95381907805
 20
405.415842855534
 10
113.45381907805
 20
404.915842855534
 10
134.70381907805
 20
404.915842855534
  0
LWPOLYLINE
  5
4F8D
330
1A
100
AcDbEntity
  8
外形線
100
AcDbPolyline
 90
        6
 70
     0
 43
0.0
 10
209.45381907805
 20
426.415842855534
 10
163.45381907805
 20
426.415842855534
 10
162.95381907805
 20
425.915842855534
 10
162.95381907805
 20
405.415842855534
 10
163.45381907805
 20
404.915842855534
 10
209.45381907805
 20
404.915842855534
  0
ARC
  5
4F8E
330
1A
100
AcDbEntity
  8
細線
 48
10.0
100
AcDbCircle
 10
147.926475328049
 20
421.040842855534
 30
0.0
 40
8.222656249999796
100
AcDbArc
 50
139.180234332389
 51
220.819765667606
  0
ARC
  5
4F8F
330
1A
100
AcDbEntity
  8
細線
 48
10.0
100
AcDbCircle
 10
135.48116282805
 20
410.290842855534
 30
0.0
 40
8.222656249999796
100
AcDbArc
 50
319.180234332393
 51
40.819765667607
  0
ARC
  5
4F90
330
1A
100
AcDbEntity
  8
細線
 48
10.0
100
AcDbCircle
 10
147.926475328049
 20
410.290842855534
 30
0.0
 40
8.222656249999796
100
AcDbArc
 50
139.180234332389
 51
220.819765667606
  0
ARC
  5
4F91
330
1A
100
AcDbEntity
  8
細線
 48
10.0
100
AcDbCircle
 10
128.48116282805
 20
410.290842855534
 30
0.0
 40
8.222656249999796
100
AcDbArc
 50
319.180234332393
 51
40.819765667607
  0
ARC
  5
4F92
330
1A
100
AcDbEntity
  8
細線
 48
10.0
100
AcDbCircle
 10
128.48116282805
 20
421.040842855534
 30
0.0
 40
8.222656249999796
100
AcDbArc
 50
319.180234332393
 51
40.819765667607
  0
ARC
  5
4F93
330
1A
100
AcDbEntity
  8
細線
 48
10.0
100
AcDbCircle
 10
140.926475328049
 20
421.040842855534
 30
0.0
 40
8.222656249999796
100
AcDbArc
 50
139.180234332389
 51
220.819765667606
  0
ARC
  5
4F94
330
1A
100
AcDbEntity
  8
細線
 48
10.0
100
AcDbCircle
 10
222.676475328049
 20
410.290842855534
 30
0.0
 40
8.222656249999796
100
AcDbArc
 50
139.180234332389
 51
220.819765667606
  0
ARC
  5
4F95
330
1A
100
AcDbEntity
  8
細線
 48
10.0
100
AcDbCircle
 10
210.23116282805
 20
410.290842855534
 30
0.0
 40
8.222656249999796
100
AcDbArc
 50
319.180234332394
 51
40.819765667606
  0
ARC
  5
4F96
330
1A
100
AcDbEntity
  8
細線
 48
10.0
100
AcDbCircle
 10
222.676475328049
 20
421.040842855534
 30
0.0
 40
8.222656249999796
100
AcDbArc
 50
139.180234332389
 51
220.819765667606
  0
ARC
  5
4F97
330
1A
100
AcDbEntity
  8
細線
 48
10.0
100
AcDbCircle
 10
215.676475328049
 20
421.040842855534
 30
0.0
 40
8.222656249999796
100
AcDbArc
 50
139.180234332389
 51
220.819765667606
  0
ARC
  5
4F98
330
1A
100
AcDbEntity
  8
細線
 48
10.0
100
AcDbCircle
 10
203.23116282805
 20
410.290842855534
 30
0.0
 40
8.222656249999796
100
AcDbArc
 50
319.180234332393
 51
40.819765667607
  0
ARC
  5
4F99
330
1A
100
AcDbEntity
  8
細線
 48
10.0
100
AcDbCircle
 10
203.23116282805
 20
421.040842855534
 30
0.0
 40
8.222656249999796
100
AcDbArc
 50
319.180234332394
 51
40.819765667606
  0
DIMENSION
  5
4FA0
330
1A
100
AcDbEntity
  8
寸法線
 48
10.0
100
AcDbDimension
  2
*D66
 10
237.818596752957
 20
404.915842855534
 30
0.0
 11
237.818596752957
 21
445.406528280483
 31
0.0
 70
   160
  1
φ<>
  3
ISO-25
100
AcDbAlignedDimension
 13
249.482462911374
 23
426.415842855534
 33
0.0
 14
249.482462911374
 24
404.915842855534
 34
0.0
 50
90.0
100
AcDbRotatedDimension
1001
ACAD
1000
DSTYLE
1002
{
1070
     5
1000
OPEN30
1070
    76
1070
     1
1070
    75
1070
     1
1070
    41
1040
6.0
1070
    47
1040
0.1
1070
    48
1040
0.1
1070
    73
1070
     0
1070
   140
1040
8.0
1070
   271
1070
     1
1070
   272
1070
     1
1070
   341
1005
2AF4
1002
}
  0
LWPOLYLINE
  5
4FA1
330
1A
100
AcDbEntity
  8
外形線
100
AcDbPolyline
 90
        4
 70
     0
 43
0.0
 10
216.453819078049
 20
404.915842855534
 10
262.95381907805
 20
404.915842855534
 10
262.95381907805
 20
426.415842855534
 10
216.45381907805
 20
426.415842855534
  0
DIMENSION
  5
4FA2
330
1A
100
AcDbEntity
  8
寸法線
 48
10.0
100
AcDbDimension
  2
*D67
 10
150.315350821777
 20
404.915842855534
 30
0.0
 11
150.315350821777
 21
445.406528280483
 31
0.0
 70
   160
  1
φ<>
  3
ISO-25
100
AcDbAlignedDimension
 13
162.95381907805
 23
426.415842855534
 33
0.0
 14
162.95381907805
 24
404.915842855534
 34
0.0
 50
90.0
100
AcDbRotatedDimension
1001
ACAD
1000
DSTYLE
1002
{
1070
     5
1000
OPEN30
1070
    76
1070
     1
1070
    75
1070
     1
1070
   282
1070
     0
1070
   281
1070
     0
1070
    41
1040
6.0
1070
    47
1040
0.1
1070
    48
1040
0.1
1070
    73
1070
     0
1070
   140
1040
8.0
1070
   271
1070
     1
1070
   272
1070
     1
1070
   341
1005
2AF4
1002
}
  0
DIMENSION
  5
4FA3
330
1A
100
AcDbEntity
  8
寸法線
 48
10.0
100
AcDbDimension
  2
*D68
 10
112.95381907805
 20
321.033844373484
 30
0.0
 11
62.95381907805
 21
321.163431479462
 31
0.0
 70
    32
  1
 
  3
ISO-25
100
AcDbAlignedDimension
 13
12.95381907805
 23
408.665842855534
 33
0.0
 14
112.95381907805
 24
405.415842855534
 34
0.0
100
AcDbRotatedDimension
1001
ACAD
1000
DSTYLE
1002
{
1070
     5
1000
OPEN30
1070
    41
1040
6.0
1070
    47
1040
0.1
1070
    48
1040
0.1
1070
    73
1070
     0
1070
   140
1040
8.0
1070
   271
1070
     1
1070
   272
1070
     1
1070
   341
1005
2AF4
1002
}
  0
DIMENSION
  5
4FA4
330
1A
100
AcDbEntity
  8
寸法線
 48
10.0
100
AcDbDimension
  2
*D69
 10
162.95381907805
 20
321.033844373484
 30
0.0
 11
137.95381907805
 21
321.163431479462
 31
0.0
 70
    32
  1
 
  3
ISO-25
100
AcDbAlignedDimension
 13
112.95381907805
 23
405.415842855534
 33
0.0
 14
162.95381907805
 24
404.915842855534
 34
0.0
100
AcDbRotatedDimension
1001
ACAD
1000
DSTYLE
1002
{
1070
     5
1000
OPEN30
1070
    41
1040
6.0
1070
    47
1040
0.1
1070
    48
1040
0.1
1070
    73
1070
     0
1070
   140
1040
8.0
1070
   271
1070
     1
1070
   272
1070
     1
1070
   341
1005
2AF4
1002
}
  0
DIMENSION
  5
4FA5
330
1A
100
AcDbEntity
  8
寸法線
 48
10.0
100
AcDbDimension
  2
*D70
 10
262.95381907805
 20
321.033844373484
 30
0.0
 11
212.95381907805
 21
321.163431479462
 31
0.0
 70
    32
  1
 
  3
ISO-25
100
AcDbAlignedDimension
 13
162.95381907805
 23
404.915842855534
 33
0.0
 14
262.95381907805
 24
399.916342855534
 34
0.0
100
AcDbRotatedDimension
1001
ACAD
1000
DSTYLE
1002
{
1070
     5
1000
OPEN30
1070
    41
1040
6.0
1070
    47
1040
0.1
1070
    48
1040
0.1
1070
    73
1070
     0
1070
   140
1040
8.0
1070
   271
1070
     1
1070
   272
1070
     1
1070
   341
1005
2AF4
1002
}
  0
DIMENSION
  5
4FA6
330
1A
100
AcDbEntity
  8
寸法線
 48
10.0
100
AcDbDimension
  2
*D71
 10
262.95381907805
 20
301.033844373484
 30
0.0
 11
137.95381907805
 21
301.163431479462
 31
0.0
 70
    32
  1
 
  3
ISO-25
100
AcDbAlignedDimension
 13
12.95381907805
 23
408.665842855534
 33
0.0
 14
262.95381907805
 24
399.916342855534
 34
0.0
100
AcDbRotatedDimension
1001
ACAD
1000
DSTYLE
1002
{
1070
     5
1000
OPEN30
1070
    41
1040
6.0
1070
    47
1040
0.1
1070
    48
1040
0.1
1070
    73
1070
     0
1070
   140
1040
8.0
1070
   271
1070
     1
1070
   272
1070
     1
1070
   341
1005
2AF4
1002
}
  0
TEXT
  5
4FA7
330
1A
100
AcDbEntity
  8
寸法線
 48
10.0
100
AcDbText
 10
65.059662022796
 20
322.205309701254
 30
0.0
 40
6.0
  1
1
100
AcDbText
  0
SPLINE
  5
4FA8
330
1A
100
AcDbEntity
  8
寸法線
 48
10.0
100
AcDbSpline
210
0.0
220
0.0
230
1.0
 70
  1064
 71
     3
 72
    13
 73
     9
 74
     7
 42
0.000000001
 43
0.0000000001
 44
0.0000000001
 40
0.0
 40
0.0
 40
0.0
 40
0.0
 40
3.223685095176967
 40
8.435450993908002
 40
12.63609189519606
 40
15.54126966359024
 40
17.08609505184027
 40
18.20640635868928
 40
18.20640635868928
 40
18.20640635868928
 40
18.20640635868928
 10
58.97363151798191
 20
322.1563997296292
 30
0.0
 10
59.93229358078038
 20
322.5992440334512
 30
0.0
 10
62.44083477252212
 20
323.7580394221232
 30
0.0
 10
63.04532286921324
 20
331.8475456701399
 30
0.0
 10
59.46959285180711
 20
326.0292849211019
 30
0.0
 10
59.62617121199025
 20
323.0756325951305
 30
0.0
 10
61.51006366439862
 20
321.9185243434852
 30
0.0
 10
62.34334009915864
 20
322.3353580560938
 30
0.0
 10
62.69361444467688
 20
322.5105774068198
 30
0.0
 11
58.97363151798191
 21
322.1563997296292
 31
0.0
 11
61.54219100248082
 21
324.1043852961715
 31
0.0
 11
62.11790272357871
 21
329.2842559313675
 31
0.0
 11
59.85934236007114
 21
325.7424641438726
 31
0.0
 11
60.25791234776432
 21
322.8647567524093
 31
0.0
 11
61.63076186918317
 21
322.1563997296292
 31
0.0
 11
62.69361444467688
 21
322.5105774068198
 31
0.0
  0
TEXT
  5
4FA9
330
1A
100
AcDbEntity
  8
寸法線
 48
10.0
100
AcDbText
 10
140.062424970246
 20
322.205309701254
 30
0.0
 40
6.0
  1
2
100
AcDbText
  0
SPLINE
  5
4FAA
330
1A
100
AcDbEntity
  8
寸法線
 48
10.0
100
AcDbSpline
210
0.0
220
0.0
230
1.0
 70
  1064
 71
     3
 72
    13
 73
     9
 74
     7
 42
0.000000001
 43
0.0000000001
 44
0.0000000001
 40
0.0
 40
0.0
 40
0.0
 40
0.0
 40
3.223685095176967
 40
8.435450993908002
 40
12.63609189519606
 40
15.54126966359024
 40
17.08609505184027
 40
18.20640635868928
 40
18.20640635868928
 40
18.20640635868928
 40
18.20640635868928
 10
133.9763944654315
 20
322.1563997296292
 30
0.0
 10
134.9350565282299
 20
322.5992440334512
 30
0.0
 10
137.4435977199717
 20
323.7580394221232
 30
0.0
 10
138.0480858166628
 20
331.8475456701399
 30
0.0
 10
134.4723557992567
 20
326.0292849211019
 30
0.0
 10
134.6289341594398
 20
323.0756325951305
 30
0.0
 10
136.5128266118482
 20
321.9185243434852
 30
0.0
 10
137.3461030466082
 20
322.3353580560938
 30
0.0
 10
137.6963773921265
 20
322.5105774068198
 30
0.0
 11
133.9763944654315
 21
322.1563997296292
 31
0.0
 11
136.5449539499304
 21
324.1043852961715
 31
0.0
 11
137.1206656710283
 21
329.2842559313675
 31
0.0
 11
134.8621053075207
 21
325.7424641438726
 31
0.0
 11
135.2606752952139
 21
322.8647567524093
 31
0.0
 11
136.6335248166328
 21
322.1563997296292
 31
0.0
 11
137.6963773921265
 21
322.5105774068198
 31
0.0
  0
SPLINE
  5
4FAB
330
1A
100
AcDbEntity
  8
寸法線
 48
10.0
100
AcDbSpline
210
0.0
220
0.0
230
1.0
 70
  1064
 71
     3
 72
    13
 73
     9
 74
     7
 42
0.000000001
 43
0.0000000001
 44
0.0000000001
 40
0.0
 40
0.0
 40
0.0
 40
0.0
 40
3.223685095176967
 40
8.435450993908002
 40
12.63609189519606
 40
15.54126966359024
 40
17.08609505184027
 40
18.20640635868928
 40
18.20640635868928
 40
18.20640635868928
 40
18.20640635868928
 10
208.179938508562
 20
322.1563997296292
 30
0.0
 10
209.1386005713604
 20
322.5992440334512
 30
0.0
 10
211.6471417631022
 20
323.7580394221232
 30
0.0
 10
212.2516298597933
 20
331.8475456701399
 30
0.0
 10
208.6758998423872
 20
326.0292849211019
 30
0.0
 10
208.8324782025703
 20
323.0756325951305
 30
0.0
 10
210.7163706549787
 20
321.9185243434852
 30
0.0
 10
211.5496470897387
 20
322.3353580560938
 30
0.0
 10
211.8999214352569
 20
322.5105774068198
 30
0.0
 11
208.179938508562
 21
322.1563997296292
 31
0.0
 11
210.7484979930609
 21
324.1043852961715
 31
0.0
 11
211.3242097141588
 21
329.2842559313675
 31
0.0
 11
209.0656493506512
 21
325.7424641438726
 31
0.0
 11
209.4642193383444
 21
322.8647567524093
 31
0.0
 11
210.8370688597632
 21
322.1563997296292
 31
0.0
 11
211.8999214352569
 21
322.5105774068198
 31
0.0
  0
TEXT
  5
4FAC
330
1A
100
AcDbEntity
  8
寸法線
 48
10.0
100
AcDbText
 10
214.265969013377
 20
322.205309701254
 30
0.0
 40
6.0
  1
3
100
AcDbText
  0
SPLINE
  5
4FAD
330
1A
100
AcDbEntity
  8
寸法線
 48
10.0
100
AcDbSpline
210
0.0
220
0.0
230
1.0
 70
  1064
 71
     3
 72
    13
 73
     9
 74
     7
 42
0.000000001
 43
0.0000000001
 44
0.0000000001
 40
0.0
 40
0.0
 40
0.0
 40
0.0
 40
3.223685095176967
 40
8.435450993908116
 40
12.63609189519624
 40
15.54126966359041
 40
17.08609505184049
 40
18.20640635868945
 40
18.20640635868945
 40
18.20640635868945
 40
18.20640635868945
 10
136.662620049713
 20
302.4756355333151
 30
0.0
 10
137.6212821125114
 20
302.9184798371371
 30
0.0
 10
140.1298233042532
 20
304.0772752258091
 30
0.0
 10
140.7343114009443
 20
312.1667814738259
 30
0.0
 10
137.1585813835383
 20
306.3485207247876
 30
0.0
 10
137.3151597437213
 20
303.3948683988164
 30
0.0
 10
139.1990521961297
 20
302.237760147171
 30
0.0
 10
140.0323286308898
 20
302.6545938597798
 30
0.0
 10
140.382602976408
 20
302.8298132105057
 30
0.0
 11
136.662620049713
 21
302.4756355333151
 31
0.0
 11
139.2311795342119
 21
304.4236210998573
 31
0.0
 11
139.8068912553098
 21
309.6034917350535
 31
0.0
 11
137.5483308918023
 21
306.0616999475584
 31
0.0
 11
137.9469008794954
 21
303.1839925560952
 31
0.0
 11
139.3197504009143
 21
302.4756355333151
 31
0.0
 11
140.382602976408
 21
302.8298132105057
 31
0.0
  0
LINE
  5
4FB0
330
1A
100
AcDbEntity
  8
寸法線
100
AcDbLine
 10
13.531168377248
 20
175.223084888948
 30
0.0
 11
585.26896808987
 21
175.223084888948
 31
0.0
  0
LINE
  5
4FB2
330
1A
100
AcDbEntity
  8
寸法線
100
AcDbLine
 10
13.531168377248
 20
266.591467641986
 30
0.0
 11
585.26896808987
 21
266.591467641986
 31
0.0
  0
LINE
  5
4FB3
330
1A
100
AcDbEntity
  8
寸法線
100
AcDbLine
 10
13.531168377248
 20
280.661467641986
 30
0.0
 11
585.26896808987
 21
280.661467641986
 31
0.0
  0
LINE
  5
4FB4
330
1A
100
AcDbEntity
  8
寸法線
100
AcDbLine
 10
13.531168377248
 20
162.170458781371
 30
0.0
 11
13.531168377248
 21
280.661467641986
 31
0.0
  0
LINE
  5
4FB6
330
1A
100
AcDbEntity
  8
寸法線
100
AcDbLine
 10
13.531168377248
 20
240.486215426833
 30
0.0
 11
585.26896808987
 21
240.486215426833
 31
0.0
  0
LINE
  5
4FB7
330
1A
100
AcDbEntity
  8
寸法線
100
AcDbLine
 10
13.531168377248
 20
227.433589319257
 30
0.0
 11
585.26896808987
 21
227.433589319257
 31
0.0
  0
LINE
  5
4FB8
330
1A
100
AcDbEntity
  8
寸法線
100
AcDbLine
 10
13.531168377248
 20
214.38096321168
 30
0.0
 11
585.26896808987
 21
214.38096321168
 31
0.0
  0
LINE
  5
4FB9
330
1A
100
AcDbEntity
  8
寸法線
100
AcDbLine
 10
13.531168377248
 20
201.328337104102
 30
0.0
 11
585.26896808987
 21
201.328337104102
 31
0.0
  0
LINE
  5
4FBA
330
1A
100
AcDbEntity
  8
寸法線
100
AcDbLine
 10
13.531168377248
 20
188.275710996525
 30
0.0
 11
585.26896808987
 21
188.275710996525
 31
0.0
  0
LINE
  5
4FBC
330
1A
100
AcDbEntity
  8
寸法線
100
AcDbLine
 10
13.531168377248
 20
253.53884153441
 30
0.0
 11
585.26896808987
 21
253.53884153441
 31
0.0
  0
MTEXT
  5
4FBD
102
{ACAD_XDICTIONARY
360
4FBE
102
}
330
1A
100
AcDbEntity
  8
寸法線
 48
10.0
100
AcDbMText
 10
84.980002776066
 20
277.804686610592
 30
0.0
 40
8.0
 41
78.897728797637
 71
     2
 72
     5
  1
\PTSS-B1SA-025\PTSS-B1SA-030\PTSS-B1SA-035\PTSS-B1SA-040\PTSS-B1SA-045\PTSS-B1SA-050\PTSS-B1SA-055\PTSS-B1SA-060
1001
ACADANNOTATIVE
1000
AnnotativeData
1002
{
1070
     1
1070
     0
1002
}
1001
ACAD
1000
MTEXTBEGIN
1070
    44
1040
0.99
1000
MTEXTEND
  0
MTEXT
  5
4FD2
102
{ACAD_XDICTIONARY
360
4FD3
102
}
330
1A
100
AcDbEntity
  8
寸法線
 48
10.0
100
AcDbMText
 10
372.116152656716
 20
277.804686610592
 30
0.0
 40
8.0
 41
78.897728797637
 71
     2
 72
     5
  1
\PTSS-B1SA-065\PTSS-B1SA-070\PTSS-B1SA-075\PTSS-B1SA-080\PTSS-B1SA-085\PTSS-B1SA-090\PTSS-B1SA-095\PTSS-B1SA-100
1001
ACADANNOTATIVE
1000
AnnotativeData
1002
{
1070
     1
1070
     0
1002
}
1001
ACAD
1000
MTEXTBEGIN
1070
    44
1040
0.99
1000
MTEXTEND
  0
LINE
  5
4FE8
330
1A
100
AcDbEntity
  8
寸法線
100
AcDbLine
 10
13.531168377248
 20
162.170458781371
 30
0.0
 11
585.26896808987
 21
162.170458781371
 31
0.0
  0
MTEXT
  5
4FE9
102
{ACAD_XDICTIONARY
360
4FEA
102
}
330
1A
100
AcDbEntity
  8
寸法線
 48
10.0
100
AcDbMText
 10
137.21773091443
 20
263.85278675003
 30
0.0
 40
8.0
 41
23.854899029718
 71
     2
 72
     5
  1
250\P300\P350\P400\P450\P500\P550\P600
1001
ACADANNOTATIVE
1000
AnnotativeData
1002
{
1070
     1
1070
     0
1002
}
1001
ACAD
1000
MTEXTBEGIN
1070
    44
1040
0.98
1000
MTEXTEND
  0
MTEXT
  5
4FED
102
{ACAD_XDICTIONARY
360
4FEE
102
}
330
1A
100
AcDbEntity
  8
寸法線
 48
10.0
100
AcDbMText
 10
163.435506145672
 20
263.85278675003
 30
0.0
 40
8.0
 41
23.854899029718
 71
     2
 72
     5
  1
100\P100\P100\P100\P100\P100\P150\P150
1001
ACADANNOTATIVE
1000
AnnotativeData
1002
{
1070
     1
1070
     0
1002
}
1001
ACAD
1000
MTEXTBEGIN
1070
    44
1040
0.98
1000
MTEXTEND
  0
MTEXT
  5
4FF1
102
{ACAD_XDICTIONARY
360
4FF2
102
}
330
1A
100
AcDbEntity
  8
寸法線
 48
10.0
100
AcDbMText
 10
189.417827690441
 20
263.85278675003
 30
0.0
 40
8.0
 41
23.854899029718
 71
     2
 72
     5
  1
50\P50\P50\P50\P50\P50\P50\P50
1001
ACADANNOTATIVE
1000
AnnotativeData
1002
{
1070
     1
1070
     0
1002
}
1001
ACAD
1000
MTEXTBEGIN
1070
    44
1040
0.98
1000
MTEXTEND
  0
MTEXT
  5
4FF5
102
{ACAD_XDICTIONARY
360
4FF6
102
}
330
1A
100
AcDbEntity
  8
寸法線
 48
10.0
100
AcDbMText
 10
214.517985969854
 20
263.85278675003
 30
0.0
 40
8.0
 41
23.854899029718
 71
     2
 72
     5
  1
100\P150\P200\P250\P300\P350\P350\P400
1001
ACADANNOTATIVE
1000
AnnotativeData
1002
{
1070
     1
1070
     0
1002
}
1001
ACAD
1000
MTEXTBEGIN
1070
    44
1040
0.98
1000
MTEXTEND
  0
MTEXT
  5
4FF9
102
{ACAD_XDICTIONARY
360
4FFA
102
}
330
1A
100
AcDbEntity
  8
寸法線
 48
10.0
100
AcDbMText
 10
452.785604573795
 20
263.85278675003
 30
0.0
 40
8.0
 41
23.854899029718
 71
     2
 72
     5
  1
150\P150\P150\P150\P150\P150\P150\P150
1001
ACADANNOTATIVE
1000
AnnotativeData
1002
{
1070
     1
1070
     0
1002
}
1001
ACAD
1000
MTEXTBEGIN
1070
    44
1040
0.98
1000
MTEXTEND
  0
MTEXT
  5
4FFD
102
{ACAD_XDICTIONARY
360
4FFE
102
}
330
1A
100
AcDbEntity
  8
寸法線
 48
10.0
100
AcDbMText
 10
477.56117111126
 20
263.85278675003
 30
0.0
 40
8.0
 41
23.854899029718
 71
     2
 72
     5
  1
50\P50\P50\P50\P50\P50\P50\P50
1001
ACADANNOTATIVE
1000
AnnotativeData
1002
{
1070
     1
1070
     0
1002
}
1001
ACAD
1000
MTEXTBEGIN
1070
    44
1040
0.98
1000
MTEXTEND
  0
MTEXT
  5
5001
102
{ACAD_XDICTIONARY
360
5002
102
}
330
1A
100
AcDbEntity
  8
寸法線
 48
10.0
100
AcDbMText
 10
502.017014858238
 20
263.85278675003
 30
0.0
 40
8.0
 41
23.854899029718
 71
     2
 72
     5
  1
450\P500\P550\P600\P650\P700\P750\P800
1001
ACADANNOTATIVE
1000
AnnotativeData
1002
{
1070
     1
1070
     0
1002
}
1001
ACAD
1000
MTEXTBEGIN
1070
    44
1040
0.98
1000
MTEXTEND
  0
MTEXT
  5
5005
102
{ACAD_XDICTIONARY
360
5006
102
}
330
1A
100
AcDbEntity
  8
寸法線
 48
10.0
100
AcDbMText
 10
426.284485182036
 20
263.85278675003
 30
0.0
 40
8.0
 41
23.854899029718
 71
     2
 72
     5
  1
650\P700\P750\P800\P850\P900\P950\P1000
1001
ACADANNOTATIVE
1000
AnnotativeData
1002
{
1070
     1
1070
     0
1002
}
1001
ACAD
1000
MTEXTBEGIN
1070
    44
1040
0.98
1000
MTEXTEND
  0
MTEXT
  5
51C9
330
1A
100
AcDbEntity
  8
寸法線
 48
10.0
100
AcDbMText
 10
5.482137628724
 20
499.538623667948
 30
0.0
 40
8.0
 41
0.0
 71
     9
 72
     1
  1
DETECTING\PELECTRODE\PSUS304
  0
MTEXT
  5
51CA
330
1A
100
AcDbEntity
  8
寸法線
 48
10.0
100
AcDbMText
 10
94.856319437635
 20
501.628617746448
 30
0.0
 40
8.0
 41
0.0
 71
     7
 72
     1
  1
SEAL\PSILICON RUBBER
  0
MTEXT
  5
51CB
330
1A
100
AcDbEntity
  8
寸法線
 48
10.0
100
AcDbMText
 10
189.413320852487
 20
499.538623667948
 30
0.0
 40
8.0
 41
0.0
 71
     7
 72
     1
  1
GROUNDING\PELECTRODE\PSUS304
  0
MTEXT
  5
51CC
330
1A
100
AcDbEntity
  8
寸法線
 48
10.0
100
AcDbMText
 10
257.021464070007
 20
499.538623667948
 30
0.0
 40
8.0
 41
0.0
 71
     7
 72
     1
  1
SETTING SCREW\PR1″\PSUS304
  0
LEADER
  5
51CD
330
1A
100
AcDbEntity
  8
寸法線
 48
10.0
100
AcDbLeader
  3
ISO-25
 76
     3
 10
33.197957854519
 20
426.415842855534
 30
0.0
 10
5.488178627593
 20
499.208759057804
 30
0.0
 10
-3.5595275028
 20
499.208759057804
 30
0.0
213
-5.684341886080801E-14
223
-0.185555775083003
233
0.0
1001
ACAD
1000
DSTYLE
1002
{
1070
     5
1000
OPEN30
1070
   147
1040
0.625
1070
    77
1070
     0
1070
    41
1040
6.0
1070
    47
1040
0.1
1070
    48
1040
0.1
1070
    73
1070
     0
1070
   140
1040
8.0
1070
   271
1070
     1
1070
   272
1070
     1
1070
   341
1005
2AF4
1070
   342
1005
2AF4
1002
}
  0
LEADER
  5
51CE
330
1A
100
AcDbEntity
  8
寸法線
 48
10.0
100
AcDbLeader
  3
ISO-25
 76
     3
 10
118.207543699544
 20
426.415842855534
 30
0.0
 10
76.192865766931
 20
499.208759057804
 30
0.0
 10
58.20774519582
 20
499.208759057804
 30
0.0
213
-5.684341886080801E-14
223
-0.185555775083003
233
0.0
1001
ACAD
1000
DSTYLE
1002
{
1070
     5
1000
OPEN30
1070
   147
1040
0.625
1070
    77
1070
     0
1070
    41
1040
6.0
1070
    47
1040
0.1
1070
    48
1040
0.1
1070
    73
1070
     0
1070
   140
1040
8.0
1070
   271
1070
     1
1070
   272
1070
     1
1070
   341
1005
2AF4
1070
   342
1005
2AF4
1002
}
  0
LEADER
  5
51CF
330
1A
100
AcDbEntity
  8
寸法線
 48
10.0
100
AcDbLeader
  3
ISO-25
 76
     3
 10
162.95381907805
 20
426.415842855534
 30
0.0
 10
169.966211417047
 20
499.208759057804
 30
0.0
 10
157.616915142001
 20
499.208759057804
 30
0.0
213
5.684341886080801E-14
223
-0.1873393093740106
233
0.0
1001
ACAD
1000
DSTYLE
1002
{
1070
     5
1000
OPEN30
1070
   147
1040
0.625
1070
    77
1070
     0
1070
    41
1040
6.0
1070
    47
1040
0.1
1070
    48
1040
0.1
1070
    73
1070
     0
1070
   140
1040
8.0
1070
   271
1070
     1
1070
   272
1070
     1
1070
   341
1005
2AF4
1070
   342
1005
2AF4
1002
}
  0
LEADER
  5
51D0
330
1A
100
AcDbEntity
  8
寸法線
 48
10.0
100
AcDbLeader
  3
ISO-25
 76
     3
 10
188.201888177737
 20
426.415842855534
 30
0.0
 10
188.201888177737
 20
499.208759057804
 30
0.0
 10
201.207971449883
 20
499.208759057804
 30
0.0
213
-5.684341886080801E-14
223
-0.1883573891461765
233
0.0
1001
ACAD
1000
DSTYLE
1002
{
1070
     5
1000
OPEN30
1070
   147
1040
0.625
1070
    77
1070
     0
1070
    41
1040
6.0
1070
    47
1040
0.1
1070
    48
1040
0.1
1070
    73
1070
     0
1070
   140
1040
8.0
1070
   271
1070
     1
1070
   272
1070
     1
1070
   341
1005
2AF4
1070
   342
1005
2AF4
1002
}
  0
LEADER
  5
51D1
330
1A
100
AcDbEntity
  8
寸法線
 48
10.0
100
AcDbLeader
  3
ISO-25
 76
     3
 10
271.804416447527
 20
431.587898052516
 30
0.0
 10
258.349702220756
 20
499.208759057805
 30
0.0
 10
271.517819841914
 20
499.208759057805
 30
0.0
1001
ACAD
1000
DSTYLE
1002
{
1070
     5
1000
OPEN30
1070
   147
1040
0.625
1070
    77
1070
     0
1070
    41
1040
6.0
1070
    47
1040
0.1
1070
    48
1040
0.1
1070
    73
1070
     0
1070
   140
1040
8.0
1070
   271
1070
     1
1070
   272
1070
     1
1070
   341
1005
2AF4
1070
   342
1005
2AF4
1002
}
  0
MTEXT
  5
51D2
330
1A
100
AcDbEntity
  8
寸法線
 48
10.0
100
AcDbMText
 10
302.285255227244
 20
500.048907716234
 30
0.0
 40
8.0
 41
0.0
 71
     7
 72
     1
  1
ALUMINUM
  0
MTEXT
  5
51D3
330
1A
100
AcDbEntity
  8
寸法線
 48
10.0
100
AcDbMText
 10
75.229166809311
 20
501.182723064314
 30
0.0
 40
8.0
 41
0.0
 71
     9
 72
     1
  1
INSULATOR\PTEFLON
  0
MTEXT
  5
51D4
330
1A
100
AcDbEntity
  8
寸法線
 48
10.0
100
AcDbMText
 10
360.425123193312
 20
500.048907716234
 30
0.0
 40
8.0
 41
0.0
 71
     7
 72
     1
  1
ALUMINUM
  0
LEADER
  5
51D5
330
1A
100
AcDbEntity
  8
寸法線
 48
10.0
100
AcDbLeader
  3
ISO-25
 76
     3
 10
323.417593586697
 20
432.01804237188
 30
0.0
 10
303.121296840802
 20
499.208759057804
 30
0.0
 10
315.559602704582
 20
499.208759057804
 30
0.0
213
0.0
223
-0.2642597883632334
233
0.0
1001
ACAD
1000
DSTYLE
1002
{
1070
     5
1000
OPEN30
1070
   147
1040
0.625
1070
    77
1070
     0
1070
    41
1040
6.0
1070
    47
1040
0.1
1070
    48
1040
0.1
1070
    73
1070
     0
1070
   140
1040
8.0
1070
   271
1070
     1
1070
   272
1070
     1
1070
   341
1005
2AF4
1070
   342
1005
2AF4
1002
}
  0
LEADER
  5
51D6
330
1A
100
AcDbEntity
  8
寸法線
 48
10.0
100
AcDbLeader
  3
ISO-25
 76
     3
 10
363.827741359699
 20
474.923078243433
 30
0.0
 10
360.53428562797
 20
499.208759057804
 30
0.0
 10
373.287230429552
 20
499.208759057804
 30
0.0
213
0.0
223
-0.2642597883632334
233
0.0
1001
ACAD
1000
DSTYLE
1002
{
1070
     5
1000
OPEN30
1070
   147
1040
0.625
1070
    77
1070
     0
1070
    41
1040
6.0
1070
    47
1040
0.1
1070
    48
1040
0.1
1070
    73
1070
     0
1070
   140
1040
8.0
1070
   271
1070
     1
1070
   272
1070
     1
1070
   341
1005
2AF4
1070
   342
1005
2AF4
1002
}
  0
MTEXT
  5
520C
102
{ACAD_XDICTIONARY
360
520D
102
}
330
1A
100
AcDbEntity
  8
寸法線
 48
10.0
100
AcDbMText
 10
458.189879507267
 20
500.10296361337
 30
0.0
 40
8.0
 41
0.0
 71
     7
 72
     1
  1
ALUMINUM\PCASTING
1001
ACADANNOTATIVE
1000
AnnotativeData
1002
{
1070
     1
1070
     0
1002
}
  0
LEADER
  5
5210
330
1A
100
AcDbEntity
  8
寸法線
 48
10.0
100
AcDbLeader
  3
ISO-25
 76
     3
 10
425.464487652072
 20
444.038623815478
 30
0.0
 10
456.1409442952
 20
499.208759057804
 30
0.0
 10
469.264949057513
 20
499.208759057804
 30
0.0
213
-5.684341886080801E-14
223
-0.08194239549834492
233
0.0
1001
ACAD
1000
DSTYLE
1002
{
1070
     5
1000
OPEN30
1070
   147
1040
0.625
1070
    77
1070
     0
1070
    41
1040
6.0
1070
    47
1040
0.1
1070
    48
1040
0.1
1070
    73
1070
     0
1070
   140
1040
8.0
1070
   271
1070
     1
1070
   272
1070
     1
1070
   341
1005
2AF4
1070
   342
1005
2AF4
1002
}
  0
TEXT
  5
5211
330
1A
100
AcDbEntity
  8
寸法線
100
AcDbText
 10
454.728115707096
 20
541.332853861768
 30
0.0
 40
8.0
  1
COLOR：10YR7.5/14
100
AcDbText
  0
MTEXT
  5
5212
330
1A
100
AcDbEntity
  8
寸法線
 48
10.0
100
AcDbMText
 10
491.316316142583
 20
339.602113799285
 30
0.0
 40
8.0
 41
0.0
 71
     7
 72
     1
  1
CONDUIT\PG 1/2"
  0
LEADER
  5
5213
330
1A
100
AcDbEntity
  8
寸法線
 48
10.0
100
AcDbLeader
  3
ISO-25
 76
     3
 10
449.690175501492
 20
367.704426102132
 30
0.0
 10
489.303475212684
 20
338.85196426086
 30
0.0
 10
527.100006024181
 20
338.85196426086
 30
0.0
1001
ACAD
1000
DSTYLE
1002
{
1070
     5
1000
OPEN30
1070
   147
1040
0.625
1070
    77
1070
     0
1070
    41
1040
6.0
1070
    47
1040
0.1
1070
    48
1040
0.1
1070
    73
1070
     0
1070
   140
1040
8.0
1070
   271
1070
     1
1070
   272
1070
     1
1070
   341
1005
2AF4
1070
   342
1005
2AF4
1002
}
  0
CIRCLE
  5
5251
330
1A
100
AcDbEntity
  8
寸法線
 48
10.0
100
AcDbCircle
 10
-69.599063949286
 20
216.167312142869
 30
0.0
 40
2.0
  0
CIRCLE
  5
5252
330
1A
100
AcDbEntity
  8
寸法線
 48
10.0
100
AcDbCircle
 10
-47.398623949286
 20
216.167312142869
 30
0.0
 40
2.0
  0
LINE
  5
5253
330
1A
100
AcDbEntity
  8
寸法線
 48
10.0
100
AcDbLine
 10
-80.999331949286
 20
202.167068142868
 30
0.0
 11
-77.999269949286
 21
197.366896142868
 31
0.0
  0
LINE
  5
5254
330
1A
100
AcDbEntity
  8
寸法線
 48
10.0
100
AcDbLine
 10
-77.999269949286
 20
197.366896142868
 30
0.0
 11
-38.998415949286
 21
197.366896142868
 31
0.0
  0
LINE
  5
5255
330
1A
100
AcDbEntity
  8
寸法線
 48
10.0
100
AcDbLine
 10
-38.998415949286
 20
197.366896142868
 30
0.0
 11
-35.998355949286
 21
202.167068142868
 31
0.0
  0
LINE
  5
5256
330
1A
100
AcDbEntity
  8
寸法線
 48
10.0
100
AcDbLine
 10
-81.797085990288
 20
234.919264142869
 30
0.0
 11
-33.692636055844
 21
234.919264142869
 31
0.0
  0
MTEXT
  5
5257
330
1A
100
AcDbEntity
  8
寸法線
 62
     1
 48
10.0
100
AcDbMText
 10
-80.133303991954
 20
245.575838766273
 30
0.0
 40
8.0
 41
55.39356842411
 71
     1
 72
     5
  1
TERMINAL
  0
MTEXT
  5
5258
330
1A
100
AcDbEntity
  8
寸法線
 62
     1
 48
10.0
100
AcDbMText
 10
-91.960418667081
 20
190.73169536625
 30
0.0
 40
8.0
 41
74.443410852713
 71
     1
 72
     5
  1
TO CONVERTER
  0
MTEXT
  5
5259
102
{ACAD_XDICTIONARY
360
525A
102
}
330
1A
100
AcDbEntity
  8
寸法線
 48
10.0
100
AcDbMText
 10
-69.599063949286
 20
211.045886173256
 30
0.0
 40
8.0
 41
5.580100571959
 71
     2
 72
     5
  1
P
1001
ACADANNOTATIVE
1000
AnnotativeData
1002
{
1070
     1
1070
     0
1002
}
  0
MTEXT
  5
525D
102
{ACAD_XDICTIONARY
360
525E
102
}
330
1A
100
AcDbEntity
  8
寸法線
 48
10.0
100
AcDbMText
 10
-47.398623949286
 20
211.045886173256
 30
0.0
 40
8.0
 41
5.580100571959
 71
     2
 72
     5
  1
E
1001
ACADANNOTATIVE
1000
AnnotativeData
1002
{
1070
     1
1070
     0
1002
}
  0
LINE
  5
52A7
330
1A
100
AcDbEntity
  8
寸法線
 48
10.0
100
AcDbLine
 10
13.531168377248
 20
266.591467641987
 30
0.0
 11
45.531138377248
 21
280.661467641986
 31
0.0
  0
TEXT
  5
5374
330
1A
100
AcDbEntity
  8
寸法線
 48
10.0
100
AcDbText
 10
74.946907118971
 20
144.345357276226
 30
0.0
 40
8.0
  1
○（Required length）
100
AcDbText
  0
LEADER
  5
5375
330
1A
100
AcDbEntity
  8
寸法線
 48
10.0
100
AcDbLeader
  3
ISO-25
 76
     3
 10
29.823485531831
 20
160.840158906221
 30
0.0
 10
29.823485531831
 20
148.098625344171
 30
0.0
 10
71.171622956842
 20
148.098625344171
 30
0.0
1001
ACAD
1000
DSTYLE
1002
{
1070
     5
1000
OPEN30
1070
   147
1040
0.625
1070
    77
1070
     0
1070
    41
1040
6.0
1070
    47
1040
0.1
1070
    48
1040
0.1
1070
    73
1070
     0
1070
   140
1040
8.0
1070
   271
1070
     1
1070
   272
1070
     1
1070
   341
1005
2AF4
1070
   342
1005
2AF4
1002
}
  0
TEXT
  5
5376
330
1A
100
AcDbEntity
  8
寸法線
 48
10.0
100
AcDbText
 10
361.587193182354
 20
145.675657151377
 30
0.0
 40
8.0
  1
○（Required length）
100
AcDbText
  0
LEADER
  5
5377
330
1A
100
AcDbEntity
  8
寸法線
 48
10.0
100
AcDbLeader
  3
ISO-25
 76
     3
 10
316.463771595214
 20
162.170458781371
 30
0.0
 10
316.463771595214
 20
149.428925219322
 30
0.0
 10
357.811909020225
 20
149.428925219322
 30
0.0
1001
ACAD
1000
DSTYLE
1002
{
1070
     5
1000
OPEN30
1070
   147
1040
0.625
1070
    77
1070
     0
1070
    41
1040
6.0
1070
    47
1040
0.1
1070
    48
1040
0.1
1070
    73
1070
     0
1070
   140
1040
8.0
1070
   271
1070
     1
1070
   272
1070
     1
1070
   341
1005
2AF4
1070
   342
1005
2AF4
1002
}
  0
LINE
  5
55BA
330
1A
100
AcDbEntity
  8
寸法線
100
AcDbLine
 10
45.531138377248
 20
162.170458781371
 30
0.0
 11
45.531138377248
 21
280.661467641986
 31
0.0
  0
LINE
  5
55BB
330
1A
100
AcDbEntity
  8
寸法線
100
AcDbLine
 10
266.376499644932
 20
162.170458781371
 30
0.0
 11
266.376499644932
 21
280.661467641986
 31
0.0
  0
LINE
  5
55BC
330
1A
100
AcDbEntity
  8
寸法線
100
AcDbLine
 10
298.132818209221
 20
162.170458781371
 30
0.0
 11
298.132818209221
 21
280.661467641986
 31
0.0
  0
LINE
  5
55BD
330
1A
100
AcDbEntity
  8
寸法線
 48
10.0
100
AcDbLine
 10
124.428867174885
 20
280.661467641986
 30
0.0
 11
124.428867174885
 21
162.170458781371
 31
0.0
  0
LINE
  5
55BE
330
1A
100
AcDbEntity
  8
寸法線
 48
10.0
100
AcDbLine
 10
152.063001134615
 20
280.661467641986
 30
0.0
 11
152.063001134615
 21
162.170458781371
 31
0.0
  0
LINE
  5
55BF
330
1A
100
AcDbEntity
  8
寸法線
 48
10.0
100
AcDbLine
 10
177.913576252127
 20
280.661467641986
 30
0.0
 11
177.913576252127
 21
162.170458781371
 31
0.0
  0
LINE
  5
55C0
330
1A
100
AcDbEntity
  8
寸法線
 48
10.0
100
AcDbLine
 10
201.98059252742
 20
280.661467641986
 30
0.0
 11
201.98059252742
 21
162.170458781371
 31
0.0
  0
LINE
  5
55C1
330
1A
100
AcDbEntity
  8
寸法線
 48
10.0
100
AcDbLine
 10
227.831167644932
 20
280.661467641986
 30
0.0
 11
227.831167644932
 21
162.170458781371
 31
0.0
  0
LINE
  5
55C2
330
1A
100
AcDbEntity
  8
寸法線
100
AcDbLine
 10
300.667318257897
 20
162.170458781371
 30
0.0
 11
300.667318257897
 21
280.661467641986
 31
0.0
  0
SPLINE
  5
55C3
330
1A
100
AcDbEntity
  8
寸法線
 48
10.0
100
AcDbSpline
210
0.0
220
0.0
230
1.0
 70
  1064
 71
     3
 72
    13
 73
     9
 74
     7
 42
0.000000001
 43
0.0000000001
 44
0.0000000001
 40
0.0
 40
0.0
 40
0.0
 40
0.0
 40
3.546053604694653
 40
9.27899609329893
 40
13.89970108471585
 40
17.09539662994942
 40
18.79470455702453
 40
20.0270469945584
 40
20.0270469945584
 40
20.0270469945584
 40
20.0270469945584
 10
135.5754822561342
 20
269.7802433339732
 30
0.0
 10
136.6300105252125
 20
270.2673720681774
 30
0.0
 10
139.3894058361284
 20
271.5420469957165
 30
0.0
 10
140.0543427424887
 20
280.4405038685352
 30
0.0
 10
136.1210397233421
 20
274.0404170445929
 30
0.0
 10
136.2932759195434
 20
270.7913994860246
 30
0.0
 10
138.3655576171926
 20
269.5185804092147
 30
0.0
 10
139.2821616954287
 20
269.9770974930843
 30
0.0
 10
139.6674634754987
 20
270.1698387788829
 30
0.0
 11
135.5754822561342
 21
269.7802433339732
 31
0.0
 11
138.400897689083
 21
271.9230274571697
 31
0.0
 11
139.0341805822907
 21
277.6208851558854
 31
0.0
 11
136.5497641824325
 21
273.7249141896409
 31
0.0
 11
136.9881911688949
 21
270.5594360590313
 31
0.0
 11
138.4983256424557
 21
269.7802433339732
 31
0.0
 11
139.6674634754987
 21
270.1698387788829
 31
0.0
  0
SPLINE
  5
55C4
330
1A
100
AcDbEntity
  8
寸法線
 48
10.0
100
AcDbSpline
210
0.0
220
0.0
230
1.0
 70
  1064
 71
     3
 72
    13
 73
     9
 74
     7
 42
0.000000001
 43
0.0000000001
 44
0.0000000001
 40
0.0
 40
0.0
 40
0.0
 40
0.0
 40
3.546053604694653
 40
9.27899609329893
 40
13.89970108471585
 40
17.09539662994942
 40
18.79470455702453
 40
20.0270469945584
 40
20.0270469945584
 40
20.0270469945584
 40
20.0270469945584
 10
161.5979342025724
 20
269.7802433339732
 30
0.0
 10
162.6524624716507
 20
270.2673720681774
 30
0.0
 10
165.4118577825666
 20
271.5420469957165
 30
0.0
 10
166.0767946889268
 20
280.4405038685352
 30
0.0
 10
162.1434916697802
 20
274.0404170445929
 30
0.0
 10
162.3157278659816
 20
270.7913994860246
 30
0.0
 10
164.3880095636308
 20
269.5185804092147
 30
0.0
 10
165.3046136418668
 20
269.9770974930843
 30
0.0
 10
165.6899154219369
 20
270.1698387788829
 30
0.0
 11
161.5979342025724
 21
269.7802433339732
 31
0.0
 11
164.4233496355212
 21
271.9230274571697
 31
0.0
 11
165.0566325287289
 21
277.6208851558854
 31
0.0
 11
162.5722161288707
 21
273.7249141896409
 31
0.0
 11
163.0106431153331
 21
270.5594360590313
 31
0.0
 11
164.5207775888939
 21
269.7802433339732
 31
0.0
 11
165.6899154219369
 21
270.1698387788829
 31
0.0
  0
TEXT
  5
55C5
330
1A
100
AcDbEntity
  8
寸法線
 48
10.0
100
AcDbText
 10
168.055963000056
 20
269.864571073317
 30
0.0
 40
5.2
  1
1
100
AcDbText
  0
SPLINE
  5
55C6
330
1A
100
AcDbEntity
  8
寸法線
 48
10.0
100
AcDbSpline
210
0.0
220
0.0
230
1.0
 70
  1064
 71
     3
 72
    13
 73
     9
 74
     7
 42
0.000000001
 43
0.0000000001
 44
0.0000000001
 40
0.0
 40
0.0
 40
0.0
 40
0.0
 40
3.546053604694698
 40
9.27899609329897
 40
13.89970108471589
 40
17.09539662994946
 40
18.79470455702457
 40
20.02704699455844
 40
20.02704699455844
 40
20.02704699455844
 40
20.02704699455844
 10
185.664950477866
 20
269.7802433339732
 30
0.0
 10
186.7194787469443
 20
270.2673720681774
 30
0.0
 10
189.4788740578603
 20
271.5420469957166
 30
0.0
 10
190.1438109642204
 20
280.4405038685351
 30
0.0
 10
186.2105079450738
 20
274.0404170445929
 30
0.0
 10
186.3827441412752
 20
270.7913994860246
 30
0.0
 10
188.4550258389244
 20
269.5185804092147
 30
0.0
 10
189.3716299171604
 20
269.9770974930843
 30
0.0
 10
189.7569316972304
 20
270.1698387788829
 30
0.0
 11
185.664950477866
 21
269.7802433339732
 31
0.0
 11
188.4903659108148
 21
271.9230274571697
 31
0.0
 11
189.1236488040225
 21
277.6208851558854
 31
0.0
 11
186.6392324041642
 21
273.7249141896409
 31
0.0
 11
187.0776593906266
 21
270.5594360590313
 31
0.0
 11
188.5877938641874
 21
269.7802433339732
 31
0.0
 11
189.7569316972304
 21
270.1698387788829
 31
0.0
  0
TEXT
  5
55C7
330
1A
100
AcDbEntity
  8
寸法線
 48
10.0
100
AcDbText
 10
192.12297927535
 20
269.864571073317
 30
0.0
 40
5.2
  1
2
100
AcDbText
  0
TEXT
  5
55C8
330
1A
100
AcDbEntity
  8
寸法線
 48
10.0
100
AcDbText
 10
217.973554392862
 20
269.864571073317
 30
0.0
 40
5.2
  1
3
100
AcDbText
  0
SPLINE
  5
55C9
330
1A
100
AcDbEntity
  8
寸法線
 48
10.0
100
AcDbSpline
210
0.0
220
0.0
230
1.0
 70
  1064
 71
     3
 72
    13
 73
     9
 74
     7
 42
0.000000001
 43
0.0000000001
 44
0.0000000001
 40
0.0
 40
0.0
 40
0.0
 40
0.0
 40
3.546053604694698
 40
9.27899609329897
 40
13.89970108471593
 40
17.09539662994951
 40
18.79470455702461
 40
20.02704699455848
 40
20.02704699455848
 40
20.02704699455848
 40
20.02704699455848
 10
211.5155255953779
 20
269.7802433339732
 30
0.0
 10
212.5700538644562
 20
270.2673720681774
 30
0.0
 10
215.3294491753721
 20
271.5420469957165
 30
0.0
 10
215.9943860817322
 20
280.4405038685351
 30
0.0
 10
212.0610830625857
 20
274.0404170445931
 30
0.0
 10
212.233319258787
 20
270.7913994860245
 30
0.0
 10
214.3056009564363
 20
269.5185804092146
 30
0.0
 10
215.2222050346723
 20
269.9770974930843
 30
0.0
 10
215.6075068147423
 20
270.1698387788829
 30
0.0
 11
211.5155255953779
 21
269.7802433339732
 31
0.0
 11
214.3409410283267
 21
271.9230274571697
 31
0.0
 11
214.9742239215343
 21
277.6208851558854
 31
0.0
 11
212.4898075216761
 21
273.7249141896409
 31
0.0
 11
212.9282345081385
 21
270.5594360590313
 31
0.0
 11
214.4383689816993
 21
269.7802433339732
 31
0.0
 11
215.6075068147423
 21
270.1698387788829
 31
0.0
  0
MTEXT
  5
55CA
102
{ACAD_XDICTIONARY
360
55CB
102
}
330
1A
100
AcDbEntity
  8
寸法線
 48
10.0
100
AcDbMText
 10
82.026526720078
 20
277.804686610592
 30
0.0
 40
8.0
 41
72.990776685661
 71
     2
 72
     5
  1
MODEL
1001
ACADANNOTATIVE
1000
AnnotativeData
1002
{
1070
     1
1070
     0
1002
}
1001
ACAD
1000
MTEXTBEGIN
1070
    44
1040
0.99
1000
MTEXTEND
  0
MTEXT
  5
55CE
102
{ACAD_XDICTIONARY
360
55CF
102
}
330
1A
100
AcDbEntity
  8
寸法線
 48
10.0
100
AcDbMText
 10
281.974882272676
 20
277.972164976338
 30
0.0
 40
8.0
 41
31.756318564289
 71
     2
 72
     5
  1
Q'ty
1001
ACADANNOTATIVE
1000
AnnotativeData
1002
{
1070
     1
1070
     0
1002
}
  0
MTEXT
  5
55D2
102
{ACAD_XDICTIONARY
360
55D3
102
}
330
1A
100
AcDbEntity
  8
寸法線
 48
10.0
100
AcDbMText
 10
246.824056990531
 20
276.916434116498
 30
0.0
 40
8.0
 41
38.545332
 71
     2
 72
     5
  1
NOTE
1001
ACADANNOTATIVE
1000
AnnotativeData
1002
{
1070
     1
1070
     0
1002
}
  0
LINE
  5
55D6
330
1A
100
AcDbEntity
  8
寸法線
100
AcDbLine
 10
332.667288257897
 20
162.170458781371
 30
0.0
 11
332.667288257897
 21
280.661467641986
 31
0.0
  0
LINE
  5
55D7
330
1A
100
AcDbEntity
  8
寸法線
100
AcDbLine
 10
300.667318257897
 20
162.170458781371
 30
0.0
 11
300.667318257897
 21
280.661467641986
 31
0.0
  0
LINE
  5
55D8
330
1A
100
AcDbEntity
  8
寸法線
100
AcDbLine
 10
553.512649525582
 20
162.170458781371
 30
0.0
 11
553.512649525582
 21
280.661467641986
 31
0.0
  0
LINE
  5
55D9
330
1A
100
AcDbEntity
  8
寸法線
100
AcDbLine
 10
585.26896808987
 20
162.170458781371
 30
0.0
 11
585.268968089871
 21
280.661467641986
 31
0.0
  0
LINE
  5
55DA
330
1A
100
AcDbEntity
  8
寸法線
 48
10.0
100
AcDbLine
 10
411.565017055534
 20
280.661467641986
 30
0.0
 11
411.565017055534
 21
162.170458781371
 31
0.0
  0
LINE
  5
55DB
330
1A
100
AcDbEntity
  8
寸法線
 48
10.0
100
AcDbLine
 10
439.199151015264
 20
280.661467641986
 30
0.0
 11
439.199151015264
 21
162.170458781371
 31
0.0
  0
LINE
  5
55DC
330
1A
100
AcDbEntity
  8
寸法線
 48
10.0
100
AcDbLine
 10
465.049726132776
 20
280.661467641986
 30
0.0
 11
465.049726132776
 21
162.170458781371
 31
0.0
  0
LINE
  5
55DD
330
1A
100
AcDbEntity
  8
寸法線
 48
10.0
100
AcDbLine
 10
489.11674240807
 20
280.661467641986
 30
0.0
 11
489.11674240807
 21
162.170458781371
 31
0.0
  0
LINE
  5
55DE
330
1A
100
AcDbEntity
  8
寸法線
 48
10.0
100
AcDbLine
 10
514.967317525582
 20
280.661467641986
 30
0.0
 11
514.967317525582
 21
162.170458781371
 31
0.0
  0
SPLINE
  5
55DF
330
1A
100
AcDbEntity
  8
寸法線
 48
10.0
100
AcDbSpline
210
0.0
220
0.0
230
1.0
 70
  1064
 71
     3
 72
    13
 73
     9
 74
     7
 42
0.000000001
 43
0.0000000001
 44
0.0000000001
 40
0.0
 40
0.0
 40
0.0
 40
0.0
 40
3.546053604694607
 40
9.278996093298884
 40
13.89970108471581
 40
17.09539662994939
 40
18.79470455702449
 40
20.02704699455836
 40
20.02704699455836
 40
20.02704699455836
 40
20.02704699455836
 10
422.7116321367838
 20
269.7802433339732
 30
0.0
 10
423.7661604058621
 20
270.2673720681775
 30
0.0
 10
426.5255557167783
 20
271.5420469957168
 30
0.0
 10
427.1904926231379
 20
280.4405038685351
 30
0.0
 10
423.2571896039919
 20
274.0404170445931
 30
0.0
 10
423.4294258001928
 20
270.7913994860246
 30
0.0
 10
425.5017074978422
 20
269.5185804092146
 30
0.0
 10
426.4183115760782
 20
269.9770974930843
 30
0.0
 10
426.8036133561483
 20
270.1698387788829
 30
0.0
 11
422.7116321367838
 21
269.7802433339732
 31
0.0
 11
425.5370475697325
 21
271.9230274571697
 31
0.0
 11
426.1703304629402
 21
277.6208851558854
 31
0.0
 11
423.685914063082
 21
273.7249141896409
 31
0.0
 11
424.1243410495445
 21
270.5594360590313
 31
0.0
 11
425.6344755231053
 21
269.7802433339732
 31
0.0
 11
426.8036133561483
 21
270.1698387788829
 31
0.0
  0
SPLINE
  5
55E0
330
1A
100
AcDbEntity
  8
寸法線
 48
10.0
100
AcDbSpline
210
0.0
220
0.0
230
1.0
 70
  1064
 71
     3
 72
    13
 73
     9
 74
     7
 42
0.000000001
 43
0.0000000001
 44
0.0000000001
 40
0.0
 40
0.0
 40
0.0
 40
0.0
 40
3.546053604694607
 40
9.278996093298884
 40
13.89970108471581
 40
17.09539662994939
 40
18.79470455702449
 40
20.02704699455836
 40
20.02704699455836
 40
20.02704699455836
 40
20.02704699455836
 10
448.734084083222
 20
269.7802433339732
 30
0.0
 10
449.7886123523003
 20
270.2673720681775
 30
0.0
 10
452.5480076632165
 20
271.5420469957168
 30
0.0
 10
453.2129445695761
 20
280.4405038685351
 30
0.0
 10
449.27964155043
 20
274.0404170445931
 30
0.0
 10
449.4518777466311
 20
270.7913994860246
 30
0.0
 10
451.5241594442803
 20
269.5185804092146
 30
0.0
 10
452.4407635225164
 20
269.9770974930843
 30
0.0
 10
452.8260653025865
 20
270.1698387788829
 30
0.0
 11
448.734084083222
 21
269.7802433339732
 31
0.0
 11
451.5594995161707
 21
271.9230274571697
 31
0.0
 11
452.1927824093784
 21
277.6208851558854
 31
0.0
 11
449.7083660095202
 21
273.7249141896409
 31
0.0
 11
450.1467929959827
 21
270.5594360590313
 31
0.0
 11
451.6569274695435
 21
269.7802433339732
 31
0.0
 11
452.8260653025865
 21
270.1698387788829
 31
0.0
  0
TEXT
  5
55E1
330
1A
100
AcDbEntity
  8
寸法線
 48
10.0
100
AcDbText
 10
455.192112880706
 20
269.864571073317
 30
0.0
 40
5.2
  1
1
100
AcDbText
  0
SPLINE
  5
55E2
330
1A
100
AcDbEntity
  8
寸法線
 48
10.0
100
AcDbSpline
210
0.0
220
0.0
230
1.0
 70
  1064
 71
     3
 72
    13
 73
     9
 74
     7
 42
0.000000001
 43
0.0000000001
 44
0.0000000001
 40
0.0
 40
0.0
 40
0.0
 40
0.0
 40
3.546053604694698
 40
9.278996093298963
 40
13.89970108471589
 40
17.09539662994947
 40
18.79470455702457
 40
20.02704699455844
 40
20.02704699455844
 40
20.02704699455844
 40
20.02704699455844
 10
472.8011003585156
 20
269.7802433339732
 30
0.0
 10
473.8556286275939
 20
270.2673720681773
 30
0.0
 10
476.6150239385098
 20
271.5420469957165
 30
0.0
 10
477.2799608448699
 20
280.4405038685352
 30
0.0
 10
473.3466578257236
 20
274.0404170445931
 30
0.0
 10
473.5188940219246
 20
270.7913994860246
 30
0.0
 10
475.5911757195739
 20
269.5185804092146
 30
0.0
 10
476.50777979781
 20
269.9770974930843
 30
0.0
 10
476.89308157788
 20
270.1698387788829
 30
0.0
 11
472.8011003585156
 21
269.7802433339732
 31
0.0
 11
475.6265157914644
 21
271.9230274571697
 31
0.0
 11
476.259798684672
 21
277.6208851558854
 31
0.0
 11
473.7753822848138
 21
273.7249141896409
 31
0.0
 11
474.2138092712762
 21
270.5594360590313
 31
0.0
 11
475.723943744837
 21
269.7802433339732
 31
0.0
 11
476.89308157788
 21
270.1698387788829
 31
0.0
  0
TEXT
  5
55E3
330
1A
100
AcDbEntity
  8
寸法線
 48
10.0
100
AcDbText
 10
479.259129156
 20
269.864571073317
 30
0.0
 40
5.2
  1
2
100
AcDbText
  0
TEXT
  5
55E4
330
1A
100
AcDbEntity
  8
寸法線
 48
10.0
100
AcDbText
 10
505.109704273512
 20
269.864571073317
 30
0.0
 40
5.2
  1
3
100
AcDbText
  0
SPLINE
  5
55E5
330
1A
100
AcDbEntity
  8
寸法線
 48
10.0
100
AcDbSpline
210
0.0
220
0.0
230
1.0
 70
  1064
 71
     3
 72
    13
 73
     9
 74
     7
 42
0.000000001
 43
0.0000000001
 44
0.0000000001
 40
0.0
 40
0.0
 40
0.0
 40
0.0
 40
3.546053604694698
 40
9.278996093298963
 40
13.89970108471589
 40
17.09539662994947
 40
18.79470455702457
 40
20.02704699455844
 40
20.02704699455844
 40
20.02704699455844
 40
20.02704699455844
 10
498.6516754760274
 20
269.7802433339732
 30
0.0
 10
499.7062037451057
 20
270.2673720681773
 30
0.0
 10
502.4655990560216
 20
271.5420469957165
 30
0.0
 10
503.1305359623818
 20
280.4405038685352
 30
0.0
 10
499.1972329432353
 20
274.0404170445931
 30
0.0
 10
499.3694691394365
 20
270.7913994860246
 30
0.0
 10
501.4417508370858
 20
269.5185804092146
 30
0.0
 10
502.3583549153219
 20
269.9770974930843
 30
0.0
 10
502.7436566953919
 20
270.1698387788829
 30
0.0
 11
498.6516754760274
 21
269.7802433339732
 31
0.0
 11
501.4770909089763
 21
271.9230274571697
 31
0.0
 11
502.1103738021839
 21
277.6208851558854
 31
0.0
 11
499.6259574023256
 21
273.7249141896409
 31
0.0
 11
500.0643843887881
 21
270.5594360590313
 31
0.0
 11
501.5745188623489
 21
269.7802433339732
 31
0.0
 11
502.7436566953919
 21
270.1698387788829
 31
0.0
  0
MTEXT
  5
55E6
102
{ACAD_XDICTIONARY
360
55E7
102
}
330
1A
100
AcDbEntity
  8
寸法線
 48
10.0
100
AcDbMText
 10
369.162676600728
 20
277.804686610592
 30
0.0
 40
8.0
 41
72.990776685661
 71
     2
 72
     5
  1
MODEL
1001
ACADANNOTATIVE
1000
AnnotativeData
1002
{
1070
     1
1070
     0
1002
}
1001
ACAD
1000
MTEXTBEGIN
1070
    44
1040
0.99
1000
MTEXTEND
  0
MTEXT
  5
55EA
102
{ACAD_XDICTIONARY
360
55EB
102
}
330
1A
100
AcDbEntity
  8
寸法線
 48
10.0
100
AcDbMText
 10
569.111032153325
 20
277.972164976338
 30
0.0
 40
8.0
 41
31.756318564289
 71
     2
 72
     5
  1
Q'ty
1001
ACADANNOTATIVE
1000
AnnotativeData
1002
{
1070
     1
1070
     0
1002
}
  0
MTEXT
  5
55EE
102
{ACAD_XDICTIONARY
360
55EF
102
}
330
1A
100
AcDbEntity
  8
寸法線
 48
10.0
100
AcDbMText
 10
533.960206871181
 20
276.916434116498
 30
0.0
 40
8.0
 41
38.545332
 71
     2
 72
     5
  1
NOTE
1001
ACADANNOTATIVE
1000
AnnotativeData
1002
{
1070
     1
1070
     0
1002
}
  0
LINE
  5
55F2
330
1A
100
AcDbEntity
  8
寸法線
 48
10.0
100
AcDbLine
 10
300.667318257897
 20
266.591467641987
 30
0.0
 11
332.667288257897
 21
280.661467641986
 31
0.0
  0
DIMENSION
  5
569D
330
1A
100
AcDbEntity
  8
寸法線
 48
10.0
100
AcDbDimension
  2
*D75
 10
0.315350821777
 20
404.915842855534
 30
0.0
 11
0.315350821777
 21
444.974176188867
 31
0.0
 70
   160
  1
φ<>
  3
ISO-25
100
AcDbAlignedDimension
 13
13.95381907805
 23
426.415842855534
 33
0.0
 14
13.95381907805
 24
404.915842855534
 34
0.0
 50
90.0
100
AcDbRotatedDimension
1001
ACAD
1000
DSTYLE
1002
{
1070
     5
1000
OPEN30
1070
    41
1040
6.0
1070
    47
1040
0.1
1070
    48
1040
0.1
1070
    73
1070
     0
1070
   140
1040
8.0
1070
   271
1070
     1
1070
   272
1070
     1
1070
   341
1005
2AF4
1002
}
  0
LINE
  5
569E
330
1A
100
AcDbEntity
  8
外形線
100
AcDbLine
 10
112.95381907805
 20
404.915842855534
 30
0.0
 11
112.95381907805
 21
426.415842855534
 31
0.0
  0
LINE
  5
569F
330
1A
100
AcDbEntity
  8
外形線
100
AcDbLine
 10
112.95381907805
 20
426.415842855534
 30
0.0
 11
66.45381907805
 21
426.415842855534
 31
0.0
  0
LINE
  5
56A0
330
1A
100
AcDbEntity
  8
外形線
100
AcDbLine
 10
13.95381907805
 20
426.415842855534
 30
0.0
 11
12.95381907805
 21
425.415842855534
 31
0.0
  0
LINE
  5
56A1
330
1A
100
AcDbEntity
  8
外形線
100
AcDbLine
 10
12.95381907805
 20
425.415842855534
 30
0.0
 11
12.95381907805
 21
405.915842855534
 31
0.0
  0
LINE
  5
56A2
330
1A
100
AcDbEntity
  8
外形線
100
AcDbLine
 10
13.95381907805
 20
404.915842855534
 30
0.0
 11
12.95381907805
 21
405.915842855534
 31
0.0
  0
LINE
  5
56A3
330
1A
100
AcDbEntity
  8
外形線
100
AcDbLine
 10
112.95381907805
 20
404.915842855534
 30
0.0
 11
66.453819078049
 21
404.915842855534
 31
0.0
  0
ARC
  5
56A4
330
1A
100
AcDbEntity
  8
細線
 48
10.0
100
AcDbCircle
 10
53.23116282805
 20
421.040842855534
 30
0.0
 40
8.222656249999796
100
AcDbArc
 50
319.180234332391
 51
40.819765667609
  0
ARC
  5
56A5
330
1A
100
AcDbEntity
  8
細線
 48
10.0
100
AcDbCircle
 10
53.23116282805
 20
410.290842855534
 30
0.0
 40
8.222656249999796
100
AcDbArc
 50
319.180234332391
 51
40.819765667609
  0
ARC
  5
56A6
330
1A
100
AcDbEntity
  8
細線
 48
10.0
100
AcDbCircle
 10
65.67647532805
 20
421.040842855534
 30
0.0
 40
8.222656249999796
100
AcDbArc
 50
139.180234332391
 51
220.819765667608
  0
ARC
  5
56A7
330
1A
100
AcDbEntity
  8
細線
 48
10.0
100
AcDbCircle
 10
72.676475328049
 20
421.040842855534
 30
0.0
 40
8.222656249999796
100
AcDbArc
 50
139.180234332391
 51
220.819765667608
  0
ARC
  5
56A8
330
1A
100
AcDbEntity
  8
細線
 48
10.0
100
AcDbCircle
 10
60.23116282805
 20
410.290842855534
 30
0.0
 40
8.222656249999796
100
AcDbArc
 50
319.180234332391
 51
40.819765667609
  0
ARC
  5
56A9
330
1A
100
AcDbEntity
  8
細線
 48
10.0
100
AcDbCircle
 10
72.676475328049
 20
410.290842855534
 30
0.0
 40
8.222656249999796
100
AcDbArc
 50
139.180234332391
 51
220.819765667608
  0
LINE
  5
56AA
330
1A
100
AcDbEntity
  8
外形線
100
AcDbLine
 10
59.45381907805
 20
426.415842855534
 30
0.0
 11
13.95381907805
 21
426.415842855534
 31
0.0
  0
LINE
  5
56AB
330
1A
100
AcDbEntity
  8
外形線
100
AcDbLine
 10
59.453819078049
 20
404.915842855534
 30
0.0
 11
13.95381907805
 21
404.915842855534
 31
0.0
  0
VIEWPORT
  5
2902
330
28FB
100
AcDbEntity
 67
     1
  8
0
 48
10.0
100
AcDbViewport
 10
0.0
 20
0.0
 30
0.0
 40
528.349942987457
 41
300.3
 68
     1
 69
     1
1001
ACAD
1000
MVIEW
1002
{
1070
    16
1010
0.0
1020
0.0
1030
0.0
1010
0.0
1020
0.0
1030
1.0
1040
0.0
1040
300.3
1040
205.756503333333
1040
143.551503333333
1040
50.0
1040
0.0
1040
0.0
1070
    16
1070
   100
1070
     0
1070
     1
1070
     0
1070
     0
1070
     0
1070
     0
1040
0.0
1040
0.0
1040
0.0
1040
10.0
1040
10.0
1040
10.0
1040
10.0
1070
     0
1002
{
1002
}
1002
}
  0
VIEWPORT
  5
2904
330
28FB
100
AcDbEntity
 67
     1
  8
図枠太線
 48
10.0
100
AcDbViewport
 10
204.746305129083
 20
161.396645458131
 30
0.0
 40
400.0
 41
240.0
 68
     2
 69
     2
1001
ACAD
1000
MVIEW
1002
{
1070
    16
1010
0.0
1020
0.0
1030
0.0
1010
0.0
1020
0.0
1030
1.0
1040
0.0
1040
480.000002488849
1040
240.394537380297
1040
340.449809261137
1040
50.0
1040
0.0
1040
0.0
1070
    16
1070
   100
1070
     0
1070
     0
1070
     0
1070
     0
1070
     0
1070
     0
1040
0.0
1040
0.0
1040
0.0
1040
1.0
1040
1.0
1040
0.0
1040
0.0
1070
     0
1002
{
1002
}
1002
}
  0
INSERT
  5
2A59
330
28FB
100
AcDbEntity
 67
     1
  8
図枠太線
100
AcDbBlockReference
  2
A3横用_タイトル
 10
-0.352109406709
 20
-2.129314295396
 30
0.0
  0
MTEXT
  5
2E85
330
28FB
100
AcDbEntity
 67
     1
  8
寸法線
 48
10.0
100
AcDbMText
 10
149.12611673873
 20
14.255245025413
 30
0.0
 40
5.0
 41
11.452149180996
 71
     1
 72
     5
  1
{\H1.4x;1:2}
  0
MTEXT
  5
5333
102
{ACAD_XDICTIONARY
360
5334
102
}
330
28FB
100
AcDbEntity
 67
     1
  8
寸法線
 48
10.0
100
AcDbMText
 10
188.374763351806
 20
33.486520483444
 30
0.0
 40
5.0
 41
33.4
 71
     2
 72
     5
  1
takahashi
1001
ACADANNOTATIVE
1000
AnnotativeData
1002
{
1070
     1
1070
     0
1002
}
  0
MTEXT
  5
5337
102
{ACAD_XDICTIONARY
360
5338
102
}
330
28FB
100
AcDbEntity
 67
     1
  8
寸法線
 48
10.0
100
AcDbMText
 10
377.920856708546
 20
50.834223925331
 30
0.0
 40
5.0
 41
21.364427237501
 71
     1
 72
     5
  1
Q'ty: 
1001
ACADANNOTATIVE
1000
AnnotativeData
1002
{
1070
     1
1070
     0
1002
}
  0
MTEXT
  5
533C
102
{ACAD_XDICTIONARY
360
533D
102
}
330
28FB
100
AcDbEntity
 67
     1
  8
寸法線
 48
10.0
100
AcDbMText
 10
341.155313110839
 20
15.693933122141
 30
0.0
 40
8.0
 41
33.206594841881
 71
     1
 72
     5
  1
HE-13022
1001
ACADANNOTATIVE
1000
AnnotativeData
1002
{
1070
     1
1070
     0
1002
}
  0
MTEXT
  5
5340
330
28FB
100
AcDbEntity
 67
     1
  8
寸法線
 48
10.0
100
AcDbMText
 10
212.548677740965
 20
51.185679132829
 30
0.0
 40
5.0
 41
106.699923235854
 71
     1
 72
     5
  1
a reduced drawing（A3size～）
  0
LINE
  5
5341
330
28FB
100
AcDbEntity
 67
     1
  8
寸法線
 48
10.0
100
AcDbLine
 10
208.834699746824
 20
44.330291551503
 30
0.0
 11
305.487818087333
 21
44.330291551503
 31
0.0
  0
MTEXT
  5
53A7
102
{ACAD_XDICTIONARY
360
53A8
102
}
330
28FB
100
AcDbEntity
 67
     1
  8
寸法線
 48
10.0
100
AcDbMText
 10
254.746305129083
 20
38.183816052721
 30
0.0
 40
4.0
 41
100.0
 71
     2
 72
     5
  1
TEMPERATURE IN THE TANK:max.150℃
1001
ACADANNOTATIVE
1000
AnnotativeData
1002
{
1070
     1
1070
     0
1002
}
  0
MTEXT
  5
54F3
102
{ACAD_XDICTIONARY
360
54F4
102
}
330
28FB
100
AcDbEntity
 67
     1
  8
寸法線
 48
10.0
100
AcDbMText
 10
307.871917838935
 20
32.414406608895
 30
0.0
 40
6.0
 41
45.0
 71
     1
 72
     5
  1
TSS-B1SA-□
1001
ACADANNOTATIVE
1000
AnnotativeData
1002
{
1070
     1
1070
     0
1002
}
  0
MTEXT
  5
54F7
330
28FB
100
AcDbEntity
 67
     1
  8
寸法線
 48
10.0
100
AcDbMText
 10
361.549497831478
 20
35.070077613205
 30
0.0
 40
3.5
 41
59.837375094616
 71
     1
 72
     5
  1
CAPACITANCE TYPE\PLEVEL SENSOR
  0
MTEXT
  5
57A4
102
{ACAD_XDICTIONARY
360
57A5
102
}
330
28FB
100
AcDbEntity
 67
     1
  8
寸法線
 48
10.0
100
AcDbMText
 10
188.046305129083
 20
12.62384379707
 30
0.0
 40
5.0
 41
33.4
 71
     2
 72
     5
  1
\H0.9x;Sep.14.2016
1001
ACADANNOTATIVE
1000
AnnotativeData
1002
{
1070
     1
1070
     0
1002
}
  0
ENDSEC
  0
SECTION
  2
OBJECTS
  0
DICTIONARY
  5
C
330
0
100
AcDbDictionary
  3
ACAD_COLOR
350
2948
  3
ACAD_GROUP
350
D
  3
ACAD_LAYOUT
350
2816
  3
ACAD_MATERIAL
350
2947
  3
ACAD_MLEADERSTYLE
350
4D87
  3
ACAD_MLINESTYLE
350
E
  3
ACAD_PLOTSETTINGS
350
2817
  3
ACAD_SCALELIST
350
4D60
  3
ACAD_VISUALSTYLE
350
4D47
  3
ACADDIM
350
4312
  3
ACDBHEADERROUNDTRIPXREC
350
5804
  3
ACDBVARIABLEDICTIONARY
350
5097
  3
DWGPROPS
350
5829
  0
DICTIONARY
  5
582A
330
8
100
AcDbDictionary
280
     1
  3
ACAD_XREC_ROUNDTRIP
360
582B
  0
DICTIONARY
  5
29EA
330
2
100
AcDbDictionary
280
     1
  3
ACAD_LAYERFILTERS
360
2B0C
  3
ACAD_LAYERSTATES
360
29EB
  0
DICTIONARY
  5
4FBE
330
4FBD
100
AcDbDictionary
280
     1
  3
ACDBCONTEXTDATAMANAGER
360
4FBF
  0
DICTIONARY
  5
4FD3
330
4FD2
100
AcDbDictionary
280
     1
  3
ACDBCONTEXTDATAMANAGER
360
4FD4
  0
DICTIONARY
  5
4FEA
330
4FE9
100
AcDbDictionary
280
     1
  3
ACDBCONTEXTDATAMANAGER
360
4FEB
  0
DICTIONARY
  5
4FEE
330
4FED
100
AcDbDictionary
280
     1
  3
ACDBCONTEXTDATAMANAGER
360
4FEF
  0
DICTIONARY
  5
4FF2
330
4FF1
100
AcDbDictionary
280
     1
  3
ACDBCONTEXTDATAMANAGER
360
4FF3
  0
DICTIONARY
  5
4FF6
330
4FF5
100
AcDbDictionary
280
     1
  3
ACDBCONTEXTDATAMANAGER
360
4FF7
  0
DICTIONARY
  5
4FFA
330
4FF9
100
AcDbDictionary
280
     1
  3
ACDBCONTEXTDATAMANAGER
360
4FFB
  0
DICTIONARY
  5
4FFE
330
4FFD
100
AcDbDictionary
280
     1
  3
ACDBCONTEXTDATAMANAGER
360
4FFF
  0
DICTIONARY
  5
5002
330
5001
100
AcDbDictionary
280
     1
  3
ACDBCONTEXTDATAMANAGER
360
5003
  0
DICTIONARY
  5
5006
330
5005
100
AcDbDictionary
280
     1
  3
ACDBCONTEXTDATAMANAGER
360
5007
  0
DICTIONARY
  5
520D
330
520C
100
AcDbDictionary
280
     1
  3
ACDBCONTEXTDATAMANAGER
360
520E
  0
DICTIONARY
  5
525A
330
5259
100
AcDbDictionary
280
     1
  3
ACDBCONTEXTDATAMANAGER
360
525B
  0
DICTIONARY
  5
525E
330
525D
100
AcDbDictionary
280
     1
  3
ACDBCONTEXTDATAMANAGER
360
525F
  0
DICTIONARY
  5
55CB
330
55CA
100
AcDbDictionary
280
     1
  3
ACDBCONTEXTDATAMANAGER
360
55CC
  0
DICTIONARY
  5
55CF
330
55CE
100
AcDbDictionary
280
     1
  3
ACDBCONTEXTDATAMANAGER
360
55D0
  0
DICTIONARY
  5
55D3
330
55D2
100
AcDbDictionary
280
     1
  3
ACDBCONTEXTDATAMANAGER
360
55D4
  0
DICTIONARY
  5
55E7
330
55E6
100
AcDbDictionary
280
     1
  3
ACDBCONTEXTDATAMANAGER
360
55E8
  0
DICTIONARY
  5
55EB
330
55EA
100
AcDbDictionary
280
     1
  3
ACDBCONTEXTDATAMANAGER
360
55EC
  0
DICTIONARY
  5
55EF
330
55EE
100
AcDbDictionary
280
     1
  3
ACDBCONTEXTDATAMANAGER
360
55F0
  0
DICTIONARY
  5
5334
330
5333
100
AcDbDictionary
280
     1
  3
ACDBCONTEXTDATAMANAGER
360
5335
  0
DICTIONARY
  5
5338
330
5337
100
AcDbDictionary
280
     1
  3
ACDBCONTEXTDATAMANAGER
360
5339
  0
DICTIONARY
  5
533D
330
533C
100
AcDbDictionary
280
     1
  3
ACDBCONTEXTDATAMANAGER
360
533E
  0
DICTIONARY
  5
53A8
330
53A7
100
AcDbDictionary
280
     1
  3
ACDBCONTEXTDATAMANAGER
360
53A9
  0
DICTIONARY
  5
54F4
330
54F3
100
AcDbDictionary
280
     1
  3
ACDBCONTEXTDATAMANAGER
360
54F5
  0
DICTIONARY
  5
57A5
330
57A4
100
AcDbDictionary
280
     1
  3
ACDBCONTEXTDATAMANAGER
360
57A6
  0
DICTIONARY
  5
2948
102
{ACAD_REACTORS
330
C
102
}
330
C
100
AcDbDictionary
  0
DICTIONARY
  5
D
102
{ACAD_REACTORS
330
C
102
}
330
C
100
AcDbDictionary
  3
*A1
350
447F
  3
*A2
350
46B3
  0
DICTIONARY
  5
2816
102
{ACAD_REACTORS
330
C
102
}
330
C
100
AcDbDictionary
  0
DICTIONARY
  5
2947
102
{ACAD_REACTORS
330
C
102
}
330
C
100
AcDbDictionary
  3
BYBLOCK
350
4D83
  3
BYLAYER
350
4D82
  3
GLOBAL
350
4D84
  0
DICTIONARY
  5
4D87
102
{ACAD_REACTORS
330
C
102
}
330
C
100
AcDbDictionary
  3
STANDARD
350
4D88
  0
DICTIONARY
  5
E
102
{ACAD_REACTORS
330
C
102
}
330
C
100
AcDbDictionary
  3
STANDARD
350
13
  0
DICTIONARY
  5
2817
102
{ACAD_REACTORS
330
C
102
}
330
C
100
AcDbDictionary
  0
DICTIONARY
  5
4D60
102
{ACAD_REACTORS
330
C
102
}
330
C
100
AcDbDictionary
  3
A0
350
4D61
  3
A1
350
4D62
  3
A2
350
4D63
  3
A3
350
4D64
  3
A4
350
4D65
  3
A5
350
4D66
  3
A6
350
4D67
  3
A7
350
4D68
  3
A8
350
4D69
  3
A9
350
4D6A
  3
B0
350
4D6B
  3
B1
350
4D6C
  3
B2
350
4D6D
  3
B3
350
4D6E
  3
B4
350
4D6F
  3
B5
350
4D70
  3
B6
350
4D71
  3
B7
350
4D72
  3
B8
350
4D73
  3
B9
350
4D74
  3
C0
350
4D75
  3
C1
350
4D76
  3
C2
350
4D77
  3
C3
350
4D78
  3
C4
350
4D79
  3
C5
350
4D7A
  3
C6
350
4D7B
  3
C7
350
4D7C
  3
C8
350
4D7D
  3
C9
350
4D7E
  3
D0
350
4D7F
  3
D1
350
4D80
  3
D2
350
4D81
  0
DICTIONARY
  5
4D47
102
{ACAD_REACTORS
330
C
102
}
330
C
100
AcDbDictionary
  3
2DWIREFRAME
350
4D4C
  3
BASIC
350
4D4F
  3
BRIGHTEN
350
4D53
  3
COLORCHANGE
350
4D57
  3
CONCEPTUAL
350
4D51
  3
DIM
350
4D52
  3
EDGECOLOROFF
350
4D5A
  3
FACEPATTERN
350
4D56
  3
FLAT
350
4D48
  3
FLATWITHEDGES
350
4D49
  3
GOURAUD
350
4D4A
  3
GOURAUDWITHEDGES
350
4D4B
  3
HIDDEN
350
4D4E
  3
JITTEROFF
350
4D58
  3
LINEPATTERN
350
4D55
  3
MODELING
350
518B
  3
OVERHANGOFF
350
4D59
  3
REALISTIC
350
4D50
  3
SHADED
350
4D5F
  3
SHADED_WITH_EDGES
350
4D5E
  3
SHADES_OF_GRAY
350
4D5B
  3
SKETCHY
350
4D5C
  3
THICKEN
350
4D54
  3
WIREFRAME
350
4D4D
  3
X-RAY
350
4D5D
  0
XRECORD
  5
4312
102
{ACAD_REACTORS
330
C
102
}
330
C
100
AcDbXrecord
 90
   990106
  3

 60
     0
 61
     0
 62
     4
 63
     4
 64
     0
 65
     0
 66
     0
 67
     3
 68
     1
 69
     0
 70
     0
 71
     0
 72
     0
 40
0.0
170
     2
340
0
  0
DICTIONARY
  5
5804
102
{ACAD_REACTORS
330
C
102
}
330
C
100
AcDbDictionary
  3
CEPSNID
350
580E
  3
CEPSNTYPE
350
580D
  3
COLORDICT
350
5827
  3
DIMSTYLEDATA
350
5824
  3
FINGERPRINTGUID
350
580F
  3
HYPERLINKBASE
350
5807
  3
INSUNITS
350
580C
  3
LAYOUTDICT
350
5809
  3
LWETCUNION
350
580B
  3
MATERIALDICT
350
5828
  3
PLOTSETDICT
350
580A
  3
PSVPSCALE
350
5811
  3
PUCSBASE
350
5814
  3
PUCSORGBACK
350
581A
  3
PUCSORGBOTTOM
350
5816
  3
PUCSORGFRONT
350
5819
  3
PUCSORGLEFT
350
5817
  3
PUCSORGRIGHT
350
5818
  3
PUCSORGTOP
350
5815
  3
PUCSORTHOREF
350
5812
  3
PUCSORTHOVIEW
350
5813
  3
STYLESHEET
350
5808
  3
TSTACKALIGN
350
5805
  3
TSTACKSIZE
350
5806
  3
UCSBASE
350
581D
  3
UCSORGBACK
350
5823
  3
UCSORGBOTTOM
350
581F
  3
UCSORGFRONT
350
5822
  3
UCSORGLEFT
350
5820
  3
UCSORGRIGHT
350
5821
  3
UCSORGTOP
350
581E
  3
UCSORTHOREF
350
581B
  3
UCSORTHOVIEW
350
581C
  3
VERSIONGUID
350
5810
  0
DICTIONARY
  5
5097
102
{ACAD_REACTORS
330
C
102
}
330
C
100
AcDbDictionary
  3
CANNOSCALE
350
5098
  3
CMLEADERSTYLE
350
509A
  3
CTABLESTYLE
350
5099
  3
DIMASSOC
350
5825
  3
HIDETEXT
350
5826
  3
MSLTSCALE
350
509B
  3
XCLIPFRAME
350
509C
  0
XRECORD
  5
5829
102
{ACAD_REACTORS
330
C
102
}
330
C
100
AcDbXrecord
  1
DWGPROPS COOKIE
  2

  3

  4

  6

  7

  8
takahashi
  9

300
=
301
=
302
=
303
=
304
=
305
=
306
=
307
=
308
=
309
=
 40
0.0
 41
2450576.222302431
 42
2457658.402873877
  1

 90
        0
  0
XRECORD
  5
582B
102
{ACAD_REACTORS
330
582A
102
}
330
582A
100
AcDbXrecord
102
VTR_0.000_0.000_1.000_1.000_VISUALSTYLE
340
4D4C
102
VTR_0.000_0.000_1.000_1.000_GRIDDISPLAY
 70
     3
102
VTR_0.000_0.000_1.000_1.000_GRIDMAJOR
 70
     5
102
VTR_0.000_0.000_1.000_1.000_DEFAULTLIGHTING
280
     1
102
VTR_0.000_0.000_1.000_1.000_DEFAULTLIGHTINGTYPE
 70
     1
102
VTR_0.000_0.000_1.000_1.000_BRIGHTNESS
141
0.0
102
VTR_0.000_0.000_1.000_1.000_CONTRAST
142
0.0
  0
DICTIONARY
  5
2B0C
102
{ACAD_REACTORS
330
29EA
102
}
330
29EA
100
AcDbDictionary
  0
DICTIONARY
  5
29EB
102
{ACAD_REACTORS
330
29EA
102
}
330
29EA
100
AcDbDictionary
  0
DICTIONARY
  5
4FBF
102
{ACAD_REACTORS
330
4FBE
102
}
330
4FBE
100
AcDbDictionary
  3
ACDB_ANNOTATIONSCALES
350
4FC0
  0
DICTIONARY
  5
4FD4
102
{ACAD_REACTORS
330
4FD3
102
}
330
4FD3
100
AcDbDictionary
  3
ACDB_ANNOTATIONSCALES
350
4FD5
  0
DICTIONARY
  5
4FEB
102
{ACAD_REACTORS
330
4FEA
102
}
330
4FEA
100
AcDbDictionary
  3
ACDB_ANNOTATIONSCALES
350
4FEC
  0
DICTIONARY
  5
4FEF
102
{ACAD_REACTORS
330
4FEE
102
}
330
4FEE
100
AcDbDictionary
  3
ACDB_ANNOTATIONSCALES
350
4FF0
  0
DICTIONARY
  5
4FF3
102
{ACAD_REACTORS
330
4FF2
102
}
330
4FF2
100
AcDbDictionary
  3
ACDB_ANNOTATIONSCALES
350
4FF4
  0
DICTIONARY
  5
4FF7
102
{ACAD_REACTORS
330
4FF6
102
}
330
4FF6
100
AcDbDictionary
  3
ACDB_ANNOTATIONSCALES
350
4FF8
  0
DICTIONARY
  5
4FFB
102
{ACAD_REACTORS
330
4FFA
102
}
330
4FFA
100
AcDbDictionary
  3
ACDB_ANNOTATIONSCALES
350
4FFC
  0
DICTIONARY
  5
4FFF
102
{ACAD_REACTORS
330
4FFE
102
}
330
4FFE
100
AcDbDictionary
  3
ACDB_ANNOTATIONSCALES
350
5000
  0
DICTIONARY
  5
5003
102
{ACAD_REACTORS
330
5002
102
}
330
5002
100
AcDbDictionary
  3
ACDB_ANNOTATIONSCALES
350
5004
  0
DICTIONARY
  5
5007
102
{ACAD_REACTORS
330
5006
102
}
330
5006
100
AcDbDictionary
  3
ACDB_ANNOTATIONSCALES
350
5008
  0
DICTIONARY
  5
520E
102
{ACAD_REACTORS
330
520D
102
}
330
520D
100
AcDbDictionary
  3
ACDB_ANNOTATIONSCALES
350
520F
  0
DICTIONARY
  5
525B
102
{ACAD_REACTORS
330
525A
102
}
330
525A
100
AcDbDictionary
  3
ACDB_ANNOTATIONSCALES
350
525C
  0
DICTIONARY
  5
525F
102
{ACAD_REACTORS
330
525E
102
}
330
525E
100
AcDbDictionary
  3
ACDB_ANNOTATIONSCALES
350
5260
  0
DICTIONARY
  5
55CC
102
{ACAD_REACTORS
330
55CB
102
}
330
55CB
100
AcDbDictionary
  3
ACDB_ANNOTATIONSCALES
350
55CD
  0
DICTIONARY
  5
55D0
102
{ACAD_REACTORS
330
55CF
102
}
330
55CF
100
AcDbDictionary
  3
ACDB_ANNOTATIONSCALES
350
55D1
  0
DICTIONARY
  5
55D4
102
{ACAD_REACTORS
330
55D3
102
}
330
55D3
100
AcDbDictionary
  3
ACDB_ANNOTATIONSCALES
350
55D5
  0
DICTIONARY
  5
55E8
102
{ACAD_REACTORS
330
55E7
102
}
330
55E7
100
AcDbDictionary
  3
ACDB_ANNOTATIONSCALES
350
55E9
  0
DICTIONARY
  5
55EC
102
{ACAD_REACTORS
330
55EB
102
}
330
55EB
100
AcDbDictionary
  3
ACDB_ANNOTATIONSCALES
350
55ED
  0
DICTIONARY
  5
55F0
102
{ACAD_REACTORS
330
55EF
102
}
330
55EF
100
AcDbDictionary
  3
ACDB_ANNOTATIONSCALES
350
55F1
  0
DICTIONARY
  5
5335
102
{ACAD_REACTORS
330
5334
102
}
330
5334
100
AcDbDictionary
  3
ACDB_ANNOTATIONSCALES
350
5336
  0
DICTIONARY
  5
5339
102
{ACAD_REACTORS
330
5338
102
}
330
5338
100
AcDbDictionary
  3
ACDB_ANNOTATIONSCALES
350
533A
  0
DICTIONARY
  5
533E
102
{ACAD_REACTORS
330
533D
102
}
330
533D
100
AcDbDictionary
  3
ACDB_ANNOTATIONSCALES
350
533F
  0
DICTIONARY
  5
53A9
102
{ACAD_REACTORS
330
53A8
102
}
330
53A8
100
AcDbDictionary
  3
ACDB_ANNOTATIONSCALES
350
53AA
  0
DICTIONARY
  5
54F5
102
{ACAD_REACTORS
330
54F4
102
}
330
54F4
100
AcDbDictionary
  3
ACDB_ANNOTATIONSCALES
350
54F6
  0
DICTIONARY
  5
57A6
102
{ACAD_REACTORS
330
57A5
102
}
330
57A5
100
AcDbDictionary
  3
ACDB_ANNOTATIONSCALES
350
57A7
  0
GROUP
  5
447F
102
{ACAD_REACTORS
330
D
102
}
330
D
100
AcDbGroup
300

 70
     1
 71
     1
340
4423
340
4422
340
4421
340
4420
340
441F
  0
GROUP
  5
46B3
102
{ACAD_REACTORS
330
D
102
}
330
D
100
AcDbGroup
300

 70
     1
 71
     1
340
467D
340
467C
340
467B
340
467A
340
4679
340
4678
340
4677
340
4665
340
4664
340
4663
340
4662
340
4661
340
4660
340
465F
340
465E
340
465D
340
465C
340
465B
340
465A
340
4659
340
4658
  0
MATERIAL
  5
4D83
102
{ACAD_REACTORS
330
2947
102
}
102
{ACAD_XDICTIONARY
360
582E
102
}
330
2947
100
AcDbMaterial
  1
BYBLOCK
  0
MATERIAL
  5
4D82
102
{ACAD_REACTORS
330
2947
102
}
102
{ACAD_XDICTIONARY
360
582C
102
}
330
2947
100
AcDbMaterial
  1
BYLAYER
  0
MATERIAL
  5
4D84
102
{ACAD_REACTORS
330
2947
102
}
102
{ACAD_XDICTIONARY
360
5830
102
}
330
2947
100
AcDbMaterial
  1
GLOBAL
  0
ACAD_PROXY_OBJECT
  5
4D88
102
{ACAD_REACTORS
330
4D87
102
}
330
4D87
100
AcDbProxyObject
 90
      499
 91
      508
 93
      610
310
40901902A4063FBFFFFFE0000000000000020400000000000020404214DD185B99185C990000000000000104090141901A00000000000004100000000000000041025764000000000000039000
340
14
340
0
340
10
340
0
 94
        0
1001
ACAD_MLEADERVER
1070
     2
  0
MLINESTYLE
  5
13
102
{ACAD_REACTORS
330
E
102
}
330
E
100
AcDbMlineStyle
  2
STANDARD
 70
     0
  3

 62
     0
 51
90.0
 52
90.0
 71
     2
 49
0.5
 62
   256
  6
BYLAYER
 49
-0.5
 62
   256
  6
BYLAYER
  0
ACAD_PROXY_OBJECT
  5
4D61
102
{ACAD_REACTORS
330
4D60
102
}
330
4D60
100
AcDbProxyObject
 90
      499
 91
      505
 93
       41
310
903313A31580
  0
ACAD_PROXY_OBJECT
  5
4D62
102
{ACAD_REACTORS
330
4D60
102
}
330
4D60
100
AcDbProxyObject
 90
      499
 91
      505
 93
      105
310
903313A324000000000000004000
  0
ACAD_PROXY_OBJECT
  5
4D63
102
{ACAD_REACTORS
330
4D60
102
}
330
4D60
100
AcDbProxyObject
 90
      499
 91
      505
 93
      105
310
903313A344000000000000104000
  0
ACAD_PROXY_OBJECT
  5
4D64
102
{ACAD_REACTORS
330
4D60
102
}
330
4D60
100
AcDbProxyObject
 90
      499
 91
      505
 93
      105
310
903313A354000000000000144000
  0
ACAD_PROXY_OBJECT
  5
4D65
102
{ACAD_REACTORS
330
4D60
102
}
330
4D60
100
AcDbProxyObject
 90
      499
 91
      505
 93
      105
310
903313A384000000000000204000
  0
ACAD_PROXY_OBJECT
  5
4D66
102
{ACAD_REACTORS
330
4D60
102
}
330
4D60
100
AcDbProxyObject
 90
      499
 91
      505
 93
      113
310
904313A31304000000000000244000
  0
ACAD_PROXY_OBJECT
  5
4D67
102
{ACAD_REACTORS
330
4D60
102
}
330
4D60
100
AcDbProxyObject
 90
      499
 91
      505
 93
      113
310
904313A31364000000000000304000
  0
ACAD_PROXY_OBJECT
  5
4D68
102
{ACAD_REACTORS
330
4D60
102
}
330
4D60
100
AcDbProxyObject
 90
      499
 91
      505
 93
      113
310
904313A32304000000000000344000
  0
ACAD_PROXY_OBJECT
  5
4D69
102
{ACAD_REACTORS
330
4D60
102
}
330
4D60
100
AcDbProxyObject
 90
      499
 91
      505
 93
      113
310
904313A333040000000000003E4000
  0
ACAD_PROXY_OBJECT
  5
4D6A
102
{ACAD_REACTORS
330
4D60
102
}
330
4D60
100
AcDbProxyObject
 90
      499
 91
      505
 93
      113
310
904313A34304000000000000444000
  0
ACAD_PROXY_OBJECT
  5
4D6B
102
{ACAD_REACTORS
330
4D60
102
}
330
4D60
100
AcDbProxyObject
 90
      499
 91
      505
 93
      113
310
904313A35304000000000000494000
  0
ACAD_PROXY_OBJECT
  5
4D6C
102
{ACAD_REACTORS
330
4D60
102
}
330
4D60
100
AcDbProxyObject
 90
      499
 91
      505
 93
      121
310
905313A3130304000000000000594000
  0
ACAD_PROXY_OBJECT
  5
4D6D
102
{ACAD_REACTORS
330
4D60
102
}
330
4D60
100
AcDbProxyObject
 90
      499
 91
      505
 93
      105
310
903323A310000000000000010100
  0
ACAD_PROXY_OBJECT
  5
4D6E
102
{ACAD_REACTORS
330
4D60
102
}
330
4D60
100
AcDbProxyObject
 90
      499
 91
      505
 93
      105
310
903343A310000000000000410100
  0
ACAD_PROXY_OBJECT
  5
4D6F
102
{ACAD_REACTORS
330
4D60
102
}
330
4D60
100
AcDbProxyObject
 90
      499
 91
      505
 93
      105
310
903383A310000000000000810100
  0
ACAD_PROXY_OBJECT
  5
4D70
102
{ACAD_REACTORS
330
4D60
102
}
330
4D60
100
AcDbProxyObject
 90
      499
 91
      505
 93
      113
310
90431303A310000000000000910100
  0
ACAD_PROXY_OBJECT
  5
4D71
102
{ACAD_REACTORS
330
4D60
102
}
330
4D60
100
AcDbProxyObject
 90
      499
 91
      505
 93
      121
310
9053130303A310000000000001650100
  0
ACAD_PROXY_OBJECT
  5
4D72
102
{ACAD_REACTORS
330
4D60
102
}
330
4D60
100
AcDbProxyObject
 90
      499
 91
      505
 93
      257
310
90E312F31323822203D2031272D3022000000000000200FC000000000000284000
  0
ACAD_PROXY_OBJECT
  5
4D73
102
{ACAD_REACTORS
330
4D60
102
}
330
4D60
100
AcDbProxyObject
 90
      499
 91
      505
 93
      249
310
90D312F363422203D2031272D3022000000000000240FC000000000000284000
  0
ACAD_PROXY_OBJECT
  5
4D74
102
{ACAD_REACTORS
330
4D60
102
}
330
4D60
100
AcDbProxyObject
 90
      499
 91
      505
 93
      249
310
90D312F333222203D2031272D3022000000000000280FC000000000000284000
  0
ACAD_PROXY_OBJECT
  5
4D75
102
{ACAD_REACTORS
330
4D60
102
}
330
4D60
100
AcDbProxyObject
 90
      499
 91
      505
 93
      249
310
90D312F313622203D2031272D30220000000000002C0FC000000000000284000
  0
ACAD_PROXY_OBJECT
  5
4D76
102
{ACAD_REACTORS
330
4D60
102
}
330
4D60
100
AcDbProxyObject
 90
      499
 91
      505
 93
      249
310
90D332F333222203D2031272D30220000000000002E0FC000000000000284000
  0
ACAD_PROXY_OBJECT
  5
4D77
102
{ACAD_REACTORS
330
4D60
102
}
330
4D60
100
AcDbProxyObject
 90
      499
 91
      505
 93
      241
310
90C312F3822203D2031272D3022000000000000300FC000000000000284000
  0
ACAD_PROXY_OBJECT
  5
4D78
102
{ACAD_REACTORS
330
4D60
102
}
330
4D60
100
AcDbProxyObject
 90
      499
 91
      505
 93
      249
310
90D332F313622203D2031272D3022000000000000320FC000000000000284000
  0
ACAD_PROXY_OBJECT
  5
4D79
102
{ACAD_REACTORS
330
4D60
102
}
330
4D60
100
AcDbProxyObject
 90
      499
 91
      505
 93
      241
310
90C312F3422203D2031272D3022000000000000340FC000000000000284000
  0
ACAD_PROXY_OBJECT
  5
4D7A
102
{ACAD_REACTORS
330
4D60
102
}
330
4D60
100
AcDbProxyObject
 90
      499
 91
      505
 93
      241
310
90C332F3822203D2031272D3022000000000000360FC000000000000284000
  0
ACAD_PROXY_OBJECT
  5
4D7B
102
{ACAD_REACTORS
330
4D60
102
}
330
4D60
100
AcDbProxyObject
 90
      499
 91
      505
 93
      241
310
90C312F3222203D2031272D3022000000000000380FC000000000000284000
  0
ACAD_PROXY_OBJECT
  5
4D7C
102
{ACAD_REACTORS
330
4D60
102
}
330
4D60
100
AcDbProxyObject
 90
      499
 91
      505
 93
      241
310
90C332F3422203D2031272D30220000000000003A0FC000000000000284000
  0
ACAD_PROXY_OBJECT
  5
4D7D
102
{ACAD_REACTORS
330
4D60
102
}
330
4D60
100
AcDbProxyObject
 90
      499
 91
      505
 93
      161
310
90A3122203D2031272D30224000000000000284000
  0
ACAD_PROXY_OBJECT
  5
4D7E
102
{ACAD_REACTORS
330
4D60
102
}
330
4D60
100
AcDbProxyObject
 90
      499
 91
      505
 93
      257
310
90E312D312F3222203D2031272D30220000000000003E0FC000000000000284000
  0
ACAD_PROXY_OBJECT
  5
4D7F
102
{ACAD_REACTORS
330
4D60
102
}
330
4D60
100
AcDbProxyObject
 90
      499
 91
      505
 93
      225
310
90A3322203D2031272D302200000000000002100000000000000284000
  0
ACAD_PROXY_OBJECT
  5
4D80
102
{ACAD_REACTORS
330
4D60
102
}
330
4D60
100
AcDbProxyObject
 90
      499
 91
      505
 93
      225
310
90A3622203D2031272D302200000000000006100000000000000284000
  0
ACAD_PROXY_OBJECT
  5
4D81
102
{ACAD_REACTORS
330
4D60
102
}
330
4D60
100
AcDbProxyObject
 90
      499
 91
      505
 93
      249
310
90D31272D3022203D2031272D30220000000000000A100000000000000284000
  0
ACAD_PROXY_OBJECT
  5
4D4C
102
{ACAD_REACTORS
330
4D47
102
}
330
4D47
100
AcDbProxyObject
 90
      499
 91
      504
 93
      436
310
42CC9915DA5C99599C985B595049028333333333333E33F0000000000000F90107901411070040501600405405064090741402480A0340
1001
ACAD
1000
AcDbSavedByObjectVersion
1070
     0
  0
ACAD_PROXY_OBJECT
  5
4D4F
102
{ACAD_REACTORS
330
4D47
102
}
330
4D47
100
AcDbProxyObject
 90
      499
 91
      504
 93
      388
310
4150985CDA58D07406404333333333333E33F0000000000000F90107A41107004050150841D405064090741402480A0350
1001
ACAD
1000
AcDbSavedByObjectVersion
1070
     0
  0
ACAD_PROXY_OBJECT
  5
4D53
102
{ACAD_REACTORS
330
4D47
102
}
330
4D47
100
AcDbProxyObject
 90
      499
 91
      504
 93
      428
310
42109C9A59DA1D195B90C409028333333333333E33F0000000000000F9010790141107004050150841D405064090741402480A029950
1001
ACAD
1000
AcDbSavedByObjectVersion
1070
     0
  0
ACAD_PROXY_OBJECT
  5
4D57
102
{ACAD_REACTORS
330
4D47
102
}
330
4D47
100
AcDbProxyObject
 90
      499
 91
      504
 93
      452
310
42D0DBDB1BDC90DA185B99D95104090240C333333333333E33F0000000000000F90108901411070040501508421405064090741402480A0350
1001
ACAD
1000
AcDbSavedByObjectVersion
1070
     0
  0
ACAD_PROXY_OBJECT
  5
4D51
102
{ACAD_REACTORS
330
4D47
102
}
330
4D47
100
AcDbProxyObject
 90
      499
 91
      504
 93
      500
310
4290DBDB98D95C1D1D585B10940D028333333333333E33F0000000000000F90107902409070040501000000000018199010841D405064090740C02480A0340
1001
ACAD
1000
AcDbSavedByObjectVersion
1070
     0
  0
ACAD_PROXY_OBJECT
  5
4D52
102
{ACAD_REACTORS
330
4D47
102
}
330
4D47
100
AcDbProxyObject
 90
      499
 91
      504
 93
      412
310
40D11A5B50B409028333333333333E33F0000000000000F9010790141107004050150841D405064090741402480A02677FFFFFD0
1001
ACAD
1000
AcDbSavedByObjectVersion
1070
     0
  0
ACAD_PROXY_OBJECT
  5
4D5A
102
{ACAD_REACTORS
330
4D47
102
}
330
4D47
100
AcDbProxyObject
 90
      499
 91
      504
 93
      452
310
43115919D950DBDB1BDC93D999916409028333333333333E33F0000000000000F9010790141107004050150841D405064090741402480A0350
1001
ACAD
1000
AcDbSavedByObjectVersion
1070
     0
  0
ACAD_PROXY_OBJECT
  5
4D56
102
{ACAD_REACTORS
330
4D47
102
}
330
4D47
100
AcDbProxyObject
 90
      499
 91
      504
 93
      444
310
42D19858D95C185D1D195C9B90F409028333333333333E33F0000000000000F9010790141107004050150841D405064090741402480A0350
1001
ACAD
1000
AcDbSavedByObjectVersion
1070
     0
  0
ACAD_PROXY_OBJECT
  5
4D48
102
{ACAD_REACTORS
330
4D47
102
}
330
4D47
100
AcDbProxyObject
 90
      499
 91
      504
 93
      380
310
41119B185D240901404333333333333E33F0000000000000F9010740A907004050150841D405064090741402480A1B50
1001
ACAD
1000
AcDbSavedByObjectVersion
1070
     0
  0
ACAD_PROXY_OBJECT
  5
4D49
102
{ACAD_REACTORS
330
4D47
102
}
330
4D47
100
AcDbProxyObject
 90
      499
 91
      504
 93
      468
310
43519B185D15DA5D1A115919D95CD0140901404333333333333E33F0000000000000F90107409019070040501600405405064090741402480A1B50
1001
ACAD
1000
AcDbSavedByObjectVersion
1070
     0
  0
ACAD_PROXY_OBJECT
  5
4D4A
102
{ACAD_REACTORS
330
4D47
102
}
330
4D47
100
AcDbProxyObject
 90
      499
 91
      504
 93
      404
310
41D1DBDD5C985D5910240902404333333333333E33F0000000000000F9010740A9070040501641D405064090741402480A1B50
1001
ACAD
1000
AcDbSavedByObjectVersion
1070
     0
  0
ACAD_PROXY_OBJECT
  5
4D4B
102
{ACAD_REACTORS
330
4D47
102
}
330
4D47
100
AcDbProxyObject
 90
      499
 91
      504
 93
      492
310
4411DBDD5C985D5915DA5D1A115919D95CD0340902404333333333333E33F0000000000000F90107409019070040501600405405064090741402480A1B50
1001
ACAD
1000
AcDbSavedByObjectVersion
1070
     0
  0
ACAD_PROXY_OBJECT
  5
4D4E
102
{ACAD_REACTORS
330
4D47
102
}
330
4D47
100
AcDbProxyObject
 90
      499
 91
      504
 93
      476
310
41921A5919195B90640502408333333333333E33F0000000000000F901079024090700405020000000000001110200405405064090740C02480A0340
1001
ACAD
1000
AcDbSavedByObjectVersion
1070
     0
  0
ACAD_PROXY_OBJECT
  5
4D58
102
{ACAD_REACTORS
330
4D47
102
}
330
4D47
100
AcDbProxyObject
 90
      499
 91
      504
 93
      428
310
42529A5D1D195C93D999914409028333333333333E33F0000000000000F9010790141107004050150A41D405064090741402480A0350
1001
ACAD
1000
AcDbSavedByObjectVersion
1070
     0
  0
ACAD_PROXY_OBJECT
  5
4D55
102
{ACAD_REACTORS
330
4D47
102
}
330
4D47
100
AcDbProxyObject
 90
      499
 91
      504
 93
      444
310
42D31A5B995C185D1D195C9B90E409028333333333333E33F0000000000000F9010790141107004050750841D405064090741402483A0350
1001
ACAD
1000
AcDbSavedByObjectVersion
1070
     0
  0
ACAD_PROXY_OBJECT
  5
518B
102
{ACAD_REACTORS
330
4D47
102
}
330
4D47
100
AcDbProxyObject
 90
      499
 91
      504
 93
      412
310
90A409038333333333333E33F0000000000000F901074090290700405010000000000201990108421405064090741402480A1B40
1001
ACAD
1000
AcDbSavedByObjectVersion
1070
     0
  0
ACAD_PROXY_OBJECT
  5
4D59
102
{ACAD_REACTORS
330
4D47
102
}
330
4D47
100
AcDbProxyObject
 90
      499
 91
      504
 93
      444
310
42D3DD995C9A185B99D3D999915409028333333333333E33F0000000000000F9010790141107004050150941D405064090741402480A0350
1001
ACAD
1000
AcDbSavedByObjectVersion
1070
     0
  0
ACAD_PROXY_OBJECT
  5
4D50
102
{ACAD_REACTORS
330
4D47
102
}
330
4D47
100
AcDbProxyObject
 90
      499
 91
      504
 93
      428
310
425499585B1A5CDD1A58D08409038333333333333E33F0000000000000F9010740A907004050150800405405064090740C02480A1B40
1001
ACAD
1000
AcDbSavedByObjectVersion
1070
     0
  0
ACAD_PROXY_OBJECT
  5
4D5F
102
{ACAD_REACTORS
330
4D47
102
}
330
4D47
100
AcDbProxyObject
 90
      499
 91
      504
 93
      420
310
4194DA1859195911B40902404333333333333E33F0000000000000F9010740A41107004050150800405405064090840C02480A0B40
1001
ACAD
1000
AcDbSavedByObjectVersion
1070
     0
  0
ACAD_PROXY_OBJECT
  5
4D5E
102
{ACAD_REACTORS
330
4D47
102
}
330
4D47
100
AcDbProxyObject
 90
      499
 91
      504
 93
      516
310
4454DA18591959081DDA5D1A08195919D95CD1A40902404333333333333E33F0000000000000F901074090142907004050250800405405064090740C02480A0B40
1001
ACAD
1000
AcDbSavedByObjectVersion
1070
     0
  0
ACAD_PROXY_OBJECT
  5
4D5B
102
{ACAD_REACTORS
330
4D47
102
}
330
4D47
100
AcDbProxyObject
 90
      499
 91
      504
 93
      532
310
4394DA1859195CC81BD98811DC985E5174090240C333333333333E33F0000000000000F901079024090741D01000000000000111010841D405064090740C02480A0340
1001
ACAD
1000
AcDbSavedByObjectVersion
1070
     0
  0
ACAD_PROXY_OBJECT
  5
4D5C
102
{ACAD_REACTORS
330
4D47
102
}
330
4D47
100
AcDbProxyObject
 90
      499
 91
      504
 93
      476
310
41D4DAD95D18DA1E51840502408333333333333E33F0000000000000F901079024090741D01000000000000111010B41D405064090741802480A0340
1001
ACAD
1000
AcDbSavedByObjectVersion
1070
     0
  0
ACAD_PROXY_OBJECT
  5
4D54
102
{ACAD_REACTORS
330
4D47
102
}
330
4D47
100
AcDbProxyObject
 90
      499
 91
      504
 93
      412
310
41D51A1A58DAD95B90D409028333333333333E33F0000000000000F9010790141107004050150C41D405064090741402480A0350
1001
ACAD
1000
AcDbSavedByObjectVersion
1070
     0
  0
ACAD_PROXY_OBJECT
  5
4D4D
102
{ACAD_REACTORS
330
4D47
102
}
330
4D47
100
AcDbProxyObject
 90
      499
 91
      504
 93
      420
310
4255DA5C99599C985B595059028333333333333E33F0000000000000F90107901411070040501600405405064090740C02480A0340
1001
ACAD
1000
AcDbSavedByObjectVersion
1070
     0
  0
ACAD_PROXY_OBJECT
  5
4D5D
102
{ACAD_REACTORS
330
4D47
102
}
330
4D47
100
AcDbProxyObject
 90
      499
 91
      504
 93
      404
310
41560B54985E51940902404000000000000E03F0000000000000F9010740501907004050150841D405064090740C02480A1B40
1001
ACAD
1000
AcDbSavedByObjectVersion
1070
     0
  0
XRECORD
  5
580E
102
{ACAD_REACTORS
330
5804
102
}
330
5804
100
AcDbXrecord
340
0
  0
XRECORD
  5
580D
102
{ACAD_REACTORS
330
5804
102
}
330
5804
100
AcDbXrecord
 90
        0
  0
XRECORD
  5
5827
102
{ACAD_REACTORS
330
5804
102
}
330
5804
100
AcDbXrecord
340
2948
  0
XRECORD
  5
5824
102
{ACAD_REACTORS
330
5804
102
}
330
5804
100
AcDbXrecord
1000
DSTYLE
1002
{
1070
   171
 70
     2
1070
   143
 40
0.0394
1070
   274
 70
     2
1070
    41
 40
6.0
1070
   342
340
2AF4
1070
   271
 70
     1
1070
   278
 70
    46
1070
   341
340
2AF4
1070
   272
 70
     1
1070
    48
 40
0.1
1070
   283
 70
     1
1070
    47
 40
0.1
1070
   145
 40
1.0
1070
   340
340
10
1070
   140
 40
8.0
1070
   284
 70
     0
1002
}
  0
XRECORD
  5
580F
102
{ACAD_REACTORS
330
5804
102
}
330
5804
100
AcDbXrecord
  1
{23698909-1D67-4744-B0E2-8DE11E3ED422}
  0
XRECORD
  5
5807
102
{ACAD_REACTORS
330
5804
102
}
330
5804
100
AcDbXrecord
  1

  0
XRECORD
  5
580C
102
{ACAD_REACTORS
330
5804
102
}
330
5804
100
AcDbXrecord
 90
        0
  0
XRECORD
  5
5809
102
{ACAD_REACTORS
330
5804
102
}
330
5804
100
AcDbXrecord
340
2816
  0
XRECORD
  5
580B
102
{ACAD_REACTORS
330
5804
102
}
330
5804
100
AcDbXrecord
 90
    10781
  0
XRECORD
  5
5828
102
{ACAD_REACTORS
330
5804
102
}
330
5804
100
AcDbXrecord
340
2947
  0
XRECORD
  5
580A
102
{ACAD_REACTORS
330
5804
102
}
330
5804
100
AcDbXrecord
340
2817
  0
XRECORD
  5
5811
102
{ACAD_REACTORS
330
5804
102
}
330
5804
100
AcDbXrecord
 40
0.25
  0
XRECORD
  5
5814
102
{ACAD_REACTORS
330
5804
102
}
330
5804
100
AcDbXrecord
340
0
  0
XRECORD
  5
581A
102
{ACAD_REACTORS
330
5804
102
}
330
5804
100
AcDbXrecord
 10
0.0
 20
0.0
 30
0.0
  0
XRECORD
  5
5816
102
{ACAD_REACTORS
330
5804
102
}
330
5804
100
AcDbXrecord
 10
0.0
 20
0.0
 30
0.0
  0
XRECORD
  5
5819
102
{ACAD_REACTORS
330
5804
102
}
330
5804
100
AcDbXrecord
 10
0.0
 20
0.0
 30
0.0
  0
XRECORD
  5
5817
102
{ACAD_REACTORS
330
5804
102
}
330
5804
100
AcDbXrecord
 10
0.0
 20
0.0
 30
0.0
  0
XRECORD
  5
5818
102
{ACAD_REACTORS
330
5804
102
}
330
5804
100
AcDbXrecord
 10
0.0
 20
0.0
 30
0.0
  0
XRECORD
  5
5815
102
{ACAD_REACTORS
330
5804
102
}
330
5804
100
AcDbXrecord
 10
0.0
 20
0.0
 30
0.0
  0
XRECORD
  5
5812
102
{ACAD_REACTORS
330
5804
102
}
330
5804
100
AcDbXrecord
340
0
  0
XRECORD
  5
5813
102
{ACAD_REACTORS
330
5804
102
}
330
5804
100
AcDbXrecord
 70
     0
  0
XRECORD
  5
5808
102
{ACAD_REACTORS
330
5804
102
}
330
5804
100
AcDbXrecord
  1

  0
XRECORD
  5
5805
102
{ACAD_REACTORS
330
5804
102
}
330
5804
100
AcDbXrecord
 90
        1
  0
XRECORD
  5
5806
102
{ACAD_REACTORS
330
5804
102
}
330
5804
100
AcDbXrecord
 90
       70
  0
XRECORD
  5
581D
102
{ACAD_REACTORS
330
5804
102
}
330
5804
100
AcDbXrecord
340
0
  0
XRECORD
  5
5823
102
{ACAD_REACTORS
330
5804
102
}
330
5804
100
AcDbXrecord
 10
0.0
 20
0.0
 30
0.0
  0
XRECORD
  5
581F
102
{ACAD_REACTORS
330
5804
102
}
330
5804
100
AcDbXrecord
 10
0.0
 20
0.0
 30
0.0
  0
XRECORD
  5
5822
102
{ACAD_REACTORS
330
5804
102
}
330
5804
100
AcDbXrecord
 10
0.0
 20
0.0
 30
0.0
  0
XRECORD
  5
5820
102
{ACAD_REACTORS
330
5804
102
}
330
5804
100
AcDbXrecord
 10
0.0
 20
0.0
 30
0.0
  0
XRECORD
  5
5821
102
{ACAD_REACTORS
330
5804
102
}
330
5804
100
AcDbXrecord
 10
0.0
 20
0.0
 30
0.0
  0
XRECORD
  5
581E
102
{ACAD_REACTORS
330
5804
102
}
330
5804
100
AcDbXrecord
 10
0.0
 20
0.0
 30
0.0
  0
XRECORD
  5
581B
102
{ACAD_REACTORS
330
5804
102
}
330
5804
100
AcDbXrecord
340
0
  0
XRECORD
  5
581C
102
{ACAD_REACTORS
330
5804
102
}
330
5804
100
AcDbXrecord
 70
     0
  0
XRECORD
  5
5810
102
{ACAD_REACTORS
330
5804
102
}
330
5804
100
AcDbXrecord
  1
{EC9A463C-16FF-4EB2-A065-F292A44A25A8}
  0
DICTIONARYVAR
  5
5098
102
{ACAD_REACTORS
330
5097
102
}
330
5097
100
DictionaryVariables
280
     0
  1
1:1
  0
DICTIONARYVAR
  5
509A
102
{ACAD_REACTORS
330
5097
102
}
330
5097
100
DictionaryVariables
280
     0
  1
Standard
  0
DICTIONARYVAR
  5
5099
102
{ACAD_REACTORS
330
5097
102
}
330
5097
100
DictionaryVariables
280
     0
  1
Standard
  0
DICTIONARYVAR
  5
5825
102
{ACAD_REACTORS
330
5097
102
}
330
5097
100
DictionaryVariables
280
     0
  1
1
  0
DICTIONARYVAR
  5
5826
102
{ACAD_REACTORS
330
5097
102
}
330
5097
100
DictionaryVariables
280
     0
  1
0
  0
DICTIONARYVAR
  5
509B
102
{ACAD_REACTORS
330
5097
102
}
330
5097
100
DictionaryVariables
280
     0
  1
0
  0
DICTIONARYVAR
  5
509C
102
{ACAD_REACTORS
330
5097
102
}
330
5097
100
DictionaryVariables
280
     0
  1
0
  0
DICTIONARY
  5
4FC0
102
{ACAD_REACTORS
330
4FBF
102
}
330
4FBF
100
AcDbDictionary
  0
DICTIONARY
  5
4FD5
102
{ACAD_REACTORS
330
4FD4
102
}
330
4FD4
100
AcDbDictionary
  0
DICTIONARY
  5
4FEC
102
{ACAD_REACTORS
330
4FEB
102
}
330
4FEB
100
AcDbDictionary
  0
DICTIONARY
  5
4FF0
102
{ACAD_REACTORS
330
4FEF
102
}
330
4FEF
100
AcDbDictionary
  0
DICTIONARY
  5
4FF4
102
{ACAD_REACTORS
330
4FF3
102
}
330
4FF3
100
AcDbDictionary
  0
DICTIONARY
  5
4FF8
102
{ACAD_REACTORS
330
4FF7
102
}
330
4FF7
100
AcDbDictionary
  0
DICTIONARY
  5
4FFC
102
{ACAD_REACTORS
330
4FFB
102
}
330
4FFB
100
AcDbDictionary
  0
DICTIONARY
  5
5000
102
{ACAD_REACTORS
330
4FFF
102
}
330
4FFF
100
AcDbDictionary
  0
DICTIONARY
  5
5004
102
{ACAD_REACTORS
330
5003
102
}
330
5003
100
AcDbDictionary
  0
DICTIONARY
  5
5008
102
{ACAD_REACTORS
330
5007
102
}
330
5007
100
AcDbDictionary
  0
DICTIONARY
  5
520F
102
{ACAD_REACTORS
330
520E
102
}
330
520E
100
AcDbDictionary
  0
DICTIONARY
  5
525C
102
{ACAD_REACTORS
330
525B
102
}
330
525B
100
AcDbDictionary
  0
DICTIONARY
  5
5260
102
{ACAD_REACTORS
330
525F
102
}
330
525F
100
AcDbDictionary
  0
DICTIONARY
  5
55CD
102
{ACAD_REACTORS
330
55CC
102
}
330
55CC
100
AcDbDictionary
  0
DICTIONARY
  5
55D1
102
{ACAD_REACTORS
330
55D0
102
}
330
55D0
100
AcDbDictionary
  0
DICTIONARY
  5
55D5
102
{ACAD_REACTORS
330
55D4
102
}
330
55D4
100
AcDbDictionary
  0
DICTIONARY
  5
55E9
102
{ACAD_REACTORS
330
55E8
102
}
330
55E8
100
AcDbDictionary
  0
DICTIONARY
  5
55ED
102
{ACAD_REACTORS
330
55EC
102
}
330
55EC
100
AcDbDictionary
  0
DICTIONARY
  5
55F1
102
{ACAD_REACTORS
330
55F0
102
}
330
55F0
100
AcDbDictionary
  0
DICTIONARY
  5
5336
102
{ACAD_REACTORS
330
5335
102
}
330
5335
100
AcDbDictionary
  0
DICTIONARY
  5
533A
102
{ACAD_REACTORS
330
5339
102
}
330
5339
100
AcDbDictionary
  0
DICTIONARY
  5
533F
102
{ACAD_REACTORS
330
533E
102
}
330
533E
100
AcDbDictionary
  0
DICTIONARY
  5
53AA
102
{ACAD_REACTORS
330
53A9
102
}
330
53A9
100
AcDbDictionary
  0
DICTIONARY
  5
54F6
102
{ACAD_REACTORS
330
54F5
102
}
330
54F5
100
AcDbDictionary
  0
DICTIONARY
  5
57A7
102
{ACAD_REACTORS
330
57A6
102
}
330
57A6
100
AcDbDictionary
  0
DICTIONARY
  5
582E
330
4D83
100
AcDbDictionary
280
     1
  3
ACAD_XREC_ROUNDTRIP
360
582F
  0
DICTIONARY
  5
582C
330
4D82
100
AcDbDictionary
280
     1
  3
ACAD_XREC_ROUNDTRIP
360
582D
  0
DICTIONARY
  5
5830
330
4D84
100
AcDbDictionary
280
     1
  3
ACAD_XREC_ROUNDTRIP
360
5831
  0
XRECORD
  5
582F
102
{ACAD_REACTORS
330
582E
102
}
330
582E
100
AcDbXrecord
102
MATERIAL
148
0.0
149
0.0
149
0.0
 93
        0
 94
      127
282
     0
 72
     1
 77
     1
171
     1
175
     1
179
     1
273
     0
  0
XRECORD
  5
582D
102
{ACAD_REACTORS
330
582C
102
}
330
582C
100
AcDbXrecord
102
MATERIAL
148
0.0
149
0.0
149
0.0
 93
        0
 94
      127
282
     0
 72
     1
 77
     1
171
     1
175
     1
179
     1
273
     0
  0
XRECORD
  5
5831
102
{ACAD_REACTORS
330
5830
102
}
330
5830
100
AcDbXrecord
102
MATERIAL
148
0.0
149
0.0
149
0.0
 93
        0
 94
      127
282
     0
 72
     1
 77
     1
171
     1
175
     1
179
     1
273
     0
  0
ENDSEC
  0
EOF
