  0
SECTION
  2
HEADER
  9
$ACADVER
  1
AC1014
  9
$ACADMAINTVER
 70
     9
  9
$DWGCODEPAGE
  3
ANSI_932
  9
$INSBASE
 10
0.0
 20
0.0
 30
0.0
  9
$EXTMIN
 10
-69.795174764262
 20
111.066639540414
 30
0.0
  9
$EXTMAX
 10
654.194073832004
 20
534.021463302205
 30
0.0
  9
$LIMMIN
 10
-360.747566795242
 20
4.457354754526
  9
$LIMMAX
 10
-162.153696144267
 20
287.675440264018
  9
$ORTHOMODE
 70
     0
  9
$REGENMODE
 70
     1
  9
$FILLMODE
 70
     1
  9
$QTEXTMODE
 70
     0
  9
$MIRRTEXT
 70
     1
  9
$DRAGMODE
 70
     2
  9
$LTSCALE
 40
1.0
  9
$OSMODE
 70
   935
  9
$ATTMODE
 70
     1
  9
$TEXTSIZE
 40
4.0
  9
$TRACEWID
 40
1.0
  9
$TEXTSTYLE
  7
STANDARD
  9
$CLAYER
  8
外形線
  9
$CELTYPE
  6
BYLAYER
  9
$CECOLOR
 62
   256
  9
$CELTSCALE
 40
10.0
  9
$DELOBJ
 70
     1
  9
$DISPSILH
 70
     0
  9
$DIMSCALE
 40
1.0
  9
$DIMASZ
 40
6.0
  9
$DIMEXO
 40
0.625
  9
$DIMDLI
 40
3.75
  9
$DIMRND
 40
0.0
  9
$DIMDLE
 40
0.0
  9
$DIMEXE
 40
1.25
  9
$DIMTP
 40
0.1
  9
$DIMTM
 40
0.1
  9
$DIMTXT
 40
8.0
  9
$DIMCEN
 40
2.5
  9
$DIMTSZ
 40
0.0
  9
$DIMTOL
 70
     0
  9
$DIMLIM
 70
     0
  9
$DIMTIH
 70
     0
  9
$DIMTOH
 70
     0
  9
$DIMSE1
 70
     0
  9
$DIMSE2
 70
     0
  9
$DIMTAD
 70
     1
  9
$DIMZIN
 70
     8
  9
$DIMBLK
  1
OPEN30
  9
$DIMASO
 70
     1
  9
$DIMSHO
 70
     1
  9
$DIMPOST
  1

  9
$DIMAPOST
  1

  9
$DIMALT
 70
     0
  9
$DIMALTD
 70
     2
  9
$DIMALTF
 40
0.0394
  9
$DIMLFAC
 40
1.0
  9
$DIMTOFL
 70
     1
  9
$DIMTVP
 40
1.0
  9
$DIMTIX
 70
     0
  9
$DIMSOXD
 70
     0
  9
$DIMSAH
 70
     0
  9
$DIMBLK1
  1

  9
$DIMBLK2
  1

  9
$DIMSTYLE
  2
ISO-25
  9
$DIMCLRD
 70
     0
  9
$DIMCLRE
 70
     0
  9
$DIMCLRT
 70
     0
  9
$DIMTFAC
 40
1.0
  9
$DIMGAP
 40
0.625
  9
$DIMJUST
 70
     0
  9
$DIMSD1
 70
     0
  9
$DIMSD2
 70
     0
  9
$DIMTOLJ
 70
     1
  9
$DIMTZIN
 70
     0
  9
$DIMALTZ
 70
     0
  9
$DIMALTTZ
 70
     0
  9
$DIMFIT
 70
     5
  9
$DIMUPT
 70
     0
  9
$DIMUNIT
 70
     2
  9
$DIMDEC
 70
     1
  9
$DIMTDEC
 70
     1
  9
$DIMALTU
 70
     2
  9
$DIMALTTD
 70
     2
  9
$DIMTXSTY
  7
STANDARD
  9
$DIMAUNIT
 70
     0
  9
$LUNITS
 70
     2
  9
$LUPREC
 70
     4
  9
$SKETCHINC
 40
1.0
  9
$FILLETRAD
 40
1.0
  9
$AUNITS
 70
     0
  9
$AUPREC
 70
     0
  9
$MENU
  1
.
  9
$ELEVATION
 40
0.0
  9
$PELEVATION
 40
0.0
  9
$THICKNESS
 40
0.0
  9
$LIMCHECK
 70
     0
  9
$CHAMFERA
 40
1.0
  9
$CHAMFERB
 40
1.0
  9
$CHAMFERC
 40
20.0
  9
$CHAMFERD
 40
0.0
  9
$SKPOLY
 70
     0
  9
$TDCREATE
 40
2450576.597302431
  9
$TDUPDATE
 40
2457627.665794109
  9
$TDINDWG
 40
1.5429318981
  9
$TDUSRTIMER
 40
1.5429318981
  9
$USRTIMER
 70
     1
  9
$ANGBASE
 50
0.0
  9
$ANGDIR
 70
     0
  9
$PDMODE
 70
     0
  9
$PDSIZE
 40
0.0
  9
$PLINEWID
 40
0.0
  9
$COORDS
 70
     2
  9
$SPLFRAME
 70
     0
  9
$SPLINETYPE
 70
     6
  9
$SPLINESEGS
 70
     8
  9
$ATTDIA
 70
     0
  9
$ATTREQ
 70
     1
  9
$HANDLING
 70
     1
  9
$HANDSEED
  5
6579
  9
$SURFTAB1
 70
     6
  9
$SURFTAB2
 70
     6
  9
$SURFTYPE
 70
     6
  9
$SURFU
 70
     6
  9
$SURFV
 70
     6
  9
$UCSNAME
  2

  9
$UCSORG
 10
0.0
 20
0.0
 30
0.0
  9
$UCSXDIR
 10
1.0
 20
0.0
 30
0.0
  9
$UCSYDIR
 10
0.0
 20
1.0
 30
0.0
  9
$PUCSNAME
  2

  9
$PUCSORG
 10
0.0
 20
0.0
 30
0.0
  9
$PUCSXDIR
 10
1.0
 20
0.0
 30
0.0
  9
$PUCSYDIR
 10
0.0
 20
1.0
 30
0.0
  9
$USERI1
 70
     0
  9
$USERI2
 70
     0
  9
$USERI3
 70
     0
  9
$USERI4
 70
     0
  9
$USERI5
 70
     0
  9
$USERR1
 40
0.0
  9
$USERR2
 40
0.0
  9
$USERR3
 40
0.0
  9
$USERR4
 40
0.0
  9
$USERR5
 40
0.0
  9
$WORLDVIEW
 70
     1
  9
$SHADEDGE
 70
     3
  9
$SHADEDIF
 70
    70
  9
$TILEMODE
 70
     0
  9
$MAXACTVP
 70
    16
  9
$PINSBASE
 10
0.0
 20
0.0
 30
0.0
  9
$PLIMCHECK
 70
     0
  9
$PEXTMIN
 10
4.746305129083
 20
1.396645458131
 30
0.0
  9
$PEXTMAX
 10
404.746305129083
 20
281.396645458131
 30
0.0
  9
$PLIMMIN
 10
-26.382099540178
 20
-10.276506292842
  9
$PLIMMAX
 10
435.874709798345
 20
316.571742734396
  9
$UNITMODE
 70
     0
  9
$VISRETAIN
 70
     0
  9
$PLINEGEN
 70
     0
  9
$PSLTSCALE
 70
     1
  9
$TREEDEPTH
 70
  3020
  9
$PICKSTYLE
 70
     1
  9
$CMLSTYLE
  2
STANDARD
  9
$CMLJUST
 70
     0
  9
$CMLSCALE
 40
1.0
  9
$PROXYGRAPHICS
 70
     1
  9
$MEASUREMENT
 70
     1
  0
ENDSEC
  0
SECTION
  2
CLASSES
  0
CLASS
  1
ACDBDICTIONARYWDFLT
  2
AcDbDictionaryWithDefault
  3
ObjectDBX Classes
 90
        0
280
     0
281
     0
  0
CLASS
  1
ACDBPLACEHOLDER
  2
AcDbPlaceHolder
  3
ObjectDBX Classes
 90
        0
280
     0
281
     0
  0
CLASS
  1
LAYOUT
  2
AcDbLayout
  3
ObjectDBX Classes
 90
        0
280
     0
281
     0
  0
CLASS
  1
SORTENTSTABLE
  2
AcDbSortentsTable
  3
ObjectDBX Classes
 90
        0
280
     0
281
     0
  0
CLASS
  1
VISUALSTYLE
  2
AcDbVisualStyle
  3
ObjectDBX Classes
 90
     4095
280
     0
281
     0
  0
CLASS
  1
SCALE
  2
AcDbScale
  3
ObjectDBX Classes
 90
     1153
280
     0
281
     0
  0
CLASS
  1
MATERIAL
  2
AcDbMaterial
  3
ObjectDBX Classes
 90
     1153
280
     0
281
     0
  0
CLASS
  1
TABLESTYLE
  2
AcDbTableStyle
  3
ObjectDBX Classes
 90
     4095
280
     0
281
     0
  0
CLASS
  1
MLEADERSTYLE
  2
AcDbMLeaderStyle
  3
ACDB_MLEADERSTYLE_CLASS
 90
     4095
280
     0
281
     0
  0
CLASS
  1
SUN
  2
AcDbSun
  3
SCENEOE
 90
     1153
280
     0
281
     0
  0
CLASS
  1
DICTIONARYVAR
  2
AcDbDictionaryVar
  3
ObjectDBX Classes
 90
        0
280
     0
281
     0
  0
CLASS
  1
CELLSTYLEMAP
  2
AcDbCellStyleMap
  3
ObjectDBX Classes
 90
     1152
280
     0
281
     0
  0
CLASS
  1
XRECORD
  2
AcDbXrecord
  3
ObjectDBX Classes
 90
        0
280
     0
281
     0
  0
CLASS
  1
LWPOLYLINE
  2
AcDbPolyline
  3
ObjectDBX Classes
 90
        0
280
     0
281
     1
  0
CLASS
  1
HATCH
  2
AcDbHatch
  3
ObjectDBX Classes
 90
        0
280
     0
281
     1
  0
ENDSEC
  0
SECTION
  2
TABLES
  0
TABLE
  2
VPORT
  5
8
102
{ACAD_XDICTIONARY
360
6570
102
}
330
0
100
AcDbSymbolTable
 70
     1
  0
VPORT
  5
5DE1
330
8
100
AcDbSymbolTableRecord
100
AcDbViewportTableRecord
  2
*ACTIVE
 70
     0
 10
0.0
 20
0.0
 11
1.0
 21
1.0
 12
292.199449533871
 22
322.544051421309
 13
0.0
 23
0.0
 14
1.0
 24
1.0
 15
0.0
 25
0.0
 16
0.0
 26
0.0
 36
1.0
 17
0.0
 27
0.0
 37
0.0
 40
431.413920237028
 41
1.759407069555
 42
50.0
 43
0.0
 44
0.0
 50
0.0
 51
0.0
 71
    16
 72
   100
 73
     1
 74
     0
 75
     0
 76
     0
 77
     0
 78
     0
  0
ENDTAB
  0
TABLE
  2
LTYPE
  5
5
330
0
100
AcDbSymbolTable
 70
     6
  0
LTYPE
  5
14
330
5
100
AcDbSymbolTableRecord
100
AcDbLinetypeTableRecord
  2
BYBLOCK
 70
     0
  3

 72
    65
 73
     0
 40
0.0
  0
LTYPE
  5
15
330
5
100
AcDbSymbolTableRecord
100
AcDbLinetypeTableRecord
  2
BYLAYER
 70
     0
  3

 72
    65
 73
     0
 40
0.0
  0
LTYPE
  5
16
330
5
100
AcDbSymbolTableRecord
100
AcDbLinetypeTableRecord
  2
CONTINUOUS
 70
     0
  3
Solid line
 72
    65
 73
     0
 40
0.0
  0
LTYPE
  5
1EC
330
5
100
AcDbSymbolTableRecord
100
AcDbLinetypeTableRecord
  2
CENTER
 70
     0
  3
____ _ ____ _ ____ _ ____ _ ____ _ ____ _ ____ 
 72
    65
 73
     4
 40
2.0
 49
1.25
 74
     0
 49
-0.25
 74
     0
 49
0.25
 74
     0
 49
-0.25
 74
     0
  0
LTYPE
  5
1ED
330
5
100
AcDbSymbolTableRecord
100
AcDbLinetypeTableRecord
  2
DASHED
 70
     0
  3
__ __ __ __ __ __ __ __ __ __ __ __ __ __ __ __
 72
    65
 73
     2
 40
0.75
 49
0.5
 74
     0
 49
-0.25
 74
     0
  0
LTYPE
  5
2B1F
330
5
100
AcDbSymbolTableRecord
100
AcDbLinetypeTableRecord
  2
DASHDOT
 70
     0
  3
一点鎖線
 72
    65
 73
     4
 40
25.6
 49
20.0
 74
     0
 49
-2.0
 74
     0
 49
1.6
 74
     0
 49
-2.0
 74
     0
  0
LTYPE
  5
31A1
330
5
100
AcDbSymbolTableRecord
100
AcDbLinetypeTableRecord
  2
CENTER2
 70
     0
  3
Center (.5x) ___ _ ___ _ ___ _ ___ _ ___ _ ___
 72
    65
 73
     4
 40
28.575
 49
19.05
 74
     0
 49
-3.175
 74
     0
 49
3.175
 74
     0
 49
-3.175
 74
     0
  0
LTYPE
  5
4002
330
5
100
AcDbSymbolTableRecord
100
AcDbLinetypeTableRecord
  2
DASHED2
 70
     0
  3
Dashed (.5x) _ _ _ _ _ _ _ _ _ _ _ _ _ _ _ _ _
 72
    65
 73
     2
 40
9.525
 49
6.35
 74
     0
 49
-3.175
 74
     0
  0
ENDTAB
  0
TABLE
  2
LAYER
  5
2
102
{ACAD_XDICTIONARY
360
29EA
102
}
330
0
100
AcDbSymbolTable
 70
    13
  0
LAYER
  5
F
330
2
100
AcDbSymbolTableRecord
100
AcDbLayerTableRecord
  2
0
 70
     0
 62
     7
  6
CONTINUOUS
  0
LAYER
  5
61
330
2
100
AcDbSymbolTableRecord
100
AcDbLayerTableRecord
  2
図枠太線
 70
     0
 62
   251
  6
CONTINUOUS
  0
LAYER
  5
62
330
2
100
AcDbSymbolTableRecord
100
AcDbLayerTableRecord
  2
図枠細線
 70
     0
 62
   252
  6
CONTINUOUS
  0
LAYER
  5
63
330
2
100
AcDbSymbolTableRecord
100
AcDbLayerTableRecord
  2
図枠ロゴマーク
 70
     0
 62
   253
  6
CONTINUOUS
  0
LAYER
  5
1EF
330
2
100
AcDbSymbolTableRecord
100
AcDbLayerTableRecord
  2
外形線
 70
     0
 62
     7
  6
CONTINUOUS
  0
LAYER
  5
1F0
330
2
100
AcDbSymbolTableRecord
100
AcDbLayerTableRecord
  2
寸法線
 70
     0
 62
     1
  6
CONTINUOUS
  0
LAYER
  5
1F1
330
2
100
AcDbSymbolTableRecord
100
AcDbLayerTableRecord
  2
中心線
 70
     0
 62
     4
  6
CENTER
  0
LAYER
  5
1F4
330
2
100
AcDbSymbolTableRecord
100
AcDbLayerTableRecord
  2
DEFPOINTS
 70
     0
 62
     7
  6
CONTINUOUS
  0
LAYER
  5
2AA2
330
2
100
AcDbSymbolTableRecord
100
AcDbLayerTableRecord
  2
下書線
 70
     0
 62
     2
  6
CONTINUOUS
  0
LAYER
  5
2AA3
330
2
100
AcDbSymbolTableRecord
100
AcDbLayerTableRecord
  2
隠れ線
 70
     0
 62
     3
  6
DASHED
  0
LAYER
  5
2AA4
330
2
100
AcDbSymbolTableRecord
100
AcDbLayerTableRecord
  2
細線
 70
     0
 62
     6
  6
CONTINUOUS
  0
LAYER
  5
2AA5
330
2
100
AcDbSymbolTableRecord
100
AcDbLayerTableRecord
  2
太線
 70
     0
 62
   190
  6
CONTINUOUS
  0
LAYER
  5
5580
330
2
100
AcDbSymbolTableRecord
100
AcDbLayerTableRecord
  2
LAY-1
 70
     0
 62
     7
  6
CONTINUOUS
  0
ENDTAB
  0
TABLE
  2
STYLE
  5
3
330
0
100
AcDbSymbolTable
 70
     2
  0
STYLE
  5
10
330
3
100
AcDbSymbolTableRecord
100
AcDbTextStyleTableRecord
  2
STANDARD
 70
     0
 40
0.0
 41
1.0
 50
0.0
 71
     0
 42
4.0
  3
ISOCP
  4
bigfont.shx
  0
STYLE
  5
64
330
3
100
AcDbSymbolTableRecord
100
AcDbTextStyleTableRecord
  2
EXCADSTD
 70
     0
 40
0.0
 41
1.0
 50
0.0
 71
     0
 42
0.2
  3
monotxt
  4
bigfont
  0
ENDTAB
  0
TABLE
  2
VIEW
  5
6
330
0
100
AcDbSymbolTable
 70
     0
  0
ENDTAB
  0
TABLE
  2
UCS
  5
7
330
0
100
AcDbSymbolTable
 70
     0
  0
ENDTAB
  0
TABLE
  2
APPID
  5
9
330
0
100
AcDbSymbolTable
 70
     6
  0
APPID
  5
11
330
9
100
AcDbSymbolTableRecord
100
AcDbRegAppTableRecord
  2
ACAD
 70
     0
  0
APPID
  5
3507
330
9
100
AcDbSymbolTableRecord
100
AcDbRegAppTableRecord
  2
ACAD_DIMASSOC_CALC_DIMLFAC
 70
     0
  0
APPID
  5
3508
330
9
100
AcDbSymbolTableRecord
100
AcDbRegAppTableRecord
  2
ACAD_DIMASSOC_DIMLFAC
 70
     0
  0
APPID
  5
3509
330
9
100
AcDbSymbolTableRecord
100
AcDbRegAppTableRecord
  2
ACAD_DIMASSOC_OVERRIDDEN_D
 70
     0
  0
APPID
  5
5E2B
330
9
100
AcDbSymbolTableRecord
100
AcDbRegAppTableRecord
  2
ACADANNOTATIVE
 70
     0
  0
APPID
  5
6094
330
9
100
AcDbSymbolTableRecord
100
AcDbRegAppTableRecord
  2
ACAD_MLEADERVER
 70
     0
  0
ENDTAB
  0
TABLE
  2
DIMSTYLE
  5
A
330
0
100
AcDbSymbolTable
 70
     2
  0
DIMSTYLE
105
1D
330
A
100
AcDbSymbolTableRecord
100
AcDbDimStyleTableRecord
  2
STANDARD
 70
     0
  3

  4

  5

  6

  7

 40
1.0
 41
0.18
 42
0.0625
 43
0.38
 44
0.18
 45
0.0
 46
0.0
 47
0.0
 48
0.0
140
0.18
141
0.09
142
0.0
143
25.4
144
1.0
145
0.0
146
1.0
147
0.09
 71
     0
 72
     0
 73
     1
 74
     1
 75
     0
 76
     0
 77
     0
 78
     0
170
     0
171
     2
172
     0
173
     0
174
     0
175
     0
176
     0
177
     0
178
     0
270
     2
271
     4
272
     4
273
     2
274
     2
340
10
275
     0
280
     0
281
     0
282
     0
283
     1
284
     0
285
     0
286
     0
287
     3
288
     0
  0
DIMSTYLE
105
24
102
{ACAD_REACTORS
330
5375
330
5382
330
538F
330
539C
330
5437
330
548F
330
549C
330
54A9
330
54B6
330
5AB9
330
5ABA
330
5ABB
330
5B56
330
6279
330
6297
102
}
330
A
100
AcDbSymbolTableRecord
100
AcDbDimStyleTableRecord
  2
ISO-25
 70
     0
  3

  4

  5

  6

  7

 40
1.0
 41
2.5
 42
0.625
 43
3.75
 44
1.25
 45
0.0
 46
0.0
 47
0.0
 48
0.0
140
2.5
141
2.5
142
0.0
143
0.0394
144
1.0
145
1.0
146
1.0
147
0.625
 71
     0
 72
     0
 73
     1
 74
     0
 75
     0
 76
     0
 77
     1
 78
     8
170
     0
171
     2
172
     1
173
     0
174
     0
175
     0
176
     0
177
     0
178
     0
270
     2
271
     4
272
     4
273
     2
274
     2
340
10
275
     0
280
     0
281
     0
282
     0
283
     1
284
     0
285
     0
286
     0
287
     3
288
     0
  0
ENDTAB
  0
TABLE
  2
BLOCK_RECORD
  5
1
330
0
100
AcDbSymbolTable
 70
    22
  0
BLOCK_RECORD
  5
1A
102
{ACAD_XDICTIONARY
360
53CC
102
}
330
1
100
AcDbSymbolTableRecord
100
AcDbBlockTableRecord
  2
*MODEL_SPACE
  0
BLOCK_RECORD
  5
28FB
330
1
100
AcDbSymbolTableRecord
100
AcDbBlockTableRecord
  2
*PAPER_SPACE
  0
BLOCK_RECORD
  5
65
330
1
100
AcDbSymbolTableRecord
100
AcDbBlockTableRecord
  2
A$C3392
  0
BLOCK_RECORD
  5
29BF
330
1
100
AcDbSymbolTableRecord
100
AcDbBlockTableRecord
  2
A4横用_タイトル
1001
ACAD
1000
DesignCenter Data
1002
{
1070
     1
1070
     4
1002
}
  0
BLOCK_RECORD
  5
29F4
330
1
100
AcDbSymbolTableRecord
100
AcDbBlockTableRecord
  2
A4縦用_タイトル
1001
ACAD
1000
DesignCenter Data
1002
{
1070
     1
1070
     4
1002
}
  0
BLOCK_RECORD
  5
2A32
330
1
100
AcDbSymbolTableRecord
100
AcDbBlockTableRecord
  2
A3横用_タイトル
1001
ACAD
1000
DesignCenter Data
1002
{
1070
     1
1070
     4
1002
}
  0
BLOCK_RECORD
  5
2A6C
330
1
100
AcDbSymbolTableRecord
100
AcDbBlockTableRecord
  2
A3縦用_タイトル
1001
ACAD
1000
DesignCenter Data
1002
{
1070
     1
1070
     4
1002
}
  0
BLOCK_RECORD
  5
2AF4
330
1
100
AcDbSymbolTableRecord
100
AcDbBlockTableRecord
  2
_OPEN30
  0
BLOCK_RECORD
  5
5376
330
1
100
AcDbSymbolTableRecord
100
AcDbBlockTableRecord
  2
*D6
  0
BLOCK_RECORD
  5
5383
330
1
100
AcDbSymbolTableRecord
100
AcDbBlockTableRecord
  2
*D7
  0
BLOCK_RECORD
  5
5390
330
1
100
AcDbSymbolTableRecord
100
AcDbBlockTableRecord
  2
*D8
  0
BLOCK_RECORD
  5
539D
330
1
100
AcDbSymbolTableRecord
100
AcDbBlockTableRecord
  2
*D9
  0
BLOCK_RECORD
  5
5450
330
1
100
AcDbSymbolTableRecord
100
AcDbBlockTableRecord
  2
*D10
  0
BLOCK_RECORD
  5
5490
330
1
100
AcDbSymbolTableRecord
100
AcDbBlockTableRecord
  2
*D11
  0
BLOCK_RECORD
  5
549D
330
1
100
AcDbSymbolTableRecord
100
AcDbBlockTableRecord
  2
*D12
  0
BLOCK_RECORD
  5
54AA
330
1
100
AcDbSymbolTableRecord
100
AcDbBlockTableRecord
  2
*D13
  0
BLOCK_RECORD
  5
54B7
330
1
100
AcDbSymbolTableRecord
100
AcDbBlockTableRecord
  2
*D14
  0
BLOCK_RECORD
  5
5A04
330
1
100
AcDbSymbolTableRecord
100
AcDbBlockTableRecord
  2
静電容量センサ
  0
BLOCK_RECORD
  5
5AC0
330
1
100
AcDbSymbolTableRecord
100
AcDbBlockTableRecord
  2
*D16
  0
BLOCK_RECORD
  5
5ACC
330
1
100
AcDbSymbolTableRecord
100
AcDbBlockTableRecord
  2
*D17
  0
BLOCK_RECORD
  5
5AD8
330
1
100
AcDbSymbolTableRecord
100
AcDbBlockTableRecord
  2
*D18
  0
BLOCK_RECORD
  5
5B57
330
1
100
AcDbSymbolTableRecord
100
AcDbBlockTableRecord
  2
*D19
  0
BLOCK_RECORD
  5
6298
330
1
100
AcDbSymbolTableRecord
100
AcDbBlockTableRecord
  2
*D20
  0
BLOCK_RECORD
  5
62B0
330
1
100
AcDbSymbolTableRecord
100
AcDbBlockTableRecord
  2
*D21
  0
ENDTAB
  0
ENDSEC
  0
SECTION
  2
BLOCKS
  0
BLOCK
  5
1B
330
1A
100
AcDbEntity
  8
0
100
AcDbBlockBegin
  2
*MODEL_SPACE
 70
     0
 10
0.0
 20
0.0
 30
0.0
  3
*MODEL_SPACE
  1

  0
ENDBLK
  5
1C
330
1A
100
AcDbEntity
  8
0
100
AcDbBlockEnd
  0
BLOCK
  5
28FD
330
28FB
100
AcDbEntity
 67
     1
  8
0
 48
10.0
100
AcDbBlockBegin
  2
*PAPER_SPACE
 70
     0
 10
0.0
 20
0.0
 30
0.0
  3
*PAPER_SPACE
  1

  0
ENDBLK
  5
28FE
330
28FB
100
AcDbEntity
 67
     1
  8
0
 48
10.0
100
AcDbBlockEnd
  0
BLOCK
  5
93
330
65
100
AcDbEntity
  8
0
100
AcDbBlockBegin
  2
A$C3392
 70
     0
 10
0.0
 20
0.0
 30
0.0
  3
A$C3392
  1

  0
LINE
  5
66
330
65
100
AcDbEntity
  8
図枠太線
  6
CONTINUOUS
100
AcDbLine
 10
211.858584505185
 20
30.927375675439
 30
0.0
 11
211.858584505185
 21
0.927375675439
 31
0.0
  0
LINE
  5
67
330
65
100
AcDbEntity
  8
図枠細線
  6
CONTINUOUS
100
AcDbLine
 10
231.858592505185
 20
15.927377675439
 30
0.0
 11
287.858592505185
 21
15.927375675439
 31
0.0
  0
LINE
  5
68
330
65
100
AcDbEntity
  8
図枠細線
  6
CONTINUOUS
100
AcDbLine
 10
211.858592505185
 20
15.927377675439
 30
0.0
 11
231.858592505185
 21
15.927377675439
 31
0.0
  0
LINE
  5
69
330
65
100
AcDbEntity
  8
図枠太線
  6
CONTINUOUS
 62
   251
100
AcDbLine
 10
1.858584505185
 20
0.927375675439
 30
0.0
 11
1.858584505185
 21
275.927375675439
 31
0.0
  0
TEXT
  5
6A
330
65
100
AcDbEntity
  8
図枠細線
  6
CONTINUOUS
 62
   252
100
AcDbText
 10
351.358592505185
 20
28.427377675439
 30
0.0
 40
2.0
  1
ＴＩＴＬＥ
 41
0.892857142857
  7
EXCADSTD
 72
     5
 11
361.358592505185
 21
28.427377675439
 31
0.0
100
AcDbText
  0
TEXT
  5
6B
330
65
100
AcDbEntity
  8
図枠細線
  6
CONTINUOUS
 62
   252
100
AcDbText
 10
345.358592505185
 20
28.427377675439
 30
0.0
 40
2.0
  1
名称
 41
1.136363636364
  7
EXCADSTD
 72
     5
 11
350.358592505185
 21
28.427377675439
 31
0.0
100
AcDbText
  0
TEXT
  5
6C
330
65
100
AcDbEntity
  8
図枠細線
  6
CONTINUOUS
 62
   252
100
AcDbText
 10
274.358592505185
 20
25.927377675439
 30
0.0
 40
2.0
  1
ＤＲＡＷＮ
 41
0.892857142857
  7
EXCADSTD
 72
     5
 11
284.358592505185
 21
25.927377675439
 31
0.0
100
AcDbText
  0
TEXT
  5
6D
330
65
100
AcDbEntity
  8
図枠細線
  6
CONTINUOUS
 62
   252
100
AcDbText
 10
260.358592505185
 20
25.927377675439
 30
0.0
 40
2.0
  1
ＤＥＳＩＧＮＥＤ
 41
0.713043472041
  7
EXCADSTD
 72
     5
 11
273.478592390744
 21
25.927377675439
 31
0.0
100
AcDbText
  0
TEXT
  5
6E
330
65
100
AcDbEntity
  8
図枠細線
  6
CONTINUOUS
 62
   252
100
AcDbText
 10
246.358592505185
 20
25.927377675439
 30
0.0
 40
2.0
  1
ＣＨＥＣＫＥＤ
 41
0.831249989569
  7
EXCADSTD
 72
     5
 11
259.658592338292
 21
25.927377675439
 31
0.0
100
AcDbText
  0
TEXT
  5
6F
330
65
100
AcDbEntity
  8
図枠細線
  6
CONTINUOUS
 62
   252
100
AcDbText
 10
274.358592505185
 20
28.427377675439
 30
0.0
 40
2.0
  1
製図
 41
1.171875
  7
EXCADSTD
 72
     5
 11
279.358592505185
 21
28.427377675439
 31
0.0
100
AcDbText
  0
TEXT
  5
70
330
65
100
AcDbEntity
  8
図枠細線
  6
CONTINUOUS
 62
   252
100
AcDbText
 10
260.358592505185
 20
28.427377675439
 30
0.0
 40
2.0
  1
設計
 41
1.136363636364
  7
EXCADSTD
 72
     5
 11
265.358592505185
 21
28.427377675439
 31
0.0
100
AcDbText
  0
TEXT
  5
71
330
65
100
AcDbEntity
  8
図枠細線
  6
CONTINUOUS
 62
   252
100
AcDbText
 10
246.358592505185
 20
28.427377675439
 30
0.0
 40
2.0
  1
検図
 41
1.171875
  7
EXCADSTD
 72
     5
 11
251.358592505185
 21
28.427377675439
 31
0.0
100
AcDbText
  0
TEXT
  5
72
330
65
100
AcDbEntity
  8
図枠細線
  6
CONTINUOUS
 62
   252
100
AcDbText
 10
232.358592505185
 20
25.927377675439
 30
0.0
 40
2.0
  1
ＡＰＰＲＯＶＥＤ
 41
0.695652184279
  7
EXCADSTD
 72
     5
 11
245.15859269592
 21
25.927377675439
 31
0.0
100
AcDbText
  0
TEXT
  5
73
330
65
100
AcDbEntity
  8
図枠細線
  6
CONTINUOUS
 62
   252
100
AcDbText
 10
232.358592505185
 20
28.427377675439
 30
0.0
 40
2.0
  1
承認
 41
1.136363636364
  7
EXCADSTD
 72
     5
 11
237.358592505185
 21
28.427377675439
 31
0.0
100
AcDbText
  0
TEXT
  5
74
330
65
100
AcDbEntity
  8
図枠細線
  6
CONTINUOUS
 62
   252
100
AcDbText
 10
290.069888505185
 20
2.574868675439
 30
0.0
 40
3.5
  1
ＴＯＷＡ　ＳＥＩＤＥＮ　ＩＮＤＵＳＴＲＩＡＬ　ＣＯ．，ＬＴＤ．
 41
0.41609778364
  7
EXCADSTD
 72
     5
 11
342.692388209546
 21
2.574868675439
 31
0.0
100
AcDbText
  0
TEXT
  5
75
330
65
100
AcDbEntity
  8
図枠ロゴマーク
  6
CONTINUOUS
 62
   253
100
AcDbText
 10
290.107348505185
 20
7.519769675439
 30
0.0
 40
7.0
  1
東和制電工業株式会社
 41
0.635593220339
  7
EXCADSTD
 72
     5
 11
342.607348505185
 21
7.519769675439
 31
0.0
100
AcDbText
  0
TEXT
  5
76
330
65
100
AcDbEntity
  8
図枠細線
  6
CONTINUOUS
 62
   252
100
AcDbText
 10
232.499705505185
 20
5.759088675439
 30
0.0
 40
2.0
  1
ＰＲＯＪＥＣＴＩＯＮ
 41
0.758620685544
  7
EXCADSTD
 72
     5
 11
250.099705409817
 21
5.759088675439
 31
0.0
100
AcDbText
  0
TEXT
  5
77
330
65
100
AcDbEntity
  8
図枠細線
  6
CONTINUOUS
 62
   252
100
AcDbText
 10
232.574629505185
 20
8.681077675439
 30
0.0
 40
2.0
  1
ＴＨＩＲＤ　ＡＮＧＬＥ
 41
0.687500010245
  7
EXCADSTD
 72
     5
 11
250.174629767445
 21
8.681077675439
 31
0.0
100
AcDbText
  0
TEXT
  5
78
330
65
100
AcDbEntity
  8
図枠細線
  6
CONTINUOUS
 62
   252
100
AcDbText
 10
256.823999505185
 20
13.427377675439
 30
0.0
 40
2.0
  1
ＳＣＡＬＥ
 41
0.892857142857
  7
EXCADSTD
 72
     5
 11
266.823999505185
 21
13.427377675439
 31
0.0
100
AcDbText
  0
TEXT
  5
79
330
65
100
AcDbEntity
  8
図枠細線
  6
CONTINUOUS
 62
   252
100
AcDbText
 10
274.858592505185
 20
13.427377675439
 30
0.0
 40
2.0
  1
ＤＡＴＥ
 41
0.909090909091
  7
EXCADSTD
 72
     5
 11
282.858592505185
 21
13.427377675439
 31
0.0
100
AcDbText
  0
TEXT
  5
7A
330
65
100
AcDbEntity
  8
図枠細線
  6
CONTINUOUS
 62
   252
100
AcDbText
 10
356.358592505185
 20
13.427377675439
 30
0.0
 40
2.0
  1
ＤＲＧ．ＮＯ．
 41
0.954545454545
  7
EXCADSTD
 72
     5
 11
370.358592505185
 21
13.427377675439
 31
0.0
100
AcDbText
  0
TEXT
  5
7B
330
65
100
AcDbEntity
  8
図枠細線
  6
CONTINUOUS
 62
   252
100
AcDbText
 10
345.358592505185
 20
13.427377675439
 30
0.0
 40
2.0
  1
図面番号
 41
1.094890510949
  7
EXCADSTD
 72
     5
 11
355.358592505185
 21
13.427377675439
 31
0.0
100
AcDbText
  0
TEXT
  5
7C
330
65
100
AcDbEntity
  8
図枠細線
  6
CONTINUOUS
 62
   252
100
AcDbText
 10
269.358592505185
 20
13.427377675439
 30
0.0
 40
2.0
  1
日付
 41
1.136363636364
  7
EXCADSTD
 72
     5
 11
274.358592505185
 21
13.427377675439
 31
0.0
100
AcDbText
  0
TEXT
  5
7D
330
65
100
AcDbEntity
  8
図枠細線
  6
CONTINUOUS
 62
   252
100
AcDbText
 10
251.451512505185
 20
13.427377675439
 30
0.0
 40
2.0
  1
尺度
 41
1.136363636364
  7
EXCADSTD
 72
     5
 11
256.451512505185
 21
13.427377675439
 31
0.0
100
AcDbText
  0
TEXT
  5
7E
330
65
100
AcDbEntity
  8
図枠細線
  6
CONTINUOUS
 62
   252
100
AcDbText
 10
232.358592505185
 20
13.427377675439
 30
0.0
 40
2.0
  1
第三角法
 41
1.086956521739
  7
EXCADSTD
 72
     5
 11
242.358592505185
 21
13.427377675439
 31
0.0
100
AcDbText
  0
TEXT
  5
7F
330
65
100
AcDbEntity
  8
図枠細線
  6
CONTINUOUS
 62
   252
100
AcDbText
 10
212.358592505185
 20
28.427377675439
 30
0.0
 40
2.0
  1
ＮＯＴＥ
 41
0.909090909091
  7
EXCADSTD
 72
     5
 11
220.358592505185
 21
28.427377675439
 31
0.0
100
AcDbText
  0
LINE
  5
80
330
65
100
AcDbEntity
  8
図枠細線
  6
CONTINUOUS
 62
   252
100
AcDbLine
 10
287.858592505185
 20
23.427375675439
 30
0.0
 11
344.858592505185
 21
23.427375675439
 31
0.0
  0
LINE
  5
81
330
65
100
AcDbEntity
  8
図枠太線
  6
CONTINUOUS
 62
   251
100
AcDbLine
 10
287.858584505185
 20
15.927375675439
 30
0.0
 11
344.858592505185
 21
15.927375675439
 31
0.0
  0
LINE
  5
82
330
65
100
AcDbEntity
  8
図枠細線
  6
CONTINUOUS
 62
   252
100
AcDbLine
 10
344.858592505185
 20
15.927375675439
 30
0.0
 11
401.858584505185
 21
15.927375675439
 31
0.0
  0
LINE
  5
83
330
65
100
AcDbEntity
  8
図枠太線
  6
CONTINUOUS
 62
   251
100
AcDbLine
 10
344.858592505185
 20
0.927377675439
 30
0.0
 11
344.858592505185
 21
30.927375675439
 31
0.0
  0
LINE
  5
84
330
65
100
AcDbEntity
  8
図枠太線
  6
CONTINUOUS
 62
   251
100
AcDbLine
 10
287.858592505185
 20
0.927377675439
 30
0.0
 11
287.858592505185
 21
30.927375675439
 31
0.0
  0
LINE
  5
85
330
65
100
AcDbEntity
  8
図枠細線
  6
CONTINUOUS
 62
   252
100
AcDbLine
 10
268.858592505185
 20
0.927377675439
 30
0.0
 11
268.858592505185
 21
15.927375675439
 31
0.0
  0
LINE
  5
86
330
65
100
AcDbEntity
  8
図枠細線
  6
CONTINUOUS
 62
   252
100
AcDbLine
 10
250.858592505185
 20
0.927377675439
 30
0.0
 11
250.858592505185
 21
15.927375675439
 31
0.0
  0
LINE
  5
87
330
65
100
AcDbEntity
  8
図枠細線
  6
CONTINUOUS
 62
   252
100
AcDbLine
 10
273.858592505185
 20
30.927375675439
 30
0.0
 11
273.858592505185
 21
15.927375675439
 31
0.0
  0
LINE
  5
88
330
65
100
AcDbEntity
  8
図枠細線
  6
CONTINUOUS
 62
   252
100
AcDbLine
 10
259.858592505185
 20
30.927375675439
 30
0.0
 11
259.858592505185
 21
15.927375675439
 31
0.0
  0
LINE
  5
89
330
65
100
AcDbEntity
  8
図枠細線
  6
CONTINUOUS
 62
   252
100
AcDbLine
 10
245.858592505185
 20
30.927375675439
 30
0.0
 11
245.858592505185
 21
15.927375675439
 31
0.0
  0
LINE
  5
8A
330
65
100
AcDbEntity
  8
図枠太線
  6
CONTINUOUS
 62
   251
100
AcDbLine
 10
231.858592505185
 20
0.927377675439
 30
0.0
 11
231.858592505185
 21
30.927375675439
 31
0.0
  0
LINE
  5
8B
330
65
100
AcDbEntity
  8
図枠細線
  6
CONTINUOUS
 62
   252
100
AcDbLine
 10
211.858592505185
 20
25.927375675439
 30
0.0
 11
231.858592505185
 21
25.927375675439
 31
0.0
  0
LINE
  5
8C
330
65
100
AcDbEntity
  8
図枠細線
  6
CONTINUOUS
 62
   252
100
AcDbLine
 10
211.858592505185
 20
20.927375675439
 30
0.0
 11
231.858592505185
 21
20.927375675439
 31
0.0
  0
LINE
  5
8D
330
65
100
AcDbEntity
  8
図枠細線
  6
CONTINUOUS
 62
   252
100
AcDbLine
 10
211.858592505185
 20
10.927375675439
 30
0.0
 11
231.858592505185
 21
10.927375675439
 31
0.0
  0
LINE
  5
8E
330
65
100
AcDbEntity
  8
図枠細線
  6
CONTINUOUS
 62
   252
100
AcDbLine
 10
211.858592505185
 20
5.927377675439
 30
0.0
 11
231.858592505185
 21
5.927377675439
 31
0.0
  0
LINE
  5
8F
330
65
100
AcDbEntity
  8
図枠太線
  6
CONTINUOUS
 62
   251
100
AcDbLine
 10
211.858592505185
 20
30.927375675439
 30
0.0
 11
401.858584505185
 21
30.927375675439
 31
0.0
  0
LINE
  5
90
330
65
100
AcDbEntity
  8
図枠太線
  6
CONTINUOUS
 62
   251
100
AcDbLine
 10
1.858584505185
 20
275.927375675439
 30
0.0
 11
401.858584505185
 21
275.927375675439
 31
0.0
  0
LINE
  5
91
330
65
100
AcDbEntity
  8
図枠太線
  6
CONTINUOUS
 62
   251
100
AcDbLine
 10
401.858584505185
 20
0.927375675439
 30
0.0
 11
401.858584505185
 21
275.927375675439
 31
0.0
  0
LINE
  5
92
330
65
100
AcDbEntity
  8
図枠太線
  6
CONTINUOUS
 62
   251
100
AcDbLine
 10
1.858584505185
 20
0.927375675439
 30
0.0
 11
401.858584505185
 21
0.927375675439
 31
0.0
  0
ENDBLK
  5
94
330
65
100
AcDbEntity
  8
0
100
AcDbBlockEnd
  0
BLOCK
  5
29C0
330
29BF
100
AcDbEntity
  8
0
100
AcDbBlockBegin
  2
A4横用_タイトル
 70
     0
 10
0.0
 20
0.0
 30
0.0
  3
A4横用_タイトル
  1

  0
LINE
  5
29C1
330
29BF
100
AcDbEntity
  8
図枠細線
  6
CONTINUOUS
100
AcDbLine
 10
75.061011071051
 20
16.806607253358
 30
0.0
 11
144.061011071051
 21
16.806604789072
 31
0.0
  0
LINE
  5
29C2
330
29BF
100
AcDbEntity
  8
図枠細線
  6
CONTINUOUS
 62
   252
100
AcDbLine
 10
4.061011071051
 20
11.806606253358
 30
0.0
 11
75.061011071051
 21
11.806606253358
 31
0.0
  0
LINE
  5
29C3
330
29BF
100
AcDbEntity
  8
図枠細線
  6
CONTINUOUS
 62
   252
100
AcDbLine
 10
4.061011071051
 20
21.806606253358
 30
0.0
 11
75.061011071051
 21
21.806606253358
 31
0.0
  0
LINE
  5
29C4
330
29BF
100
AcDbEntity
  8
図枠細線
  6
CONTINUOUS
 62
   252
100
AcDbLine
 10
4.061011071051
 20
26.806606253358
 30
0.0
 11
75.061011071051
 21
26.806606253358
 31
0.0
  0
LINE
  5
29C5
330
29BF
100
AcDbEntity
  8
図枠細線
  6
CONTINUOUS
100
AcDbLine
 10
4.061011071051
 20
16.806608253358
 30
0.0
 11
75.061011071051
 21
16.806608253358
 31
0.0
  0
TEXT
  5
29C6
330
29BF
100
AcDbEntity
  8
図枠細線
  6
CONTINUOUS
 62
   252
100
AcDbText
 10
76.405475827713
 20
9.560308253358
 30
0.0
 40
2.0
  1
ＴＨＩＲＤ　ＡＮＧＬＥ
 41
0.687500010245
  7
EXCADSTD
 72
     5
 11
94.005476089973
 21
9.560308253358
 31
0.0
100
AcDbText
  0
TEXT
  5
29C7
330
29BF
100
AcDbEntity
  8
図枠細線
  6
CONTINUOUS
 62
   252
100
AcDbText
 10
76.705775880921
 20
14.306608253358
 30
0.0
 40
2.0
  1
第三角法
 41
1.086956521739
  7
EXCADSTD
 72
     5
 11
86.705775880921
 21
14.306608253358
 31
0.0
100
AcDbText
  0
TEXT
  5
29C8
330
29BF
100
AcDbEntity
  8
図枠細線
  6
CONTINUOUS
 62
   252
100
AcDbText
 10
76.705775880921
 20
26.806608253358
 30
0.0
 40
2.0
  1
ＡＰＰＲＯＶＥＤ
 41
0.695652184279
  7
EXCADSTD
 72
     5
 11
89.505776071656
 21
26.806608253358
 31
0.0
100
AcDbText
  0
TEXT
  5
29C9
330
29BF
100
AcDbEntity
  8
図枠細線
  6
CONTINUOUS
 62
   252
100
AcDbText
 10
76.705775880921
 20
29.306608253358
 30
0.0
 40
2.0
  1
承認
 41
1.136363636364
  7
EXCADSTD
 72
     5
 11
81.705775880921
 21
29.306608253358
 31
0.0
100
AcDbText
  0
LINE
  5
29CA
330
29BF
100
AcDbEntity
  8
図枠細線
  6
CONTINUOUS
 62
   252
100
AcDbLine
 10
98.061011071051
 20
31.806606253358
 30
0.0
 11
98.061011071051
 21
16.806606253358
 31
0.0
  0
TEXT
  5
29CB
330
29BF
100
AcDbEntity
  8
図枠細線
  6
CONTINUOUS
 62
   252
100
AcDbText
 10
104.216531119804
 20
14.306608253358
 30
0.0
 40
2.0
  1
ＳＣＡＬＥ
 41
0.892857142857
  7
EXCADSTD
 72
     5
 11
114.216531119804
 21
14.306608253358
 31
0.0
100
AcDbText
  0
TEXT
  5
29CC
330
29BF
100
AcDbEntity
  8
図枠細線
  6
CONTINUOUS
 62
   252
100
AcDbText
 10
98.844044119804
 20
14.306608253358
 30
0.0
 40
2.0
  1
尺度
 41
1.136363636364
  7
EXCADSTD
 72
     5
 11
103.844044119804
 21
14.306608253358
 31
0.0
100
AcDbText
  0
TEXT
  5
29CD
330
29BF
100
AcDbEntity
  8
図枠細線
  6
CONTINUOUS
 62
   252
100
AcDbText
 10
98.968727707497
 20
26.806608253358
 30
0.0
 40
2.0
  1
ＣＨＥＣＫＥＤ
 41
0.831249989569
  7
EXCADSTD
 72
     5
 11
112.268727540604
 21
26.806608253358
 31
0.0
100
AcDbText
  0
TEXT
  5
29CE
330
29BF
100
AcDbEntity
  8
図枠細線
  6
CONTINUOUS
 62
   252
100
AcDbText
 10
98.968727707497
 20
29.306608253358
 30
0.0
 40
2.0
  1
検図
 41
1.171875
  7
EXCADSTD
 72
     5
 11
103.968727707497
 21
29.306608253358
 31
0.0
100
AcDbText
  0
LINE
  5
29CF
330
29BF
100
AcDbEntity
  8
図枠細線
  6
CONTINUOUS
 62
   252
100
AcDbLine
 10
121.061011071051
 20
31.806606253358
 30
0.0
 11
121.061011071051
 21
16.806606253358
 31
0.0
  0
TEXT
  5
29D0
330
29BF
100
AcDbEntity
  8
図枠細線
  6
CONTINUOUS
 62
   252
100
AcDbText
 10
128.001465247253
 20
14.306608253358
 30
0.0
 40
2.0
  1
ＤＡＴＥ
 41
0.909090909091
  7
EXCADSTD
 72
     5
 11
136.001465247253
 21
14.306608253358
 31
0.0
100
AcDbText
  0
TEXT
  5
29D1
330
29BF
100
AcDbEntity
  8
図枠細線
  6
CONTINUOUS
 62
   252
100
AcDbText
 10
122.066415498841
 20
14.306608253358
 30
0.0
 40
2.0
  1
日付
 41
1.136363636364
  7
EXCADSTD
 72
     5
 11
127.066415498841
 21
14.306608253358
 31
0.0
100
AcDbText
  0
TEXT
  5
29D2
330
29BF
100
AcDbEntity
  8
図枠細線
  6
CONTINUOUS
 62
   252
100
AcDbText
 10
121.59429406571
 20
29.306608253358
 30
0.0
 40
2.0
  1
製図
 41
1.171875
  7
EXCADSTD
 72
     5
 11
126.59429406571
 21
29.306608253358
 31
0.0
100
AcDbText
  0
TEXT
  5
29D3
330
29BF
100
AcDbEntity
  8
図枠細線
  6
CONTINUOUS
 62
   252
100
AcDbText
 10
121.59429406571
 20
26.806608253358
 30
0.0
 40
2.0
  1
ＤＲＡＷＮ
 41
0.892857142857
  7
EXCADSTD
 72
     5
 11
131.59429406571
 21
26.806608253358
 31
0.0
100
AcDbText
  0
TEXT
  5
29D4
330
29BF
100
AcDbEntity
  8
図枠細線
  6
CONTINUOUS
 62
   252
100
AcDbText
 10
226.591229661348
 20
14.306608253358
 30
0.0
 40
2.0
  1
ＤＲＧ．ＮＯ．
 41
0.954545454545
  7
EXCADSTD
 72
     5
 11
240.591229661348
 21
14.306608253358
 31
0.0
100
AcDbText
  0
LINE
  5
29D5
330
29BF
100
AcDbEntity
  8
図枠太線
  6
CONTINUOUS
 62
   251
100
AcDbLine
 10
144.061003071051
 20
16.806606253358
 30
0.0
 11
214.061011071051
 21
16.806606253358
 31
0.0
  0
LINE
  5
29D6
330
29BF
100
AcDbEntity
  8
図枠細線
  6
CONTINUOUS
 62
   252
100
AcDbLine
 10
144.061011071051
 20
24.306606253358
 30
0.0
 11
214.061011071051
 21
24.306606253358
 31
0.0
  0
TEXT
  5
29D7
330
29BF
100
AcDbEntity
  8
図枠ロゴマーク
  6
CONTINUOUS
 62
   253
100
AcDbText
 10
146.433776781596
 20
8.399000253358
 30
0.0
 40
7.0
  1
東和制電工業株式会社
 41
0.79907071013
  7
EXCADSTD
 72
     5
 11
212.437017438349
 21
8.399000253358
 31
0.0
100
AcDbText
  0
TEXT
  5
29D8
330
29BF
100
AcDbEntity
  8
図枠細線
  6
CONTINUOUS
 62
   252
100
AcDbText
 10
215.156179912936
 20
14.306608253358
 30
0.0
 40
2.0
  1
図面番号
 41
1.094890510949
  7
EXCADSTD
 72
     5
 11
225.156179912936
 21
14.306608253358
 31
0.0
100
AcDbText
  0
TEXT
  5
29D9
330
29BF
100
AcDbEntity
  8
図枠細線
  6
CONTINUOUS
 62
   252
100
AcDbText
 10
221.591229661348
 20
29.306608253358
 30
0.0
 40
2.0
  1
ＴＩＴＬＥ
 41
0.892857142857
  7
EXCADSTD
 72
     5
 11
231.591229661348
 21
29.306608253358
 31
0.0
100
AcDbText
  0
TEXT
  5
29DA
330
29BF
100
AcDbEntity
  8
図枠細線
  6
CONTINUOUS
 62
   252
100
AcDbText
 10
215.156179912936
 20
29.306608253358
 30
0.0
 40
2.0
  1
名称
 41
1.136363636364
  7
EXCADSTD
 72
     5
 11
220.156179912936
 21
29.306608253358
 31
0.0
100
AcDbText
  0
LINE
  5
29DB
330
29BF
100
AcDbEntity
  8
図枠太線
  6
CONTINUOUS
 62
   251
100
AcDbLine
 10
4.061011071051
 20
1.806608253358
 30
0.0
 11
284.061011071051
 21
1.806608253358
 31
0.0
  0
LINE
  5
29DC
330
29BF
100
AcDbEntity
  8
図枠細線
  6
CONTINUOUS
 62
   252
100
AcDbLine
 10
4.061011071051
 20
6.806608253358
 30
0.0
 11
75.061011071051
 21
6.806608253358
 31
0.0
  0
LINE
  5
29DD
330
29BF
100
AcDbEntity
  8
図枠太線
  6
CONTINUOUS
 62
   251
100
AcDbLine
 10
75.061011071051
 20
1.806608253358
 30
0.0
 11
75.061011071051
 21
31.806606253358
 31
0.0
  0
TEXT
  5
29DE
330
29BF
100
AcDbEntity
  8
図枠細線
  6
CONTINUOUS
 62
   252
100
AcDbText
 10
76.330551827713
 20
6.638319253358
 30
0.0
 40
2.0
  1
ＰＲＯＪＥＣＴＩＯＮ
 41
0.758620685545
  7
EXCADSTD
 72
     5
 11
93.930551732346
 21
6.638319253358
 31
0.0
100
AcDbText
  0
LINE
  5
29DF
330
29BF
100
AcDbEntity
  8
図枠細線
  6
CONTINUOUS
 62
   252
100
AcDbLine
 10
98.061011071051
 20
1.806606931929
 30
0.0
 11
98.061011071051
 21
16.806604931929
 31
0.0
  0
LINE
  5
29E0
330
29BF
100
AcDbEntity
  8
図枠細線
  6
CONTINUOUS
 62
   252
100
AcDbLine
 10
121.061011071051
 20
1.806607574787
 30
0.0
 11
121.061011071051
 21
16.806605574787
 31
0.0
  0
LINE
  5
29E1
330
29BF
100
AcDbEntity
  8
図枠太線
  6
CONTINUOUS
 62
   251
100
AcDbLine
 10
284.061011071051
 20
1.806608253358
 30
0.0
 11
284.061011071051
 21
31.806606253358
 31
0.0
  0
LINE
  5
29E2
330
29BF
100
AcDbEntity
  8
図枠細線
  6
CONTINUOUS
 62
   252
100
AcDbLine
 10
214.061011071051
 20
16.806606253358
 30
0.0
 11
284.061011071051
 21
16.806606253358
 31
0.0
  0
TEXT
  5
29E3
330
29BF
100
AcDbEntity
  8
図枠細線
  6
CONTINUOUS
 62
   252
100
AcDbText
 10
146.199593676182
 20
3.454099253358
 30
0.0
 40
3.5
  1
ＴＯＷＡ　ＳＥＩＤＥＮ　ＩＮＤＵＳＴＲＩＡＬ　ＣＯ．，ＬＴＤ．
 41
0.530889627006
  7
EXCADSTD
 72
     5
 11
213.339435171588
 21
3.454099253358
 31
0.0
100
AcDbText
  0
LINE
  5
29E4
330
29BF
100
AcDbEntity
  8
図枠太線
  6
CONTINUOUS
 62
   251
100
AcDbLine
 10
144.061011071051
 20
1.806608253358
 30
0.0
 11
144.061011071051
 21
31.806606253358
 31
0.0
  0
LINE
  5
29E5
330
29BF
100
AcDbEntity
  8
図枠太線
  6
CONTINUOUS
 62
   251
100
AcDbLine
 10
214.061011071051
 20
1.806608253358
 30
0.0
 11
214.061011071051
 21
31.806606253358
 31
0.0
  0
MTEXT
  5
29E6
330
29BF
100
AcDbEntity
  8
図枠太線
100
AcDbMText
 10
5.064337346478
 20
31.010982137407
 30
0.0
 40
2.5
 41
8.67856098472
 71
     1
 72
     5
  1
{\Fmonotxt.shx,bigfont.shx|c128;図暦}
  0
LINE
  5
29E7
330
29BF
100
AcDbEntity
  8
図枠太線
  6
CONTINUOUS
 62
   251
100
AcDbLine
 10
4.061011071051
 20
1.806608253358
 30
0.0
 11
4.061011071051
 21
31.806606253358
 31
0.0
  0
TEXT
  5
29E8
330
29BF
100
AcDbEntity
  8
図枠細線
 48
10.0
100
AcDbText
 10
12.260817420402
 20
28.625419626495
 30
0.0
 40
2.0
  1
CHANGE NOTICE
100
AcDbText
  0
ENDBLK
  5
29E9
330
29BF
100
AcDbEntity
  8
0
100
AcDbBlockEnd
  0
BLOCK
  5
29F5
330
29F4
100
AcDbEntity
  8
0
100
AcDbBlockBegin
  2
A4縦用_タイトル
 70
     0
 10
0.0
 20
0.0
 30
0.0
  3
A4縦用_タイトル
  1

  0
LINE
  5
29F6
330
29F4
100
AcDbEntity
  8
図枠太線
  6
CONTINUOUS
 62
   251
100
AcDbLine
 10
2.368253864267
 20
4.525433224584
 30
0.0
 11
192.368245864267
 21
4.525433224584
 31
0.0
  0
LINE
  5
29F7
330
29F4
100
AcDbEntity
  8
図枠太線
  6
CONTINUOUS
 62
   251
100
AcDbLine
 10
78.368245864267
 20
19.525431224584
 30
0.0
 11
135.368253864267
 21
19.525431224584
 31
0.0
  0
LINE
  5
29F8
330
29F4
100
AcDbEntity
  8
図枠細線
  6
CONTINUOUS
 62
   252
100
AcDbLine
 10
78.368253864267
 20
27.025431224584
 30
0.0
 11
135.368253864267
 21
27.025431224584
 31
0.0
  0
TEXT
  5
29F9
330
29F4
100
AcDbEntity
  8
図枠ロゴマーク
  6
CONTINUOUS
 62
   253
100
AcDbText
 10
80.617009864267
 20
11.117825224584
 30
0.0
 40
7.0
  1
東和制電工業株式会社
 41
0.635593220339
  7
EXCADSTD
 72
     5
 11
133.117009864267
 21
11.117825224584
 31
0.0
100
AcDbText
  0
TEXT
  5
29FA
330
29F4
100
AcDbEntity
  8
図枠細線
  6
CONTINUOUS
 62
   252
100
AcDbText
 10
80.579549864267
 20
6.172924224584
 30
0.0
 40
3.5
  1
ＴＯＷＡ　ＳＥＩＤＥＮ　ＩＮＤＵＳＴＲＩＡＬ　ＣＯ．，ＬＴＤ．
 41
0.41609778364
  7
EXCADSTD
 72
     5
 11
133.202049568628
 21
6.172924224584
 31
0.0
100
AcDbText
  0
LINE
  5
29FB
330
29F4
100
AcDbEntity
  8
図枠太線
  6
CONTINUOUS
 62
   251
100
AcDbLine
 10
2.368253864267
 20
4.525433224584
 30
0.0
 11
2.368253864267
 21
34.525431224584
 31
0.0
  0
TEXT
  5
29FC
330
29F4
100
AcDbEntity
  8
図枠細線
  6
CONTINUOUS
 62
   252
100
AcDbText
 10
22.504308136501
 20
12.279133224584
 30
0.0
 40
2.0
  1
ＴＨＩＲＤ　ＡＮＧＬＥ
 41
0.687500010245
  7
EXCADSTD
 72
     5
 11
40.104308398762
 21
12.279133224584
 31
0.0
100
AcDbText
  0
TEXT
  5
29FD
330
29F4
100
AcDbEntity
  8
図枠細線
  6
CONTINUOUS
 62
   252
100
AcDbText
 10
22.429384136501
 20
9.357144224584
 30
0.0
 40
2.0
  1
ＰＲＯＪＥＣＴＩＯＮ
 41
0.758620685545
  7
EXCADSTD
 72
     5
 11
40.029384041134
 21
9.357144224584
 31
0.0
100
AcDbText
  0
LINE
  5
29FE
330
29F4
100
AcDbEntity
  8
図枠細線
  6
CONTINUOUS
100
AcDbLine
 10
22.368253864267
 20
19.525433224584
 30
0.0
 11
78.368253864267
 21
19.525431224584
 31
0.0
  0
TEXT
  5
29FF
330
29F4
100
AcDbEntity
  8
図枠細線
  6
CONTINUOUS
 62
   252
100
AcDbText
 10
22.868253864267
 20
17.025433224584
 30
0.0
 40
2.0
  1
第三角法
 41
1.086956521739
  7
EXCADSTD
 72
     5
 11
32.868253864267
 21
17.025433224584
 31
0.0
100
AcDbText
  0
TEXT
  5
2A00
330
29F4
100
AcDbEntity
  8
図枠細線
  6
CONTINUOUS
 62
   252
100
AcDbText
 10
22.868253864267
 20
29.525433224584
 30
0.0
 40
2.0
  1
ＡＰＰＲＯＶＥＤ
 41
0.695652184279
  7
EXCADSTD
 72
     5
 11
35.668254055002
 21
29.525433224584
 31
0.0
100
AcDbText
  0
LINE
  5
2A01
330
29F4
100
AcDbEntity
  8
図枠細線
  6
CONTINUOUS
 62
   252
100
AcDbLine
 10
2.368253864267
 20
9.525433224584
 30
0.0
 11
22.368253864267
 21
9.525433224584
 31
0.0
  0
LINE
  5
2A02
330
29F4
100
AcDbEntity
  8
図枠細線
  6
CONTINUOUS
 62
   252
100
AcDbLine
 10
2.368253864267
 20
14.525431224584
 30
0.0
 11
22.368253864267
 21
14.525431224584
 31
0.0
  0
LINE
  5
2A03
330
29F4
100
AcDbEntity
  8
図枠細線
  6
CONTINUOUS
 62
   252
100
AcDbLine
 10
2.368253864267
 20
24.525431224584
 30
0.0
 11
22.368253864267
 21
24.525431224584
 31
0.0
  0
LINE
  5
2A04
330
29F4
100
AcDbEntity
  8
図枠細線
  6
CONTINUOUS
 62
   252
100
AcDbLine
 10
2.368253864267
 20
29.525431224584
 30
0.0
 11
22.368253864267
 21
29.525431224584
 31
0.0
  0
LINE
  5
2A05
330
29F4
100
AcDbEntity
  8
図枠細線
  6
CONTINUOUS
100
AcDbLine
 10
2.368253864267
 20
19.525433224584
 30
0.0
 11
22.368253864267
 21
19.525433224584
 31
0.0
  0
TEXT
  5
2A06
330
29F4
100
AcDbEntity
  8
図枠細線
  6
CONTINUOUS
 62
   252
100
AcDbText
 10
2.868253864267
 20
32.025433224584
 30
0.0
 40
2.0
  1
ＮＯＴＥ
 41
0.909090909091
  7
EXCADSTD
 72
     5
 11
10.868253864267
 21
32.025433224584
 31
0.0
100
AcDbText
  0
LINE
  5
2A07
330
29F4
100
AcDbEntity
  8
図枠太線
  6
CONTINUOUS
 62
   251
100
AcDbLine
 10
22.368253864267
 20
4.525433224584
 30
0.0
 11
22.368253864267
 21
34.525431224584
 31
0.0
  0
TEXT
  5
2A08
330
29F4
100
AcDbEntity
  8
図枠細線
  6
CONTINUOUS
 62
   252
100
AcDbText
 10
22.868253864267
 20
32.025433224584
 30
0.0
 40
2.0
  1
承認
 41
1.136363636364
  7
EXCADSTD
 72
     5
 11
27.868253864267
 21
32.025433224584
 31
0.0
100
AcDbText
  0
TEXT
  5
2A09
330
29F4
100
AcDbEntity
  8
図枠細線
  6
CONTINUOUS
 62
   252
100
AcDbText
 10
60.711709035982
 20
32.025433224584
 30
0.0
 40
2.0
  1
製図
 41
1.171875
  7
EXCADSTD
 72
     5
 11
65.711709035982
 21
32.025433224584
 31
0.0
100
AcDbText
  0
TEXT
  5
2A0A
330
29F4
100
AcDbEntity
  8
図枠細線
  6
CONTINUOUS
 62
   252
100
AcDbText
 10
60.711709035982
 20
29.525433224584
 30
0.0
 40
2.0
  1
ＤＲＡＷＮ
 41
0.892857142857
  7
EXCADSTD
 72
     5
 11
70.711709035982
 21
29.525433224584
 31
0.0
100
AcDbText
  0
TEXT
  5
2A0B
330
29F4
100
AcDbEntity
  8
図枠細線
  6
CONTINUOUS
 62
   252
100
AcDbText
 10
60.834891743877
 20
17.025433224584
 30
0.0
 40
2.0
  1
日付
 41
1.136363636364
  7
EXCADSTD
 72
     5
 11
65.834891743877
 21
17.025433224584
 31
0.0
100
AcDbText
  0
TEXT
  5
2A0C
330
29F4
100
AcDbEntity
  8
図枠細線
  6
CONTINUOUS
 62
   252
100
AcDbText
 10
47.333660864267
 20
17.025433224584
 30
0.0
 40
2.0
  1
ＳＣＡＬＥ
 41
0.892857142857
  7
EXCADSTD
 72
     5
 11
57.333660864267
 21
17.025433224584
 31
0.0
100
AcDbText
  0
TEXT
  5
2A0D
330
29F4
100
AcDbEntity
  8
図枠細線
  6
CONTINUOUS
 62
   252
100
AcDbText
 10
42.281425990082
 20
29.525433224584
 30
0.0
 40
2.0
  1
ＣＨＥＣＫＥＤ
 41
0.831249989569
  7
EXCADSTD
 72
     5
 11
55.581425823189
 21
29.525433224584
 31
0.0
100
AcDbText
  0
LINE
  5
2A0E
330
29F4
100
AcDbEntity
  8
図枠細線
  6
CONTINUOUS
 62
   252
100
AcDbLine
 10
40.968253864267
 20
34.525431224584
 30
0.0
 11
40.968253864267
 21
19.525431224584
 31
0.0
  0
LINE
  5
2A0F
330
29F4
100
AcDbEntity
  8
図枠細線
  6
CONTINUOUS
 62
   252
100
AcDbLine
 10
40.968253864267
 20
4.525433224584
 30
0.0
 11
40.968253864267
 21
19.525431224584
 31
0.0
  0
TEXT
  5
2A10
330
29F4
100
AcDbEntity
  8
図枠細線
  6
CONTINUOUS
 62
   252
100
AcDbText
 10
41.961173864267
 20
17.025433224584
 30
0.0
 40
2.0
  1
尺度
 41
1.136363636364
  7
EXCADSTD
 72
     5
 11
46.961173864267
 21
17.025433224584
 31
0.0
100
AcDbText
  0
TEXT
  5
2A11
330
29F4
100
AcDbEntity
  8
図枠細線
  6
CONTINUOUS
 62
   252
100
AcDbText
 10
42.281425990082
 20
32.025433224584
 30
0.0
 40
2.0
  1
検図
 41
1.171875
  7
EXCADSTD
 72
     5
 11
47.281425990082
 21
32.025433224584
 31
0.0
100
AcDbText
  0
LINE
  5
2A12
330
29F4
100
AcDbEntity
  8
図枠細線
  6
CONTINUOUS
 62
   252
100
AcDbLine
 10
59.768253864267
 20
34.525431224584
 30
0.0
 11
59.768253864267
 21
19.525431224584
 31
0.0
  0
LINE
  5
2A13
330
29F4
100
AcDbEntity
  8
図枠細線
  6
CONTINUOUS
 62
   252
100
AcDbLine
 10
59.768253864267
 20
4.525433224584
 30
0.0
 11
59.768253864267
 21
19.525431224584
 31
0.0
  0
LINE
  5
2A14
330
29F4
100
AcDbEntity
  8
図枠太線
  6
CONTINUOUS
 62
   251
100
AcDbLine
 10
78.368253864267
 20
4.525433224584
 30
0.0
 11
78.368253864267
 21
34.525431224584
 31
0.0
  0
TEXT
  5
2A15
330
29F4
100
AcDbEntity
  8
図枠細線
  6
CONTINUOUS
 62
   252
100
AcDbText
 10
66.334891743877
 20
17.025433224584
 30
0.0
 40
2.0
  1
ＤＡＴＥ
 41
0.909090909091
  7
EXCADSTD
 72
     5
 11
74.334891743877
 21
17.025433224584
 31
0.0
100
AcDbText
  0
LINE
  5
2A16
330
29F4
100
AcDbEntity
  8
図枠細線
  6
CONTINUOUS
 62
   252
100
AcDbLine
 10
135.368253864267
 20
19.525431224584
 30
0.0
 11
192.368245864267
 21
19.525431224584
 31
0.0
  0
TEXT
  5
2A17
330
29F4
100
AcDbEntity
  8
図枠細線
  6
CONTINUOUS
 62
   252
100
AcDbText
 10
141.868253864267
 20
32.025433224584
 30
0.0
 40
2.0
  1
ＴＩＴＬＥ
 41
0.892857142857
  7
EXCADSTD
 72
     5
 11
151.868253864267
 21
32.025433224584
 31
0.0
100
AcDbText
  0
LINE
  5
2A18
330
29F4
100
AcDbEntity
  8
図枠太線
  6
CONTINUOUS
 62
   251
100
AcDbLine
 10
135.368253864267
 20
4.525433224584
 30
0.0
 11
135.368253864267
 21
34.525431224584
 31
0.0
  0
TEXT
  5
2A19
330
29F4
100
AcDbEntity
  8
図枠細線
  6
CONTINUOUS
 62
   252
100
AcDbText
 10
135.868253864267
 20
17.025433224584
 30
0.0
 40
2.0
  1
図面番号
 41
1.094890510949
  7
EXCADSTD
 72
     5
 11
145.868253864267
 21
17.025433224584
 31
0.0
100
AcDbText
  0
TEXT
  5
2A1A
330
29F4
100
AcDbEntity
  8
図枠細線
  6
CONTINUOUS
 62
   252
100
AcDbText
 10
135.868253864267
 20
32.025433224584
 30
0.0
 40
2.0
  1
名称
 41
1.136363636364
  7
EXCADSTD
 72
     5
 11
140.868253864267
 21
32.025433224584
 31
0.0
100
AcDbText
  0
TEXT
  5
2A1B
330
29F4
100
AcDbEntity
  8
図枠細線
  6
CONTINUOUS
 62
   252
100
AcDbText
 10
146.868253864267
 20
17.025433224584
 30
0.0
 40
2.0
  1
ＤＲＧ．ＮＯ．
 41
0.954545454545
  7
EXCADSTD
 72
     5
 11
160.868253864267
 21
17.025433224584
 31
0.0
100
AcDbText
  0
LINE
  5
2A1C
330
29F4
100
AcDbEntity
  8
図枠太線
  6
CONTINUOUS
 62
   251
100
AcDbLine
 10
192.368245864267
 20
4.525433224584
 30
0.0
 11
192.368245864267
 21
34.525431224584
 31
0.0
  0
ENDBLK
  5
2A1D
330
29F4
100
AcDbEntity
  8
0
100
AcDbBlockEnd
  0
BLOCK
  5
2A33
330
2A32
100
AcDbEntity
  8
0
100
AcDbBlockBegin
  2
A3横用_タイトル
 70
     0
 10
0.0
 20
0.0
 30
0.0
  3
A3横用_タイトル
  1

  0
LINE
  5
2A34
330
2A32
100
AcDbEntity
  8
図枠細線
  6
CONTINUOUS
 62
   252
100
AcDbLine
 10
205.098414535793
 20
33.525959753527
 30
0.0
 11
305.098414535793
 21
33.525959753527
 31
0.0
  0
LINE
  5
2A35
330
2A32
100
AcDbEntity
  8
図枠太線
  6
CONTINUOUS
 62
   251
100
AcDbLine
 10
205.098414535793
 20
23.525959753527
 30
0.0
 11
305.098414535793
 21
23.525959753527
 31
0.0
  0
LINE
  5
2A36
330
2A32
100
AcDbEntity
  8
図枠細線
  6
CONTINUOUS
100
AcDbLine
 10
5.098414535793
 20
23.525959753527
 30
0.0
 11
105.098414535793
 21
23.525959753527
 31
0.0
  0
LINE
  5
2A37
330
2A32
100
AcDbEntity
  8
図枠細線
  6
CONTINUOUS
 62
   252
100
AcDbLine
 10
5.098414535793
 20
36.725957753527
 30
0.0
 11
105.098414535793
 21
36.725957753527
 31
0.0
  0
LINE
  5
2A38
330
2A32
100
AcDbEntity
  8
図枠細線
  6
CONTINUOUS
 62
   252
100
AcDbLine
 10
5.098414535793
 20
30.125957753527
 30
0.0
 11
105.098414535793
 21
30.125957753527
 31
0.0
  0
LINE
  5
2A39
330
2A32
100
AcDbEntity
  8
図枠細線
  6
CONTINUOUS
 62
   252
100
AcDbLine
 10
5.098414535793
 20
16.725959753527
 30
0.0
 11
105.098414535793
 21
16.725959753527
 31
0.0
  0
LINE
  5
2A3A
330
2A32
100
AcDbEntity
  8
図枠細線
  6
CONTINUOUS
 62
   252
100
AcDbLine
 10
5.098414535793
 20
10.125959753527
 30
0.0
 11
105.098414535793
 21
10.125959753527
 31
0.0
  0
LINE
  5
2A3B
330
2A32
100
AcDbEntity
  8
図枠細線
  6
CONTINUOUS
100
AcDbLine
 10
105.098414535793
 20
23.525961753527
 30
0.0
 11
205.098414535793
 21
23.525959753527
 31
0.0
  0
LINE
  5
2A3C
330
2A32
100
AcDbEntity
  8
図枠細線
  6
CONTINUOUS
 62
   252
100
AcDbLine
 10
138.398414535793
 20
43.525959753527
 30
0.0
 11
138.398414535793
 21
18.525957753527
 31
0.0
  0
LINE
  5
2A3D
330
2A32
100
AcDbEntity
  8
図枠細線
  6
CONTINUOUS
 62
   252
100
AcDbLine
 10
171.698414535793
 20
43.525959753527
 30
0.0
 11
171.698414535793
 21
18.525957753527
 31
0.0
  0
LINE
  5
2A3E
330
2A32
100
AcDbEntity
  8
図枠細線
  6
CONTINUOUS
 62
   252
100
AcDbLine
 10
305.098414535793
 20
23.525959753527
 30
0.0
 11
405.098414535793
 21
23.525959753527
 31
0.0
  0
TEXT
  5
2A3F
330
2A32
100
AcDbEntity
  8
図枠ロゴマーク
  6
CONTINUOUS
 62
   253
100
AcDbText
 10
206.102509212755
 20
13.294257570546
 30
0.0
 40
7.0
  1
東和制電工業株式会社
 50
0.016555220185
 41
1.179681394237
  7
EXCADSTD
 72
     5
 11
303.544188309143
 21
13.322412672217
 31
0.0
100
AcDbText
  0
MTEXT
  5
2A40
330
2A32
100
AcDbEntity
  8
図枠細線
100
AcDbMText
 10
6.356764112375
 20
41.976594175478
 30
0.0
 40
2.5
 41
49.938282706292
 71
     1
 72
     5
  1
{\Fmonotxt.shx,bigfont.shx|c128;図暦　CHANGE　NOTICE}
  0
MTEXT
  5
2A41
330
2A32
100
AcDbEntity
  8
図枠細線
 48
10.0
100
AcDbMText
 10
306.544114926828
 20
41.701835800934
 30
0.0
 40
2.5
 41
28.002809618823
 71
     1
 72
     5
  1
{\Fmonotxt.shx,bigfont.shx|c128;名称　TITLE}
  0
MTEXT
  5
2A42
330
2A32
100
AcDbEntity
  8
図枠細線
 48
10.0
100
AcDbMText
 10
307.329617114284
 20
21.606206797226
 30
0.0
 40
2.5
 41
24.385612216707
 71
     1
 72
     5
  1
{\Fmonotxt.shx,bigfont.shx|c128;図面番号\PDRG.　No.}
  0
MTEXT
  5
2A43
330
2A32
100
AcDbEntity
  8
図枠細線
 48
10.0
100
AcDbMText
 10
173.726349404609
 20
21.73680662198
 30
0.0
 40
2.5
 41
25.735090160813
 71
     1
 72
     5
  1
{\Fmonotxt.shx,bigfont.shx|c128;日付 DATE}
  0
MTEXT
  5
2A44
330
2A32
100
AcDbEntity
  8
図枠細線
 48
10.0
100
AcDbMText
 10
173.48708833982
 20
41.621592044998
 30
0.0
 40
2.5
 41
24.983741184205
 71
     1
 72
     5
  1
{\Fmonotxt.shx,bigfont.shx|c128;製図　DRAWN}
  0
MTEXT
  5
2A45
330
2A32
100
AcDbEntity
  8
図枠細線
 48
10.0
100
AcDbMText
 10
139.28009927741
 20
21.866713069868
 30
0.0
 40
2.5
 41
22.629632913243
 71
     1
 72
     5
  1
{\Fmonotxt.shx,bigfont.shx|c128;尺度　SCALE}
  0
MTEXT
  5
2A46
330
2A32
100
AcDbEntity
  8
図枠細線
 48
10.0
100
AcDbMText
 10
139.910091179835
 20
41.311840415554
 30
0.0
 40
2.5
 41
28.998753428368
 71
     1
 72
     5
  1
{\Fmonotxt.shx,bigfont.shx|c128;検図  CHECKED}
  0
MTEXT
  5
2A47
330
2A32
100
AcDbEntity
  8
図枠細線
 48
10.0
100
AcDbMText
 10
114.253294667728
 20
21.916124850174
 30
0.0
 40
3.0
 41
19.692400475383
 71
     1
 72
     5
  1
{\Fmonotxt.shx,bigfont.shx|c128;第三角法}
  0
MTEXT
  5
2A48
330
2A32
100
AcDbEntity
  8
図枠細線
 48
10.0
100
AcDbMText
 10
108.986959929915
 20
15.282880185837
 30
0.0
 40
2.5
 41
27.954882823547
 71
     1
 72
     5
  1
{\Fmonotxt.shx,bigfont.shx|c128;THIRD ANGLE\PPROJECTION}
  0
MTEXT
  5
2A49
330
2A32
100
AcDbEntity
  8
図枠細線
 48
10.0
100
AcDbMText
 10
106.319432640184
 20
41.511437145487
 30
0.0
 40
2.5
 41
28.233595265074
 71
     1
 72
     5
  1
{\Fmonotxt.shx,bigfont.shx|c128;承認 APPROVED}
  0
LINE
  5
2A4A
330
2A32
100
AcDbEntity
  8
図枠太線
  6
CONTINUOUS
 62
   251
100
AcDbLine
 10
5.098414535793
 20
3.525959753527
 30
0.0
 11
405.098414535793
 21
3.525959753527
 31
0.0
  0
LINE
  5
2A4B
330
2A32
100
AcDbEntity
  8
図枠太線
 48
10.0
100
AcDbLine
 10
5.098414535793
 20
3.525959753527
 30
0.0
 11
5.098414535793
 21
43.525959753527
 31
0.0
  0
LINE
  5
2A4C
330
2A32
100
AcDbEntity
  8
図枠太線
  6
CONTINUOUS
 62
   251
100
AcDbLine
 10
105.098414535793
 20
3.525959753527
 30
0.0
 11
105.098414535793
 21
43.525959753527
 31
0.0
  0
LINE
  5
2A4D
330
2A32
100
AcDbEntity
  8
図枠細線
  6
CONTINUOUS
 62
   252
100
AcDbLine
 10
138.398414535793
 20
3.525959753527
 30
0.0
 11
138.398414535793
 21
18.525957753527
 31
0.0
  0
LINE
  5
2A4E
330
2A32
100
AcDbEntity
  8
図枠細線
  6
CONTINUOUS
 62
   252
100
AcDbLine
 10
171.698414535793
 20
3.525959753527
 30
0.0
 11
171.698414535793
 21
18.525957753527
 31
0.0
  0
LINE
  5
2A4F
330
2A32
100
AcDbEntity
  8
図枠太線
  6
CONTINUOUS
 62
   251
100
AcDbLine
 10
205.098414535793
 20
3.525959753527
 30
0.0
 11
205.098414535793
 21
43.525959753527
 31
0.0
  0
LINE
  5
2A50
330
2A32
100
AcDbEntity
  8
図枠太線
 48
10.0
100
AcDbLine
 10
405.098414535793
 20
43.525959753527
 30
0.0
 11
405.098414535793
 21
3.525959753527
 31
0.0
  0
TEXT
  5
2A51
330
2A32
100
AcDbEntity
  8
図枠細線
  6
CONTINUOUS
 62
   252
100
AcDbText
 10
208.519754474572
 20
6.482358407285
 30
0.0
 40
3.5
  1
ＴＯＷＡ　ＳＥＩＤＥＮ　ＩＮＤＵＳＴＲＩＡＬ　ＣＯ．，ＬＴＤ．
 41
0.749411486799
  7
EXCADSTD
 72
     5
 11
303.295327171727
 21
6.482358407285
 31
0.0
100
AcDbText
  0
LINE
  5
2A52
330
2A32
100
AcDbEntity
  8
図枠太線
  6
CONTINUOUS
 62
   251
100
AcDbLine
 10
305.098414535793
 20
3.525959753527
 30
0.0
 11
305.098414535793
 21
43.525959753527
 31
0.0
  0
ENDBLK
  5
2A53
330
2A32
100
AcDbEntity
  8
0
100
AcDbBlockEnd
  0
BLOCK
  5
2A6D
330
2A6C
100
AcDbEntity
  8
0
100
AcDbBlockBegin
  2
A3縦用_タイトル
 70
     0
 10
0.0
 20
0.0
 30
0.0
  3
A3縦用_タイトル
  1

  0
MTEXT
  5
2A6E
330
2A6C
100
AcDbEntity
  8
図枠細線
100
AcDbMText
 10
5.040804501593
 20
31.626098649005
 30
0.0
 40
2.5
 41
49.938282706292
 71
     1
 72
     5
  1
{\Fmonotxt.shx,bigfont.shx|c128;図暦　CHANGE　NOTICE}
  0
LINE
  5
2A6F
330
2A6C
100
AcDbEntity
  8
図枠太線
  6
CONTINUOUS
 62
   251
100
AcDbLine
 10
283.577871882961
 20
2.820844689254
 30
0.0
 11
283.577871882961
 21
32.820842689254
 31
0.0
  0
MTEXT
  5
2A70
330
2A6C
100
AcDbEntity
  8
図枠細線
 48
10.0
100
AcDbMText
 10
214.912458947454
 20
31.621488632308
 30
0.0
 40
2.5
 41
28.002809618823
 71
     1
 72
     5
  1
{\Fmonotxt.shx,bigfont.shx|c128;名称　TITLE}
  0
MTEXT
  5
2A71
330
2A6C
100
AcDbEntity
  8
図枠細線
 48
10.0
100
AcDbMText
 10
214.740030458938
 20
16.310225796722
 30
0.0
 40
2.5
 41
24.385612216707
 71
     1
 72
     5
  1
{\Fmonotxt.shx,bigfont.shx|c128;図面番号\PDRG.　No.}
  0
LINE
  5
2A72
330
2A6C
100
AcDbEntity
  8
図枠太線
  6
CONTINUOUS
 62
   251
100
AcDbLine
 10
213.577871882961
 20
2.820844689254
 30
0.0
 11
213.577871882961
 21
32.820842689254
 31
0.0
  0
LINE
  5
2A73
330
2A6C
100
AcDbEntity
  8
図枠太線
  6
CONTINUOUS
 62
   251
100
AcDbLine
 10
143.577871882961
 20
2.820844689254
 30
0.0
 11
143.577871882961
 21
32.820842689254
 31
0.0
  0
TEXT
  5
2A74
330
2A6C
100
AcDbEntity
  8
図枠細線
  6
CONTINUOUS
 62
   252
100
AcDbText
 10
145.716454488093
 20
4.468335689254
 30
0.0
 40
3.5
  1
ＴＯＷＡ　ＳＥＩＤＥＮ　ＩＮＤＵＳＴＲＩＡＬ　ＣＯ．，ＬＴＤ．
 41
0.530889627006
  7
EXCADSTD
 72
     5
 11
212.856295983498
 21
4.468335689254
 31
0.0
100
AcDbText
  0
TEXT
  5
2A75
330
2A6C
100
AcDbEntity
  8
図枠ロゴマーク
  6
CONTINUOUS
 62
   253
100
AcDbText
 10
145.950637593507
 20
9.413236689254
 30
0.0
 40
7.0
  1
東和制電工業株式会社
 41
0.79907071013
  7
EXCADSTD
 72
     5
 11
211.953878250259
 21
9.413236689254
 31
0.0
100
AcDbText
  0
LINE
  5
2A76
330
2A6C
100
AcDbEntity
  8
図枠細線
  6
CONTINUOUS
 62
   252
100
AcDbLine
 10
143.577871882961
 20
25.320842689254
 30
0.0
 11
213.577871882961
 21
25.320842689254
 31
0.0
  0
LINE
  5
2A77
330
2A6C
100
AcDbEntity
  8
図枠太線
  6
CONTINUOUS
 62
   251
100
AcDbLine
 10
143.577863882961
 20
17.820842689254
 30
0.0
 11
213.577871882961
 21
17.820842689254
 31
0.0
  0
LINE
  5
2A78
330
2A6C
100
AcDbEntity
  8
図枠細線
  6
CONTINUOUS
 62
   252
100
AcDbLine
 10
213.577871882961
 20
17.820842689254
 30
0.0
 11
283.577871882961
 21
17.820842689254
 31
0.0
  0
LINE
  5
2A79
330
2A6C
100
AcDbEntity
  8
図枠細線
  6
CONTINUOUS
 62
   252
100
AcDbLine
 10
120.577871882961
 20
32.820842689254
 30
0.0
 11
120.577871882961
 21
17.820842689254
 31
0.0
  0
MTEXT
  5
2A7A
330
2A6C
100
AcDbEntity
  8
図枠細線
 48
10.0
100
AcDbMText
 10
121.100885670352
 20
16.33785922638
 30
0.0
 40
2.0
 41
17.705978285068
 71
     1
 72
     5
  1
{\Fmonotxt.shx,bigfont.shx|c128;日付 DATE}
  0
MTEXT
  5
2A7B
330
2A6C
100
AcDbEntity
  8
図枠細線
 48
10.0
100
AcDbMText
 10
121.254842273491
 20
31.208993514037
 30
0.0
 40
2.0
 41
18.363799568758
 71
     1
 72
     5
  1
{\Fmonotxt.shx,bigfont.shx|c128;製図　DRAWN}
  0
LINE
  5
2A7C
330
2A6C
100
AcDbEntity
  8
図枠細線
  6
CONTINUOUS
 62
   252
100
AcDbLine
 10
97.577871882961
 20
32.820842689254
 30
0.0
 11
97.577871882961
 21
17.820842689254
 31
0.0
  0
MTEXT
  5
2A7D
330
2A6C
100
AcDbEntity
  8
図枠細線
 48
10.0
100
AcDbMText
 10
98.239734796872
 20
16.467764839281
 30
0.0
 40
2.0
 41
17.757791689903
 71
     1
 72
     5
  1
{\Fmonotxt.shx,bigfont.shx|c128;尺度　SCALE}
  0
MTEXT
  5
2A7E
330
2A6C
100
AcDbEntity
  8
図枠細線
 48
10.0
100
AcDbMText
 10
97.864744625154
 20
31.298433377664
 30
0.0
 40
2.0
 41
23.162655920976
 71
     1
 72
     5
  1
{\Fmonotxt.shx,bigfont.shx|c128;検図  CHECKED}
  0
LINE
  5
2A7F
330
2A6C
100
AcDbEntity
  8
図枠細線
  6
CONTINUOUS
 62
   252
100
AcDbLine
 10
97.577871882961
 20
2.820843367826
 30
0.0
 11
97.577871882961
 21
17.820841367826
 31
0.0
  0
LINE
  5
2A80
330
2A6C
100
AcDbEntity
  8
図枠細線
  6
CONTINUOUS
 62
   252
100
AcDbLine
 10
120.577871882961
 20
2.820844010683
 30
0.0
 11
120.577871882961
 21
17.820842010683
 31
0.0
  0
MTEXT
  5
2A81
330
2A6C
100
AcDbEntity
  8
図枠細線
 48
10.0
100
AcDbMText
 10
81.402399084102
 20
16.316484117426
 30
0.0
 40
2.0
 41
12.920322819369
 71
     1
 72
     5
  1
{\Fmonotxt.shx,bigfont.shx|c128;第三角法}
  0
MTEXT
  5
2A82
330
2A6C
100
AcDbEntity
  8
図枠細線
 48
10.0
100
AcDbMText
 10
75.736576535096
 20
11.080410931319
 30
0.0
 40
2.0
 41
21.072870671471
 71
     1
 72
     5
  1
{\Fmonotxt.shx,bigfont.shx|c128;THIRD ANGLE\PPROJECTION}
  0
LINE
  5
2A83
330
2A6C
100
AcDbEntity
  8
図枠太線
  6
CONTINUOUS
 62
   251
100
AcDbLine
 10
74.577871882961
 20
2.820844689254
 30
0.0
 11
74.577871882961
 21
32.820842689254
 31
0.0
  0
MTEXT
  5
2A84
330
2A6C
100
AcDbEntity
  8
図枠細線
 48
10.0
100
AcDbMText
 10
75.060214781573
 20
31.298434778555
 30
0.0
 40
2.0
 41
22.240928805967
 71
     1
 72
     5
  1
{\Fmonotxt.shx,bigfont.shx|c128;承認 APPROVED}
  0
LINE
  5
2A85
330
2A6C
100
AcDbEntity
  8
図枠細線
  6
CONTINUOUS
100
AcDbLine
 10
3.577871882961
 20
17.820844689254
 30
0.0
 11
74.577871882961
 21
17.820844689254
 31
0.0
  0
LINE
  5
2A86
330
2A6C
100
AcDbEntity
  8
図枠細線
  6
CONTINUOUS
 62
   252
100
AcDbLine
 10
3.577871882961
 20
27.820842689254
 30
0.0
 11
74.577871882961
 21
27.820842689254
 31
0.0
  0
LINE
  5
2A87
330
2A6C
100
AcDbEntity
  8
図枠細線
  6
CONTINUOUS
 62
   252
100
AcDbLine
 10
3.577871882961
 20
22.820842689254
 30
0.0
 11
74.577871882961
 21
22.820842689254
 31
0.0
  0
LINE
  5
2A88
330
2A6C
100
AcDbEntity
  8
図枠細線
  6
CONTINUOUS
 62
   252
100
AcDbLine
 10
3.577871882961
 20
12.820842689254
 30
0.0
 11
74.577871882961
 21
12.820842689254
 31
0.0
  0
LINE
  5
2A89
330
2A6C
100
AcDbEntity
  8
図枠細線
  6
CONTINUOUS
 62
   252
100
AcDbLine
 10
3.577871882961
 20
7.820844689254
 30
0.0
 11
74.577871882961
 21
7.820844689254
 31
0.0
  0
LINE
  5
2A8A
330
2A6C
100
AcDbEntity
  8
図枠細線
  6
CONTINUOUS
100
AcDbLine
 10
74.577871882961
 20
17.820843689254
 30
0.0
 11
143.577871882961
 21
17.820841224969
 31
0.0
  0
LINE
  5
2A8B
330
2A6C
100
AcDbEntity
  8
図枠太線
  6
CONTINUOUS
 62
   251
100
AcDbLine
 10
3.577871882961
 20
2.820844689254
 30
0.0
 11
283.577871882961
 21
2.820844689254
 31
0.0
  0
LINE
  5
2A8C
330
2A6C
100
AcDbEntity
  8
図枠太線
  6
CONTINUOUS
 62
   251
100
AcDbLine
 10
3.577871882961
 20
2.820844689254
 30
0.0
 11
3.577871882961
 21
32.820842689254
 31
0.0
  0
ENDBLK
  5
2A8D
330
2A6C
100
AcDbEntity
  8
0
100
AcDbBlockEnd
  0
BLOCK
  5
2AF8
330
2AF4
100
AcDbEntity
  8
0
 48
10.0
100
AcDbBlockBegin
  2
_OPEN30
 70
     0
 10
0.0
 20
0.0
 30
0.0
  3
_OPEN30
  1

  0
LINE
  5
2AF5
330
2AF4
100
AcDbEntity
  8
0
  6
BYBLOCK
 62
     0
100
AcDbLine
 10
-1.0
 20
0.26794919
 30
0.0
 11
0.0
 21
0.0
 31
0.0
  0
LINE
  5
2AF6
330
2AF4
100
AcDbEntity
  8
0
  6
BYBLOCK
 62
     0
100
AcDbLine
 10
0.0
 20
0.0
 30
0.0
 11
-1.0
 21
-0.26794919
 31
0.0
  0
LINE
  5
2AF7
330
2AF4
100
AcDbEntity
  8
0
  6
BYBLOCK
 62
     0
100
AcDbLine
 10
0.0
 20
0.0
 30
0.0
 11
-1.0
 21
0.0
 31
0.0
  0
ENDBLK
  5
2AF9
330
2AF4
100
AcDbEntity
  8
0
 48
10.0
100
AcDbBlockEnd
  0
BLOCK
  5
5380
330
5376
100
AcDbEntity
  8
0
 48
10.0
100
AcDbBlockBegin
  2
*D6
 70
     1
 10
0.0
 20
0.0
 30
0.0
  3
*D6
  1

  0
LINE
  5
5D3D
330
5376
100
AcDbEntity
  8
寸法線
 62
     0
 48
10.0
100
AcDbLine
 10
262.95381907805
 20
376.393417256693
 30
0.0
 11
262.95381907805
 21
295.017917109163
 31
0.0
  0
LINE
  5
5D3E
330
5376
100
AcDbEntity
  8
寸法線
 62
     0
 48
10.0
100
AcDbLine
 10
287.953819078049
 20
373.141537717627
 30
0.0
 11
287.953819078049
 21
295.017917109163
 31
0.0
  0
LINE
  5
5D3F
330
5376
100
AcDbEntity
  8
寸法線
 62
     0
 48
10.0
100
AcDbLine
 10
268.95381907805
 20
296.267917109163
 30
0.0
 11
281.953819078049
 21
296.267917109163
 31
0.0
  0
INSERT
  5
5D40
330
5376
100
AcDbEntity
  8
寸法線
 62
     0
 48
10.0
100
AcDbBlockReference
  2
_OPEN30
 10
262.95381907805
 20
296.267917109163
 30
0.0
 41
6.0
 42
6.0
 43
6.0
 50
180.0
  0
INSERT
  5
5D41
330
5376
100
AcDbEntity
  8
寸法線
 62
     0
 48
10.0
100
AcDbBlockReference
  2
_OPEN30
 10
287.953819078049
 20
296.267917109163
 30
0.0
 41
6.0
 42
6.0
 43
6.0
  0
MTEXT
  5
5D42
330
5376
100
AcDbEntity
  8
寸法線
 62
     0
 48
10.0
100
AcDbMText
 10
275.45381907805
 20
300.893704510738
 30
0.0
 40
8.0
 41
0.0
 71
     5
 72
     1
  1
\A1;25
  0
POINT
  5
5D43
330
5376
100
AcDbEntity
  8
DEFPOINTS
 62
     0
 48
10.0
100
AcDbPoint
 10
262.95381907805
 20
377.018417256693
 30
0.0
  0
POINT
  5
5D44
330
5376
100
AcDbEntity
  8
DEFPOINTS
 62
     0
 48
10.0
100
AcDbPoint
 10
287.953819078049
 20
373.766537717627
 30
0.0
  0
POINT
  5
5D45
330
5376
100
AcDbEntity
  8
DEFPOINTS
 62
     0
 48
10.0
100
AcDbPoint
 10
287.953819078049
 20
296.267917109163
 30
0.0
  0
ENDBLK
  5
5381
330
5376
100
AcDbEntity
  8
0
 48
10.0
100
AcDbBlockEnd
  0
BLOCK
  5
538D
330
5383
100
AcDbEntity
  8
0
 48
10.0
100
AcDbBlockBegin
  2
*D7
 70
     1
 10
0.0
 20
0.0
 30
0.0
  3
*D7
  1

  0
LINE
  5
5D34
330
5383
100
AcDbEntity
  8
寸法線
 62
     0
 48
10.0
100
AcDbLine
 10
287.953819078049
 20
373.141537717627
 30
0.0
 11
287.953819078049
 21
295.017917109163
 31
0.0
  0
LINE
  5
5D35
330
5383
100
AcDbEntity
  8
寸法線
 62
     0
 48
10.0
100
AcDbLine
 10
307.95381907805
 20
373.141537717626
 30
0.0
 11
307.95381907805
 21
295.017917109163
 31
0.0
  0
LINE
  5
5D36
330
5383
100
AcDbEntity
  8
寸法線
 62
     0
 48
10.0
100
AcDbLine
 10
293.953819078049
 20
296.267917109163
 30
0.0
 11
301.95381907805
 21
296.267917109163
 31
0.0
  0
INSERT
  5
5D37
330
5383
100
AcDbEntity
  8
寸法線
 62
     0
 48
10.0
100
AcDbBlockReference
  2
_OPEN30
 10
287.953819078049
 20
296.267917109163
 30
0.0
 41
6.0
 42
6.0
 43
6.0
 50
180.0
  0
INSERT
  5
5D38
330
5383
100
AcDbEntity
  8
寸法線
 62
     0
 48
10.0
100
AcDbBlockReference
  2
_OPEN30
 10
307.95381907805
 20
296.267917109163
 30
0.0
 41
6.0
 42
6.0
 43
6.0
  0
MTEXT
  5
5D39
330
5383
100
AcDbEntity
  8
寸法線
 62
     0
 48
10.0
100
AcDbMText
 10
297.95381907805
 20
300.893704510738
 30
0.0
 40
8.0
 41
0.0
 71
     5
 72
     1
  1
\A1;20
  0
POINT
  5
5D3A
330
5383
100
AcDbEntity
  8
DEFPOINTS
 62
     0
 48
10.0
100
AcDbPoint
 10
287.953819078049
 20
373.766537717627
 30
0.0
  0
POINT
  5
5D3B
330
5383
100
AcDbEntity
  8
DEFPOINTS
 62
     0
 48
10.0
100
AcDbPoint
 10
307.95381907805
 20
373.766537717626
 30
0.0
  0
POINT
  5
5D3C
330
5383
100
AcDbEntity
  8
DEFPOINTS
 62
     0
 48
10.0
100
AcDbPoint
 10
307.95381907805
 20
296.267917109163
 30
0.0
  0
ENDBLK
  5
538E
330
5383
100
AcDbEntity
  8
0
 48
10.0
100
AcDbBlockEnd
  0
BLOCK
  5
539A
330
5390
100
AcDbEntity
  8
0
 48
10.0
100
AcDbBlockBegin
  2
*D8
 70
     1
 10
0.0
 20
0.0
 30
0.0
  3
*D8
  1

  0
LINE
  5
5D2B
330
5390
100
AcDbEntity
  8
寸法線
 62
     0
 48
10.0
100
AcDbLine
 10
307.95381907805
 20
373.141537717626
 30
0.0
 11
307.95381907805
 21
295.017917109163
 31
0.0
  0
LINE
  5
5D2C
330
5390
100
AcDbEntity
  8
寸法線
 62
     0
 48
10.0
100
AcDbLine
 10
362.95381907805
 20
332.142917256693
 30
0.0
 11
362.95381907805
 21
295.017917109163
 31
0.0
  0
LINE
  5
5D2D
330
5390
100
AcDbEntity
  8
寸法線
 62
     0
 48
10.0
100
AcDbLine
 10
313.95381907805
 20
296.267917109163
 30
0.0
 11
356.95381907805
 21
296.267917109163
 31
0.0
  0
INSERT
  5
5D2E
330
5390
100
AcDbEntity
  8
寸法線
 62
     0
 48
10.0
100
AcDbBlockReference
  2
_OPEN30
 10
307.95381907805
 20
296.267917109163
 30
0.0
 41
6.0
 42
6.0
 43
6.0
 50
180.0
  0
INSERT
  5
5D2F
330
5390
100
AcDbEntity
  8
寸法線
 62
     0
 48
10.0
100
AcDbBlockReference
  2
_OPEN30
 10
362.95381907805
 20
296.267917109163
 30
0.0
 41
6.0
 42
6.0
 43
6.0
  0
MTEXT
  5
5D30
330
5390
100
AcDbEntity
  8
寸法線
 62
     0
 48
10.0
100
AcDbMText
 10
335.45381907805
 20
300.892917109163
 30
0.0
 40
8.0
 41
0.0
 71
     5
 72
     1
  1
\A1;55
  0
POINT
  5
5D31
330
5390
100
AcDbEntity
  8
DEFPOINTS
 62
     0
 48
10.0
100
AcDbPoint
 10
307.95381907805
 20
373.766537717626
 30
0.0
  0
POINT
  5
5D32
330
5390
100
AcDbEntity
  8
DEFPOINTS
 62
     0
 48
10.0
100
AcDbPoint
 10
362.95381907805
 20
332.767917256693
 30
0.0
  0
POINT
  5
5D33
330
5390
100
AcDbEntity
  8
DEFPOINTS
 62
     0
 48
10.0
100
AcDbPoint
 10
362.95381907805
 20
296.267917109163
 30
0.0
  0
ENDBLK
  5
539B
330
5390
100
AcDbEntity
  8
0
 48
10.0
100
AcDbBlockEnd
  0
BLOCK
  5
53A7
330
539D
100
AcDbEntity
  8
0
 48
10.0
100
AcDbBlockBegin
  2
*D9
 70
     1
 10
0.0
 20
0.0
 30
0.0
  3
*D9
  1

  0
LINE
  5
5D22
330
539D
100
AcDbEntity
  8
寸法線
 62
     0
 48
10.0
100
AcDbLine
 10
362.95381907805
 20
332.142917256693
 30
0.0
 11
362.95381907805
 21
295.017917109163
 31
0.0
  0
LINE
  5
5D23
330
539D
100
AcDbEntity
  8
寸法線
 62
     0
 48
10.0
100
AcDbLine
 10
387.95381907805
 20
332.142917256693
 30
0.0
 11
387.95381907805
 21
295.017917109163
 31
0.0
  0
LINE
  5
5D24
330
539D
100
AcDbEntity
  8
寸法線
 62
     0
 48
10.0
100
AcDbLine
 10
368.95381907805
 20
296.267917109163
 30
0.0
 11
381.95381907805
 21
296.267917109163
 31
0.0
  0
INSERT
  5
5D25
330
539D
100
AcDbEntity
  8
寸法線
 62
     0
 48
10.0
100
AcDbBlockReference
  2
_OPEN30
 10
362.95381907805
 20
296.267917109163
 30
0.0
 41
6.0
 42
6.0
 43
6.0
 50
180.0
  0
INSERT
  5
5D26
330
539D
100
AcDbEntity
  8
寸法線
 62
     0
 48
10.0
100
AcDbBlockReference
  2
_OPEN30
 10
387.95381907805
 20
296.267917109163
 30
0.0
 41
6.0
 42
6.0
 43
6.0
  0
MTEXT
  5
5D27
330
539D
100
AcDbEntity
  8
寸法線
 62
     0
 48
10.0
100
AcDbMText
 10
375.45381907805
 20
300.893704510738
 30
0.0
 40
8.0
 41
0.0
 71
     5
 72
     1
  1
\A1;25
  0
POINT
  5
5D28
330
539D
100
AcDbEntity
  8
DEFPOINTS
 62
     0
 48
10.0
100
AcDbPoint
 10
362.95381907805
 20
332.767917256693
 30
0.0
  0
POINT
  5
5D29
330
539D
100
AcDbEntity
  8
DEFPOINTS
 62
     0
 48
10.0
100
AcDbPoint
 10
387.95381907805
 20
332.767917256693
 30
0.0
  0
POINT
  5
5D2A
330
539D
100
AcDbEntity
  8
DEFPOINTS
 62
     0
 48
10.0
100
AcDbPoint
 10
387.95381907805
 20
296.267917109163
 30
0.0
  0
ENDBLK
  5
53A8
330
539D
100
AcDbEntity
  8
0
 48
10.0
100
AcDbBlockEnd
  0
BLOCK
  5
5459
330
5450
100
AcDbEntity
  8
0
 48
10.0
100
AcDbBlockBegin
  2
*D10
 70
     1
 10
0.0
 20
0.0
 30
0.0
  3
*D10
  1

  0
LINE
  5
5D08
330
5450
100
AcDbEntity
  8
寸法線
 62
     0
 48
10.0
100
AcDbLine
 10
251.289952919633
 20
388.017917256692
 30
0.0
 11
251.289952919633
 21
397.517917256692
 31
0.0
  0
LINE
  5
5D09
330
5450
100
AcDbEntity
  8
寸法線
 62
     0
 48
10.0
100
AcDbLine
 10
251.289952919633
 20
403.517917256692
 30
0.0
 11
251.289952919633
 21
435.499288106591
 31
0.0
  0
INSERT
  5
5D0A
330
5450
100
AcDbEntity
  8
寸法線
 62
     0
 48
10.0
100
AcDbBlockReference
  2
_OPEN30
 10
251.289952919633
 20
382.017917256692
 30
0.0
 41
6.0
 42
6.0
 43
6.0
 50
270.0
  0
INSERT
  5
5D0B
330
5450
100
AcDbEntity
  8
寸法線
 62
     0
 48
10.0
100
AcDbBlockReference
  2
_OPEN30
 10
251.289952919633
 20
403.517917256692
 30
0.0
 41
6.0
 42
6.0
 43
6.0
 50
90.0
  0
MTEXT
  5
5D0C
330
5450
100
AcDbEntity
  8
寸法線
 62
     0
 48
10.0
100
AcDbMText
 10
246.664165518059
 20
422.508602681642
 30
0.0
 40
8.0
 41
0.0
 71
     5
 72
     1
  1
\A1;φ21.5
 11
6.123031769111886E-17
 21
1.0
 31
0.0
  0
POINT
  5
5D0D
330
5450
100
AcDbEntity
  8
DEFPOINTS
 62
     0
 48
10.0
100
AcDbPoint
 10
262.95381907805
 20
403.517917256692
 30
0.0
  0
POINT
  5
5D0E
330
5450
100
AcDbEntity
  8
DEFPOINTS
 62
     0
 48
10.0
100
AcDbPoint
 10
262.95381907805
 20
382.017917256692
 30
0.0
  0
POINT
  5
5D0F
330
5450
100
AcDbEntity
  8
DEFPOINTS
 62
     0
 48
10.0
100
AcDbPoint
 10
251.289952919633
 20
382.017917256692
 30
0.0
  0
ENDBLK
  5
545A
330
5450
100
AcDbEntity
  8
0
 48
10.0
100
AcDbBlockEnd
  0
BLOCK
  5
549A
330
5490
100
AcDbEntity
  8
0
 48
10.0
100
AcDbBlockBegin
  2
*D11
 70
     1
 10
0.0
 20
0.0
 30
0.0
  3
*D11
  1

  0
LINE
  5
5D00
330
5490
100
AcDbEntity
  8
寸法線
 62
     0
 48
10.0
100
AcDbLine
 10
12.95381907805
 20
385.142917256692
 30
0.0
 11
12.95381907805
 21
295.017917109163
 31
0.0
  0
LINE
  5
5D01
330
5490
100
AcDbEntity
  8
寸法線
 62
     0
 48
10.0
100
AcDbLine
 10
112.95381907805
 20
381.892917256692
 30
0.0
 11
112.95381907805
 21
295.017917109163
 31
0.0
  0
LINE
  5
5D02
330
5490
100
AcDbEntity
  8
寸法線
 62
     0
 48
10.0
100
AcDbLine
 10
18.95381907805
 20
296.267917109163
 30
0.0
 11
106.95381907805
 21
296.267917109163
 31
0.0
  0
INSERT
  5
5D03
330
5490
100
AcDbEntity
  8
寸法線
 62
     0
 48
10.0
100
AcDbBlockReference
  2
_OPEN30
 10
12.95381907805
 20
296.267917109163
 30
0.0
 41
6.0
 42
6.0
 43
6.0
 50
180.0
  0
INSERT
  5
5D04
330
5490
100
AcDbEntity
  8
寸法線
 62
     0
 48
10.0
100
AcDbBlockReference
  2
_OPEN30
 10
112.95381907805
 20
296.267917109163
 30
0.0
 41
6.0
 42
6.0
 43
6.0
  0
POINT
  5
5D05
330
5490
100
AcDbEntity
  8
DEFPOINTS
 62
     0
 48
10.0
100
AcDbPoint
 10
12.95381907805
 20
385.767917256692
 30
0.0
  0
POINT
  5
5D06
330
5490
100
AcDbEntity
  8
DEFPOINTS
 62
     0
 48
10.0
100
AcDbPoint
 10
112.95381907805
 20
382.517917256692
 30
0.0
  0
POINT
  5
5D07
330
5490
100
AcDbEntity
  8
DEFPOINTS
 62
     0
 48
10.0
100
AcDbPoint
 10
112.95381907805
 20
296.267917109163
 30
0.0
  0
ENDBLK
  5
549B
330
5490
100
AcDbEntity
  8
0
 48
10.0
100
AcDbBlockEnd
  0
BLOCK
  5
54A7
330
549D
100
AcDbEntity
  8
0
 48
10.0
100
AcDbBlockBegin
  2
*D12
 70
     1
 10
0.0
 20
0.0
 30
0.0
  3
*D12
  1

  0
LINE
  5
5CF8
330
549D
100
AcDbEntity
  8
寸法線
 62
     0
 48
10.0
100
AcDbLine
 10
12.95381907805
 20
385.142917256692
 30
0.0
 11
12.95381907805
 21
275.017917109163
 31
0.0
  0
LINE
  5
5CF9
330
549D
100
AcDbEntity
  8
寸法線
 62
     0
 48
10.0
100
AcDbLine
 10
262.95381907805
 20
376.393417256693
 30
0.0
 11
262.95381907805
 21
275.017917109163
 31
0.0
  0
LINE
  5
5CFA
330
549D
100
AcDbEntity
  8
寸法線
 62
     0
 48
10.0
100
AcDbLine
 10
18.95381907805
 20
276.267917109163
 30
0.0
 11
256.95381907805
 21
276.267917109163
 31
0.0
  0
INSERT
  5
5CFB
330
549D
100
AcDbEntity
  8
寸法線
 62
     0
 48
10.0
100
AcDbBlockReference
  2
_OPEN30
 10
12.95381907805
 20
276.267917109163
 30
0.0
 41
6.0
 42
6.0
 43
6.0
 50
180.0
  0
INSERT
  5
5CFC
330
549D
100
AcDbEntity
  8
寸法線
 62
     0
 48
10.0
100
AcDbBlockReference
  2
_OPEN30
 10
262.95381907805
 20
276.267917109163
 30
0.0
 41
6.0
 42
6.0
 43
6.0
  0
POINT
  5
5CFD
330
549D
100
AcDbEntity
  8
DEFPOINTS
 62
     0
 48
10.0
100
AcDbPoint
 10
12.95381907805
 20
385.767917256692
 30
0.0
  0
POINT
  5
5CFE
330
549D
100
AcDbEntity
  8
DEFPOINTS
 62
     0
 48
10.0
100
AcDbPoint
 10
262.95381907805
 20
377.018417256693
 30
0.0
  0
POINT
  5
5CFF
330
549D
100
AcDbEntity
  8
DEFPOINTS
 62
     0
 48
10.0
100
AcDbPoint
 10
262.95381907805
 20
276.267917109163
 30
0.0
  0
ENDBLK
  5
54A8
330
549D
100
AcDbEntity
  8
0
 48
10.0
100
AcDbBlockEnd
  0
BLOCK
  5
54B4
330
54AA
100
AcDbEntity
  8
0
 48
10.0
100
AcDbBlockBegin
  2
*D13
 70
     1
 10
0.0
 20
0.0
 30
0.0
  3
*D13
  1

  0
LINE
  5
5CF0
330
54AA
100
AcDbEntity
  8
寸法線
 62
     0
 48
10.0
100
AcDbLine
 10
112.95381907805
 20
381.892917256692
 30
0.0
 11
112.95381907805
 21
295.017917109163
 31
0.0
  0
LINE
  5
5CF1
330
54AA
100
AcDbEntity
  8
寸法線
 62
     0
 48
10.0
100
AcDbLine
 10
162.95381907805
 20
381.392917256692
 30
0.0
 11
162.95381907805
 21
295.017917109163
 31
0.0
  0
LINE
  5
5CF2
330
54AA
100
AcDbEntity
  8
寸法線
 62
     0
 48
10.0
100
AcDbLine
 10
118.95381907805
 20
296.267917109163
 30
0.0
 11
156.95381907805
 21
296.267917109163
 31
0.0
  0
INSERT
  5
5CF3
330
54AA
100
AcDbEntity
  8
寸法線
 62
     0
 48
10.0
100
AcDbBlockReference
  2
_OPEN30
 10
112.95381907805
 20
296.267917109163
 30
0.0
 41
6.0
 42
6.0
 43
6.0
 50
180.0
  0
INSERT
  5
5CF4
330
54AA
100
AcDbEntity
  8
寸法線
 62
     0
 48
10.0
100
AcDbBlockReference
  2
_OPEN30
 10
162.95381907805
 20
296.267917109163
 30
0.0
 41
6.0
 42
6.0
 43
6.0
  0
POINT
  5
5CF5
330
54AA
100
AcDbEntity
  8
DEFPOINTS
 62
     0
 48
10.0
100
AcDbPoint
 10
112.95381907805
 20
382.517917256692
 30
0.0
  0
POINT
  5
5CF6
330
54AA
100
AcDbEntity
  8
DEFPOINTS
 62
     0
 48
10.0
100
AcDbPoint
 10
162.95381907805
 20
382.017917256692
 30
0.0
  0
POINT
  5
5CF7
330
54AA
100
AcDbEntity
  8
DEFPOINTS
 62
     0
 48
10.0
100
AcDbPoint
 10
162.95381907805
 20
296.267917109163
 30
0.0
  0
ENDBLK
  5
54B5
330
54AA
100
AcDbEntity
  8
0
 48
10.0
100
AcDbBlockEnd
  0
BLOCK
  5
54C1
330
54B7
100
AcDbEntity
  8
0
 48
10.0
100
AcDbBlockBegin
  2
*D14
 70
     1
 10
0.0
 20
0.0
 30
0.0
  3
*D14
  1

  0
LINE
  5
5CE8
330
54B7
100
AcDbEntity
  8
寸法線
 62
     0
 48
10.0
100
AcDbLine
 10
162.95381907805
 20
381.392917256692
 30
0.0
 11
162.95381907805
 21
295.017917109163
 31
0.0
  0
LINE
  5
5CE9
330
54B7
100
AcDbEntity
  8
寸法線
 62
     0
 48
10.0
100
AcDbLine
 10
262.95381907805
 20
376.393417256693
 30
0.0
 11
262.95381907805
 21
295.017917109163
 31
0.0
  0
LINE
  5
5CEA
330
54B7
100
AcDbEntity
  8
寸法線
 62
     0
 48
10.0
100
AcDbLine
 10
168.95381907805
 20
296.267917109163
 30
0.0
 11
256.95381907805
 21
296.267917109163
 31
0.0
  0
INSERT
  5
5CEB
330
54B7
100
AcDbEntity
  8
寸法線
 62
     0
 48
10.0
100
AcDbBlockReference
  2
_OPEN30
 10
162.95381907805
 20
296.267917109163
 30
0.0
 41
6.0
 42
6.0
 43
6.0
 50
180.0
  0
INSERT
  5
5CEC
330
54B7
100
AcDbEntity
  8
寸法線
 62
     0
 48
10.0
100
AcDbBlockReference
  2
_OPEN30
 10
262.95381907805
 20
296.267917109163
 30
0.0
 41
6.0
 42
6.0
 43
6.0
  0
POINT
  5
5CED
330
54B7
100
AcDbEntity
  8
DEFPOINTS
 62
     0
 48
10.0
100
AcDbPoint
 10
162.95381907805
 20
382.017917256692
 30
0.0
  0
POINT
  5
5CEE
330
54B7
100
AcDbEntity
  8
DEFPOINTS
 62
     0
 48
10.0
100
AcDbPoint
 10
262.95381907805
 20
377.018417256693
 30
0.0
  0
POINT
  5
5CEF
330
54B7
100
AcDbEntity
  8
DEFPOINTS
 62
     0
 48
10.0
100
AcDbPoint
 10
262.95381907805
 20
296.267917109163
 30
0.0
  0
ENDBLK
  5
54C2
330
54B7
100
AcDbEntity
  8
0
 48
10.0
100
AcDbBlockEnd
  0
BLOCK
  5
5A05
330
5A04
100
AcDbEntity
  8
0
 48
10.0
100
AcDbBlockBegin
  2
静電容量センサ
 70
     0
 10
0.0
 20
0.0
 30
0.0
  3
静電容量センサ
  1

  0
ARC
  5
5A06
330
5A04
100
AcDbEntity
  8
外形線
 48
10.0
100
AcDbCircle
 10
1021.898525663106
 20
1073.412780408912
 30
0.0
 40
1.0
100
AcDbArc
 50
180.0
 51
268.999999999998
  0
ARC
  5
5A07
330
5A04
100
AcDbEntity
  8
外形線
 48
10.0
100
AcDbCircle
 10
1021.898525663106
 20
1115.960781516243
 30
0.0
 40
1.0
100
AcDbArc
 50
91.000000000002
 51
180.0
  0
LINE
  5
5A08
330
5A04
100
AcDbEntity
  8
外形線
 48
10.0
100
AcDbLine
 10
1020.898525663106
 20
1115.960781516243
 30
0.0
 11
1020.898525663106
 21
1073.412780408912
 31
0.0
  0
LINE
  5
5A09
330
5A04
100
AcDbEntity
  8
外形線
 48
10.0
100
AcDbLine
 10
1035.026308504175
 20
1117.944859066978
 30
0.0
 11
1041.278741748243
 21
1143.02199911049
 31
0.0
  0
ARC
  5
5A0A
330
5A04
100
AcDbEntity
  8
外形線
 48
10.0
100
AcDbCircle
 10
1046.130220379623
 20
1141.812389632491
 30
0.0
 40
5.0
100
AcDbArc
 50
91.3
 51
166.000000000004
  0
ARC
  5
5A0B
330
5A04
100
AcDbEntity
  8
外形線
 48
10.0
100
AcDbCircle
 10
1034.056012777899
 20
1118.186780962578
 30
0.0
 40
1.0
100
AcDbArc
 50
270.0
 51
346.000000000004
  0
ARC
  5
5A0C
330
5A04
100
AcDbEntity
  8
外形線
 48
10.0
100
AcDbCircle
 10
1034.056012777899
 20
1118.186780962578
 30
0.0
 40
1.0
100
AcDbArc
 50
270.0
 51
346.000000000004
  0
LINE
  5
5A0D
330
5A04
100
AcDbEntity
  8
外形線
 48
10.0
100
AcDbLine
 10
1021.881073256669
 20
1116.960629211399
 30
0.0
 11
1034.056012777899
 21
1117.186780962578
 31
0.0
  0
ARC
  5
5A0E
330
5A04
100
AcDbEntity
  8
外形線
 48
10.0
100
AcDbCircle
 10
1122.899564892808
 20
1151.93622955513
 30
0.0
 40
0.5
100
AcDbArc
 50
359.999254274584
 51
88.999999999998
  0
ARC
  5
5A0F
330
5A04
100
AcDbEntity
  8
細線
 48
10.0
100
AcDbCircle
 10
1123.898525663106
 20
1107.819822714047
 30
0.0
 40
0.5
100
AcDbArc
 50
180.0
 51
264.089361084595
  0
ARC
  5
5A10
330
5A04
100
AcDbEntity
  8
外形線
 48
10.0
100
AcDbCircle
 10
1123.898525663106
 20
1100.44543233102
 30
0.0
 40
0.5
100
AcDbArc
 50
91.000000000002
 51
180.0
  0
ARC
  5
5A11
330
5A04
100
AcDbEntity
  8
細線
 48
10.0
100
AcDbCircle
 10
1123.898525663106
 20
1108.078641759149
 30
0.0
 40
0.5
100
AcDbArc
 50
180.0
 51
264.089361084595
  0
ARC
  5
5A12
330
5A04
100
AcDbEntity
  8
細線
 48
10.0
100
AcDbCircle
 10
1123.898525663106
 20
1129.71320712675
 30
0.0
 40
0.5
100
AcDbArc
 50
180.0
 51
254.206830951738
  0
ARC
  5
5A13
330
5A04
100
AcDbEntity
  8
細線
 48
10.0
100
AcDbCircle
 10
1123.898525663106
 20
1130.420313907937
 30
0.0
 40
0.5
100
AcDbArc
 50
180.0
 51
254.206830951738
  0
ARC
  5
5A14
330
5A04
100
AcDbEntity
  8
細線
 48
10.0
100
AcDbCircle
 10
1123.898525663106
 20
1142.359984147006
 30
0.0
 40
0.5
100
AcDbArc
 50
180.0
 51
248.874947125989
  0
ARC
  5
5A15
330
5A04
100
AcDbEntity
  8
細線
 48
10.0
100
AcDbCircle
 10
1123.898525663106
 20
1143.325909973296
 30
0.0
 40
0.5
100
AcDbArc
 50
180.0
 51
248.874947125989
  0
ARC
  5
5A16
330
5A04
100
AcDbEntity
  8
外形線
 48
10.0
100
AcDbCircle
 10
1123.898413585187
 20
1144.632076415673
 30
0.0
 40
0.5
100
AcDbArc
 50
180.019033969455
 51
248.025023881972
  0
LINE
  5
5A17
330
5A04
100
AcDbEntity
  8
外形線
 48
10.0
100
AcDbLine
 10
1123.398525663106
 20
1143.325909973296
 30
0.0
 11
1123.398525663106
 21
1144.294618045039
 31
0.0
  0
LINE
  5
5A18
330
5A04
100
AcDbEntity
  8
外形線
 48
10.0
100
AcDbLine
 10
1123.398525663106
 20
1142.359984147006
 30
0.0
 11
1123.398525663106
 21
1142.98307227703
 31
0.0
  0
LINE
  5
5A19
330
5A04
100
AcDbEntity
  8
外形線
 48
10.0
100
AcDbLine
 10
1123.398525663106
 20
1130.420313907937
 30
0.0
 11
1123.398525663106
 21
1142.017146450741
 31
0.0
  0
LINE
  5
5A1A
330
5A04
100
AcDbEntity
  8
外形線
 48
10.0
100
AcDbLine
 10
1123.398525663106
 20
1129.71320712675
 30
0.0
 11
1123.398525663106
 21
1130.042120021904
 31
0.0
  0
LINE
  5
5A1B
330
5A04
100
AcDbEntity
  8
外形線
 48
10.0
100
AcDbLine
 10
1123.398525663106
 20
1108.078641759149
 30
0.0
 11
1123.398525663106
 21
1130.420313907937
 31
0.0
  0
LINE
  5
5A1C
330
5A04
100
AcDbEntity
  8
外形線
 48
10.0
100
AcDbLine
 10
1123.398525663106
 20
1107.819822714047
 30
0.0
 11
1123.398525663106
 21
1108.700149198143
 31
0.0
  0
LINE
  5
5A1D
330
5A04
100
AcDbEntity
  8
外形線
 48
10.0
100
AcDbLine
 10
1123.398525663106
 20
1100.44543233102
 30
0.0
 11
1123.398525663106
 21
1108.078641759149
 31
0.0
  0
ARC
  5
5A1E
330
5A04
100
AcDbEntity
  8
外形線
 48
10.0
100
AcDbCircle
 10
1123.898525663106
 20
1088.928129594135
 30
0.0
 40
0.5
100
AcDbArc
 50
180.0
 51
268.999999999998
  0
LINE
  5
5A1F
330
5A04
100
AcDbEntity
  8
外形線
 48
10.0
100
AcDbLine
 10
1123.398525663106
 20
1088.928129594135
 30
0.0
 11
1123.398525663106
 21
1100.44543233102
 31
0.0
  0
ARC
  5
5A20
330
5A04
100
AcDbEntity
  8
外形線
 48
10.0
100
AcDbCircle
 10
1135.396646406818
 20
1087.727276821958
 30
0.0
 40
0.5
100
AcDbArc
 50
0.002863323129
 51
88.999999999998
  0
ARC
  5
5A21
330
5A04
100
AcDbEntity
  8
外形線
 48
10.0
100
AcDbCircle
 10
1135.396646406818
 20
1101.646285103198
 30
0.0
 40
0.5
100
AcDbArc
 50
271.000000000002
 51
359.997136676878
  0
ARC
  5
5A22
330
5A04
100
AcDbEntity
  8
細線
 48
10.0
100
AcDbCircle
 10
1135.398359871226
 20
1105.882746614783
 30
0.0
 40
0.5
100
AcDbArc
 50
359.978936747976
 51
84.089361084595
  0
ARC
  5
5A23
330
5A04
100
AcDbEntity
  8
細線
 48
10.0
100
AcDbCircle
 10
1135.396845195015
 20
1105.6240843805
 30
0.0
 40
0.5
100
AcDbArc
 50
359.997136676878
 51
84.089361084595
  0
ARC
  5
5A24
330
5A04
100
AcDbEntity
  8
細線
 48
10.0
100
AcDbCircle
 10
1135.398405428356
 20
1136.84472607817
 30
0.0
 40
0.5
100
AcDbArc
 50
359.997136676878
 51
68.874947125989
  0
ARC
  5
5A25
330
5A04
100
AcDbEntity
  8
細線
 48
10.0
100
AcDbCircle
 10
1135.398453699003
 20
1137.810633254114
 30
0.0
 40
0.5
100
AcDbArc
 50
359.997136676878
 51
68.874947125989
  0
ARC
  5
5A26
330
5A04
100
AcDbEntity
  8
外形線
 48
10.0
100
AcDbCircle
 10
1135.398508800797
 20
1138.913233296621
 30
0.0
 40
0.5
100
AcDbArc
 50
359.997136676878
 51
68.025023881972
  0
LINE
  5
5A27
330
5A04
100
AcDbEntity
  8
外形線
 48
10.0
100
AcDbLine
 10
1135.405372610037
 20
1101.146361255619
 30
0.0
 11
1123.889799459887
 21
1100.945356178598
 31
0.0
  0
LINE
  5
5A28
330
5A04
100
AcDbEntity
  8
外形線
 48
10.0
100
AcDbLine
 10
1135.405372610037
 20
1088.227200669536
 30
0.0
 11
1123.889799459887
 21
1088.428205746557
 31
0.0
  0
LINE
  5
5A29
330
5A04
100
AcDbEntity
  8
外形線
 48
10.0
100
AcDbLine
 10
1123.711312779708
 20
1144.168402728055
 30
0.0
 11
1135.585609606275
 21
1139.376906984239
 31
0.0
  0
LINE
  5
5A2A
330
5A04
100
AcDbEntity
  8
細線
 48
10.0
100
AcDbLine
 10
1135.448333812772
 20
1106.121426237015
 30
0.0
 11
1123.847037045349
 21
1107.322480857532
 31
0.0
  0
LINE
  5
5A2B
330
5A04
100
AcDbEntity
  8
細線
 48
10.0
100
AcDbLine
 10
1135.449848488983
 20
1106.380088471297
 30
0.0
 11
1123.847037045349
 21
1107.581299902634
 31
0.0
  0
LINE
  5
5A2C
330
5A04
100
AcDbEntity
  8
細線
 48
10.0
100
AcDbLine
 10
1135.533952658586
 20
1126.609702933466
 30
0.0
 11
1123.762442899618
 21
1129.939188683612
 31
0.0
  0
LINE
  5
5A2D
330
5A04
100
AcDbEntity
  8
細線
 48
10.0
100
AcDbLine
 10
1135.578607784566
 20
1137.311124095764
 30
0.0
 11
1123.718323306896
 21
1141.893586129411
 31
0.0
  0
LINE
  5
5A2E
330
5A04
100
AcDbEntity
  8
細線
 48
10.0
100
AcDbLine
 10
1135.578656055213
 20
1138.277031271709
 30
0.0
 11
1123.718323306896
 21
1142.859511955701
 31
0.0
  0
LINE
  5
5A2F
330
5A04
100
AcDbEntity
  8
外形線
 48
10.0
100
AcDbLine
 10
1108.899561566736
 20
1152.686780962578
 30
0.0
 11
1122.908291096026
 21
1152.436153402709
 31
0.0
  0
LINE
  5
5A30
330
5A04
100
AcDbEntity
  8
外形線
 48
10.0
100
AcDbLine
 10
1108.899561566736
 20
1152.686780962578
 30
0.0
 11
1108.399561566736
 21
1152.180676686204
 31
0.0
  0
LINE
  5
5A31
330
5A04
100
AcDbEntity
  8
外形線
 48
10.0
100
AcDbLine
 10
1108.399561566736
 20
1151.192885238951
 30
0.0
 11
1108.399561566736
 21
1150.692885238951
 31
0.0
  0
ARC
  5
5A32
330
5A04
100
AcDbEntity
  8
外形線
 48
10.0
100
AcDbCircle
 10
1098.998525663106
 20
1152.414559409545
 30
0.0
 40
4.4
100
AcDbArc
 50
271.3
 51
0.0
  0
LINE
  5
5A33
330
5A04
100
AcDbEntity
  8
外形線
 48
10.0
100
AcDbLine
 10
1046.016783711759
 20
1146.811102679105
 30
0.0
 11
1099.098349930826
 21
1148.015691928525
 31
0.0
  0
LINE
  5
5A34
330
5A04
100
AcDbEntity
  8
外形線
 48
10.0
100
AcDbLine
 10
1103.398525663105
 20
1152.686780962578
 30
0.0
 11
1103.398525663105
 21
1152.414559409545
 31
0.0
  0
LINE
  5
5A35
330
5A04
100
AcDbEntity
  8
外形線
 48
10.0
100
AcDbLine
 10
1106.398525663105
 20
1152.686780962578
 30
0.0
 11
1103.398525663105
 21
1152.686780962578
 31
0.0
  0
ARC
  5
5A36
330
5A04
100
AcDbEntity
  8
外形線
 48
10.0
100
AcDbCircle
 10
1107.898525663105
 20
1150.161780962577
 30
0.0
 40
1.500000000000156
100
AcDbArc
 50
70.528779365514
 51
179.999999999993
  0
LINE
  5
5A37
330
5A04
100
AcDbEntity
  8
細線
 48
10.0
100
AcDbLine
 10
1108.899561566736
 20
1152.686780962578
 30
0.0
 11
1108.899561566736
 21
1036.686780962578
 31
0.0
  0
LINE
  5
5A38
330
5A04
100
AcDbEntity
  8
細線
 48
10.0
100
AcDbLine
 10
1108.899561566736
 20
1152.680676686204
 30
0.0
 11
1108.899561566736
 21
1036.692885238951
 31
0.0
  0
LINE
  5
5A39
330
5A04
100
AcDbEntity
  8
外形線
 48
10.0
100
AcDbLine
 10
1123.398525663106
 20
1072.956444458874
 30
0.0
 11
1123.398525663106
 21
1059.660354798405
 31
0.0
  0
ARC
  5
5A3A
330
5A04
100
AcDbEntity
  8
細線
 48
10.0
100
AcDbCircle
 10
1123.898525663106
 20
1047.013577778149
 30
0.0
 40
0.5
100
AcDbArc
 50
111.125052874011
 51
180.0
  0
ARC
  5
5A3B
330
5A04
100
AcDbEntity
  8
細線
 48
10.0
100
AcDbCircle
 10
1123.898066965619
 20
1046.04747472476
 30
0.0
 40
0.5
100
AcDbArc
 50
111.125052874011
 51
179.923306313171
  0
ARC
  5
5A3C
330
5A04
100
AcDbEntity
  8
細線
 48
10.0
100
AcDbCircle
 10
1123.898525663106
 20
1059.660354798405
 30
0.0
 40
0.5
100
AcDbArc
 50
105.793169048262
 51
180.0
  0
ARC
  5
5A3D
330
5A04
100
AcDbEntity
  8
細線
 48
10.0
100
AcDbCircle
 10
1123.898525663106
 20
1058.953248017218
 30
0.0
 40
0.5
100
AcDbArc
 50
105.793169048262
 51
180.0
  0
ARC
  5
5A3E
330
5A04
100
AcDbEntity
  8
細線
 48
10.0
100
AcDbCircle
 10
1123.898525663106
 20
1081.294920166006
 30
0.0
 40
0.5
100
AcDbArc
 50
95.910638915405
 51
180.0
  0
ARC
  5
5A3F
330
5A04
100
AcDbEntity
  8
細線
 48
10.0
100
AcDbCircle
 10
1123.898525663106
 20
1081.553739211108
 30
0.0
 40
0.5
100
AcDbArc
 50
95.910638915405
 51
180.0
  0
LINE
  5
5A40
330
5A04
100
AcDbEntity
  8
外形線
 48
10.0
100
AcDbLine
 10
1123.398525663106
 20
1081.294920166006
 30
0.0
 11
1123.398525663106
 21
1088.928129594135
 31
0.0
  0
LINE
  5
5A41
330
5A04
100
AcDbEntity
  8
外形線
 48
10.0
100
AcDbLine
 10
1123.398525663106
 20
1081.745828707453
 30
0.0
 11
1123.398525663106
 21
1082.004647752555
 31
0.0
  0
LINE
  5
5A42
330
5A04
100
AcDbEntity
  8
外形線
 48
10.0
100
AcDbLine
 10
1123.398525663106
 20
1072.956444458874
 30
0.0
 11
1123.398525663106
 21
1081.294920166006
 31
0.0
  0
LINE
  5
5A43
330
5A04
100
AcDbEntity
  8
外形線
 48
10.0
100
AcDbLine
 10
1123.398525663106
 20
1058.953248017218
 30
0.0
 11
1123.398525663106
 21
1059.660354798405
 31
0.0
  0
LINE
  5
5A44
330
5A04
100
AcDbEntity
  8
外形線
 48
10.0
100
AcDbLine
 10
1123.398525663106
 20
1047.013577778149
 30
0.0
 11
1123.398525663106
 21
1058.953248017218
 31
0.0
  0
LINE
  5
5A45
330
5A04
100
AcDbEntity
  8
外形線
 48
10.0
100
AcDbLine
 10
1123.398067413553
 20
1046.048144003235
 30
0.0
 11
1123.398525663106
 21
1047.013577778149
 31
0.0
  0
LINE
  5
5A46
330
5A04
100
AcDbEntity
  8
外形線
 48
10.0
100
AcDbLine
 10
1123.396317242873
 20
1044.740639597053
 30
0.0
 11
1123.398067413553
 21
1046.048144003235
 31
0.0
  0
ARC
  5
5A47
330
5A04
100
AcDbEntity
  8
外形線
 48
10.0
100
AcDbCircle
 10
1123.896317242873
 20
1044.740639597053
 30
0.0
 40
0.5
100
AcDbArc
 50
111.974976118028
 51
180.0
  0
ARC
  5
5A48
330
5A04
100
AcDbEntity
  8
細線
 48
10.0
100
AcDbCircle
 10
1135.398494161258
 20
1063.952267566336
 30
0.0
 40
0.5
100
AcDbArc
 50
285.793169048262
 51
0.004772330144
  0
ARC
  5
5A49
330
5A04
100
AcDbEntity
  8
細線
 48
10.0
100
AcDbCircle
 10
1135.398525663106
 20
1063.245169695216
 30
0.0
 40
0.5
100
AcDbArc
 50
285.793169048262
 51
0.0
  0
ARC
  5
5A4A
330
5A04
100
AcDbEntity
  8
細線
 48
10.0
100
AcDbCircle
 10
1135.398525663106
 20
1052.528882302126
 30
0.0
 40
0.5
100
AcDbArc
 50
291.125052874011
 51
0.0
  0
ARC
  5
5A4B
330
5A04
100
AcDbEntity
  8
細線
 48
10.0
100
AcDbCircle
 10
1135.398525663106
 20
1051.562956475835
 30
0.0
 40
0.5
100
AcDbArc
 50
291.125052874011
 51
0.0
  0
ARC
  5
5A4C
330
5A04
100
AcDbEntity
  8
外形線
 48
10.0
100
AcDbCircle
 10
1135.398525663106
 20
1050.460335432784
 30
0.0
 40
0.5
100
AcDbArc
 50
291.974976118028
 51
0.0
  0
LINE
  5
5A4D
330
5A04
100
AcDbEntity
  8
外形線
 48
10.0
100
AcDbLine
 10
1135.898525663106
 20
1051.562956475835
 30
0.0
 11
1135.898525663106
 21
1050.460335432784
 31
0.0
  0
LINE
  5
5A4E
330
5A04
100
AcDbEntity
  8
外形線
 48
10.0
100
AcDbLine
 10
1135.898525663106
 20
1052.528882302126
 30
0.0
 11
1135.898525663106
 21
1051.562956475835
 31
0.0
  0
LINE
  5
5A4F
330
5A04
100
AcDbEntity
  8
外形線
 48
10.0
100
AcDbLine
 10
1135.898525663106
 20
1063.245169695216
 30
0.0
 11
1135.898525663106
 21
1052.528882302126
 31
0.0
  0
LINE
  5
5A50
330
5A04
100
AcDbEntity
  8
外形線
 48
10.0
100
AcDbLine
 10
1135.898494159523
 20
1063.952309212773
 30
0.0
 11
1135.898525663106
 21
1063.245169695216
 31
0.0
  0
LINE
  5
5A51
330
5A04
100
AcDbEntity
  8
外形線
 48
10.0
100
AcDbLine
 10
1135.896845194391
 20
1083.749502531863
 30
0.0
 11
1135.898494159523
 21
1063.952309212773
 31
0.0
  0
ARC
  5
5A52
330
5A04
100
AcDbEntity
  8
細線
 48
10.0
100
AcDbCircle
 10
1135.396794220963
 20
1083.49065322233
 30
0.0
 40
0.5
100
AcDbArc
 50
275.910638915405
 51
0.00199902817
  0
ARC
  5
5A53
330
5A04
100
AcDbEntity
  8
細線
 48
10.0
100
AcDbCircle
 10
1135.396845195015
 20
1083.749477544655
 30
0.0
 40
0.5
100
AcDbArc
 50
275.910638915405
 51
0.002863323129
  0
ARC
  5
5A54
330
5A04
100
AcDbEntity
  8
外形線
 48
10.0
100
AcDbCircle
 10
1122.897486448612
 20
1037.437296090646
 30
0.0
 40
0.5
100
AcDbArc
 50
271.000000000002
 51
359.984453673186
  0
LINE
  5
5A55
330
5A04
100
AcDbEntity
  8
外形線
 48
10.0
100
AcDbLine
 10
1135.896646406194
 20
1087.727301809166
 30
0.0
 11
1135.896794220659
 21
1083.490670667142
 31
0.0
  0
LINE
  5
5A56
330
5A04
100
AcDbEntity
  8
外形線
 48
10.0
100
AcDbLine
 10
1123.709216437395
 20
1045.204313284671
 30
0.0
 11
1135.585626468584
 21
1049.996661745166
 31
0.0
  0
LINE
  5
5A57
330
5A04
100
AcDbEntity
  8
細線
 48
10.0
100
AcDbLine
 10
1135.578728019316
 20
1052.062484284531
 30
0.0
 11
1123.718323306896
 21
1047.479975795744
 31
0.0
  0
LINE
  5
5A58
330
5A04
100
AcDbEntity
  8
細線
 48
10.0
100
AcDbLine
 10
1135.578728019316
 20
1051.09655845824
 30
0.0
 11
1123.717864609409
 21
1046.513872742355
 31
0.0
  0
LINE
  5
5A59
330
5A04
100
AcDbEntity
  8
細線
 48
10.0
100
AcDbLine
 10
1135.534608426593
 20
1062.764044470891
 30
0.0
 11
1123.762442899618
 21
1059.434373241543
 31
0.0
  0
LINE
  5
5A5A
330
5A04
100
AcDbEntity
  8
細線
 48
10.0
100
AcDbLine
 10
1135.534576924746
 20
1063.471142342011
 30
0.0
 11
1123.762442899618
 21
1060.141480022729
 31
0.0
  0
LINE
  5
5A5B
330
5A04
100
AcDbEntity
  8
細線
 48
10.0
100
AcDbLine
 10
1135.44828283872
 20
1082.993311365815
 30
0.0
 11
1123.847037045349
 21
1081.792262022521
 31
0.0
  0
LINE
  5
5A5C
330
5A04
100
AcDbEntity
  8
細線
 48
10.0
100
AcDbLine
 10
1135.448333812772
 20
1083.25213568814
 30
0.0
 11
1123.847037045349
 21
1082.051081067623
 31
0.0
  0
LINE
  5
5A5D
330
5A04
100
AcDbEntity
  8
外形線
 48
10.0
100
AcDbLine
 10
1123.399470041665
 20
1044.747733739171
 30
0.0
 11
1123.397486430207
 21
1037.437160423353
 31
0.0
  0
LINE
  5
5A5E
330
5A04
100
AcDbEntity
  8
外形線
 48
10.0
100
AcDbLine
 10
1123.399564892765
 20
1151.936223047449
 30
0.0
 11
1123.397486430207
 21
1037.437160423353
 31
0.0
  0
LINE
  5
5A5F
330
5A04
100
AcDbEntity
  8
外形線
 48
10.0
100
AcDbLine
 10
1108.399561566736
 20
1152.180676686204
 30
0.0
 11
1108.399561566736
 21
1037.192885238951
 31
0.0
  0
LINE
  5
5A60
330
5A04
100
AcDbEntity
  8
外形線
 48
10.0
100
AcDbLine
 10
1108.899561566736
 20
1036.686780962578
 30
0.0
 11
1122.906212651831
 21
1036.937372243068
 31
0.0
  0
LINE
  5
5A61
330
5A04
100
AcDbEntity
  8
外形線
 48
10.0
100
AcDbLine
 10
1108.899561566736
 20
1036.686780962578
 30
0.0
 11
1108.399561566736
 21
1037.192885238951
 31
0.0
  0
LINE
  5
5A62
330
5A04
100
AcDbEntity
  8
外形線
 48
10.0
100
AcDbLine
 10
1108.399561566736
 20
1038.192885238951
 30
0.0
 11
1108.399561566736
 21
1038.692885238951
 31
0.0
  0
LINE
  5
5A63
330
5A04
100
AcDbEntity
  8
外形線
 48
10.0
100
AcDbLine
 10
1035.022931603883
 20
1071.442246865485
 30
0.0
 11
1041.278741748243
 21
1046.351562814666
 31
0.0
  0
ARC
  5
5A64
330
5A04
100
AcDbEntity
  8
外形線
 48
10.0
100
AcDbCircle
 10
1046.130220379623
 20
1047.561172292664
 30
0.0
 40
5.0
100
AcDbArc
 50
193.999999999996
 51
268.7
  0
ARC
  5
5A65
330
5A04
100
AcDbEntity
  8
外形線
 48
10.0
100
AcDbCircle
 10
1034.052635877606
 20
1071.200324969886
 30
0.0
 40
1.0
100
AcDbArc
 50
13.999999999996
 51
89.000000000011
  0
ARC
  5
5A66
330
5A04
100
AcDbEntity
  8
外形線
 48
10.0
100
AcDbCircle
 10
1069.398525663106
 20
1041.031595836918
 30
0.0
 40
1.0
100
AcDbArc
 50
0.0
 51
88.7
  0
ARC
  5
5A67
330
5A04
100
AcDbEntity
  8
外形線
 48
10.0
100
AcDbCircle
 10
1071.398525663106
 20
1031.186780962577
 30
0.0
 40
1.0
100
AcDbArc
 50
180.0
 51
270.0
  0
ARC
  5
5A68
330
5A04
100
AcDbEntity
  8
外形線
 48
10.0
100
AcDbCircle
 10
1105.398525663105
 20
1031.186780962577
 30
0.0
 40
1.0
100
AcDbArc
 50
270.0
 51
0.0
  0
LINE
  5
5A69
330
5A04
100
AcDbEntity
  8
外形線
 48
10.0
100
AcDbLine
 10
1070.398525663106
 20
1031.186780962577
 30
0.0
 11
1070.398525663106
 21
1041.031595836918
 31
0.0
  0
LINE
  5
5A6A
330
5A04
100
AcDbEntity
  8
外形線
 48
10.0
100
AcDbLine
 10
1046.016783711759
 20
1042.56245924605
 30
0.0
 11
1099.098349930826
 21
1041.35786999663
 31
0.0
  0
LINE
  5
5A6B
330
5A04
100
AcDbEntity
  8
外形線
 48
10.0
100
AcDbLine
 10
1021.881073256668
 20
1072.412932713756
 30
0.0
 11
1034.070088284044
 21
1072.200172665042
 31
0.0
  0
LINE
  5
5A6C
330
5A04
100
AcDbEntity
  8
外形線
 48
10.0
100
AcDbLine
 10
1106.398525663105
 20
1040.711780962577
 30
0.0
 11
1106.398525663105
 21
1031.186780962577
 31
0.0
  0
LINE
  5
5A6D
330
5A04
100
AcDbEntity
  8
外形線
 48
10.0
100
AcDbLine
 10
1106.398525663105
 20
1040.711780962577
 30
0.0
 11
1106.398525663105
 21
1152.686780962578
 31
0.0
  0
LINE
  5
5A6E
330
5A04
100
AcDbEntity
  8
外形線
 48
10.0
100
AcDbLine
 10
1105.398525663105
 20
1030.186780962577
 30
0.0
 11
1071.398525663106
 21
1030.186780962577
 31
0.0
  0
LINE
  5
5A6F
330
5A04
100
AcDbEntity
  8
外形線
 48
10.0
100
AcDbLine
 10
1103.398525663106
 20
1036.95900251561
 30
0.0
 11
1103.398525663105
 21
1036.692885238951
 31
0.0
  0
LINE
  5
5A70
330
5A04
100
AcDbEntity
  8
外形線
 48
10.0
100
AcDbLine
 10
1106.398525663105
 20
1036.692885238951
 30
0.0
 11
1103.398525663105
 21
1036.692885238951
 31
0.0
  0
ARC
  5
5A71
330
5A04
100
AcDbEntity
  8
外形線
 48
10.0
100
AcDbCircle
 10
1107.898525663105
 20
1039.211780962577
 30
0.0
 40
1.499999999999659
100
AcDbArc
 50
179.99999999998
 51
289.471220634515
  0
ARC
  5
5A72
330
5A04
100
AcDbEntity
  8
外形線
 48
10.0
100
AcDbCircle
 10
1098.998525663106
 20
1036.95900251561
 30
0.0
 40
4.4
100
AcDbArc
 50
0.0
 51
88.7
  0
LINE
  5
5A73
330
5A04
100
AcDbEntity
  8
細線
 48
10.0
100
AcDbLine
 10
1103.398525663105
 20
1152.686780962578
 30
0.0
 11
1103.398525663106
 21
1036.95900251561
 31
0.0
  0
LINE
  5
5A74
330
5A04
100
AcDbEntity
  8
細線
 48
10.0
100
AcDbLine
 10
1034.837298404406
 20
1072.186780962578
 30
0.0
 11
1034.840933619068
 21
1117.201361012233
 31
0.0
  0
LINE
  5
5A75
330
5A04
100
AcDbEntity
  8
細線
 48
10.0
100
AcDbLine
 10
1042.201886517784
 20
1144.905639229587
 30
0.0
 11
1042.201886517784
 21
1044.467922695569
 31
0.0
  0
LINE
  5
5A76
330
5A04
100
AcDbEntity
  8
外形線
 48
10.0
100
AcDbLine
 10
1135.898508800172
 20
1138.913208309413
 30
0.0
 11
1135.896646406194
 21
1101.646260115989
 31
0.0
  0
ARC
  5
5A77
330
5A04
100
AcDbEntity
  8
細線
 48
10.0
100
AcDbCircle
 10
1135.397834558349
 20
1125.421480922695
 30
0.0
 40
0.5
100
AcDbArc
 50
359.997136676878
 51
74.206830951738
  0
ARC
  5
5A78
330
5A04
100
AcDbEntity
  8
細線
 48
10.0
100
AcDbCircle
 10
1135.397869895098
 20
1126.128577709141
 30
0.0
 40
0.5
100
AcDbArc
 50
359.997136676878
 51
74.206830951738
  0
LINE
  5
5A79
330
5A04
100
AcDbEntity
  8
細線
 48
10.0
100
AcDbLine
 10
1135.533917321837
 20
1125.90260614702
 30
0.0
 11
1123.762442899618
 21
1129.232081902426
 31
0.0
  0
LINE
  5
5A7A
330
5A04
100
AcDbEntity
  8
中心線
 48
10.0
100
AcDbLine
 10
1088.398525663106
 20
1052.03299312045
 30
0.0
 11
1088.398525663106
 21
1013.722487401784
 31
0.0
  0
ENDBLK
  5
5A7B
330
5A04
100
AcDbEntity
  8
0
 48
10.0
100
AcDbBlockEnd
  0
BLOCK
  5
5ACA
330
5AC0
100
AcDbEntity
  8
0
 48
10.0
100
AcDbBlockBegin
  2
*D16
 70
     1
 10
0.0
 20
0.0
 30
0.0
  3
*D16
  1

  0
LINE
  5
5CDF
330
5AC0
100
AcDbEntity
  8
寸法線
 62
     0
 48
10.0
100
AcDbLine
 10
494.204916620413
 20
334.767917256693
 30
0.0
 11
533.238429789711
 21
334.767917256693
 31
0.0
  0
LINE
  5
5CE0
330
5AC0
100
AcDbEntity
  8
寸法線
 62
     0
 48
10.0
100
AcDbLine
 10
493.877423391654
 20
450.767917256693
 30
0.0
 11
533.238429789711
 21
450.767917256693
 31
0.0
  0
LINE
  5
5CE1
330
5AC0
100
AcDbEntity
  8
寸法線
 62
     0
 48
10.0
100
AcDbLine
 10
531.988429789711
 20
340.767917256693
 30
0.0
 11
531.988429789711
 21
444.767917256693
 31
0.0
  0
INSERT
  5
5CE2
330
5AC0
100
AcDbEntity
  8
寸法線
 62
     0
100
AcDbBlockReference
  2
_OPEN30
 10
531.988429789711
 20
334.767917256693
 30
0.0
 41
6.0
 42
6.0
 43
6.0
 50
270.0
  0
INSERT
  5
5CE3
330
5AC0
100
AcDbEntity
  8
寸法線
 62
     0
100
AcDbBlockReference
  2
_OPEN30
 10
531.988429789711
 20
450.767917256693
 30
0.0
 41
6.0
 42
6.0
 43
6.0
 50
90.0
  0
MTEXT
  5
5CE4
330
5AC0
100
AcDbEntity
  8
寸法線
 62
     0
 48
10.0
100
AcDbMText
 10
527.363429789711
 20
392.767917256693
 30
0.0
 40
8.0
 41
0.0
 71
     5
 72
     1
  1
\A1;φ116
 11
0.0
 21
1.0
 31
0.0
  0
POINT
  5
5CE5
330
5AC0
100
AcDbEntity
  8
DEFPOINTS
 62
     0
100
AcDbPoint
 10
493.579916620413
 20
334.767917256693
 30
0.0
  0
POINT
  5
5CE6
330
5AC0
100
AcDbEntity
  8
DEFPOINTS
 62
     0
100
AcDbPoint
 10
493.252423391654
 20
450.767917256693
 30
0.0
  0
POINT
  5
5CE7
330
5AC0
100
AcDbEntity
  8
DEFPOINTS
 62
     0
100
AcDbPoint
 10
531.988429789711
 20
450.767917256693
 30
0.0
  0
ENDBLK
  5
5ACB
330
5AC0
100
AcDbEntity
  8
0
 48
10.0
100
AcDbBlockEnd
  0
BLOCK
  5
5AD6
330
5ACC
100
AcDbEntity
  8
0
 48
10.0
100
AcDbBlockBegin
  2
*D17
 70
     1
 10
0.0
 20
0.0
 30
0.0
  3
*D17
  1

  0
LINE
  5
5CD6
330
5ACC
100
AcDbEntity
  8
寸法線
 62
     0
 48
10.0
100
AcDbLine
 10
476.45381907805
 20
328.642917256692
 30
0.0
 11
476.45381907805
 21
295.017917109163
 31
0.0
  0
LINE
  5
5CD7
330
5ACC
100
AcDbEntity
  8
寸法線
 62
     0
 48
10.0
100
AcDbLine
 10
505.95381907805
 20
347.916471726899
 30
0.0
 11
505.95381907805
 21
295.017917109163
 31
0.0
  0
LINE
  5
5CD8
330
5ACC
100
AcDbEntity
  8
寸法線
 62
     0
 48
10.0
100
AcDbLine
 10
482.45381907805
 20
296.267917109163
 30
0.0
 11
499.95381907805
 21
296.267917109163
 31
0.0
  0
INSERT
  5
5CD9
330
5ACC
100
AcDbEntity
  8
寸法線
 62
     0
 48
10.0
100
AcDbBlockReference
  2
_OPEN30
 10
476.45381907805
 20
296.267917109163
 30
0.0
 41
6.0
 42
6.0
 43
6.0
 50
180.0
  0
INSERT
  5
5CDA
330
5ACC
100
AcDbEntity
  8
寸法線
 62
     0
 48
10.0
100
AcDbBlockReference
  2
_OPEN30
 10
505.95381907805
 20
296.267917109163
 30
0.0
 41
6.0
 42
6.0
 43
6.0
  0
MTEXT
  5
5CDB
330
5ACC
100
AcDbEntity
  8
寸法線
 62
     0
 48
10.0
100
AcDbMText
 10
491.20381907805
 20
300.892917109163
 30
0.0
 40
8.0
 41
0.0
 71
     5
 72
     1
  1
\A1;30
  0
POINT
  5
5CDC
330
5ACC
100
AcDbEntity
  8
DEFPOINTS
 62
     0
 48
10.0
100
AcDbPoint
 10
476.45381907805
 20
329.267917256692
 30
0.0
  0
POINT
  5
5CDD
330
5ACC
100
AcDbEntity
  8
DEFPOINTS
 62
     0
 48
10.0
100
AcDbPoint
 10
505.95381907805
 20
348.541471726899
 30
0.0
  0
POINT
  5
5CDE
330
5ACC
100
AcDbEntity
  8
DEFPOINTS
 62
     0
 48
10.0
100
AcDbPoint
 10
505.95381907805
 20
296.267917109163
 30
0.0
  0
ENDBLK
  5
5AD7
330
5ACC
100
AcDbEntity
  8
0
 48
10.0
100
AcDbBlockEnd
  0
BLOCK
  5
5AE2
330
5AD8
100
AcDbEntity
  8
0
 48
10.0
100
AcDbBlockBegin
  2
*D18
 70
     1
 10
0.0
 20
0.0
 30
0.0
  3
*D18
  1

  0
LINE
  5
5CCD
330
5AD8
100
AcDbEntity
  8
寸法線
 62
     0
 48
10.0
100
AcDbLine
 10
387.95381907805
 20
332.142917256693
 30
0.0
 11
387.95381907805
 21
295.017917109163
 31
0.0
  0
LINE
  5
5CCE
330
5AD8
100
AcDbEntity
  8
寸法線
 62
     0
 48
10.0
100
AcDbLine
 10
476.45381907805
 20
328.642917256692
 30
0.0
 11
476.45381907805
 21
295.017917109163
 31
0.0
  0
LINE
  5
5CCF
330
5AD8
100
AcDbEntity
  8
寸法線
 62
     0
 48
10.0
100
AcDbLine
 10
393.95381907805
 20
296.267917109163
 30
0.0
 11
470.45381907805
 21
296.267917109163
 31
0.0
  0
INSERT
  5
5CD0
330
5AD8
100
AcDbEntity
  8
寸法線
 62
     0
100
AcDbBlockReference
  2
_OPEN30
 10
387.95381907805
 20
296.267917109163
 30
0.0
 41
6.0
 42
6.0
 43
6.0
 50
180.0
  0
INSERT
  5
5CD1
330
5AD8
100
AcDbEntity
  8
寸法線
 62
     0
100
AcDbBlockReference
  2
_OPEN30
 10
476.45381907805
 20
296.267917109163
 30
0.0
 41
6.0
 42
6.0
 43
6.0
  0
MTEXT
  5
5CD2
330
5AD8
100
AcDbEntity
  8
寸法線
 62
     0
 48
10.0
100
AcDbMText
 10
432.20381907805
 20
300.90958377583
 30
0.0
 40
8.0
 41
0.0
 71
     5
 72
     1
  1
\A1;88
  0
POINT
  5
5CD3
330
5AD8
100
AcDbEntity
  8
DEFPOINTS
 62
     0
100
AcDbPoint
 10
387.95381907805
 20
332.767917256693
 30
0.0
  0
POINT
  5
5CD4
330
5AD8
100
AcDbEntity
  8
DEFPOINTS
 62
     0
100
AcDbPoint
 10
476.45381907805
 20
329.267917256692
 30
0.0
  0
POINT
  5
5CD5
330
5AD8
100
AcDbEntity
  8
DEFPOINTS
 62
     0
100
AcDbPoint
 10
476.45381907805
 20
296.267917109163
 30
0.0
  0
ENDBLK
  5
5AE3
330
5AD8
100
AcDbEntity
  8
0
 48
10.0
100
AcDbBlockEnd
  0
BLOCK
  5
5B61
330
5B57
100
AcDbEntity
  8
0
 48
10.0
100
AcDbBlockBegin
  2
*D19
 70
     1
 10
0.0
 20
0.0
 30
0.0
  3
*D19
  1

  0
LINE
  5
5CC4
330
5B57
100
AcDbEntity
  8
寸法線
 62
     0
 48
10.0
100
AcDbLine
 10
262.95381907805
 20
376.393417256693
 30
0.0
 11
262.95381907805
 21
275.017917109163
 31
0.0
  0
LINE
  5
5CC5
330
5B57
100
AcDbEntity
  8
寸法線
 62
     0
 48
10.0
100
AcDbLine
 10
505.95381907805
 20
347.916471726899
 30
0.0
 11
505.95381907805
 21
275.017917109163
 31
0.0
  0
LINE
  5
5CC6
330
5B57
100
AcDbEntity
  8
寸法線
 62
     0
 48
10.0
100
AcDbLine
 10
268.95381907805
 20
276.267917109163
 30
0.0
 11
499.95381907805
 21
276.267917109163
 31
0.0
  0
INSERT
  5
5CC7
330
5B57
100
AcDbEntity
  8
寸法線
 62
     0
 48
10.0
100
AcDbBlockReference
  2
_OPEN30
 10
262.95381907805
 20
276.267917109163
 30
0.0
 41
6.0
 42
6.0
 43
6.0
 50
180.0
  0
INSERT
  5
5CC8
330
5B57
100
AcDbEntity
  8
寸法線
 62
     0
 48
10.0
100
AcDbBlockReference
  2
_OPEN30
 10
505.95381907805
 20
276.267917109163
 30
0.0
 41
6.0
 42
6.0
 43
6.0
  0
MTEXT
  5
5CC9
330
5B57
100
AcDbEntity
  8
寸法線
 62
     0
 48
10.0
100
AcDbMText
 10
384.45381907805
 20
280.893704510738
 30
0.0
 40
8.0
 41
0.0
 71
     5
 72
     1
  1
\A1;243
  0
POINT
  5
5CCA
330
5B57
100
AcDbEntity
  8
DEFPOINTS
 62
     0
 48
10.0
100
AcDbPoint
 10
262.95381907805
 20
377.018417256693
 30
0.0
  0
POINT
  5
5CCB
330
5B57
100
AcDbEntity
  8
DEFPOINTS
 62
     0
 48
10.0
100
AcDbPoint
 10
505.95381907805
 20
348.541471726899
 30
0.0
  0
POINT
  5
5CCC
330
5B57
100
AcDbEntity
  8
DEFPOINTS
 62
     0
 48
10.0
100
AcDbPoint
 10
505.95381907805
 20
276.267917109163
 30
0.0
  0
ENDBLK
  5
5B62
330
5B57
100
AcDbEntity
  8
0
 48
10.0
100
AcDbBlockEnd
  0
BLOCK
  5
6299
330
6298
100
AcDbEntity
  8
0
100
AcDbBlockBegin
  2
*D20
 70
     1
 10
0.0
 20
0.0
 30
0.0
  3
*D20
  1

  0
LINE
  5
629B
330
6298
100
AcDbEntity
  8
寸法線
 62
     0
 48
10.0
100
AcDbLine
 10
13.32881907805
 20
403.517917256693
 30
0.0
 11
-0.934649178223
 21
403.517917256693
 31
0.0
  0
LINE
  5
629C
330
6298
100
AcDbEntity
  8
寸法線
 62
     0
 48
10.0
100
AcDbLine
 10
13.32881907805
 20
382.017917256693
 30
0.0
 11
-0.934649178223
 21
382.017917256693
 31
0.0
  0
LINE
  5
629D
330
6298
100
AcDbEntity
  8
寸法線
 62
     0
 48
10.0
100
AcDbLine
 10
0.315350821777
 20
403.517917256693
 30
0.0
 11
0.315350821777
 21
434.634583923359
 31
0.0
  0
LINE
  5
629E
330
6298
100
AcDbEntity
  8
寸法線
 62
     0
 48
10.0
100
AcDbLine
 10
0.315350821777
 20
397.517917256693
 30
0.0
 11
0.315350821777
 21
388.017917256693
 31
0.0
  0
INSERT
  5
629F
330
6298
100
AcDbEntity
  8
寸法線
 62
     0
100
AcDbBlockReference
  2
_OPEN30
 10
0.315350821777
 20
403.517917256693
 30
0.0
 41
6.0
 42
6.0
 43
6.0
 50
90.0
  0
INSERT
  5
62A0
330
6298
100
AcDbEntity
  8
寸法線
 62
     0
100
AcDbBlockReference
  2
_OPEN30
 10
0.315350821777
 20
382.017917256693
 30
0.0
 41
6.0
 42
6.0
 43
6.0
 50
270.0
  0
MTEXT
  5
62A1
330
6298
100
AcDbEntity
  8
寸法線
 62
     0
 48
10.0
100
AcDbMText
 10
-4.31381584489
 20
422.076250590026
 30
0.0
 40
8.0
 41
0.0
 71
     5
 72
     1
  1
\A1;φ21.5
 11
8.262124834419814E-17
 21
1.0
 31
0.0
  0
POINT
  5
62A2
330
6298
100
AcDbEntity
  8
DEFPOINTS
 62
     0
100
AcDbPoint
 10
13.95381907805
 20
403.517917256693
 30
0.0
  0
POINT
  5
62A3
330
6298
100
AcDbEntity
  8
DEFPOINTS
 62
     0
100
AcDbPoint
 10
13.95381907805
 20
382.017917256693
 30
0.0
  0
POINT
  5
62A4
330
6298
100
AcDbEntity
  8
DEFPOINTS
 62
     0
100
AcDbPoint
 10
0.315350821777
 20
382.017917256693
 30
0.0
  0
ENDBLK
  5
629A
330
6298
100
AcDbEntity
  8
0
100
AcDbBlockEnd
  0
BLOCK
  5
62B1
330
62B0
100
AcDbEntity
  8
0
100
AcDbBlockBegin
  2
*D21
 70
     1
 10
0.0
 20
0.0
 30
0.0
  3
*D21
  1

  0
LINE
  5
62B3
330
62B0
100
AcDbEntity
  8
寸法線
 62
     0
 48
10.0
100
AcDbLine
 10
152.253543255613
 20
403.517917256693
 30
0.0
 11
152.253543255613
 21
435.066936014975
 31
0.0
  0
LINE
  5
62B4
330
62B0
100
AcDbEntity
  8
寸法線
 62
     0
 48
10.0
100
AcDbLine
 10
152.253543255613
 20
397.517917256693
 30
0.0
 11
152.253543255613
 21
388.017917256693
 31
0.0
  0
INSERT
  5
62B5
330
62B0
100
AcDbEntity
  8
寸法線
 62
     0
100
AcDbBlockReference
  2
_OPEN30
 10
152.253543255613
 20
403.517917256693
 30
0.0
 41
6.0
 42
6.0
 43
6.0
 50
90.0
  0
INSERT
  5
62B6
330
62B0
100
AcDbEntity
  8
寸法線
 62
     0
100
AcDbBlockReference
  2
_OPEN30
 10
152.253543255613
 20
382.017917256693
 30
0.0
 41
6.0
 42
6.0
 43
6.0
 50
270.0
  0
MTEXT
  5
62B7
330
62B0
100
AcDbEntity
  8
寸法線
 62
     0
 48
10.0
100
AcDbMText
 10
147.624376588946
 20
422.508602681642
 30
0.0
 40
8.0
 41
0.0
 71
     5
 72
     1
  1
\A1;φ21.5
 11
0.0
 21
1.0
 31
0.0
  0
POINT
  5
62B8
330
62B0
100
AcDbEntity
  8
DEFPOINTS
 62
     0
100
AcDbPoint
 10
162.95381907805
 20
403.517917256693
 30
0.0
  0
POINT
  5
62B9
330
62B0
100
AcDbEntity
  8
DEFPOINTS
 62
     0
100
AcDbPoint
 10
162.95381907805
 20
382.017917256693
 30
0.0
  0
POINT
  5
62BA
330
62B0
100
AcDbEntity
  8
DEFPOINTS
 62
     0
100
AcDbPoint
 10
152.253543255613
 20
382.017917256693
 30
0.0
  0
ENDBLK
  5
62B2
330
62B0
100
AcDbEntity
  8
0
100
AcDbBlockEnd
  0
ENDSEC
  0
SECTION
  2
ENTITIES
  0
LWPOLYLINE
  5
31A0
330
1A
100
AcDbEntity
  8
外形線
100
AcDbPolyline
 90
        4
 70
     1
 43
0.0
 10
387.95381907805
 20
373.767917256693
 10
390.95381907805
 20
373.767917256693
 10
390.95381907805
 20
411.767917256693
 10
387.95381907805
 20
411.767917256693
  0
TEXT
  5
3541
330
1A
100
AcDbEntity
  8
寸法線
100
AcDbText
 10
498.683131134149
 20
526.021463302205
 30
0.0
 40
8.0
  1
塗装色：10YR7.5/14
100
AcDbText
  0
MTEXT
  5
441A
330
1A
100
AcDbEntity
  8
寸法線
 48
10.0
100
AcDbMText
 10
326.546437841854
 20
495.184149902788
 30
0.0
 40
8.0
 41
0.0
 71
     7
 72
     1
  1
アルミ
  0
MTEXT
  5
441B
330
1A
100
AcDbEntity
  8
寸法線
 48
10.0
100
AcDbMText
 10
371.057595782193
 20
495.184149902788
 30
0.0
 40
8.0
 41
0.0
 71
     7
 72
     1
  1
放熱フィン\Pアルミ
  0
LWPOLYLINE
  5
441E
330
1A
100
AcDbEntity
  8
外形線
100
AcDbPolyline
 90
        4
 70
     1
 43
0.0
 10
307.95381907805
 20
375.767917256693
 10
362.95381907805
 20
375.767917256693
 10
362.95381907805
 20
409.767917256693
 10
307.95381907805
 20
409.767917256693
  0
LWPOLYLINE
  5
441F
102
{ACAD_REACTORS
330
447F
102
}
330
1A
100
AcDbEntity
  8
外形線
100
AcDbPolyline
 90
        4
 70
     1
 43
0.0
 10
386.45381907805
 20
332.767917256693
 10
387.95381907805
 20
332.767917256693
 10
387.95381907805
 20
452.767917256693
 10
386.45381907805
 20
452.767917256693
  0
LWPOLYLINE
  5
4420
102
{ACAD_REACTORS
330
447F
102
}
330
1A
100
AcDbEntity
  8
外形線
100
AcDbPolyline
 90
        8
 70
     1
 43
0.0
 10
376.70381907805
 20
373.767917256693
 10
385.95381907805
 20
373.767917256693
 10
386.45381907805
 20
374.267917256693
 10
386.45381907805
 20
411.267917256693
 10
385.95381907805
 20
411.767917256693
 10
376.70381907805
 20
411.767917256693
 10
376.20381907805
 20
411.267917256693
 10
376.20381907805
 20
374.267917256693
  0
LWPOLYLINE
  5
4421
102
{ACAD_REACTORS
330
447F
102
}
330
1A
100
AcDbEntity
  8
外形線
100
AcDbPolyline
 90
        4
 70
     1
 43
0.0
 10
374.70381907805
 20
332.767917256693
 10
376.20381907805
 20
332.767917256693
 10
376.20381907805
 20
452.767917256693
 10
374.70381907805
 20
452.767917256693
  0
LWPOLYLINE
  5
4422
102
{ACAD_REACTORS
330
447F
102
}
330
1A
100
AcDbEntity
  8
外形線
100
AcDbPolyline
 90
        8
 70
     1
 43
0.0
 10
364.95381907805
 20
373.767917256693
 10
374.20381907805
 20
373.767917256693
 10
374.70381907805
 20
374.267917256693
 10
374.70381907805
 20
411.267917256693
 10
374.20381907805
 20
411.767917256693
 10
364.95381907805
 20
411.767917256693
 10
364.45381907805
 20
411.267917256693
 10
364.45381907805
 20
374.267917256693
  0
LWPOLYLINE
  5
4423
102
{ACAD_REACTORS
330
447F
102
}
330
1A
100
AcDbEntity
  8
外形線
100
AcDbPolyline
 90
        4
 70
     1
 43
0.0
 10
362.95381907805
 20
332.767917256693
 10
364.45381907805
 20
332.767917256693
 10
364.45381907805
 20
452.767917256693
 10
362.95381907805
 20
452.767917256693
  0
LINE
  5
4481
330
1A
100
AcDbEntity
  8
中心線
 48
10.0
100
AcDbLine
 10
6.213180652234
 20
392.767917256693
 30
0.0
 11
504.710175139937
 21
392.767917256693
 31
0.0
  0
MTEXT
  5
4EA8
330
1A
100
AcDbEntity
  8
寸法線
 48
10.0
100
AcDbMText
 10
262.856285829474
 20
495.184149902788
 30
0.0
 40
8.0
 41
0.0
 71
     7
 72
     1
  1
取付ねじR1"\PSUS304
  0
DIMENSION
  5
5375
330
1A
100
AcDbEntity
  8
寸法線
 48
10.0
100
AcDbDimension
  2
*D6
 10
287.953819078049
 20
296.267917109163
 30
0.0
 11
275.45381907805
 21
300.893704510738
 31
0.0
 70
    32
  3
ISO-25
100
AcDbAlignedDimension
 13
262.95381907805
 23
377.018417256693
 33
0.0
 14
287.953819078049
 24
373.766537717627
 34
0.0
100
AcDbRotatedDimension
1001
ACAD
1000
DSTYLE
1002
{
1070
     5
1000
OPEN30
1070
    41
1040
6.0
1070
    47
1040
0.1
1070
    48
1040
0.1
1070
    73
1070
     0
1070
   140
1040
8.0
1070
   271
1070
     1
1070
   272
1070
     1
1070
   341
1005
2AF4
1002
}
  0
DIMENSION
  5
5382
330
1A
100
AcDbEntity
  8
寸法線
 48
10.0
100
AcDbDimension
  2
*D7
 10
307.95381907805
 20
296.267917109163
 30
0.0
 11
297.95381907805
 21
300.893704510738
 31
0.0
 70
    32
  3
ISO-25
100
AcDbAlignedDimension
 13
287.953819078049
 23
373.766537717627
 33
0.0
 14
307.95381907805
 24
373.766537717626
 34
0.0
100
AcDbRotatedDimension
1001
ACAD
1000
DSTYLE
1002
{
1070
     5
1000
OPEN30
1070
    41
1040
6.0
1070
    47
1040
0.1
1070
    48
1040
0.1
1070
    73
1070
     0
1070
   140
1040
8.0
1070
   271
1070
     1
1070
   272
1070
     1
1070
   341
1005
2AF4
1002
}
  0
DIMENSION
  5
538F
330
1A
100
AcDbEntity
  8
寸法線
 48
10.0
100
AcDbDimension
  2
*D8
 10
362.95381907805
 20
296.267917109163
 30
0.0
 11
335.45381907805
 21
300.892917109163
 31
0.0
 70
    32
  3
ISO-25
100
AcDbAlignedDimension
 13
307.95381907805
 23
373.766537717626
 33
0.0
 14
362.95381907805
 24
332.767917256693
 34
0.0
100
AcDbRotatedDimension
1001
ACAD
1000
DSTYLE
1002
{
1070
     5
1000
OPEN30
1070
    41
1040
6.0
1070
    47
1040
0.1
1070
    48
1040
0.1
1070
    73
1070
     0
1070
   140
1040
8.0
1070
   271
1070
     1
1070
   272
1070
     1
1070
   341
1005
2AF4
1002
}
  0
DIMENSION
  5
539C
330
1A
100
AcDbEntity
  8
寸法線
 48
10.0
100
AcDbDimension
  2
*D9
 10
387.95381907805
 20
296.267917109163
 30
0.0
 11
375.45381907805
 21
300.893704510738
 31
0.0
 70
    32
  3
ISO-25
100
AcDbAlignedDimension
 13
362.95381907805
 23
332.767917256693
 33
0.0
 14
387.95381907805
 24
332.767917256693
 34
0.0
100
AcDbRotatedDimension
1001
ACAD
1000
DSTYLE
1002
{
1070
     5
1000
OPEN30
1070
    41
1040
6.0
1070
    47
1040
0.1
1070
    48
1040
0.1
1070
    73
1070
     0
1070
   140
1040
8.0
1070
   271
1070
     1
1070
   272
1070
     1
1070
   341
1005
2AF4
1002
}
  0
DIMENSION
  5
5437
330
1A
100
AcDbEntity
  8
寸法線
 48
10.0
100
AcDbDimension
  2
*D10
 10
251.289952919633
 20
382.017917256692
 30
0.0
 11
251.289952919633
 21
422.508602681642
 31
0.0
 70
   160
  1
φ<>
  3
ISO-25
100
AcDbAlignedDimension
 13
262.95381907805
 23
403.517917256692
 33
0.0
 14
262.95381907805
 24
382.017917256692
 34
0.0
 50
90.0
100
AcDbRotatedDimension
1001
ACAD
1000
DSTYLE
1002
{
1070
     5
1000
OPEN30
1070
    76
1070
     1
1070
    75
1070
     1
1070
    41
1040
6.0
1070
    47
1040
0.1
1070
    48
1040
0.1
1070
    73
1070
     0
1070
   140
1040
8.0
1070
   271
1070
     1
1070
   272
1070
     1
1070
   341
1005
2AF4
1002
}
  0
DIMENSION
  5
548F
330
1A
100
AcDbEntity
  8
寸法線
 48
10.0
100
AcDbDimension
  2
*D11
 10
112.95381907805
 20
296.267917109163
 30
0.0
 11
62.95381907805
 21
296.267917109163
 31
0.0
 70
    32
  1
 
  3
ISO-25
100
AcDbAlignedDimension
 13
12.95381907805
 23
385.767917256692
 33
0.0
 14
112.95381907805
 24
382.517917256692
 34
0.0
100
AcDbRotatedDimension
1001
ACAD
1000
DSTYLE
1002
{
1070
     5
1000
OPEN30
1070
    41
1040
6.0
1070
    47
1040
0.1
1070
    48
1040
0.1
1070
    73
1070
     0
1070
   140
1040
8.0
1070
   271
1070
     1
1070
   272
1070
     1
1070
   341
1005
2AF4
1002
}
  0
DIMENSION
  5
549C
330
1A
100
AcDbEntity
  8
寸法線
 48
10.0
100
AcDbDimension
  2
*D12
 10
262.95381907805
 20
276.267917109163
 30
0.0
 11
137.95381907805
 21
276.267917109163
 31
0.0
 70
    32
  1
 
  3
ISO-25
100
AcDbAlignedDimension
 13
12.95381907805
 23
385.767917256692
 33
0.0
 14
262.95381907805
 24
377.018417256693
 34
0.0
100
AcDbRotatedDimension
1001
ACAD
1000
DSTYLE
1002
{
1070
     5
1000
OPEN30
1070
    41
1040
6.0
1070
    47
1040
0.1
1070
    48
1040
0.1
1070
    73
1070
     0
1070
   140
1040
8.0
1070
   271
1070
     1
1070
   272
1070
     1
1070
   341
1005
2AF4
1002
}
  0
DIMENSION
  5
54A9
330
1A
100
AcDbEntity
  8
寸法線
 48
10.0
100
AcDbDimension
  2
*D13
 10
162.95381907805
 20
296.267917109163
 30
0.0
 11
137.95381907805
 21
296.267917109163
 31
0.0
 70
    32
  1
 
  3
ISO-25
100
AcDbAlignedDimension
 13
112.95381907805
 23
382.517917256692
 33
0.0
 14
162.95381907805
 24
382.017917256692
 34
0.0
100
AcDbRotatedDimension
1001
ACAD
1000
DSTYLE
1002
{
1070
     5
1000
OPEN30
1070
    41
1040
6.0
1070
    47
1040
0.1
1070
    48
1040
0.1
1070
    73
1070
     0
1070
   140
1040
8.0
1070
   271
1070
     1
1070
   272
1070
     1
1070
   341
1005
2AF4
1002
}
  0
DIMENSION
  5
54B6
330
1A
100
AcDbEntity
  8
寸法線
 48
10.0
100
AcDbDimension
  2
*D14
 10
262.95381907805
 20
296.267917109163
 30
0.0
 11
212.95381907805
 21
296.267917109163
 31
0.0
 70
    32
  1
 
  3
ISO-25
100
AcDbAlignedDimension
 13
162.95381907805
 23
382.017917256692
 33
0.0
 14
262.95381907805
 24
377.018417256693
 34
0.0
100
AcDbRotatedDimension
1001
ACAD
1000
DSTYLE
1002
{
1070
     5
1000
OPEN30
1070
    41
1040
6.0
1070
    47
1040
0.1
1070
    48
1040
0.1
1070
    73
1070
     0
1070
   140
1040
8.0
1070
   271
1070
     1
1070
   272
1070
     1
1070
   341
1005
2AF4
1002
}
  0
SPLINE
  5
54FC
330
1A
100
AcDbEntity
  8
寸法線
 48
10.0
100
AcDbSpline
210
0.0
220
0.0
230
1.0
 70
  1064
 71
     3
 72
    13
 73
     9
 74
     7
 42
0.000000001
 43
0.0000000001
 44
0.0000000001
 40
0.0
 40
0.0
 40
0.0
 40
0.0
 40
3.223685095176996
 40
8.435450993908088
 40
12.63609189519628
 40
15.5412696635904
 40
17.08609505184045
 40
18.20640635868947
 40
18.20640635868947
 40
18.20640635868947
 40
18.20640635868947
 10
58.97363151798162
 20
297.2615751276023
 30
0.0
 10
59.9322935807801
 20
297.7044194314243
 30
0.0
 10
62.44083477252182
 20
298.8632148200963
 30
0.0
 10
63.04532286921294
 20
306.9527210681133
 30
0.0
 10
59.46959285180687
 20
301.1344603190748
 30
0.0
 10
59.62617121198998
 20
298.1808079931036
 30
0.0
 10
61.51006366439833
 20
297.0236997414581
 30
0.0
 10
62.34334009915837
 20
297.440533454067
 30
0.0
 10
62.6936144446766
 20
297.615752804793
 30
0.0
 11
58.97363151798162
 21
297.2615751276023
 31
0.0
 11
61.54219100248052
 21
299.2095606941446
 31
0.0
 11
62.11790272357842
 21
304.3894313293407
 31
0.0
 11
59.85934236007087
 21
300.8476395418456
 31
0.0
 11
60.25791234776402
 21
297.9699321503824
 31
0.0
 11
61.6307618691829
 21
297.2615751276023
 31
0.0
 11
62.6936144446766
 21
297.615752804793
 31
0.0
  0
TEXT
  5
54FD
330
1A
100
AcDbEntity
  8
寸法線
 48
10.0
100
AcDbText
 10
65.059662022796
 20
297.310485099227
 30
0.0
 40
5.2
  1
1
100
AcDbText
  0
SPLINE
  5
54FE
330
1A
100
AcDbEntity
  8
寸法線
 48
10.0
100
AcDbSpline
210
0.0
220
0.0
230
1.0
 70
  1064
 71
     3
 72
    13
 73
     9
 74
     7
 42
0.000000001
 43
0.0000000001
 44
0.0000000001
 40
0.0
 40
0.0
 40
0.0
 40
0.0
 40
3.223685095176979
 40
8.435450993908074
 40
12.63609189519629
 40
15.54126966359042
 40
17.0860950518405
 40
18.20640635868952
 40
18.20640635868952
 40
18.20640635868952
 40
18.20640635868952
 10
133.9763944654312
 20
297.2615751276023
 30
0.0
 10
134.9350565282297
 20
297.7044194314243
 30
0.0
 10
137.4435977199714
 20
298.8632148200963
 30
0.0
 10
138.0480858166626
 20
306.9527210681132
 30
0.0
 10
134.4723557992564
 20
301.1344603190749
 30
0.0
 10
134.6289341594396
 20
298.1808079931037
 30
0.0
 10
136.5128266118479
 20
297.0236997414581
 30
0.0
 10
137.346103046608
 20
297.4405334540669
 30
0.0
 10
137.6963773921262
 20
297.615752804793
 30
0.0
 11
133.9763944654312
 21
297.2615751276023
 31
0.0
 11
136.5449539499301
 21
299.2095606941446
 31
0.0
 11
137.120665671028
 21
304.3894313293407
 31
0.0
 11
134.8621053075204
 21
300.8476395418456
 31
0.0
 11
135.2606752952136
 21
297.9699321503824
 31
0.0
 11
136.6335248166325
 21
297.2615751276023
 31
0.0
 11
137.6963773921262
 21
297.615752804793
 31
0.0
  0
TEXT
  5
54FF
330
1A
100
AcDbEntity
  8
寸法線
 48
10.0
100
AcDbText
 10
140.062424970246
 20
297.310485099227
 30
0.0
 40
5.2
  1
2
100
AcDbText
  0
TEXT
  5
5500
330
1A
100
AcDbEntity
  8
寸法線
 48
10.0
100
AcDbText
 10
214.265969013376
 20
297.310485099227
 30
0.0
 40
5.2
  1
3
100
AcDbText
  0
SPLINE
  5
5501
330
1A
100
AcDbEntity
  8
寸法線
 48
10.0
100
AcDbSpline
210
0.0
220
0.0
230
1.0
 70
  1064
 71
     3
 72
    13
 73
     9
 74
     7
 42
0.000000001
 43
0.0000000001
 44
0.0000000001
 40
0.0
 40
0.0
 40
0.0
 40
0.0
 40
3.223685095177002
 40
8.435450993908097
 40
12.63609189519633
 40
15.54126966359046
 40
17.08609505184054
 40
18.20640635868954
 40
18.20640635868954
 40
18.20640635868954
 40
18.20640635868954
 10
208.1799385085617
 20
297.2615751276023
 30
0.0
 10
209.1386005713601
 20
297.7044194314243
 30
0.0
 10
211.6471417631019
 20
298.8632148200963
 30
0.0
 10
212.2516298597931
 20
306.9527210681132
 30
0.0
 10
208.6758998423869
 20
301.1344603190749
 30
0.0
 10
208.83247820257
 20
298.1808079931035
 30
0.0
 10
210.7163706549785
 20
297.0236997414583
 30
0.0
 10
211.5496470897384
 20
297.440533454067
 30
0.0
 10
211.8999214352567
 20
297.615752804793
 30
0.0
 11
208.1799385085617
 21
297.2615751276023
 31
0.0
 11
210.7484979930606
 21
299.2095606941446
 31
0.0
 11
211.3242097141585
 21
304.3894313293407
 31
0.0
 11
209.0656493506509
 21
300.8476395418456
 31
0.0
 11
209.4642193383441
 21
297.9699321503824
 31
0.0
 11
210.837068859763
 21
297.2615751276023
 31
0.0
 11
211.8999214352567
 21
297.615752804793
 31
0.0
  0
SPLINE
  5
5502
330
1A
100
AcDbEntity
  8
寸法線
 48
10.0
100
AcDbSpline
210
0.0
220
0.0
230
1.0
 70
  1064
 71
     3
 72
    13
 73
     9
 74
     7
 42
0.000000001
 43
0.0000000001
 44
0.0000000001
 40
0.0
 40
0.0
 40
0.0
 40
0.0
 40
3.22368509517691
 40
8.435450993908118
 40
12.63609189519629
 40
15.5412696635904
 40
17.08609505184056
 40
18.20640635868949
 40
18.20640635868949
 40
18.20640635868949
 40
18.20640635868949
 10
136.662620049713
 20
277.5808109312882
 30
0.0
 10
137.6212821125115
 20
278.0236552351102
 30
0.0
 10
140.1298233042533
 20
279.1824506237821
 30
0.0
 10
140.7343114009443
 20
287.2719568717991
 30
0.0
 10
137.1585813835384
 20
281.4536961227608
 30
0.0
 10
137.3151597437213
 20
278.5000437967894
 30
0.0
 10
139.1990521961297
 20
277.342935545144
 30
0.0
 10
140.0323286308898
 20
277.7597692577527
 30
0.0
 10
140.382602976408
 20
277.9349886084788
 30
0.0
 11
136.662620049713
 21
277.5808109312882
 31
0.0
 11
139.2311795342119
 21
279.5287964978304
 31
0.0
 11
139.8068912553098
 21
284.7086671330266
 31
0.0
 11
137.5483308918023
 21
281.1668753455315
 31
0.0
 11
137.9469008794954
 21
278.2891679540683
 31
0.0
 11
139.3197504009144
 21
277.5808109312882
 31
0.0
 11
140.382602976408
 21
277.9349886084788
 31
0.0
  0
MTEXT
  5
5533
330
1A
100
AcDbEntity
  8
寸法線
 48
10.0
100
AcDbMText
 10
19.074684624251
 20
494.824497256692
 30
0.0
 40
8.0
 41
0.0
 71
     9
 72
     1
  1
\A1;検知電極\PSUS304
  0
MTEXT
  5
5535
330
1A
100
AcDbEntity
  8
寸法線
 48
10.0
100
AcDbMText
 10
92.762534441775
 20
495.184149902788
 30
0.0
 40
8.0
 41
0.0
 71
     9
 72
     1
  1
絶縁体\Pテフロン
  0
MTEXT
  5
5537
330
1A
100
AcDbEntity
  8
寸法線
 48
10.0
100
AcDbMText
 10
163.218461033556
 20
495.184149902788
 30
0.0
 40
8.0
 41
0.0
 71
     9
 72
     1
  1
\A1;シール\Pシリコンゴム
  0
MTEXT
  5
5539
330
1A
100
AcDbEntity
  8
寸法線
 48
10.0
100
AcDbMText
 10
229.018198605159
 20
495.184149902788
 30
0.0
 40
8.0
 41
0.0
 71
     9
 72
     1
  1
\A1;接地電極\PSUS304
  0
LINE
  5
5560
330
1A
100
AcDbEntity
  8
外形線
 48
10.0
100
AcDbLine
 10
307.95381907805
 20
411.768607027487
 30
0.0
 11
307.95381907805
 21
373.767227485898
 31
0.0
  0
LINE
  5
5561
330
1A
100
AcDbEntity
  8
外形線
 48
10.0
100
AcDbLine
 10
287.95381907805
 20
411.768607027487
 30
0.0
 11
287.95381907805
 21
373.767227485899
 31
0.0
  0
ARC
  5
5562
330
1A
100
AcDbEntity
  8
細線
 48
10.0
100
AcDbCircle
 10
309.244344981054
 20
370.38948667087
 30
0.0
 40
21.5568
100
AcDbArc
 50
148.046790151158
 51
170.985160447971
  0
ARC
  5
5563
330
1A
100
AcDbEntity
  8
細線
 48
10.0
100
AcDbCircle
 10
286.663293175046
 20
370.38948667087
 30
0.0
 40
21.5568
100
AcDbArc
 50
9.014839552023
 51
31.953209848834
  0
ARC
  5
5564
330
1A
100
AcDbEntity
  8
外形線
 48
10.0
100
AcDbCircle
 10
291.439159100714
 20
387.622249393965
 30
0.0
 40
21.5568
100
AcDbArc
 50
308.824173789178
 51
320.004933775735
  0
ARC
  5
5565
330
1A
100
AcDbEntity
  8
外形線
 48
10.0
100
AcDbCircle
 10
304.468479055385
 20
387.622249393965
 30
0.0
 40
21.5568
100
AcDbArc
 50
219.995066224258
 51
231.175826210815
  0
ARC
  5
5566
330
1A
100
AcDbEntity
  8
細線
 48
10.0
100
AcDbCircle
 10
286.663293175046
 20
415.146347842516
 30
0.0
 40
21.5568
100
AcDbArc
 50
328.046790151166
 51
350.985160447971
  0
ARC
  5
5567
330
1A
100
AcDbEntity
  8
外形線
 48
10.0
100
AcDbCircle
 10
291.439159100714
 20
397.913585119421
 30
0.0
 40
21.5568
100
AcDbArc
 50
39.995066224265
 51
51.175826210822
  0
ARC
  5
5568
330
1A
100
AcDbEntity
  8
外形線
 48
10.0
100
AcDbCircle
 10
304.468479055386
 20
397.913585119421
 30
0.0
 40
21.5568
100
AcDbArc
 50
128.824173789178
 51
140.004933775735
  0
ARC
  5
5569
330
1A
100
AcDbEntity
  8
細線
 48
10.0
100
AcDbCircle
 10
309.244344981054
 20
415.146347842516
 30
0.0
 40
21.5568
100
AcDbArc
 50
189.014839552029
 51
211.953209848834
  0
LINE
  5
556A
330
1A
100
AcDbEntity
  8
外形線
 48
10.0
100
AcDbLine
 10
290.95381907805
 20
370.829296798281
 30
0.0
 11
304.95381907805
 21
370.829296798281
 31
0.0
  0
LINE
  5
556B
330
1A
100
AcDbEntity
  8
外形線
 48
10.0
100
AcDbLine
 10
290.95381907805
 20
414.707917256693
 30
0.0
 11
304.95381907805
 21
414.707917256693
 31
0.0
  0
ARC
  5
556C
330
1A
100
AcDbEntity
  8
細線
 48
10.0
100
AcDbCircle
 10
286.397002490681
 20
392.767917256693
 30
0.0
 40
21.55681659840436
100
AcDbArc
 50
329.410227986312
 51
30.589772013688
  0
ARC
  5
556D
330
1A
100
AcDbEntity
  8
細線
 48
10.0
100
AcDbCircle
 10
309.51063566542
 20
392.767917256693
 30
0.0
 40
21.5568165984052
100
AcDbArc
 50
149.410227986312
 51
210.589772013688
  0
LINE
  5
556E
330
1A
100
AcDbEntity
  8
細線
100
AcDbLine
 10
290.95381907805
 20
381.797917256693
 30
0.0
 11
304.95381907805
 21
381.797917256693
 31
0.0
  0
LINE
  5
556F
330
1A
100
AcDbEntity
  8
細線
100
AcDbLine
 10
290.95381907805
 20
403.737917256693
 30
0.0
 11
304.95381907805
 21
403.737917256693
 31
0.0
  0
LINE
  5
5573
330
1A
100
AcDbEntity
  8
外形線
100
AcDbLine
 10
262.95381907805
 20
377.018417256693
 30
0.0
 11
287.95381907805
 21
375.455917256693
 31
0.0
  0
LINE
  5
5574
330
1A
100
AcDbEntity
  8
細線
100
AcDbLine
 10
262.95381907805
 20
378.497417256693
 30
0.0
 11
287.95381907805
 21
376.934917256693
 31
0.0
  0
LINE
  5
5575
330
1A
100
AcDbEntity
  8
細線
100
AcDbLine
 10
262.95381907805
 20
407.038417256693
 30
0.0
 11
287.95381907805
 21
408.600917256693
 31
0.0
  0
LINE
  5
5576
330
1A
100
AcDbEntity
  8
外形線
100
AcDbLine
 10
262.95381907805
 20
408.517417256693
 30
0.0
 11
287.95381907805
 21
410.079917256693
 31
0.0
  0
MTEXT
  5
5AB3
330
1A
100
AcDbEntity
  8
寸法線
 48
10.0
100
AcDbMText
 10
429.792690386915
 20
495.184149902788
 30
0.0
 40
8.0
 41
0.0
 71
     7
 72
     1
  1
アルミ\Pダイカスト
  0
MTEXT
  5
5AB5
330
1A
100
AcDbEntity
  8
寸法線
 48
10.0
100
AcDbMText
 10
482.520508723302
 20
495.184149902788
 30
0.0
 40
8.0
 41
0.0
 71
     7
 72
     1
  1
\A1;Ｏリング
  0
MTEXT
  5
5AB8
330
1A
100
AcDbEntity
  8
寸法線
 48
10.0
100
AcDbMText
 10
531.34287606952
 20
495.184149902788
 30
0.0
 40
8.0
 41
0.0
 71
     7
 72
     1
  1
アルミ\Pダイカスト
  0
DIMENSION
  5
5AB9
330
1A
100
AcDbEntity
  8
寸法線
 48
10.0
100
AcDbDimension
  2
*D16
 10
531.988429789711
 20
450.767917256693
 30
0.0
 11
531.988429789711
 21
392.767917256693
 31
0.0
 70
   160
  1
φ<>
  3
ISO-25
100
AcDbAlignedDimension
 13
493.579916620413
 23
334.767917256693
 33
0.0
 14
493.252423391654
 24
450.767917256693
 34
0.0
 50
90.0
100
AcDbRotatedDimension
1001
ACAD
1000
DSTYLE
1002
{
1070
     5
1000
OPEN30
1070
    41
1040
6.0
1070
    47
1040
0.1
1070
    48
1040
0.1
1070
    73
1070
     0
1070
   140
1040
8.0
1070
   271
1070
     1
1070
   272
1070
     1
1070
   341
1005
2AF4
1002
}
  0
DIMENSION
  5
5ABA
330
1A
100
AcDbEntity
  8
寸法線
 48
10.0
100
AcDbDimension
  2
*D17
 10
505.95381907805
 20
296.267917109163
 30
0.0
 11
491.20381907805
 21
300.892917109163
 31
0.0
 70
    32
  1
30
  3
ISO-25
100
AcDbAlignedDimension
 13
476.45381907805
 23
329.267917256692
 33
0.0
 14
505.95381907805
 24
348.541471726899
 34
0.0
100
AcDbRotatedDimension
1001
ACAD
1000
DSTYLE
1002
{
1070
     5
1000
OPEN30
1070
    41
1040
6.0
1070
    47
1040
0.1
1070
    48
1040
0.1
1070
    73
1070
     0
1070
   140
1040
8.0
1070
   271
1070
     1
1070
   272
1070
     1
1070
   341
1005
2AF4
1002
}
  0
DIMENSION
  5
5ABB
330
1A
100
AcDbEntity
  8
寸法線
 48
10.0
100
AcDbDimension
  2
*D18
 10
476.45381907805
 20
296.267917109163
 30
0.0
 11
432.20381907805
 21
300.90958377583
 31
0.0
 70
    32
  1
88
  3
ISO-25
100
AcDbAlignedDimension
 13
387.95381907805
 23
332.767917256693
 33
0.0
 14
476.45381907805
 24
329.267917256692
 34
0.0
100
AcDbRotatedDimension
1001
ACAD
1000
DSTYLE
1002
{
1070
     5
1000
OPEN30
1070
    41
1040
6.0
1070
    47
1040
0.1
1070
    48
1040
0.1
1070
    73
1070
     0
1070
   140
1040
8.0
1070
   271
1070
     1
1070
   272
1070
     1
1070
   341
1005
2AF4
1002
}
  0
MTEXT
  5
5ABE
330
1A
100
AcDbEntity
  8
寸法線
 48
10.0
100
AcDbMText
 10
514.62391984513
 20
296.883569286024
 30
0.0
 40
8.0
 41
0.0
 71
     7
 72
     1
  1
導線取出口\PG 1/2"
  0
DIMENSION
  5
5B56
330
1A
100
AcDbEntity
  8
寸法線
 48
10.0
100
AcDbDimension
  2
*D19
 10
505.95381907805
 20
276.267917109163
 30
0.0
 11
384.45381907805
 21
280.893704510738
 31
0.0
 70
    32
  3
ISO-25
100
AcDbAlignedDimension
 13
262.95381907805
 23
377.018417256693
 33
0.0
 14
505.95381907805
 24
348.541471726899
 34
0.0
100
AcDbRotatedDimension
1001
ACAD
1000
DSTYLE
1002
{
1070
     5
1000
OPEN30
1070
    41
1040
6.0
1070
    47
1040
0.1
1070
    48
1040
0.1
1070
    73
1070
     0
1070
   140
1040
8.0
1070
   271
1070
     1
1070
   272
1070
     1
1070
   341
1005
2AF4
1002
}
  0
TEXT
  5
5BB6
330
1A
100
AcDbEntity
  8
寸法線
100
AcDbText
 10
-42.570963598682
 20
122.83330620708
 30
0.0
 40
7.0
  1
0
100
AcDbText
  0
CIRCLE
  5
5BB7
330
1A
100
AcDbEntity
  8
寸法線
100
AcDbCircle
 10
-40.170963598682
 20
134.83330620708
 30
0.0
 40
3.0
  0
CIRCLE
  5
5BB8
330
1A
100
AcDbEntity
  8
寸法線
100
AcDbCircle
 10
-40.170963598682
 20
134.83330620708
 30
0.0
 40
2.0
  0
TEXT
  5
5BB9
330
1A
100
AcDbEntity
  8
寸法線
100
AcDbText
 10
-7.570963598682
 20
122.83330620708
 30
0.0
 40
7.0
  1
200
100
AcDbText
  0
CIRCLE
  5
5BBA
330
1A
100
AcDbEntity
  8
寸法線
100
AcDbCircle
 10
-0.170963598682
 20
134.83330620708
 30
0.0
 40
3.0
  0
CIRCLE
  5
5BBB
330
1A
100
AcDbEntity
  8
寸法線
100
AcDbCircle
 10
-0.170963598682
 20
134.83330620708
 30
0.0
 40
2.0
  0
TEXT
  5
5BBC
330
1A
100
AcDbEntity
  8
寸法線
100
AcDbText
 10
-26.170963598682
 20
122.83330620708
 30
0.0
 40
7.0
  1
100
100
AcDbText
  0
CIRCLE
  5
5BBD
330
1A
100
AcDbEntity
  8
寸法線
100
AcDbCircle
 10
-20.170963598682
 20
134.83330620708
 30
0.0
 40
3.0
  0
CIRCLE
  5
5BBE
330
1A
100
AcDbEntity
  8
寸法線
100
AcDbCircle
 10
-20.170963598682
 20
134.83330620708
 30
0.0
 40
2.0
  0
LINE
  5
5BBF
330
1A
100
AcDbEntity
  8
寸法線
100
AcDbLine
 10
-40.170963598682
 20
191.83330620708
 30
0.0
 11
-0.170963598682
 21
191.83330620708
 31
0.0
  0
CIRCLE
  5
5BC0
330
1A
100
AcDbEntity
  8
寸法線
100
AcDbCircle
 10
-40.170963598682
 20
144.83330620708
 30
0.0
 40
1.0
  0
LINE
  5
5BC1
330
1A
100
AcDbEntity
  8
寸法線
100
AcDbLine
 10
-40.170963598682
 20
137.83330620708
 30
0.0
 11
-40.170963598682
 21
143.83330620708
 31
0.0
  0
CIRCLE
  5
5BC2
330
1A
100
AcDbEntity
  8
寸法線
100
AcDbCircle
 10
-40.170963598682
 20
159.83330620708
 30
0.0
 40
1.0
  0
SPLINE
  5
5BC3
330
1A
100
AcDbEntity
  8
寸法線
100
AcDbSpline
210
0.0
220
0.0
230
1.0
 70
  1064
 71
     3
 72
    10
 73
     6
 74
     4
 42
0.000000001
 43
0.0000000001
 44
0.0000000001
 40
0.0
 40
0.0
 40
0.0
 40
0.0
 40
1.828427124746087
 40
13.53312703546571
 40
15.36155416021183
 40
15.36155416021183
 40
15.36155416021183
 40
15.36155416021183
 10
-39.4638568174953
 20
145.5404129882669
 30
0.0
 10
-38.95680510340728
 20
145.9544974757638
 30
0.0
 10
-35.20385527706041
 20
149.0193491709002
 30
0.0
 10
-45.13807192030345
 20
155.6472632432605
 30
0.0
 10
-41.38512209395665
 20
158.7121149383969
 30
0.0
 10
-40.87807037986863
 20
159.1261994258938
 30
0.0
 11
-39.4638568174953
 21
145.5404129882669
 31
0.0
 11
-38.17096359868196
 21
146.8333062070803
 31
0.0
 11
-42.17096359868196
 21
157.8333062070803
 31
0.0
 11
-40.87807037986863
 21
159.1261994258938
 31
0.0
  0
LINE
  5
5BC4
330
1A
100
AcDbEntity
  8
寸法線
100
AcDbLine
 10
-40.170963598682
 20
189.83330620708
 30
0.0
 11
-0.170963598682
 21
189.83330620708
 31
0.0
  0
SPLINE
  5
5BC5
330
1A
100
AcDbEntity
  8
寸法線
100
AcDbSpline
210
0.0
220
0.0
230
1.0
 70
     8
 71
     3
 72
    11
 73
     7
 74
     0
 42
0.0000000001
 43
0.0000000001
 40
0.4969820892200875
 40
0.4969820892200875
 40
0.4969820892200875
 40
0.4969820892200875
 40
0.7071067811865476
 40
5.806126294779332
 40
10.41589852342578
 40
11.12300530461232
 40
11.12300530461232
 40
11.12300530461232
 40
11.12300530461232
 10
-20.53033062360578
 20
175.1804974868313
 30
0.0
 10
-20.57879068115858
 20
175.2305918921187
 30
0.0
 10
-21.76817019606096
 20
176.5149519367637
 30
0.0
 10
-21.63664287660231
 20
180.1666017009838
 30
0.0
 10
-21.65724729213207
 20
183.9490504350206
 30
0.0
 10
-20.34542637380537
 20
185.1708196612489
 30
0.0
 10
-20.17096359868196
 20
185.3333062070803
 30
0.0
  0
SPLINE
  5
5BC6
330
1A
100
AcDbEntity
  8
寸法線
100
AcDbSpline
210
0.0
220
0.0
230
1.0
 70
     8
 71
     3
 72
    11
 73
     7
 74
     0
 42
0.0000000001
 43
0.0000000001
 40
0.4969820892200875
 40
0.4969820892200875
 40
0.4969820892200875
 40
0.4969820892200875
 40
0.7071067811865476
 40
5.806126294779332
 40
10.41589852342578
 40
11.12300530461232
 40
11.12300530461232
 40
11.12300530461232
 40
11.12300530461232
 10
-19.81159657375815
 20
175.1804974868313
 30
0.0
 10
-19.76313651620558
 20
175.2305918921187
 30
0.0
 10
-18.57375700130297
 20
176.5149519367637
 30
0.0
 10
-18.70528432076162
 20
180.1666017009838
 30
0.0
 10
-18.68467990523186
 20
183.9490504350206
 30
0.0
 10
-19.99650082355856
 20
185.1708196612489
 30
0.0
 10
-20.17096359868196
 20
185.3333062070803
 30
0.0
  0
ARC
  5
5BC7
330
1A
100
AcDbEntity
  8
寸法線
100
AcDbCircle
 10
-20.170963598682
 20
175.528140035144
 30
0.0
 40
0.5
100
AcDbArc
 50
224.049940080573
 51
315.950059919426
  0
ARC
  5
5BC8
330
1A
100
AcDbEntity
  8
寸法線
100
AcDbCircle
 10
-24.170963598682
 20
175.528140035144
 30
0.0
 40
0.5
100
AcDbArc
 50
224.049940080573
 51
315.950059919426
  0
SPLINE
  5
5BC9
330
1A
100
AcDbEntity
  8
寸法線
100
AcDbSpline
210
0.0
220
0.0
230
1.0
 70
     8
 71
     3
 72
    11
 73
     7
 74
     0
 42
0.0000000001
 43
0.0000000001
 40
0.4969820892200875
 40
0.4969820892200875
 40
0.4969820892200875
 40
0.4969820892200875
 40
0.7071067811865476
 40
5.806126294779332
 40
10.41589852342578
 40
11.12300530461232
 40
11.12300530461232
 40
11.12300530461232
 40
11.12300530461232
 10
-23.81159657375815
 20
175.1804974868313
 30
0.0
 10
-23.76313651620558
 20
175.2305918921187
 30
0.0
 10
-22.57375700130297
 20
176.5149519367637
 30
0.0
 10
-22.70528432076162
 20
180.1666017009838
 30
0.0
 10
-22.68467990523186
 20
183.9490504350206
 30
0.0
 10
-23.99650082355856
 20
185.1708196612489
 30
0.0
 10
-24.17096359868196
 20
185.3333062070803
 30
0.0
  0
SPLINE
  5
5BCA
330
1A
100
AcDbEntity
  8
寸法線
100
AcDbSpline
210
0.0
220
0.0
230
1.0
 70
     8
 71
     3
 72
    11
 73
     7
 74
     0
 42
0.0000000001
 43
0.0000000001
 40
0.4969820892200875
 40
0.4969820892200875
 40
0.4969820892200875
 40
0.4969820892200875
 40
0.7071067811865476
 40
5.806126294779332
 40
10.41589852342578
 40
11.12300530461232
 40
11.12300530461232
 40
11.12300530461232
 40
11.12300530461232
 10
-24.53033062360578
 20
175.1804974868313
 30
0.0
 10
-24.57879068115858
 20
175.2305918921187
 30
0.0
 10
-25.76817019606096
 20
176.5149519367637
 30
0.0
 10
-25.63664287660231
 20
180.1666017009838
 30
0.0
 10
-25.65724729213207
 20
183.9490504350206
 30
0.0
 10
-24.34542637380537
 20
185.1708196612489
 30
0.0
 10
-24.17096359868196
 20
185.3333062070803
 30
0.0
  0
SPLINE
  5
5BCB
330
1A
100
AcDbEntity
  8
寸法線
100
AcDbSpline
210
0.0
220
0.0
230
1.0
 70
  1064
 71
     3
 72
    11
 73
     7
 74
     5
 42
0.000000001
 43
0.0000000001
 44
0.0000000001
 40
0.0
 40
0.0
 40
0.0
 40
0.0
 40
0.7071067811865476
 40
2.288245611270737
 40
3.869384441354927
 40
4.576491222541475
 40
4.576491222541475
 40
4.576491222541475
 40
4.576491222541475
 10
-20.17096359868196
 20
185.3333062070803
 30
0.0
 10
-20.32883253126529
 20
185.5102198335803
 30
0.0
 10
-20.83970712864026
 20
186.0827243550803
 30
0.0
 10
-22.17096359868195
 20
186.5064540083303
 30
0.0
 10
-23.50222006872366
 20
186.0827243550802
 30
0.0
 10
-24.01309466609863
 20
185.5102198335803
 30
0.0
 10
-24.17096359868196
 20
185.3333062070803
 30
0.0
 11
-20.17096359868196
 21
185.3333062070803
 31
0.0
 11
-20.67096359868196
 21
185.8333062070803
 31
0.0
 11
-22.17096359868196
 21
186.3333062070803
 31
0.0
 11
-23.67096359868196
 21
185.8333062070803
 31
0.0
 11
-24.17096359868196
 21
185.3333062070803
 31
0.0
  0
SPLINE
  5
5BCC
330
1A
100
AcDbEntity
  8
寸法線
100
AcDbSpline
210
0.0
220
0.0
230
1.0
 70
  1064
 71
     3
 72
    11
 73
     7
 74
     5
 42
0.000000001
 43
0.0000000001
 44
0.0000000001
 40
0.0
 40
0.0
 40
0.0
 40
0.0
 40
0.7071067811865476
 40
2.288245611270737
 40
3.869384441354927
 40
4.576491222541475
 40
4.576491222541475
 40
4.576491222541475
 40
4.576491222541475
 10
-16.17096359868196
 20
185.3333062070803
 30
0.0
 10
-16.32883253126529
 20
185.5102198335803
 30
0.0
 10
-16.83970712864026
 20
186.0827243550803
 30
0.0
 10
-18.17096359868195
 20
186.5064540083303
 30
0.0
 10
-19.50222006872366
 20
186.0827243550802
 30
0.0
 10
-20.01309466609864
 20
185.5102198335803
 30
0.0
 10
-20.17096359868196
 20
185.3333062070803
 30
0.0
 11
-16.17096359868196
 21
185.3333062070803
 31
0.0
 11
-16.67096359868196
 21
185.8333062070803
 31
0.0
 11
-18.17096359868196
 21
186.3333062070803
 31
0.0
 11
-19.67096359868196
 21
185.8333062070803
 31
0.0
 11
-20.17096359868196
 21
185.3333062070803
 31
0.0
  0
SPLINE
  5
5BCD
330
1A
100
AcDbEntity
  8
寸法線
100
AcDbSpline
210
0.0
220
0.0
230
1.0
 70
  1064
 71
     3
 72
    11
 73
     7
 74
     5
 42
0.000000001
 43
0.0000000001
 44
0.0000000001
 40
0.0
 40
0.0
 40
0.0
 40
0.0
 40
0.7071067811865476
 40
2.288245611270737
 40
3.869384441354927
 40
4.576491222541475
 40
4.576491222541475
 40
4.576491222541475
 40
4.576491222541475
 10
-24.17096359868196
 20
185.3333062070803
 30
0.0
 10
-24.32883253126529
 20
185.5102198335803
 30
0.0
 10
-24.83970712864026
 20
186.0827243550803
 30
0.0
 10
-26.17096359868196
 20
186.5064540083303
 30
0.0
 10
-27.50222006872366
 20
186.0827243550802
 30
0.0
 10
-28.01309466609864
 20
185.5102198335803
 30
0.0
 10
-28.17096359868196
 20
185.3333062070803
 30
0.0
 11
-24.17096359868196
 21
185.3333062070803
 31
0.0
 11
-24.67096359868196
 21
185.8333062070803
 31
0.0
 11
-26.17096359868196
 21
186.3333062070803
 31
0.0
 11
-27.67096359868196
 21
185.8333062070803
 31
0.0
 11
-28.17096359868196
 21
185.3333062070803
 31
0.0
  0
SPLINE
  5
5BCE
330
1A
100
AcDbEntity
  8
寸法線
100
AcDbSpline
210
0.0
220
0.0
230
1.0
 70
     8
 71
     3
 72
    11
 73
     7
 74
     0
 42
0.0000000001
 43
0.0000000001
 40
0.4969820892200875
 40
0.4969820892200875
 40
0.4969820892200875
 40
0.4969820892200875
 40
0.7071067811865476
 40
5.806126294779332
 40
10.41589852342578
 40
11.12300530461232
 40
11.12300530461232
 40
11.12300530461232
 40
11.12300530461232
 10
-28.53033062360578
 20
175.1804974868313
 30
0.0
 10
-28.57879068115858
 20
175.2305918921187
 30
0.0
 10
-29.76817019606096
 20
176.5149519367637
 30
0.0
 10
-29.63664287660231
 20
180.1666017009838
 30
0.0
 10
-29.65724729213207
 20
183.9490504350206
 30
0.0
 10
-28.34542637380537
 20
185.1708196612489
 30
0.0
 10
-28.17096359868196
 20
185.3333062070803
 30
0.0
  0
ARC
  5
5BCF
330
1A
100
AcDbEntity
  8
寸法線
100
AcDbCircle
 10
-28.170963598682
 20
175.528140035144
 30
0.0
 40
0.5
100
AcDbArc
 50
224.049940080573
 51
315.950059919426
  0
SPLINE
  5
5BD0
330
1A
100
AcDbEntity
  8
寸法線
100
AcDbSpline
210
0.0
220
0.0
230
1.0
 70
     8
 71
     3
 72
    11
 73
     7
 74
     0
 42
0.0000000001
 43
0.0000000001
 40
0.4969820892200875
 40
0.4969820892200875
 40
0.4969820892200875
 40
0.4969820892200875
 40
0.7071067811865476
 40
5.806126294779332
 40
10.41589852342578
 40
11.12300530461232
 40
11.12300530461232
 40
11.12300530461232
 40
11.12300530461232
 10
-27.81159657375815
 20
175.1804974868313
 30
0.0
 10
-27.76313651620558
 20
175.2305918921187
 30
0.0
 10
-26.57375700130297
 20
176.5149519367637
 30
0.0
 10
-26.70528432076162
 20
180.1666017009838
 30
0.0
 10
-26.68467990523186
 20
183.9490504350206
 30
0.0
 10
-27.99650082355856
 20
185.1708196612489
 30
0.0
 10
-28.17096359868196
 20
185.3333062070803
 30
0.0
  0
SPLINE
  5
5BD1
330
1A
100
AcDbEntity
  8
寸法線
100
AcDbSpline
210
0.0
220
0.0
230
1.0
 70
  1064
 71
     3
 72
    11
 73
     7
 74
     5
 42
0.000000001
 43
0.0000000001
 44
0.0000000001
 40
0.0
 40
0.0
 40
0.0
 40
0.0
 40
0.7071067811865476
 40
2.288245611270737
 40
3.869384441354927
 40
4.576491222541472
 40
4.576491222541472
 40
4.576491222541472
 40
4.576491222541472
 10
-28.17096359868196
 20
185.3333062070803
 30
0.0
 10
-28.32883253126529
 20
185.5102198335803
 30
0.0
 10
-28.83970712864026
 20
186.0827243550803
 30
0.0
 10
-30.17096359868195
 20
186.5064540083303
 30
0.0
 10
-31.50222006872367
 20
186.0827243550803
 30
0.0
 10
-32.01309466609863
 20
185.5102198335803
 30
0.0
 10
-32.17096359868196
 20
185.3333062070803
 30
0.0
 11
-28.17096359868196
 21
185.3333062070803
 31
0.0
 11
-28.67096359868196
 21
185.8333062070803
 31
0.0
 11
-30.17096359868196
 21
186.3333062070803
 31
0.0
 11
-31.67096359868196
 21
185.8333062070803
 31
0.0
 11
-32.17096359868196
 21
185.3333062070803
 31
0.0
  0
SPLINE
  5
5BD2
330
1A
100
AcDbEntity
  8
寸法線
100
AcDbSpline
210
0.0
220
0.0
230
1.0
 70
  1064
 71
     3
 72
    11
 73
     7
 74
     5
 42
0.000000001
 43
0.0000000001
 44
0.0000000001
 40
0.0
 40
0.0
 40
0.0
 40
0.0
 40
0.7071067811865476
 40
2.288245611270737
 40
3.869384441354927
 40
4.576491222541475
 40
4.576491222541475
 40
4.576491222541475
 40
4.576491222541475
 10
-32.17096359868196
 20
185.3333062070803
 30
0.0
 10
-32.32883253126528
 20
185.5102198335803
 30
0.0
 10
-32.83970712864026
 20
186.0827243550803
 30
0.0
 10
-34.17096359868195
 20
186.5064540083303
 30
0.0
 10
-35.50222006872364
 20
186.0827243550802
 30
0.0
 10
-36.01309466609863
 20
185.5102198335803
 30
0.0
 10
-36.17096359868196
 20
185.3333062070803
 30
0.0
 11
-32.17096359868196
 21
185.3333062070803
 31
0.0
 11
-32.67096359868196
 21
185.8333062070803
 31
0.0
 11
-34.17096359868196
 21
186.3333062070803
 31
0.0
 11
-35.67096359868196
 21
185.8333062070803
 31
0.0
 11
-36.17096359868196
 21
185.3333062070803
 31
0.0
  0
SPLINE
  5
5BD3
330
1A
100
AcDbEntity
  8
寸法線
100
AcDbSpline
210
0.0
220
0.0
230
1.0
 70
     8
 71
     3
 72
    11
 73
     7
 74
     0
 42
0.0000000001
 43
0.0000000001
 40
0.4969820892200875
 40
0.4969820892200875
 40
0.4969820892200875
 40
0.4969820892200875
 40
0.7071067811865476
 40
5.806126294779332
 40
10.41589852342578
 40
11.12300530461232
 40
11.12300530461232
 40
11.12300530461232
 40
11.12300530461232
 10
-31.81159657375815
 20
175.1804974868313
 30
0.0
 10
-31.76313651620558
 20
175.2305918921187
 30
0.0
 10
-30.57375700130297
 20
176.5149519367637
 30
0.0
 10
-30.70528432076162
 20
180.1666017009838
 30
0.0
 10
-30.68467990523186
 20
183.9490504350206
 30
0.0
 10
-31.99650082355856
 20
185.1708196612489
 30
0.0
 10
-32.17096359868196
 20
185.3333062070803
 30
0.0
  0
SPLINE
  5
5BD4
330
1A
100
AcDbEntity
  8
寸法線
100
AcDbSpline
210
0.0
220
0.0
230
1.0
 70
     8
 71
     3
 72
    11
 73
     7
 74
     0
 42
0.0000000001
 43
0.0000000001
 40
0.4969820892200875
 40
0.4969820892200875
 40
0.4969820892200875
 40
0.4969820892200875
 40
0.7071067811865476
 40
5.806126294779332
 40
10.41589852342578
 40
11.12300530461232
 40
11.12300530461232
 40
11.12300530461232
 40
11.12300530461232
 10
-32.53033062360578
 20
175.1804974868313
 30
0.0
 10
-32.57879068115858
 20
175.2305918921187
 30
0.0
 10
-33.76817019606096
 20
176.5149519367637
 30
0.0
 10
-33.63664287660231
 20
180.1666017009838
 30
0.0
 10
-33.65724729213207
 20
183.9490504350206
 30
0.0
 10
-32.34542637380537
 20
185.1708196612489
 30
0.0
 10
-32.17096359868196
 20
185.3333062070803
 30
0.0
  0
ARC
  5
5BD5
330
1A
100
AcDbEntity
  8
寸法線
100
AcDbCircle
 10
-32.170963598682
 20
175.528140035144
 30
0.0
 40
0.5
100
AcDbArc
 50
224.049940080573
 51
315.950059919426
  0
SPLINE
  5
5BD6
330
1A
100
AcDbEntity
  8
寸法線
100
AcDbSpline
210
0.0
220
0.0
230
1.0
 70
     8
 71
     3
 72
    11
 73
     7
 74
     0
 42
0.0000000001
 43
0.0000000001
 40
0.4969820892200875
 40
0.4969820892200875
 40
0.4969820892200875
 40
0.4969820892200875
 40
0.7071067811865476
 40
5.806126294779332
 40
10.41589852342578
 40
11.12300530461232
 40
11.12300530461232
 40
11.12300530461232
 40
11.12300530461232
 10
-35.81159657375815
 20
175.1804974868313
 30
0.0
 10
-35.76313651620558
 20
175.2305918921187
 30
0.0
 10
-34.57375700130297
 20
176.5149519367637
 30
0.0
 10
-34.70528432076162
 20
180.1666017009838
 30
0.0
 10
-34.68467990523186
 20
183.9490504350206
 30
0.0
 10
-35.99650082355856
 20
185.1708196612489
 30
0.0
 10
-36.17096359868196
 20
185.3333062070803
 30
0.0
  0
SPLINE
  5
5BD7
330
1A
100
AcDbEntity
  8
寸法線
100
AcDbSpline
210
0.0
220
0.0
230
1.0
 70
     8
 71
     3
 72
    11
 73
     7
 74
     0
 42
0.0000000001
 43
0.0000000001
 40
0.4969820892200875
 40
0.4969820892200875
 40
0.4969820892200875
 40
0.4969820892200875
 40
0.7071067811865476
 40
5.806126294779332
 40
10.41589852342578
 40
11.12300530461232
 40
11.12300530461232
 40
11.12300530461232
 40
11.12300530461232
 10
-36.53033062360578
 20
175.1804974868313
 30
0.0
 10
-36.57879068115858
 20
175.2305918921187
 30
0.0
 10
-37.76817019606096
 20
176.5149519367637
 30
0.0
 10
-37.63664287660231
 20
180.1666017009838
 30
0.0
 10
-37.65724729213207
 20
183.9490504350206
 30
0.0
 10
-36.34542637380537
 20
185.1708196612489
 30
0.0
 10
-36.17096359868196
 20
185.3333062070803
 30
0.0
  0
ARC
  5
5BD8
330
1A
100
AcDbEntity
  8
寸法線
100
AcDbCircle
 10
-36.170963598682
 20
175.528140035144
 30
0.0
 40
0.5
100
AcDbArc
 50
224.049940080573
 51
315.950059919426
  0
SPLINE
  5
5BD9
330
1A
100
AcDbEntity
  8
寸法線
100
AcDbSpline
210
0.0
220
0.0
230
1.0
 70
  1064
 71
     3
 72
    11
 73
     7
 74
     5
 42
0.000000001
 43
0.0000000001
 44
0.0000000001
 40
0.0
 40
0.0
 40
0.0
 40
0.0
 40
0.7071067811865476
 40
2.288245611270737
 40
3.869384441354927
 40
4.576491222541475
 40
4.576491222541475
 40
4.576491222541475
 40
4.576491222541475
 10
-36.17096359868196
 20
185.3333062070803
 30
0.0
 10
-36.32883253126528
 20
185.5102198335803
 30
0.0
 10
-36.83970712864026
 20
186.0827243550803
 30
0.0
 10
-38.17096359868195
 20
186.5064540083303
 30
0.0
 10
-39.50222006872364
 20
186.0827243550802
 30
0.0
 10
-40.01309466609864
 20
185.5102198335803
 30
0.0
 10
-40.17096359868196
 20
185.3333062070803
 30
0.0
 11
-36.17096359868196
 21
185.3333062070803
 31
0.0
 11
-36.67096359868196
 21
185.8333062070803
 31
0.0
 11
-38.17096359868196
 21
186.3333062070803
 31
0.0
 11
-39.67096359868196
 21
185.8333062070803
 31
0.0
 11
-40.17096359868196
 21
185.3333062070803
 31
0.0
  0
SPLINE
  5
5BDA
330
1A
100
AcDbEntity
  8
寸法線
100
AcDbSpline
210
0.0
220
0.0
230
1.0
 70
     8
 71
     3
 72
    11
 73
     7
 74
     0
 42
0.0000000001
 43
0.0000000001
 40
0.4969820892200875
 40
0.4969820892200875
 40
0.4969820892200875
 40
0.4969820892200875
 40
0.7071067811865476
 40
5.806126294779332
 40
10.41589852342578
 40
11.12300530461232
 40
11.12300530461232
 40
11.12300530461232
 40
11.12300530461232
 10
-16.53033062360578
 20
175.1804974868313
 30
0.0
 10
-16.57879068115858
 20
175.2305918921187
 30
0.0
 10
-17.76817019606096
 20
176.5149519367637
 30
0.0
 10
-17.63664287660231
 20
180.1666017009838
 30
0.0
 10
-17.65724729213207
 20
183.9490504350206
 30
0.0
 10
-16.34542637380537
 20
185.1708196612489
 30
0.0
 10
-16.17096359868196
 20
185.3333062070803
 30
0.0
  0
SPLINE
  5
5BDB
330
1A
100
AcDbEntity
  8
寸法線
100
AcDbSpline
210
0.0
220
0.0
230
1.0
 70
     8
 71
     3
 72
    11
 73
     7
 74
     0
 42
0.0000000001
 43
0.0000000001
 40
0.4969820892200875
 40
0.4969820892200875
 40
0.4969820892200875
 40
0.4969820892200875
 40
0.7071067811865476
 40
5.806126294779332
 40
10.41589852342578
 40
11.12300530461232
 40
11.12300530461232
 40
11.12300530461232
 40
11.12300530461232
 10
-15.81159657375815
 20
175.1804974868313
 30
0.0
 10
-15.76313651620558
 20
175.2305918921187
 30
0.0
 10
-14.57375700130297
 20
176.5149519367637
 30
0.0
 10
-14.70528432076162
 20
180.1666017009838
 30
0.0
 10
-14.68467990523186
 20
183.9490504350206
 30
0.0
 10
-15.99650082355856
 20
185.1708196612489
 30
0.0
 10
-16.17096359868196
 20
185.3333062070803
 30
0.0
  0
ARC
  5
5BDC
330
1A
100
AcDbEntity
  8
寸法線
100
AcDbCircle
 10
-16.170963598682
 20
175.528140035144
 30
0.0
 40
0.5
100
AcDbArc
 50
224.049940080573
 51
315.950059919426
  0
SPLINE
  5
5BDD
330
1A
100
AcDbEntity
  8
寸法線
100
AcDbSpline
210
0.0
220
0.0
230
1.0
 70
     8
 71
     3
 72
    11
 73
     7
 74
     0
 42
0.0000000001
 43
0.0000000001
 40
0.4969820892200875
 40
0.4969820892200875
 40
0.4969820892200875
 40
0.4969820892200875
 40
0.7071067811865476
 40
5.806126294779332
 40
10.41589852342578
 40
11.12300530461232
 40
11.12300530461232
 40
11.12300530461232
 40
11.12300530461232
 10
-12.53033062360578
 20
175.1804974868313
 30
0.0
 10
-12.57879068115858
 20
175.2305918921187
 30
0.0
 10
-13.76817019606096
 20
176.5149519367637
 30
0.0
 10
-13.63664287660231
 20
180.1666017009838
 30
0.0
 10
-13.65724729213207
 20
183.9490504350206
 30
0.0
 10
-12.34542637380537
 20
185.1708196612489
 30
0.0
 10
-12.17096359868196
 20
185.3333062070803
 30
0.0
  0
SPLINE
  5
5BDE
330
1A
100
AcDbEntity
  8
寸法線
100
AcDbSpline
210
0.0
220
0.0
230
1.0
 70
     8
 71
     3
 72
    11
 73
     7
 74
     0
 42
0.0000000001
 43
0.0000000001
 40
0.4969820892200875
 40
0.4969820892200875
 40
0.4969820892200875
 40
0.4969820892200875
 40
0.7071067811865476
 40
5.806126294779332
 40
10.41589852342578
 40
11.12300530461232
 40
11.12300530461232
 40
11.12300530461232
 40
11.12300530461232
 10
-11.81159657375815
 20
175.1804974868313
 30
0.0
 10
-11.76313651620535
 20
175.2305918921187
 30
0.0
 10
-10.57375700130297
 20
176.5149519367637
 30
0.0
 10
-10.70528432076162
 20
180.1666017009838
 30
0.0
 10
-10.68467990523186
 20
183.9490504350206
 30
0.0
 10
-11.99650082355856
 20
185.1708196612489
 30
0.0
 10
-12.17096359868196
 20
185.3333062070803
 30
0.0
  0
ARC
  5
5BDF
330
1A
100
AcDbEntity
  8
寸法線
100
AcDbCircle
 10
-12.170963598682
 20
175.528140035144
 30
0.0
 40
0.5
100
AcDbArc
 50
224.049940080573
 51
315.950059919426
  0
SPLINE
  5
5BE0
330
1A
100
AcDbEntity
  8
寸法線
100
AcDbSpline
210
0.0
220
0.0
230
1.0
 70
     8
 71
     3
 72
    11
 73
     7
 74
     0
 42
0.0000000001
 43
0.0000000001
 40
0.4969820892200875
 40
0.4969820892200875
 40
0.4969820892200875
 40
0.4969820892200875
 40
0.7071067811865476
 40
5.806126294779332
 40
10.41589852342578
 40
11.12300530461232
 40
11.12300530461232
 40
11.12300530461232
 40
11.12300530461232
 10
-8.530330623605778
 20
175.1804974868313
 30
0.0
 10
-8.57879068115858
 20
175.2305918921187
 30
0.0
 10
-9.768170196060964
 20
176.5149519367637
 30
0.0
 10
-9.63664287660231
 20
180.1666017009838
 30
0.0
 10
-9.65724729213207
 20
183.9490504350206
 30
0.0
 10
-8.345426373805367
 20
185.1708196612489
 30
0.0
 10
-8.170963598681965
 20
185.3333062070803
 30
0.0
  0
SPLINE
  5
5BE1
330
1A
100
AcDbEntity
  8
寸法線
100
AcDbSpline
210
0.0
220
0.0
230
1.0
 70
     8
 71
     3
 72
    11
 73
     7
 74
     0
 42
0.0000000001
 43
0.0000000001
 40
0.4969820892200875
 40
0.4969820892200875
 40
0.4969820892200875
 40
0.4969820892200875
 40
0.7071067811865476
 40
5.806126294779332
 40
10.41589852342578
 40
11.12300530461232
 40
11.12300530461232
 40
11.12300530461232
 40
11.12300530461232
 10
-7.811596573758152
 20
175.1804974868313
 30
0.0
 10
-7.76313651620535
 20
175.2305918921187
 30
0.0
 10
-6.573757001302965
 20
176.5149519367637
 30
0.0
 10
-6.705284320761621
 20
180.1666017009838
 30
0.0
 10
-6.68467990523186
 20
183.9490504350206
 30
0.0
 10
-7.996500823558563
 20
185.1708196612489
 30
0.0
 10
-8.170963598681965
 20
185.3333062070803
 30
0.0
  0
ARC
  5
5BE2
330
1A
100
AcDbEntity
  8
寸法線
100
AcDbCircle
 10
-8.170963598682
 20
175.528140035144
 30
0.0
 40
0.5
100
AcDbArc
 50
224.049940080573
 51
315.950059919426
  0
SPLINE
  5
5BE3
330
1A
100
AcDbEntity
  8
寸法線
100
AcDbSpline
210
0.0
220
0.0
230
1.0
 70
     8
 71
     3
 72
    11
 73
     7
 74
     0
 42
0.0000000001
 43
0.0000000001
 40
0.4969820892200875
 40
0.4969820892200875
 40
0.4969820892200875
 40
0.4969820892200875
 40
0.7071067811865476
 40
5.806126294779332
 40
10.41589852342578
 40
11.12300530461232
 40
11.12300530461232
 40
11.12300530461232
 40
11.12300530461232
 10
-4.530330623605778
 20
175.1804974868313
 30
0.0
 10
-4.57879068115858
 20
175.2305918921187
 30
0.0
 10
-5.768170196060964
 20
176.5149519367637
 30
0.0
 10
-5.636642876602309
 20
180.1666017009838
 30
0.0
 10
-5.65724729213207
 20
183.9490504350206
 30
0.0
 10
-4.345426373805367
 20
185.1708196612489
 30
0.0
 10
-4.170963598681965
 20
185.3333062070803
 30
0.0
  0
SPLINE
  5
5BE4
330
1A
100
AcDbEntity
  8
寸法線
100
AcDbSpline
210
0.0
220
0.0
230
1.0
 70
     8
 71
     3
 72
    11
 73
     7
 74
     0
 42
0.0000000001
 43
0.0000000001
 40
0.4969820892200875
 40
0.4969820892200875
 40
0.4969820892200875
 40
0.4969820892200875
 40
0.7071067811865476
 40
5.806126294779332
 40
10.41589852342578
 40
11.12300530461232
 40
11.12300530461232
 40
11.12300530461232
 40
11.12300530461232
 10
-3.811596573758152
 20
175.1804974868313
 30
0.0
 10
-3.76313651620535
 20
175.2305918921187
 30
0.0
 10
-2.573757001302965
 20
176.5149519367637
 30
0.0
 10
-2.705284320761621
 20
180.1666017009838
 30
0.0
 10
-2.68467990523186
 20
183.9490504350206
 30
0.0
 10
-3.996500823558563
 20
185.1708196612489
 30
0.0
 10
-4.170963598681965
 20
185.3333062070803
 30
0.0
  0
ARC
  5
5BE5
330
1A
100
AcDbEntity
  8
寸法線
100
AcDbCircle
 10
-4.170963598682
 20
175.528140035144
 30
0.0
 40
0.5
100
AcDbArc
 50
224.049940080573
 51
315.950059919426
  0
SPLINE
  5
5BE6
330
1A
100
AcDbEntity
  8
寸法線
100
AcDbSpline
210
0.0
220
0.0
230
1.0
 70
  1064
 71
     3
 72
    11
 73
     7
 74
     5
 42
0.000000001
 43
0.0000000001
 44
0.0000000001
 40
0.0
 40
0.0
 40
0.0
 40
0.0
 40
0.7071067811865476
 40
2.288245611270737
 40
3.869384441354927
 40
4.576491222541476
 40
4.576491222541476
 40
4.576491222541476
 40
4.576491222541476
 10
-12.17096359868196
 20
185.3333062070803
 30
0.0
 10
-12.32883253126529
 20
185.5102198335803
 30
0.0
 10
-12.83970712864026
 20
186.0827243550803
 30
0.0
 10
-14.17096359868195
 20
186.5064540083303
 30
0.0
 10
-15.50222006872366
 20
186.0827243550803
 30
0.0
 10
-16.01309466609863
 20
185.5102198335803
 30
0.0
 10
-16.17096359868196
 20
185.3333062070803
 30
0.0
 11
-12.17096359868196
 21
185.3333062070803
 31
0.0
 11
-12.67096359868196
 21
185.8333062070803
 31
0.0
 11
-14.17096359868196
 21
186.3333062070803
 31
0.0
 11
-15.67096359868196
 21
185.8333062070803
 31
0.0
 11
-16.17096359868196
 21
185.3333062070803
 31
0.0
  0
SPLINE
  5
5BE7
330
1A
100
AcDbEntity
  8
寸法線
100
AcDbSpline
210
0.0
220
0.0
230
1.0
 70
  1064
 71
     3
 72
    11
 73
     7
 74
     5
 42
0.000000001
 43
0.0000000001
 44
0.0000000001
 40
0.0
 40
0.0
 40
0.0
 40
0.0
 40
0.7071067811865476
 40
2.288245611270732
 40
3.869384441354922
 40
4.57649122254147
 40
4.57649122254147
 40
4.57649122254147
 40
4.57649122254147
 10
-8.170963598681965
 20
185.3333062070803
 30
0.0
 10
-8.328832531265292
 20
185.5102198335803
 30
0.0
 10
-8.839707128640262
 20
186.0827243550802
 30
0.0
 10
-10.17096359868196
 20
186.5064540083305
 30
0.0
 10
-11.50222006872366
 20
186.0827243550803
 30
0.0
 10
-12.01309466609863
 20
185.5102198335803
 30
0.0
 10
-12.17096359868196
 20
185.3333062070803
 30
0.0
 11
-8.170963598681965
 21
185.3333062070803
 31
0.0
 11
-8.670963598681965
 21
185.8333062070803
 31
0.0
 11
-10.17096359868196
 21
186.3333062070803
 31
0.0
 11
-11.67096359868196
 21
185.8333062070803
 31
0.0
 11
-12.17096359868196
 21
185.3333062070803
 31
0.0
  0
SPLINE
  5
5BE8
330
1A
100
AcDbEntity
  8
寸法線
100
AcDbSpline
210
0.0
220
0.0
230
1.0
 70
  1064
 71
     3
 72
    11
 73
     7
 74
     5
 42
0.000000001
 43
0.0000000001
 44
0.0000000001
 40
0.0
 40
0.0
 40
0.0
 40
0.0
 40
0.7071067811865476
 40
2.288245611270737
 40
3.869384441354927
 40
4.576491222541475
 40
4.576491222541475
 40
4.576491222541475
 40
4.576491222541475
 10
-4.170963598681965
 20
185.3333062070803
 30
0.0
 10
-4.328832531265292
 20
185.5102198335803
 30
0.0
 10
-4.839707128640266
 20
186.0827243550803
 30
0.0
 10
-6.170963598681965
 20
186.5064540083303
 30
0.0
 10
-7.502220068723659
 20
186.0827243550802
 30
0.0
 10
-8.01309466609864
 20
185.5102198335803
 30
0.0
 10
-8.170963598681965
 20
185.3333062070803
 30
0.0
 11
-4.170963598681965
 21
185.3333062070803
 31
0.0
 11
-4.670963598681965
 21
185.8333062070803
 31
0.0
 11
-6.170963598681965
 21
186.3333062070803
 31
0.0
 11
-7.670963598681965
 21
185.8333062070803
 31
0.0
 11
-8.170963598681965
 21
185.3333062070803
 31
0.0
  0
SPLINE
  5
5BE9
330
1A
100
AcDbEntity
  8
寸法線
100
AcDbSpline
210
0.0
220
0.0
230
1.0
 70
  1064
 71
     3
 72
    11
 73
     7
 74
     5
 42
0.000000001
 43
0.0000000001
 44
0.0000000001
 40
0.0
 40
0.0
 40
0.0
 40
0.0
 40
0.7071067811865476
 40
2.288245611270737
 40
3.869384441354927
 40
4.576491222541475
 40
4.576491222541475
 40
4.576491222541475
 40
4.576491222541475
 10
-0.1709635986819649
 20
185.3333062070803
 30
0.0
 10
-0.3288325312652913
 20
185.5102198335803
 30
0.0
 10
-0.8397071286402669
 20
186.0827243550803
 30
0.0
 10
-2.170963598681964
 20
186.5064540083303
 30
0.0
 10
-3.502220068723663
 20
186.0827243550802
 30
0.0
 10
-4.013094666098638
 20
185.5102198335803
 30
0.0
 10
-4.170963598681965
 20
185.3333062070803
 30
0.0
 11
-0.1709635986819649
 21
185.3333062070803
 31
0.0
 11
-0.6709635986819649
 21
185.8333062070803
 31
0.0
 11
-2.170963598681965
 21
186.3333062070803
 31
0.0
 11
-3.670963598681965
 21
185.8333062070803
 31
0.0
 11
-4.170963598681965
 21
185.3333062070803
 31
0.0
  0
TEXT
  5
5BEA
330
1A
100
AcDbEntity
  8
寸法線
100
AcDbText
 10
-27.770963598682
 20
110.83330620708
 30
0.0
 40
7.0
  1
電源
100
AcDbText
  0
LINE
  5
5BEB
330
1A
100
AcDbEntity
  8
寸法線
100
AcDbLine
 10
-40.170963598682
 20
185.33330620708
 30
0.0
 11
-40.170963598682
 21
160.83330620708
 31
0.0
  0
LINE
  5
5BEC
330
1A
100
AcDbEntity
  8
寸法線
100
AcDbLine
 10
-20.170963598682
 20
175.028140035144
 30
0.0
 11
-20.170963598682
 21
137.83330620708
 31
0.0
  0
LINE
  5
5BED
330
1A
100
AcDbEntity
  8
寸法線
100
AcDbLine
 10
-0.170963598682
 20
185.33330620708
 30
0.0
 11
-0.170963598682
 21
137.83330620708
 31
0.0
  0
LINE
  5
5BEE
330
1A
100
AcDbEntity
  8
寸法線
100
AcDbLine
 10
39.829036401318
 20
183.83330620708
 30
0.0
 11
39.829036401318
 21
137.83330620708
 31
0.0
  0
LINE
  5
5BEF
330
1A
100
AcDbEntity
  8
寸法線
100
AcDbLine
 10
44.829036401318
 20
224.83330620708
 30
0.0
 11
44.829036401318
 21
200.83330620708
 31
0.0
  0
LINE
  5
5BF0
330
1A
100
AcDbEntity
  8
寸法線
100
AcDbLine
 10
34.829036401318
 20
224.83330620708
 30
0.0
 11
34.829036401318
 21
200.83330620708
 31
0.0
  0
LINE
  5
5BF1
330
1A
100
AcDbEntity
  8
寸法線
100
AcDbLine
 10
59.829036401318
 20
224.83330620708
 30
0.0
 11
59.829036401318
 21
137.83330620708
 31
0.0
  0
TEXT
  5
5BF2
330
1A
100
AcDbEntity
  8
寸法線
100
AcDbText
 10
23.829036401318
 20
110.83330620708
 30
0.0
 40
7.0
  1
出力接点
100
AcDbText
  0
LINE
  5
5BF3
330
1A
100
AcDbEntity
  8
寸法線
100
AcDbLine
 10
39.829036401318
 20
185.83330620708
 30
0.0
 11
43.866803108835
 21
200.105532382967
 31
0.0
  0
LINE
  5
5BF4
330
1A
100
AcDbEntity
  8
寸法線
100
AcDbLine
 10
44.829036401318
 20
224.83330620708
 30
0.0
 11
59.829036401318
 21
224.83330620708
 31
0.0
  0
LINE
  5
5BF5
330
1A
100
AcDbEntity
  8
寸法線
100
AcDbLine
 10
19.829036401318
 20
224.83330620708
 30
0.0
 11
34.829036401318
 21
224.83330620708
 31
0.0
  0
CIRCLE
  5
5BF6
330
1A
100
AcDbEntity
  8
寸法線
100
AcDbCircle
 10
39.829036401318
 20
184.83330620708
 30
0.0
 40
1.0
  0
CIRCLE
  5
5BF7
330
1A
100
AcDbEntity
  8
寸法線
100
AcDbCircle
 10
44.829036401318
 20
199.83330620708
 30
0.0
 40
1.0
  0
CIRCLE
  5
5BF8
330
1A
100
AcDbEntity
  8
寸法線
100
AcDbCircle
 10
34.829036401318
 20
199.83330620708
 30
0.0
 40
1.0
  0
TEXT
  5
5BF9
330
1A
100
AcDbEntity
  8
寸法線
100
AcDbText
 10
57.829036401318
 20
122.83330620708
 30
0.0
 40
7.0
  1
b
100
AcDbText
  0
CIRCLE
  5
5BFA
330
1A
100
AcDbEntity
  8
寸法線
100
AcDbCircle
 10
59.829036401318
 20
134.83330620708
 30
0.0
 40
3.0
  0
CIRCLE
  5
5BFB
330
1A
100
AcDbEntity
  8
寸法線
100
AcDbCircle
 10
59.829036401318
 20
134.83330620708
 30
0.0
 40
2.0
  0
TEXT
  5
5BFC
330
1A
100
AcDbEntity
  8
寸法線
100
AcDbText
 10
37.429036401318
 20
122.83330620708
 30
0.0
 40
7.0
  1
c
100
AcDbText
  0
CIRCLE
  5
5BFD
330
1A
100
AcDbEntity
  8
寸法線
100
AcDbCircle
 10
39.829036401318
 20
134.83330620708
 30
0.0
 40
3.0
  0
CIRCLE
  5
5BFE
330
1A
100
AcDbEntity
  8
寸法線
100
AcDbCircle
 10
39.829036401318
 20
134.83330620708
 30
0.0
 40
2.0
  0
CIRCLE
  5
5BFF
330
1A
100
AcDbEntity
  8
寸法線
100
AcDbCircle
 10
19.829036401318
 20
134.83330620708
 30
0.0
 40
2.0
  0
CIRCLE
  5
5C00
330
1A
100
AcDbEntity
  8
寸法線
100
AcDbCircle
 10
19.829036401318
 20
134.83330620708
 30
0.0
 40
3.0
  0
TEXT
  5
5C01
330
1A
100
AcDbEntity
  8
寸法線
100
AcDbText
 10
17.229036401318
 20
122.83330620708
 30
0.0
 40
7.0
  1
a
100
AcDbText
  0
LINE
  5
5C02
330
1A
100
AcDbEntity
  8
寸法線
100
AcDbLine
 10
19.829036401318
 20
224.83330620708
 30
0.0
 11
19.829036401318
 21
137.83330620708
 31
0.0
  0
TEXT
  5
5C03
330
1A
100
AcDbEntity
  8
寸法線
100
AcDbText
 10
-70.061841430929
 20
236.841087971755
 30
0.0
 40
8.0
  1
接点出力：AC250V 3A（抵抗負荷）
100
AcDbText
  0
LEADER
  5
5CB8
330
1A
100
AcDbEntity
  8
寸法線
 48
10.0
100
AcDbLeader
  3
ISO-25
 76
     3
 10
37.591088220855
 20
403.517917256693
 30
0.0
 10
18.610718618725
 20
494.819334152571
 30
0.0
 10
8.769864669604
 20
494.819334152571
 30
0.0
1001
ACAD
1000
DSTYLE
1002
{
1070
     5
1000
OPEN30
1070
   147
1040
0.625
1070
    77
1070
     0
1070
    41
1040
6.0
1070
    47
1040
0.1
1070
    48
1040
0.1
1070
    73
1070
     0
1070
   140
1040
8.0
1070
   271
1070
     1
1070
   272
1070
     1
1070
   341
1005
2AF4
1070
   342
1005
2AF4
1002
}
  0
LEADER
  5
5CB9
330
1A
100
AcDbEntity
  8
寸法線
 48
10.0
100
AcDbLeader
  3
ISO-25
 76
     3
 10
119.784213249412
 20
403.512726232803
 30
0.0
 10
91.954397273737
 20
494.804486277559
 30
0.0
 10
81.740669537644
 20
494.804486277559
 30
0.0
1001
ACAD
1000
DSTYLE
1002
{
1070
     5
1000
OPEN30
1070
   147
1040
0.625
1070
    77
1070
     0
1070
    41
1040
6.0
1070
    47
1040
0.1
1070
    48
1040
0.1
1070
    73
1070
     0
1070
   140
1040
8.0
1070
   271
1070
     1
1070
   272
1070
     1
1070
   341
1005
2AF4
1070
   342
1005
2AF4
1002
}
  0
LEADER
  5
5CBA
330
1A
100
AcDbEntity
  8
寸法線
 48
10.0
100
AcDbLeader
  3
ISO-25
 76
     3
 10
163.26572261193
 20
403.505821671148
 30
0.0
 10
163.26572261193
 20
494.780127898701
 30
0.0
 10
155.426919244192
 20
494.780127898701
 30
0.0
1001
ACAD
1000
DSTYLE
1002
{
1070
     5
1000
OPEN30
1070
   147
1040
0.625
1070
    77
1070
     0
1070
    41
1040
6.0
1070
    47
1040
0.1
1070
    48
1040
0.1
1070
    73
1070
     0
1070
   140
1040
8.0
1070
   271
1070
     1
1070
   272
1070
     1
1070
   341
1005
2AF4
1070
   342
1005
2AF4
1002
}
  0
LEADER
  5
5CBB
330
1A
100
AcDbEntity
  8
寸法線
 48
10.0
100
AcDbLeader
  3
ISO-25
 76
     3
 10
229.25629601395
 20
403.82908259538
 30
0.0
 10
229.25629601395
 20
494.674777561566
 30
0.0
 10
218.540962487521
 20
494.674777561566
 30
0.0
1001
ACAD
1000
DSTYLE
1002
{
1070
     5
1000
OPEN30
1070
   147
1040
0.625
1070
    77
1070
     0
1070
    41
1040
6.0
1070
    47
1040
0.1
1070
    48
1040
0.1
1070
    73
1070
     0
1070
   140
1040
8.0
1070
   271
1070
     1
1070
   272
1070
     1
1070
   341
1005
2AF4
1070
   342
1005
2AF4
1002
}
  0
LEADER
  5
5CBC
330
1A
100
AcDbEntity
  8
寸法線
 48
10.0
100
AcDbLeader
  3
ISO-25
 76
     3
 10
276.165498238896
 20
409.352164439895
 30
0.0
 10
262.903363483868
 20
494.837811384204
 30
0.0
 10
274.171605684668
 20
494.837811384204
 30
0.0
1001
ACAD
1000
DSTYLE
1002
{
1070
     5
1000
OPEN30
1070
   147
1040
0.625
1070
    77
1070
     0
1070
    41
1040
6.0
1070
    47
1040
0.1
1070
    48
1040
0.1
1070
    73
1070
     0
1070
   140
1040
8.0
1070
   271
1070
     1
1070
   272
1070
     1
1070
   341
1005
2AF4
1070
   342
1005
2AF4
1002
}
  0
LEADER
  5
5CBD
330
1A
100
AcDbEntity
  8
寸法線
 48
10.0
100
AcDbLeader
  3
ISO-25
 76
     3
 10
325.812164132067
 20
410.098637905235
 30
0.0
 10
325.812164132067
 20
494.856747339743
 30
0.0
 10
337.095185148929
 20
494.856747339743
 30
0.0
1001
ACAD
1000
DSTYLE
1002
{
1070
     5
1000
OPEN30
1070
   147
1040
0.625
1070
    77
1070
     0
1070
    41
1040
6.0
1070
    47
1040
0.1
1070
    48
1040
0.1
1070
    73
1070
     0
1070
   140
1040
8.0
1070
   271
1070
     1
1070
   272
1070
     1
1070
   341
1005
2AF4
1070
   342
1005
2AF4
1002
}
  0
LEADER
  5
5CBE
330
1A
100
AcDbEntity
  8
寸法線
 48
10.0
100
AcDbLeader
  3
ISO-25
 76
     3
 10
363.664916577801
 20
452.724908556285
 30
0.0
 10
372.04977142853
 20
494.838020528842
 30
0.0
 10
382.428797253065
 20
494.838020528842
 30
0.0
1001
ACAD
1000
DSTYLE
1002
{
1070
     5
1000
OPEN30
1070
   147
1040
0.625
1070
    77
1070
     0
1070
    41
1040
6.0
1070
    47
1040
0.1
1070
    48
1040
0.1
1070
    73
1070
     0
1070
   140
1040
8.0
1070
   271
1070
     1
1070
   272
1070
     1
1070
   341
1005
2AF4
1070
   342
1005
2AF4
1002
}
  0
LEADER
  5
5CC0
330
1A
100
AcDbEntity
  8
寸法線
 48
10.0
100
AcDbLeader
  3
ISO-25
 76
     3
 10
426.307709987894
 20
445.117668323636
 30
0.0
 10
430.569457231507
 20
494.721374986949
 30
0.0
 10
440.246587333017
 20
494.721374986949
 30
0.0
1001
ACAD
1000
DSTYLE
1002
{
1070
     5
1000
OPEN30
1070
   147
1040
0.625
1070
    77
1070
     0
1070
    41
1040
6.0
1070
    47
1040
0.1
1070
    48
1040
0.1
1070
    73
1070
     0
1070
   140
1040
8.0
1070
   271
1070
     1
1070
   272
1070
     1
1070
   341
1005
2AF4
1070
   342
1005
2AF4
1002
}
  0
LEADER
  5
5CC1
330
1A
100
AcDbEntity
  8
寸法線
 48
10.0
100
AcDbLeader
  3
ISO-25
 76
     3
 10
477.552024981498
 20
449.453911512779
 30
0.0
 10
484.157113736928
 20
494.80735853059
 30
0.0
 10
493.510843790906
 20
494.80735853059
 30
0.0
1001
ACAD
1000
DSTYLE
1002
{
1070
     5
1000
OPEN30
1070
   147
1040
0.625
1070
    77
1070
     0
1070
    41
1040
6.0
1070
    47
1040
0.1
1070
    48
1040
0.1
1070
    73
1070
     0
1070
   140
1040
8.0
1070
   271
1070
     1
1070
   272
1070
     1
1070
   341
1005
2AF4
1070
   342
1005
2AF4
1002
}
  0
LEADER
  5
5CC2
330
1A
100
AcDbEntity
  8
寸法線
 48
10.0
100
AcDbLeader
  3
ISO-25
 76
     3
 10
501.674052815532
 20
439.187069545959
 30
0.0
 10
532.715731854979
 20
494.81795937515
 30
0.0
 10
543.793412483247
 20
494.81795937515
 30
0.0
1001
ACAD
1000
DSTYLE
1002
{
1070
     5
1000
OPEN30
1070
   147
1040
0.625
1070
    77
1070
     0
1070
    41
1040
6.0
1070
    47
1040
0.1
1070
    48
1040
0.1
1070
    73
1070
     0
1070
   140
1040
8.0
1070
   271
1070
     1
1070
   272
1070
     1
1070
   341
1005
2AF4
1070
   342
1005
2AF4
1002
}
  0
LINE
  5
5E94
330
1A
100
AcDbEntity
  8
寸法線
100
AcDbLine
 10
100.251731714655
 20
140.977187043362
 30
0.0
 11
654.194073832004
 21
140.977187043362
 31
0.0
  0
LINE
  5
5E95
330
1A
100
AcDbEntity
  8
寸法線
100
AcDbLine
 10
132.251701714655
 20
127.924560935785
 30
0.0
 11
132.251701714655
 21
246.4155697964
 31
0.0
  0
LINE
  5
5E96
330
1A
100
AcDbEntity
  8
寸法線
100
AcDbLine
 10
100.251731714655
 20
232.3455697964
 30
0.0
 11
654.194073832004
 21
232.3455697964
 31
0.0
  0
LINE
  5
5E97
330
1A
100
AcDbEntity
  8
寸法線
100
AcDbLine
 10
100.251731714655
 20
246.4155697964
 30
0.0
 11
654.194073832004
 21
246.4155697964
 31
0.0
  0
LINE
  5
5E98
330
1A
100
AcDbEntity
  8
寸法線
100
AcDbLine
 10
100.251731714655
 20
127.924560935785
 30
0.0
 11
100.251731714655
 21
246.4155697964
 31
0.0
  0
LINE
  5
5E99
330
1A
100
AcDbEntity
  8
寸法線
100
AcDbLine
 10
344.199334184703
 20
127.924560935785
 30
0.0
 11
344.199334184703
 21
246.4155697964
 31
0.0
  0
LINE
  5
5E9A
330
1A
100
AcDbEntity
  8
寸法線
100
AcDbLine
 10
100.251731714655
 20
206.240317581247
 30
0.0
 11
654.194073832004
 21
206.240317581247
 31
0.0
  0
LINE
  5
5E9B
330
1A
100
AcDbEntity
  8
寸法線
100
AcDbLine
 10
100.251731714655
 20
193.187691473671
 30
0.0
 11
654.194073832004
 21
193.187691473671
 31
0.0
  0
LINE
  5
5E9C
330
1A
100
AcDbEntity
  8
寸法線
100
AcDbLine
 10
100.251731714655
 20
180.135065366094
 30
0.0
 11
654.194073832004
 21
180.135065366094
 31
0.0
  0
LINE
  5
5E9D
330
1A
100
AcDbEntity
  8
寸法線
100
AcDbLine
 10
100.251731714655
 20
167.082439258516
 30
0.0
 11
654.194073832004
 21
167.082439258516
 31
0.0
  0
LINE
  5
5E9E
330
1A
100
AcDbEntity
  8
寸法線
100
AcDbLine
 10
100.251731714655
 20
154.029813150939
 30
0.0
 11
654.194073832004
 21
154.029813150939
 31
0.0
  0
LINE
  5
5E9F
330
1A
100
AcDbEntity
  8
寸法線
100
AcDbLine
 10
375.955652748991
 20
127.924560935785
 30
0.0
 11
375.955652748991
 21
246.4155697964
 31
0.0
  0
LINE
  5
5EA0
330
1A
100
AcDbEntity
  8
寸法線
100
AcDbLine
 10
100.251731714655
 20
219.292943688824
 30
0.0
 11
654.194073832004
 21
219.292943688824
 31
0.0
  0
MTEXT
  5
5EA1
102
{ACAD_XDICTIONARY
360
5EA2
102
}
330
1A
100
AcDbEntity
  8
寸法線
 48
10.0
100
AcDbMText
 10
167.896704921956
 20
243.558788765006
 30
0.0
 40
8.0
 41
71.290006414601
 71
     2
 72
     5
  1
型式\P\W0.9;TSA-B1SA-025\PTSA-B1SA-030\PTSA-B1SA-035\PTSA-B1SA-040\PTSA-B1SA-045\PTSA-B1SA-050\PTSA-B1SA-055\PTSA-B1SA-060
1001
ACADANNOTATIVE
1000
AnnotativeData
1002
{
1070
     1
1070
     0
1002
}
  0
LINE
  5
5EA5
330
1A
100
AcDbEntity
  8
寸法線
 48
10.0
100
AcDbLine
 10
203.541708129256
 20
246.4155697964
 30
0.0
 11
203.541708129256
 21
127.924560935785
 31
0.0
  0
MTEXT
  5
5EA6
330
1A
100
AcDbEntity
  8
寸法線
 48
10.0
100
AcDbMText
 10
102.778638875596
 20
243.698353552366
 30
0.0
 40
8.0
 41
41.842424242424
 71
     1
 72
     5
  1
御仕様\P \P\P　
  0
SPLINE
  5
5EA7
330
1A
100
AcDbEntity
  8
寸法線
 48
10.0
100
AcDbSpline
210
0.0
220
0.0
230
1.0
 70
  1064
 71
     3
 72
    13
 73
     9
 74
     7
 42
0.000000001
 43
0.0000000001
 44
0.0000000001
 40
0.0
 40
0.0
 40
0.0
 40
0.0
 40
3.546053604694693
 40
9.278996093298884
 40
13.8997010847157
 40
17.09539662994935
 40
18.79470455702445
 40
20.02704699455828
 40
20.02704699455828
 40
20.02704699455828
 40
20.02704699455828
 10
214.9680998649067
 20
235.5343454883872
 30
0.0
 10
216.0226281339851
 20
236.0214742225914
 30
0.0
 10
218.782023444901
 20
237.2961491501307
 30
0.0
 10
219.4469603512611
 20
246.194606022949
 30
0.0
 10
215.5136573321147
 20
239.7945191990071
 30
0.0
 10
215.6858935283159
 20
236.5455016404386
 30
0.0
 10
217.7581752259651
 20
235.2726825636286
 30
0.0
 10
218.6747793042012
 20
235.7311996474983
 30
0.0
 10
219.0600810842712
 20
235.9239409332969
 30
0.0
 11
214.9680998649067
 21
235.5343454883872
 31
0.0
 11
217.7935152978555
 21
237.6771296115837
 31
0.0
 11
218.4267981910632
 21
243.3749873102994
 31
0.0
 11
215.942381791205
 21
239.4790163440549
 31
0.0
 11
216.3808087776674
 21
236.3135382134453
 31
0.0
 11
217.8909432512282
 21
235.5343454883872
 31
0.0
 11
219.0600810842712
 21
235.9239409332969
 31
0.0
  0
SPLINE
  5
5EA8
330
1A
100
AcDbEntity
  8
寸法線
 48
10.0
100
AcDbSpline
210
0.0
220
0.0
230
1.0
 70
  1064
 71
     3
 72
    13
 73
     9
 74
     7
 42
0.000000001
 43
0.0000000001
 44
0.0000000001
 40
0.0
 40
0.0
 40
0.0
 40
0.0
 40
3.546053604694693
 40
9.278996093298884
 40
13.89970108471576
 40
17.09539662994943
 40
18.79470455702452
 40
20.02704699455835
 40
20.02704699455835
 40
20.02704699455835
 40
20.02704699455835
 10
239.2069929691266
 20
235.5343454883872
 30
0.0
 10
240.2615212382049
 20
236.0214742225914
 30
0.0
 10
243.0209165491209
 20
237.2961491501307
 30
0.0
 10
243.6858534554812
 20
246.1946060229491
 30
0.0
 10
239.7525504363343
 20
239.794519199007
 30
0.0
 10
239.9247866325358
 20
236.5455016404387
 30
0.0
 10
241.997068330185
 20
235.2726825636286
 30
0.0
 10
242.9136724084211
 20
235.7311996474982
 30
0.0
 10
243.2989741884911
 20
235.9239409332969
 30
0.0
 11
239.2069929691266
 21
235.5343454883872
 31
0.0
 11
242.0324084020754
 21
237.6771296115837
 31
0.0
 11
242.6656912952831
 21
243.3749873102994
 31
0.0
 11
240.1812748954248
 21
239.4790163440549
 31
0.0
 11
240.6197018818873
 21
236.3135382134453
 31
0.0
 11
242.1298363554481
 21
235.5343454883872
 31
0.0
 11
243.2989741884911
 21
235.9239409332969
 31
0.0
  0
LINE
  5
5EAD
330
1A
100
AcDbEntity
  8
寸法線
 48
10.0
100
AcDbLine
 10
229.392283246768
 20
246.4155697964
 30
0.0
 11
229.392283246768
 21
127.924560935785
 31
0.0
  0
LINE
  5
5EAE
330
1A
100
AcDbEntity
  8
寸法線
 48
10.0
100
AcDbLine
 10
255.24285836428
 20
246.4155697964
 30
0.0
 11
255.24285836428
 21
127.924560935785
 31
0.0
  0
LINE
  5
5EAF
330
1A
100
AcDbEntity
  8
寸法線
 48
10.0
100
AcDbLine
 10
279.803427067191
 20
246.4155697964
 30
0.0
 11
279.803427067191
 21
127.924560935785
 31
0.0
  0
LINE
  5
5EB0
330
1A
100
AcDbEntity
  8
寸法線
 48
10.0
100
AcDbLine
 10
305.654002184703
 20
246.4155697964
 30
0.0
 11
305.654002184703
 21
127.924560935785
 31
0.0
  0
TEXT
  5
5EB1
330
1A
100
AcDbEntity
  8
寸法線
 48
10.0
100
AcDbText
 10
245.665021766611
 20
235.618673227731
 30
0.0
 40
5.2
  1
1
100
AcDbText
  0
SPLINE
  5
5EB2
330
1A
100
AcDbEntity
  8
寸法線
 48
10.0
100
AcDbSpline
210
0.0
220
0.0
230
1.0
 70
  1064
 71
     3
 72
    13
 73
     9
 74
     7
 42
0.000000001
 43
0.0000000001
 44
0.0000000001
 40
0.0
 40
0.0
 40
0.0
 40
0.0
 40
3.54605360469467
 40
9.278996093298861
 40
13.89970108471569
 40
17.09539662994935
 40
18.7947045570244
 40
20.02704699455825
 40
20.02704699455825
 40
20.02704699455825
 40
20.02704699455825
 10
263.7675616720375
 20
235.5343454883872
 30
0.0
 10
264.8220899411158
 20
236.0214742225914
 30
0.0
 10
267.5814852520318
 20
237.2961491501306
 30
0.0
 10
268.2464221583919
 20
246.194606022949
 30
0.0
 10
264.3131191392455
 20
239.794519199007
 30
0.0
 10
264.4853553354467
 20
236.5455016404386
 30
0.0
 10
266.557637033096
 20
235.2726825636287
 30
0.0
 10
267.474241111332
 20
235.7311996474982
 30
0.0
 10
267.859542891402
 20
235.9239409332969
 30
0.0
 11
263.7675616720375
 21
235.5343454883872
 31
0.0
 11
266.5929771049863
 21
237.6771296115837
 31
0.0
 11
267.226259998194
 21
243.3749873102994
 31
0.0
 11
264.7418435983358
 21
239.4790163440549
 31
0.0
 11
265.1802705847982
 21
236.3135382134453
 31
0.0
 11
266.690405058359
 21
235.5343454883872
 31
0.0
 11
267.859542891402
 21
235.9239409332969
 31
0.0
  0
TEXT
  5
5EB3
330
1A
100
AcDbEntity
  8
寸法線
 48
10.0
100
AcDbText
 10
270.225590469522
 20
235.618673227731
 30
0.0
 40
5.2
  1
2
100
AcDbText
  0
TEXT
  5
5EB4
330
1A
100
AcDbEntity
  8
寸法線
 48
10.0
100
AcDbText
 10
296.076165587033
 20
235.618673227731
 30
0.0
 40
5.2
  1
3
100
AcDbText
  0
SPLINE
  5
5EB5
330
1A
100
AcDbEntity
  8
寸法線
 48
10.0
100
AcDbSpline
210
0.0
220
0.0
230
1.0
 70
  1064
 71
     3
 72
    13
 73
     9
 74
     7
 42
0.000000001
 43
0.0000000001
 44
0.0000000001
 40
0.0
 40
0.0
 40
0.0
 40
0.0
 40
3.546053604694715
 40
9.2789960932989
 40
13.89970108471576
 40
17.09539662994941
 40
18.79470455702461
 40
20.02704699455846
 40
20.02704699455846
 40
20.02704699455846
 40
20.02704699455846
 10
289.6181367895494
 20
235.5343454883872
 30
0.0
 10
290.6726650586277
 20
236.0214742225914
 30
0.0
 10
293.4320603695437
 20
237.2961491501306
 30
0.0
 10
294.0969972759038
 20
246.194606022949
 30
0.0
 10
290.1636942567573
 20
239.7945191990071
 30
0.0
 10
290.3359304529584
 20
236.5455016404385
 30
0.0
 10
292.4082121506078
 20
235.2726825636286
 30
0.0
 10
293.3248162288439
 20
235.7311996474983
 30
0.0
 10
293.7101180089139
 20
235.9239409332969
 30
0.0
 11
289.6181367895494
 21
235.5343454883872
 31
0.0
 11
292.4435522224982
 21
237.6771296115837
 31
0.0
 11
293.0768351157059
 21
243.3749873102994
 31
0.0
 11
290.5924187158476
 21
239.4790163440549
 31
0.0
 11
291.03084570231
 21
236.3135382134453
 31
0.0
 11
292.5409801758709
 21
235.5343454883872
 31
0.0
 11
293.7101180089139
 21
235.9239409332969
 31
0.0
  0
MTEXT
  5
5EB6
330
1A
100
AcDbEntity
  8
寸法線
 48
10.0
100
AcDbMText
 10
315.832724921431
 20
243.197752138374
 30
0.0
 40
8.0
 41
19.321844296148
 71
     1
 72
     5
  1
記事
  0
MTEXT
  5
5EB7
330
1A
100
AcDbEntity
  8
寸法線
 48
10.0
100
AcDbMText
 10
351.519356612413
 20
243.197752138374
 30
0.0
 40
8.0
 41
27.29696969697
 71
     1
 72
     5
  1
台数\P\P 
  0
LINE
  5
5EB8
330
1A
100
AcDbEntity
  8
寸法線
100
AcDbLine
 10
378.490152797668
 20
127.924560935785
 30
0.0
 11
378.490152797668
 21
246.4155697964
 31
0.0
  0
MTEXT
  5
5EB9
330
1A
100
AcDbEntity
  8
寸法線
 48
10.0
100
AcDbMText
 10
381.017059958608
 20
243.197752138374
 30
0.0
 40
8.0
 41
27.323158825411
 71
     1
 72
     5
  1
御仕様
  0
MTEXT
  5
5EBA
102
{ACAD_XDICTIONARY
360
5EBB
102
}
330
1A
100
AcDbEntity
  8
寸法線
 48
10.0
100
AcDbMText
 10
446.04298268964
 20
243.558788765006
 30
0.0
 40
8.0
 41
71.105719783944
 71
     2
 72
     5
  1
型式\P\W0.9;TSA-B1SA-065\PTSA-B1SA-070\PTSA-B1SA-075\PTSA-B1SA-080\PTSA-B1SA-085\PTSA-B1SA-090\PTSA-B1SA-095\PTSA-B1SA-100
1001
ACADANNOTATIVE
1000
AnnotativeData
1002
{
1070
     1
1070
     0
1002
}
  0
SPLINE
  5
5EBE
330
1A
100
AcDbEntity
  8
寸法線
 48
10.0
100
AcDbSpline
210
0.0
220
0.0
230
1.0
 70
  1064
 71
     3
 72
    13
 73
     9
 74
     7
 42
0.000000001
 43
0.0000000001
 44
0.0000000001
 40
0.0
 40
0.0
 40
0.0
 40
0.0
 40
3.546053604694715
 40
9.278996093298908
 40
13.8997010847158
 40
17.09539662994946
 40
18.7947045570245
 40
20.02704699455836
 40
20.02704699455836
 40
20.02704699455836
 40
20.02704699455836
 10
493.0222343172621
 20
235.5343454883872
 30
0.0
 10
494.0767625863405
 20
236.0214742225914
 30
0.0
 10
496.8361578972564
 20
237.2961491501306
 30
0.0
 10
497.5010948036165
 20
246.194606022949
 30
0.0
 10
493.5677917844698
 20
239.794519199007
 30
0.0
 10
493.7400279806712
 20
236.5455016404386
 30
0.0
 10
495.8123096783206
 20
235.2726825636287
 30
0.0
 10
496.7289137565565
 20
235.7311996474982
 30
0.0
 10
497.1142155366265
 20
235.9239409332969
 30
0.0
 11
493.0222343172621
 21
235.5343454883872
 31
0.0
 11
495.8476497502109
 21
237.6771296115837
 31
0.0
 11
496.4809326434186
 21
243.3749873102994
 31
0.0
 11
493.9965162435603
 21
239.4790163440549
 31
0.0
 11
494.4349432300227
 21
236.3135382134453
 31
0.0
 11
495.9450777035835
 21
235.5343454883872
 31
0.0
 11
497.1142155366265
 21
235.9239409332969
 31
0.0
  0
SPLINE
  5
5EBF
330
1A
100
AcDbEntity
  8
寸法線
 48
10.0
100
AcDbSpline
210
0.0
220
0.0
230
1.0
 70
  1064
 71
     3
 72
    13
 73
     9
 74
     7
 42
0.000000001
 43
0.0000000001
 44
0.0000000001
 40
0.0
 40
0.0
 40
0.0
 40
0.0
 40
3.546053604694715
 40
9.278996093298908
 40
13.89970108471574
 40
17.0953966299494
 40
18.79470455702449
 40
20.02704699455824
 40
20.02704699455824
 40
20.02704699455824
 40
20.02704699455824
 10
516.1554076375382
 20
235.5343454883872
 30
0.0
 10
517.2099359066166
 20
236.0214742225914
 30
0.0
 10
519.9693312175327
 20
237.2961491501306
 30
0.0
 10
520.6342681238926
 20
246.194606022949
 30
0.0
 10
516.7009651047463
 20
239.794519199007
 30
0.0
 10
516.8732013009474
 20
236.5455016404386
 30
0.0
 10
518.9454829985967
 20
235.2726825636286
 30
0.0
 10
519.8620870768327
 20
235.7311996474983
 30
0.0
 10
520.2473888569027
 20
235.9239409332969
 30
0.0
 11
516.1554076375382
 21
235.5343454883872
 31
0.0
 11
518.9808230704871
 21
237.6771296115837
 31
0.0
 11
519.6141059636948
 21
243.3749873102994
 31
0.0
 11
517.1296895638366
 21
239.4790163440549
 31
0.0
 11
517.568116550299
 21
236.3135382134453
 31
0.0
 11
519.0782510238598
 21
235.5343454883872
 31
0.0
 11
520.2473888569027
 21
235.9239409332969
 31
0.0
  0
TEXT
  5
5EC0
330
1A
100
AcDbEntity
  8
寸法線
 48
10.0
100
AcDbText
 10
522.613436435022
 20
235.618673227731
 30
0.0
 40
5.2
  1
1
100
AcDbText
  0
SPLINE
  5
5EC1
330
1A
100
AcDbEntity
  8
寸法線
 48
10.0
100
AcDbSpline
210
0.0
220
0.0
230
1.0
 70
  1064
 71
     3
 72
    13
 73
     9
 74
     7
 42
0.000000001
 43
0.0000000001
 44
0.0000000001
 40
0.0
 40
0.0
 40
0.0
 40
0.0
 40
3.546053604694715
 40
9.278996093298908
 40
13.89970108471574
 40
17.0953966299494
 40
18.79470455702449
 40
20.02704699455824
 40
20.02704699455824
 40
20.02704699455824
 40
20.02704699455824
 10
542.0059827550501
 20
235.5343454883872
 30
0.0
 10
543.0605110241286
 20
236.0214742225914
 30
0.0
 10
545.8199063350446
 20
237.2961491501306
 30
0.0
 10
546.4848432414045
 20
246.194606022949
 30
0.0
 10
542.5515402222582
 20
239.794519199007
 30
0.0
 10
542.7237764184592
 20
236.5455016404386
 30
0.0
 10
544.7960581161085
 20
235.2726825636286
 30
0.0
 10
545.7126621943446
 20
235.7311996474983
 30
0.0
 10
546.0979639744146
 20
235.9239409332969
 30
0.0
 11
542.0059827550501
 21
235.5343454883872
 31
0.0
 11
544.831398187999
 21
237.6771296115837
 31
0.0
 11
545.4646810812067
 21
243.3749873102994
 31
0.0
 11
542.9802646813484
 21
239.4790163440549
 31
0.0
 11
543.4186916678109
 21
236.3135382134453
 31
0.0
 11
544.9288261413717
 21
235.5343454883872
 31
0.0
 11
546.0979639744146
 21
235.9239409332969
 31
0.0
  0
TEXT
  5
5EC2
330
1A
100
AcDbEntity
  8
寸法線
 48
10.0
100
AcDbText
 10
548.464011552534
 20
235.618673227731
 30
0.0
 40
5.2
  1
2
100
AcDbText
  0
SPLINE
  5
5EC3
330
1A
100
AcDbEntity
  8
寸法線
 48
10.0
100
AcDbSpline
210
0.0
220
0.0
230
1.0
 70
  1064
 71
     3
 72
    13
 73
     9
 74
     7
 42
0.000000001
 43
0.0000000001
 44
0.0000000001
 40
0.0
 40
0.0
 40
0.0
 40
0.0
 40
3.546053604694715
 40
9.278996093298908
 40
13.89970108471574
 40
17.0953966299494
 40
18.79470455702449
 40
20.02704699455824
 40
20.02704699455824
 40
20.02704699455824
 40
20.02704699455824
 10
567.856557872562
 20
235.5343454883872
 30
0.0
 10
568.9110861416405
 20
236.0214742225914
 30
0.0
 10
571.6704814525565
 20
237.2961491501306
 30
0.0
 10
572.3354183589164
 20
246.194606022949
 30
0.0
 10
568.40211533977
 20
239.794519199007
 30
0.0
 10
568.5743515359712
 20
236.5455016404386
 30
0.0
 10
570.6466332336205
 20
235.2726825636286
 30
0.0
 10
571.5632373118564
 20
235.7311996474983
 30
0.0
 10
571.9485390919265
 20
235.9239409332969
 30
0.0
 11
567.856557872562
 21
235.5343454883872
 31
0.0
 11
570.6819733055108
 21
237.6771296115837
 31
0.0
 11
571.3152561987185
 21
243.3749873102994
 31
0.0
 11
568.8308397988603
 21
239.4790163440549
 31
0.0
 11
569.2692667853228
 21
236.3135382134453
 31
0.0
 11
570.7794012588836
 21
235.5343454883872
 31
0.0
 11
571.9485390919265
 21
235.9239409332969
 31
0.0
  0
TEXT
  5
5EC4
330
1A
100
AcDbEntity
  8
寸法線
 48
10.0
100
AcDbText
 10
574.314586670046
 20
235.618673227731
 30
0.0
 40
5.2
  1
3
100
AcDbText
  0
MTEXT
  5
5EC5
330
1A
100
AcDbEntity
  8
寸法線
 48
10.0
100
AcDbMText
 10
594.071146004444
 20
243.197752138374
 30
0.0
 40
8.0
 41
19.321844296148
 71
     1
 72
     5
  1
記事
  0
MTEXT
  5
5EC6
330
1A
100
AcDbEntity
  8
寸法線
 48
10.0
100
AcDbMText
 10
629.757777695426
 20
243.197752138374
 30
0.0
 40
8.0
 41
19.321844296148
 71
     1
 72
     5
  1
台数
  0
LINE
  5
5ECB
330
1A
100
AcDbEntity
  8
寸法線
100
AcDbLine
 10
410.490122797668
 20
127.924560935785
 30
0.0
 11
410.490122797668
 21
246.4155697964
 31
0.0
  0
LINE
  5
5ECC
330
1A
100
AcDbEntity
  8
寸法線
 48
10.0
100
AcDbLine
 10
481.595842581611
 20
246.4155697964
 30
0.0
 11
481.595842581611
 21
127.924560935785
 31
0.0
  0
LINE
  5
5ECD
330
1A
100
AcDbEntity
  8
寸法線
 48
10.0
100
AcDbLine
 10
507.814990960438
 20
246.4155697964
 30
0.0
 11
507.814990960438
 21
127.924560935785
 31
0.0
  0
LINE
  5
5ECE
330
1A
100
AcDbEntity
  8
寸法線
 48
10.0
100
AcDbLine
 10
534.276572674863
 20
246.4155697964
 30
0.0
 11
534.276572674863
 21
127.924560935785
 31
0.0
  0
LINE
  5
5ECF
330
1A
100
AcDbEntity
  8
寸法線
 48
10.0
100
AcDbLine
 10
558.041848150204
 20
246.4155697964
 30
0.0
 11
558.041848150204
 21
127.924560935785
 31
0.0
  0
LINE
  5
5ED0
330
1A
100
AcDbEntity
  8
寸法線
 48
10.0
100
AcDbLine
 10
583.892423267715
 20
246.4155697964
 30
0.0
 11
583.892423267715
 21
127.924560935785
 31
0.0
  0
LINE
  5
5ED1
330
1A
100
AcDbEntity
  8
寸法線
100
AcDbLine
 10
622.437755267715
 20
127.924560935785
 30
0.0
 11
622.437755267715
 21
246.4155697964
 31
0.0
  0
LINE
  5
5ED2
330
1A
100
AcDbEntity
  8
寸法線
100
AcDbLine
 10
654.194073832004
 20
127.924560935785
 30
0.0
 11
654.194073832004
 21
246.4155697964
 31
0.0
  0
TEXT
  5
5ED3
330
1A
100
AcDbEntity
  8
寸法線
 48
10.0
100
AcDbText
 10
492.906439177029
 20
114.795238818603
 30
0.0
 40
8.0
  1
○印が今回の貴社の御仕様です。
100
AcDbText
  0
LINE
  5
5ED5
330
1A
100
AcDbEntity
  8
寸法線
100
AcDbLine
 10
100.251731714655
 20
127.924560935785
 30
0.0
 11
654.194073832004
 21
127.924560935785
 31
0.0
  0
MTEXT
  5
5F9C
102
{ACAD_XDICTIONARY
360
5F9D
102
}
330
1A
100
AcDbEntity
  8
寸法線
 48
10.0
100
AcDbMText
 10
216.714484667177
 20
229.95109681042
 30
0.0
 40
8.0
 41
23.854899029718
 71
     2
 72
     5
  1
250\P300\P350\P400\P450\P500\P550\P600
1001
ACADANNOTATIVE
1000
AnnotativeData
1002
{
1070
     1
1070
     0
1002
}
  0
MTEXT
  5
5FA0
102
{ACAD_XDICTIONARY
360
5FA1
102
}
330
1A
100
AcDbEntity
  8
寸法線
 48
10.0
100
AcDbMText
 10
241.148701056201
 20
229.95109681042
 30
0.0
 40
8.0
 41
23.854899029718
 71
     2
 72
     5
  1
100\P100\P100\P100\P100\P100\P150\P150
1001
ACADANNOTATIVE
1000
AnnotativeData
1002
{
1070
     1
1070
     0
1002
}
  0
MTEXT
  5
5FA4
102
{ACAD_XDICTIONARY
360
5FA5
102
}
330
1A
100
AcDbEntity
  8
寸法線
 48
10.0
100
AcDbMText
 10
267.199390445048
 20
229.95109681042
 30
0.0
 40
8.0
 41
23.854899029718
 71
     2
 72
     5
  1
50\P50\P50\P50\P50\P50\P50\P50
1001
ACADANNOTATIVE
1000
AnnotativeData
1002
{
1070
     1
1070
     0
1002
}
  0
MTEXT
  5
5FA8
102
{ACAD_XDICTIONARY
360
5FA9
102
}
330
1A
100
AcDbEntity
  8
寸法線
 48
10.0
100
AcDbMText
 10
291.471592416201
 20
229.95109681042
 30
0.0
 40
8.0
 41
23.854899029718
 71
     2
 72
     5
  1
100\P150\P200\P250\P300\P350\P350\P400
1001
ACADANNOTATIVE
1000
AnnotativeData
1002
{
1070
     1
1070
     0
1002
}
  0
MTEXT
  5
5FAC
102
{ACAD_XDICTIONARY
360
5FAD
102
}
330
1A
100
AcDbEntity
  8
寸法線
 48
10.0
100
AcDbMText
 10
519.770610726549
 20
229.654580932993
 30
0.0
 40
8.0
 41
23.854899029718
 71
     2
 72
     5
  1
150\P150\P150\P150\P150\P150\P150\P150
1001
ACADANNOTATIVE
1000
AnnotativeData
1002
{
1070
     1
1070
     0
1002
}
  0
MTEXT
  5
5FB0
102
{ACAD_XDICTIONARY
360
5FB1
102
}
330
1A
100
AcDbEntity
  8
寸法線
 48
10.0
100
AcDbMText
 10
546.237979977072
 20
229.654580932993
 30
0.0
 40
8.0
 41
23.854899029718
 71
     2
 72
     5
  1
50\P50\P50\P50\P50\P50\P50\P50
1001
ACADANNOTATIVE
1000
AnnotativeData
1002
{
1070
     1
1070
     0
1002
}
  0
MTEXT
  5
5FB4
102
{ACAD_XDICTIONARY
360
5FB5
102
}
330
1A
100
AcDbEntity
  8
寸法線
 48
10.0
100
AcDbMText
 10
570.968129355516
 20
229.654580932993
 30
0.0
 40
8.0
 41
23.854899029718
 71
     2
 72
     5
  1
450\P500\P550\P600\P650\P700\P750\P800
1001
ACADANNOTATIVE
1000
AnnotativeData
1002
{
1070
     1
1070
     0
1002
}
  0
MTEXT
  5
5FB8
102
{ACAD_XDICTIONARY
360
5FB9
102
}
330
1A
100
AcDbEntity
  8
寸法線
 48
10.0
100
AcDbMText
 10
494.129447575668
 20
229.654580932993
 30
0.0
 40
8.0
 41
23.854899029718
 71
     2
 72
     5
  1
650\P700\P750\P800\P850\P900\P950\P1000
1001
ACADANNOTATIVE
1000
AnnotativeData
1002
{
1070
     1
1070
     0
1002
}
  0
ARC
  5
5FC5
330
1A
100
AcDbEntity
  8
外形線
 48
10.0
100
AcDbCircle
 10
391.95381907805
 20
371.493916703027
 30
0.0
 40
1.0
100
AcDbArc
 50
180.0
 51
268.999999999998
  0
ARC
  5
5FC6
330
1A
100
AcDbEntity
  8
外形線
 48
10.0
100
AcDbCircle
 10
391.95381907805
 20
414.041917810358
 30
0.0
 40
1.0
100
AcDbArc
 50
91.000000000002
 51
180.0
  0
LINE
  5
5FC7
330
1A
100
AcDbEntity
  8
外形線
 48
10.0
100
AcDbLine
 10
390.95381907805
 20
414.041917810358
 30
0.0
 11
390.95381907805
 21
371.493916703027
 31
0.0
  0
LINE
  5
5FC8
330
1A
100
AcDbEntity
  8
外形線
 48
10.0
100
AcDbLine
 10
405.081601919119
 20
416.025995361093
 30
0.0
 11
411.334035163187
 21
441.103135404605
 31
0.0
  0
ARC
  5
5FC9
330
1A
100
AcDbEntity
  8
外形線
 48
10.0
100
AcDbCircle
 10
416.185513794567
 20
439.893525926606
 30
0.0
 40
5.0
100
AcDbArc
 50
91.3
 51
166.000000000005
  0
ARC
  5
5FCA
330
1A
100
AcDbEntity
  8
外形線
 48
10.0
100
AcDbCircle
 10
404.111306192843
 20
416.267917256693
 30
0.0
 40
1.0
100
AcDbArc
 50
270.0
 51
346.000000000009
  0
ARC
  5
5FCB
330
1A
100
AcDbEntity
  8
外形線
 48
10.0
100
AcDbCircle
 10
404.111306192843
 20
416.267917256693
 30
0.0
 40
1.0
100
AcDbArc
 50
270.0
 51
346.000000000009
  0
LINE
  5
5FCC
330
1A
100
AcDbEntity
  8
外形線
 48
10.0
100
AcDbLine
 10
391.936366671613
 20
415.041765505514
 30
0.0
 11
404.111306192843
 21
415.267917256693
 31
0.0
  0
ARC
  5
5FCD
330
1A
100
AcDbEntity
  8
外形線
 48
10.0
100
AcDbCircle
 10
492.954858307752
 20
450.017365849246
 30
0.0
 40
0.5
100
AcDbArc
 50
359.999254274577
 51
88.999999999998
  0
ARC
  5
5FCE
330
1A
100
AcDbEntity
  8
細線
 48
10.0
100
AcDbCircle
 10
493.95381907805
 20
405.900959008162
 30
0.0
 40
0.5
100
AcDbArc
 50
180.0
 51
264.089361084594
  0
ARC
  5
5FCF
330
1A
100
AcDbEntity
  8
外形線
 48
10.0
100
AcDbCircle
 10
493.95381907805
 20
398.526568625135
 30
0.0
 40
0.5
100
AcDbArc
 50
91.000000000002
 51
180.0
  0
ARC
  5
5FD0
330
1A
100
AcDbEntity
  8
細線
 48
10.0
100
AcDbCircle
 10
493.95381907805
 20
406.159778053264
 30
0.0
 40
0.5
100
AcDbArc
 50
180.0
 51
264.089361084594
  0
ARC
  5
5FD1
330
1A
100
AcDbEntity
  8
細線
 48
10.0
100
AcDbCircle
 10
493.95381907805
 20
427.794343420866
 30
0.0
 40
0.5
100
AcDbArc
 50
180.0
 51
254.206830951723
  0
ARC
  5
5FD2
330
1A
100
AcDbEntity
  8
細線
 48
10.0
100
AcDbCircle
 10
493.95381907805
 20
428.501450202052
 30
0.0
 40
0.5
100
AcDbArc
 50
180.0
 51
254.206830951723
  0
ARC
  5
5FD3
330
1A
100
AcDbEntity
  8
細線
 48
10.0
100
AcDbCircle
 10
493.95381907805
 20
440.441120441121
 30
0.0
 40
0.5
100
AcDbArc
 50
180.0
 51
248.874947125992
  0
ARC
  5
5FD4
330
1A
100
AcDbEntity
  8
細線
 48
10.0
100
AcDbCircle
 10
493.95381907805
 20
441.407046267411
 30
0.0
 40
0.5
100
AcDbArc
 50
180.0
 51
248.874947125992
  0
ARC
  5
5FD5
330
1A
100
AcDbEntity
  8
外形線
 48
10.0
100
AcDbCircle
 10
493.953707000131
 20
442.713212709788
 30
0.0
 40
0.5
100
AcDbArc
 50
180.019033969441
 51
248.025023881981
  0
LINE
  5
5FD6
330
1A
100
AcDbEntity
  8
外形線
 48
10.0
100
AcDbLine
 10
493.45381907805
 20
441.407046267411
 30
0.0
 11
493.45381907805
 21
442.375754339154
 31
0.0
  0
LINE
  5
5FD7
330
1A
100
AcDbEntity
  8
外形線
 48
10.0
100
AcDbLine
 10
493.45381907805
 20
440.441120441121
 30
0.0
 11
493.45381907805
 21
441.064208571145
 31
0.0
  0
LINE
  5
5FD8
330
1A
100
AcDbEntity
  8
外形線
 48
10.0
100
AcDbLine
 10
493.45381907805
 20
428.501450202052
 30
0.0
 11
493.45381907805
 21
440.098282744856
 31
0.0
  0
LINE
  5
5FD9
330
1A
100
AcDbEntity
  8
外形線
 48
10.0
100
AcDbLine
 10
493.45381907805
 20
427.794343420866
 30
0.0
 11
493.45381907805
 21
428.123256316019
 31
0.0
  0
LINE
  5
5FDA
330
1A
100
AcDbEntity
  8
外形線
 48
10.0
100
AcDbLine
 10
493.45381907805
 20
406.159778053264
 30
0.0
 11
493.45381907805
 21
428.501450202052
 31
0.0
  0
LINE
  5
5FDB
330
1A
100
AcDbEntity
  8
外形線
 48
10.0
100
AcDbLine
 10
493.45381907805
 20
405.900959008162
 30
0.0
 11
493.45381907805
 21
406.781285492259
 31
0.0
  0
LINE
  5
5FDC
330
1A
100
AcDbEntity
  8
外形線
 48
10.0
100
AcDbLine
 10
493.45381907805
 20
398.526568625135
 30
0.0
 11
493.45381907805
 21
406.159778053264
 31
0.0
  0
ARC
  5
5FDD
330
1A
100
AcDbEntity
  8
外形線
 48
10.0
100
AcDbCircle
 10
493.95381907805
 20
387.00926588825
 30
0.0
 40
0.5
100
AcDbArc
 50
180.0
 51
268.999999999998
  0
LINE
  5
5FDE
330
1A
100
AcDbEntity
  8
外形線
 48
10.0
100
AcDbLine
 10
493.45381907805
 20
387.00926588825
 30
0.0
 11
493.45381907805
 21
398.526568625135
 31
0.0
  0
ARC
  5
5FDF
330
1A
100
AcDbEntity
  8
外形線
 48
10.0
100
AcDbCircle
 10
505.451939821763
 20
385.808413116073
 30
0.0
 40
0.5
100
AcDbArc
 50
0.002863323122
 51
88.999999999998
  0
ARC
  5
5FE0
330
1A
100
AcDbEntity
  8
外形線
 48
10.0
100
AcDbCircle
 10
505.451939821763
 20
399.727421397313
 30
0.0
 40
0.5
100
AcDbArc
 50
271.000000000002
 51
359.997136676878
  0
ARC
  5
5FE1
330
1A
100
AcDbEntity
  8
細線
 48
10.0
100
AcDbCircle
 10
505.45365328617
 20
403.963882908898
 30
0.0
 40
0.5
100
AcDbArc
 50
359.97893674797
 51
84.089361084594
  0
ARC
  5
5FE2
330
1A
100
AcDbEntity
  8
細線
 48
10.0
100
AcDbCircle
 10
505.452138609959
 20
403.705220674615
 30
0.0
 40
0.5
100
AcDbArc
 50
359.997136676878
 51
84.089361084594
  0
ARC
  5
5FE3
330
1A
100
AcDbEntity
  8
細線
 48
10.0
100
AcDbCircle
 10
505.4536988433
 20
434.925862372285
 30
0.0
 40
0.5
100
AcDbArc
 50
359.997136676878
 51
68.874947125992
  0
ARC
  5
5FE4
330
1A
100
AcDbEntity
  8
細線
 48
10.0
100
AcDbCircle
 10
505.453747113947
 20
435.891769548229
 30
0.0
 40
0.5
100
AcDbArc
 50
359.997136676878
 51
68.874947125992
  0
ARC
  5
5FE5
330
1A
100
AcDbEntity
  8
外形線
 48
10.0
100
AcDbCircle
 10
505.453802215741
 20
436.994369590736
 30
0.0
 40
0.5
100
AcDbArc
 50
359.997136676878
 51
68.025023881981
  0
LINE
  5
5FE6
330
1A
100
AcDbEntity
  8
外形線
 48
10.0
100
AcDbLine
 10
505.460666024982
 20
399.227497549735
 30
0.0
 11
493.945092874831
 21
399.026492472713
 31
0.0
  0
LINE
  5
5FE7
330
1A
100
AcDbEntity
  8
外形線
 48
10.0
100
AcDbLine
 10
505.460666024982
 20
386.308336963651
 30
0.0
 11
493.945092874831
 21
386.509342040672
 31
0.0
  0
LINE
  5
5FE8
330
1A
100
AcDbEntity
  8
外形線
 48
10.0
100
AcDbLine
 10
493.766606194652
 20
442.24953902217
 30
0.0
 11
505.640903021219
 21
437.458043278354
 31
0.0
  0
LINE
  5
5FE9
330
1A
100
AcDbEntity
  8
細線
 48
10.0
100
AcDbLine
 10
505.503627227716
 20
404.20256253113
 30
0.0
 11
493.902330460293
 21
405.403617151647
 31
0.0
  0
LINE
  5
5FEA
330
1A
100
AcDbEntity
  8
細線
 48
10.0
100
AcDbLine
 10
505.505141903927
 20
404.461224765412
 30
0.0
 11
493.902330460293
 21
405.662436196749
 31
0.0
  0
LINE
  5
5FEB
330
1A
100
AcDbEntity
  8
細線
 48
10.0
100
AcDbLine
 10
505.58924607353
 20
424.690839227581
 30
0.0
 11
493.817736314562
 21
428.020324977727
 31
0.0
  0
LINE
  5
5FEC
330
1A
100
AcDbEntity
  8
細線
 48
10.0
100
AcDbLine
 10
505.63390119951
 20
435.39226038988
 30
0.0
 11
493.77361672184
 21
439.974722423526
 31
0.0
  0
LINE
  5
5FED
330
1A
100
AcDbEntity
  8
細線
 48
10.0
100
AcDbLine
 10
505.633949470157
 20
436.358167565824
 30
0.0
 11
493.77361672184
 21
440.940648249816
 31
0.0
  0
LINE
  5
5FEE
330
1A
100
AcDbEntity
  8
外形線
 48
10.0
100
AcDbLine
 10
478.954854981681
 20
450.767917256693
 30
0.0
 11
492.96358451097
 21
450.517289696824
 31
0.0
  0
LINE
  5
5FEF
330
1A
100
AcDbEntity
  8
外形線
 48
10.0
100
AcDbLine
 10
478.954854981681
 20
450.767917256693
 30
0.0
 11
478.454854981681
 21
450.26181298032
 31
0.0
  0
LINE
  5
5FF0
330
1A
100
AcDbEntity
  8
外形線
 48
10.0
100
AcDbLine
 10
478.454854981681
 20
449.274021533066
 30
0.0
 11
478.454854981681
 21
448.774021533066
 31
0.0
  0
ARC
  5
5FF1
330
1A
100
AcDbEntity
  8
外形線
 48
10.0
100
AcDbCircle
 10
469.05381907805
 20
450.49569570366
 30
0.0
 40
4.4
100
AcDbArc
 50
271.299999999999
 51
0.0
  0
LINE
  5
5FF2
330
1A
100
AcDbEntity
  8
外形線
 48
10.0
100
AcDbLine
 10
416.072077126703
 20
444.89223897322
 30
0.0
 11
469.15364334577
 21
446.09682822264
 31
0.0
  0
LINE
  5
5FF3
330
1A
100
AcDbEntity
  8
外形線
 48
10.0
100
AcDbLine
 10
473.45381907805
 20
450.767917256693
 30
0.0
 11
473.45381907805
 21
450.49569570366
 31
0.0
  0
LINE
  5
5FF4
330
1A
100
AcDbEntity
  8
外形線
 48
10.0
100
AcDbLine
 10
476.45381907805
 20
450.767917256693
 30
0.0
 11
473.45381907805
 21
450.767917256693
 31
0.0
  0
ARC
  5
5FF5
330
1A
100
AcDbEntity
  8
外形線
 48
10.0
100
AcDbCircle
 10
477.95381907805
 20
448.242917256693
 30
0.0
 40
1.500000000000156
100
AcDbArc
 50
70.528779365512
 51
179.999999999991
  0
LINE
  5
5FF6
330
1A
100
AcDbEntity
  8
細線
 48
10.0
100
AcDbLine
 10
478.954854981681
 20
450.767917256693
 30
0.0
 11
478.954854981681
 21
334.767917256693
 31
0.0
  0
LINE
  5
5FF7
330
1A
100
AcDbEntity
  8
細線
 48
10.0
100
AcDbLine
 10
478.954854981681
 20
450.76181298032
 30
0.0
 11
478.954854981681
 21
334.774021533066
 31
0.0
  0
LINE
  5
5FF8
330
1A
100
AcDbEntity
  8
外形線
 48
10.0
100
AcDbLine
 10
493.45381907805
 20
371.037580752989
 30
0.0
 11
493.45381907805
 21
357.74149109252
 31
0.0
  0
ARC
  5
5FF9
330
1A
100
AcDbEntity
  8
細線
 48
10.0
100
AcDbCircle
 10
493.95381907805
 20
345.094714072264
 30
0.0
 40
0.5
100
AcDbArc
 50
111.125052874008
 51
180.0
  0
ARC
  5
5FFA
330
1A
100
AcDbEntity
  8
細線
 48
10.0
100
AcDbCircle
 10
493.953360380563
 20
344.128611018875
 30
0.0
 40
0.5
100
AcDbArc
 50
111.125052874008
 51
179.923306313171
  0
ARC
  5
5FFB
330
1A
100
AcDbEntity
  8
細線
 48
10.0
100
AcDbCircle
 10
493.95381907805
 20
357.74149109252
 30
0.0
 40
0.5
100
AcDbArc
 50
105.793169048277
 51
180.0
  0
ARC
  5
5FFC
330
1A
100
AcDbEntity
  8
細線
 48
10.0
100
AcDbCircle
 10
493.95381907805
 20
357.034384311333
 30
0.0
 40
0.5
100
AcDbArc
 50
105.793169048277
 51
180.0
  0
ARC
  5
5FFD
330
1A
100
AcDbEntity
  8
細線
 48
10.0
100
AcDbCircle
 10
493.95381907805
 20
379.376056460121
 30
0.0
 40
0.5
100
AcDbArc
 50
95.910638915406
 51
180.0
  0
ARC
  5
5FFE
330
1A
100
AcDbEntity
  8
細線
 48
10.0
100
AcDbCircle
 10
493.95381907805
 20
379.634875505223
 30
0.0
 40
0.5
100
AcDbArc
 50
95.910638915406
 51
180.0
  0
LINE
  5
5FFF
330
1A
100
AcDbEntity
  8
外形線
 48
10.0
100
AcDbLine
 10
493.45381907805
 20
379.376056460121
 30
0.0
 11
493.45381907805
 21
387.00926588825
 31
0.0
  0
LINE
  5
6000
330
1A
100
AcDbEntity
  8
外形線
 48
10.0
100
AcDbLine
 10
493.45381907805
 20
379.826965001568
 30
0.0
 11
493.45381907805
 21
380.08578404667
 31
0.0
  0
LINE
  5
6001
330
1A
100
AcDbEntity
  8
外形線
 48
10.0
100
AcDbLine
 10
493.45381907805
 20
371.037580752989
 30
0.0
 11
493.45381907805
 21
379.376056460121
 31
0.0
  0
LINE
  5
6002
330
1A
100
AcDbEntity
  8
外形線
 48
10.0
100
AcDbLine
 10
493.45381907805
 20
357.034384311333
 30
0.0
 11
493.45381907805
 21
357.74149109252
 31
0.0
  0
LINE
  5
6003
330
1A
100
AcDbEntity
  8
外形線
 48
10.0
100
AcDbLine
 10
493.45381907805
 20
345.094714072264
 30
0.0
 11
493.45381907805
 21
357.034384311333
 31
0.0
  0
LINE
  5
6004
330
1A
100
AcDbEntity
  8
外形線
 48
10.0
100
AcDbLine
 10
493.453360828497
 20
344.12928029735
 30
0.0
 11
493.45381907805
 21
345.094714072264
 31
0.0
  0
LINE
  5
6005
330
1A
100
AcDbEntity
  8
外形線
 48
10.0
100
AcDbLine
 10
493.451610657818
 20
342.821775891168
 30
0.0
 11
493.453360828497
 21
344.12928029735
 31
0.0
  0
ARC
  5
6006
330
1A
100
AcDbEntity
  8
外形線
 48
10.0
100
AcDbCircle
 10
493.951610657818
 20
342.821775891168
 30
0.0
 40
0.5
100
AcDbArc
 50
111.974976118019
 51
180.0
  0
ARC
  5
6007
330
1A
100
AcDbEntity
  8
細線
 48
10.0
100
AcDbCircle
 10
505.453787576202
 20
362.033403860451
 30
0.0
 40
0.5
100
AcDbArc
 50
285.793169048277
 51
0.004772330151
  0
ARC
  5
6008
330
1A
100
AcDbEntity
  8
細線
 48
10.0
100
AcDbCircle
 10
505.45381907805
 20
361.326305989331
 30
0.0
 40
0.5
100
AcDbArc
 50
285.793169048277
 51
0.0
  0
ARC
  5
6009
330
1A
100
AcDbEntity
  8
細線
 48
10.0
100
AcDbCircle
 10
505.45381907805
 20
350.610018596241
 30
0.0
 40
0.5
100
AcDbArc
 50
291.125052874008
 51
0.0
  0
ARC
  5
600A
330
1A
100
AcDbEntity
  8
細線
 48
10.0
100
AcDbCircle
 10
505.45381907805
 20
349.64409276995
 30
0.0
 40
0.5
100
AcDbArc
 50
291.125052874008
 51
0.0
  0
ARC
  5
600B
330
1A
100
AcDbEntity
  8
外形線
 48
10.0
100
AcDbCircle
 10
505.45381907805
 20
348.541471726899
 30
0.0
 40
0.5
100
AcDbArc
 50
291.974976118019
 51
0.0
  0
LINE
  5
600C
330
1A
100
AcDbEntity
  8
外形線
 48
10.0
100
AcDbLine
 10
505.95381907805
 20
349.64409276995
 30
0.0
 11
505.95381907805
 21
348.541471726899
 31
0.0
  0
LINE
  5
600D
330
1A
100
AcDbEntity
  8
外形線
 48
10.0
100
AcDbLine
 10
505.95381907805
 20
350.610018596241
 30
0.0
 11
505.95381907805
 21
349.64409276995
 31
0.0
  0
LINE
  5
600E
330
1A
100
AcDbEntity
  8
外形線
 48
10.0
100
AcDbLine
 10
505.95381907805
 20
361.326305989331
 30
0.0
 11
505.95381907805
 21
350.610018596241
 31
0.0
  0
LINE
  5
600F
330
1A
100
AcDbEntity
  8
外形線
 48
10.0
100
AcDbLine
 10
505.953787574467
 20
362.033445506888
 30
0.0
 11
505.95381907805
 21
361.326305989331
 31
0.0
  0
LINE
  5
6010
330
1A
100
AcDbEntity
  8
外形線
 48
10.0
100
AcDbLine
 10
505.952138609335
 20
381.830638825978
 30
0.0
 11
505.953787574467
 21
362.033445506888
 31
0.0
  0
ARC
  5
6011
330
1A
100
AcDbEntity
  8
細線
 48
10.0
100
AcDbCircle
 10
505.452087635908
 20
381.571789516445
 30
0.0
 40
0.5
100
AcDbArc
 50
275.910638915406
 51
0.001999028164
  0
ARC
  5
6012
330
1A
100
AcDbEntity
  8
細線
 48
10.0
100
AcDbCircle
 10
505.452138609959
 20
381.83061383877
 30
0.0
 40
0.5
100
AcDbArc
 50
275.910638915406
 51
0.002863323122
  0
ARC
  5
6013
330
1A
100
AcDbEntity
  8
外形線
 48
10.0
100
AcDbCircle
 10
492.952779863556
 20
335.518432384761
 30
0.0
 40
0.5
100
AcDbArc
 50
271.000000000002
 51
359.984453673186
  0
LINE
  5
6014
330
1A
100
AcDbEntity
  8
外形線
 48
10.0
100
AcDbLine
 10
505.951939821138
 20
385.808438103281
 30
0.0
 11
505.952087635603
 21
381.571806961257
 31
0.0
  0
LINE
  5
6015
330
1A
100
AcDbEntity
  8
外形線
 48
10.0
100
AcDbLine
 10
493.764509852339
 20
343.285449578786
 30
0.0
 11
505.640919883528
 21
348.077798039281
 31
0.0
  0
LINE
  5
6016
330
1A
100
AcDbEntity
  8
細線
 48
10.0
100
AcDbLine
 10
505.63402143426
 20
350.143620578646
 30
0.0
 11
493.77361672184
 21
345.561112089859
 31
0.0
  0
LINE
  5
6017
330
1A
100
AcDbEntity
  8
細線
 48
10.0
100
AcDbLine
 10
505.63402143426
 20
349.177694752355
 30
0.0
 11
493.773158024353
 21
344.59500903647
 31
0.0
  0
LINE
  5
6018
330
1A
100
AcDbEntity
  8
細線
 48
10.0
100
AcDbLine
 10
505.589901841538
 20
360.845180765006
 30
0.0
 11
493.817736314562
 21
357.515509535658
 31
0.0
  0
LINE
  5
6019
330
1A
100
AcDbEntity
  8
細線
 48
10.0
100
AcDbLine
 10
505.58987033969
 20
361.552278636126
 30
0.0
 11
493.817736314562
 21
358.222616316845
 31
0.0
  0
LINE
  5
601A
330
1A
100
AcDbEntity
  8
細線
 48
10.0
100
AcDbLine
 10
505.503576253665
 20
381.07444765993
 30
0.0
 11
493.902330460293
 21
379.873398316636
 31
0.0
  0
LINE
  5
601B
330
1A
100
AcDbEntity
  8
細線
 48
10.0
100
AcDbLine
 10
505.503627227716
 20
381.333271982256
 30
0.0
 11
493.902330460293
 21
380.132217361738
 31
0.0
  0
LINE
  5
601C
330
1A
100
AcDbEntity
  8
外形線
 48
10.0
100
AcDbLine
 10
493.454763456609
 20
342.828870033286
 30
0.0
 11
493.452779845151
 21
335.518296717468
 31
0.0
  0
LINE
  5
601D
330
1A
100
AcDbEntity
  8
外形線
 48
10.0
100
AcDbLine
 10
493.45485830771
 20
450.017359341564
 30
0.0
 11
493.452779845151
 21
335.518296717468
 31
0.0
  0
LINE
  5
601E
330
1A
100
AcDbEntity
  8
外形線
 48
10.0
100
AcDbLine
 10
478.454854981681
 20
450.26181298032
 30
0.0
 11
478.454854981681
 21
335.274021533066
 31
0.0
  0
LINE
  5
601F
330
1A
100
AcDbEntity
  8
外形線
 48
10.0
100
AcDbLine
 10
478.954854981681
 20
334.767917256693
 30
0.0
 11
492.961506066775
 21
335.018508537183
 31
0.0
  0
LINE
  5
6020
330
1A
100
AcDbEntity
  8
外形線
 48
10.0
100
AcDbLine
 10
478.954854981681
 20
334.767917256693
 30
0.0
 11
478.454854981681
 21
335.274021533066
 31
0.0
  0
LINE
  5
6021
330
1A
100
AcDbEntity
  8
外形線
 48
10.0
100
AcDbLine
 10
478.454854981681
 20
336.274021533066
 30
0.0
 11
478.454854981681
 21
336.774021533066
 31
0.0
  0
LINE
  5
6022
330
1A
100
AcDbEntity
  8
外形線
 48
10.0
100
AcDbLine
 10
405.078225018827
 20
369.523383159601
 30
0.0
 11
411.334035163187
 21
344.432699108781
 31
0.0
  0
ARC
  5
6023
330
1A
100
AcDbEntity
  8
外形線
 48
10.0
100
AcDbCircle
 10
416.185513794567
 20
345.642308586779
 30
0.0
 40
5.0
100
AcDbArc
 50
193.999999999995
 51
268.7
  0
ARC
  5
6024
330
1A
100
AcDbEntity
  8
外形線
 48
10.0
100
AcDbCircle
 10
404.107929292551
 20
369.281461264001
 30
0.0
 40
1.0
100
AcDbArc
 50
13.999999999991
 51
89.000000000011
  0
ARC
  5
6025
330
1A
100
AcDbEntity
  8
外形線
 48
10.0
100
AcDbCircle
 10
439.45381907805
 20
339.112732131033
 30
0.0
 40
1.0
100
AcDbArc
 50
0.0
 51
88.7
  0
ARC
  5
6026
330
1A
100
AcDbEntity
  8
外形線
 48
10.0
100
AcDbCircle
 10
441.45381907805
 20
329.267917256692
 30
0.0
 40
1.0
100
AcDbArc
 50
180.0
 51
270.0
  0
ARC
  5
6027
330
1A
100
AcDbEntity
  8
外形線
 48
10.0
100
AcDbCircle
 10
475.45381907805
 20
329.267917256692
 30
0.0
 40
1.0
100
AcDbArc
 50
270.0
 51
0.0
  0
LINE
  5
6028
330
1A
100
AcDbEntity
  8
外形線
 48
10.0
100
AcDbLine
 10
440.45381907805
 20
329.267917256692
 30
0.0
 11
440.45381907805
 21
339.112732131033
 31
0.0
  0
LINE
  5
6029
330
1A
100
AcDbEntity
  8
外形線
 48
10.0
100
AcDbLine
 10
416.072077126703
 20
340.643595540166
 30
0.0
 11
469.15364334577
 21
339.439006290745
 31
0.0
  0
LINE
  5
602A
330
1A
100
AcDbEntity
  8
外形線
 48
10.0
100
AcDbLine
 10
391.936366671612
 20
370.494069007871
 30
0.0
 11
404.125381698988
 21
370.281308959157
 31
0.0
  0
LINE
  5
602B
330
1A
100
AcDbEntity
  8
外形線
 48
10.0
100
AcDbLine
 10
476.45381907805
 20
338.792917256693
 30
0.0
 11
476.45381907805
 21
329.267917256692
 31
0.0
  0
LINE
  5
602C
330
1A
100
AcDbEntity
  8
外形線
 48
10.0
100
AcDbLine
 10
476.45381907805
 20
338.792917256693
 30
0.0
 11
476.45381907805
 21
450.767917256693
 31
0.0
  0
LINE
  5
602D
330
1A
100
AcDbEntity
  8
外形線
 48
10.0
100
AcDbLine
 10
475.45381907805
 20
328.267917256692
 30
0.0
 11
441.45381907805
 21
328.267917256692
 31
0.0
  0
LINE
  5
602E
330
1A
100
AcDbEntity
  8
外形線
 48
10.0
100
AcDbLine
 10
473.45381907805
 20
335.040138809725
 30
0.0
 11
473.45381907805
 21
334.774021533066
 31
0.0
  0
LINE
  5
602F
330
1A
100
AcDbEntity
  8
外形線
 48
10.0
100
AcDbLine
 10
476.45381907805
 20
334.774021533066
 30
0.0
 11
473.45381907805
 21
334.774021533066
 31
0.0
  0
ARC
  5
6030
330
1A
100
AcDbEntity
  8
外形線
 48
10.0
100
AcDbCircle
 10
477.95381907805
 20
337.292917256692
 30
0.0
 40
1.499999999999659
100
AcDbArc
 50
179.999999999983
 51
289.471220634513
  0
ARC
  5
6031
330
1A
100
AcDbEntity
  8
外形線
 48
10.0
100
AcDbCircle
 10
469.05381907805
 20
335.040138809725
 30
0.0
 40
4.4
100
AcDbArc
 50
0.0
 51
88.700000000001
  0
LINE
  5
6032
330
1A
100
AcDbEntity
  8
細線
 48
10.0
100
AcDbLine
 10
473.45381907805
 20
450.767917256693
 30
0.0
 11
473.45381907805
 21
335.040138809725
 31
0.0
  0
LINE
  5
6033
330
1A
100
AcDbEntity
  8
細線
 48
10.0
100
AcDbLine
 10
404.89259181935
 20
370.267917256693
 30
0.0
 11
404.896227034012
 21
415.282497306348
 31
0.0
  0
LINE
  5
6034
330
1A
100
AcDbEntity
  8
細線
 48
10.0
100
AcDbLine
 10
412.257179932728
 20
442.986775523702
 30
0.0
 11
412.257179932728
 21
342.549058989684
 31
0.0
  0
LINE
  5
6035
330
1A
100
AcDbEntity
  8
外形線
 48
10.0
100
AcDbLine
 10
505.953802215117
 20
436.994344603528
 30
0.0
 11
505.951939821138
 21
399.727396410105
 31
0.0
  0
ARC
  5
6036
330
1A
100
AcDbEntity
  8
細線
 48
10.0
100
AcDbCircle
 10
505.453127973293
 20
423.50261721681
 30
0.0
 40
0.5
100
AcDbArc
 50
359.997136676878
 51
74.206830951723
  0
ARC
  5
6037
330
1A
100
AcDbEntity
  8
細線
 48
10.0
100
AcDbCircle
 10
505.453163310042
 20
424.209714003257
 30
0.0
 40
0.5
100
AcDbArc
 50
359.997136676878
 51
74.206830951723
  0
LINE
  5
6038
330
1A
100
AcDbEntity
  8
細線
 48
10.0
100
AcDbLine
 10
505.589210736781
 20
423.983742441135
 30
0.0
 11
493.817736314562
 21
427.313218196541
 31
0.0
  0
LINE
  5
6039
330
1A
100
AcDbEntity
  8
中心線
 48
10.0
100
AcDbLine
 10
458.45381907805
 20
346.930705174703
 30
0.0
 11
458.45381907805
 21
322.089599470575
 31
0.0
  0
LEADER
  5
603A
330
1A
100
AcDbEntity
  8
寸法線
 48
10.0
100
AcDbLeader
  3
ISO-25
 76
     3
 10
459.291273936999
 20
327.463382789412
 30
0.0
 10
513.337931760972
 20
296.052162291201
 30
0.0
 10
521.033583971729
 20
296.052162291201
 30
0.0
1001
ACAD
1000
DSTYLE
1002
{
1070
     5
1000
OPEN30
1070
    41
1040
6.0
1070
   342
1005
2AF4
1070
   271
1070
     1
1070
   341
1005
2AF4
1070
   272
1070
     1
1070
    73
1070
     0
1070
    48
1040
0.1
1070
    47
1040
0.1
1070
   140
1040
8.0
1002
}
  0
LINE
  5
61FD
330
1A
100
AcDbEntity
  8
外形線
 48
10.0
100
AcDbLine
 10
262.95381907805
 20
408.517417256693
 30
0.0
 11
262.95381907805
 21
377.018417256693
 31
0.0
  0
LWPOLYLINE
  5
6277
330
1A
100
AcDbEntity
  8
外形線
100
AcDbPolyline
 90
        6
 70
     0
 43
0.0
 10
134.70381907805
 20
403.517917256693
 10
113.45381907805
 20
403.517917256693
 10
112.95381907805
 20
403.017917256693
 10
112.95381907805
 20
382.517917256693
 10
113.45381907805
 20
382.017917256693
 10
134.703819078049
 20
382.017917256693
  0
LWPOLYLINE
  5
6278
330
1A
100
AcDbEntity
  8
外形線
100
AcDbPolyline
 90
        6
 70
     0
 43
0.0
 10
209.45381907805
 20
403.517917256693
 10
163.45381907805
 20
403.517917256693
 10
162.95381907805
 20
403.017917256693
 10
162.95381907805
 20
382.517917256693
 10
163.45381907805
 20
382.017917256693
 10
209.453819078049
 20
382.017917256693
  0
DIMENSION
  5
6279
330
1A
100
AcDbEntity
  8
寸法線
 48
10.0
100
AcDbDimension
  2
*D20
 10
0.315350821777
 20
382.017917256693
 30
0.0
 11
0.315350821777
 21
422.076250590026
 31
0.0
 70
   160
  1
φ<>
  3
ISO-25
100
AcDbAlignedDimension
 13
13.95381907805
 23
403.517917256693
 33
0.0
 14
13.95381907805
 24
382.017917256693
 34
0.0
 50
90.0
100
AcDbRotatedDimension
1001
ACAD
1000
DSTYLE
1002
{
1070
     5
1000
OPEN30
1070
    41
1040
6.0
1070
    47
1040
0.1
1070
    48
1040
0.1
1070
    73
1070
     0
1070
   140
1040
8.0
1070
   271
1070
     1
1070
   272
1070
     1
1070
   341
1005
2AF4
1002
}
  0
LINE
  5
627B
330
1A
100
AcDbEntity
  8
外形線
100
AcDbLine
 10
112.95381907805
 20
382.017917256693
 30
0.0
 11
112.95381907805
 21
403.517917256693
 31
0.0
  0
LINE
  5
627C
330
1A
100
AcDbEntity
  8
外形線
100
AcDbLine
 10
112.95381907805
 20
403.517917256693
 30
0.0
 11
66.45381907805
 21
403.517917256693
 31
0.0
  0
LINE
  5
627D
330
1A
100
AcDbEntity
  8
外形線
100
AcDbLine
 10
13.95381907805
 20
403.517917256693
 30
0.0
 11
12.95381907805
 21
402.517917256693
 31
0.0
  0
LINE
  5
627E
330
1A
100
AcDbEntity
  8
外形線
100
AcDbLine
 10
12.95381907805
 20
402.517917256693
 30
0.0
 11
12.95381907805
 21
383.017917256693
 31
0.0
  0
LINE
  5
627F
330
1A
100
AcDbEntity
  8
外形線
100
AcDbLine
 10
13.95381907805
 20
382.017917256693
 30
0.0
 11
12.95381907805
 21
383.017917256693
 31
0.0
  0
LINE
  5
6280
330
1A
100
AcDbEntity
  8
外形線
100
AcDbLine
 10
112.95381907805
 20
382.017917256693
 30
0.0
 11
66.453819078049
 21
382.017917256693
 31
0.0
  0
ARC
  5
6281
330
1A
100
AcDbEntity
  8
細線
 48
10.0
100
AcDbCircle
 10
203.23116282805
 20
398.142917256693
 30
0.0
 40
8.222656249999796
100
AcDbArc
 50
319.180234332391
 51
40.819765667609
  0
ARC
  5
6282
330
1A
100
AcDbEntity
  8
細線
 48
10.0
100
AcDbCircle
 10
203.23116282805
 20
387.392917256693
 30
0.0
 40
8.222656249999796
100
AcDbArc
 50
319.180234332391
 51
40.819765667609
  0
ARC
  5
6283
330
1A
100
AcDbEntity
  8
細線
 48
10.0
100
AcDbCircle
 10
215.67647532805
 20
398.142917256693
 30
0.0
 40
8.222656249999796
100
AcDbArc
 50
139.180234332391
 51
220.819765667608
  0
ARC
  5
6284
330
1A
100
AcDbEntity
  8
細線
 48
10.0
100
AcDbCircle
 10
222.676475328049
 20
398.142917256693
 30
0.0
 40
8.222656249999796
100
AcDbArc
 50
139.180234332391
 51
220.819765667608
  0
ARC
  5
6285
330
1A
100
AcDbEntity
  8
細線
 48
10.0
100
AcDbCircle
 10
210.23116282805
 20
387.392917256693
 30
0.0
 40
8.222656249999796
100
AcDbArc
 50
319.180234332391
 51
40.819765667609
  0
ARC
  5
6286
330
1A
100
AcDbEntity
  8
細線
 48
10.0
100
AcDbCircle
 10
222.676475328049
 20
387.392917256693
 30
0.0
 40
8.222656249999796
100
AcDbArc
 50
139.180234332391
 51
220.819765667608
  0
ARC
  5
6287
330
1A
100
AcDbEntity
  8
細線
 48
10.0
100
AcDbCircle
 10
140.92647532805
 20
398.142917256693
 30
0.0
 40
8.222656249999796
100
AcDbArc
 50
139.180234332391
 51
220.819765667608
  0
ARC
  5
6288
330
1A
100
AcDbEntity
  8
細線
 48
10.0
100
AcDbCircle
 10
128.48116282805
 20
398.142917256693
 30
0.0
 40
8.222656249999796
100
AcDbArc
 50
319.180234332391
 51
40.819765667609
  0
ARC
  5
6289
330
1A
100
AcDbEntity
  8
細線
 48
10.0
100
AcDbCircle
 10
128.48116282805
 20
387.392917256693
 30
0.0
 40
8.222656249999796
100
AcDbArc
 50
319.180234332391
 51
40.819765667609
  0
ARC
  5
628A
330
1A
100
AcDbEntity
  8
細線
 48
10.0
100
AcDbCircle
 10
147.926475328049
 20
387.392917256693
 30
0.0
 40
8.222656249999796
100
AcDbArc
 50
139.180234332391
 51
220.819765667608
  0
ARC
  5
628B
330
1A
100
AcDbEntity
  8
細線
 48
10.0
100
AcDbCircle
 10
135.48116282805
 20
387.392917256693
 30
0.0
 40
8.222656249999796
100
AcDbArc
 50
319.180234332391
 51
40.819765667609
  0
ARC
  5
628C
330
1A
100
AcDbEntity
  8
細線
 48
10.0
100
AcDbCircle
 10
147.926475328049
 20
398.142917256693
 30
0.0
 40
8.222656249999796
100
AcDbArc
 50
139.180234332391
 51
220.819765667608
  0
LWPOLYLINE
  5
628D
330
1A
100
AcDbEntity
  8
外形線
100
AcDbPolyline
 90
        4
 70
     0
 43
0.0
 10
216.453819078049
 20
382.017917256693
 10
262.95381907805
 20
382.017917256693
 10
262.95381907805
 20
403.517917256693
 10
216.45381907805
 20
403.517917256693
  0
LWPOLYLINE
  5
628E
330
1A
100
AcDbEntity
  8
外形線
100
AcDbPolyline
 90
        4
 70
     0
 43
0.0
 10
141.703819078049
 20
382.017917256693
 10
162.95381907805
 20
382.017917256693
 10
162.95381907805
 20
403.517917256693
 10
141.70381907805
 20
403.517917256693
  0
ARC
  5
628F
330
1A
100
AcDbEntity
  8
細線
 48
10.0
100
AcDbCircle
 10
53.23116282805
 20
398.142917256693
 30
0.0
 40
8.222656249999796
100
AcDbArc
 50
319.180234332391
 51
40.819765667609
  0
ARC
  5
6290
330
1A
100
AcDbEntity
  8
細線
 48
10.0
100
AcDbCircle
 10
53.23116282805
 20
387.392917256693
 30
0.0
 40
8.222656249999796
100
AcDbArc
 50
319.180234332391
 51
40.819765667609
  0
ARC
  5
6291
330
1A
100
AcDbEntity
  8
細線
 48
10.0
100
AcDbCircle
 10
65.67647532805
 20
398.142917256693
 30
0.0
 40
8.222656249999796
100
AcDbArc
 50
139.180234332391
 51
220.819765667608
  0
ARC
  5
6292
330
1A
100
AcDbEntity
  8
細線
 48
10.0
100
AcDbCircle
 10
72.676475328049
 20
398.142917256693
 30
0.0
 40
8.222656249999796
100
AcDbArc
 50
139.180234332391
 51
220.819765667608
  0
ARC
  5
6293
330
1A
100
AcDbEntity
  8
細線
 48
10.0
100
AcDbCircle
 10
60.23116282805
 20
387.392917256693
 30
0.0
 40
8.222656249999796
100
AcDbArc
 50
319.180234332391
 51
40.819765667609
  0
ARC
  5
6294
330
1A
100
AcDbEntity
  8
細線
 48
10.0
100
AcDbCircle
 10
72.676475328049
 20
387.392917256693
 30
0.0
 40
8.222656249999796
100
AcDbArc
 50
139.180234332391
 51
220.819765667608
  0
LINE
  5
6295
330
1A
100
AcDbEntity
  8
外形線
100
AcDbLine
 10
59.45381907805
 20
403.517917256693
 30
0.0
 11
13.95381907805
 21
403.517917256693
 31
0.0
  0
LINE
  5
6296
330
1A
100
AcDbEntity
  8
外形線
100
AcDbLine
 10
59.453819078049
 20
382.017917256693
 30
0.0
 11
13.95381907805
 21
382.017917256693
 31
0.0
  0
DIMENSION
  5
6297
330
1A
100
AcDbEntity
  8
寸法線
 48
10.0
100
AcDbDimension
  2
*D21
 10
152.253543255613
 20
382.017917256693
 30
0.0
 11
152.253543255613
 21
422.508602681642
 31
0.0
 70
   160
  1
φ<>
  3
ISO-25
100
AcDbAlignedDimension
 13
162.95381907805
 23
403.517917256693
 33
0.0
 14
162.95381907805
 24
382.017917256693
 34
0.0
 50
90.0
100
AcDbRotatedDimension
1001
ACAD
1000
DSTYLE
1002
{
1070
     5
1000
OPEN30
1070
    76
1070
     1
1070
    75
1070
     1
1070
   282
1070
     0
1070
   281
1070
     0
1070
    41
1040
6.0
1070
    47
1040
0.1
1070
    48
1040
0.1
1070
    73
1070
     0
1070
   140
1040
8.0
1070
   271
1070
     1
1070
   272
1070
     1
1070
   341
1005
2AF4
1002
}
  0
VIEWPORT
  5
2902
330
28FB
100
AcDbEntity
 67
     1
  8
0
 48
10.0
100
AcDbViewport
 10
0.0
 20
0.0
 30
0.0
 40
528.349942987457
 41
300.3
 68
     1
 69
     1
1001
ACAD
1000
MVIEW
1002
{
1070
    16
1010
0.0
1020
0.0
1030
0.0
1010
0.0
1020
0.0
1030
1.0
1040
0.0
1040
300.3
1040
206.482943333333
1040
144.277943333333
1040
50.0
1040
0.0
1040
0.0
1070
    16
1070
   100
1070
     0
1070
     1
1070
     0
1070
     0
1070
     0
1070
     0
1040
0.0
1040
0.0
1040
0.0
1040
10.0
1040
10.0
1040
10.0
1040
10.0
1070
     0
1002
{
1002
}
1002
}
  0
VIEWPORT
  5
2904
330
28FB
100
AcDbEntity
 67
     1
  8
図枠太線
 48
10.0
100
AcDbViewport
 10
204.746305129083
 20
161.396645458131
 30
0.0
 40
400.0
 41
240.0
 68
     2
 69
     2
1001
ACAD
1000
MVIEW
1002
{
1070
    16
1010
0.0
1020
0.0
1030
0.0
1010
0.0
1020
0.0
1030
1.0
1040
0.0
1040
480.000003226523
1040
266.058199541699
1040
314.414170067857
1040
50.0
1040
0.0
1040
0.0
1070
    16
1070
   100
1070
     0
1070
     0
1070
     0
1070
     0
1070
     0
1070
     0
1040
0.0
1040
0.0
1040
0.0
1040
1.0
1040
1.0
1040
0.0
1040
0.0
1070
     0
1002
{
1002
}
1002
}
  0
INSERT
  5
2A59
330
28FB
100
AcDbEntity
 67
     1
  8
図枠太線
100
AcDbBlockReference
  2
A3横用_タイトル
 10
-0.352109406709
 20
-2.129314295396
 30
0.0
  0
MTEXT
  5
2E70
330
28FB
100
AcDbEntity
 67
     1
  8
寸法線
 48
10.0
100
AcDbMText
 10
276.583861421604
 20
50.409704435936
 30
0.0
 40
5.0
 41
59.487124795261
 71
     1
 72
     5
  1
A3縮小図
  0
MTEXT
  5
2E71
330
28FB
100
AcDbEntity
 67
     1
  8
寸法線
 48
10.0
100
AcDbMText
 10
374.066205443743
 20
50.249424629171
 30
0.0
 40
5.0
 41
34.444444444444
 71
     1
 72
     5
  1
台数   台
  0
LINE
  5
2E72
330
28FB
100
AcDbEntity
 67
     1
  8
寸法線
 48
10.0
100
AcDbLine
 10
275.650239470559
 20
44.026105349677
 30
0.0
 11
301.285103080376
 21
44.026105349677
 31
0.0
  0
MTEXT
  5
2E85
330
28FB
100
AcDbEntity
 67
     1
  8
寸法線
 48
10.0
100
AcDbMText
 10
149.12611673873
 20
14.255245025413
 30
0.0
 40
5.0
 41
11.452149180996
 71
     1
 72
     5
  1
{\H1.4x;1:2}
  0
MTEXT
  5
47EA
330
28FB
100
AcDbEntity
 67
     1
  8
寸法線
 48
10.0
100
AcDbMText
 10
223.380694161287
 20
38.270360358157
 30
0.0
 40
4.5
 41
100.0
 71
     1
 72
     5
  1
タンク内温度：max.150℃
  0
MTEXT
  5
6352
102
{ACAD_XDICTIONARY
360
6353
102
}
330
28FB
100
AcDbEntity
 67
     1
  8
寸法線
 48
10.0
100
AcDbMText
 10
178.291713392339
 20
12.378255572513
 30
0.0
 40
5.0
 41
31.372065131184
 71
     1
 72
     5
  1
\H0.9x;2016.8.4
1001
ACADANNOTATIVE
1000
AnnotativeData
1002
{
1070
     1
1070
     0
1002
}
  0
MTEXT
  5
6356
102
{ACAD_XDICTIONARY
360
6357
102
}
330
28FB
100
AcDbEntity
 67
     1
  8
寸法線
 48
10.0
100
AcDbMText
 10
173.844001466027
 20
32.126899520275
 30
0.0
 40
5.0
 41
31.372065131184
 71
     1
 72
     5
  1
takahashi
1001
ACADANNOTATIVE
1000
AnnotativeData
1002
{
1070
     1
1070
     0
1002
}
  0
MTEXT
  5
63EA
102
{ACAD_XDICTIONARY
360
63EB
102
}
330
28FB
100
AcDbEntity
 67
     1
  8
寸法線
 48
10.0
100
AcDbMText
 10
310.214176586136
 20
32.963791899491
 30
0.0
 40
6.0
 41
58.239684951579
 71
     1
 72
     5
  1
TSA-B1SA-□
1001
ACADANNOTATIVE
1000
AnnotativeData
1002
{
1070
     1
1070
     0
1002
}
  0
MTEXT
  5
641C
330
28FB
100
AcDbEntity
 67
     1
  8
寸法線
 48
10.0
100
AcDbMText
 10
370.673835800578
 20
36.896622040696
 30
0.0
 40
4.0
 41
39.417543602742
 71
     1
 72
     5
  1
{\H1.125x;静電容量式\Pレベルセンサ}
  0
MTEXT
  5
644F
102
{ACAD_XDICTIONARY
360
6450
102
}
330
28FB
100
AcDbEntity
 67
     1
  8
寸法線
 48
10.0
100
AcDbMText
 10
338.952685188947
 20
15.49393312214
 30
0.0
 40
8.0
 41
33.206594841881
 71
     1
 72
     5
  1
HE-11008
1001
ACADANNOTATIVE
1000
AnnotativeData
1002
{
1070
     1
1070
     0
1002
}
  0
ENDSEC
  0
SECTION
  2
OBJECTS
  0
DICTIONARY
  5
C
330
0
100
AcDbDictionary
  3
ACAD_COLOR
350
2948
  3
ACAD_GROUP
350
D
  3
ACAD_LAYOUT
350
2816
  3
ACAD_MATERIAL
350
2947
  3
ACAD_MLEADERSTYLE
350
5E22
  3
ACAD_MLINESTYLE
350
E
  3
ACAD_PLOTSETTINGS
350
2817
  3
ACAD_SCALELIST
350
5DFB
  3
ACAD_VISUALSTYLE
350
5DE2
  3
ACDBHEADERROUNDTRIPXREC
350
6549
  3
ACDBVARIABLEDICTIONARY
350
5ED6
  3
DWGPROPS
350
656F
  0
DICTIONARY
  5
6570
330
8
100
AcDbDictionary
280
     1
  3
ACAD_XREC_ROUNDTRIP
360
6571
  0
DICTIONARY
  5
29EA
330
2
100
AcDbDictionary
280
     1
  3
ACAD_LAYERFILTERS
360
2B0C
  3
ACAD_LAYERSTATES
360
29EB
  0
DICTIONARY
  5
53CC
330
1A
100
AcDbDictionary
280
     1
  3
ACAD_SORTENTS
360
53CD
  0
DICTIONARY
  5
5EA2
330
5EA1
100
AcDbDictionary
280
     1
  3
ACDBCONTEXTDATAMANAGER
360
5EA3
  0
DICTIONARY
  5
5EBB
330
5EBA
100
AcDbDictionary
280
     1
  3
ACDBCONTEXTDATAMANAGER
360
5EBC
  0
DICTIONARY
  5
5F9D
330
5F9C
100
AcDbDictionary
280
     1
  3
ACDBCONTEXTDATAMANAGER
360
5F9E
  0
DICTIONARY
  5
5FA1
330
5FA0
100
AcDbDictionary
280
     1
  3
ACDBCONTEXTDATAMANAGER
360
5FA2
  0
DICTIONARY
  5
5FA5
330
5FA4
100
AcDbDictionary
280
     1
  3
ACDBCONTEXTDATAMANAGER
360
5FA6
  0
DICTIONARY
  5
5FA9
330
5FA8
100
AcDbDictionary
280
     1
  3
ACDBCONTEXTDATAMANAGER
360
5FAA
  0
DICTIONARY
  5
5FAD
330
5FAC
100
AcDbDictionary
280
     1
  3
ACDBCONTEXTDATAMANAGER
360
5FAE
  0
DICTIONARY
  5
5FB1
330
5FB0
100
AcDbDictionary
280
     1
  3
ACDBCONTEXTDATAMANAGER
360
5FB2
  0
DICTIONARY
  5
5FB5
330
5FB4
100
AcDbDictionary
280
     1
  3
ACDBCONTEXTDATAMANAGER
360
5FB6
  0
DICTIONARY
  5
5FB9
330
5FB8
100
AcDbDictionary
280
     1
  3
ACDBCONTEXTDATAMANAGER
360
5FBA
  0
DICTIONARY
  5
6353
330
6352
100
AcDbDictionary
280
     1
  3
ACDBCONTEXTDATAMANAGER
360
6354
  0
DICTIONARY
  5
6357
330
6356
100
AcDbDictionary
280
     1
  3
ACDBCONTEXTDATAMANAGER
360
6358
  0
DICTIONARY
  5
63EB
330
63EA
100
AcDbDictionary
280
     1
  3
ACDBCONTEXTDATAMANAGER
360
63EC
  0
DICTIONARY
  5
6450
330
644F
100
AcDbDictionary
280
     1
  3
ACDBCONTEXTDATAMANAGER
360
6451
  0
DICTIONARY
  5
2948
102
{ACAD_REACTORS
330
C
102
}
330
C
100
AcDbDictionary
  0
DICTIONARY
  5
D
102
{ACAD_REACTORS
330
C
102
}
330
C
100
AcDbDictionary
  3
*A1
350
447F
  0
DICTIONARY
  5
2816
102
{ACAD_REACTORS
330
C
102
}
330
C
100
AcDbDictionary
  0
DICTIONARY
  5
2947
102
{ACAD_REACTORS
330
C
102
}
330
C
100
AcDbDictionary
  3
BYBLOCK
350
5E1E
  3
BYLAYER
350
5E1D
  3
GLOBAL
350
5E1F
  0
DICTIONARY
  5
5E22
102
{ACAD_REACTORS
330
C
102
}
330
C
100
AcDbDictionary
  3
STANDARD
350
5E23
  0
DICTIONARY
  5
E
102
{ACAD_REACTORS
330
C
102
}
330
C
100
AcDbDictionary
  3
STANDARD
350
13
  0
DICTIONARY
  5
2817
102
{ACAD_REACTORS
330
C
102
}
330
C
100
AcDbDictionary
  0
DICTIONARY
  5
5DFB
102
{ACAD_REACTORS
330
C
102
}
330
C
100
AcDbDictionary
  3
A0
350
5DFC
  3
A1
350
5DFD
  3
A2
350
5DFE
  3
A3
350
5DFF
  3
A4
350
5E00
  3
A5
350
5E01
  3
A6
350
5E02
  3
A7
350
5E03
  3
A8
350
5E04
  3
A9
350
5E05
  3
B0
350
5E06
  3
B1
350
5E07
  3
B2
350
5E08
  3
B3
350
5E09
  3
B4
350
5E0A
  3
B5
350
5E0B
  3
B6
350
5E0C
  3
B7
350
5E0D
  3
B8
350
5E0E
  3
B9
350
5E0F
  3
C0
350
5E10
  3
C1
350
5E11
  3
C2
350
5E12
  3
C3
350
5E13
  3
C4
350
5E14
  3
C5
350
5E15
  3
C6
350
5E16
  3
C7
350
5E17
  3
C8
350
5E18
  3
C9
350
5E19
  3
D0
350
5E1A
  3
D1
350
5E1B
  3
D2
350
5E1C
  0
DICTIONARY
  5
5DE2
102
{ACAD_REACTORS
330
C
102
}
330
C
100
AcDbDictionary
  3
2DWIREFRAME
350
5DE7
  3
BASIC
350
5DEA
  3
BRIGHTEN
350
5DEE
  3
COLORCHANGE
350
5DF2
  3
CONCEPTUAL
350
5DEC
  3
DIM
350
5DED
  3
EDGECOLOROFF
350
5DF5
  3
FACEPATTERN
350
5DF1
  3
FLAT
350
5DE3
  3
FLATWITHEDGES
350
5DE4
  3
GOURAUD
350
5DE5
  3
GOURAUDWITHEDGES
350
5DE6
  3
HIDDEN
350
5DE9
  3
JITTEROFF
350
5DF3
  3
LINEPATTERN
350
5DF0
  3
MODELING
350
6125
  3
OVERHANGOFF
350
5DF4
  3
REALISTIC
350
5DEB
  3
SHADED
350
5DFA
  3
Shaded with edges
350
6544
  3
SHADED_WITH_EDGE0
350
5DF9
  3
Shades of Gray
350
6543
  3
SHADES_OF_GRA0
350
5DF6
  3
SKETCHY
350
5DF7
  3
THICKEN
350
5DEF
  3
WIREFRAME
350
5DE8
  3
X-RAY
350
5DF8
  0
DICTIONARY
  5
6549
102
{ACAD_REACTORS
330
C
102
}
330
C
100
AcDbDictionary
  3
CEPSNID
350
6553
  3
CEPSNTYPE
350
6552
  3
COLORDICT
350
656D
  3
DIMSTYLEDATA
350
6569
  3
FINGERPRINTGUID
350
6554
  3
HYPERLINKBASE
350
654C
  3
INSUNITS
350
6551
  3
LAYOUTDICT
350
654E
  3
LWETCUNION
350
6550
  3
MATERIALDICT
350
656E
  3
PLOTSETDICT
350
654F
  3
PSVPSCALE
350
6556
  3
PUCSBASE
350
6559
  3
PUCSORGBACK
350
655F
  3
PUCSORGBOTTOM
350
655B
  3
PUCSORGFRONT
350
655E
  3
PUCSORGLEFT
350
655C
  3
PUCSORGRIGHT
350
655D
  3
PUCSORGTOP
350
655A
  3
PUCSORTHOREF
350
6557
  3
PUCSORTHOVIEW
350
6558
  3
STYLESHEET
350
654D
  3
TSTACKALIGN
350
654A
  3
TSTACKSIZE
350
654B
  3
UCSBASE
350
6562
  3
UCSORGBACK
350
6568
  3
UCSORGBOTTOM
350
6564
  3
UCSORGFRONT
350
6567
  3
UCSORGLEFT
350
6565
  3
UCSORGRIGHT
350
6566
  3
UCSORGTOP
350
6563
  3
UCSORTHOREF
350
6560
  3
UCSORTHOVIEW
350
6561
  3
VERSIONGUID
350
6555
  0
DICTIONARY
  5
5ED6
102
{ACAD_REACTORS
330
C
102
}
330
C
100
AcDbDictionary
  3
CANNOSCALE
350
6572
  3
CMLEADERSTYLE
350
5ED9
  3
CTABLESTYLE
350
656A
  3
DIMASSOC
350
6531
  3
HIDETEXT
350
6532
  3
MSLTSCALE
350
5EDA
  3
XCLIPFRAME
350
5EDB
  0
XRECORD
  5
656F
102
{ACAD_REACTORS
330
C
102
}
330
C
100
AcDbXrecord
  1
DWGPROPS COOKIE
  2

  3

  4

  6

  7

  8
takahashi
  9

300
=
301
=
302
=
303
=
304
=
305
=
306
=
307
=
308
=
309
=
 40
0.0
 41
2450576.222302431
 42
2457627.290794109
  1

 90
        0
  0
XRECORD
  5
6571
102
{ACAD_REACTORS
330
6570
102
}
330
6570
100
AcDbXrecord
102
VTR_0.000_0.000_1.000_1.000_GRIDDISPLAY
 70
     3
102
VTR_0.000_0.000_1.000_1.000_GRIDMAJOR
 70
     5
102
VTR_0.000_0.000_1.000_1.000_DEFAULTLIGHTING
280
     1
102
VTR_0.000_0.000_1.000_1.000_DEFAULTLIGHTINGTYPE
 70
     1
102
VTR_0.000_0.000_1.000_1.000_BRIGHTNESS
141
0.0
102
VTR_0.000_0.000_1.000_1.000_CONTRAST
142
0.0
  0
DICTIONARY
  5
2B0C
102
{ACAD_REACTORS
330
29EA
102
}
330
29EA
100
AcDbDictionary
  0
DICTIONARY
  5
29EB
102
{ACAD_REACTORS
330
29EA
102
}
330
29EA
100
AcDbDictionary
  0
SORTENTSTABLE
  5
53CD
102
{ACAD_REACTORS
330
53CC
102
}
330
53CC
100
AcDbSortentsTable
330
1A
331
31A0
  5
3541
331
3541
  5
41FD
331
441A
  5
441B
331
441B
  5
441C
331
441E
  5
441F
331
441F
  5
4420
331
4420
  5
4421
331
4421
  5
4422
331
4422
  5
4423
331
4423
  5
4481
331
4481
  5
4658
331
4EA8
  5
4EA9
331
0
  5
4EC9
331
0
  5
4EF0
331
0
  5
2D37
331
5375
  5
5375
331
5382
  5
5382
331
538F
  5
538F
331
539C
  5
539C
  0
DICTIONARY
  5
5EA3
102
{ACAD_REACTORS
330
5EA2
102
}
330
5EA2
100
AcDbDictionary
  3
ACDB_ANNOTATIONSCALES
350
5EA4
  0
DICTIONARY
  5
5EBC
102
{ACAD_REACTORS
330
5EBB
102
}
330
5EBB
100
AcDbDictionary
  3
ACDB_ANNOTATIONSCALES
350
5EBD
  0
DICTIONARY
  5
5F9E
102
{ACAD_REACTORS
330
5F9D
102
}
330
5F9D
100
AcDbDictionary
  3
ACDB_ANNOTATIONSCALES
350
5F9F
  0
DICTIONARY
  5
5FA2
102
{ACAD_REACTORS
330
5FA1
102
}
330
5FA1
100
AcDbDictionary
  3
ACDB_ANNOTATIONSCALES
350
5FA3
  0
DICTIONARY
  5
5FA6
102
{ACAD_REACTORS
330
5FA5
102
}
330
5FA5
100
AcDbDictionary
  3
ACDB_ANNOTATIONSCALES
350
5FA7
  0
DICTIONARY
  5
5FAA
102
{ACAD_REACTORS
330
5FA9
102
}
330
5FA9
100
AcDbDictionary
  3
ACDB_ANNOTATIONSCALES
350
5FAB
  0
DICTIONARY
  5
5FAE
102
{ACAD_REACTORS
330
5FAD
102
}
330
5FAD
100
AcDbDictionary
  3
ACDB_ANNOTATIONSCALES
350
5FAF
  0
DICTIONARY
  5
5FB2
102
{ACAD_REACTORS
330
5FB1
102
}
330
5FB1
100
AcDbDictionary
  3
ACDB_ANNOTATIONSCALES
350
5FB3
  0
DICTIONARY
  5
5FB6
102
{ACAD_REACTORS
330
5FB5
102
}
330
5FB5
100
AcDbDictionary
  3
ACDB_ANNOTATIONSCALES
350
5FB7
  0
DICTIONARY
  5
5FBA
102
{ACAD_REACTORS
330
5FB9
102
}
330
5FB9
100
AcDbDictionary
  3
ACDB_ANNOTATIONSCALES
350
5FBB
  0
DICTIONARY
  5
6354
102
{ACAD_REACTORS
330
6353
102
}
330
6353
100
AcDbDictionary
  3
ACDB_ANNOTATIONSCALES
350
6355
  0
DICTIONARY
  5
6358
102
{ACAD_REACTORS
330
6357
102
}
330
6357
100
AcDbDictionary
  3
ACDB_ANNOTATIONSCALES
350
6359
  0
DICTIONARY
  5
63EC
102
{ACAD_REACTORS
330
63EB
102
}
330
63EB
100
AcDbDictionary
  3
ACDB_ANNOTATIONSCALES
350
63ED
  0
DICTIONARY
  5
6451
102
{ACAD_REACTORS
330
6450
102
}
330
6450
100
AcDbDictionary
  3
ACDB_ANNOTATIONSCALES
350
6452
  0
GROUP
  5
447F
102
{ACAD_REACTORS
330
D
102
}
330
D
100
AcDbGroup
300

 70
     1
 71
     1
340
4423
340
4422
340
4421
340
4420
340
441F
  0
MATERIAL
  5
5E1E
102
{ACAD_REACTORS
330
2947
102
}
102
{ACAD_XDICTIONARY
360
6573
102
}
330
2947
100
AcDbMaterial
  1
BYBLOCK
  0
MATERIAL
  5
5E1D
102
{ACAD_REACTORS
330
2947
102
}
102
{ACAD_XDICTIONARY
360
6575
102
}
330
2947
100
AcDbMaterial
  1
BYLAYER
  0
MATERIAL
  5
5E1F
102
{ACAD_REACTORS
330
2947
102
}
102
{ACAD_XDICTIONARY
360
6577
102
}
330
2947
100
AcDbMaterial
  1
GLOBAL
  0
ACAD_PROXY_OBJECT
  5
5E23
102
{ACAD_REACTORS
330
5E22
102
}
330
5E22
100
AcDbProxyObject
 90
      499
 91
      508
 93
      610
310
40901902A4063FBFFFFFE0000000000000020400000000000020404214DD185B99185C990000000000000104090141901A00000000000004100000000000000041025764000000000000039000
340
14
340
0
340
10
340
0
 94
        0
1001
ACAD_MLEADERVER
1070
     2
  0
MLINESTYLE
  5
13
102
{ACAD_REACTORS
330
E
102
}
330
E
100
AcDbMlineStyle
  2
STANDARD
 70
     0
  3

 62
     0
 51
90.0
 52
90.0
 71
     2
 49
0.5
 62
   256
  6
BYLAYER
 49
-0.5
 62
   256
  6
BYLAYER
  0
ACAD_PROXY_OBJECT
  5
5DFC
102
{ACAD_REACTORS
330
5DFB
102
}
330
5DFB
100
AcDbProxyObject
 90
      499
 91
      505
 93
       41
310
903313A31580
  0
ACAD_PROXY_OBJECT
  5
5DFD
102
{ACAD_REACTORS
330
5DFB
102
}
330
5DFB
100
AcDbProxyObject
 90
      499
 91
      505
 93
      105
310
903313A324000000000000004000
  0
ACAD_PROXY_OBJECT
  5
5DFE
102
{ACAD_REACTORS
330
5DFB
102
}
330
5DFB
100
AcDbProxyObject
 90
      499
 91
      505
 93
      105
310
903313A344000000000000104000
  0
ACAD_PROXY_OBJECT
  5
5DFF
102
{ACAD_REACTORS
330
5DFB
102
}
330
5DFB
100
AcDbProxyObject
 90
      499
 91
      505
 93
      105
310
903313A354000000000000144000
  0
ACAD_PROXY_OBJECT
  5
5E00
102
{ACAD_REACTORS
330
5DFB
102
}
330
5DFB
100
AcDbProxyObject
 90
      499
 91
      505
 93
      105
310
903313A384000000000000204000
  0
ACAD_PROXY_OBJECT
  5
5E01
102
{ACAD_REACTORS
330
5DFB
102
}
330
5DFB
100
AcDbProxyObject
 90
      499
 91
      505
 93
      113
310
904313A31304000000000000244000
  0
ACAD_PROXY_OBJECT
  5
5E02
102
{ACAD_REACTORS
330
5DFB
102
}
330
5DFB
100
AcDbProxyObject
 90
      499
 91
      505
 93
      113
310
904313A31364000000000000304000
  0
ACAD_PROXY_OBJECT
  5
5E03
102
{ACAD_REACTORS
330
5DFB
102
}
330
5DFB
100
AcDbProxyObject
 90
      499
 91
      505
 93
      113
310
904313A32304000000000000344000
  0
ACAD_PROXY_OBJECT
  5
5E04
102
{ACAD_REACTORS
330
5DFB
102
}
330
5DFB
100
AcDbProxyObject
 90
      499
 91
      505
 93
      113
310
904313A333040000000000003E4000
  0
ACAD_PROXY_OBJECT
  5
5E05
102
{ACAD_REACTORS
330
5DFB
102
}
330
5DFB
100
AcDbProxyObject
 90
      499
 91
      505
 93
      113
310
904313A34304000000000000444000
  0
ACAD_PROXY_OBJECT
  5
5E06
102
{ACAD_REACTORS
330
5DFB
102
}
330
5DFB
100
AcDbProxyObject
 90
      499
 91
      505
 93
      113
310
904313A35304000000000000494000
  0
ACAD_PROXY_OBJECT
  5
5E07
102
{ACAD_REACTORS
330
5DFB
102
}
330
5DFB
100
AcDbProxyObject
 90
      499
 91
      505
 93
      121
310
905313A3130304000000000000594000
  0
ACAD_PROXY_OBJECT
  5
5E08
102
{ACAD_REACTORS
330
5DFB
102
}
330
5DFB
100
AcDbProxyObject
 90
      499
 91
      505
 93
      105
310
903323A310000000000000010100
  0
ACAD_PROXY_OBJECT
  5
5E09
102
{ACAD_REACTORS
330
5DFB
102
}
330
5DFB
100
AcDbProxyObject
 90
      499
 91
      505
 93
      105
310
903343A310000000000000410100
  0
ACAD_PROXY_OBJECT
  5
5E0A
102
{ACAD_REACTORS
330
5DFB
102
}
330
5DFB
100
AcDbProxyObject
 90
      499
 91
      505
 93
      105
310
903383A310000000000000810100
  0
ACAD_PROXY_OBJECT
  5
5E0B
102
{ACAD_REACTORS
330
5DFB
102
}
330
5DFB
100
AcDbProxyObject
 90
      499
 91
      505
 93
      113
310
90431303A310000000000000910100
  0
ACAD_PROXY_OBJECT
  5
5E0C
102
{ACAD_REACTORS
330
5DFB
102
}
330
5DFB
100
AcDbProxyObject
 90
      499
 91
      505
 93
      121
310
9053130303A310000000000001650100
  0
ACAD_PROXY_OBJECT
  5
5E0D
102
{ACAD_REACTORS
330
5DFB
102
}
330
5DFB
100
AcDbProxyObject
 90
      499
 91
      505
 93
      257
310
90E312F31323822203D2031272D3022000000000000200FC000000000000284000
  0
ACAD_PROXY_OBJECT
  5
5E0E
102
{ACAD_REACTORS
330
5DFB
102
}
330
5DFB
100
AcDbProxyObject
 90
      499
 91
      505
 93
      249
310
90D312F363422203D2031272D3022000000000000240FC000000000000284000
  0
ACAD_PROXY_OBJECT
  5
5E0F
102
{ACAD_REACTORS
330
5DFB
102
}
330
5DFB
100
AcDbProxyObject
 90
      499
 91
      505
 93
      249
310
90D312F333222203D2031272D3022000000000000280FC000000000000284000
  0
ACAD_PROXY_OBJECT
  5
5E10
102
{ACAD_REACTORS
330
5DFB
102
}
330
5DFB
100
AcDbProxyObject
 90
      499
 91
      505
 93
      249
310
90D312F313622203D2031272D30220000000000002C0FC000000000000284000
  0
ACAD_PROXY_OBJECT
  5
5E11
102
{ACAD_REACTORS
330
5DFB
102
}
330
5DFB
100
AcDbProxyObject
 90
      499
 91
      505
 93
      249
310
90D332F333222203D2031272D30220000000000002E0FC000000000000284000
  0
ACAD_PROXY_OBJECT
  5
5E12
102
{ACAD_REACTORS
330
5DFB
102
}
330
5DFB
100
AcDbProxyObject
 90
      499
 91
      505
 93
      241
310
90C312F3822203D2031272D3022000000000000300FC000000000000284000
  0
ACAD_PROXY_OBJECT
  5
5E13
102
{ACAD_REACTORS
330
5DFB
102
}
330
5DFB
100
AcDbProxyObject
 90
      499
 91
      505
 93
      249
310
90D332F313622203D2031272D3022000000000000320FC000000000000284000
  0
ACAD_PROXY_OBJECT
  5
5E14
102
{ACAD_REACTORS
330
5DFB
102
}
330
5DFB
100
AcDbProxyObject
 90
      499
 91
      505
 93
      241
310
90C312F3422203D2031272D3022000000000000340FC000000000000284000
  0
ACAD_PROXY_OBJECT
  5
5E15
102
{ACAD_REACTORS
330
5DFB
102
}
330
5DFB
100
AcDbProxyObject
 90
      499
 91
      505
 93
      241
310
90C332F3822203D2031272D3022000000000000360FC000000000000284000
  0
ACAD_PROXY_OBJECT
  5
5E16
102
{ACAD_REACTORS
330
5DFB
102
}
330
5DFB
100
AcDbProxyObject
 90
      499
 91
      505
 93
      241
310
90C312F3222203D2031272D3022000000000000380FC000000000000284000
  0
ACAD_PROXY_OBJECT
  5
5E17
102
{ACAD_REACTORS
330
5DFB
102
}
330
5DFB
100
AcDbProxyObject
 90
      499
 91
      505
 93
      241
310
90C332F3422203D2031272D30220000000000003A0FC000000000000284000
  0
ACAD_PROXY_OBJECT
  5
5E18
102
{ACAD_REACTORS
330
5DFB
102
}
330
5DFB
100
AcDbProxyObject
 90
      499
 91
      505
 93
      161
310
90A3122203D2031272D30224000000000000284000
  0
ACAD_PROXY_OBJECT
  5
5E19
102
{ACAD_REACTORS
330
5DFB
102
}
330
5DFB
100
AcDbProxyObject
 90
      499
 91
      505
 93
      257
310
90E312D312F3222203D2031272D30220000000000003E0FC000000000000284000
  0
ACAD_PROXY_OBJECT
  5
5E1A
102
{ACAD_REACTORS
330
5DFB
102
}
330
5DFB
100
AcDbProxyObject
 90
      499
 91
      505
 93
      225
310
90A3322203D2031272D302200000000000002100000000000000284000
  0
ACAD_PROXY_OBJECT
  5
5E1B
102
{ACAD_REACTORS
330
5DFB
102
}
330
5DFB
100
AcDbProxyObject
 90
      499
 91
      505
 93
      225
310
90A3622203D2031272D302200000000000006100000000000000284000
  0
ACAD_PROXY_OBJECT
  5
5E1C
102
{ACAD_REACTORS
330
5DFB
102
}
330
5DFB
100
AcDbProxyObject
 90
      499
 91
      505
 93
      249
310
90D31272D3022203D2031272D30220000000000000A100000000000000284000
  0
ACAD_PROXY_OBJECT
  5
5DE7
102
{ACAD_REACTORS
330
5DE2
102
}
330
5DE2
100
AcDbProxyObject
 90
      499
 91
      504
 93
      436
310
42CC9915DA5C99599C985B595049028333333333333E33F0000000000000F90107901411070040501600405405064090741402480A0340
1001
ACAD
1000
AcDbSavedByObjectVersion
1070
     0
  0
ACAD_PROXY_OBJECT
  5
5DEA
102
{ACAD_REACTORS
330
5DE2
102
}
330
5DE2
100
AcDbProxyObject
 90
      499
 91
      504
 93
      388
310
4150985CDA58D07406404333333333333E33F0000000000000F90107A41107004050150841D405064090741402480A0350
1001
ACAD
1000
AcDbSavedByObjectVersion
1070
     0
  0
ACAD_PROXY_OBJECT
  5
5DEE
102
{ACAD_REACTORS
330
5DE2
102
}
330
5DE2
100
AcDbProxyObject
 90
      499
 91
      504
 93
      428
310
42109C9A59DA1D195B90C409028333333333333E33F0000000000000F9010790141107004050150841D405064090741402480A029950
1001
ACAD
1000
AcDbSavedByObjectVersion
1070
     0
  0
ACAD_PROXY_OBJECT
  5
5DF2
102
{ACAD_REACTORS
330
5DE2
102
}
330
5DE2
100
AcDbProxyObject
 90
      499
 91
      504
 93
      452
310
42D0DBDB1BDC90DA185B99D95104090240C333333333333E33F0000000000000F90108901411070040501508421405064090741402480A0350
1001
ACAD
1000
AcDbSavedByObjectVersion
1070
     0
  0
ACAD_PROXY_OBJECT
  5
5DEC
102
{ACAD_REACTORS
330
5DE2
102
}
330
5DE2
100
AcDbProxyObject
 90
      499
 91
      504
 93
      500
310
4290DBDB98D95C1D1D585B10940D028333333333333E33F0000000000000F90107902409070040501000000000018199010841D405064090740C02480A0340
1001
ACAD
1000
AcDbSavedByObjectVersion
1070
     0
  0
ACAD_PROXY_OBJECT
  5
5DED
102
{ACAD_REACTORS
330
5DE2
102
}
330
5DE2
100
AcDbProxyObject
 90
      499
 91
      504
 93
      412
310
40D11A5B50B409028333333333333E33F0000000000000F9010790141107004050150841D405064090741402480A02677FFFFFD0
1001
ACAD
1000
AcDbSavedByObjectVersion
1070
     0
  0
ACAD_PROXY_OBJECT
  5
5DF5
102
{ACAD_REACTORS
330
5DE2
102
}
330
5DE2
100
AcDbProxyObject
 90
      499
 91
      504
 93
      452
310
43115919D950DBDB1BDC93D999916409028333333333333E33F0000000000000F9010790141107004050150841D405064090741402480A0350
1001
ACAD
1000
AcDbSavedByObjectVersion
1070
     0
  0
ACAD_PROXY_OBJECT
  5
5DF1
102
{ACAD_REACTORS
330
5DE2
102
}
330
5DE2
100
AcDbProxyObject
 90
      499
 91
      504
 93
      444
310
42D19858D95C185D1D195C9B90F409028333333333333E33F0000000000000F9010790141107004050150841D405064090741402480A0350
1001
ACAD
1000
AcDbSavedByObjectVersion
1070
     0
  0
ACAD_PROXY_OBJECT
  5
5DE3
102
{ACAD_REACTORS
330
5DE2
102
}
330
5DE2
100
AcDbProxyObject
 90
      499
 91
      504
 93
      380
310
41119B185D240901404333333333333E33F0000000000000F9010740A907004050150841D405064090741402480A1B50
1001
ACAD
1000
AcDbSavedByObjectVersion
1070
     0
  0
ACAD_PROXY_OBJECT
  5
5DE4
102
{ACAD_REACTORS
330
5DE2
102
}
330
5DE2
100
AcDbProxyObject
 90
      499
 91
      504
 93
      468
310
43519B185D15DA5D1A115919D95CD0140901404333333333333E33F0000000000000F90107409019070040501600405405064090741402480A1B50
1001
ACAD
1000
AcDbSavedByObjectVersion
1070
     0
  0
ACAD_PROXY_OBJECT
  5
5DE5
102
{ACAD_REACTORS
330
5DE2
102
}
330
5DE2
100
AcDbProxyObject
 90
      499
 91
      504
 93
      404
310
41D1DBDD5C985D5910240902404333333333333E33F0000000000000F9010740A9070040501641D405064090741402480A1B50
1001
ACAD
1000
AcDbSavedByObjectVersion
1070
     0
  0
ACAD_PROXY_OBJECT
  5
5DE6
102
{ACAD_REACTORS
330
5DE2
102
}
330
5DE2
100
AcDbProxyObject
 90
      499
 91
      504
 93
      492
310
4411DBDD5C985D5915DA5D1A115919D95CD0340902404333333333333E33F0000000000000F90107409019070040501600405405064090741402480A1B50
1001
ACAD
1000
AcDbSavedByObjectVersion
1070
     0
  0
ACAD_PROXY_OBJECT
  5
5DE9
102
{ACAD_REACTORS
330
5DE2
102
}
330
5DE2
100
AcDbProxyObject
 90
      499
 91
      504
 93
      476
310
41921A5919195B90640502408333333333333E33F0000000000000F901079024090700405020000000000001110200405405064090740C02480A0340
1001
ACAD
1000
AcDbSavedByObjectVersion
1070
     0
  0
ACAD_PROXY_OBJECT
  5
5DF3
102
{ACAD_REACTORS
330
5DE2
102
}
330
5DE2
100
AcDbProxyObject
 90
      499
 91
      504
 93
      428
310
42529A5D1D195C93D999914409028333333333333E33F0000000000000F9010790141107004050150A41D405064090741402480A0350
1001
ACAD
1000
AcDbSavedByObjectVersion
1070
     0
  0
ACAD_PROXY_OBJECT
  5
5DF0
102
{ACAD_REACTORS
330
5DE2
102
}
330
5DE2
100
AcDbProxyObject
 90
      499
 91
      504
 93
      444
310
42D31A5B995C185D1D195C9B90E409028333333333333E33F0000000000000F9010790141107004050750841D405064090741402483A0350
1001
ACAD
1000
AcDbSavedByObjectVersion
1070
     0
  0
ACAD_PROXY_OBJECT
  5
6125
102
{ACAD_REACTORS
330
5DE2
102
}
330
5DE2
100
AcDbProxyObject
 90
      499
 91
      504
 93
      412
310
90A409038333333333333E33F0000000000000F901074090290700405010000000000201990108421405064090741402480A1B40
1001
ACAD
1000
AcDbSavedByObjectVersion
1070
     0
  0
ACAD_PROXY_OBJECT
  5
5DF4
102
{ACAD_REACTORS
330
5DE2
102
}
330
5DE2
100
AcDbProxyObject
 90
      499
 91
      504
 93
      444
310
42D3DD995C9A185B99D3D999915409028333333333333E33F0000000000000F9010790141107004050150941D405064090741402480A0350
1001
ACAD
1000
AcDbSavedByObjectVersion
1070
     0
  0
ACAD_PROXY_OBJECT
  5
5DEB
102
{ACAD_REACTORS
330
5DE2
102
}
330
5DE2
100
AcDbProxyObject
 90
      499
 91
      504
 93
      428
310
425499585B1A5CDD1A58D08409038333333333333E33F0000000000000F9010740A907004050150800405405064090740C02480A1B40
1001
ACAD
1000
AcDbSavedByObjectVersion
1070
     0
  0
ACAD_PROXY_OBJECT
  5
5DFA
102
{ACAD_REACTORS
330
5DE2
102
}
330
5DE2
100
AcDbProxyObject
 90
      499
 91
      504
 93
      420
310
4194DA1859195911B40902404333333333333E33F0000000000000F9010740A41107004050150800405405064090840C02480A0B40
1001
ACAD
1000
AcDbSavedByObjectVersion
1070
     0
  0
ACAD_PROXY_OBJECT
  5
6544
102
{ACAD_REACTORS
330
5DE2
102
}
330
5DE2
100
AcDbProxyObject
 90
      499
 91
      504
 93
      516
310
4454DA18591959081DDA5D1A08195919D95CD1A40902404333333333333E33F0000000000000F901074090142907004050250800405405064090740C02480A0B40
1001
ACAD
1000
AcDbSavedByObjectVersion
1070
     0
  0
ACAD_PROXY_OBJECT
  5
5DF9
102
{ACAD_REACTORS
330
5DE2
102
}
330
5DE2
100
AcDbProxyObject
 90
      499
 91
      504
 93
      516
310
4454DA18591959081DDA5D1A08195919D95CD1A40902404333333333333E33F0000000000000F901074090142907004050250800405405064090740C02480A0B40
1001
ACAD
1000
AcDbSavedByObjectVersion
1070
     0
  0
ACAD_PROXY_OBJECT
  5
6543
102
{ACAD_REACTORS
330
5DE2
102
}
330
5DE2
100
AcDbProxyObject
 90
      499
 91
      504
 93
      532
310
4394DA1859195CC81BD98811DC985E5174090240C333333333333E33F0000000000000F901079024090741D01000000000000111010841D405064090740C02480A0340
1001
ACAD
1000
AcDbSavedByObjectVersion
1070
     0
  0
ACAD_PROXY_OBJECT
  5
5DF6
102
{ACAD_REACTORS
330
5DE2
102
}
330
5DE2
100
AcDbProxyObject
 90
      499
 91
      504
 93
      532
310
4394DA1859195CC81BD98811DC985E5174090240C333333333333E33F0000000000000F901079024090741D01000000000000111010841D405064090740C02480A0340
1001
ACAD
1000
AcDbSavedByObjectVersion
1070
     0
  0
ACAD_PROXY_OBJECT
  5
5DF7
102
{ACAD_REACTORS
330
5DE2
102
}
330
5DE2
100
AcDbProxyObject
 90
      499
 91
      504
 93
      476
310
41D4DAD95D18DA1E51840502408333333333333E33F0000000000000F901079024090741D01000000000000111010B41D405064090741802480A0340
1001
ACAD
1000
AcDbSavedByObjectVersion
1070
     0
  0
ACAD_PROXY_OBJECT
  5
5DEF
102
{ACAD_REACTORS
330
5DE2
102
}
330
5DE2
100
AcDbProxyObject
 90
      499
 91
      504
 93
      412
310
41D51A1A58DAD95B90D409028333333333333E33F0000000000000F9010790141107004050150C41D405064090741402480A0350
1001
ACAD
1000
AcDbSavedByObjectVersion
1070
     0
  0
ACAD_PROXY_OBJECT
  5
5DE8
102
{ACAD_REACTORS
330
5DE2
102
}
330
5DE2
100
AcDbProxyObject
 90
      499
 91
      504
 93
      420
310
4255DA5C99599C985B595059028333333333333E33F0000000000000F90107901411070040501600405405064090740C02480A0340
1001
ACAD
1000
AcDbSavedByObjectVersion
1070
     0
  0
ACAD_PROXY_OBJECT
  5
5DF8
102
{ACAD_REACTORS
330
5DE2
102
}
330
5DE2
100
AcDbProxyObject
 90
      499
 91
      504
 93
      404
310
41560B54985E51940902404000000000000E03F0000000000000F9010740501907004050150841D405064090740C02480A1B40
1001
ACAD
1000
AcDbSavedByObjectVersion
1070
     0
  0
XRECORD
  5
6553
102
{ACAD_REACTORS
330
6549
102
}
330
6549
100
AcDbXrecord
340
0
  0
XRECORD
  5
6552
102
{ACAD_REACTORS
330
6549
102
}
330
6549
100
AcDbXrecord
 90
        0
  0
XRECORD
  5
656D
102
{ACAD_REACTORS
330
6549
102
}
330
6549
100
AcDbXrecord
340
2948
  0
XRECORD
  5
6569
102
{ACAD_REACTORS
330
6549
102
}
330
6549
100
AcDbXrecord
1000
DSTYLE
1002
{
1070
   171
 70
     2
1070
   143
 40
0.0394
1070
   274
 70
     2
1070
    41
 40
6.0
1070
   342
340
2AF4
1070
   271
 70
     1
1070
   278
 70
    46
1070
   341
340
2AF4
1070
   272
 70
     1
1070
    48
 40
0.1
1070
   279
 70
     2
1070
   283
 70
     1
1070
    47
 40
0.1
1070
   145
 40
1.0
1070
   340
340
10
1070
   140
 40
8.0
1070
   284
 70
     0
1002
}
  0
XRECORD
  5
6554
102
{ACAD_REACTORS
330
6549
102
}
330
6549
100
AcDbXrecord
  1
{23698909-1D67-4744-B0E2-8DE11E3ED422}
  0
XRECORD
  5
654C
102
{ACAD_REACTORS
330
6549
102
}
330
6549
100
AcDbXrecord
  1

  0
XRECORD
  5
6551
102
{ACAD_REACTORS
330
6549
102
}
330
6549
100
AcDbXrecord
 90
        0
  0
XRECORD
  5
654E
102
{ACAD_REACTORS
330
6549
102
}
330
6549
100
AcDbXrecord
340
2816
  0
XRECORD
  5
6550
102
{ACAD_REACTORS
330
6549
102
}
330
6549
100
AcDbXrecord
 90
    10781
  0
XRECORD
  5
656E
102
{ACAD_REACTORS
330
6549
102
}
330
6549
100
AcDbXrecord
340
2947
  0
XRECORD
  5
654F
102
{ACAD_REACTORS
330
6549
102
}
330
6549
100
AcDbXrecord
340
2817
  0
XRECORD
  5
6556
102
{ACAD_REACTORS
330
6549
102
}
330
6549
100
AcDbXrecord
 40
0.25
  0
XRECORD
  5
6559
102
{ACAD_REACTORS
330
6549
102
}
330
6549
100
AcDbXrecord
340
0
  0
XRECORD
  5
655F
102
{ACAD_REACTORS
330
6549
102
}
330
6549
100
AcDbXrecord
 10
0.0
 20
0.0
 30
0.0
  0
XRECORD
  5
655B
102
{ACAD_REACTORS
330
6549
102
}
330
6549
100
AcDbXrecord
 10
0.0
 20
0.0
 30
0.0
  0
XRECORD
  5
655E
102
{ACAD_REACTORS
330
6549
102
}
330
6549
100
AcDbXrecord
 10
0.0
 20
0.0
 30
0.0
  0
XRECORD
  5
655C
102
{ACAD_REACTORS
330
6549
102
}
330
6549
100
AcDbXrecord
 10
0.0
 20
0.0
 30
0.0
  0
XRECORD
  5
655D
102
{ACAD_REACTORS
330
6549
102
}
330
6549
100
AcDbXrecord
 10
0.0
 20
0.0
 30
0.0
  0
XRECORD
  5
655A
102
{ACAD_REACTORS
330
6549
102
}
330
6549
100
AcDbXrecord
 10
0.0
 20
0.0
 30
0.0
  0
XRECORD
  5
6557
102
{ACAD_REACTORS
330
6549
102
}
330
6549
100
AcDbXrecord
340
0
  0
XRECORD
  5
6558
102
{ACAD_REACTORS
330
6549
102
}
330
6549
100
AcDbXrecord
 70
     0
  0
XRECORD
  5
654D
102
{ACAD_REACTORS
330
6549
102
}
330
6549
100
AcDbXrecord
  1

  0
XRECORD
  5
654A
102
{ACAD_REACTORS
330
6549
102
}
330
6549
100
AcDbXrecord
 90
        1
  0
XRECORD
  5
654B
102
{ACAD_REACTORS
330
6549
102
}
330
6549
100
AcDbXrecord
 90
       70
  0
XRECORD
  5
6562
102
{ACAD_REACTORS
330
6549
102
}
330
6549
100
AcDbXrecord
340
0
  0
XRECORD
  5
6568
102
{ACAD_REACTORS
330
6549
102
}
330
6549
100
AcDbXrecord
 10
0.0
 20
0.0
 30
0.0
  0
XRECORD
  5
6564
102
{ACAD_REACTORS
330
6549
102
}
330
6549
100
AcDbXrecord
 10
0.0
 20
0.0
 30
0.0
  0
XRECORD
  5
6567
102
{ACAD_REACTORS
330
6549
102
}
330
6549
100
AcDbXrecord
 10
0.0
 20
0.0
 30
0.0
  0
XRECORD
  5
6565
102
{ACAD_REACTORS
330
6549
102
}
330
6549
100
AcDbXrecord
 10
0.0
 20
0.0
 30
0.0
  0
XRECORD
  5
6566
102
{ACAD_REACTORS
330
6549
102
}
330
6549
100
AcDbXrecord
 10
0.0
 20
0.0
 30
0.0
  0
XRECORD
  5
6563
102
{ACAD_REACTORS
330
6549
102
}
330
6549
100
AcDbXrecord
 10
0.0
 20
0.0
 30
0.0
  0
XRECORD
  5
6560
102
{ACAD_REACTORS
330
6549
102
}
330
6549
100
AcDbXrecord
340
0
  0
XRECORD
  5
6561
102
{ACAD_REACTORS
330
6549
102
}
330
6549
100
AcDbXrecord
 70
     0
  0
XRECORD
  5
6555
102
{ACAD_REACTORS
330
6549
102
}
330
6549
100
AcDbXrecord
  1
{9DA6BC41-EDC7-47ED-BEEB-6DC623B15A26}
  0
DICTIONARYVAR
  5
6572
102
{ACAD_REACTORS
330
5ED6
102
}
330
5ED6
100
DictionaryVariables
280
     0
  1
1:1
  0
DICTIONARYVAR
  5
5ED9
102
{ACAD_REACTORS
330
5ED6
102
}
330
5ED6
100
DictionaryVariables
280
     0
  1
STANDARD
  0
DICTIONARYVAR
  5
656A
102
{ACAD_REACTORS
330
5ED6
102
}
330
5ED6
100
DictionaryVariables
280
     0
  1
Standard
  0
DICTIONARYVAR
  5
6531
102
{ACAD_REACTORS
330
5ED6
102
}
330
5ED6
100
DictionaryVariables
280
     0
  1
1
  0
DICTIONARYVAR
  5
6532
102
{ACAD_REACTORS
330
5ED6
102
}
330
5ED6
100
DictionaryVariables
280
     0
  1
0
  0
DICTIONARYVAR
  5
5EDA
102
{ACAD_REACTORS
330
5ED6
102
}
330
5ED6
100
DictionaryVariables
280
     0
  1
0
  0
DICTIONARYVAR
  5
5EDB
102
{ACAD_REACTORS
330
5ED6
102
}
330
5ED6
100
DictionaryVariables
280
     0
  1
0
  0
DICTIONARY
  5
5EA4
102
{ACAD_REACTORS
330
5EA3
102
}
330
5EA3
100
AcDbDictionary
  0
DICTIONARY
  5
5EBD
102
{ACAD_REACTORS
330
5EBC
102
}
330
5EBC
100
AcDbDictionary
  0
DICTIONARY
  5
5F9F
102
{ACAD_REACTORS
330
5F9E
102
}
330
5F9E
100
AcDbDictionary
  0
DICTIONARY
  5
5FA3
102
{ACAD_REACTORS
330
5FA2
102
}
330
5FA2
100
AcDbDictionary
  0
DICTIONARY
  5
5FA7
102
{ACAD_REACTORS
330
5FA6
102
}
330
5FA6
100
AcDbDictionary
  0
DICTIONARY
  5
5FAB
102
{ACAD_REACTORS
330
5FAA
102
}
330
5FAA
100
AcDbDictionary
  0
DICTIONARY
  5
5FAF
102
{ACAD_REACTORS
330
5FAE
102
}
330
5FAE
100
AcDbDictionary
  0
DICTIONARY
  5
5FB3
102
{ACAD_REACTORS
330
5FB2
102
}
330
5FB2
100
AcDbDictionary
  0
DICTIONARY
  5
5FB7
102
{ACAD_REACTORS
330
5FB6
102
}
330
5FB6
100
AcDbDictionary
  0
DICTIONARY
  5
5FBB
102
{ACAD_REACTORS
330
5FBA
102
}
330
5FBA
100
AcDbDictionary
  0
DICTIONARY
  5
6355
102
{ACAD_REACTORS
330
6354
102
}
330
6354
100
AcDbDictionary
  0
DICTIONARY
  5
6359
102
{ACAD_REACTORS
330
6358
102
}
330
6358
100
AcDbDictionary
  0
DICTIONARY
  5
63ED
102
{ACAD_REACTORS
330
63EC
102
}
330
63EC
100
AcDbDictionary
  0
DICTIONARY
  5
6452
102
{ACAD_REACTORS
330
6451
102
}
330
6451
100
AcDbDictionary
  0
DICTIONARY
  5
6573
330
5E1E
100
AcDbDictionary
280
     1
  3
ACAD_XREC_ROUNDTRIP
360
6574
  0
DICTIONARY
  5
6575
330
5E1D
100
AcDbDictionary
280
     1
  3
ACAD_XREC_ROUNDTRIP
360
6576
  0
DICTIONARY
  5
6577
330
5E1F
100
AcDbDictionary
280
     1
  3
ACAD_XREC_ROUNDTRIP
360
6578
  0
XRECORD
  5
6574
102
{ACAD_REACTORS
330
6573
102
}
330
6573
100
AcDbXrecord
102
MATERIAL
148
0.0
149
0.0
149
0.0
 93
        0
 94
      127
282
     0
 72
     1
 77
     1
171
     1
175
     1
179
     1
273
     0
  0
XRECORD
  5
6576
102
{ACAD_REACTORS
330
6575
102
}
330
6575
100
AcDbXrecord
102
MATERIAL
148
0.0
149
0.0
149
0.0
 93
        0
 94
      127
282
     0
 72
     1
 77
     1
171
     1
175
     1
179
     1
273
     0
  0
XRECORD
  5
6578
102
{ACAD_REACTORS
330
6577
102
}
330
6577
100
AcDbXrecord
102
MATERIAL
148
0.0
149
0.0
149
0.0
 93
        0
 94
      127
282
     0
 72
     1
 77
     1
171
     1
175
     1
179
     1
273
     0
  0
ENDSEC
  0
EOF
