  0
SECTION
  2
HEADER
  9
$ACADVER
  1
AC1014
  9
$ACADMAINTVER
 70
     9
  9
$DWGCODEPAGE
  3
ANSI_932
  9
$INSBASE
 10
0.0
 20
0.0
 30
0.0
  9
$EXTMIN
 10
-96.993161647774
 20
114.997030286641
 30
0.0
  9
$EXTMAX
 10
603.159830630832
 20
527.007069080888
 30
0.0
  9
$LIMMIN
 10
-360.747566795242
 20
4.457354754526
  9
$LIMMAX
 10
-162.153696144267
 20
287.675440264018
  9
$ORTHOMODE
 70
     0
  9
$REGENMODE
 70
     1
  9
$FILLMODE
 70
     1
  9
$QTEXTMODE
 70
     0
  9
$MIRRTEXT
 70
     1
  9
$DRAGMODE
 70
     2
  9
$LTSCALE
 40
1.0
  9
$OSMODE
 70
   935
  9
$ATTMODE
 70
     1
  9
$TEXTSIZE
 40
4.0
  9
$TRACEWID
 40
1.0
  9
$TEXTSTYLE
  7
STANDARD
  9
$CLAYER
  8
寸法線
  9
$CELTYPE
  6
BYLAYER
  9
$CECOLOR
 62
   256
  9
$CELTSCALE
 40
10.0
  9
$DELOBJ
 70
     1
  9
$DISPSILH
 70
     0
  9
$DIMSCALE
 40
1.0
  9
$DIMASZ
 40
6.0
  9
$DIMEXO
 40
0.625
  9
$DIMDLI
 40
3.75
  9
$DIMRND
 40
0.0
  9
$DIMDLE
 40
0.0
  9
$DIMEXE
 40
1.25
  9
$DIMTP
 40
0.1
  9
$DIMTM
 40
0.1
  9
$DIMTXT
 40
8.0
  9
$DIMCEN
 40
2.5
  9
$DIMTSZ
 40
0.0
  9
$DIMTOL
 70
     0
  9
$DIMLIM
 70
     0
  9
$DIMTIH
 70
     0
  9
$DIMTOH
 70
     0
  9
$DIMSE1
 70
     0
  9
$DIMSE2
 70
     0
  9
$DIMTAD
 70
     1
  9
$DIMZIN
 70
     8
  9
$DIMBLK
  1
OPEN30
  9
$DIMASO
 70
     1
  9
$DIMSHO
 70
     1
  9
$DIMPOST
  1

  9
$DIMAPOST
  1

  9
$DIMALT
 70
     0
  9
$DIMALTD
 70
     2
  9
$DIMALTF
 40
0.0394
  9
$DIMLFAC
 40
1.0
  9
$DIMTOFL
 70
     1
  9
$DIMTVP
 40
1.0
  9
$DIMTIX
 70
     0
  9
$DIMSOXD
 70
     0
  9
$DIMSAH
 70
     0
  9
$DIMBLK1
  1

  9
$DIMBLK2
  1

  9
$DIMSTYLE
  2
ISO-25
  9
$DIMCLRD
 70
     0
  9
$DIMCLRE
 70
     0
  9
$DIMCLRT
 70
     0
  9
$DIMTFAC
 40
1.0
  9
$DIMGAP
 40
0.625
  9
$DIMJUST
 70
     0
  9
$DIMSD1
 70
     0
  9
$DIMSD2
 70
     0
  9
$DIMTOLJ
 70
     1
  9
$DIMTZIN
 70
     0
  9
$DIMALTZ
 70
     0
  9
$DIMALTTZ
 70
     0
  9
$DIMFIT
 70
     3
  9
$DIMUPT
 70
     0
  9
$DIMUNIT
 70
     2
  9
$DIMDEC
 70
     1
  9
$DIMTDEC
 70
     1
  9
$DIMALTU
 70
     2
  9
$DIMALTTD
 70
     2
  9
$DIMTXSTY
  7
STANDARD
  9
$DIMAUNIT
 70
     0
  9
$LUNITS
 70
     2
  9
$LUPREC
 70
     4
  9
$SKETCHINC
 40
1.0
  9
$FILLETRAD
 40
1.0
  9
$AUNITS
 70
     0
  9
$AUPREC
 70
     0
  9
$MENU
  1
.
  9
$ELEVATION
 40
0.0
  9
$PELEVATION
 40
0.0
  9
$THICKNESS
 40
0.0
  9
$LIMCHECK
 70
     0
  9
$CHAMFERA
 40
10.0
  9
$CHAMFERB
 40
10.0
  9
$CHAMFERC
 40
20.0
  9
$CHAMFERD
 40
0.0
  9
$SKPOLY
 70
     0
  9
$TDCREATE
 40
2450576.597302431
  9
$TDUPDATE
 40
2457661.614368125
  9
$TDINDWG
 40
1.3131080903
  9
$TDUSRTIMER
 40
1.3131080903
  9
$USRTIMER
 70
     1
  9
$ANGBASE
 50
0.0
  9
$ANGDIR
 70
     0
  9
$PDMODE
 70
     0
  9
$PDSIZE
 40
0.0
  9
$PLINEWID
 40
0.0
  9
$COORDS
 70
     1
  9
$SPLFRAME
 70
     0
  9
$SPLINETYPE
 70
     6
  9
$SPLINESEGS
 70
     8
  9
$ATTDIA
 70
     0
  9
$ATTREQ
 70
     1
  9
$HANDLING
 70
     1
  9
$HANDSEED
  5
5190
  9
$SURFTAB1
 70
     6
  9
$SURFTAB2
 70
     6
  9
$SURFTYPE
 70
     6
  9
$SURFU
 70
     6
  9
$SURFV
 70
     6
  9
$UCSNAME
  2

  9
$UCSORG
 10
0.0
 20
0.0
 30
0.0
  9
$UCSXDIR
 10
1.0
 20
0.0
 30
0.0
  9
$UCSYDIR
 10
0.0
 20
1.0
 30
0.0
  9
$PUCSNAME
  2

  9
$PUCSORG
 10
0.0
 20
0.0
 30
0.0
  9
$PUCSXDIR
 10
1.0
 20
0.0
 30
0.0
  9
$PUCSYDIR
 10
0.0
 20
1.0
 30
0.0
  9
$USERI1
 70
     0
  9
$USERI2
 70
     0
  9
$USERI3
 70
     0
  9
$USERI4
 70
     0
  9
$USERI5
 70
     0
  9
$USERR1
 40
0.0
  9
$USERR2
 40
0.0
  9
$USERR3
 40
0.0
  9
$USERR4
 40
0.0
  9
$USERR5
 40
0.0
  9
$WORLDVIEW
 70
     1
  9
$SHADEDGE
 70
     3
  9
$SHADEDIF
 70
    70
  9
$TILEMODE
 70
     0
  9
$MAXACTVP
 70
    16
  9
$PINSBASE
 10
0.0
 20
0.0
 30
0.0
  9
$PLIMCHECK
 70
     0
  9
$PEXTMIN
 10
4.746305129083
 20
1.396645458131
 30
0.0
  9
$PEXTMAX
 10
404.746305129083
 20
281.396645458131
 30
0.0
  9
$PLIMMIN
 10
-7.007122192383
 20
-7.007118782997
  9
$PLIMMAX
 10
417.718108215332
 20
293.315290427208
  9
$UNITMODE
 70
     0
  9
$VISRETAIN
 70
     0
  9
$PLINEGEN
 70
     0
  9
$PSLTSCALE
 70
     1
  9
$TREEDEPTH
 70
  3020
  9
$PICKSTYLE
 70
     1
  9
$CMLSTYLE
  2
STANDARD
  9
$CMLJUST
 70
     0
  9
$CMLSCALE
 40
1.0
  9
$PROXYGRAPHICS
 70
     1
  9
$MEASUREMENT
 70
     1
  0
ENDSEC
  0
SECTION
  2
CLASSES
  0
CLASS
  1
ACDBDICTIONARYWDFLT
  2
AcDbDictionaryWithDefault
  3
ObjectDBX Classes
 90
        0
280
     0
281
     0
  0
CLASS
  1
ACDBPLACEHOLDER
  2
AcDbPlaceHolder
  3
ObjectDBX Classes
 90
        0
280
     0
281
     0
  0
CLASS
  1
LAYOUT
  2
AcDbLayout
  3
ObjectDBX Classes
 90
        0
280
     0
281
     0
  0
CLASS
  1
SORTENTSTABLE
  2
AcDbSortentsTable
  3
ObjectDBX Classes
 90
        0
280
     0
281
     0
  0
CLASS
  1
SCALE
  2
AcDbScale
  3
ObjectDBX Classes
 90
     1153
280
     0
281
     0
  0
CLASS
  1
MATERIAL
  2
AcDbMaterial
  3
ObjectDBX Classes
 90
     1153
280
     0
281
     0
  0
CLASS
  1
VISUALSTYLE
  2
AcDbVisualStyle
  3
ObjectDBX Classes
 90
     4095
280
     0
281
     0
  0
CLASS
  1
DICTIONARYVAR
  2
AcDbDictionaryVar
  3
ObjectDBX Classes
 90
        0
280
     0
281
     0
  0
CLASS
  1
TABLESTYLE
  2
AcDbTableStyle
  3
ObjectDBX Classes
 90
     4095
280
     0
281
     0
  0
CLASS
  1
MLEADERSTYLE
  2
AcDbMLeaderStyle
  3
ACDB_MLEADERSTYLE_CLASS
 90
     4095
280
     0
281
     0
  0
CLASS
  1
SUN
  2
AcDbSun
  3
SCENEOE
 90
     1153
280
     0
281
     0
  0
CLASS
  1
CELLSTYLEMAP
  2
AcDbCellStyleMap
  3
ObjectDBX Classes
 90
     1152
280
     0
281
     0
  0
CLASS
  1
XRECORD
  2
AcDbXrecord
  3
ObjectDBX Classes
 90
        0
280
     0
281
     0
  0
CLASS
  1
LWPOLYLINE
  2
AcDbPolyline
  3
ObjectDBX Classes
 90
        0
280
     0
281
     1
  0
CLASS
  1
HATCH
  2
AcDbHatch
  3
ObjectDBX Classes
 90
        0
280
     0
281
     1
  0
ENDSEC
  0
SECTION
  2
TABLES
  0
TABLE
  2
VPORT
  5
8
102
{ACAD_XDICTIONARY
360
5188
102
}
330
0
100
AcDbSymbolTable
 70
     2
  0
VPORT
  5
47C9
330
8
100
AcDbSymbolTableRecord
100
AcDbViewportTableRecord
  2
*ACTIVE
 70
     0
 10
0.0
 20
0.0
 11
1.0
 21
1.0
 12
282.542333239572
 22
321.002049683765
 13
0.0
 23
0.0
 14
1.0
 24
1.0
 15
0.0
 25
0.0
 16
0.0
 26
0.0
 36
1.0
 17
0.0
 27
0.0
 37
0.0
 40
440.064396106969
 41
1.759407069555
 42
50.0
 43
0.0
 44
0.0
 50
0.0
 51
0.0
 71
    16
 72
   100
 73
     1
 74
     0
 75
     0
 76
     0
 77
     0
 78
     0
  0
ENDTAB
  0
TABLE
  2
LTYPE
  5
5
330
0
100
AcDbSymbolTable
 70
     6
  0
LTYPE
  5
14
330
5
100
AcDbSymbolTableRecord
100
AcDbLinetypeTableRecord
  2
BYBLOCK
 70
     0
  3

 72
    65
 73
     0
 40
0.0
  0
LTYPE
  5
15
330
5
100
AcDbSymbolTableRecord
100
AcDbLinetypeTableRecord
  2
BYLAYER
 70
     0
  3

 72
    65
 73
     0
 40
0.0
  0
LTYPE
  5
16
330
5
100
AcDbSymbolTableRecord
100
AcDbLinetypeTableRecord
  2
CONTINUOUS
 70
     0
  3
Solid line
 72
    65
 73
     0
 40
0.0
  0
LTYPE
  5
1EC
330
5
100
AcDbSymbolTableRecord
100
AcDbLinetypeTableRecord
  2
CENTER
 70
     0
  3
____ _ ____ _ ____ _ ____ _ ____ _ ____ _ ____ 
 72
    65
 73
     4
 40
2.0
 49
1.25
 74
     0
 49
-0.25
 74
     0
 49
0.25
 74
     0
 49
-0.25
 74
     0
  0
LTYPE
  5
1ED
330
5
100
AcDbSymbolTableRecord
100
AcDbLinetypeTableRecord
  2
DASHED
 70
     0
  3
__ __ __ __ __ __ __ __ __ __ __ __ __ __ __ __
 72
    65
 73
     2
 40
0.75
 49
0.5
 74
     0
 49
-0.25
 74
     0
  0
LTYPE
  5
2B1F
330
5
100
AcDbSymbolTableRecord
100
AcDbLinetypeTableRecord
  2
DASHDOT
 70
     0
  3
一点鎖線
 72
    65
 73
     4
 40
25.6
 49
20.0
 74
     0
 49
-2.0
 74
     0
 49
1.6
 74
     0
 49
-2.0
 74
     0
  0
LTYPE
  5
31A1
330
5
100
AcDbSymbolTableRecord
100
AcDbLinetypeTableRecord
  2
CENTER2
 70
     0
  3
Center (.5x) ___ _ ___ _ ___ _ ___ _ ___ _ ___
 72
    65
 73
     4
 40
28.575
 49
19.05
 74
     0
 49
-3.175
 74
     0
 49
3.175
 74
     0
 49
-3.175
 74
     0
  0
LTYPE
  5
4002
330
5
100
AcDbSymbolTableRecord
100
AcDbLinetypeTableRecord
  2
DASHED2
 70
     0
  3
Dashed (.5x) _ _ _ _ _ _ _ _ _ _ _ _ _ _ _ _ _
 72
    65
 73
     2
 40
9.525
 49
6.35
 74
     0
 49
-3.175
 74
     0
  0
ENDTAB
  0
TABLE
  2
LAYER
  5
2
102
{ACAD_XDICTIONARY
360
29EA
102
}
330
0
100
AcDbSymbolTable
 70
    12
  0
LAYER
  5
F
330
2
100
AcDbSymbolTableRecord
100
AcDbLayerTableRecord
  2
0
 70
     0
 62
     7
  6
CONTINUOUS
  0
LAYER
  5
61
330
2
100
AcDbSymbolTableRecord
100
AcDbLayerTableRecord
  2
図枠太線
 70
     0
 62
   251
  6
CONTINUOUS
  0
LAYER
  5
62
330
2
100
AcDbSymbolTableRecord
100
AcDbLayerTableRecord
  2
図枠細線
 70
     0
 62
   252
  6
CONTINUOUS
  0
LAYER
  5
63
330
2
100
AcDbSymbolTableRecord
100
AcDbLayerTableRecord
  2
図枠ロゴマーク
 70
     0
 62
   253
  6
CONTINUOUS
  0
LAYER
  5
1EF
330
2
100
AcDbSymbolTableRecord
100
AcDbLayerTableRecord
  2
外形線
 70
     0
 62
     7
  6
CONTINUOUS
  0
LAYER
  5
1F0
330
2
100
AcDbSymbolTableRecord
100
AcDbLayerTableRecord
  2
寸法線
 70
     0
 62
     1
  6
CONTINUOUS
  0
LAYER
  5
1F1
330
2
100
AcDbSymbolTableRecord
100
AcDbLayerTableRecord
  2
中心線
 70
     0
 62
     4
  6
CENTER
  0
LAYER
  5
1F4
330
2
100
AcDbSymbolTableRecord
100
AcDbLayerTableRecord
  2
DEFPOINTS
 70
     0
 62
     7
  6
CONTINUOUS
  0
LAYER
  5
2AA2
330
2
100
AcDbSymbolTableRecord
100
AcDbLayerTableRecord
  2
下書線
 70
     0
 62
     2
  6
CONTINUOUS
  0
LAYER
  5
2AA3
330
2
100
AcDbSymbolTableRecord
100
AcDbLayerTableRecord
  2
隠れ線
 70
     0
 62
     3
  6
DASHED
  0
LAYER
  5
2AA4
330
2
100
AcDbSymbolTableRecord
100
AcDbLayerTableRecord
  2
細線
 70
     0
 62
     6
  6
CONTINUOUS
  0
LAYER
  5
2AA5
330
2
100
AcDbSymbolTableRecord
100
AcDbLayerTableRecord
  2
太線
 70
     0
 62
   190
  6
CONTINUOUS
  0
ENDTAB
  0
TABLE
  2
STYLE
  5
3
330
0
100
AcDbSymbolTable
 70
     2
  0
STYLE
  5
10
330
3
100
AcDbSymbolTableRecord
100
AcDbTextStyleTableRecord
  2
STANDARD
 70
     0
 40
0.0
 41
1.0
 50
0.0
 71
     0
 42
4.0
  3
ISOCP
  4
bigfont.shx
  0
STYLE
  5
64
330
3
100
AcDbSymbolTableRecord
100
AcDbTextStyleTableRecord
  2
EXCADSTD
 70
     0
 40
0.0
 41
1.0
 50
0.0
 71
     0
 42
0.2
  3
monotxt
  4
bigfont
  0
ENDTAB
  0
TABLE
  2
VIEW
  5
6
330
0
100
AcDbSymbolTable
 70
     0
  0
ENDTAB
  0
TABLE
  2
UCS
  5
7
330
0
100
AcDbSymbolTable
 70
     0
  0
ENDTAB
  0
TABLE
  2
APPID
  5
9
330
0
100
AcDbSymbolTable
 70
     6
  0
APPID
  5
11
330
9
100
AcDbSymbolTableRecord
100
AcDbRegAppTableRecord
  2
ACAD
 70
     0
  0
APPID
  5
3507
330
9
100
AcDbSymbolTableRecord
100
AcDbRegAppTableRecord
  2
ACAD_DIMASSOC_CALC_DIMLFAC
 70
     0
  0
APPID
  5
3508
330
9
100
AcDbSymbolTableRecord
100
AcDbRegAppTableRecord
  2
ACAD_DIMASSOC_DIMLFAC
 70
     0
  0
APPID
  5
3509
330
9
100
AcDbSymbolTableRecord
100
AcDbRegAppTableRecord
  2
ACAD_DIMASSOC_OVERRIDDEN_D
 70
     0
  0
APPID
  5
4F38
330
9
100
AcDbSymbolTableRecord
100
AcDbRegAppTableRecord
  2
ACADANNOTATIVE
 70
     0
  0
APPID
  5
4F9A
330
9
100
AcDbSymbolTableRecord
100
AcDbRegAppTableRecord
  2
ACAD_MLEADERVER
 70
     0
  0
ENDTAB
  0
TABLE
  2
DIMSTYLE
  5
A
330
0
100
AcDbSymbolTable
 70
     2
  0
DIMSTYLE
105
1D
330
A
100
AcDbSymbolTableRecord
100
AcDbDimStyleTableRecord
  2
STANDARD
 70
     0
  3

  4

  5

  6

  7

 40
1.0
 41
0.18
 42
0.0625
 43
0.38
 44
0.18
 45
0.0
 46
0.0
 47
0.0
 48
0.0
140
0.18
141
0.09
142
0.0
143
25.4
144
1.0
145
0.0
146
1.0
147
0.09
 71
     0
 72
     0
 73
     1
 74
     1
 75
     0
 76
     0
 77
     0
 78
     0
170
     0
171
     2
172
     0
173
     0
174
     0
175
     0
176
     0
177
     0
178
     0
270
     2
271
     4
272
     4
273
     2
274
     2
340
10
275
     0
280
     0
281
     0
282
     0
283
     1
284
     0
285
     0
286
     0
287
     3
288
     0
  0
DIMSTYLE
105
24
102
{ACAD_REACTORS
330
4D12
330
4D09
330
4C30
330
4C2F
330
4C2E
330
4C2D
330
4C2A
330
4C1B
330
4C17
330
4C08
102
}
330
A
100
AcDbSymbolTableRecord
100
AcDbDimStyleTableRecord
  2
ISO-25
 70
     0
  3

  4

  5

  6

  7

 40
1.0
 41
2.5
 42
0.625
 43
3.75
 44
1.25
 45
0.0
 46
0.0
 47
0.0
 48
0.0
140
2.5
141
2.5
142
0.0
143
0.0394
144
1.0
145
1.0
146
1.0
147
0.625
 71
     0
 72
     0
 73
     1
 74
     0
 75
     0
 76
     0
 77
     1
 78
     8
170
     0
171
     2
172
     1
173
     0
174
     0
175
     0
176
     0
177
     0
178
     0
270
     2
271
     4
272
     4
273
     2
274
     2
340
10
275
     0
280
     0
281
     0
282
     0
283
     1
284
     0
285
     0
286
     0
287
     3
288
     0
  0
ENDTAB
  0
TABLE
  2
BLOCK_RECORD
  5
1
330
0
100
AcDbSymbolTable
 70
    49
  0
BLOCK_RECORD
  5
1A
102
{ACAD_XDICTIONARY
360
45A8
102
}
330
1
100
AcDbSymbolTableRecord
100
AcDbBlockTableRecord
  2
*MODEL_SPACE
  0
BLOCK_RECORD
  5
28FB
330
1
100
AcDbSymbolTableRecord
100
AcDbBlockTableRecord
  2
*PAPER_SPACE
  0
BLOCK_RECORD
  5
65
330
1
100
AcDbSymbolTableRecord
100
AcDbBlockTableRecord
  2
A$C3392
  0
BLOCK_RECORD
  5
29BF
330
1
100
AcDbSymbolTableRecord
100
AcDbBlockTableRecord
  2
A4横用_タイトル
1001
ACAD
1000
DesignCenter Data
1002
{
1070
     1
1070
     4
1002
}
  0
BLOCK_RECORD
  5
29F4
330
1
100
AcDbSymbolTableRecord
100
AcDbBlockTableRecord
  2
A4縦用_タイトル
1001
ACAD
1000
DesignCenter Data
1002
{
1070
     1
1070
     4
1002
}
  0
BLOCK_RECORD
  5
2A32
330
1
100
AcDbSymbolTableRecord
100
AcDbBlockTableRecord
  2
A3横用_タイトル
1001
ACAD
1000
DesignCenter Data
1002
{
1070
     1
1070
     4
1002
}
  0
BLOCK_RECORD
  5
2A6C
330
1
100
AcDbSymbolTableRecord
100
AcDbBlockTableRecord
  2
A3縦用_タイトル
1001
ACAD
1000
DesignCenter Data
1002
{
1070
     1
1070
     4
1002
}
  0
BLOCK_RECORD
  5
2AF4
330
1
100
AcDbSymbolTableRecord
100
AcDbBlockTableRecord
  2
_OPEN30
  0
BLOCK_RECORD
  5
476E
102
{ACAD_XDICTIONARY
360
4772
102
}
330
1
100
AcDbSymbolTableRecord
100
AcDbBlockTableRecord
  2
A$C7D097536
  0
BLOCK_RECORD
  5
47B0
330
1
100
AcDbSymbolTableRecord
100
AcDbBlockTableRecord
  2
A$C5C66712B
  0
BLOCK_RECORD
  5
49E1
330
1
100
AcDbSymbolTableRecord
100
AcDbBlockTableRecord
  2
4840138
  0
BLOCK_RECORD
  5
49ED
330
1
100
AcDbSymbolTableRecord
100
AcDbBlockTableRecord
  2
2420094
  0
BLOCK_RECORD
  5
4A37
330
1
100
AcDbSymbolTableRecord
100
AcDbBlockTableRecord
  2
24200C4
  0
BLOCK_RECORD
  5
4A3B
330
1
100
AcDbSymbolTableRecord
100
AcDbBlockTableRecord
  2
F01
  0
BLOCK_RECORD
  5
4A98
330
1
100
AcDbSymbolTableRecord
100
AcDbBlockTableRecord
  2
24200B4
  0
BLOCK_RECORD
  5
4B06
330
1
100
AcDbSymbolTableRecord
100
AcDbBlockTableRecord
  2
4840168
  0
BLOCK_RECORD
  5
4B1B
330
1
100
AcDbSymbolTableRecord
100
AcDbBlockTableRecord
  2
2420074
  0
BLOCK_RECORD
  5
4B24
330
1
100
AcDbSymbolTableRecord
100
AcDbBlockTableRecord
  2
19600B4
  0
BLOCK_RECORD
  5
4D13
330
1
100
AcDbSymbolTableRecord
100
AcDbBlockTableRecord
  2
*D39
  0
BLOCK_RECORD
  5
4D1F
330
1
100
AcDbSymbolTableRecord
100
AcDbBlockTableRecord
  2
*D40
  0
BLOCK_RECORD
  5
4D2A
330
1
100
AcDbSymbolTableRecord
100
AcDbBlockTableRecord
  2
*D41
  0
BLOCK_RECORD
  5
4D36
330
1
100
AcDbSymbolTableRecord
100
AcDbBlockTableRecord
  2
*D42
  0
BLOCK_RECORD
  5
4D42
330
1
100
AcDbSymbolTableRecord
100
AcDbBlockTableRecord
  2
*D43
  0
BLOCK_RECORD
  5
4D4D
330
1
100
AcDbSymbolTableRecord
100
AcDbBlockTableRecord
  2
*D44
  0
BLOCK_RECORD
  5
4D59
330
1
100
AcDbSymbolTableRecord
100
AcDbBlockTableRecord
  2
*D45
  0
BLOCK_RECORD
  5
4D67
330
1
100
AcDbSymbolTableRecord
100
AcDbBlockTableRecord
  2
*D46
  0
BLOCK_RECORD
  5
4D72
330
1
100
AcDbSymbolTableRecord
100
AcDbBlockTableRecord
  2
*D47
  0
BLOCK_RECORD
  5
4D7E
330
1
100
AcDbSymbolTableRecord
100
AcDbBlockTableRecord
  2
*D48
  0
ENDTAB
  0
ENDSEC
  0
SECTION
  2
BLOCKS
  0
BLOCK
  5
1B
330
1A
100
AcDbEntity
  8
0
100
AcDbBlockBegin
  2
*MODEL_SPACE
 70
     0
 10
0.0
 20
0.0
 30
0.0
  3
*MODEL_SPACE
  1

  0
ENDBLK
  5
1C
330
1A
100
AcDbEntity
  8
0
100
AcDbBlockEnd
  0
BLOCK
  5
28FD
330
28FB
100
AcDbEntity
 67
     1
  8
0
 48
10.0
100
AcDbBlockBegin
  2
*PAPER_SPACE
 70
     0
 10
0.0
 20
0.0
 30
0.0
  3
*PAPER_SPACE
  1

  0
ENDBLK
  5
28FE
330
28FB
100
AcDbEntity
 67
     1
  8
0
 48
10.0
100
AcDbBlockEnd
  0
BLOCK
  5
93
330
65
100
AcDbEntity
  8
0
100
AcDbBlockBegin
  2
A$C3392
 70
     0
 10
0.0
 20
0.0
 30
0.0
  3
A$C3392
  1

  0
LINE
  5
66
330
65
100
AcDbEntity
  8
図枠太線
  6
CONTINUOUS
100
AcDbLine
 10
211.858584505185
 20
30.927375675439
 30
0.0
 11
211.858584505185
 21
0.927375675439
 31
0.0
  0
LINE
  5
67
330
65
100
AcDbEntity
  8
図枠細線
  6
CONTINUOUS
100
AcDbLine
 10
231.858592505185
 20
15.927377675439
 30
0.0
 11
287.858592505185
 21
15.927375675439
 31
0.0
  0
LINE
  5
68
330
65
100
AcDbEntity
  8
図枠細線
  6
CONTINUOUS
100
AcDbLine
 10
211.858592505185
 20
15.927377675439
 30
0.0
 11
231.858592505185
 21
15.927377675439
 31
0.0
  0
LINE
  5
69
330
65
100
AcDbEntity
  8
図枠太線
  6
CONTINUOUS
 62
   251
100
AcDbLine
 10
1.858584505185
 20
0.927375675439
 30
0.0
 11
1.858584505185
 21
275.927375675439
 31
0.0
  0
TEXT
  5
6A
330
65
100
AcDbEntity
  8
図枠細線
  6
CONTINUOUS
 62
   252
100
AcDbText
 10
351.358592505185
 20
28.427377675439
 30
0.0
 40
2.0
  1
ＴＩＴＬＥ
 41
0.903614457831
  7
EXCADSTD
 72
     5
 11
361.358592505185
 21
28.427377675439
 31
0.0
100
AcDbText
  0
TEXT
  5
6B
330
65
100
AcDbEntity
  8
図枠細線
  6
CONTINUOUS
 62
   252
100
AcDbText
 10
345.358592505185
 20
28.427377675439
 30
0.0
 40
2.0
  1
名称
 41
1.171875
  7
EXCADSTD
 72
     5
 11
350.358592505185
 21
28.427377675439
 31
0.0
100
AcDbText
  0
TEXT
  5
6C
330
65
100
AcDbEntity
  8
図枠細線
  6
CONTINUOUS
 62
   252
100
AcDbText
 10
274.358592505185
 20
25.927377675439
 30
0.0
 40
2.0
  1
ＤＲＡＷＮ
 41
0.882352941176
  7
EXCADSTD
 72
     5
 11
284.358592505185
 21
25.927377675439
 31
0.0
100
AcDbText
  0
TEXT
  5
6D
330
65
100
AcDbEntity
  8
図枠細線
  6
CONTINUOUS
 62
   252
100
AcDbText
 10
260.358592505185
 20
25.927377675439
 30
0.0
 40
2.0
  1
ＤＥＳＩＧＮＥＤ
 41
0.713043472041
  7
EXCADSTD
 72
     5
 11
273.478592390744
 21
25.927377675439
 31
0.0
100
AcDbText
  0
TEXT
  5
6E
330
65
100
AcDbEntity
  8
図枠細線
  6
CONTINUOUS
 62
   252
100
AcDbText
 10
246.358592505185
 20
25.927377675439
 30
0.0
 40
2.0
  1
ＣＨＥＣＫＥＤ
 41
0.831249989569
  7
EXCADSTD
 72
     5
 11
259.658592338292
 21
25.927377675439
 31
0.0
100
AcDbText
  0
TEXT
  5
6F
330
65
100
AcDbEntity
  8
図枠細線
  6
CONTINUOUS
 62
   252
100
AcDbText
 10
274.358592505185
 20
28.427377675439
 30
0.0
 40
2.0
  1
製図
 41
1.209677419355
  7
EXCADSTD
 72
     5
 11
279.358592505185
 21
28.427377675439
 31
0.0
100
AcDbText
  0
TEXT
  5
70
330
65
100
AcDbEntity
  8
図枠細線
  6
CONTINUOUS
 62
   252
100
AcDbText
 10
260.358592505185
 20
28.427377675439
 30
0.0
 40
2.0
  1
設計
 41
1.171875
  7
EXCADSTD
 72
     5
 11
265.358592505185
 21
28.427377675439
 31
0.0
100
AcDbText
  0
TEXT
  5
71
330
65
100
AcDbEntity
  8
図枠細線
  6
CONTINUOUS
 62
   252
100
AcDbText
 10
246.358592505185
 20
28.427377675439
 30
0.0
 40
2.0
  1
検図
 41
1.209677419355
  7
EXCADSTD
 72
     5
 11
251.358592505185
 21
28.427377675439
 31
0.0
100
AcDbText
  0
TEXT
  5
72
330
65
100
AcDbEntity
  8
図枠細線
  6
CONTINUOUS
 62
   252
100
AcDbText
 10
232.358592505185
 20
25.927377675439
 30
0.0
 40
2.0
  1
ＡＰＰＲＯＶＥＤ
 41
0.695652184279
  7
EXCADSTD
 72
     5
 11
245.15859269592
 21
25.927377675439
 31
0.0
100
AcDbText
  0
TEXT
  5
73
330
65
100
AcDbEntity
  8
図枠細線
  6
CONTINUOUS
 62
   252
100
AcDbText
 10
232.358592505185
 20
28.427377675439
 30
0.0
 40
2.0
  1
承認
 41
1.171875
  7
EXCADSTD
 72
     5
 11
237.358592505185
 21
28.427377675439
 31
0.0
100
AcDbText
  0
TEXT
  5
74
330
65
100
AcDbEntity
  8
図枠細線
  6
CONTINUOUS
 62
   252
100
AcDbText
 10
290.069888505185
 20
2.574868675439
 30
0.0
 40
3.5
  1
ＴＯＷＡ　ＳＥＩＤＥＮ　ＩＮＤＵＳＴＲＩＡＬ　ＣＯ．，ＬＴＤ．
 41
0.414568012377
  7
EXCADSTD
 72
     5
 11
342.692388209546
 21
2.574868675439
 31
0.0
100
AcDbText
  0
TEXT
  5
75
330
65
100
AcDbEntity
  8
図枠ロゴマーク
  6
CONTINUOUS
 62
   253
100
AcDbText
 10
290.107348505185
 20
7.519769675439
 30
0.0
 40
7.0
  1
東和制電工業株式会社
 41
0.639204545455
  7
EXCADSTD
 72
     5
 11
342.607348505185
 21
7.519769675439
 31
0.0
100
AcDbText
  0
TEXT
  5
76
330
65
100
AcDbEntity
  8
図枠細線
  6
CONTINUOUS
 62
   252
100
AcDbText
 10
232.499705505185
 20
5.759088675439
 30
0.0
 40
2.0
  1
ＰＲＯＪＥＣＴＩＯＮ
 41
0.754285710199
  7
EXCADSTD
 72
     5
 11
250.099705409817
 21
5.759088675439
 31
0.0
100
AcDbText
  0
TEXT
  5
77
330
65
100
AcDbEntity
  8
図枠細線
  6
CONTINUOUS
 62
   252
100
AcDbText
 10
232.574629505185
 20
8.681077675439
 30
0.0
 40
2.0
  1
ＴＨＩＲＤ　ＡＮＧＬＥ
 41
0.691099486738
  7
EXCADSTD
 72
     5
 11
250.174629767445
 21
8.681077675439
 31
0.0
100
AcDbText
  0
TEXT
  5
78
330
65
100
AcDbEntity
  8
図枠細線
  6
CONTINUOUS
 62
   252
100
AcDbText
 10
256.823999505185
 20
13.427377675439
 30
0.0
 40
2.0
  1
ＳＣＡＬＥ
 41
0.903614457831
  7
EXCADSTD
 72
     5
 11
266.823999505185
 21
13.427377675439
 31
0.0
100
AcDbText
  0
TEXT
  5
79
330
65
100
AcDbEntity
  8
図枠細線
  6
CONTINUOUS
 62
   252
100
AcDbText
 10
274.858592505185
 20
13.427377675439
 30
0.0
 40
2.0
  1
ＤＡＴＥ
 41
0.923076923077
  7
EXCADSTD
 72
     5
 11
282.858592505185
 21
13.427377675439
 31
0.0
100
AcDbText
  0
TEXT
  5
7A
330
65
100
AcDbEntity
  8
図枠細線
  6
CONTINUOUS
 62
   252
100
AcDbText
 10
356.358592505185
 20
13.427377675439
 30
0.0
 40
2.0
  1
ＤＲＧ．ＮＯ．
 41
0.9375
  7
EXCADSTD
 72
     5
 11
370.358592505185
 21
13.427377675439
 31
0.0
100
AcDbText
  0
TEXT
  5
7B
330
65
100
AcDbEntity
  8
図枠細線
  6
CONTINUOUS
 62
   252
100
AcDbText
 10
345.358592505185
 20
13.427377675439
 30
0.0
 40
2.0
  1
図面番号
 41
1.102941176471
  7
EXCADSTD
 72
     5
 11
355.358592505185
 21
13.427377675439
 31
0.0
100
AcDbText
  0
TEXT
  5
7C
330
65
100
AcDbEntity
  8
図枠細線
  6
CONTINUOUS
 62
   252
100
AcDbText
 10
269.358592505185
 20
13.427377675439
 30
0.0
 40
2.0
  1
日付
 41
1.171875
  7
EXCADSTD
 72
     5
 11
274.358592505185
 21
13.427377675439
 31
0.0
100
AcDbText
  0
TEXT
  5
7D
330
65
100
AcDbEntity
  8
図枠細線
  6
CONTINUOUS
 62
   252
100
AcDbText
 10
251.451512505185
 20
13.427377675439
 30
0.0
 40
2.0
  1
尺度
 41
1.171875
  7
EXCADSTD
 72
     5
 11
256.451512505185
 21
13.427377675439
 31
0.0
100
AcDbText
  0
TEXT
  5
7E
330
65
100
AcDbEntity
  8
図枠細線
  6
CONTINUOUS
 62
   252
100
AcDbText
 10
232.358592505185
 20
13.427377675439
 30
0.0
 40
2.0
  1
第三角法
 41
1.102941176471
  7
EXCADSTD
 72
     5
 11
242.358592505185
 21
13.427377675439
 31
0.0
100
AcDbText
  0
TEXT
  5
7F
330
65
100
AcDbEntity
  8
図枠細線
  6
CONTINUOUS
 62
   252
100
AcDbText
 10
212.358592505185
 20
28.427377675439
 30
0.0
 40
2.0
  1
ＮＯＴＥ
 41
0.923076923077
  7
EXCADSTD
 72
     5
 11
220.358592505185
 21
28.427377675439
 31
0.0
100
AcDbText
  0
LINE
  5
80
330
65
100
AcDbEntity
  8
図枠細線
  6
CONTINUOUS
 62
   252
100
AcDbLine
 10
287.858592505185
 20
23.427375675439
 30
0.0
 11
344.858592505185
 21
23.427375675439
 31
0.0
  0
LINE
  5
81
330
65
100
AcDbEntity
  8
図枠太線
  6
CONTINUOUS
 62
   251
100
AcDbLine
 10
287.858584505185
 20
15.927375675439
 30
0.0
 11
344.858592505185
 21
15.927375675439
 31
0.0
  0
LINE
  5
82
330
65
100
AcDbEntity
  8
図枠細線
  6
CONTINUOUS
 62
   252
100
AcDbLine
 10
344.858592505185
 20
15.927375675439
 30
0.0
 11
401.858584505185
 21
15.927375675439
 31
0.0
  0
LINE
  5
83
330
65
100
AcDbEntity
  8
図枠太線
  6
CONTINUOUS
 62
   251
100
AcDbLine
 10
344.858592505185
 20
0.927377675439
 30
0.0
 11
344.858592505185
 21
30.927375675439
 31
0.0
  0
LINE
  5
84
330
65
100
AcDbEntity
  8
図枠太線
  6
CONTINUOUS
 62
   251
100
AcDbLine
 10
287.858592505185
 20
0.927377675439
 30
0.0
 11
287.858592505185
 21
30.927375675439
 31
0.0
  0
LINE
  5
85
330
65
100
AcDbEntity
  8
図枠細線
  6
CONTINUOUS
 62
   252
100
AcDbLine
 10
268.858592505185
 20
0.927377675439
 30
0.0
 11
268.858592505185
 21
15.927375675439
 31
0.0
  0
LINE
  5
86
330
65
100
AcDbEntity
  8
図枠細線
  6
CONTINUOUS
 62
   252
100
AcDbLine
 10
250.858592505185
 20
0.927377675439
 30
0.0
 11
250.858592505185
 21
15.927375675439
 31
0.0
  0
LINE
  5
87
330
65
100
AcDbEntity
  8
図枠細線
  6
CONTINUOUS
 62
   252
100
AcDbLine
 10
273.858592505185
 20
30.927375675439
 30
0.0
 11
273.858592505185
 21
15.927375675439
 31
0.0
  0
LINE
  5
88
330
65
100
AcDbEntity
  8
図枠細線
  6
CONTINUOUS
 62
   252
100
AcDbLine
 10
259.858592505185
 20
30.927375675439
 30
0.0
 11
259.858592505185
 21
15.927375675439
 31
0.0
  0
LINE
  5
89
330
65
100
AcDbEntity
  8
図枠細線
  6
CONTINUOUS
 62
   252
100
AcDbLine
 10
245.858592505185
 20
30.927375675439
 30
0.0
 11
245.858592505185
 21
15.927375675439
 31
0.0
  0
LINE
  5
8A
330
65
100
AcDbEntity
  8
図枠太線
  6
CONTINUOUS
 62
   251
100
AcDbLine
 10
231.858592505185
 20
0.927377675439
 30
0.0
 11
231.858592505185
 21
30.927375675439
 31
0.0
  0
LINE
  5
8B
330
65
100
AcDbEntity
  8
図枠細線
  6
CONTINUOUS
 62
   252
100
AcDbLine
 10
211.858592505185
 20
25.927375675439
 30
0.0
 11
231.858592505185
 21
25.927375675439
 31
0.0
  0
LINE
  5
8C
330
65
100
AcDbEntity
  8
図枠細線
  6
CONTINUOUS
 62
   252
100
AcDbLine
 10
211.858592505185
 20
20.927375675439
 30
0.0
 11
231.858592505185
 21
20.927375675439
 31
0.0
  0
LINE
  5
8D
330
65
100
AcDbEntity
  8
図枠細線
  6
CONTINUOUS
 62
   252
100
AcDbLine
 10
211.858592505185
 20
10.927375675439
 30
0.0
 11
231.858592505185
 21
10.927375675439
 31
0.0
  0
LINE
  5
8E
330
65
100
AcDbEntity
  8
図枠細線
  6
CONTINUOUS
 62
   252
100
AcDbLine
 10
211.858592505185
 20
5.927377675439
 30
0.0
 11
231.858592505185
 21
5.927377675439
 31
0.0
  0
LINE
  5
8F
330
65
100
AcDbEntity
  8
図枠太線
  6
CONTINUOUS
 62
   251
100
AcDbLine
 10
211.858592505185
 20
30.927375675439
 30
0.0
 11
401.858584505185
 21
30.927375675439
 31
0.0
  0
LINE
  5
90
330
65
100
AcDbEntity
  8
図枠太線
  6
CONTINUOUS
 62
   251
100
AcDbLine
 10
1.858584505185
 20
275.927375675439
 30
0.0
 11
401.858584505185
 21
275.927375675439
 31
0.0
  0
LINE
  5
91
330
65
100
AcDbEntity
  8
図枠太線
  6
CONTINUOUS
 62
   251
100
AcDbLine
 10
401.858584505185
 20
0.927375675439
 30
0.0
 11
401.858584505185
 21
275.927375675439
 31
0.0
  0
LINE
  5
92
330
65
100
AcDbEntity
  8
図枠太線
  6
CONTINUOUS
 62
   251
100
AcDbLine
 10
1.858584505185
 20
0.927375675439
 30
0.0
 11
401.858584505185
 21
0.927375675439
 31
0.0
  0
ENDBLK
  5
94
330
65
100
AcDbEntity
  8
0
100
AcDbBlockEnd
  0
BLOCK
  5
29C0
330
29BF
100
AcDbEntity
  8
0
100
AcDbBlockBegin
  2
A4横用_タイトル
 70
     0
 10
0.0
 20
0.0
 30
0.0
  3
A4横用_タイトル
  1

  0
LINE
  5
29C1
330
29BF
100
AcDbEntity
  8
図枠細線
  6
CONTINUOUS
100
AcDbLine
 10
75.061011071051
 20
16.806607253358
 30
0.0
 11
144.061011071051
 21
16.806604789072
 31
0.0
  0
LINE
  5
29C2
330
29BF
100
AcDbEntity
  8
図枠細線
  6
CONTINUOUS
 62
   252
100
AcDbLine
 10
4.061011071051
 20
11.806606253358
 30
0.0
 11
75.061011071051
 21
11.806606253358
 31
0.0
  0
LINE
  5
29C3
330
29BF
100
AcDbEntity
  8
図枠細線
  6
CONTINUOUS
 62
   252
100
AcDbLine
 10
4.061011071051
 20
21.806606253358
 30
0.0
 11
75.061011071051
 21
21.806606253358
 31
0.0
  0
LINE
  5
29C4
330
29BF
100
AcDbEntity
  8
図枠細線
  6
CONTINUOUS
 62
   252
100
AcDbLine
 10
4.061011071051
 20
26.806606253358
 30
0.0
 11
75.061011071051
 21
26.806606253358
 31
0.0
  0
LINE
  5
29C5
330
29BF
100
AcDbEntity
  8
図枠細線
  6
CONTINUOUS
100
AcDbLine
 10
4.061011071051
 20
16.806608253358
 30
0.0
 11
75.061011071051
 21
16.806608253358
 31
0.0
  0
TEXT
  5
29C6
330
29BF
100
AcDbEntity
  8
図枠細線
  6
CONTINUOUS
 62
   252
100
AcDbText
 10
76.405475827713
 20
9.560308253358
 30
0.0
 40
2.0
  1
ＴＨＩＲＤ　ＡＮＧＬＥ
 41
0.691099486738
  7
EXCADSTD
 72
     5
 11
94.005476089973
 21
9.560308253358
 31
0.0
100
AcDbText
  0
TEXT
  5
29C7
330
29BF
100
AcDbEntity
  8
図枠細線
  6
CONTINUOUS
 62
   252
100
AcDbText
 10
76.705775880921
 20
14.306608253358
 30
0.0
 40
2.0
  1
第三角法
 41
1.102941176471
  7
EXCADSTD
 72
     5
 11
86.705775880921
 21
14.306608253358
 31
0.0
100
AcDbText
  0
TEXT
  5
29C8
330
29BF
100
AcDbEntity
  8
図枠細線
  6
CONTINUOUS
 62
   252
100
AcDbText
 10
76.705775880921
 20
26.806608253358
 30
0.0
 40
2.0
  1
ＡＰＰＲＯＶＥＤ
 41
0.695652184279
  7
EXCADSTD
 72
     5
 11
89.505776071656
 21
26.806608253358
 31
0.0
100
AcDbText
  0
TEXT
  5
29C9
330
29BF
100
AcDbEntity
  8
図枠細線
  6
CONTINUOUS
 62
   252
100
AcDbText
 10
76.705775880921
 20
29.306608253358
 30
0.0
 40
2.0
  1
承認
 41
1.171875
  7
EXCADSTD
 72
     5
 11
81.705775880921
 21
29.306608253358
 31
0.0
100
AcDbText
  0
LINE
  5
29CA
330
29BF
100
AcDbEntity
  8
図枠細線
  6
CONTINUOUS
 62
   252
100
AcDbLine
 10
98.061011071051
 20
31.806606253358
 30
0.0
 11
98.061011071051
 21
16.806606253358
 31
0.0
  0
TEXT
  5
29CB
330
29BF
100
AcDbEntity
  8
図枠細線
  6
CONTINUOUS
 62
   252
100
AcDbText
 10
104.216531119804
 20
14.306608253358
 30
0.0
 40
2.0
  1
ＳＣＡＬＥ
 41
0.903614457831
  7
EXCADSTD
 72
     5
 11
114.216531119804
 21
14.306608253358
 31
0.0
100
AcDbText
  0
TEXT
  5
29CC
330
29BF
100
AcDbEntity
  8
図枠細線
  6
CONTINUOUS
 62
   252
100
AcDbText
 10
98.844044119804
 20
14.306608253358
 30
0.0
 40
2.0
  1
尺度
 41
1.171875
  7
EXCADSTD
 72
     5
 11
103.844044119804
 21
14.306608253358
 31
0.0
100
AcDbText
  0
TEXT
  5
29CD
330
29BF
100
AcDbEntity
  8
図枠細線
  6
CONTINUOUS
 62
   252
100
AcDbText
 10
98.968727707497
 20
26.806608253358
 30
0.0
 40
2.0
  1
ＣＨＥＣＫＥＤ
 41
0.831249989569
  7
EXCADSTD
 72
     5
 11
112.268727540604
 21
26.806608253358
 31
0.0
100
AcDbText
  0
TEXT
  5
29CE
330
29BF
100
AcDbEntity
  8
図枠細線
  6
CONTINUOUS
 62
   252
100
AcDbText
 10
98.968727707497
 20
29.306608253358
 30
0.0
 40
2.0
  1
検図
 41
1.209677419355
  7
EXCADSTD
 72
     5
 11
103.968727707497
 21
29.306608253358
 31
0.0
100
AcDbText
  0
LINE
  5
29CF
330
29BF
100
AcDbEntity
  8
図枠細線
  6
CONTINUOUS
 62
   252
100
AcDbLine
 10
121.061011071051
 20
31.806606253358
 30
0.0
 11
121.061011071051
 21
16.806606253358
 31
0.0
  0
TEXT
  5
29D0
330
29BF
100
AcDbEntity
  8
図枠細線
  6
CONTINUOUS
 62
   252
100
AcDbText
 10
128.001465247253
 20
14.306608253358
 30
0.0
 40
2.0
  1
ＤＡＴＥ
 41
0.923076923077
  7
EXCADSTD
 72
     5
 11
136.001465247253
 21
14.306608253358
 31
0.0
100
AcDbText
  0
TEXT
  5
29D1
330
29BF
100
AcDbEntity
  8
図枠細線
  6
CONTINUOUS
 62
   252
100
AcDbText
 10
122.066415498841
 20
14.306608253358
 30
0.0
 40
2.0
  1
日付
 41
1.171875
  7
EXCADSTD
 72
     5
 11
127.066415498841
 21
14.306608253358
 31
0.0
100
AcDbText
  0
TEXT
  5
29D2
330
29BF
100
AcDbEntity
  8
図枠細線
  6
CONTINUOUS
 62
   252
100
AcDbText
 10
121.59429406571
 20
29.306608253358
 30
0.0
 40
2.0
  1
製図
 41
1.209677419355
  7
EXCADSTD
 72
     5
 11
126.59429406571
 21
29.306608253358
 31
0.0
100
AcDbText
  0
TEXT
  5
29D3
330
29BF
100
AcDbEntity
  8
図枠細線
  6
CONTINUOUS
 62
   252
100
AcDbText
 10
121.59429406571
 20
26.806608253358
 30
0.0
 40
2.0
  1
ＤＲＡＷＮ
 41
0.882352941176
  7
EXCADSTD
 72
     5
 11
131.59429406571
 21
26.806608253358
 31
0.0
100
AcDbText
  0
TEXT
  5
29D4
330
29BF
100
AcDbEntity
  8
図枠細線
  6
CONTINUOUS
 62
   252
100
AcDbText
 10
226.591229661348
 20
14.306608253358
 30
0.0
 40
2.0
  1
ＤＲＧ．ＮＯ．
 41
0.9375
  7
EXCADSTD
 72
     5
 11
240.591229661348
 21
14.306608253358
 31
0.0
100
AcDbText
  0
LINE
  5
29D5
330
29BF
100
AcDbEntity
  8
図枠太線
  6
CONTINUOUS
 62
   251
100
AcDbLine
 10
144.061003071051
 20
16.806606253358
 30
0.0
 11
214.061011071051
 21
16.806606253358
 31
0.0
  0
LINE
  5
29D6
330
29BF
100
AcDbEntity
  8
図枠細線
  6
CONTINUOUS
 62
   252
100
AcDbLine
 10
144.061011071051
 20
24.306606253358
 30
0.0
 11
214.061011071051
 21
24.306606253358
 31
0.0
  0
TEXT
  5
29D7
330
29BF
100
AcDbEntity
  8
図枠ロゴマーク
  6
CONTINUOUS
 62
   253
100
AcDbText
 10
146.433776781596
 20
8.399000253358
 30
0.0
 40
7.0
  1
東和制電工業株式会社
 41
0.80361088462
  7
EXCADSTD
 72
     5
 11
212.437017438349
 21
8.399000253358
 31
0.0
100
AcDbText
  0
TEXT
  5
29D8
330
29BF
100
AcDbEntity
  8
図枠細線
  6
CONTINUOUS
 62
   252
100
AcDbText
 10
215.156179912936
 20
14.306608253358
 30
0.0
 40
2.0
  1
図面番号
 41
1.102941176471
  7
EXCADSTD
 72
     5
 11
225.156179912936
 21
14.306608253358
 31
0.0
100
AcDbText
  0
TEXT
  5
29D9
330
29BF
100
AcDbEntity
  8
図枠細線
  6
CONTINUOUS
 62
   252
100
AcDbText
 10
221.591229661348
 20
29.306608253358
 30
0.0
 40
2.0
  1
ＴＩＴＬＥ
 41
0.903614457831
  7
EXCADSTD
 72
     5
 11
231.591229661348
 21
29.306608253358
 31
0.0
100
AcDbText
  0
TEXT
  5
29DA
330
29BF
100
AcDbEntity
  8
図枠細線
  6
CONTINUOUS
 62
   252
100
AcDbText
 10
215.156179912936
 20
29.306608253358
 30
0.0
 40
2.0
  1
名称
 41
1.171875
  7
EXCADSTD
 72
     5
 11
220.156179912936
 21
29.306608253358
 31
0.0
100
AcDbText
  0
LINE
  5
29DB
330
29BF
100
AcDbEntity
  8
図枠太線
  6
CONTINUOUS
 62
   251
100
AcDbLine
 10
4.061011071051
 20
1.806608253358
 30
0.0
 11
284.061011071051
 21
1.806608253358
 31
0.0
  0
LINE
  5
29DC
330
29BF
100
AcDbEntity
  8
図枠細線
  6
CONTINUOUS
 62
   252
100
AcDbLine
 10
4.061011071051
 20
6.806608253358
 30
0.0
 11
75.061011071051
 21
6.806608253358
 31
0.0
  0
LINE
  5
29DD
330
29BF
100
AcDbEntity
  8
図枠太線
  6
CONTINUOUS
 62
   251
100
AcDbLine
 10
75.061011071051
 20
1.806608253358
 30
0.0
 11
75.061011071051
 21
31.806606253358
 31
0.0
  0
TEXT
  5
29DE
330
29BF
100
AcDbEntity
  8
図枠細線
  6
CONTINUOUS
 62
   252
100
AcDbText
 10
76.330551827713
 20
6.638319253358
 30
0.0
 40
2.0
  1
ＰＲＯＪＥＣＴＩＯＮ
 41
0.754285710199
  7
EXCADSTD
 72
     5
 11
93.930551732346
 21
6.638319253358
 31
0.0
100
AcDbText
  0
LINE
  5
29DF
330
29BF
100
AcDbEntity
  8
図枠細線
  6
CONTINUOUS
 62
   252
100
AcDbLine
 10
98.061011071051
 20
1.806606931929
 30
0.0
 11
98.061011071051
 21
16.806604931929
 31
0.0
  0
LINE
  5
29E0
330
29BF
100
AcDbEntity
  8
図枠細線
  6
CONTINUOUS
 62
   252
100
AcDbLine
 10
121.061011071051
 20
1.806607574787
 30
0.0
 11
121.061011071051
 21
16.806605574787
 31
0.0
  0
LINE
  5
29E1
330
29BF
100
AcDbEntity
  8
図枠太線
  6
CONTINUOUS
 62
   251
100
AcDbLine
 10
284.061011071051
 20
1.806608253358
 30
0.0
 11
284.061011071051
 21
31.806606253358
 31
0.0
  0
LINE
  5
29E2
330
29BF
100
AcDbEntity
  8
図枠細線
  6
CONTINUOUS
 62
   252
100
AcDbLine
 10
214.061011071051
 20
16.806606253358
 30
0.0
 11
284.061011071051
 21
16.806606253358
 31
0.0
  0
TEXT
  5
29E3
330
29BF
100
AcDbEntity
  8
図枠細線
  6
CONTINUOUS
 62
   252
100
AcDbText
 10
146.199593676182
 20
3.454099253358
 30
0.0
 40
3.5
  1
ＴＯＷＡ　ＳＥＩＤＥＮ　ＩＮＤＵＳＴＲＩＡＬ　ＣＯ．，ＬＴＤ．
 41
0.528937826907
  7
EXCADSTD
 72
     5
 11
213.339435171588
 21
3.454099253358
 31
0.0
100
AcDbText
  0
LINE
  5
29E4
330
29BF
100
AcDbEntity
  8
図枠太線
  6
CONTINUOUS
 62
   251
100
AcDbLine
 10
144.061011071051
 20
1.806608253358
 30
0.0
 11
144.061011071051
 21
31.806606253358
 31
0.0
  0
LINE
  5
29E5
330
29BF
100
AcDbEntity
  8
図枠太線
  6
CONTINUOUS
 62
   251
100
AcDbLine
 10
214.061011071051
 20
1.806608253358
 30
0.0
 11
214.061011071051
 21
31.806606253358
 31
0.0
  0
MTEXT
  5
29E6
330
29BF
100
AcDbEntity
  8
図枠太線
100
AcDbMText
 10
5.064337346478
 20
31.010982137407
 30
0.0
 40
2.5
 41
8.67856098472
 71
     1
 72
     5
  1
{\Fmonotxt.shx,bigfont.shx|c128;図暦}
  0
LINE
  5
29E7
330
29BF
100
AcDbEntity
  8
図枠太線
  6
CONTINUOUS
 62
   251
100
AcDbLine
 10
4.061011071051
 20
1.806608253358
 30
0.0
 11
4.061011071051
 21
31.806606253358
 31
0.0
  0
TEXT
  5
29E8
330
29BF
100
AcDbEntity
  8
図枠細線
 48
10.0
100
AcDbText
 10
12.260817420402
 20
28.625419626495
 30
0.0
 40
2.0
  1
CHANGE NOTICE
100
AcDbText
  0
ENDBLK
  5
29E9
330
29BF
100
AcDbEntity
  8
0
100
AcDbBlockEnd
  0
BLOCK
  5
29F5
330
29F4
100
AcDbEntity
  8
0
100
AcDbBlockBegin
  2
A4縦用_タイトル
 70
     0
 10
0.0
 20
0.0
 30
0.0
  3
A4縦用_タイトル
  1

  0
LINE
  5
29F6
330
29F4
100
AcDbEntity
  8
図枠太線
  6
CONTINUOUS
 62
   251
100
AcDbLine
 10
2.368253864267
 20
4.525433224584
 30
0.0
 11
192.368245864267
 21
4.525433224584
 31
0.0
  0
LINE
  5
29F7
330
29F4
100
AcDbEntity
  8
図枠太線
  6
CONTINUOUS
 62
   251
100
AcDbLine
 10
78.368245864267
 20
19.525431224584
 30
0.0
 11
135.368253864267
 21
19.525431224584
 31
0.0
  0
LINE
  5
29F8
330
29F4
100
AcDbEntity
  8
図枠細線
  6
CONTINUOUS
 62
   252
100
AcDbLine
 10
78.368253864267
 20
27.025431224584
 30
0.0
 11
135.368253864267
 21
27.025431224584
 31
0.0
  0
TEXT
  5
29F9
330
29F4
100
AcDbEntity
  8
図枠ロゴマーク
  6
CONTINUOUS
 62
   253
100
AcDbText
 10
80.617009864267
 20
11.117825224584
 30
0.0
 40
7.0
  1
東和制電工業株式会社
 41
0.639204545455
  7
EXCADSTD
 72
     5
 11
133.117009864267
 21
11.117825224584
 31
0.0
100
AcDbText
  0
TEXT
  5
29FA
330
29F4
100
AcDbEntity
  8
図枠細線
  6
CONTINUOUS
 62
   252
100
AcDbText
 10
80.579549864267
 20
6.172924224584
 30
0.0
 40
3.5
  1
ＴＯＷＡ　ＳＥＩＤＥＮ　ＩＮＤＵＳＴＲＩＡＬ　ＣＯ．，ＬＴＤ．
 41
0.414568012377
  7
EXCADSTD
 72
     5
 11
133.202049568628
 21
6.172924224584
 31
0.0
100
AcDbText
  0
LINE
  5
29FB
330
29F4
100
AcDbEntity
  8
図枠太線
  6
CONTINUOUS
 62
   251
100
AcDbLine
 10
2.368253864267
 20
4.525433224584
 30
0.0
 11
2.368253864267
 21
34.525431224584
 31
0.0
  0
TEXT
  5
29FC
330
29F4
100
AcDbEntity
  8
図枠細線
  6
CONTINUOUS
 62
   252
100
AcDbText
 10
22.504308136501
 20
12.279133224584
 30
0.0
 40
2.0
  1
ＴＨＩＲＤ　ＡＮＧＬＥ
 41
0.691099486738
  7
EXCADSTD
 72
     5
 11
40.104308398762
 21
12.279133224584
 31
0.0
100
AcDbText
  0
TEXT
  5
29FD
330
29F4
100
AcDbEntity
  8
図枠細線
  6
CONTINUOUS
 62
   252
100
AcDbText
 10
22.429384136501
 20
9.357144224584
 30
0.0
 40
2.0
  1
ＰＲＯＪＥＣＴＩＯＮ
 41
0.754285710199
  7
EXCADSTD
 72
     5
 11
40.029384041134
 21
9.357144224584
 31
0.0
100
AcDbText
  0
LINE
  5
29FE
330
29F4
100
AcDbEntity
  8
図枠細線
  6
CONTINUOUS
100
AcDbLine
 10
22.368253864267
 20
19.525433224584
 30
0.0
 11
78.368253864267
 21
19.525431224584
 31
0.0
  0
TEXT
  5
29FF
330
29F4
100
AcDbEntity
  8
図枠細線
  6
CONTINUOUS
 62
   252
100
AcDbText
 10
22.868253864267
 20
17.025433224584
 30
0.0
 40
2.0
  1
第三角法
 41
1.102941176471
  7
EXCADSTD
 72
     5
 11
32.868253864267
 21
17.025433224584
 31
0.0
100
AcDbText
  0
TEXT
  5
2A00
330
29F4
100
AcDbEntity
  8
図枠細線
  6
CONTINUOUS
 62
   252
100
AcDbText
 10
22.868253864267
 20
29.525433224584
 30
0.0
 40
2.0
  1
ＡＰＰＲＯＶＥＤ
 41
0.695652184279
  7
EXCADSTD
 72
     5
 11
35.668254055002
 21
29.525433224584
 31
0.0
100
AcDbText
  0
LINE
  5
2A01
330
29F4
100
AcDbEntity
  8
図枠細線
  6
CONTINUOUS
 62
   252
100
AcDbLine
 10
2.368253864267
 20
9.525433224584
 30
0.0
 11
22.368253864267
 21
9.525433224584
 31
0.0
  0
LINE
  5
2A02
330
29F4
100
AcDbEntity
  8
図枠細線
  6
CONTINUOUS
 62
   252
100
AcDbLine
 10
2.368253864267
 20
14.525431224584
 30
0.0
 11
22.368253864267
 21
14.525431224584
 31
0.0
  0
LINE
  5
2A03
330
29F4
100
AcDbEntity
  8
図枠細線
  6
CONTINUOUS
 62
   252
100
AcDbLine
 10
2.368253864267
 20
24.525431224584
 30
0.0
 11
22.368253864267
 21
24.525431224584
 31
0.0
  0
LINE
  5
2A04
330
29F4
100
AcDbEntity
  8
図枠細線
  6
CONTINUOUS
 62
   252
100
AcDbLine
 10
2.368253864267
 20
29.525431224584
 30
0.0
 11
22.368253864267
 21
29.525431224584
 31
0.0
  0
LINE
  5
2A05
330
29F4
100
AcDbEntity
  8
図枠細線
  6
CONTINUOUS
100
AcDbLine
 10
2.368253864267
 20
19.525433224584
 30
0.0
 11
22.368253864267
 21
19.525433224584
 31
0.0
  0
TEXT
  5
2A06
330
29F4
100
AcDbEntity
  8
図枠細線
  6
CONTINUOUS
 62
   252
100
AcDbText
 10
2.868253864267
 20
32.025433224584
 30
0.0
 40
2.0
  1
ＮＯＴＥ
 41
0.923076923077
  7
EXCADSTD
 72
     5
 11
10.868253864267
 21
32.025433224584
 31
0.0
100
AcDbText
  0
LINE
  5
2A07
330
29F4
100
AcDbEntity
  8
図枠太線
  6
CONTINUOUS
 62
   251
100
AcDbLine
 10
22.368253864267
 20
4.525433224584
 30
0.0
 11
22.368253864267
 21
34.525431224584
 31
0.0
  0
TEXT
  5
2A08
330
29F4
100
AcDbEntity
  8
図枠細線
  6
CONTINUOUS
 62
   252
100
AcDbText
 10
22.868253864267
 20
32.025433224584
 30
0.0
 40
2.0
  1
承認
 41
1.171875
  7
EXCADSTD
 72
     5
 11
27.868253864267
 21
32.025433224584
 31
0.0
100
AcDbText
  0
TEXT
  5
2A09
330
29F4
100
AcDbEntity
  8
図枠細線
  6
CONTINUOUS
 62
   252
100
AcDbText
 10
60.711709035982
 20
32.025433224584
 30
0.0
 40
2.0
  1
製図
 41
1.209677419355
  7
EXCADSTD
 72
     5
 11
65.711709035982
 21
32.025433224584
 31
0.0
100
AcDbText
  0
TEXT
  5
2A0A
330
29F4
100
AcDbEntity
  8
図枠細線
  6
CONTINUOUS
 62
   252
100
AcDbText
 10
60.711709035982
 20
29.525433224584
 30
0.0
 40
2.0
  1
ＤＲＡＷＮ
 41
0.882352941176
  7
EXCADSTD
 72
     5
 11
70.711709035982
 21
29.525433224584
 31
0.0
100
AcDbText
  0
TEXT
  5
2A0B
330
29F4
100
AcDbEntity
  8
図枠細線
  6
CONTINUOUS
 62
   252
100
AcDbText
 10
60.834891743877
 20
17.025433224584
 30
0.0
 40
2.0
  1
日付
 41
1.171875
  7
EXCADSTD
 72
     5
 11
65.834891743877
 21
17.025433224584
 31
0.0
100
AcDbText
  0
TEXT
  5
2A0C
330
29F4
100
AcDbEntity
  8
図枠細線
  6
CONTINUOUS
 62
   252
100
AcDbText
 10
47.333660864267
 20
17.025433224584
 30
0.0
 40
2.0
  1
ＳＣＡＬＥ
 41
0.903614457831
  7
EXCADSTD
 72
     5
 11
57.333660864267
 21
17.025433224584
 31
0.0
100
AcDbText
  0
TEXT
  5
2A0D
330
29F4
100
AcDbEntity
  8
図枠細線
  6
CONTINUOUS
 62
   252
100
AcDbText
 10
42.281425990082
 20
29.525433224584
 30
0.0
 40
2.0
  1
ＣＨＥＣＫＥＤ
 41
0.831249989569
  7
EXCADSTD
 72
     5
 11
55.581425823189
 21
29.525433224584
 31
0.0
100
AcDbText
  0
LINE
  5
2A0E
330
29F4
100
AcDbEntity
  8
図枠細線
  6
CONTINUOUS
 62
   252
100
AcDbLine
 10
40.968253864267
 20
34.525431224584
 30
0.0
 11
40.968253864267
 21
19.525431224584
 31
0.0
  0
LINE
  5
2A0F
330
29F4
100
AcDbEntity
  8
図枠細線
  6
CONTINUOUS
 62
   252
100
AcDbLine
 10
40.968253864267
 20
4.525433224584
 30
0.0
 11
40.968253864267
 21
19.525431224584
 31
0.0
  0
TEXT
  5
2A10
330
29F4
100
AcDbEntity
  8
図枠細線
  6
CONTINUOUS
 62
   252
100
AcDbText
 10
41.961173864267
 20
17.025433224584
 30
0.0
 40
2.0
  1
尺度
 41
1.171875
  7
EXCADSTD
 72
     5
 11
46.961173864267
 21
17.025433224584
 31
0.0
100
AcDbText
  0
TEXT
  5
2A11
330
29F4
100
AcDbEntity
  8
図枠細線
  6
CONTINUOUS
 62
   252
100
AcDbText
 10
42.281425990082
 20
32.025433224584
 30
0.0
 40
2.0
  1
検図
 41
1.209677419355
  7
EXCADSTD
 72
     5
 11
47.281425990082
 21
32.025433224584
 31
0.0
100
AcDbText
  0
LINE
  5
2A12
330
29F4
100
AcDbEntity
  8
図枠細線
  6
CONTINUOUS
 62
   252
100
AcDbLine
 10
59.768253864267
 20
34.525431224584
 30
0.0
 11
59.768253864267
 21
19.525431224584
 31
0.0
  0
LINE
  5
2A13
330
29F4
100
AcDbEntity
  8
図枠細線
  6
CONTINUOUS
 62
   252
100
AcDbLine
 10
59.768253864267
 20
4.525433224584
 30
0.0
 11
59.768253864267
 21
19.525431224584
 31
0.0
  0
LINE
  5
2A14
330
29F4
100
AcDbEntity
  8
図枠太線
  6
CONTINUOUS
 62
   251
100
AcDbLine
 10
78.368253864267
 20
4.525433224584
 30
0.0
 11
78.368253864267
 21
34.525431224584
 31
0.0
  0
TEXT
  5
2A15
330
29F4
100
AcDbEntity
  8
図枠細線
  6
CONTINUOUS
 62
   252
100
AcDbText
 10
66.334891743877
 20
17.025433224584
 30
0.0
 40
2.0
  1
ＤＡＴＥ
 41
0.923076923077
  7
EXCADSTD
 72
     5
 11
74.334891743877
 21
17.025433224584
 31
0.0
100
AcDbText
  0
LINE
  5
2A16
330
29F4
100
AcDbEntity
  8
図枠細線
  6
CONTINUOUS
 62
   252
100
AcDbLine
 10
135.368253864267
 20
19.525431224584
 30
0.0
 11
192.368245864267
 21
19.525431224584
 31
0.0
  0
TEXT
  5
2A17
330
29F4
100
AcDbEntity
  8
図枠細線
  6
CONTINUOUS
 62
   252
100
AcDbText
 10
141.868253864267
 20
32.025433224584
 30
0.0
 40
2.0
  1
ＴＩＴＬＥ
 41
0.903614457831
  7
EXCADSTD
 72
     5
 11
151.868253864267
 21
32.025433224584
 31
0.0
100
AcDbText
  0
LINE
  5
2A18
330
29F4
100
AcDbEntity
  8
図枠太線
  6
CONTINUOUS
 62
   251
100
AcDbLine
 10
135.368253864267
 20
4.525433224584
 30
0.0
 11
135.368253864267
 21
34.525431224584
 31
0.0
  0
TEXT
  5
2A19
330
29F4
100
AcDbEntity
  8
図枠細線
  6
CONTINUOUS
 62
   252
100
AcDbText
 10
135.868253864267
 20
17.025433224584
 30
0.0
 40
2.0
  1
図面番号
 41
1.102941176471
  7
EXCADSTD
 72
     5
 11
145.868253864267
 21
17.025433224584
 31
0.0
100
AcDbText
  0
TEXT
  5
2A1A
330
29F4
100
AcDbEntity
  8
図枠細線
  6
CONTINUOUS
 62
   252
100
AcDbText
 10
135.868253864267
 20
32.025433224584
 30
0.0
 40
2.0
  1
名称
 41
1.171875
  7
EXCADSTD
 72
     5
 11
140.868253864267
 21
32.025433224584
 31
0.0
100
AcDbText
  0
TEXT
  5
2A1B
330
29F4
100
AcDbEntity
  8
図枠細線
  6
CONTINUOUS
 62
   252
100
AcDbText
 10
146.868253864267
 20
17.025433224584
 30
0.0
 40
2.0
  1
ＤＲＧ．ＮＯ．
 41
0.9375
  7
EXCADSTD
 72
     5
 11
160.868253864267
 21
17.025433224584
 31
0.0
100
AcDbText
  0
LINE
  5
2A1C
330
29F4
100
AcDbEntity
  8
図枠太線
  6
CONTINUOUS
 62
   251
100
AcDbLine
 10
192.368245864267
 20
4.525433224584
 30
0.0
 11
192.368245864267
 21
34.525431224584
 31
0.0
  0
ENDBLK
  5
2A1D
330
29F4
100
AcDbEntity
  8
0
100
AcDbBlockEnd
  0
BLOCK
  5
2A33
330
2A32
100
AcDbEntity
  8
0
100
AcDbBlockBegin
  2
A3横用_タイトル
 70
     0
 10
0.0
 20
0.0
 30
0.0
  3
A3横用_タイトル
  1

  0
LINE
  5
2A34
330
2A32
100
AcDbEntity
  8
図枠細線
  6
CONTINUOUS
 62
   252
100
AcDbLine
 10
205.098414535793
 20
33.525959753527
 30
0.0
 11
305.098414535793
 21
33.525959753527
 31
0.0
  0
LINE
  5
2A35
330
2A32
100
AcDbEntity
  8
図枠太線
  6
CONTINUOUS
 62
   251
100
AcDbLine
 10
205.098414535793
 20
23.525959753527
 30
0.0
 11
305.098414535793
 21
23.525959753527
 31
0.0
  0
LINE
  5
2A36
330
2A32
100
AcDbEntity
  8
図枠細線
  6
CONTINUOUS
100
AcDbLine
 10
5.098414535793
 20
23.525959753527
 30
0.0
 11
105.098414535793
 21
23.525959753527
 31
0.0
  0
LINE
  5
2A37
330
2A32
100
AcDbEntity
  8
図枠細線
  6
CONTINUOUS
 62
   252
100
AcDbLine
 10
5.098414535793
 20
36.725957753527
 30
0.0
 11
105.098414535793
 21
36.725957753527
 31
0.0
  0
LINE
  5
2A38
330
2A32
100
AcDbEntity
  8
図枠細線
  6
CONTINUOUS
 62
   252
100
AcDbLine
 10
5.098414535793
 20
30.125957753527
 30
0.0
 11
105.098414535793
 21
30.125957753527
 31
0.0
  0
LINE
  5
2A39
330
2A32
100
AcDbEntity
  8
図枠細線
  6
CONTINUOUS
 62
   252
100
AcDbLine
 10
5.098414535793
 20
16.725959753527
 30
0.0
 11
105.098414535793
 21
16.725959753527
 31
0.0
  0
LINE
  5
2A3A
330
2A32
100
AcDbEntity
  8
図枠細線
  6
CONTINUOUS
 62
   252
100
AcDbLine
 10
5.098414535793
 20
10.125959753527
 30
0.0
 11
105.098414535793
 21
10.125959753527
 31
0.0
  0
LINE
  5
2A3B
330
2A32
100
AcDbEntity
  8
図枠細線
  6
CONTINUOUS
100
AcDbLine
 10
105.098414535793
 20
23.525961753527
 30
0.0
 11
205.098414535793
 21
23.525959753527
 31
0.0
  0
LINE
  5
2A3C
330
2A32
100
AcDbEntity
  8
図枠細線
  6
CONTINUOUS
 62
   252
100
AcDbLine
 10
138.398414535793
 20
43.525959753527
 30
0.0
 11
138.398414535793
 21
18.525957753527
 31
0.0
  0
LINE
  5
2A3D
330
2A32
100
AcDbEntity
  8
図枠細線
  6
CONTINUOUS
 62
   252
100
AcDbLine
 10
171.698414535793
 20
43.525959753527
 30
0.0
 11
171.698414535793
 21
18.525957753527
 31
0.0
  0
LINE
  5
2A3E
330
2A32
100
AcDbEntity
  8
図枠細線
  6
CONTINUOUS
 62
   252
100
AcDbLine
 10
305.098414535793
 20
23.525959753527
 30
0.0
 11
405.098414535793
 21
23.525959753527
 31
0.0
  0
TEXT
  5
2A3F
330
2A32
100
AcDbEntity
  8
図枠ロゴマーク
  6
CONTINUOUS
 62
   253
100
AcDbText
 10
206.102509212755
 20
13.294257570546
 30
0.0
 40
7.0
  1
東和制電工業株式会社
 50
0.016555220185
 41
1.186384129432
  7
EXCADSTD
 72
     5
 11
303.544188309143
 21
13.322412672217
 31
0.0
100
AcDbText
  0
MTEXT
  5
2A40
330
2A32
100
AcDbEntity
  8
図枠細線
100
AcDbMText
 10
6.356764112375
 20
41.976594175478
 30
0.0
 40
2.5
 41
49.938282706292
 71
     1
 72
     5
  1
{\Fmonotxt.shx,bigfont.shx|c128;図暦　CHANGE　NOTICE}
  0
MTEXT
  5
2A41
330
2A32
100
AcDbEntity
  8
図枠細線
 48
10.0
100
AcDbMText
 10
306.544114926828
 20
41.701835800934
 30
0.0
 40
2.5
 41
28.002809618823
 71
     1
 72
     5
  1
{\Fmonotxt.shx,bigfont.shx|c128;名称　TITLE}
  0
MTEXT
  5
2A42
330
2A32
100
AcDbEntity
  8
図枠細線
 48
10.0
100
AcDbMText
 10
307.329617114284
 20
21.606206797226
 30
0.0
 40
2.5
 41
24.385612216707
 71
     1
 72
     5
  1
{\Fmonotxt.shx,bigfont.shx|c128;図面番号\PDRG.　No.}
  0
MTEXT
  5
2A43
330
2A32
100
AcDbEntity
  8
図枠細線
 48
10.0
100
AcDbMText
 10
173.726349404609
 20
21.73680662198
 30
0.0
 40
2.5
 41
25.735090160813
 71
     1
 72
     5
  1
{\Fmonotxt.shx,bigfont.shx|c128;日付 DATE}
  0
MTEXT
  5
2A44
330
2A32
100
AcDbEntity
  8
図枠細線
 48
10.0
100
AcDbMText
 10
173.48708833982
 20
41.621592044998
 30
0.0
 40
2.5
 41
24.983741184205
 71
     1
 72
     5
  1
{\Fmonotxt.shx,bigfont.shx|c128;製図　DRAWN}
  0
MTEXT
  5
2A45
330
2A32
100
AcDbEntity
  8
図枠細線
 48
10.0
100
AcDbMText
 10
139.28009927741
 20
21.866713069868
 30
0.0
 40
2.5
 41
22.629632913243
 71
     1
 72
     5
  1
{\Fmonotxt.shx,bigfont.shx|c128;尺度　SCALE}
  0
MTEXT
  5
2A46
330
2A32
100
AcDbEntity
  8
図枠細線
 48
10.0
100
AcDbMText
 10
139.910091179835
 20
41.311840415554
 30
0.0
 40
2.5
 41
28.998753428368
 71
     1
 72
     5
  1
{\Fmonotxt.shx,bigfont.shx|c128;検図  CHECKED}
  0
MTEXT
  5
2A47
330
2A32
100
AcDbEntity
  8
図枠細線
 48
10.0
100
AcDbMText
 10
114.253294667728
 20
21.916124850174
 30
0.0
 40
3.0
 41
19.692400475383
 71
     1
 72
     5
  1
{\Fmonotxt.shx,bigfont.shx|c128;第三角法}
  0
MTEXT
  5
2A48
330
2A32
100
AcDbEntity
  8
図枠細線
 48
10.0
100
AcDbMText
 10
108.986959929915
 20
15.282880185837
 30
0.0
 40
2.5
 41
27.954882823547
 71
     1
 72
     5
  1
{\Fmonotxt.shx,bigfont.shx|c128;THIRD ANGLE\PPROJECTION}
  0
MTEXT
  5
2A49
330
2A32
100
AcDbEntity
  8
図枠細線
 48
10.0
100
AcDbMText
 10
106.319432640184
 20
41.511437145487
 30
0.0
 40
2.5
 41
28.233595265074
 71
     1
 72
     5
  1
{\Fmonotxt.shx,bigfont.shx|c128;承認 APPROVED}
  0
LINE
  5
2A4A
330
2A32
100
AcDbEntity
  8
図枠太線
  6
CONTINUOUS
 62
   251
100
AcDbLine
 10
5.098414535793
 20
3.525959753527
 30
0.0
 11
405.098414535793
 21
3.525959753527
 31
0.0
  0
LINE
  5
2A4B
330
2A32
100
AcDbEntity
  8
図枠太線
 48
10.0
100
AcDbLine
 10
5.098414535793
 20
3.525959753527
 30
0.0
 11
5.098414535793
 21
43.525959753527
 31
0.0
  0
LINE
  5
2A4C
330
2A32
100
AcDbEntity
  8
図枠太線
  6
CONTINUOUS
 62
   251
100
AcDbLine
 10
105.098414535793
 20
3.525959753527
 30
0.0
 11
105.098414535793
 21
43.525959753527
 31
0.0
  0
LINE
  5
2A4D
330
2A32
100
AcDbEntity
  8
図枠細線
  6
CONTINUOUS
 62
   252
100
AcDbLine
 10
138.398414535793
 20
3.525959753527
 30
0.0
 11
138.398414535793
 21
18.525957753527
 31
0.0
  0
LINE
  5
2A4E
330
2A32
100
AcDbEntity
  8
図枠細線
  6
CONTINUOUS
 62
   252
100
AcDbLine
 10
171.698414535793
 20
3.525959753527
 30
0.0
 11
171.698414535793
 21
18.525957753527
 31
0.0
  0
LINE
  5
2A4F
330
2A32
100
AcDbEntity
  8
図枠太線
  6
CONTINUOUS
 62
   251
100
AcDbLine
 10
205.098414535793
 20
3.525959753527
 30
0.0
 11
205.098414535793
 21
43.525959753527
 31
0.0
  0
LINE
  5
2A50
330
2A32
100
AcDbEntity
  8
図枠太線
 48
10.0
100
AcDbLine
 10
405.098414535793
 20
43.525959753527
 30
0.0
 11
405.098414535793
 21
3.525959753527
 31
0.0
  0
TEXT
  5
2A51
330
2A32
100
AcDbEntity
  8
図枠細線
  6
CONTINUOUS
 62
   252
100
AcDbText
 10
208.519754474572
 20
6.482358407285
 30
0.0
 40
3.5
  1
ＴＯＷＡ　ＳＥＩＤＥＮ　ＩＮＤＵＳＴＲＩＡＬ　ＣＯ．，ＬＴＤ．
 41
0.746656297509
  7
EXCADSTD
 72
     5
 11
303.295327171727
 21
6.482358407285
 31
0.0
100
AcDbText
  0
LINE
  5
2A52
330
2A32
100
AcDbEntity
  8
図枠太線
  6
CONTINUOUS
 62
   251
100
AcDbLine
 10
305.098414535793
 20
3.525959753527
 30
0.0
 11
305.098414535793
 21
43.525959753527
 31
0.0
  0
ENDBLK
  5
2A53
330
2A32
100
AcDbEntity
  8
0
100
AcDbBlockEnd
  0
BLOCK
  5
2A6D
330
2A6C
100
AcDbEntity
  8
0
100
AcDbBlockBegin
  2
A3縦用_タイトル
 70
     0
 10
0.0
 20
0.0
 30
0.0
  3
A3縦用_タイトル
  1

  0
MTEXT
  5
2A6E
330
2A6C
100
AcDbEntity
  8
図枠細線
100
AcDbMText
 10
5.040804501593
 20
31.626098649005
 30
0.0
 40
2.5
 41
49.938282706292
 71
     1
 72
     5
  1
{\Fmonotxt.shx,bigfont.shx|c128;図暦　CHANGE　NOTICE}
  0
LINE
  5
2A6F
330
2A6C
100
AcDbEntity
  8
図枠太線
  6
CONTINUOUS
 62
   251
100
AcDbLine
 10
283.577871882961
 20
2.820844689254
 30
0.0
 11
283.577871882961
 21
32.820842689254
 31
0.0
  0
MTEXT
  5
2A70
330
2A6C
100
AcDbEntity
  8
図枠細線
 48
10.0
100
AcDbMText
 10
214.912458947454
 20
31.621488632308
 30
0.0
 40
2.5
 41
28.002809618823
 71
     1
 72
     5
  1
{\Fmonotxt.shx,bigfont.shx|c128;名称　TITLE}
  0
MTEXT
  5
2A71
330
2A6C
100
AcDbEntity
  8
図枠細線
 48
10.0
100
AcDbMText
 10
214.740030458938
 20
16.310225796722
 30
0.0
 40
2.5
 41
24.385612216707
 71
     1
 72
     5
  1
{\Fmonotxt.shx,bigfont.shx|c128;図面番号\PDRG.　No.}
  0
LINE
  5
2A72
330
2A6C
100
AcDbEntity
  8
図枠太線
  6
CONTINUOUS
 62
   251
100
AcDbLine
 10
213.577871882961
 20
2.820844689254
 30
0.0
 11
213.577871882961
 21
32.820842689254
 31
0.0
  0
LINE
  5
2A73
330
2A6C
100
AcDbEntity
  8
図枠太線
  6
CONTINUOUS
 62
   251
100
AcDbLine
 10
143.577871882961
 20
2.820844689254
 30
0.0
 11
143.577871882961
 21
32.820842689254
 31
0.0
  0
TEXT
  5
2A74
330
2A6C
100
AcDbEntity
  8
図枠細線
  6
CONTINUOUS
 62
   252
100
AcDbText
 10
145.716454488093
 20
4.468335689254
 30
0.0
 40
3.5
  1
ＴＯＷＡ　ＳＥＩＤＥＮ　ＩＮＤＵＳＴＲＩＡＬ　ＣＯ．，ＬＴＤ．
 41
0.528937826907
  7
EXCADSTD
 72
     5
 11
212.856295983498
 21
4.468335689254
 31
0.0
100
AcDbText
  0
TEXT
  5
2A75
330
2A6C
100
AcDbEntity
  8
図枠ロゴマーク
  6
CONTINUOUS
 62
   253
100
AcDbText
 10
145.950637593507
 20
9.413236689254
 30
0.0
 40
7.0
  1
東和制電工業株式会社
 41
0.80361088462
  7
EXCADSTD
 72
     5
 11
211.953878250259
 21
9.413236689254
 31
0.0
100
AcDbText
  0
LINE
  5
2A76
330
2A6C
100
AcDbEntity
  8
図枠細線
  6
CONTINUOUS
 62
   252
100
AcDbLine
 10
143.577871882961
 20
25.320842689254
 30
0.0
 11
213.577871882961
 21
25.320842689254
 31
0.0
  0
LINE
  5
2A77
330
2A6C
100
AcDbEntity
  8
図枠太線
  6
CONTINUOUS
 62
   251
100
AcDbLine
 10
143.577863882961
 20
17.820842689254
 30
0.0
 11
213.577871882961
 21
17.820842689254
 31
0.0
  0
LINE
  5
2A78
330
2A6C
100
AcDbEntity
  8
図枠細線
  6
CONTINUOUS
 62
   252
100
AcDbLine
 10
213.577871882961
 20
17.820842689254
 30
0.0
 11
283.577871882961
 21
17.820842689254
 31
0.0
  0
LINE
  5
2A79
330
2A6C
100
AcDbEntity
  8
図枠細線
  6
CONTINUOUS
 62
   252
100
AcDbLine
 10
120.577871882961
 20
32.820842689254
 30
0.0
 11
120.577871882961
 21
17.820842689254
 31
0.0
  0
MTEXT
  5
2A7A
330
2A6C
100
AcDbEntity
  8
図枠細線
 48
10.0
100
AcDbMText
 10
121.100885670352
 20
16.33785922638
 30
0.0
 40
2.0
 41
17.705978285068
 71
     1
 72
     5
  1
{\Fmonotxt.shx,bigfont.shx|c128;日付 DATE}
  0
MTEXT
  5
2A7B
330
2A6C
100
AcDbEntity
  8
図枠細線
 48
10.0
100
AcDbMText
 10
121.254842273491
 20
31.208993514037
 30
0.0
 40
2.0
 41
18.363799568758
 71
     1
 72
     5
  1
{\Fmonotxt.shx,bigfont.shx|c128;製図　DRAWN}
  0
LINE
  5
2A7C
330
2A6C
100
AcDbEntity
  8
図枠細線
  6
CONTINUOUS
 62
   252
100
AcDbLine
 10
97.577871882961
 20
32.820842689254
 30
0.0
 11
97.577871882961
 21
17.820842689254
 31
0.0
  0
MTEXT
  5
2A7D
330
2A6C
100
AcDbEntity
  8
図枠細線
 48
10.0
100
AcDbMText
 10
98.239734796872
 20
16.467764839281
 30
0.0
 40
2.0
 41
17.757791689903
 71
     1
 72
     5
  1
{\Fmonotxt.shx,bigfont.shx|c128;尺度　SCALE}
  0
MTEXT
  5
2A7E
330
2A6C
100
AcDbEntity
  8
図枠細線
 48
10.0
100
AcDbMText
 10
97.864744625154
 20
31.298433377664
 30
0.0
 40
2.0
 41
23.162655920976
 71
     1
 72
     5
  1
{\Fmonotxt.shx,bigfont.shx|c128;検図  CHECKED}
  0
LINE
  5
2A7F
330
2A6C
100
AcDbEntity
  8
図枠細線
  6
CONTINUOUS
 62
   252
100
AcDbLine
 10
97.577871882961
 20
2.820843367826
 30
0.0
 11
97.577871882961
 21
17.820841367826
 31
0.0
  0
LINE
  5
2A80
330
2A6C
100
AcDbEntity
  8
図枠細線
  6
CONTINUOUS
 62
   252
100
AcDbLine
 10
120.577871882961
 20
2.820844010683
 30
0.0
 11
120.577871882961
 21
17.820842010683
 31
0.0
  0
MTEXT
  5
2A81
330
2A6C
100
AcDbEntity
  8
図枠細線
 48
10.0
100
AcDbMText
 10
81.402399084102
 20
16.316484117426
 30
0.0
 40
2.0
 41
12.920322819369
 71
     1
 72
     5
  1
{\Fmonotxt.shx,bigfont.shx|c128;第三角法}
  0
MTEXT
  5
2A82
330
2A6C
100
AcDbEntity
  8
図枠細線
 48
10.0
100
AcDbMText
 10
75.736576535096
 20
11.080410931319
 30
0.0
 40
2.0
 41
21.072870671471
 71
     1
 72
     5
  1
{\Fmonotxt.shx,bigfont.shx|c128;THIRD ANGLE\PPROJECTION}
  0
LINE
  5
2A83
330
2A6C
100
AcDbEntity
  8
図枠太線
  6
CONTINUOUS
 62
   251
100
AcDbLine
 10
74.577871882961
 20
2.820844689254
 30
0.0
 11
74.577871882961
 21
32.820842689254
 31
0.0
  0
MTEXT
  5
2A84
330
2A6C
100
AcDbEntity
  8
図枠細線
 48
10.0
100
AcDbMText
 10
75.060214781573
 20
31.298434778555
 30
0.0
 40
2.0
 41
22.240928805967
 71
     1
 72
     5
  1
{\Fmonotxt.shx,bigfont.shx|c128;承認 APPROVED}
  0
LINE
  5
2A85
330
2A6C
100
AcDbEntity
  8
図枠細線
  6
CONTINUOUS
100
AcDbLine
 10
3.577871882961
 20
17.820844689254
 30
0.0
 11
74.577871882961
 21
17.820844689254
 31
0.0
  0
LINE
  5
2A86
330
2A6C
100
AcDbEntity
  8
図枠細線
  6
CONTINUOUS
 62
   252
100
AcDbLine
 10
3.577871882961
 20
27.820842689254
 30
0.0
 11
74.577871882961
 21
27.820842689254
 31
0.0
  0
LINE
  5
2A87
330
2A6C
100
AcDbEntity
  8
図枠細線
  6
CONTINUOUS
 62
   252
100
AcDbLine
 10
3.577871882961
 20
22.820842689254
 30
0.0
 11
74.577871882961
 21
22.820842689254
 31
0.0
  0
LINE
  5
2A88
330
2A6C
100
AcDbEntity
  8
図枠細線
  6
CONTINUOUS
 62
   252
100
AcDbLine
 10
3.577871882961
 20
12.820842689254
 30
0.0
 11
74.577871882961
 21
12.820842689254
 31
0.0
  0
LINE
  5
2A89
330
2A6C
100
AcDbEntity
  8
図枠細線
  6
CONTINUOUS
 62
   252
100
AcDbLine
 10
3.577871882961
 20
7.820844689254
 30
0.0
 11
74.577871882961
 21
7.820844689254
 31
0.0
  0
LINE
  5
2A8A
330
2A6C
100
AcDbEntity
  8
図枠細線
  6
CONTINUOUS
100
AcDbLine
 10
74.577871882961
 20
17.820843689254
 30
0.0
 11
143.577871882961
 21
17.820841224969
 31
0.0
  0
LINE
  5
2A8B
330
2A6C
100
AcDbEntity
  8
図枠太線
  6
CONTINUOUS
 62
   251
100
AcDbLine
 10
3.577871882961
 20
2.820844689254
 30
0.0
 11
283.577871882961
 21
2.820844689254
 31
0.0
  0
LINE
  5
2A8C
330
2A6C
100
AcDbEntity
  8
図枠太線
  6
CONTINUOUS
 62
   251
100
AcDbLine
 10
3.577871882961
 20
2.820844689254
 30
0.0
 11
3.577871882961
 21
32.820842689254
 31
0.0
  0
ENDBLK
  5
2A8D
330
2A6C
100
AcDbEntity
  8
0
100
AcDbBlockEnd
  0
BLOCK
  5
2AF8
330
2AF4
100
AcDbEntity
  8
0
 48
10.0
100
AcDbBlockBegin
  2
_OPEN30
 70
     0
 10
0.0
 20
0.0
 30
0.0
  3
_OPEN30
  1

  0
LINE
  5
2AF5
330
2AF4
100
AcDbEntity
  8
0
  6
BYBLOCK
 62
     0
100
AcDbLine
 10
-1.0
 20
0.26794919
 30
0.0
 11
0.0
 21
0.0
 31
0.0
  0
LINE
  5
2AF6
330
2AF4
100
AcDbEntity
  8
0
  6
BYBLOCK
 62
     0
100
AcDbLine
 10
0.0
 20
0.0
 30
0.0
 11
-1.0
 21
-0.26794919
 31
0.0
  0
LINE
  5
2AF7
330
2AF4
100
AcDbEntity
  8
0
  6
BYBLOCK
 62
     0
100
AcDbLine
 10
0.0
 20
0.0
 30
0.0
 11
-1.0
 21
0.0
 31
0.0
  0
ENDBLK
  5
2AF9
330
2AF4
100
AcDbEntity
  8
0
 48
10.0
100
AcDbBlockEnd
  0
BLOCK
  5
4774
330
476E
100
AcDbEntity
  8
0
 48
10.0
100
AcDbBlockBegin
  2
A$C7D097536
 70
     0
 10
0.0
 20
0.0
 30
0.0
  3
A$C7D097536
  1

  0
TEXT
  5
476F
330
476E
100
AcDbEntity
  8
寸法線
100
AcDbText
 10
-0.000000809486
 20
24.999999417538
 30
0.0
 40
8.75
  1
i3nG3
100
AcDbText
  0
TEXT
  5
4770
330
476E
100
AcDbEntity
  8
寸法線
100
AcDbText
 10
-0.000000809486
 20
12.499999417538
 30
0.0
 40
8.75
  1
労検第T56048号
100
AcDbText
  0
TEXT
  5
4771
330
476E
100
AcDbEntity
  8
寸法線
100
AcDbText
 10
-0.000000809486
 20
-0.000000582462
 30
0.0
 40
8.75
  1
本質安全防爆構造
100
AcDbText
  0
ENDBLK
  5
4775
330
476E
100
AcDbEntity
  8
0
 48
10.0
100
AcDbBlockEnd
  0
BLOCK
  5
47B4
330
47B0
100
AcDbEntity
  8
0
 48
10.0
100
AcDbBlockBegin
  2
A$C5C66712B
 70
     0
 10
0.0
 20
0.0
 30
0.0
  3
A$C5C66712B
  1

  0
TEXT
  5
47B1
330
47B0
100
AcDbEntity
  8
寸法線
100
AcDbText
 10
-0.000000793807
 20
-0.000000115305
 30
0.0
 40
8.75
  1
本質安全防爆構造
100
AcDbText
  0
TEXT
  5
47B2
330
47B0
100
AcDbEntity
  8
寸法線
100
AcDbText
 10
-0.000000793807
 20
24.999999884695
 30
0.0
 40
8.75
  1
i3nG3
100
AcDbText
  0
TEXT
  5
47B3
330
47B0
100
AcDbEntity
  8
寸法線
100
AcDbText
 10
-0.000000793807
 20
12.499999884695
 30
0.0
 40
8.75
  1
労検第T56048号
100
AcDbText
  0
ENDBLK
  5
47B5
330
47B0
100
AcDbEntity
  8
0
 48
10.0
100
AcDbBlockEnd
  0
BLOCK
  5
49E2
330
49E1
100
AcDbEntity
  8
0
100
AcDbBlockBegin
  2
4840138
 70
     0
 10
0.0
 20
0.0
 30
0.0
  3
4840138
  1

  0
LWPOLYLINE
  5
49E3
330
49E1
100
AcDbEntity
  8
寸法線
100
AcDbPolyline
 90
        8
 70
     0
 43
0.0
 10
2.190265478566
 20
4.332167481305
 10
2.725448111072
 20
3.796984848101
 42
-0.414213562373
 10
2.725448111072
 20
3.203015151899
 10
2.190875384957
 20
2.668442425318
 10
2.666051141918
 20
2.193266668357
 10
3.200623868033
 20
2.727839394938
 42
-0.414213562373
 10
3.794593567029
 20
2.727839394938
 10
4.330548537895
 20
2.191884422908
  0
LWPOLYLINE
  5
49E4
330
49E1
100
AcDbEntity
  8
寸法線
100
AcDbPolyline
 90
        8
 70
     0
 43
0.0
 10
2.659887647256
 20
4.812896827469
 10
3.200623868033
 20
4.272160605062
 42
0.414213562373
 10
3.794593567029
 20
4.272160605062
 10
4.329166291282
 20
4.806733331643
 10
4.804342048243
 20
4.331557574682
 10
4.26976932399
 20
3.796984848101
 42
0.414213562373
 10
4.26976932399
 20
3.203015151899
 10
4.804342048243
 20
2.668442425318
  0
LINE
  5
49E5
330
49E1
100
AcDbEntity
  8
寸法線
 48
10.0
100
AcDbLine
 10
2.190265478566
 20
4.332167481072
 30
0.0
 11
2.659887647256
 21
4.812896827934
 31
0.0
  0
LINE
  5
49E6
330
49E1
100
AcDbEntity
  8
寸法線
 48
10.0
100
AcDbLine
 10
4.804342048243
 20
2.668442425318
 30
0.0
 11
4.330247215927
 21
2.191581341904
 31
0.0
  0
CIRCLE
  5
49E7
330
49E1
100
AcDbEntity
  8
外形線
 48
10.0
100
AcDbCircle
 10
3.5
 20
3.5
 30
0.0
 40
3.5
  0
ENDBLK
  5
49E8
330
49E1
100
AcDbEntity
  8
0
100
AcDbBlockEnd
  0
BLOCK
  5
49EE
330
49ED
100
AcDbEntity
  8
0
100
AcDbBlockBegin
  2
2420094
 70
     0
 10
0.0
 20
0.0
 30
0.0
  3
2420094
  1

  0
LINE
  5
49EF
330
49ED
100
AcDbEntity
  8
外形線
 48
10.0
100
AcDbLine
 10
0.0
 20
0.0
 30
0.0
 11
7.0
 21
0.0
 31
0.0
  0
ARC
  5
49F0
330
49ED
100
AcDbEntity
  8
外形線
 48
10.0
100
AcDbCircle
 10
3.5
 20
-1.513043478131
 30
0.0
 40
3.813043478209453
100
AcDbArc
 50
23.378738349091
 51
156.621261650909
  0
ENDBLK
  5
49F1
330
49ED
100
AcDbEntity
  8
0
100
AcDbBlockEnd
  0
BLOCK
  5
4A38
330
4A37
100
AcDbEntity
  8
0
100
AcDbBlockBegin
  2
24200C4
 70
     0
 10
0.0
 20
0.0
 30
0.0
  3
24200C4
  1

  0
LINE
  5
4A39
330
4A37
100
AcDbEntity
  8
外形線
100
AcDbLine
 10
7.61999999918
 20
1.0
 30
0.0
 11
1.220000000671
 21
1.0
 31
0.0
  0
INSERT
  5
4A3A
330
4A37
100
AcDbEntity
  8
寸法線
100
AcDbBlockReference
  2
F01
 10
4.419999999925
 20
5.0
 30
0.0
 50
180.0
  0
LINE
  5
4A51
330
4A37
100
AcDbEntity
  8
寸法線
100
AcDbLine
 10
6.669999999925
 20
8.549999999814
 30
0.0
 11
2.169999999925
 21
8.549999999814
 31
0.0
  0
LINE
  5
4A52
330
4A37
100
AcDbEntity
  8
寸法線
100
AcDbLine
 10
6.669999999925
 20
1.450000000186
 30
0.0
 11
2.169999999925
 21
1.450000000186
 31
0.0
  0
LINE
  5
4A53
330
4A37
100
AcDbEntity
  8
寸法線
100
AcDbLine
 10
6.669999999925
 20
8.549999999814
 30
0.0
 11
6.669999999925
 21
7.899999999441
 31
0.0
  0
LINE
  5
4A54
330
4A37
100
AcDbEntity
  8
寸法線
100
AcDbLine
 10
6.669999999925
 20
2.099999999627
 30
0.0
 11
6.669999999925
 21
1.450000000186
 31
0.0
  0
LINE
  5
4A55
330
4A37
100
AcDbEntity
  8
寸法線
100
AcDbLine
 10
2.169999999925
 20
8.549999999814
 30
0.0
 11
2.169999999925
 21
7.899999999441
 31
0.0
  0
LINE
  5
4A56
330
4A37
100
AcDbEntity
  8
寸法線
100
AcDbLine
 10
2.169999999925
 20
2.099999999627
 30
0.0
 11
2.169999999925
 21
1.450000000186
 31
0.0
  0
LINE
  5
4A57
330
4A37
100
AcDbEntity
  8
寸法線
100
AcDbLine
 10
7.419999999925
 20
2.099999999627
 30
0.0
 11
7.419999999925
 21
7.899999999441
 31
0.0
  0
LINE
  5
4A58
330
4A37
100
AcDbEntity
  8
寸法線
100
AcDbLine
 10
1.419999999925
 20
2.099999999627
 30
0.0
 11
1.419999999925
 21
7.899999999441
 31
0.0
  0
LINE
  5
4A59
330
4A37
100
AcDbEntity
  8
寸法線
100
AcDbLine
 10
6.419999999925
 20
1.5
 30
0.0
 11
6.419999999925
 21
2.099999999627
 31
0.0
  0
LINE
  5
4A5A
330
4A37
100
AcDbEntity
  8
寸法線
100
AcDbLine
 10
2.419999999925
 20
1.5
 30
0.0
 11
2.419999999925
 21
2.099999999627
 31
0.0
  0
LINE
  5
4A5B
330
4A37
100
AcDbEntity
  8
寸法線
100
AcDbLine
 10
6.669999999925
 20
1.5
 30
0.0
 11
2.169999999925
 21
1.5
 31
0.0
  0
LINE
  5
4A5C
330
4A37
100
AcDbEntity
  8
寸法線
100
AcDbLine
 10
6.669999999925
 20
8.5
 30
0.0
 11
2.169999999925
 21
8.5
 31
0.0
  0
LINE
  5
4A5D
330
4A37
100
AcDbEntity
  8
寸法線
100
AcDbLine
 10
7.419999999925
 20
2.099999999627
 30
0.0
 11
6.419999999925
 21
2.099999999627
 31
0.0
  0
LINE
  5
4A5E
330
4A37
100
AcDbEntity
  8
寸法線
100
AcDbLine
 10
7.419999999925
 20
7.899999999441
 30
0.0
 11
6.419999999925
 21
7.899999999441
 31
0.0
  0
LINE
  5
4A5F
330
4A37
100
AcDbEntity
  8
寸法線
100
AcDbLine
 10
6.419999999925
 20
7.899999999441
 30
0.0
 11
6.419999999925
 21
8.5
 31
0.0
  0
LINE
  5
4A60
330
4A37
100
AcDbEntity
  8
寸法線
100
AcDbLine
 10
2.419999999925
 20
7.899999999441
 30
0.0
 11
2.419999999925
 21
8.5
 31
0.0
  0
LINE
  5
4A61
330
4A37
100
AcDbEntity
  8
寸法線
100
AcDbLine
 10
2.419999999925
 20
2.099999999627
 30
0.0
 11
1.419999999925
 21
2.099999999627
 31
0.0
  0
LINE
  5
4A62
330
4A37
100
AcDbEntity
  8
寸法線
100
AcDbLine
 10
2.419999999925
 20
7.899999999441
 30
0.0
 11
1.419999999925
 21
7.899999999441
 31
0.0
  0
LINE
  5
4A63
330
4A37
100
AcDbEntity
  8
外形線
100
AcDbLine
 10
7.61999999918
 20
1.0
 30
0.0
 11
7.61999999918
 21
13.0
 31
0.0
  0
LINE
  5
4A64
330
4A37
100
AcDbEntity
  8
外形線
100
AcDbLine
 10
1.220000000671
 20
1.0
 30
0.0
 11
1.220000000671
 21
13.0
 31
0.0
  0
LINE
  5
4A65
330
4A37
100
AcDbEntity
  8
外形線
100
AcDbLine
 10
0.0
 20
0.0
 30
0.0
 11
0.0
 21
13.0
 31
0.0
  0
LINE
  5
4A66
330
4A37
100
AcDbEntity
  8
外形線
100
AcDbLine
 10
24.080000000075
 20
0.0
 30
0.0
 11
0.0
 21
0.0
 31
0.0
  0
LINE
  5
4A67
330
4A37
100
AcDbEntity
  8
外形線
100
AcDbLine
 10
24.080000000075
 20
13.0
 30
0.0
 11
0.0
 21
13.0
 31
0.0
  0
LINE
  5
4A68
330
4A37
100
AcDbEntity
  8
外形線
100
AcDbLine
 10
24.080000000075
 20
13.0
 30
0.0
 11
24.080000000075
 21
0.0
 31
0.0
  0
LINE
  5
4A69
330
4A37
100
AcDbEntity
  8
外形線
100
AcDbLine
 10
22.859999999404
 20
1.0
 30
0.0
 11
16.460000000894
 21
1.0
 31
0.0
  0
LINE
  5
4A6A
330
4A37
100
AcDbEntity
  8
外形線
100
AcDbLine
 10
15.240000000224
 20
1.0
 30
0.0
 11
8.839999999851
 21
1.0
 31
0.0
  0
INSERT
  5
4A6B
330
4A37
100
AcDbEntity
  8
寸法線
100
AcDbBlockReference
  2
F01
 10
12.039999999106
 20
5.0
 30
0.0
 50
180.0
  0
LINE
  5
4A6C
330
4A37
100
AcDbEntity
  8
寸法線
100
AcDbLine
 10
14.289999999106
 20
8.549999999814
 30
0.0
 11
9.789999999106
 21
8.549999999814
 31
0.0
  0
LINE
  5
4A6D
330
4A37
100
AcDbEntity
  8
寸法線
100
AcDbLine
 10
14.289999999106
 20
1.450000000186
 30
0.0
 11
9.789999999106
 21
1.450000000186
 31
0.0
  0
LINE
  5
4A6E
330
4A37
100
AcDbEntity
  8
寸法線
100
AcDbLine
 10
14.289999999106
 20
8.549999999814
 30
0.0
 11
14.289999999106
 21
7.899999999441
 31
0.0
  0
LINE
  5
4A6F
330
4A37
100
AcDbEntity
  8
寸法線
100
AcDbLine
 10
14.289999999106
 20
2.099999999627
 30
0.0
 11
14.289999999106
 21
1.450000000186
 31
0.0
  0
LINE
  5
4A70
330
4A37
100
AcDbEntity
  8
寸法線
100
AcDbLine
 10
9.789999999106
 20
8.549999999814
 30
0.0
 11
9.789999999106
 21
7.899999999441
 31
0.0
  0
LINE
  5
4A71
330
4A37
100
AcDbEntity
  8
寸法線
100
AcDbLine
 10
9.789999999106
 20
2.099999999627
 30
0.0
 11
9.789999999106
 21
1.450000000186
 31
0.0
  0
LINE
  5
4A72
330
4A37
100
AcDbEntity
  8
寸法線
100
AcDbLine
 10
15.039999999106
 20
2.099999999627
 30
0.0
 11
15.039999999106
 21
7.899999999441
 31
0.0
  0
LINE
  5
4A73
330
4A37
100
AcDbEntity
  8
寸法線
100
AcDbLine
 10
9.039999999106
 20
2.099999999627
 30
0.0
 11
9.039999999106
 21
7.899999999441
 31
0.0
  0
LINE
  5
4A74
330
4A37
100
AcDbEntity
  8
寸法線
100
AcDbLine
 10
14.039999999106
 20
1.5
 30
0.0
 11
14.039999999106
 21
2.099999999627
 31
0.0
  0
LINE
  5
4A75
330
4A37
100
AcDbEntity
  8
寸法線
100
AcDbLine
 10
10.039999999106
 20
1.5
 30
0.0
 11
10.039999999106
 21
2.099999999627
 31
0.0
  0
LINE
  5
4A76
330
4A37
100
AcDbEntity
  8
寸法線
100
AcDbLine
 10
14.289999999106
 20
1.5
 30
0.0
 11
9.789999999106
 21
1.5
 31
0.0
  0
LINE
  5
4A77
330
4A37
100
AcDbEntity
  8
寸法線
100
AcDbLine
 10
14.289999999106
 20
8.5
 30
0.0
 11
9.789999999106
 21
8.5
 31
0.0
  0
LINE
  5
4A78
330
4A37
100
AcDbEntity
  8
寸法線
100
AcDbLine
 10
15.039999999106
 20
2.099999999627
 30
0.0
 11
14.039999999106
 21
2.099999999627
 31
0.0
  0
LINE
  5
4A79
330
4A37
100
AcDbEntity
  8
寸法線
100
AcDbLine
 10
15.039999999106
 20
7.899999999441
 30
0.0
 11
14.039999999106
 21
7.899999999441
 31
0.0
  0
LINE
  5
4A7A
330
4A37
100
AcDbEntity
  8
寸法線
100
AcDbLine
 10
14.039999999106
 20
7.899999999441
 30
0.0
 11
14.039999999106
 21
8.5
 31
0.0
  0
LINE
  5
4A7B
330
4A37
100
AcDbEntity
  8
寸法線
100
AcDbLine
 10
10.039999999106
 20
7.899999999441
 30
0.0
 11
10.039999999106
 21
8.5
 31
0.0
  0
LINE
  5
4A7C
330
4A37
100
AcDbEntity
  8
寸法線
100
AcDbLine
 10
10.039999999106
 20
2.099999999627
 30
0.0
 11
9.039999999106
 21
2.099999999627
 31
0.0
  0
LINE
  5
4A7D
330
4A37
100
AcDbEntity
  8
寸法線
100
AcDbLine
 10
10.039999999106
 20
7.899999999441
 30
0.0
 11
9.039999999106
 21
7.899999999441
 31
0.0
  0
INSERT
  5
4A7E
330
4A37
100
AcDbEntity
  8
寸法線
100
AcDbBlockReference
  2
F01
 10
19.660000000149
 20
5.0
 30
0.0
 50
180.0
  0
LINE
  5
4A7F
330
4A37
100
AcDbEntity
  8
寸法線
100
AcDbLine
 10
21.910000000149
 20
8.549999999814
 30
0.0
 11
17.410000000149
 21
8.549999999814
 31
0.0
  0
LINE
  5
4A80
330
4A37
100
AcDbEntity
  8
寸法線
100
AcDbLine
 10
21.910000000149
 20
1.450000000186
 30
0.0
 11
17.410000000149
 21
1.450000000186
 31
0.0
  0
LINE
  5
4A81
330
4A37
100
AcDbEntity
  8
寸法線
100
AcDbLine
 10
21.910000000149
 20
8.549999999814
 30
0.0
 11
21.910000000149
 21
7.899999999441
 31
0.0
  0
LINE
  5
4A82
330
4A37
100
AcDbEntity
  8
寸法線
100
AcDbLine
 10
21.910000000149
 20
2.099999999627
 30
0.0
 11
21.910000000149
 21
1.450000000186
 31
0.0
  0
LINE
  5
4A83
330
4A37
100
AcDbEntity
  8
寸法線
100
AcDbLine
 10
17.410000000149
 20
8.549999999814
 30
0.0
 11
17.410000000149
 21
7.899999999441
 31
0.0
  0
LINE
  5
4A84
330
4A37
100
AcDbEntity
  8
寸法線
100
AcDbLine
 10
17.410000000149
 20
2.099999999627
 30
0.0
 11
17.410000000149
 21
1.450000000186
 31
0.0
  0
LINE
  5
4A85
330
4A37
100
AcDbEntity
  8
寸法線
100
AcDbLine
 10
22.660000000149
 20
2.099999999627
 30
0.0
 11
22.660000000149
 21
7.899999999441
 31
0.0
  0
LINE
  5
4A86
330
4A37
100
AcDbEntity
  8
寸法線
100
AcDbLine
 10
16.660000000149
 20
2.099999999627
 30
0.0
 11
16.660000000149
 21
7.899999999441
 31
0.0
  0
LINE
  5
4A87
330
4A37
100
AcDbEntity
  8
寸法線
100
AcDbLine
 10
21.660000000149
 20
1.5
 30
0.0
 11
21.660000000149
 21
2.099999999627
 31
0.0
  0
LINE
  5
4A88
330
4A37
100
AcDbEntity
  8
寸法線
100
AcDbLine
 10
17.660000000149
 20
1.5
 30
0.0
 11
17.660000000149
 21
2.099999999627
 31
0.0
  0
LINE
  5
4A89
330
4A37
100
AcDbEntity
  8
寸法線
100
AcDbLine
 10
21.910000000149
 20
1.5
 30
0.0
 11
17.410000000149
 21
1.5
 31
0.0
  0
LINE
  5
4A8A
330
4A37
100
AcDbEntity
  8
寸法線
100
AcDbLine
 10
21.910000000149
 20
8.5
 30
0.0
 11
17.410000000149
 21
8.5
 31
0.0
  0
LINE
  5
4A8B
330
4A37
100
AcDbEntity
  8
寸法線
100
AcDbLine
 10
22.660000000149
 20
2.099999999627
 30
0.0
 11
21.660000000149
 21
2.099999999627
 31
0.0
  0
LINE
  5
4A8C
330
4A37
100
AcDbEntity
  8
寸法線
100
AcDbLine
 10
22.660000000149
 20
7.899999999441
 30
0.0
 11
21.660000000149
 21
7.899999999441
 31
0.0
  0
LINE
  5
4A8D
330
4A37
100
AcDbEntity
  8
寸法線
100
AcDbLine
 10
21.660000000149
 20
7.899999999441
 30
0.0
 11
21.660000000149
 21
8.5
 31
0.0
  0
LINE
  5
4A8E
330
4A37
100
AcDbEntity
  8
寸法線
100
AcDbLine
 10
17.660000000149
 20
7.899999999441
 30
0.0
 11
17.660000000149
 21
8.5
 31
0.0
  0
LINE
  5
4A8F
330
4A37
100
AcDbEntity
  8
寸法線
100
AcDbLine
 10
17.660000000149
 20
2.099999999627
 30
0.0
 11
16.660000000149
 21
2.099999999627
 31
0.0
  0
LINE
  5
4A90
330
4A37
100
AcDbEntity
  8
寸法線
100
AcDbLine
 10
17.660000000149
 20
7.899999999441
 30
0.0
 11
16.660000000149
 21
7.899999999441
 31
0.0
  0
LINE
  5
4A91
330
4A37
100
AcDbEntity
  8
外形線
100
AcDbLine
 10
22.859999999404
 20
1.0
 30
0.0
 11
22.859999999404
 21
13.0
 31
0.0
  0
LINE
  5
4A92
330
4A37
100
AcDbEntity
  8
外形線
100
AcDbLine
 10
16.460000000894
 20
1.0
 30
0.0
 11
16.460000000894
 21
13.0
 31
0.0
  0
LINE
  5
4A93
330
4A37
100
AcDbEntity
  8
外形線
100
AcDbLine
 10
15.240000000224
 20
1.0
 30
0.0
 11
15.240000000224
 21
13.0
 31
0.0
  0
LINE
  5
4A94
330
4A37
100
AcDbEntity
  8
外形線
100
AcDbLine
 10
8.839999999851
 20
1.0
 30
0.0
 11
8.839999999851
 21
13.0
 31
0.0
  0
ENDBLK
  5
4A95
330
4A37
100
AcDbEntity
  8
0
100
AcDbBlockEnd
  0
BLOCK
  5
4A3C
330
4A3B
100
AcDbEntity
  8
0
100
AcDbBlockBegin
  2
F01
 70
     0
 10
0.0
 20
0.0
 30
0.0
  3
F01
  1

  0
LWPOLYLINE
  5
4A3D
330
4A3B
100
AcDbEntity
  8
0
100
AcDbPolyline
 90
        8
 70
     0
 43
0.0
 10
-2.206706013232
 20
1.641020588283
 10
-0.919238815542
 20
0.353553390593
 42
-0.414213562373
 10
-0.919238815542
 20
-0.353553390593
 10
-1.55563491861
 20
-0.989949493661
 10
-0.989949493661
 20
-1.55563491861
 10
-0.353553390593
 20
-0.919238815542
 42
-0.414213562373
 10
0.353553390593
 20
-0.919238815542
 10
1.641020588283
 20
-2.206706013232
  0
LWPOLYLINE
  5
4A3E
330
4A3B
100
AcDbEntity
  8
0
100
AcDbPolyline
 90
        8
 70
     0
 43
0.0
 10
-1.641020588282
 20
2.206706013232
 10
-0.353553390593
 20
0.919238815543
 42
0.414213562373
 10
0.353553390593
 20
0.919238815543
 10
0.989949493661
 20
1.55563491861
 10
1.55563491861
 20
0.989949493661
 10
0.919238815542
 20
0.353553390593
 42
0.414213562373
 10
0.919238815542
 20
-0.353553390593
 10
2.206706013232
 20
-1.641020588282
  0
LINE
  5
4A3F
330
4A3B
100
AcDbEntity
  8
0
100
AcDbLine
 10
2.9
 20
2.4
 30
0.0
 11
2.9
 21
-2.4
 31
0.0
  0
LINE
  5
4A40
330
4A3B
100
AcDbEntity
  8
0
100
AcDbLine
 10
-2.9
 20
-2.4
 30
0.0
 11
-2.9
 21
2.4
 31
0.0
  0
CIRCLE
  5
4A41
330
4A3B
100
AcDbEntity
  8
0
100
AcDbCircle
 10
0.0
 20
0.0
 30
0.0
 40
2.75
  0
ARC
  5
4A42
330
4A3B
100
AcDbEntity
  8
0
100
AcDbCircle
 10
-2.4
 20
-2.4
 30
0.0
 40
0.5
100
AcDbArc
 50
180.0
 51
270.0
  0
LINE
  5
4A43
330
4A3B
100
AcDbEntity
  8
0
100
AcDbLine
 10
-2.9
 20
-0.6
 30
0.0
 11
-2.683747380064
 21
-0.6
 31
0.0
  0
ARC
  5
4A44
330
4A3B
100
AcDbEntity
  8
0
100
AcDbCircle
 10
2.4
 20
-2.4
 30
0.0
 40
0.5
100
AcDbArc
 50
270.0
 51
0.0
  0
LINE
  5
4A45
330
4A3B
100
AcDbEntity
  8
0
100
AcDbLine
 10
-0.6
 20
-2.683747380064
 30
0.0
 11
-0.6
 21
-2.9
 31
0.0
  0
LINE
  5
4A46
330
4A3B
100
AcDbEntity
  8
0
100
AcDbLine
 10
0.6
 20
-2.683747380064
 30
0.0
 11
0.6
 21
-2.9
 31
0.0
  0
LINE
  5
4A47
330
4A3B
100
AcDbEntity
  8
0
100
AcDbLine
 10
2.4
 20
-2.9
 30
0.0
 11
-2.4
 21
-2.9
 31
0.0
  0
LINE
  5
4A48
330
4A3B
100
AcDbEntity
  8
0
100
AcDbLine
 10
2.683747380064
 20
-0.6
 30
0.0
 11
2.9
 21
-0.6
 31
0.0
  0
ARC
  5
4A49
330
4A3B
100
AcDbEntity
  8
0
100
AcDbCircle
 10
-2.4
 20
2.4
 30
0.0
 40
0.5
100
AcDbArc
 50
90.0
 51
180.0
  0
LINE
  5
4A4A
330
4A3B
100
AcDbEntity
  8
0
100
AcDbLine
 10
-2.9
 20
0.6
 30
0.0
 11
-2.683747380064
 21
0.6
 31
0.0
  0
LINE
  5
4A4B
330
4A3B
100
AcDbEntity
  8
0
100
AcDbLine
 10
-2.4
 20
2.9
 30
0.0
 11
2.4
 21
2.9
 31
0.0
  0
LINE
  5
4A4C
330
4A3B
100
AcDbEntity
  8
0
100
AcDbLine
 10
-0.6
 20
2.9
 30
0.0
 11
-0.6
 21
2.683747380064
 31
0.0
  0
LINE
  5
4A4D
330
4A3B
100
AcDbEntity
  8
0
100
AcDbLine
 10
0.6
 20
2.9
 30
0.0
 11
0.6
 21
2.683747380064
 31
0.0
  0
ARC
  5
4A4E
330
4A3B
100
AcDbEntity
  8
0
100
AcDbCircle
 10
2.4
 20
2.4
 30
0.0
 40
0.5
100
AcDbArc
 50
0.0
 51
90.0
  0
LINE
  5
4A4F
330
4A3B
100
AcDbEntity
  8
0
100
AcDbLine
 10
2.683747380064
 20
0.6
 30
0.0
 11
2.9
 21
0.6
 31
0.0
  0
ENDBLK
  5
4A50
330
4A3B
100
AcDbEntity
  8
0
100
AcDbBlockEnd
  0
BLOCK
  5
4A99
330
4A98
100
AcDbEntity
  8
0
100
AcDbBlockBegin
  2
24200B4
 70
     0
 10
0.0
 20
0.0
 30
0.0
  3
24200B4
  1

  0
LINE
  5
4A9A
330
4A98
100
AcDbEntity
  8
外形線
100
AcDbLine
 10
0.0
 20
31.699999999255
 30
0.0
 11
13.0
 21
31.699999999255
 31
0.0
  0
LINE
  5
4A9B
330
4A98
100
AcDbEntity
  8
外形線
100
AcDbLine
 10
0.0
 20
15.240000000224
 30
0.0
 11
0.0
 21
31.699999999255
 31
0.0
  0
LINE
  5
4A9C
330
4A98
100
AcDbEntity
  8
外形線
100
AcDbLine
 10
13.0
 20
15.240000000224
 30
0.0
 11
13.0
 21
31.699999999255
 31
0.0
  0
LINE
  5
4A9D
330
4A98
100
AcDbEntity
  8
外形線
100
AcDbLine
 10
1.0
 20
16.460000000894
 30
0.0
 11
1.0
 21
22.859999999404
 31
0.0
  0
LINE
  5
4A9E
330
4A98
100
AcDbEntity
  8
外形線
100
AcDbLine
 10
1.0
 20
24.080000000075
 30
0.0
 11
1.0
 21
30.480000000447
 31
0.0
  0
INSERT
  5
4A9F
330
4A98
100
AcDbEntity
  8
寸法線
100
AcDbBlockReference
  2
F01
 10
5.0
 20
27.279999999329
 30
0.0
 50
90.0
  0
LINE
  5
4AA0
330
4A98
100
AcDbEntity
  8
寸法線
100
AcDbLine
 10
8.550000000745
 20
25.029999999329
 30
0.0
 11
8.550000000745
 21
29.529999999329
 31
0.0
  0
LINE
  5
4AA1
330
4A98
100
AcDbEntity
  8
寸法線
100
AcDbLine
 10
1.450000001118
 20
25.029999999329
 30
0.0
 11
1.450000001118
 21
29.529999999329
 31
0.0
  0
LINE
  5
4AA2
330
4A98
100
AcDbEntity
  8
寸法線
100
AcDbLine
 10
8.550000000745
 20
25.029999999329
 30
0.0
 11
7.900000000373
 21
25.029999999329
 31
0.0
  0
LINE
  5
4AA3
330
4A98
100
AcDbEntity
  8
寸法線
100
AcDbLine
 10
2.099999999627
 20
25.029999999329
 30
0.0
 11
1.450000001118
 21
25.029999999329
 31
0.0
  0
LINE
  5
4AA4
330
4A98
100
AcDbEntity
  8
寸法線
100
AcDbLine
 10
8.550000000745
 20
29.529999999329
 30
0.0
 11
7.900000000373
 21
29.529999999329
 31
0.0
  0
LINE
  5
4AA5
330
4A98
100
AcDbEntity
  8
寸法線
100
AcDbLine
 10
2.099999999627
 20
29.529999999329
 30
0.0
 11
1.450000001118
 21
29.529999999329
 31
0.0
  0
LINE
  5
4AA6
330
4A98
100
AcDbEntity
  8
寸法線
100
AcDbLine
 10
2.099999999627
 20
24.279999999329
 30
0.0
 11
7.900000000373
 21
24.279999999329
 31
0.0
  0
LINE
  5
4AA7
330
4A98
100
AcDbEntity
  8
寸法線
100
AcDbLine
 10
2.099999999627
 20
30.279999999329
 30
0.0
 11
7.900000000373
 21
30.279999999329
 31
0.0
  0
LINE
  5
4AA8
330
4A98
100
AcDbEntity
  8
寸法線
100
AcDbLine
 10
1.5
 20
25.279999999329
 30
0.0
 11
2.099999999627
 21
25.279999999329
 31
0.0
  0
LINE
  5
4AA9
330
4A98
100
AcDbEntity
  8
寸法線
100
AcDbLine
 10
1.5
 20
29.279999999329
 30
0.0
 11
2.099999999627
 21
29.279999999329
 31
0.0
  0
LINE
  5
4AAA
330
4A98
100
AcDbEntity
  8
寸法線
100
AcDbLine
 10
1.5
 20
25.029999999329
 30
0.0
 11
1.5
 21
29.529999999329
 31
0.0
  0
LINE
  5
4AAB
330
4A98
100
AcDbEntity
  8
寸法線
100
AcDbLine
 10
8.5
 20
25.029999999329
 30
0.0
 11
8.5
 21
29.529999999329
 31
0.0
  0
LINE
  5
4AAC
330
4A98
100
AcDbEntity
  8
寸法線
100
AcDbLine
 10
2.099999999627
 20
24.279999999329
 30
0.0
 11
2.099999999627
 21
25.279999999329
 31
0.0
  0
LINE
  5
4AAD
330
4A98
100
AcDbEntity
  8
寸法線
100
AcDbLine
 10
7.900000000373
 20
24.279999999329
 30
0.0
 11
7.900000000373
 21
25.279999999329
 31
0.0
  0
LINE
  5
4AAE
330
4A98
100
AcDbEntity
  8
寸法線
100
AcDbLine
 10
7.900000000373
 20
25.279999999329
 30
0.0
 11
8.5
 21
25.279999999329
 31
0.0
  0
LINE
  5
4AAF
330
4A98
100
AcDbEntity
  8
寸法線
100
AcDbLine
 10
7.900000000373
 20
29.279999999329
 30
0.0
 11
8.5
 21
29.279999999329
 31
0.0
  0
LINE
  5
4AB0
330
4A98
100
AcDbEntity
  8
寸法線
100
AcDbLine
 10
2.099999999627
 20
29.279999999329
 30
0.0
 11
2.099999999627
 21
30.279999999329
 31
0.0
  0
LINE
  5
4AB1
330
4A98
100
AcDbEntity
  8
寸法線
100
AcDbLine
 10
7.900000000373
 20
29.279999999329
 30
0.0
 11
7.900000000373
 21
30.279999999329
 31
0.0
  0
INSERT
  5
4AB2
330
4A98
100
AcDbEntity
  8
寸法線
100
AcDbBlockReference
  2
F01
 10
5.0
 20
19.660000000149
 30
0.0
 50
90.0
  0
LINE
  5
4AB3
330
4A98
100
AcDbEntity
  8
寸法線
100
AcDbLine
 10
8.550000000745
 20
17.410000000149
 30
0.0
 11
8.550000000745
 21
21.910000000149
 31
0.0
  0
LINE
  5
4AB4
330
4A98
100
AcDbEntity
  8
寸法線
100
AcDbLine
 10
1.450000001118
 20
17.410000000149
 30
0.0
 11
1.450000001118
 21
21.910000000149
 31
0.0
  0
LINE
  5
4AB5
330
4A98
100
AcDbEntity
  8
寸法線
100
AcDbLine
 10
8.550000000745
 20
17.410000000149
 30
0.0
 11
7.900000000373
 21
17.410000000149
 31
0.0
  0
LINE
  5
4AB6
330
4A98
100
AcDbEntity
  8
寸法線
100
AcDbLine
 10
2.099999999627
 20
17.410000000149
 30
0.0
 11
1.450000001118
 21
17.410000000149
 31
0.0
  0
LINE
  5
4AB7
330
4A98
100
AcDbEntity
  8
寸法線
100
AcDbLine
 10
8.550000000745
 20
21.910000000149
 30
0.0
 11
7.900000000373
 21
21.910000000149
 31
0.0
  0
LINE
  5
4AB8
330
4A98
100
AcDbEntity
  8
寸法線
100
AcDbLine
 10
2.099999999627
 20
21.910000000149
 30
0.0
 11
1.450000001118
 21
21.910000000149
 31
0.0
  0
LINE
  5
4AB9
330
4A98
100
AcDbEntity
  8
寸法線
100
AcDbLine
 10
2.099999999627
 20
16.660000000149
 30
0.0
 11
7.900000000373
 21
16.660000000149
 31
0.0
  0
LINE
  5
4ABA
330
4A98
100
AcDbEntity
  8
寸法線
100
AcDbLine
 10
2.099999999627
 20
22.660000000149
 30
0.0
 11
7.900000000373
 21
22.660000000149
 31
0.0
  0
LINE
  5
4ABB
330
4A98
100
AcDbEntity
  8
寸法線
100
AcDbLine
 10
1.5
 20
17.660000000149
 30
0.0
 11
2.099999999627
 21
17.660000000149
 31
0.0
  0
LINE
  5
4ABC
330
4A98
100
AcDbEntity
  8
寸法線
100
AcDbLine
 10
1.5
 20
21.660000000149
 30
0.0
 11
2.099999999627
 21
21.660000000149
 31
0.0
  0
LINE
  5
4ABD
330
4A98
100
AcDbEntity
  8
寸法線
100
AcDbLine
 10
1.5
 20
17.410000000149
 30
0.0
 11
1.5
 21
21.910000000149
 31
0.0
  0
LINE
  5
4ABE
330
4A98
100
AcDbEntity
  8
寸法線
100
AcDbLine
 10
8.5
 20
17.410000000149
 30
0.0
 11
8.5
 21
21.910000000149
 31
0.0
  0
LINE
  5
4ABF
330
4A98
100
AcDbEntity
  8
寸法線
100
AcDbLine
 10
2.099999999627
 20
16.660000000149
 30
0.0
 11
2.099999999627
 21
17.660000000149
 31
0.0
  0
LINE
  5
4AC0
330
4A98
100
AcDbEntity
  8
寸法線
100
AcDbLine
 10
7.900000000373
 20
16.660000000149
 30
0.0
 11
7.900000000373
 21
17.660000000149
 31
0.0
  0
LINE
  5
4AC1
330
4A98
100
AcDbEntity
  8
寸法線
100
AcDbLine
 10
7.900000000373
 20
17.660000000149
 30
0.0
 11
8.5
 21
17.660000000149
 31
0.0
  0
LINE
  5
4AC2
330
4A98
100
AcDbEntity
  8
寸法線
100
AcDbLine
 10
7.900000000373
 20
21.660000000149
 30
0.0
 11
8.5
 21
21.660000000149
 31
0.0
  0
LINE
  5
4AC3
330
4A98
100
AcDbEntity
  8
寸法線
100
AcDbLine
 10
2.099999999627
 20
21.660000000149
 30
0.0
 11
2.099999999627
 21
22.660000000149
 31
0.0
  0
LINE
  5
4AC4
330
4A98
100
AcDbEntity
  8
寸法線
100
AcDbLine
 10
7.900000000373
 20
21.660000000149
 30
0.0
 11
7.900000000373
 21
22.660000000149
 31
0.0
  0
LINE
  5
4AC5
330
4A98
100
AcDbEntity
  8
外形線
100
AcDbLine
 10
1.0
 20
16.460000000894
 30
0.0
 11
13.0
 21
16.460000000894
 31
0.0
  0
LINE
  5
4AC6
330
4A98
100
AcDbEntity
  8
外形線
100
AcDbLine
 10
1.0
 20
22.859999999404
 30
0.0
 11
13.0
 21
22.859999999404
 31
0.0
  0
LINE
  5
4AC7
330
4A98
100
AcDbEntity
  8
外形線
100
AcDbLine
 10
1.0
 20
24.080000000075
 30
0.0
 11
13.0
 21
24.080000000075
 31
0.0
  0
LINE
  5
4AC8
330
4A98
100
AcDbEntity
  8
外形線
100
AcDbLine
 10
1.0
 20
30.480000000447
 30
0.0
 11
13.0
 21
30.480000000447
 31
0.0
  0
LINE
  5
4AC9
330
4A98
100
AcDbEntity
  8
外形線
100
AcDbLine
 10
0.0
 20
0.0
 30
0.0
 11
0.0
 21
16.460000000894
 31
0.0
  0
LINE
  5
4ACA
330
4A98
100
AcDbEntity
  8
外形線
100
AcDbLine
 10
13.0
 20
0.0
 30
0.0
 11
13.0
 21
16.460000000894
 31
0.0
  0
LINE
  5
4ACB
330
4A98
100
AcDbEntity
  8
外形線
100
AcDbLine
 10
13.0
 20
0.0
 30
0.0
 11
0.0
 21
0.0
 31
0.0
  0
LINE
  5
4ACC
330
4A98
100
AcDbEntity
  8
外形線
100
AcDbLine
 10
1.0
 20
1.220000000671
 30
0.0
 11
1.0
 21
7.61999999918
 31
0.0
  0
LINE
  5
4ACD
330
4A98
100
AcDbEntity
  8
外形線
100
AcDbLine
 10
1.0
 20
8.839999999851
 30
0.0
 11
1.0
 21
15.240000000224
 31
0.0
  0
INSERT
  5
4ACE
330
4A98
100
AcDbEntity
  8
寸法線
100
AcDbBlockReference
  2
F01
 10
5.0
 20
12.040000000969
 30
0.0
 50
90.0
  0
LINE
  5
4ACF
330
4A98
100
AcDbEntity
  8
寸法線
100
AcDbLine
 10
8.550000000745
 20
9.790000000969
 30
0.0
 11
8.550000000745
 21
14.290000000969
 31
0.0
  0
LINE
  5
4AD0
330
4A98
100
AcDbEntity
  8
寸法線
100
AcDbLine
 10
1.450000001118
 20
9.790000000969
 30
0.0
 11
1.450000001118
 21
14.290000000969
 31
0.0
  0
LINE
  5
4AD1
330
4A98
100
AcDbEntity
  8
寸法線
100
AcDbLine
 10
8.550000000745
 20
9.790000000969
 30
0.0
 11
7.900000000373
 21
9.790000000969
 31
0.0
  0
LINE
  5
4AD2
330
4A98
100
AcDbEntity
  8
寸法線
100
AcDbLine
 10
2.099999999627
 20
9.790000000969
 30
0.0
 11
1.450000001118
 21
9.790000000969
 31
0.0
  0
LINE
  5
4AD3
330
4A98
100
AcDbEntity
  8
寸法線
100
AcDbLine
 10
8.550000000745
 20
14.290000000969
 30
0.0
 11
7.900000000373
 21
14.290000000969
 31
0.0
  0
LINE
  5
4AD4
330
4A98
100
AcDbEntity
  8
寸法線
100
AcDbLine
 10
2.099999999627
 20
14.290000000969
 30
0.0
 11
1.450000001118
 21
14.290000000969
 31
0.0
  0
LINE
  5
4AD5
330
4A98
100
AcDbEntity
  8
寸法線
100
AcDbLine
 10
2.099999999627
 20
9.040000000969
 30
0.0
 11
7.900000000373
 21
9.040000000969
 31
0.0
  0
LINE
  5
4AD6
330
4A98
100
AcDbEntity
  8
寸法線
100
AcDbLine
 10
2.099999999627
 20
15.040000000969
 30
0.0
 11
7.900000000373
 21
15.040000000969
 31
0.0
  0
LINE
  5
4AD7
330
4A98
100
AcDbEntity
  8
寸法線
100
AcDbLine
 10
1.5
 20
10.040000000969
 30
0.0
 11
2.099999999627
 21
10.040000000969
 31
0.0
  0
LINE
  5
4AD8
330
4A98
100
AcDbEntity
  8
寸法線
100
AcDbLine
 10
1.5
 20
14.040000000969
 30
0.0
 11
2.099999999627
 21
14.040000000969
 31
0.0
  0
LINE
  5
4AD9
330
4A98
100
AcDbEntity
  8
寸法線
100
AcDbLine
 10
1.5
 20
9.790000000969
 30
0.0
 11
1.5
 21
14.290000000969
 31
0.0
  0
LINE
  5
4ADA
330
4A98
100
AcDbEntity
  8
寸法線
100
AcDbLine
 10
8.5
 20
9.790000000969
 30
0.0
 11
8.5
 21
14.290000000969
 31
0.0
  0
LINE
  5
4ADB
330
4A98
100
AcDbEntity
  8
寸法線
100
AcDbLine
 10
2.099999999627
 20
9.040000000969
 30
0.0
 11
2.099999999627
 21
10.040000000969
 31
0.0
  0
LINE
  5
4ADC
330
4A98
100
AcDbEntity
  8
寸法線
100
AcDbLine
 10
7.900000000373
 20
9.040000000969
 30
0.0
 11
7.900000000373
 21
10.040000000969
 31
0.0
  0
LINE
  5
4ADD
330
4A98
100
AcDbEntity
  8
寸法線
100
AcDbLine
 10
7.900000000373
 20
10.040000000969
 30
0.0
 11
8.5
 21
10.040000000969
 31
0.0
  0
LINE
  5
4ADE
330
4A98
100
AcDbEntity
  8
寸法線
100
AcDbLine
 10
7.900000000373
 20
14.040000000969
 30
0.0
 11
8.5
 21
14.040000000969
 31
0.0
  0
LINE
  5
4ADF
330
4A98
100
AcDbEntity
  8
寸法線
100
AcDbLine
 10
2.099999999627
 20
14.040000000969
 30
0.0
 11
2.099999999627
 21
15.040000000969
 31
0.0
  0
LINE
  5
4AE0
330
4A98
100
AcDbEntity
  8
寸法線
100
AcDbLine
 10
7.900000000373
 20
14.040000000969
 30
0.0
 11
7.900000000373
 21
15.040000000969
 31
0.0
  0
INSERT
  5
4AE1
330
4A98
100
AcDbEntity
  8
寸法線
100
AcDbBlockReference
  2
F01
 10
5.0
 20
4.419999999925
 30
0.0
 50
90.0
  0
LINE
  5
4AE2
330
4A98
100
AcDbEntity
  8
寸法線
100
AcDbLine
 10
8.550000000745
 20
2.169999999925
 30
0.0
 11
8.550000000745
 21
6.669999999925
 31
0.0
  0
LINE
  5
4AE3
330
4A98
100
AcDbEntity
  8
寸法線
100
AcDbLine
 10
1.450000001118
 20
2.169999999925
 30
0.0
 11
1.450000001118
 21
6.669999999925
 31
0.0
  0
LINE
  5
4AE4
330
4A98
100
AcDbEntity
  8
寸法線
100
AcDbLine
 10
8.550000000745
 20
2.169999999925
 30
0.0
 11
7.900000000373
 21
2.169999999925
 31
0.0
  0
LINE
  5
4AE5
330
4A98
100
AcDbEntity
  8
寸法線
100
AcDbLine
 10
2.099999999627
 20
2.169999999925
 30
0.0
 11
1.450000001118
 21
2.169999999925
 31
0.0
  0
LINE
  5
4AE6
330
4A98
100
AcDbEntity
  8
寸法線
100
AcDbLine
 10
8.550000000745
 20
6.669999999925
 30
0.0
 11
7.900000000373
 21
6.669999999925
 31
0.0
  0
LINE
  5
4AE7
330
4A98
100
AcDbEntity
  8
寸法線
100
AcDbLine
 10
2.099999999627
 20
6.669999999925
 30
0.0
 11
1.450000001118
 21
6.669999999925
 31
0.0
  0
LINE
  5
4AE8
330
4A98
100
AcDbEntity
  8
寸法線
100
AcDbLine
 10
2.099999999627
 20
1.419999999925
 30
0.0
 11
7.900000000373
 21
1.419999999925
 31
0.0
  0
LINE
  5
4AE9
330
4A98
100
AcDbEntity
  8
寸法線
100
AcDbLine
 10
2.099999999627
 20
7.419999999925
 30
0.0
 11
7.900000000373
 21
7.419999999925
 31
0.0
  0
LINE
  5
4AEA
330
4A98
100
AcDbEntity
  8
寸法線
100
AcDbLine
 10
1.5
 20
2.419999999925
 30
0.0
 11
2.099999999627
 21
2.419999999925
 31
0.0
  0
LINE
  5
4AEB
330
4A98
100
AcDbEntity
  8
寸法線
100
AcDbLine
 10
1.5
 20
6.419999999925
 30
0.0
 11
2.099999999627
 21
6.419999999925
 31
0.0
  0
LINE
  5
4AEC
330
4A98
100
AcDbEntity
  8
寸法線
100
AcDbLine
 10
1.5
 20
2.169999999925
 30
0.0
 11
1.5
 21
6.669999999925
 31
0.0
  0
LINE
  5
4AED
330
4A98
100
AcDbEntity
  8
寸法線
100
AcDbLine
 10
8.5
 20
2.169999999925
 30
0.0
 11
8.5
 21
6.669999999925
 31
0.0
  0
LINE
  5
4AEE
330
4A98
100
AcDbEntity
  8
寸法線
100
AcDbLine
 10
2.099999999627
 20
1.419999999925
 30
0.0
 11
2.099999999627
 21
2.419999999925
 31
0.0
  0
LINE
  5
4AEF
330
4A98
100
AcDbEntity
  8
寸法線
100
AcDbLine
 10
7.900000000373
 20
1.419999999925
 30
0.0
 11
7.900000000373
 21
2.419999999925
 31
0.0
  0
LINE
  5
4AF0
330
4A98
100
AcDbEntity
  8
寸法線
100
AcDbLine
 10
7.900000000373
 20
2.419999999925
 30
0.0
 11
8.5
 21
2.419999999925
 31
0.0
  0
LINE
  5
4AF1
330
4A98
100
AcDbEntity
  8
寸法線
100
AcDbLine
 10
7.900000000373
 20
6.419999999925
 30
0.0
 11
8.5
 21
6.419999999925
 31
0.0
  0
LINE
  5
4AF2
330
4A98
100
AcDbEntity
  8
寸法線
100
AcDbLine
 10
2.099999999627
 20
6.419999999925
 30
0.0
 11
2.099999999627
 21
7.419999999925
 31
0.0
  0
LINE
  5
4AF3
330
4A98
100
AcDbEntity
  8
寸法線
100
AcDbLine
 10
7.900000000373
 20
6.419999999925
 30
0.0
 11
7.900000000373
 21
7.419999999925
 31
0.0
  0
LINE
  5
4AF4
330
4A98
100
AcDbEntity
  8
外形線
100
AcDbLine
 10
1.0
 20
1.220000000671
 30
0.0
 11
13.0
 21
1.220000000671
 31
0.0
  0
LINE
  5
4AF5
330
4A98
100
AcDbEntity
  8
外形線
100
AcDbLine
 10
1.0
 20
7.61999999918
 30
0.0
 11
13.0
 21
7.61999999918
 31
0.0
  0
LINE
  5
4AF6
330
4A98
100
AcDbEntity
  8
外形線
100
AcDbLine
 10
1.0
 20
8.839999999851
 30
0.0
 11
13.0
 21
8.839999999851
 31
0.0
  0
LINE
  5
4AF7
330
4A98
100
AcDbEntity
  8
外形線
100
AcDbLine
 10
1.0
 20
15.240000000224
 30
0.0
 11
13.0
 21
15.240000000224
 31
0.0
  0
ENDBLK
  5
4AF8
330
4A98
100
AcDbEntity
  8
0
100
AcDbBlockEnd
  0
BLOCK
  5
4B07
330
4B06
100
AcDbEntity
  8
0
100
AcDbBlockBegin
  2
4840168
 70
     0
 10
0.0
 20
0.0
 30
0.0
  3
4840168
  1

  0
CIRCLE
  5
4B08
330
4B06
100
AcDbEntity
  8
寸法線
 48
10.0
100
AcDbCircle
 10
2.75
 20
3.175426480826
 30
0.0
 40
2.75
  0
LINE
  5
4B09
330
4B06
100
AcDbEntity
  8
外形線
 48
10.0
100
AcDbLine
 10
0.0
 20
4.763139721006
 30
0.0
 11
2.75
 21
6.350852961419
 31
0.0
  0
LINE
  5
4B0A
330
4B06
100
AcDbEntity
  8
外形線
 48
10.0
100
AcDbLine
 10
2.75
 20
0.0
 30
0.0
 11
5.5
 21
1.587713240646
 31
0.0
  0
LINE
  5
4B0B
330
4B06
100
AcDbEntity
  8
外形線
 48
10.0
100
AcDbLine
 10
2.75
 20
6.350852961419
 30
0.0
 11
5.5
 21
4.763139720773
 31
0.0
  0
LINE
  5
4B0C
330
4B06
100
AcDbEntity
  8
外形線
 48
10.0
100
AcDbLine
 10
0.0
 20
1.587713240413
 30
0.0
 11
2.75
 21
0.0
 31
0.0
  0
LINE
  5
4B0D
330
4B06
100
AcDbEntity
  8
外形線
 48
10.0
100
AcDbLine
 10
0.0
 20
1.587713240413
 30
0.0
 11
0.0
 21
4.763139721006
 31
0.0
  0
LINE
  5
4B0E
330
4B06
100
AcDbEntity
  8
外形線
 48
10.0
100
AcDbLine
 10
5.5
 20
1.587713240646
 30
0.0
 11
5.5
 21
4.763139720773
 31
0.0
  0
CIRCLE
  5
4B0F
330
4B06
100
AcDbEntity
  8
寸法線
 48
10.0
100
AcDbCircle
 10
2.75
 20
3.175426480826
 30
0.0
 40
1.5
  0
CIRCLE
  5
4B10
330
4B06
100
AcDbEntity
  8
寸法線
 48
10.0
100
AcDbCircle
 10
2.760366145521
 20
3.175426480826
 30
0.0
 40
1.7
  0
ENDBLK
  5
4B11
330
4B06
100
AcDbEntity
  8
0
100
AcDbBlockEnd
  0
BLOCK
  5
4B1C
330
4B1B
100
AcDbEntity
  8
0
100
AcDbBlockBegin
  2
2420074
 70
     0
 10
0.0
 20
0.0
 30
0.0
  3
2420074
  1

  0
LWPOLYLINE
  5
4B1D
330
4B1B
100
AcDbEntity
  8
寸法線
100
AcDbPolyline
 90
        8
 70
     0
 43
0.0
 10
0.95491120033
 20
2.99254045845
 10
1.464608946815
 20
2.48284271243
 42
-0.414213562373
 10
1.464608946815
 20
1.917157287477
 10
0.955492064357
 20
1.408040405018
 10
1.40804040432
 20
0.955492065055
 10
1.917157286778
 20
1.464608947514
 42
-0.414213562373
 10
2.482842711732
 20
1.464608947514
 10
2.993276018649
 20
0.954175640829
  0
LWPOLYLINE
  5
4B1E
330
4B1B
100
AcDbEntity
  8
寸法線
100
AcDbPolyline
 90
        8
 70
     0
 43
0.0
 10
1.402170408517
 20
3.450377930887
 10
1.917157286778
 20
2.935391052393
 42
0.414213562373
 10
2.482842711732
 20
2.935391052393
 10
2.99195959419
 20
3.444507934852
 10
3.444507934153
 20
2.991959594889
 10
2.935391051695
 20
2.48284271243
 42
0.414213562373
 10
2.935391051695
 20
1.917157287477
 10
3.444507934153
 20
1.408040405018
  0
CIRCLE
  5
4B1F
330
4B1B
100
AcDbEntity
  8
外形線
100
AcDbCircle
 10
2.199999999255
 20
2.199999999953
 30
0.0
 40
2.2
  0
LINE
  5
4B20
330
4B1B
100
AcDbEntity
  8
寸法線
 48
10.0
100
AcDbLine
 10
0.95491120033
 20
2.992540458217
 30
0.0
 11
1.402170408517
 21
3.450377931353
 31
0.0
  0
LINE
  5
4B21
330
4B1B
100
AcDbEntity
  8
寸法線
 48
10.0
100
AcDbLine
 10
3.444507934153
 20
1.408040405018
 30
0.0
 11
2.992989044636
 21
0.953886992298
 31
0.0
  0
ENDBLK
  5
4B22
330
4B1B
100
AcDbEntity
  8
0
100
AcDbBlockEnd
  0
BLOCK
  5
4B25
330
4B24
100
AcDbEntity
  8
0
100
AcDbBlockBegin
  2
19600B4
 70
     0
 10
0.0
 20
0.0
 30
0.0
  3
19600B4
  1

  0
LINE
  5
4B26
330
4B24
100
AcDbEntity
  8
外形線
 48
10.0
100
AcDbLine
 10
0.0
 20
0.0
 30
0.0
 11
12.0
 21
0.0
 31
0.0
  0
LINE
  5
4B27
330
4B24
100
AcDbEntity
  8
外形線
 48
10.0
100
AcDbLine
 10
12.0
 20
0.0
 30
0.0
 11
12.0
 21
41.0
 31
0.0
  0
LINE
  5
4B28
330
4B24
100
AcDbEntity
  8
外形線
 48
10.0
100
AcDbLine
 10
12.0
 20
41.0
 30
0.0
 11
0.0
 21
41.0
 31
0.0
  0
LINE
  5
4B29
330
4B24
100
AcDbEntity
  8
外形線
 48
10.0
100
AcDbLine
 10
0.0
 20
41.0
 30
0.0
 11
0.0
 21
0.0
 31
0.0
  0
INSERT
  5
4B2A
330
4B24
100
AcDbEntity
  8
寸法線
 48
10.0
100
AcDbBlockReference
  2
2420074
 10
8.376000003889
 20
0.613633855712
 30
0.0
 41
1.08
 42
1.08
 43
1.08
 50
90.0
  0
INSERT
  5
4B2B
330
4B24
100
AcDbEntity
  8
寸法線
 48
10.0
100
AcDbBlockReference
  2
2420074
 10
8.376000002027
 20
35.624000001
 30
0.0
 41
1.08
 42
1.08
 43
1.08
 50
90.0
  0
CIRCLE
  5
4B2C
330
4B24
100
AcDbEntity
  8
寸法線
 48
10.0
100
AcDbCircle
 10
6.000000001863
 20
2.989633854711
 30
0.0
 40
2.75
  0
LINE
  5
4B2D
330
4B24
100
AcDbEntity
  8
外形線
 48
10.0
100
AcDbLine
 10
4.412286762148
 20
0.239633854711
 30
0.0
 11
2.824573522434
 21
2.989633854711
 31
0.0
  0
LINE
  5
4B2E
330
4B24
100
AcDbEntity
  8
外形線
 48
10.0
100
AcDbLine
 10
9.175426483154
 20
2.989633854711
 30
0.0
 11
7.58771324344
 21
5.739633854711
 31
0.0
  0
LINE
  5
4B2F
330
4B24
100
AcDbEntity
  8
外形線
 48
10.0
100
AcDbLine
 10
2.824573522434
 20
2.989633854711
 30
0.0
 11
4.412286762148
 21
5.739633854711
 31
0.0
  0
LINE
  5
4B30
330
4B24
100
AcDbEntity
  8
外形線
 48
10.0
100
AcDbLine
 10
7.58771324344
 20
0.239633854711
 30
0.0
 11
9.175426483154
 21
2.989633854711
 31
0.0
  0
LINE
  5
4B31
330
4B24
100
AcDbEntity
  8
外形線
 48
10.0
100
AcDbLine
 10
7.58771324344
 20
0.239633854711
 30
0.0
 11
4.412286762148
 21
0.239633854711
 31
0.0
  0
LINE
  5
4B32
330
4B24
100
AcDbEntity
  8
外形線
 48
10.0
100
AcDbLine
 10
7.58771324344
 20
5.739633854711
 30
0.0
 11
4.412286762148
 21
5.739633854711
 31
0.0
  0
CIRCLE
  5
4B33
330
4B24
100
AcDbEntity
  8
寸法線
 48
10.0
100
AcDbCircle
 10
6.000000001863
 20
37.989633854711
 30
0.0
 40
2.75
  0
LINE
  5
4B34
330
4B24
100
AcDbEntity
  8
外形線
 48
10.0
100
AcDbLine
 10
4.412286762148
 20
35.239633854711
 30
0.0
 11
2.824573522434
 21
37.989633854711
 31
0.0
  0
LINE
  5
4B35
330
4B24
100
AcDbEntity
  8
外形線
 48
10.0
100
AcDbLine
 10
9.175426483154
 20
37.989633854711
 30
0.0
 11
7.58771324344
 21
40.739633854711
 31
0.0
  0
LINE
  5
4B36
330
4B24
100
AcDbEntity
  8
外形線
 48
10.0
100
AcDbLine
 10
2.824573522434
 20
37.989633854711
 30
0.0
 11
4.412286762148
 21
40.739633854711
 31
0.0
  0
LINE
  5
4B37
330
4B24
100
AcDbEntity
  8
外形線
 48
10.0
100
AcDbLine
 10
7.58771324344
 20
35.239633854711
 30
0.0
 11
9.175426483154
 21
37.989633854711
 31
0.0
  0
LINE
  5
4B38
330
4B24
100
AcDbEntity
  8
外形線
 48
10.0
100
AcDbLine
 10
7.58771324344
 20
35.239633854711
 30
0.0
 11
4.412286762148
 21
35.239633854711
 31
0.0
  0
LINE
  5
4B39
330
4B24
100
AcDbEntity
  8
外形線
 48
10.0
100
AcDbLine
 10
7.58771324344
 20
40.739633854711
 30
0.0
 11
4.412286762148
 21
40.739633854711
 31
0.0
  0
ENDBLK
  5
4B3A
330
4B24
100
AcDbEntity
  8
0
100
AcDbBlockEnd
  0
BLOCK
  5
4D1D
330
4D13
100
AcDbEntity
  8
0
100
AcDbBlockBegin
  2
*D39
 70
     1
 10
0.0
 20
0.0
 30
0.0
  3
*D39
  1

  0
LINE
  5
4D14
330
4D13
100
AcDbEntity
  8
寸法線
 62
     0
 48
10.0
100
AcDbLine
 10
378.466582008844
 20
325.72296127659
 30
0.0
 11
400.974318978583
 21
325.72296127659
 31
0.0
  0
LINE
  5
4D15
330
4D13
100
AcDbEntity
  8
寸法線
 62
     0
 48
10.0
100
AcDbLine
 10
362.966582008844
 20
385.72296127659
 30
0.0
 11
400.974318978583
 21
385.72296127659
 31
0.0
  0
LINE
  5
4D16
330
4D13
100
AcDbEntity
  8
寸法線
 62
     0
 48
10.0
100
AcDbLine
 10
399.724318978583
 20
331.72296127659
 30
0.0
 11
399.724318978583
 21
379.72296127659
 31
0.0
  0
INSERT
  5
4D17
330
4D13
100
AcDbEntity
  8
寸法線
 62
     0
100
AcDbBlockReference
  2
_OPEN30
 10
399.724318978583
 20
325.72296127659
 30
0.0
 41
6.0
 42
6.0
 43
6.0
 50
270.0
  0
INSERT
  5
4D18
330
4D13
100
AcDbEntity
  8
寸法線
 62
     0
100
AcDbBlockReference
  2
_OPEN30
 10
399.724318978583
 20
385.72296127659
 30
0.0
 41
6.0
 42
6.0
 43
6.0
 50
90.0
  0
MTEXT
  5
4D19
330
4D13
100
AcDbEntity
  8
寸法線
 62
     0
 48
10.0
100
AcDbMText
 10
395.099318978583
 20
355.72296127659
 30
0.0
 40
8.0
 41
0.0
 71
     5
 72
     1
  1
\A1;60
 11
0.0
 21
1.0
 31
0.0
  0
POINT
  5
4D1A
330
4D13
100
AcDbEntity
  8
DEFPOINTS
 62
     0
100
AcDbPoint
 10
377.841582008844
 20
325.72296127659
 30
0.0
  0
POINT
  5
4D1B
330
4D13
100
AcDbEntity
  8
DEFPOINTS
 62
     0
100
AcDbPoint
 10
362.341582008844
 20
385.72296127659
 30
0.0
  0
POINT
  5
4D1C
330
4D13
100
AcDbEntity
  8
DEFPOINTS
 62
     0
100
AcDbPoint
 10
399.724318978583
 20
385.72296127659
 30
0.0
  0
ENDBLK
  5
4D1E
330
4D13
100
AcDbEntity
  8
0
100
AcDbBlockEnd
  0
BLOCK
  5
4D28
330
4D1F
100
AcDbEntity
  8
0
100
AcDbBlockBegin
  2
*D40
 70
     1
 10
0.0
 20
0.0
 30
0.0
  3
*D40
  1

  0
LINE
  5
4D20
330
4D1F
100
AcDbEntity
  8
寸法線
 62
     0
 48
10.0
100
AcDbLine
 10
489.215116844306
 20
365.092133953921
 30
0.0
 11
507.377143285659
 21
351.924171317734
 31
0.0
  0
LINE
  5
4D21
330
4D1F
100
AcDbEntity
  8
寸法線
 62
     0
 48
10.0
100
AcDbLine
 10
468.165517104477
 20
380.353665687496
 30
0.0
 11
463.307917164739
 21
383.875557625852
 31
0.0
  0
MTEXT
  5
4D22
330
4D1F
100
AcDbEntity
  8
寸法線
 62
     0
 48
10.0
100
AcDbMText
 10
503.439721737334
 20
360.491606620198
 30
0.0
 40
8.0
 41
0.0
 71
     5
 72
     1
  1
\A1;%%c14
 11
0.809599989956331
 21
-0.5869819897260126
 31
0.0
  0
LINE
  5
4D23
330
4D1F
100
AcDbEntity
  8
寸法線
 62
     0
 48
10.0
100
AcDbLine
 10
473.023117044215
 20
376.83177374914
 30
0.0
 11
484.357516904568
 21
368.614025892277
 31
0.0
  0
INSERT
  5
4D24
330
4D1F
100
AcDbEntity
  8
寸法線
 62
     0
100
AcDbBlockReference
  2
_OPEN30
 10
473.023117044215
 20
376.83177374914
 30
0.0
 41
6.0
 42
6.0
 43
6.0
 50
324.056867747671
  0
INSERT
  5
4D25
330
4D1F
100
AcDbEntity
  8
寸法線
 62
     0
100
AcDbBlockReference
  2
_OPEN30
 10
484.357516904568
 20
368.614025892277
 30
0.0
 41
6.0
 42
6.0
 43
6.0
 50
144.056867747671
  0
POINT
  5
4D26
330
4D1F
100
AcDbEntity
  8
DEFPOINTS
 62
     0
100
AcDbPoint
 10
484.357516904568
 20
368.614025892277
 30
0.0
  0
POINT
  5
4D27
330
4D1F
100
AcDbEntity
  8
DEFPOINTS
 62
     0
100
AcDbPoint
 10
473.023117044215
 20
376.83177374914
 30
0.0
  0
ENDBLK
  5
4D29
330
4D1F
100
AcDbEntity
  8
0
100
AcDbBlockEnd
  0
BLOCK
  5
4D34
330
4D2A
100
AcDbEntity
  8
0
100
AcDbBlockBegin
  2
*D41
 70
     1
 10
0.0
 20
0.0
 30
0.0
  3
*D41
  1

  0
LINE
  5
4D2B
330
4D2A
100
AcDbEntity
  8
寸法線
 62
     0
 48
10.0
100
AcDbLine
 10
78.758000773584
 20
361.937245280302
 30
0.0
 11
78.758000773584
 21
344.407191127126
 31
0.0
  0
LINE
  5
4D2C
330
4D2A
100
AcDbEntity
  8
寸法線
 62
     0
 48
10.0
100
AcDbLine
 10
118.758000773584
 20
361.937245280302
 30
0.0
 11
118.758000773584
 21
344.407191127126
 31
0.0
  0
LINE
  5
4D2D
330
4D2A
100
AcDbEntity
  8
寸法線
 62
     0
 48
10.0
100
AcDbLine
 10
84.758000773584
 20
345.657191127126
 30
0.0
 11
112.758000773584
 21
345.657191127126
 31
0.0
  0
INSERT
  5
4D2E
330
4D2A
100
AcDbEntity
  8
寸法線
 62
     0
100
AcDbBlockReference
  2
_OPEN30
 10
78.758000773584
 20
345.657191127126
 30
0.0
 41
6.0
 42
6.0
 43
6.0
 50
180.0
  0
INSERT
  5
4D2F
330
4D2A
100
AcDbEntity
  8
寸法線
 62
     0
100
AcDbBlockReference
  2
_OPEN30
 10
118.758000773584
 20
345.657191127126
 30
0.0
 41
6.0
 42
6.0
 43
6.0
  0
MTEXT
  5
4D30
330
4D2A
100
AcDbEntity
  8
寸法線
 62
     0
 48
10.0
100
AcDbMText
 10
98.758000773584
 20
350.282191127126
 30
0.0
 40
8.0
 41
0.0
 71
     5
 72
     1
  1
\A1;40
  0
POINT
  5
4D31
330
4D2A
100
AcDbEntity
  8
DEFPOINTS
 62
     0
100
AcDbPoint
 10
78.758000773584
 20
362.562245280302
 30
0.0
  0
POINT
  5
4D32
330
4D2A
100
AcDbEntity
  8
DEFPOINTS
 62
     0
100
AcDbPoint
 10
118.758000773584
 20
362.562245280302
 30
0.0
  0
POINT
  5
4D33
330
4D2A
100
AcDbEntity
  8
DEFPOINTS
 62
     0
100
AcDbPoint
 10
118.758000773584
 20
345.657191127126
 30
0.0
  0
ENDBLK
  5
4D35
330
4D2A
100
AcDbEntity
  8
0
100
AcDbBlockEnd
  0
BLOCK
  5
4D40
330
4D36
100
AcDbEntity
  8
0
100
AcDbBlockBegin
  2
*D42
 70
     1
 10
0.0
 20
0.0
 30
0.0
  3
*D42
  1

  0
LINE
  5
4D37
330
4D36
100
AcDbEntity
  8
寸法線
 62
     0
 48
10.0
100
AcDbLine
 10
178.841582008844
 20
325.09796127659
 30
0.0
 11
178.841582008844
 21
301.44292283436
 31
0.0
  0
LINE
  5
4D38
330
4D36
100
AcDbEntity
  8
寸法線
 62
     0
 48
10.0
100
AcDbLine
 10
377.841582008844
 20
325.09796127659
 30
0.0
 11
377.841582008844
 21
301.44292283436
 31
0.0
  0
LINE
  5
4D39
330
4D36
100
AcDbEntity
  8
寸法線
 62
     0
 48
10.0
100
AcDbLine
 10
184.841582008844
 20
302.69292283436
 30
0.0
 11
371.841582008844
 21
302.69292283436
 31
0.0
  0
INSERT
  5
4D3A
330
4D36
100
AcDbEntity
  8
寸法線
 62
     0
100
AcDbBlockReference
  2
_OPEN30
 10
178.841582008844
 20
302.69292283436
 30
0.0
 41
6.0
 42
6.0
 43
6.0
 50
180.0
  0
INSERT
  5
4D3B
330
4D36
100
AcDbEntity
  8
寸法線
 62
     0
100
AcDbBlockReference
  2
_OPEN30
 10
377.841582008844
 20
302.69292283436
 30
0.0
 41
6.0
 42
6.0
 43
6.0
  0
MTEXT
  5
4D3C
330
4D36
100
AcDbEntity
  8
寸法線
 62
     0
 48
10.0
100
AcDbMText
 10
278.341582008844
 20
307.31792283436
 30
0.0
 40
8.0
 41
0.0
 71
     5
 72
     1
  1
\A1;199
  0
POINT
  5
4D3D
330
4D36
100
AcDbEntity
  8
DEFPOINTS
 62
     0
100
AcDbPoint
 10
178.841582008844
 20
325.72296127659
 30
0.0
  0
POINT
  5
4D3E
330
4D36
100
AcDbEntity
  8
DEFPOINTS
 62
     0
100
AcDbPoint
 10
377.841582008844
 20
325.72296127659
 30
0.0
  0
POINT
  5
4D3F
330
4D36
100
AcDbEntity
  8
DEFPOINTS
 62
     0
100
AcDbPoint
 10
377.841582008844
 20
302.69292283436
 30
0.0
  0
ENDBLK
  5
4D41
330
4D36
100
AcDbEntity
  8
0
100
AcDbBlockEnd
  0
BLOCK
  5
4D4B
330
4D42
100
AcDbEntity
  8
0
100
AcDbBlockBegin
  2
*D43
 70
     1
 10
0.0
 20
0.0
 30
0.0
  3
*D43
  1

  0
LINE
  5
4D43
330
4D42
100
AcDbEntity
  8
寸法線
 62
     0
 48
10.0
100
AcDbLine
 10
71.918669917007
 20
361.667485103126
 30
0.0
 11
60.116440002538
 21
342.589701859508
 31
0.0
  0
LINE
  5
4D44
330
4D42
100
AcDbEntity
  8
寸法線
 62
     0
 48
10.0
100
AcDbLine
 10
85.59733163016
 20
383.778437450053
 30
0.0
 11
88.753945871772
 21
388.880964914914
 31
0.0
  0
MTEXT
  5
4D45
330
4D42
100
AcDbEntity
  8
寸法線
 62
     0
 48
10.0
100
AcDbMText
 10
60.506049584804
 20
352.010553226795
 30
0.0
 40
8.0
 41
0.0
 71
     5
 72
     1
  1
\A1;%%c14
 11
0.5261023736018896
 21
0.8504212441434292
 31
0.0
  0
LINE
  5
4D46
330
4D42
100
AcDbEntity
  8
寸法線
 62
     0
 48
10.0
100
AcDbLine
 10
82.440717388549
 20
378.675909985193
 30
0.0
 11
75.075284158619
 21
366.770012567986
 31
0.0
  0
INSERT
  5
4D47
330
4D42
100
AcDbEntity
  8
寸法線
 62
     0
100
AcDbBlockReference
  2
_OPEN30
 10
82.440717388549
 20
378.675909985193
 30
0.0
 41
6.0
 42
6.0
 43
6.0
 50
238.257515812276
  0
INSERT
  5
4D48
330
4D42
100
AcDbEntity
  8
寸法線
 62
     0
100
AcDbBlockReference
  2
_OPEN30
 10
75.075284158619
 20
366.770012567986
 30
0.0
 41
6.0
 42
6.0
 43
6.0
 50
58.257515812276
  0
POINT
  5
4D49
330
4D42
100
AcDbEntity
  8
DEFPOINTS
 62
     0
100
AcDbPoint
 10
75.075284158619
 20
366.770012567986
 30
0.0
  0
POINT
  5
4D4A
330
4D42
100
AcDbEntity
  8
DEFPOINTS
 62
     0
100
AcDbPoint
 10
82.440717388549
 20
378.675909985193
 30
0.0
  0
ENDBLK
  5
4D4C
330
4D42
100
AcDbEntity
  8
0
100
AcDbBlockEnd
  0
BLOCK
  5
4D57
330
4D4D
100
AcDbEntity
  8
0
100
AcDbBlockBegin
  2
*D44
 70
     1
 10
0.0
 20
0.0
 30
0.0
  3
*D44
  1

  0
LINE
  5
4D4E
330
4D4D
100
AcDbEntity
  8
寸法線
 62
     0
 48
10.0
100
AcDbLine
 10
186.341580507552
 20
475.993752211851
 30
0.0
 11
186.341580507552
 21
412.434455409699
 31
0.0
  0
LINE
  5
4D4F
330
4D4D
100
AcDbEntity
  8
寸法線
 62
     0
 48
10.0
100
AcDbLine
 10
370.341582008844
 20
475.89728709758
 30
0.0
 11
370.341582008844
 21
412.434455409699
 31
0.0
  0
LINE
  5
4D50
330
4D4D
100
AcDbEntity
  8
寸法線
 62
     0
 48
10.0
100
AcDbLine
 10
192.341580507552
 20
413.684455409699
 30
0.0
 11
364.341582008844
 21
413.684455409699
 31
0.0
  0
INSERT
  5
4D51
330
4D4D
100
AcDbEntity
  8
寸法線
 62
     0
100
AcDbBlockReference
  2
_OPEN30
 10
186.341580507552
 20
413.684455409699
 30
0.0
 41
6.0
 42
6.0
 43
6.0
 50
180.0
  0
INSERT
  5
4D52
330
4D4D
100
AcDbEntity
  8
寸法線
 62
     0
100
AcDbBlockReference
  2
_OPEN30
 10
370.341582008844
 20
413.684455409699
 30
0.0
 41
6.0
 42
6.0
 43
6.0
  0
MTEXT
  5
4D53
330
4D4D
100
AcDbEntity
  8
寸法線
 62
     0
 48
10.0
100
AcDbMText
 10
278.341581258198
 20
418.317788743032
 30
0.0
 40
8.0
 41
0.0
 71
     5
 72
     1
  1
\A1;184
  0
POINT
  5
4D54
330
4D4D
100
AcDbEntity
  8
DEFPOINTS
 62
     0
100
AcDbPoint
 10
186.341580507552
 20
476.618752211851
 30
0.0
  0
POINT
  5
4D55
330
4D4D
100
AcDbEntity
  8
DEFPOINTS
 62
     0
100
AcDbPoint
 10
370.341582008844
 20
476.52228709758
 30
0.0
  0
POINT
  5
4D56
330
4D4D
100
AcDbEntity
  8
DEFPOINTS
 62
     0
100
AcDbPoint
 10
370.341582008844
 20
413.684455409699
 30
0.0
  0
ENDBLK
  5
4D58
330
4D4D
100
AcDbEntity
  8
0
100
AcDbBlockEnd
  0
BLOCK
  5
4D65
330
4D59
100
AcDbEntity
  8
0
100
AcDbBlockBegin
  2
*D45
 70
     1
 10
0.0
 20
0.0
 30
0.0
  3
*D45
  1

  0
LINE
  5
4D5A
330
4D59
100
AcDbEntity
  8
寸法線
 62
     0
 48
10.0
100
AcDbLine
 10
178.216582008844
 20
483.001587386529
 30
0.0
 11
167.64684673885
 21
483.001587386529
 31
0.0
  0
LINE
  5
4D5B
330
4D59
100
AcDbEntity
  8
寸法線
 62
     0
 48
10.0
100
AcDbLine
 10
178.216582008844
 20
478.001587386529
 30
0.0
 11
167.64684673885
 21
478.001587386529
 31
0.0
  0
LINE
  5
4D5C
330
4D59
100
AcDbEntity
  8
寸法線
 62
     0
 48
10.0
100
AcDbLine
 10
168.89684673885
 20
483.001587386529
 30
0.0
 11
168.89684673885
 21
478.001587386529
 31
0.0
  0
LINE
  5
4D5D
330
4D59
100
AcDbEntity
  8
寸法線
 62
     0
 48
10.0
100
AcDbLine
 10
168.89684673885
 20
489.001587386529
 30
0.0
 11
168.89684673885
 21
495.001587386529
 31
0.0
  0
LINE
  5
4D5E
330
4D59
100
AcDbEntity
  8
寸法線
 62
     0
 48
10.0
100
AcDbLine
 10
168.89684673885
 20
472.001587386529
 30
0.0
 11
168.89684673885
 21
466.001587386529
 31
0.0
  0
INSERT
  5
4D5F
330
4D59
100
AcDbEntity
  8
寸法線
 62
     0
100
AcDbBlockReference
  2
_OPEN30
 10
168.89684673885
 20
483.001587386529
 30
0.0
 41
6.0
 42
6.0
 43
6.0
 50
270.0
  0
INSERT
  5
4D60
330
4D59
100
AcDbEntity
  8
寸法線
 62
     0
100
AcDbBlockReference
  2
_OPEN30
 10
168.89684673885
 20
478.001587386529
 30
0.0
 41
6.0
 42
6.0
 43
6.0
 50
90.0
  0
MTEXT
  5
4D61
330
4D59
100
AcDbEntity
  8
寸法線
 62
     0
 48
10.0
100
AcDbMText
 10
164.27184673885
 20
480.501587386529
 30
0.0
 40
8.0
 41
0.0
 71
     5
 72
     1
  1
\A1;5
 11
0.0
 21
1.0
 31
0.0
  0
POINT
  5
4D62
330
4D59
100
AcDbEntity
  8
DEFPOINTS
 62
     0
100
AcDbPoint
 10
178.841582008844
 20
483.001587386529
 30
0.0
  0
POINT
  5
4D63
330
4D59
100
AcDbEntity
  8
DEFPOINTS
 62
     0
100
AcDbPoint
 10
178.841582008844
 20
478.001587386529
 30
0.0
  0
POINT
  5
4D64
330
4D59
100
AcDbEntity
  8
DEFPOINTS
 62
     0
100
AcDbPoint
 10
168.89684673885
 20
478.001587386529
 30
0.0
  0
ENDBLK
  5
4D66
330
4D59
100
AcDbEntity
  8
0
100
AcDbBlockEnd
  0
BLOCK
  5
4D70
330
4D67
100
AcDbEntity
  8
0
100
AcDbBlockBegin
  2
*D46
 70
     1
 10
0.0
 20
0.0
 30
0.0
  3
*D46
  1

  0
LINE
  5
4D68
330
4D67
100
AcDbEntity
  8
寸法線
 62
     0
 48
10.0
100
AcDbLine
 10
378.081364376781
 20
484.020723715982
 30
0.0
 11
394.137618779536
 21
491.309834704192
 31
0.0
  0
LINE
  5
4D69
330
4D67
100
AcDbEntity
  8
寸法線
 62
     0
 48
10.0
100
AcDbLine
 10
362.601799640907
 20
476.993414445794
 30
0.0
 11
357.138423851689
 21
474.513187644513
 31
0.0
  0
MTEXT
  5
4D6A
330
4D67
100
AcDbEntity
  8
寸法線
 62
     0
 48
10.0
100
AcDbMText
 10
386.929337980113
 20
493.116744781582
 30
0.0
 40
8.0
 41
0.0
 71
     5
 72
     1
  1
\A1;%%c5
 11
0.9105626315362191
 21
0.4133711335468844
 31
0.0
  0
LINE
  5
4D6B
330
4D67
100
AcDbEntity
  8
寸法線
 62
     0
 48
10.0
100
AcDbLine
 10
368.065175430124
 20
479.473641247076
 30
0.0
 11
372.617988587563
 21
481.5404969147
 31
0.0
  0
INSERT
  5
4D6C
330
4D67
100
AcDbEntity
  8
寸法線
 62
     0
100
AcDbBlockReference
  2
_OPEN30
 10
368.065175430124
 20
479.473641247076
 30
0.0
 41
6.0
 42
6.0
 43
6.0
 50
24.416780813914
  0
INSERT
  5
4D6D
330
4D67
100
AcDbEntity
  8
寸法線
 62
     0
100
AcDbBlockReference
  2
_OPEN30
 10
372.617988587563
 20
481.5404969147
 30
0.0
 41
6.0
 42
6.0
 43
6.0
 50
204.416780813914
  0
POINT
  5
4D6E
330
4D67
100
AcDbEntity
  8
DEFPOINTS
 62
     0
100
AcDbPoint
 10
372.617988587563
 20
481.5404969147
 30
0.0
  0
POINT
  5
4D6F
330
4D67
100
AcDbEntity
  8
DEFPOINTS
 62
     0
100
AcDbPoint
 10
368.065175430124
 20
479.473641247076
 30
0.0
  0
ENDBLK
  5
4D71
330
4D67
100
AcDbEntity
  8
0
100
AcDbBlockEnd
  0
BLOCK
  5
4D7C
330
4D72
100
AcDbEntity
  8
0
100
AcDbBlockBegin
  2
*D47
 70
     1
 10
0.0
 20
0.0
 30
0.0
  3
*D47
  1

  0
LINE
  5
4D73
330
4D72
100
AcDbEntity
  8
寸法線
 62
     0
 48
10.0
100
AcDbLine
 10
52.258000773584
 20
325.09796127659
 30
0.0
 11
52.258000773584
 21
301.410762273526
 31
0.0
  0
LINE
  5
4D74
330
4D72
100
AcDbEntity
  8
寸法線
 62
     0
 48
10.0
100
AcDbLine
 10
145.258000773584
 20
325.09796127659
 30
0.0
 11
145.258000773584
 21
301.410762273526
 31
0.0
  0
LINE
  5
4D75
330
4D72
100
AcDbEntity
  8
寸法線
 62
     0
 48
10.0
100
AcDbLine
 10
58.258000773584
 20
302.660762273526
 30
0.0
 11
139.258000773584
 21
302.660762273526
 31
0.0
  0
INSERT
  5
4D76
330
4D72
100
AcDbEntity
  8
寸法線
 62
     0
100
AcDbBlockReference
  2
_OPEN30
 10
52.258000773584
 20
302.660762273526
 30
0.0
 41
6.0
 42
6.0
 43
6.0
 50
180.0
  0
INSERT
  5
4D77
330
4D72
100
AcDbEntity
  8
寸法線
 62
     0
100
AcDbBlockReference
  2
_OPEN30
 10
145.258000773584
 20
302.660762273526
 30
0.0
 41
6.0
 42
6.0
 43
6.0
  0
MTEXT
  5
4D78
330
4D72
100
AcDbEntity
  8
寸法線
 62
     0
 48
10.0
100
AcDbMText
 10
98.758000773584
 20
307.289928940193
 30
0.0
 40
8.0
 41
0.0
 71
     5
 72
     1
  1
\A1;93
  0
POINT
  5
4D79
330
4D72
100
AcDbEntity
  8
DEFPOINTS
 62
     0
100
AcDbPoint
 10
52.258000773584
 20
325.72296127659
 30
0.0
  0
POINT
  5
4D7A
330
4D72
100
AcDbEntity
  8
DEFPOINTS
 62
     0
100
AcDbPoint
 10
145.258000773584
 20
325.72296127659
 30
0.0
  0
POINT
  5
4D7B
330
4D72
100
AcDbEntity
  8
DEFPOINTS
 62
     0
100
AcDbPoint
 10
145.258000773584
 20
302.660762273526
 30
0.0
  0
ENDBLK
  5
4D7D
330
4D72
100
AcDbEntity
  8
0
100
AcDbBlockEnd
  0
BLOCK
  5
4D88
330
4D7E
100
AcDbEntity
  8
0
100
AcDbBlockBegin
  2
*D48
 70
     1
 10
0.0
 20
0.0
 30
0.0
  3
*D48
  1

  0
LINE
  5
4D7F
330
4D7E
100
AcDbEntity
  8
寸法線
 62
     0
 48
10.0
100
AcDbLine
 10
194.341582008844
 20
386.34796127659
 30
0.0
 11
194.341582008844
 21
402.806655728544
 31
0.0
  0
LINE
  5
4D80
330
4D7E
100
AcDbEntity
  8
寸法線
 62
     0
 48
10.0
100
AcDbLine
 10
362.341582008844
 20
386.34796127659
 30
0.0
 11
362.341582008844
 21
402.806655728544
 31
0.0
  0
LINE
  5
4D81
330
4D7E
100
AcDbEntity
  8
寸法線
 62
     0
 48
10.0
100
AcDbLine
 10
200.341582008844
 20
401.556655728544
 30
0.0
 11
356.341582008844
 21
401.556655728544
 31
0.0
  0
INSERT
  5
4D82
330
4D7E
100
AcDbEntity
  8
寸法線
 62
     0
100
AcDbBlockReference
  2
_OPEN30
 10
194.341582008844
 20
401.556655728544
 30
0.0
 41
6.0
 42
6.0
 43
6.0
 50
180.0
  0
INSERT
  5
4D83
330
4D7E
100
AcDbEntity
  8
寸法線
 62
     0
100
AcDbBlockReference
  2
_OPEN30
 10
362.341582008844
 20
401.556655728544
 30
0.0
 41
6.0
 42
6.0
 43
6.0
  0
MTEXT
  5
4D84
330
4D7E
100
AcDbEntity
  8
寸法線
 62
     0
 48
10.0
100
AcDbMText
 10
278.341582008844
 20
406.18582239521
 30
0.0
 40
8.0
 41
0.0
 71
     5
 72
     1
  1
\A1;168
  0
POINT
  5
4D85
330
4D7E
100
AcDbEntity
  8
DEFPOINTS
 62
     0
100
AcDbPoint
 10
194.341582008844
 20
385.72296127659
 30
0.0
  0
POINT
  5
4D86
330
4D7E
100
AcDbEntity
  8
DEFPOINTS
 62
     0
100
AcDbPoint
 10
362.341582008844
 20
385.72296127659
 30
0.0
  0
POINT
  5
4D87
330
4D7E
100
AcDbEntity
  8
DEFPOINTS
 62
     0
100
AcDbPoint
 10
362.341582008844
 20
401.556655728544
 30
0.0
  0
ENDBLK
  5
4D89
330
4D7E
100
AcDbEntity
  8
0
100
AcDbBlockEnd
  0
ENDSEC
  0
SECTION
  2
ENTITIES
  0
LINE
  5
3E99
330
1A
100
AcDbEntity
  8
下書線
 48
10.0
100
AcDbLine
 10
-96.993161647774
 20
302.69292283436
 30
0.0
 11
600.62854821435
 21
302.69292283436
 31
0.0
  0
MTEXT
  5
4614
330
1A
100
AcDbEntity
  8
寸法線
 48
10.0
100
AcDbMText
 10
488.738401545237
 20
235.170641490586
 30
0.0
 40
9.0
 41
119.525925925926
 71
     1
 72
     5
  1
ia3nG5\P労検第T68850号\P本質安全防爆構造
  0
LINE
  5
4BBC
330
1A
100
AcDbEntity
  8
外形線
 48
10.0
100
AcDbLine
 10
432.157057372128
 20
385.72296127659
 30
0.0
 11
525.157057372128
 21
385.72296127659
 31
0.0
  0
LINE
  5
4BBD
330
1A
100
AcDbEntity
  8
外形線
 48
10.0
100
AcDbLine
 10
525.157057372128
 20
385.72296127659
 30
0.0
 11
525.157057372128
 21
381.72296127659
 31
0.0
  0
LINE
  5
4BBE
330
1A
100
AcDbEntity
  8
外形線
 48
10.0
100
AcDbLine
 10
432.157057372128
 20
385.72296127659
 30
0.0
 11
432.157057372128
 21
381.72296127659
 31
0.0
  0
LINE
  5
4BBF
330
1A
100
AcDbEntity
  8
外形線
 48
10.0
100
AcDbLine
 10
432.157057372128
 20
381.72296127659
 30
0.0
 11
433.157057372128
 21
381.72296127659
 31
0.0
  0
LINE
  5
4BC0
330
1A
100
AcDbEntity
  8
外形線
 48
10.0
100
AcDbLine
 10
433.157057372128
 20
381.72296127659
 30
0.0
 11
433.157057372128
 21
384.72296127659
 31
0.0
  0
LINE
  5
4BC1
330
1A
100
AcDbEntity
  8
外形線
 48
10.0
100
AcDbLine
 10
525.157057372128
 20
381.72296127659
 30
0.0
 11
524.157057372128
 21
381.72296127659
 31
0.0
  0
LINE
  5
4BC2
330
1A
100
AcDbEntity
  8
外形線
 48
10.0
100
AcDbLine
 10
524.157057372128
 20
381.72296127659
 30
0.0
 11
524.157057372128
 21
384.72296127659
 31
0.0
  0
LINE
  5
4BC3
330
1A
100
AcDbEntity
  8
外形線
 48
10.0
100
AcDbLine
 10
316.841582008844
 20
527.007069080888
 30
0.0
 11
316.841582008844
 21
434.007069080888
 31
0.0
  0
LINE
  5
4BC4
330
1A
100
AcDbEntity
  8
外形線
 48
10.0
100
AcDbLine
 10
316.841582008844
 20
434.007069080888
 30
0.0
 11
362.341582008844
 21
434.007069080888
 31
0.0
  0
LINE
  5
4BC5
330
1A
100
AcDbEntity
  8
外形線
 48
10.0
100
AcDbLine
 10
362.341582008844
 20
433.991952199309
 30
0.0
 11
362.341582008844
 21
527.007069080888
 31
0.0
  0
LINE
  5
4BC6
330
1A
100
AcDbEntity
  8
外形線
 48
10.0
100
AcDbLine
 10
362.341582008844
 20
527.007069080888
 30
0.0
 11
316.841582008844
 21
527.007069080888
 31
0.0
  0
LINE
  5
4BC7
330
1A
100
AcDbEntity
  8
外形線
 48
10.0
100
AcDbLine
 10
316.841582008844
 20
385.72296127659
 30
0.0
 11
362.341582008844
 21
385.72296127659
 31
0.0
  0
LINE
  5
4BC8
330
1A
100
AcDbEntity
  8
外形線
 48
10.0
100
AcDbLine
 10
362.341582008844
 20
385.72296127659
 30
0.0
 11
362.341582008844
 21
383.22296127659
 31
0.0
  0
LINE
  5
4BC9
330
1A
100
AcDbEntity
  8
外形線
 48
10.0
100
AcDbLine
 10
52.258000773584
 20
385.72296127659
 30
0.0
 11
145.258000773584
 21
385.72296127659
 31
0.0
  0
LINE
  5
4BCA
330
1A
100
AcDbEntity
  8
外形線
 48
10.0
100
AcDbLine
 10
145.258000773584
 20
385.72296127659
 30
0.0
 11
145.258000773584
 21
381.72296127659
 31
0.0
  0
LINE
  5
4BCB
330
1A
100
AcDbEntity
  8
外形線
 48
10.0
100
AcDbLine
 10
52.258000773584
 20
385.72296127659
 30
0.0
 11
52.258000773584
 21
381.72296127659
 31
0.0
  0
LINE
  5
4BCC
330
1A
100
AcDbEntity
  8
外形線
 48
10.0
100
AcDbLine
 10
52.258000773584
 20
381.72296127659
 30
0.0
 11
53.258000773584
 21
381.72296127659
 31
0.0
  0
LINE
  5
4BCD
330
1A
100
AcDbEntity
  8
外形線
 48
10.0
100
AcDbLine
 10
53.258000773584
 20
381.72296127659
 30
0.0
 11
53.258000773584
 21
384.72296127659
 31
0.0
  0
LINE
  5
4BCE
330
1A
100
AcDbEntity
  8
外形線
 48
10.0
100
AcDbLine
 10
53.258000773584
 20
384.72296127659
 30
0.0
 11
144.258000773584
 21
384.72296127659
 31
0.0
  0
LINE
  5
4BCF
330
1A
100
AcDbEntity
  8
外形線
 48
10.0
100
AcDbLine
 10
145.258000773584
 20
381.72296127659
 30
0.0
 11
144.258000773584
 21
381.72296127659
 31
0.0
  0
LINE
  5
4BD0
330
1A
100
AcDbEntity
  8
外形線
 48
10.0
100
AcDbLine
 10
144.258000773584
 20
381.72296127659
 30
0.0
 11
144.258000773584
 21
384.72296127659
 31
0.0
  0
LINE
  5
4BD1
330
1A
100
AcDbEntity
  8
外形線
 48
10.0
100
AcDbLine
 10
194.341582008844
 20
527.007069080888
 30
0.0
 11
194.341582008844
 21
434.007069080888
 31
0.0
  0
LINE
  5
4BD2
330
1A
100
AcDbEntity
  8
外形線
 48
10.0
100
AcDbLine
 10
194.341582008844
 20
434.007069080888
 30
0.0
 11
316.841582008844
 21
434.007069080888
 31
0.0
  0
LINE
  5
4BD3
330
1A
100
AcDbEntity
  8
外形線
 48
10.0
100
AcDbLine
 10
316.841582008844
 20
434.007069080888
 30
0.0
 11
316.841582008844
 21
527.007069080888
 31
0.0
  0
LINE
  5
4BD4
330
1A
100
AcDbEntity
  8
外形線
 48
10.0
100
AcDbLine
 10
316.841582008844
 20
527.007069080888
 30
0.0
 11
194.341582008844
 21
527.007069080888
 31
0.0
  0
LINE
  5
4BD5
330
1A
100
AcDbEntity
  8
外形線
 48
10.0
100
AcDbLine
 10
194.341582008844
 20
385.72296127659
 30
0.0
 11
316.841582008844
 21
385.72296127659
 31
0.0
  0
LINE
  5
4BD6
330
1A
100
AcDbEntity
  8
外形線
 48
10.0
100
AcDbLine
 10
316.841582008844
 20
385.72296127659
 30
0.0
 11
316.841582008844
 21
383.22296127659
 31
0.0
  0
LINE
  5
4BD7
330
1A
100
AcDbEntity
  8
外形線
 48
10.0
100
AcDbLine
 10
315.341582008844
 20
381.72296127659
 30
0.0
 11
195.841582008844
 21
381.72296127659
 31
0.0
  0
LINE
  5
4BD8
330
1A
100
AcDbEntity
  8
外形線
 48
10.0
100
AcDbLine
 10
194.341582008844
 20
385.72296127659
 30
0.0
 11
194.341582008844
 21
383.22296127659
 31
0.0
  0
LINE
  5
4BD9
330
1A
100
AcDbEntity
  8
外形線
 48
10.0
100
AcDbLine
 10
195.841582008844
 20
381.72296127659
 30
0.0
 11
194.341582008844
 21
383.22296127659
 31
0.0
  0
LINE
  5
4BDA
330
1A
100
AcDbEntity
  8
外形線
 48
10.0
100
AcDbLine
 10
315.341582008844
 20
381.72296127659
 30
0.0
 11
316.841582008844
 21
383.22296127659
 31
0.0
  0
LINE
  5
4BDB
330
1A
100
AcDbEntity
  8
外形線
 48
10.0
100
AcDbLine
 10
360.841582008844
 20
381.72296127659
 30
0.0
 11
318.341582008844
 21
381.72296127659
 31
0.0
  0
LINE
  5
4BDC
330
1A
100
AcDbEntity
  8
外形線
 48
10.0
100
AcDbLine
 10
318.341582008844
 20
381.72296127659
 30
0.0
 11
316.841582008844
 21
383.22296127659
 31
0.0
  0
LINE
  5
4BDD
330
1A
100
AcDbEntity
  8
外形線
 48
10.0
100
AcDbLine
 10
360.841582008844
 20
381.72296127659
 30
0.0
 11
362.341582008844
 21
383.22296127659
 31
0.0
  0
LINE
  5
4BDE
330
1A
100
AcDbEntity
  8
外形線
 48
10.0
100
AcDbLine
 10
316.841582008844
 20
385.72296127659
 30
0.0
 11
316.841582008844
 21
383.22296127659
 31
0.0
  0
LINE
  5
4BDF
330
1A
100
AcDbEntity
  8
外形線
 48
10.0
100
AcDbLine
 10
433.157057372128
 20
384.72296127659
 30
0.0
 11
524.157057372128
 21
384.72296127659
 31
0.0
  0
LINE
  5
4BE0
330
1A
100
AcDbEntity
  8
外形線
 48
10.0
100
AcDbLine
 10
193.841582008844
 20
527.007069080888
 30
0.0
 11
362.341582008844
 21
527.007069080888
 31
0.0
  0
LINE
  5
4BE1
330
1A
100
AcDbEntity
  8
外形線
 48
10.0
100
AcDbLine
 10
361.841582008844
 20
434.007069080888
 30
0.0
 11
194.341582008844
 21
434.007069080888
 31
0.0
  0
LINE
  5
4BE2
330
1A
100
AcDbEntity
  8
外形線
 48
10.0
100
AcDbLine
 10
194.341582008844
 20
434.007069080888
 30
0.0
 11
194.341582008844
 21
527.007069080888
 31
0.0
  0
LINE
  5
4BE3
330
1A
100
AcDbEntity
  8
外形線
 48
10.0
100
AcDbLine
 10
362.341582008844
 20
527.007069080888
 30
0.0
 11
372.841582008844
 21
527.007069080888
 31
0.0
  0
LINE
  5
4BE4
330
1A
100
AcDbEntity
  8
外形線
 48
10.0
100
AcDbLine
 10
377.841582008844
 20
522.007069080888
 30
0.0
 11
377.841582008844
 21
439.007069080888
 31
0.0
  0
LINE
  5
4BE5
330
1A
100
AcDbEntity
  8
外形線
 48
10.0
100
AcDbLine
 10
372.841582008844
 20
434.007069080888
 30
0.0
 11
361.341582008844
 21
434.007069080888
 31
0.0
  0
LINE
  5
4BE6
330
1A
100
AcDbEntity
  8
外形線
 48
10.0
100
AcDbLine
 10
194.341582008844
 20
527.007069080888
 30
0.0
 11
183.841582008844
 21
527.007069080888
 31
0.0
  0
LINE
  5
4BE7
330
1A
100
AcDbEntity
  8
外形線
 48
10.0
100
AcDbLine
 10
178.841582008844
 20
522.007069080888
 30
0.0
 11
178.841582008844
 21
483.001587386529
 31
0.0
  0
LINE
  5
4BE8
330
1A
100
AcDbEntity
  8
外形線
 48
10.0
100
AcDbLine
 10
183.841582008844
 20
434.007069080888
 30
0.0
 11
194.341582008844
 21
434.007069080888
 31
0.0
  0
ARC
  5
4BE9
330
1A
100
AcDbEntity
  8
外形線
 48
10.0
100
AcDbCircle
 10
186.341580507552
 20
480.501587386529
 30
0.0
 40
2.5
100
AcDbArc
 50
270.0
 51
90.0
  0
LINE
  5
4BEA
330
1A
100
AcDbEntity
  8
外形線
 48
10.0
100
AcDbLine
 10
186.341580507552
 20
483.001587386529
 30
0.0
 11
178.841582008844
 21
483.001587386529
 31
0.0
  0
LINE
  5
4BEB
330
1A
100
AcDbEntity
  8
外形線
 48
10.0
100
AcDbLine
 10
186.341580507552
 20
478.001587386529
 30
0.0
 11
178.841582008844
 21
478.001587386529
 31
0.0
  0
LINE
  5
4BEC
330
1A
100
AcDbEntity
  8
外形線
 48
10.0
100
AcDbLine
 10
178.841582008844
 20
478.001587386529
 30
0.0
 11
178.841582008844
 21
439.007069080888
 31
0.0
  0
CIRCLE
  5
4BED
330
1A
100
AcDbEntity
  8
外形線
 48
10.0
100
AcDbCircle
 10
370.341582008844
 20
480.507069080888
 30
0.0
 40
2.5
  0
LINE
  5
4BEE
330
1A
100
AcDbEntity
  8
外形線
 48
10.0
100
AcDbLine
 10
372.841582008844
 20
527.007069080888
 30
0.0
 11
377.841582008844
 21
522.007069080888
 31
0.0
  0
LINE
  5
4BEF
330
1A
100
AcDbEntity
  8
外形線
 48
10.0
100
AcDbLine
 10
377.841582008844
 20
439.007069080888
 30
0.0
 11
372.841582008844
 21
434.007069080888
 31
0.0
  0
LINE
  5
4BF0
330
1A
100
AcDbEntity
  8
外形線
 48
10.0
100
AcDbLine
 10
183.841582008844
 20
527.007069080888
 30
0.0
 11
178.841582008844
 21
522.007069080888
 31
0.0
  0
LINE
  5
4BF1
330
1A
100
AcDbEntity
  8
外形線
 48
10.0
100
AcDbLine
 10
183.841582008844
 20
434.007069080888
 30
0.0
 11
178.841582008844
 21
439.007069080888
 31
0.0
  0
LINE
  5
4BF2
330
1A
100
AcDbEntity
  8
外形線
 48
10.0
100
AcDbLine
 10
361.841582008844
 20
326.72296127659
 30
0.0
 11
193.841582008844
 21
326.72296127659
 31
0.0
  0
LINE
  5
4BF3
330
1A
100
AcDbEntity
  8
外形線
 48
10.0
100
AcDbLine
 10
361.341582008844
 20
380.72296127659
 30
0.0
 11
361.341582008844
 21
326.72296127659
 31
0.0
  0
LINE
  5
4BF4
330
1A
100
AcDbEntity
  8
外形線
 48
10.0
100
AcDbLine
 10
361.341582008844
 20
381.72296127659
 30
0.0
 11
361.341582008844
 21
327.72296127659
 31
0.0
  0
LINE
  5
4BF5
330
1A
100
AcDbEntity
  8
外形線
 48
10.0
100
AcDbLine
 10
362.341582008844
 20
384.47296127659
 30
0.0
 11
362.341582008844
 21
326.47296127659
 31
0.0
  0
LINE
  5
4BF6
330
1A
100
AcDbEntity
  8
外形線
 48
10.0
100
AcDbLine
 10
361.341582008844
 20
382.22296127659
 30
0.0
 11
361.341582008844
 21
381.72296127659
 31
0.0
  0
LINE
  5
4BF7
330
1A
100
AcDbEntity
  8
外形線
 48
10.0
100
AcDbLine
 10
195.341582008844
 20
381.72296127659
 30
0.0
 11
195.341582008844
 21
326.72296127659
 31
0.0
  0
LINE
  5
4BF8
330
1A
100
AcDbEntity
  8
外形線
 48
10.0
100
AcDbLine
 10
194.341582008844
 20
380.72296127659
 30
0.0
 11
194.341582008844
 21
326.72296127659
 31
0.0
  0
LINE
  5
4BF9
330
1A
100
AcDbEntity
  8
外形線
 48
10.0
100
AcDbLine
 10
195.341582008844
 20
382.22296127659
 30
0.0
 11
195.341582008844
 21
381.72296127659
 31
0.0
  0
LINE
  5
4BFA
330
1A
100
AcDbEntity
  8
外形線
 48
10.0
100
AcDbLine
 10
194.341582008844
 20
384.72296127659
 30
0.0
 11
194.341582008844
 21
326.72296127659
 31
0.0
  0
LINE
  5
4BFB
330
1A
100
AcDbEntity
  8
外形線
 48
10.0
100
AcDbLine
 10
377.841582008844
 20
326.72296127659
 30
0.0
 11
377.841582008844
 21
325.72296127659
 31
0.0
  0
LINE
  5
4BFC
330
1A
100
AcDbEntity
  8
外形線
 48
10.0
100
AcDbLine
 10
373.466582008844
 20
326.72296127659
 30
0.0
 11
373.466582008844
 21
325.72296127659
 31
0.0
  0
LINE
  5
4BFD
330
1A
100
AcDbEntity
  8
外形線
 48
10.0
100
AcDbLine
 10
183.841582008844
 20
326.72296127659
 30
0.0
 11
183.841582008844
 21
325.72296127659
 31
0.0
  0
LINE
  5
4BFE
330
1A
100
AcDbEntity
  8
外形線
 48
10.0
100
AcDbLine
 10
178.841582008844
 20
326.72296127659
 30
0.0
 11
178.841582008844
 21
325.72296127659
 31
0.0
  0
LINE
  5
4BFF
330
1A
100
AcDbEntity
  8
外形線
 48
10.0
100
AcDbLine
 10
183.841582008844
 20
326.72296127659
 30
0.0
 11
183.841582008844
 21
325.72296127659
 31
0.0
  0
LINE
  5
4C00
330
1A
100
AcDbEntity
  8
外形線
 48
10.0
100
AcDbLine
 10
178.841582008844
 20
326.72296127659
 30
0.0
 11
178.841582008844
 21
325.72296127659
 31
0.0
  0
LINE
  5
4C01
330
1A
100
AcDbEntity
  8
外形線
 48
10.0
100
AcDbLine
 10
360.841582008844
 20
326.72296127659
 30
0.0
 11
377.841582008844
 21
326.72296127659
 31
0.0
  0
LINE
  5
4C02
330
1A
100
AcDbEntity
  8
外形線
 48
10.0
100
AcDbLine
 10
195.841582008844
 20
326.72296127659
 30
0.0
 11
178.841582008844
 21
326.72296127659
 31
0.0
  0
LINE
  5
4C03
330
1A
100
AcDbEntity
  8
外形線
 48
10.0
100
AcDbLine
 10
178.841582008844
 20
325.72296127659
 30
0.0
 11
377.841582008844
 21
325.72296127659
 31
0.0
  0
LINE
  5
4C04
330
1A
100
AcDbEntity
  8
外形線
 48
10.0
100
AcDbLine
 10
361.841582008844
 20
326.72296127659
 30
0.0
 11
193.841582008844
 21
326.72296127659
 31
0.0
  0
LINE
  5
4C05
330
1A
100
AcDbEntity
  8
外形線
 48
10.0
100
AcDbLine
 10
178.841582008844
 20
325.72296127659
 30
0.0
 11
377.841582008844
 21
325.72296127659
 31
0.0
  0
LINE
  5
4C06
330
1A
100
AcDbEntity
  8
外形線
 48
10.0
100
AcDbLine
 10
179.44533915559
 20
326.72296127659
 30
0.0
 11
362.602146494408
 21
326.72296127659
 31
0.0
  0
LINE
  5
4C07
330
1A
100
AcDbEntity
  8
外形線
 48
10.0
100
AcDbLine
 10
179.44533915559
 20
326.72296127659
 30
0.0
 11
362.602146494408
 21
326.72296127659
 31
0.0
  0
DIMENSION
  5
4C08
330
1A
100
AcDbEntity
  8
寸法線
 48
10.0
100
AcDbDimension
  2
*D39
 10
399.724318978583
 20
385.72296127659
 30
0.0
 11
395.099318978583
 21
355.72296127659
 31
0.0
 70
    32
  3
ISO-25
100
AcDbAlignedDimension
 13
377.841582008844
 23
325.72296127659
 33
0.0
 14
362.341582008844
 24
385.72296127659
 34
0.0
 50
-90.0
100
AcDbRotatedDimension
1001
ACAD
1000
DSTYLE
1002
{
1070
     5
1000
OPEN30
1070
    41
1040
6.0
1070
   271
1070
     1
1070
   341
1005
2AF4
1070
   272
1070
     1
1070
    73
1070
     0
1070
    48
1040
0.1
1070
    47
1040
0.1
1070
   140
1040
8.0
1002
}
  0
LINE
  5
4C09
330
1A
100
AcDbEntity
  8
外形線
 48
10.0
100
AcDbLine
 10
52.258000773584
 20
381.72296127659
 30
0.0
 11
52.258000773584
 21
325.72296127659
 31
0.0
  0
LINE
  5
4C0A
330
1A
100
AcDbEntity
  8
外形線
 48
10.0
100
AcDbLine
 10
145.258000773584
 20
381.72296127659
 30
0.0
 11
145.258000773584
 21
325.72296127659
 31
0.0
  0
LINE
  5
4C0B
330
1A
100
AcDbEntity
  8
外形線
 48
10.0
100
AcDbLine
 10
52.258000773584
 20
325.72296127659
 30
0.0
 11
145.258000773584
 21
325.72296127659
 31
0.0
  0
LINE
  5
4C0C
330
1A
100
AcDbEntity
  8
外形線
 48
10.0
100
AcDbLine
 10
52.258000773584
 20
326.72296127659
 30
0.0
 11
145.258000773584
 21
326.72296127659
 31
0.0
  0
LINE
  5
4C0D
330
1A
100
AcDbEntity
  8
外形線
 48
10.0
100
AcDbLine
 10
53.258000773584
 20
384.72296127659
 30
0.0
 11
144.258000773584
 21
384.72296127659
 31
0.0
  0
CIRCLE
  5
4C0E
330
1A
100
AcDbEntity
  8
外形線
 48
10.0
100
AcDbCircle
 10
78.758000773584
 20
372.72296127659
 30
0.0
 40
7.0
  0
LINE
  5
4C0F
330
1A
100
AcDbEntity
  8
中心線
 48
10.0
100
AcDbLine
 10
68.742737242227
 20
372.72296127659
 30
0.0
 11
88.863550267388
 21
372.72296127659
 31
0.0
  0
LINE
  5
4C10
330
1A
100
AcDbEntity
  8
中心線
 48
10.0
100
AcDbLine
 10
78.758000773584
 20
381.342299433478
 30
0.0
 11
78.758000773584
 21
362.231132939278
 31
0.0
  0
LINE
  5
4C11
330
1A
100
AcDbEntity
  8
外形線
 48
10.0
100
AcDbLine
 10
432.157057372128
 20
381.72296127659
 30
0.0
 11
432.157057372128
 21
325.72296127659
 31
0.0
  0
LINE
  5
4C12
330
1A
100
AcDbEntity
  8
外形線
 48
10.0
100
AcDbLine
 10
525.157057372128
 20
381.72296127659
 30
0.0
 11
525.157057372128
 21
325.72296127659
 31
0.0
  0
LINE
  5
4C13
330
1A
100
AcDbEntity
  8
外形線
 48
10.0
100
AcDbLine
 10
432.157057372128
 20
325.72296127659
 30
0.0
 11
525.157057372128
 21
325.72296127659
 31
0.0
  0
LINE
  5
4C14
330
1A
100
AcDbEntity
  8
外形線
 48
10.0
100
AcDbLine
 10
432.157057372128
 20
326.72296127659
 30
0.0
 11
525.157057372128
 21
326.72296127659
 31
0.0
  0
LINE
  5
4C15
330
1A
100
AcDbEntity
  8
外形線
 48
10.0
100
AcDbLine
 10
433.157057372128
 20
384.72296127659
 30
0.0
 11
524.157057372128
 21
384.72296127659
 31
0.0
  0
CIRCLE
  5
4C16
330
1A
100
AcDbEntity
  8
外形線
 48
10.0
100
AcDbCircle
 10
478.690316974392
 20
372.722899820708
 30
0.0
 40
7.0
  0
DIMENSION
  5
4C17
330
1A
100
AcDbEntity
  8
寸法線
 48
10.0
100
AcDbDimension
  2
*D40
 10
473.023117044215
 20
376.83177374914
 30
0.0
 11
500.724930034852
 21
356.747206666649
 31
0.0
 70
   163
  3
ISO-25
100
AcDbDiametricDimension
 15
484.357516904568
 25
368.614025892277
 35
0.0
 40
0.0
1001
ACAD
1000
DSTYLE
1002
{
1070
     5
1000
OPEN30
1070
    41
1040
6.0
1070
   271
1070
     1
1070
   341
1005
2AF4
1070
   272
1070
     1
1070
    73
1070
     0
1070
    48
1040
0.1
1070
    47
1040
0.1
1070
   140
1040
8.0
1002
}
  0
CIRCLE
  5
4C18
330
1A
100
AcDbEntity
  8
外形線
 48
10.0
100
AcDbCircle
 10
118.758000773584
 20
372.72296127659
 30
0.0
 40
7.0
  0
LINE
  5
4C19
330
1A
100
AcDbEntity
  8
中心線
 48
10.0
100
AcDbLine
 10
108.742737242227
 20
372.72296127659
 30
0.0
 11
128.863550267388
 21
372.72296127659
 31
0.0
  0
LINE
  5
4C1A
330
1A
100
AcDbEntity
  8
中心線
 48
10.0
100
AcDbLine
 10
118.758000773584
 20
381.342299433478
 30
0.0
 11
118.758000773584
 21
362.231132939278
 31
0.0
  0
DIMENSION
  5
4C1B
330
1A
100
AcDbEntity
  8
寸法線
 48
10.0
100
AcDbDimension
  2
*D41
 10
118.758000773584
 20
345.657191127126
 30
0.0
 11
98.758000773584
 21
350.282191127126
 31
0.0
 70
    32
  3
ISO-25
100
AcDbAlignedDimension
 13
78.758000773584
 23
362.562245280302
 33
0.0
 14
118.758000773584
 24
362.562245280302
 34
0.0
 50
0.0
100
AcDbRotatedDimension
1001
ACAD
1000
DSTYLE
1002
{
1070
     5
1000
OPEN30
1070
    41
1040
6.0
1070
   271
1070
     1
1070
   341
1005
2AF4
1070
   272
1070
     1
1070
    73
1070
     0
1070
    48
1040
0.1
1070
    47
1040
0.1
1070
   140
1040
8.0
1002
}
  0
LINE
  5
4C1C
330
1A
100
AcDbEntity
  8
外形線
 48
10.0
100
AcDbLine
 10
195.341582008844
 20
381.72296127659
 30
0.0
 11
361.341582008844
 21
381.72296127659
 31
0.0
  0
LINE
  5
4C1D
330
1A
100
AcDbEntity
  8
外形線
 48
10.0
100
AcDbLine
 10
432.157057372128
 20
381.72296127659
 30
0.0
 11
433.157057372128
 21
381.72296127659
 31
0.0
  0
LINE
  5
4C1E
330
1A
100
AcDbEntity
  8
外形線
 48
10.0
100
AcDbLine
 10
524.157057372128
 20
381.72296127659
 30
0.0
 11
524.157057372128
 21
384.72296127659
 31
0.0
  0
LINE
  5
4C1F
330
1A
100
AcDbEntity
  8
外形線
 48
10.0
100
AcDbLine
 10
525.157057372128
 20
381.72296127659
 30
0.0
 11
524.157057372128
 21
381.72296127659
 31
0.0
  0
LINE
  5
4C20
330
1A
100
AcDbEntity
  8
外形線
 48
10.0
100
AcDbLine
 10
52.258000773584
 20
381.72296127659
 30
0.0
 11
53.258000773584
 21
381.72296127659
 31
0.0
  0
LINE
  5
4C21
330
1A
100
AcDbEntity
  8
外形線
 48
10.0
100
AcDbLine
 10
144.258000773584
 20
381.72296127659
 30
0.0
 11
144.258000773584
 21
384.72296127659
 31
0.0
  0
LINE
  5
4C22
330
1A
100
AcDbEntity
  8
外形線
 48
10.0
100
AcDbLine
 10
53.258000773584
 20
381.72296127659
 30
0.0
 11
53.258000773584
 21
384.72296127659
 31
0.0
  0
LINE
  5
4C23
330
1A
100
AcDbEntity
  8
外形線
 48
10.0
100
AcDbLine
 10
144.258000773584
 20
381.72296127659
 30
0.0
 11
145.258000773584
 21
381.72296127659
 31
0.0
  0
LINE
  5
4C24
330
1A
100
AcDbEntity
  8
外形線
 48
10.0
100
AcDbLine
 10
362.341582008844
 20
527.007069080888
 30
0.0
 11
362.341582008844
 21
434.007069080888
 31
0.0
  0
LINE
  5
4C25
330
1A
100
AcDbEntity
  8
下書線
 48
10.0
100
AcDbLine
 10
362.341582008844
 20
434.007069080888
 30
0.0
 11
362.341582008844
 21
384.72296127659
 31
0.0
  0
LINE
  5
4C26
330
1A
100
AcDbEntity
  8
中心線
 48
10.0
100
AcDbLine
 10
370.341582008844
 20
484.491851064197
 30
0.0
 11
370.341582008844
 21
476.52228709758
 31
0.0
  0
LINE
  5
4C27
330
1A
100
AcDbEntity
  8
中心線
 48
10.0
100
AcDbLine
 10
186.341580507552
 20
484.384422561439
 30
0.0
 11
186.341580507552
 21
476.618752211851
 31
0.0
  0
LINE
  5
4C28
330
1A
100
AcDbEntity
  8
外形線
 48
10.0
100
AcDbLine
 10
433.157057372128
 20
381.72296127659
 30
0.0
 11
433.157057372128
 21
384.72296127659
 31
0.0
  0
LINE
  5
4C29
330
1A
100
AcDbEntity
  8
下書線
 48
10.0
100
AcDbLine
 10
194.341582008844
 20
434.007069080888
 30
0.0
 11
194.341582008844
 21
385.72296127659
 31
0.0
  0
DIMENSION
  5
4C2A
330
1A
100
AcDbEntity
  8
寸法線
 48
10.0
100
AcDbDimension
  2
*D42
 10
377.841582008844
 20
302.69292283436
 30
0.0
 11
278.341582008844
 21
307.31792283436
 31
0.0
 70
    32
  3
ISO-25
100
AcDbAlignedDimension
 13
178.841582008844
 23
325.72296127659
 33
0.0
 14
377.841582008844
 24
325.72296127659
 34
0.0
100
AcDbRotatedDimension
1001
ACAD
1000
DSTYLE
1002
{
1070
     5
1000
OPEN30
1070
    41
1040
6.0
1070
   271
1070
     1
1070
   341
1005
2AF4
1070
   272
1070
     1
1070
    73
1070
     0
1070
    48
1040
0.1
1070
    47
1040
0.1
1070
   140
1040
8.0
1002
}
  0
LINE
  5
4C2B
330
1A
100
AcDbEntity
  8
下書線
 48
10.0
100
AcDbLine
 10
377.841582008844
 20
325.72296127659
 30
0.0
 11
432.157057372128
 21
325.72296127659
 31
0.0
  0
LINE
  5
4C2C
330
1A
100
AcDbEntity
  8
下書線
 48
10.0
100
AcDbLine
 10
178.819361034056
 20
325.72296127659
 30
0.0
 11
145.258000773584
 21
325.72296127659
 31
0.0
  0
DIMENSION
  5
4C2D
330
1A
100
AcDbEntity
  8
寸法線
 48
10.0
100
AcDbDimension
  2
*D43
 10
82.440717388549
 20
378.675909985193
 30
0.0
 11
64.439247838967
 21
349.577329748887
 31
0.0
 70
   163
  3
ISO-25
100
AcDbDiametricDimension
 15
75.075284158619
 25
366.770012567986
 35
0.0
 40
0.0
1001
ACAD
1000
DSTYLE
1002
{
1070
     5
1000
OPEN30
1070
    41
1040
6.0
1070
   271
1070
     1
1070
   341
1005
2AF4
1070
   272
1070
     1
1070
    73
1070
     0
1070
    48
1040
0.1
1070
    47
1040
0.1
1070
   140
1040
8.0
1002
}
  0
DIMENSION
  5
4C2E
330
1A
100
AcDbEntity
  8
寸法線
 48
10.0
100
AcDbDimension
  2
*D44
 10
370.341582008844
 20
413.684455409699
 30
0.0
 11
278.341581258198
 21
418.317788743032
 31
0.0
 70
    32
  3
ISO-25
100
AcDbAlignedDimension
 13
186.341580507552
 23
476.618752211851
 33
0.0
 14
370.341582008844
 24
476.52228709758
 34
0.0
100
AcDbRotatedDimension
1001
ACAD
1000
DSTYLE
1002
{
1070
     5
1000
OPEN30
1070
    41
1040
6.0
1070
   271
1070
     1
1070
   341
1005
2AF4
1070
   272
1070
     1
1070
    73
1070
     0
1070
    48
1040
0.1
1070
    47
1040
0.1
1070
   140
1040
8.0
1002
}
  0
DIMENSION
  5
4C2F
330
1A
100
AcDbEntity
  8
寸法線
 48
10.0
100
AcDbDimension
  2
*D45
 10
168.89684673885
 20
478.001587386529
 30
0.0
 11
164.27184673885
 21
480.501587386529
 31
0.0
 70
    32
  3
ISO-25
100
AcDbAlignedDimension
 13
178.841582008844
 23
483.001587386529
 33
0.0
 14
178.841582008844
 24
478.001587386529
 34
0.0
 50
90.0
100
AcDbRotatedDimension
1001
ACAD
1000
DSTYLE
1002
{
1070
     5
1000
OPEN30
1070
    41
1040
6.0
1070
   271
1070
     1
1070
   341
1005
2AF4
1070
   272
1070
     1
1070
    73
1070
     0
1070
    48
1040
0.1
1070
    47
1040
0.1
1070
   140
1040
8.0
1002
}
  0
DIMENSION
  5
4C30
330
1A
100
AcDbEntity
  8
寸法線
 48
10.0
100
AcDbDimension
  2
*D46
 10
368.065175430124
 20
479.473641247076
 30
0.0
 11
388.841179472767
 21
488.905392610727
 31
0.0
 70
   163
  3
ISO-25
100
AcDbDiametricDimension
 15
372.617988587563
 25
481.5404969147
 35
0.0
 40
0.0
1001
ACAD
1000
DSTYLE
1002
{
1070
     5
1000
OPEN30
1070
    41
1040
6.0
1070
   271
1070
     1
1070
   341
1005
2AF4
1070
   272
1070
     1
1070
    73
1070
     0
1070
    48
1040
0.1
1070
    47
1040
0.1
1070
   140
1040
8.0
1002
}
  0
INSERT
  5
4C49
330
1A
100
AcDbEntity
  8
寸法線
 48
10.0
100
AcDbBlockReference
  2
4840138
 10
197.341582008844
 20
517.007069080888
 30
0.0
  0
INSERT
  5
4C4A
330
1A
100
AcDbEntity
  8
寸法線
 48
10.0
100
AcDbBlockReference
  2
4840138
 10
307.341582008844
 20
437.007069080888
 30
0.0
  0
INSERT
  5
4C4B
330
1A
100
AcDbEntity
  8
寸法線
 48
10.0
100
AcDbBlockReference
  2
4840138
 10
319.34816734234
 20
517.007069080888
 30
0.0
  0
INSERT
  5
4C4C
330
1A
100
AcDbEntity
  8
寸法線
 48
10.0
100
AcDbBlockReference
  2
4840138
 10
352.341582008844
 20
437.007069080888
 30
0.0
  0
INSERT
  5
4C4D
330
1A
100
AcDbEntity
  8
寸法線
 48
10.0
100
AcDbBlockReference
  2
2420094
 10
197.341582008844
 20
385.72296127659
 30
0.0
  0
INSERT
  5
4C4E
330
1A
100
AcDbEntity
  8
寸法線
 48
10.0
100
AcDbBlockReference
  2
2420094
 10
55.258000773584
 20
385.72296127659
 30
0.0
  0
INSERT
  5
4C4F
330
1A
100
AcDbEntity
  8
寸法線
 48
10.0
100
AcDbBlockReference
  2
2420094
 10
135.258000773584
 20
385.72296127659
 30
0.0
  0
INSERT
  5
4C50
330
1A
100
AcDbEntity
  8
寸法線
 48
10.0
100
AcDbBlockReference
  2
2420094
 10
307.341582008844
 20
385.72296127659
 30
0.0
  0
INSERT
  5
4C51
330
1A
100
AcDbEntity
  8
寸法線
 48
10.0
100
AcDbBlockReference
  2
2420094
 10
319.341582008844
 20
385.72296127659
 30
0.0
  0
INSERT
  5
4C52
330
1A
100
AcDbEntity
  8
寸法線
 48
10.0
100
AcDbBlockReference
  2
2420094
 10
352.341582008844
 20
385.72296127659
 30
0.0
  0
INSERT
  5
4C53
330
1A
100
AcDbEntity
  8
寸法線
 48
10.0
100
AcDbBlockReference
  2
2420094
 10
435.157057372128
 20
385.72296127659
 30
0.0
  0
INSERT
  5
4C54
330
1A
100
AcDbEntity
  8
寸法線
 48
10.0
100
AcDbBlockReference
  2
2420094
 10
515.157057372128
 20
385.72296127659
 30
0.0
  0
LINE
  5
4C55
330
1A
100
AcDbEntity
  8
外形線
 48
10.0
100
AcDbLine
 10
96.258000773584
 20
325.72296127659
 30
0.0
 11
96.258000773584
 21
326.72296127659
 31
0.0
  0
LINE
  5
4C56
330
1A
100
AcDbEntity
  8
外形線
 48
10.0
100
AcDbLine
 10
101.258000773584
 20
325.72296127659
 30
0.0
 11
101.258000773584
 21
326.72296127659
 31
0.0
  0
LINE
  5
4CAD
330
1A
100
AcDbEntity
  8
中心線
 48
10.0
100
AcDbLine
 10
467.449569353109
 20
372.722899820708
 30
0.0
 11
489.931064595675
 21
372.722899820708
 31
0.0
  0
LINE
  5
4CAE
330
1A
100
AcDbEntity
  8
中心線
 48
10.0
100
AcDbLine
 10
478.690316974392
 20
383.963647442224
 30
0.0
 11
478.690316974392
 21
361.482152199193
 31
0.0
  0
DIMENSION
  5
4D09
330
1A
100
AcDbEntity
  8
寸法線
 48
10.0
100
AcDbDimension
  2
*D47
 10
145.258000773584
 20
302.660762273526
 30
0.0
 11
98.758000773584
 21
307.289928940193
 31
0.0
 70
    32
  3
ISO-25
100
AcDbAlignedDimension
 13
52.258000773584
 23
325.72296127659
 33
0.0
 14
145.258000773584
 24
325.72296127659
 34
0.0
100
AcDbRotatedDimension
1001
ACAD
1000
DSTYLE
1002
{
1070
     5
1000
OPEN30
1070
    41
1040
6.0
1070
   271
1070
     1
1070
   341
1005
2AF4
1070
   272
1070
     1
1070
    73
1070
     0
1070
    48
1040
0.1
1070
    47
1040
0.1
1070
   140
1040
8.0
1002
}
  0
DIMENSION
  5
4D12
330
1A
100
AcDbEntity
  8
寸法線
 48
10.0
100
AcDbDimension
  2
*D48
 10
362.341582008844
 20
401.556655728544
 30
0.0
 11
278.341582008844
 21
406.18582239521
 31
0.0
 70
    32
  3
ISO-25
100
AcDbAlignedDimension
 13
194.341582008844
 23
385.72296127659
 33
0.0
 14
362.341582008844
 24
385.72296127659
 34
0.0
100
AcDbRotatedDimension
1001
ACAD
1000
DSTYLE
1002
{
1070
     5
1000
OPEN30
1070
    41
1040
6.0
1070
   271
1070
     1
1070
   341
1005
2AF4
1070
   272
1070
     1
1070
    73
1070
     0
1070
    48
1040
0.1
1070
    47
1040
0.1
1070
   140
1040
8.0
1002
}
  0
CIRCLE
  5
4DF7
330
1A
100
AcDbEntity
  8
寸法線
 48
10.0
100
AcDbCircle
 10
59.481924511261
 20
189.004124574653
 30
0.0
 40
2.5
  0
CIRCLE
  5
4DF8
330
1A
100
AcDbEntity
  8
寸法線
 48
10.0
100
AcDbCircle
 10
59.481924511261
 20
189.004124574653
 30
0.0
 40
1.25
  0
CIRCLE
  5
4DF9
330
1A
100
AcDbEntity
  8
寸法線
 48
10.0
100
AcDbCircle
 10
59.481924511261
 20
167.437485470494
 30
0.0
 40
2.5
  0
CIRCLE
  5
4DFA
330
1A
100
AcDbEntity
  8
寸法線
 48
10.0
100
AcDbCircle
 10
59.481924511261
 20
167.437485470494
 30
0.0
 40
1.25
  0
CIRCLE
  5
4DFB
330
1A
100
AcDbEntity
  8
寸法線
 48
10.0
100
AcDbCircle
 10
59.481924511261
 20
145.870846366101
 30
0.0
 40
2.5
  0
CIRCLE
  5
4DFC
330
1A
100
AcDbEntity
  8
寸法線
 48
10.0
100
AcDbCircle
 10
59.481924511261
 20
145.870846366101
 30
0.0
 40
1.25
  0
CIRCLE
  5
4DFD
330
1A
100
AcDbEntity
  8
寸法線
 48
10.0
100
AcDbCircle
 10
-35.936656557255
 20
192.515819438557
 30
0.0
 40
2.5
  0
CIRCLE
  5
4DFE
330
1A
100
AcDbEntity
  8
寸法線
 48
10.0
100
AcDbCircle
 10
-35.936656557255
 20
192.515819438557
 30
0.0
 40
1.25
  0
CIRCLE
  5
4DFF
330
1A
100
AcDbEntity
  8
寸法線
 48
10.0
100
AcDbCircle
 10
-35.936656557255
 20
172.515819438557
 30
0.0
 40
2.5
  0
CIRCLE
  5
4E00
330
1A
100
AcDbEntity
  8
寸法線
 48
10.0
100
AcDbCircle
 10
-35.936656557255
 20
172.515819438557
 30
0.0
 40
1.25
  0
CIRCLE
  5
4E01
330
1A
100
AcDbEntity
  8
寸法線
 48
10.0
100
AcDbCircle
 10
-35.936656557255
 20
152.306528903834
 30
0.0
 40
2.5
  0
CIRCLE
  5
4E02
330
1A
100
AcDbEntity
  8
寸法線
 48
10.0
100
AcDbCircle
 10
-35.936656557255
 20
152.306528903834
 30
0.0
 40
1.25
  0
CIRCLE
  5
4E03
330
1A
100
AcDbEntity
  8
寸法線
 48
10.0
100
AcDbCircle
 10
59.481924511261
 20
132.22819493577
 30
0.0
 40
2.5
  0
CIRCLE
  5
4E04
330
1A
100
AcDbEntity
  8
寸法線
 48
10.0
100
AcDbCircle
 10
59.481924511261
 20
132.22819493577
 30
0.0
 40
1.25
  0
CIRCLE
  5
4E05
330
1A
100
AcDbEntity
  8
寸法線
 48
10.0
100
AcDbCircle
 10
-18.436656557255
 20
230.146776005217
 30
0.0
 40
2.5
  0
CIRCLE
  5
4E06
330
1A
100
AcDbEntity
  8
寸法線
 48
10.0
100
AcDbCircle
 10
-18.436656557255
 20
230.146776005217
 30
0.0
 40
1.25
  0
CIRCLE
  5
4E07
330
1A
100
AcDbEntity
  8
寸法線
 48
10.0
100
AcDbCircle
 10
1.563343442745
 20
230.146776005217
 30
0.0
 40
2.5
  0
CIRCLE
  5
4E08
330
1A
100
AcDbEntity
  8
寸法線
 48
10.0
100
AcDbCircle
 10
1.563343442745
 20
230.146776005217
 30
0.0
 40
1.25
  0
CIRCLE
  5
4E09
330
1A
100
AcDbEntity
  8
寸法線
 48
10.0
100
AcDbCircle
 10
21.772633977003
 20
230.146776005217
 30
0.0
 40
2.5
  0
CIRCLE
  5
4E0A
330
1A
100
AcDbEntity
  8
寸法線
 48
10.0
100
AcDbCircle
 10
21.772633977003
 20
230.146776005217
 30
0.0
 40
1.25
  0
CIRCLE
  5
4E0B
330
1A
100
AcDbEntity
  8
寸法線
 48
10.0
100
AcDbCircle
 10
41.981924511261
 20
230.146776005217
 30
0.0
 40
2.5
  0
CIRCLE
  5
4E0C
330
1A
100
AcDbEntity
  8
寸法線
 48
10.0
100
AcDbCircle
 10
41.981924511261
 20
230.146776005217
 30
0.0
 40
1.25
  0
LINE
  5
4E0D
330
1A
100
AcDbEntity
  8
寸法線
 48
10.0
100
AcDbLine
 10
-25.936656557255
 20
230.146776005217
 30
0.0
 11
-35.936656557255
 21
230.146776005217
 31
0.0
  0
LINE
  5
4E0E
330
1A
100
AcDbEntity
  8
寸法線
 48
10.0
100
AcDbLine
 10
49.481924511261
 20
230.146776005217
 30
0.0
 11
59.481924511261
 21
230.146776005217
 31
0.0
  0
LINE
  5
4E0F
330
1A
100
AcDbEntity
  8
寸法線
 48
10.0
100
AcDbLine
 10
-35.936656557255
 20
230.146776005217
 30
0.0
 11
-35.936656557255
 21
200.146776005217
 31
0.0
  0
LINE
  5
4E10
330
1A
100
AcDbEntity
  8
寸法線
 48
10.0
100
AcDbLine
 10
59.481924511261
 20
230.146776005217
 30
0.0
 11
59.481924511261
 21
200.146776005217
 31
0.0
  0
LINE
  5
4E11
330
1A
100
AcDbEntity
  8
寸法線
 48
10.0
100
AcDbLine
 10
59.481924511261
 20
124.683219547673
 30
0.0
 11
59.481924511261
 21
114.997030286641
 31
0.0
  0
LINE
  5
4E12
330
1A
100
AcDbEntity
  8
寸法線
 48
10.0
100
AcDbLine
 10
59.481924511261
 20
114.997030286641
 30
0.0
 11
-35.936656557255
 21
114.997030286641
 31
0.0
  0
LINE
  5
4E13
330
1A
100
AcDbEntity
  8
寸法線
 48
10.0
100
AcDbLine
 10
-35.936656557255
 20
144.892510082397
 30
0.0
 11
-35.936656557255
 21
114.997030286641
 31
0.0
  0
LINE
  5
4E1C
330
1A
100
AcDbEntity
  8
寸法線
 48
10.0
100
AcDbLine
 10
-18.436656557255
 20
227.646776005217
 30
0.0
 11
-18.436656557255
 21
217.647129769727
 31
0.0
  0
LINE
  5
4E1D
330
1A
100
AcDbEntity
  8
寸法線
 48
10.0
100
AcDbLine
 10
-23.700776502722
 20
217.647129769727
 30
0.0
 11
26.827463390074
 21
217.647129769727
 31
0.0
  0
LINE
  5
4E1E
330
1A
100
AcDbEntity
  8
寸法線
 48
10.0
100
AcDbLine
 10
1.563343442745
 20
227.646776005217
 30
0.0
 11
1.563343442745
 21
217.647129769727
 31
0.0
  0
LINE
  5
4E1F
330
1A
100
AcDbEntity
  8
寸法線
 48
10.0
100
AcDbLine
 10
21.772633977003
 20
227.646776005217
 30
0.0
 11
21.772633977003
 21
217.647129769727
 31
0.0
  0
LINE
  5
4E20
330
1A
100
AcDbEntity
  8
寸法線
 48
10.0
100
AcDbLine
 10
41.981924511261
 20
227.646776005217
 30
0.0
 11
41.981924511261
 21
223.519818965868
 31
0.0
  0
LINE
  5
4E21
330
1A
100
AcDbEntity
  8
寸法線
 48
10.0
100
AcDbLine
 10
41.981924511261
 20
223.519818965868
 30
0.0
 11
21.772633977003
 21
223.519818965868
 31
0.0
  0
LINE
  5
4E22
330
1A
100
AcDbEntity
  8
寸法線
 48
10.0
100
AcDbLine
 10
-23.700776502722
 20
217.647129769727
 30
0.0
 11
-23.700776502722
 21
207.41730134288
 31
0.0
  0
LINE
  5
4E23
330
1A
100
AcDbEntity
  8
寸法線
 48
10.0
100
AcDbLine
 10
26.827463390074
 20
217.647129769727
 30
0.0
 11
26.827463390074
 21
207.41730134288
 31
0.0
  0
LINE
  5
4E24
330
1A
100
AcDbEntity
  8
寸法線
 48
10.0
100
AcDbLine
 10
56.981924511261
 20
132.22819493577
 30
0.0
 11
37.044286113001
 21
132.22819493577
 31
0.0
  0
LINE
  5
4E25
330
1A
100
AcDbEntity
  8
寸法線
 48
10.0
100
AcDbLine
 10
37.044286113001
 20
139.210208232339
 30
0.0
 11
37.044286113001
 21
125.246181639201
 31
0.0
  0
LINE
  5
4E26
330
1A
100
AcDbEntity
  8
寸法線
 48
10.0
100
AcDbLine
 10
37.044286113001
 20
139.210208232339
 30
0.0
 11
27.836523160107
 21
139.210208232339
 31
0.0
  0
LINE
  5
4E27
330
1A
100
AcDbEntity
  8
寸法線
 48
10.0
100
AcDbLine
 10
37.044286113001
 20
125.246181639201
 30
0.0
 11
27.558110883228
 21
125.246181639201
 31
0.0
  0
LINE
  5
4E28
330
1A
100
AcDbEntity
  8
寸法線
 48
10.0
100
AcDbLine
 10
-33.445432465755
 20
192.725109973281
 30
0.0
 11
2.576699137456
 21
192.725109973281
 31
0.0
  0
LINE
  5
4E29
330
1A
100
AcDbEntity
  8
寸法線
 48
10.0
100
AcDbLine
 10
-33.436656557255
 20
172.515819438557
 30
0.0
 11
-21.255501581588
 21
172.515819438557
 31
0.0
  0
LINE
  5
4E2A
330
1A
100
AcDbEntity
  8
寸法線
 48
10.0
100
AcDbLine
 10
-33.436656557255
 20
152.306528903834
 30
0.0
 11
2.576699137456
 21
152.306528903834
 31
0.0
  0
LINE
  5
4E2B
330
1A
100
AcDbEntity
  8
寸法線
 48
10.0
100
AcDbLine
 10
2.576699137456
 20
192.725109973281
 30
0.0
 11
2.576699137456
 21
183.14861220779
 31
0.0
  0
LINE
  5
4E2C
330
1A
100
AcDbEntity
  8
寸法線
 48
10.0
100
AcDbLine
 10
2.576699137456
 20
161.883026669325
 30
0.0
 11
2.576699137456
 21
152.306528903834
 31
0.0
  0
LINE
  5
4E2D
330
1A
100
AcDbEntity
  8
寸法線
 48
10.0
100
AcDbLine
 10
-21.255501581588
 20
172.515819438557
 30
0.0
 11
5.944295825205
 21
160.380565434984
 31
0.0
  0
LINE
  5
4E2E
330
1A
100
AcDbEntity
  8
寸法線
 48
10.0
100
AcDbLine
 10
56.981924511261
 20
189.004124574653
 30
0.0
 11
34.808351929999
 21
189.004124574653
 31
0.0
  0
LINE
  5
4E2F
330
1A
100
AcDbEntity
  8
寸法線
 48
10.0
100
AcDbLine
 10
56.981924511261
 20
167.437485470494
 30
0.0
 11
38.215450612596
 21
167.437485470494
 31
0.0
  0
LINE
  5
4E30
330
1A
100
AcDbEntity
  8
寸法線
 48
10.0
100
AcDbLine
 10
56.981924511261
 20
145.870846366101
 30
0.0
 11
34.808351929999
 21
145.870846366101
 31
0.0
  0
ELLIPSE
  5
4E31
330
1A
100
AcDbEntity
  8
寸法線
 48
10.0
100
AcDbEllipse
 10
34.808351929999
 20
186.676711372157
 30
0.0
 11
-4.414522407576442
 21
0.0
 31
0.0
210
0.0
220
0.0
230
-1.0
 40
0.527217439989
 41
3.830732468089261
 42
7.853981633974483
  0
ELLIPSE
  5
4E32
330
1A
100
AcDbEntity
  8
寸法線
 48
10.0
100
AcDbEllipse
 10
34.808351929999
 20
183.71683046437
 30
0.0
 11
-4.414522407576442
 21
0.0
 31
0.0
210
0.0
220
0.0
230
-1.0
 40
0.527217439989
 41
3.83073246815407
 42
8.735638146269912
  0
ELLIPSE
  5
4E33
330
1A
100
AcDbEntity
  8
寸法線
 48
10.0
100
AcDbEllipse
 10
34.808351929999
 20
180.75694955635
 30
0.0
 11
-4.414522407576442
 21
0.0
 31
0.0
210
0.0
220
0.0
230
-1.0
 40
0.527217439989
 41
3.83073246815407
 42
8.735638146205103
  0
ELLIPSE
  5
4E34
330
1A
100
AcDbEntity
  8
寸法線
 48
10.0
100
AcDbEllipse
 10
34.808351929999
 20
177.79706864833
 30
0.0
 11
-4.414522407576442
 21
0.0
 31
0.0
210
0.0
220
0.0
230
-1.0
 40
0.527217439989
 41
3.83073246815407
 42
8.735638146205103
  0
ELLIPSE
  5
4E35
330
1A
100
AcDbEntity
  8
寸法線
 48
10.0
100
AcDbEllipse
 10
34.808351929999
 20
174.83718774031
 30
0.0
 11
-4.414522407576442
 21
0.0
 31
0.0
210
0.0
220
0.0
230
-1.0
 40
0.527217439989
 41
3.830732468089261
 42
8.735638146205103
  0
ELLIPSE
  5
4E36
330
1A
100
AcDbEntity
  8
寸法線
 48
10.0
100
AcDbEllipse
 10
34.808351929999
 20
171.877306832523
 30
0.0
 11
-4.414522407576442
 21
0.0
 31
0.0
210
0.0
220
0.0
230
-1.0
 40
0.527217439989
 41
3.83073246815407
 42
8.735638146269912
  0
ELLIPSE
  5
4E37
330
1A
100
AcDbEntity
  8
寸法線
 48
10.0
100
AcDbEllipse
 10
34.808351929999
 20
165.957545016484
 30
0.0
 11
-4.414522407576442
 21
0.0
 31
0.0
210
0.0
220
0.0
230
-1.0
 40
0.527217439989
 41
3.83073246815407
 42
8.735638146205103
  0
ELLIPSE
  5
4E38
330
1A
100
AcDbEntity
  8
寸法線
 48
10.0
100
AcDbEllipse
 10
34.808351929999
 20
162.997664108464
 30
0.0
 11
-4.414522407576442
 21
0.0
 31
0.0
210
0.0
220
0.0
230
-1.0
 40
0.527217439989
 41
3.83073246815407
 42
8.735638146172967
  0
ELLIPSE
  5
4E39
330
1A
100
AcDbEntity
  8
寸法線
 48
10.0
100
AcDbEllipse
 10
34.808351929999
 20
160.037783200444
 30
0.0
 11
-4.414522407576442
 21
0.0
 31
0.0
210
0.0
220
0.0
230
-1.0
 40
0.527217439989
 41
3.83073246815407
 42
8.735638146205103
  0
ELLIPSE
  5
4E3A
330
1A
100
AcDbEntity
  8
寸法線
 48
10.0
100
AcDbEllipse
 10
34.808351929999
 20
157.077902292424
 30
0.0
 11
-4.414522407576442
 21
0.0
 31
0.0
210
0.0
220
0.0
230
-1.0
 40
0.527217439989
 41
3.83073246815407
 42
8.735638146205103
  0
ELLIPSE
  5
4E3B
330
1A
100
AcDbEntity
  8
寸法線
 48
10.0
100
AcDbEllipse
 10
34.808351929999
 20
154.118021384404
 30
0.0
 11
-4.414522407576442
 21
0.0
 31
0.0
210
0.0
220
0.0
230
-1.0
 40
0.527217439989
 41
3.830732468089261
 42
8.735638146205103
  0
ELLIPSE
  5
4E3C
330
1A
100
AcDbEntity
  8
寸法線
 48
10.0
100
AcDbEllipse
 10
34.808351929999
 20
151.158140476617
 30
0.0
 11
-4.414522407576442
 21
0.0
 31
0.0
210
0.0
220
0.0
230
-1.0
 40
0.527217439989
 41
3.83073246815407
 42
8.735638146269912
  0
ELLIPSE
  5
4E3D
330
1A
100
AcDbEntity
  8
寸法線
 48
10.0
100
AcDbEllipse
 10
34.808351929999
 20
148.198259568597
 30
0.0
 11
-4.414522407576442
 21
0.0
 31
0.0
210
0.0
220
0.0
230
-1.0
 40
0.527217439989
 41
4.71238898038469
 42
8.735638146172967
  0
LINE
  5
4E3E
330
1A
100
AcDbEntity
  8
寸法線
 48
10.0
100
AcDbLine
 10
28.941184967525
 20
187.437485470494
 30
0.0
 11
28.941184967525
 21
147.264088169961
 31
0.0
  0
LINE
  5
4E3F
330
1A
100
AcDbEntity
  8
寸法線
 48
10.0
100
AcDbLine
 10
27.020226739115
 20
187.437485470494
 30
0.0
 11
27.020226739115
 21
147.264088169961
 31
0.0
  0
ELLIPSE
  5
4E40
330
1A
100
AcDbEntity
  8
寸法線
 48
10.0
100
AcDbEllipse
 10
34.808351929999
 20
168.917425924504
 30
0.0
 11
-4.414522407576442
 21
0.0
 31
0.0
210
0.0
220
0.0
230
-1.0
 40
0.527217439989
 41
3.83073246815407
 42
8.735638146269912
  0
TEXT
  5
4E65
330
1A
100
AcDbEntity
  8
寸法線
100
AcDbText
 10
-87.702074900846
 20
169.272568315315
 30
0.0
 40
8.0
  1
出力接点
100
AcDbText
  0
TEXT
  5
4E8C
330
1A
100
AcDbEntity
  8
寸法線
100
AcDbText
 10
-46.747013431921
 20
150.020834436652
 30
0.0
 40
8.0
  1
b
100
AcDbText
  0
TEXT
  5
4E8D
330
1A
100
AcDbEntity
  8
寸法線
100
AcDbText
 10
-46.547013431921
 20
170.020834436652
 30
0.0
 40
8.0
  1
c
100
AcDbText
  0
TEXT
  5
4E8E
330
1A
100
AcDbEntity
  8
寸法線
100
AcDbText
 10
-47.147013431921
 20
190.020834436652
 30
0.0
 40
8.0
  1
a
100
AcDbText
  0
TEXT
  5
4EB8
330
1A
100
AcDbEntity
  8
寸法線
100
AcDbText
 10
69.794687585318
 20
143.129366350405
 30
0.0
 40
8.0
  1
0V
100
AcDbText
  0
TEXT
  5
4EB9
330
1A
100
AcDbEntity
  8
寸法線
100
AcDbText
 10
69.194687585318
 20
183.093431227019
 30
0.0
 40
8.0
  1
210V
100
AcDbText
  0
MTEXT
  5
4EBA
330
1A
100
AcDbEntity
  8
寸法線
 48
10.0
100
AcDbMText
 10
104.393456455214
 20
170.342393664812
 30
0.0
 40
8.0
 41
191.2
 71
     1
 72
     5
  1
電源
  0
TEXT
  5
4EBB
330
1A
100
AcDbEntity
  8
寸法線
100
AcDbText
 10
69.635398862016
 20
163.381139801658
 30
0.0
 40
8.0
  1
105V
100
AcDbText
  0
TEXT
  5
4EBC
330
1A
100
AcDbEntity
  8
寸法線
100
AcDbText
 10
71.637132730429
 20
128.138779101311
 30
0.0
 40
8.0
  1
E
100
AcDbText
  0
TEXT
  5
4EBD
330
1A
100
AcDbEntity
  8
寸法線
100
AcDbText
 10
103.202058788394
 20
129.624588427546
 30
0.0
 40
8.0
  1
接地
100
AcDbText
  0
LINE
  5
4EF1
330
1A
100
AcDbEntity
  8
寸法線
100
AcDbLine
 10
20.612167103983
 20
250.232226019331
 30
0.0
 11
20.612167103983
 21
266.232226019331
 31
0.0
  0
ARC
  5
4EF2
330
1A
100
AcDbEntity
  8
寸法線
100
AcDbCircle
 10
24.612167103983
 20
266.232226019331
 30
0.0
 40
4.0
100
AcDbArc
 50
90.0
 51
180.0
  0
LINE
  5
4EF3
330
1A
100
AcDbEntity
  8
寸法線
100
AcDbLine
 10
0.612167103983
 20
250.232226019331
 30
0.0
 11
0.612167103983
 21
266.232226019331
 31
0.0
  0
ARC
  5
4EF4
330
1A
100
AcDbEntity
  8
寸法線
100
AcDbCircle
 10
4.612167103983
 20
266.232226019331
 30
0.0
 40
4.0
100
AcDbArc
 50
90.0
 51
180.0
  0
ARC
  5
4EF5
330
1A
100
AcDbEntity
  8
寸法線
100
AcDbCircle
 10
-15.387832896017
 20
266.232226019331
 30
0.0
 40
4.0
100
AcDbArc
 50
90.0
 51
180.0
  0
LINE
  5
4EF6
330
1A
100
AcDbEntity
  8
寸法線
100
AcDbLine
 10
40.612167103983
 20
263.949838276041
 30
0.0
 11
40.612167103983
 21
250.232226019331
 31
0.0
  0
TEXT
  5
4EF7
330
1A
100
AcDbEntity
  8
寸法線
100
AcDbText
 10
54.795396234235
 20
235.851724915427
 30
0.0
 40
8.0
  1
ケーブルのシールド
100
AcDbText
  0
TEXT
  5
4EF8
330
1A
100
AcDbEntity
  8
寸法線
100
AcDbText
 10
68.712167103983
 20
266.732226019331
 30
0.0
 40
8.0
  1
検出器へ
100
AcDbText
  0
LINE
  5
4EF9
330
1A
100
AcDbEntity
  8
寸法線
100
AcDbLine
 10
-15.387832896017
 20
270.232226019331
 30
0.0
 11
66.612167103983
 21
270.232226019331
 31
0.0
  0
LINE
  5
4EFA
330
1A
100
AcDbEntity
  8
寸法線
100
AcDbLine
 10
-19.387832896017
 20
250.232226019331
 30
0.0
 11
-19.387832896017
 21
266.232226019331
 31
0.0
  0
LINE
  5
4EFB
330
1A
100
AcDbEntity
  8
隠れ線
 48
10.0
100
AcDbLine
 10
36.311714690736
 20
271.508723247421
 30
0.0
 11
36.311714690736
 21
268.01879699945
 31
0.0
  0
LINE
  5
4EFC
330
1A
100
AcDbEntity
  8
隠れ線
 48
10.0
100
AcDbLine
 10
44.462093460989
 20
268.01879699945
 30
0.0
 11
44.462093460989
 21
271.508723247421
 31
0.0
  0
ARC
  5
4EFD
330
1A
100
AcDbEntity
  8
隠れ線
 48
10.0
100
AcDbCircle
 10
40.386904075863
 20
268.01879699945
 30
0.0
 40
4.07518938512618
100
AcDbArc
 50
180.0
 51
0.0
  0
ARC
  5
4EFE
330
1A
100
AcDbEntity
  8
隠れ線
 48
10.0
100
AcDbCircle
 10
40.386904075863
 20
271.508723247421
 30
0.0
 40
4.07518938512618
100
AcDbArc
 50
0.0
 51
180.0
  0
TEXT
  5
4F26
330
1A
100
AcDbEntity
  8
寸法線
100
AcDbText
 10
34.815362641168
 20
235.940982514247
 30
0.0
 40
8.0
  1
SH
100
AcDbText
  0
TEXT
  5
4F27
330
1A
100
AcDbEntity
  8
寸法線
100
AcDbText
 10
15.75443813827
 20
235.940982514247
 30
0.0
 40
8.0
  1
B2
100
AcDbText
  0
TEXT
  5
4F28
330
1A
100
AcDbEntity
  8
寸法線
100
AcDbText
 10
-3.641811904403
 20
235.940982514247
 30
0.0
 40
8.0
  1
NC
100
AcDbText
  0
TEXT
  5
4F29
330
1A
100
AcDbEntity
  8
寸法線
100
AcDbText
 10
-24.066512975498
 20
235.940982514247
 30
0.0
 40
8.0
  1
B1
100
AcDbText
  0
MTEXT
  5
5035
330
1A
100
AcDbEntity
  8
寸法線
 48
10.0
100
AcDbMText
 10
502.809830630832
 20
142.434112807738
 30
0.0
 40
9.0
 41
156.939130434783
 71
     1
 72
     5
  1
材　質：鋼板製\P塗装色：10YR7.5/15
  0
VIEWPORT
  5
2902
330
28FB
100
AcDbEntity
 67
     1
  8
0
 48
10.0
100
AcDbViewport
 10
0.0
 20
0.0
 30
0.0
 40
502.486659064994
 41
285.6
 68
     1
 69
     1
1001
ACAD
1000
MVIEW
1002
{
1070
    16
1010
0.0
1020
0.0
1030
0.0
1010
0.0
1020
0.0
1030
1.0
1040
0.0
1040
285.6
1040
204.746305129083
1040
141.396645458131
1040
50.0
1040
0.0
1040
0.0
1070
    16
1070
   100
1070
     0
1070
     1
1070
     0
1070
     0
1070
     0
1070
     0
1040
0.0
1040
0.0
1040
0.0
1040
10.0
1040
10.0
1040
10.0
1040
10.0
1070
     0
1002
{
1002
}
1002
}
  0
VIEWPORT
  5
2904
330
28FB
100
AcDbEntity
 67
     1
  8
図枠太線
 48
10.0
100
AcDbViewport
 10
204.746305129083
 20
161.396645458131
 30
0.0
 40
400.0
 41
240.0
 68
     2
 69
     2
1001
ACAD
1000
MVIEW
1002
{
1070
    16
1010
0.0
1020
0.0
1030
0.0
1010
0.0
1020
0.0
1030
1.0
1040
0.0
1040
480.0
1040
266.709488555575
1040
325.486083303747
1040
50.0
1040
0.0
1040
0.0
1070
     0
1070
   100
1070
     0
1070
     0
1070
     0
1070
     0
1070
     0
1070
     0
1040
0.0
1040
0.0
1040
0.0
1040
1.0
1040
1.0
1040
0.0
1040
0.0
1070
     0
1002
{
1002
}
1002
}
  0
INSERT
  5
2A59
330
28FB
100
AcDbEntity
 67
     1
  8
図枠太線
100
AcDbBlockReference
  2
A3横用_タイトル
 10
-0.352109406709
 20
-2.129314295396
 30
0.0
  0
MTEXT
  5
2E70
330
28FB
100
AcDbEntity
 67
     1
  8
寸法線
 48
10.0
100
AcDbMText
 10
274.963639815776
 20
50.409704435936
 30
0.0
 40
5.0
 41
59.487124795261
 71
     1
 72
     5
  1
A3縮小図
  0
LINE
  5
2E72
330
28FB
100
AcDbEntity
 67
     1
  8
寸法線
 48
10.0
100
AcDbLine
 10
274.030017864731
 20
44.026105349677
 30
0.0
 11
299.664881474548
 21
44.026105349677
 31
0.0
  0
MTEXT
  5
2E81
330
28FB
100
AcDbEntity
 67
     1
  8
寸法線
 48
10.0
100
AcDbMText
 10
310.135951862603
 20
33.218587456094
 30
0.0
 40
6.0
 41
121.113725490196
 71
     1
 72
     5
  1
TSE-RBE 変換器 外形寸法図
  0
MTEXT
  5
2E82
102
{ACAD_XDICTIONARY
360
4F39
102
}
330
28FB
100
AcDbEntity
 67
     1
  8
寸法線
 48
10.0
100
AcDbMText
 10
340.167509286345
 20
15.49393312214
 30
0.0
 40
8.0
 41
33.206594841881
 71
     1
 72
     5
  1
HE-14013
1001
ACADANNOTATIVE
1000
AnnotativeData
1002
{
1070
     1
1070
     0
1002
}
  0
MTEXT
  5
2E85
330
28FB
100
AcDbEntity
 67
     1
  8
寸法線
 48
10.0
100
AcDbMText
 10
149.12611673873
 20
14.255245025413
 30
0.0
 40
5.0
 41
11.452149180996
 71
     1
 72
     5
  1
{\H1.4x;1:2}
  0
MTEXT
  5
50C8
102
{ACAD_XDICTIONARY
360
50C9
102
}
330
28FB
100
AcDbEntity
 67
     1
  8
寸法線
 48
10.0
100
AcDbMText
 10
175.252680195869
 20
12.244274901526
 30
0.0
 40
4.5
 41
31.372065131184
 71
     1
 72
     5
  1
2016.09.26
1001
ACADANNOTATIVE
1000
AnnotativeData
1002
{
1070
     1
1070
     0
1002
}
  0
MTEXT
  5
50FE
102
{ACAD_XDICTIONARY
360
50FF
102
}
330
28FB
100
AcDbEntity
 67
     1
  8
寸法線
 48
10.0
100
AcDbMText
 10
188.213305129083
 20
32.579338017994
 30
0.0
 40
4.5
 41
33.066
 71
     2
 72
     5
  1
takahashi
1001
ACADANNOTATIVE
1000
AnnotativeData
1002
{
1070
     1
1070
     0
1002
}
  0
ENDSEC
  0
SECTION
  2
OBJECTS
  0
DICTIONARY
  5
C
330
0
100
AcDbDictionary
  3
ACAD_COLOR
350
2948
  3
ACAD_GROUP
350
D
  3
ACAD_LAYOUT
350
2816
  3
ACAD_MATERIAL
350
2947
  3
ACAD_MLEADERSTYLE
350
4803
  3
ACAD_MLINESTYLE
350
E
  3
ACAD_PLOTSETTINGS
350
2817
  3
ACAD_SCALELIST
350
47CA
  3
ACAD_VISUALSTYLE
350
47EF
  3
ACADDIM
350
4312
  3
ACDBHEADERROUNDTRIPXREC
350
5162
  3
ACDBVARIABLEDICTIONARY
350
4800
  3
DWGPROPS
350
5187
  0
DICTIONARY
  5
5188
330
8
100
AcDbDictionary
280
     1
  3
ACAD_XREC_ROUNDTRIP
360
5189
  0
DICTIONARY
  5
29EA
330
2
100
AcDbDictionary
280
     1
  3
ACAD_LAYERFILTERS
360
2B0C
  3
ACAD_LAYERSTATES
360
29EB
  0
DICTIONARY
  5
45A8
330
1A
100
AcDbDictionary
280
     1
  3
ACAD_SORTENTS
360
45A9
  0
DICTIONARY
  5
4772
330
476E
100
AcDbDictionary
280
     1
  3
ACAD_SORTENTS
360
4773
  0
DICTIONARY
  5
4F39
330
2E82
100
AcDbDictionary
280
     1
  3
ACDBCONTEXTDATAMANAGER
360
4F3A
  0
DICTIONARY
  5
50C9
330
50C8
100
AcDbDictionary
280
     1
  3
ACDBCONTEXTDATAMANAGER
360
50CA
  0
DICTIONARY
  5
50FF
330
50FE
100
AcDbDictionary
280
     1
  3
ACDBCONTEXTDATAMANAGER
360
5100
  0
DICTIONARY
  5
2948
102
{ACAD_REACTORS
330
C
102
}
330
C
100
AcDbDictionary
  0
DICTIONARY
  5
D
102
{ACAD_REACTORS
330
C
102
}
330
C
100
AcDbDictionary
  0
DICTIONARY
  5
2816
102
{ACAD_REACTORS
330
C
102
}
330
C
100
AcDbDictionary
  0
DICTIONARY
  5
2947
102
{ACAD_REACTORS
330
C
102
}
330
C
100
AcDbDictionary
  3
BYBLOCK
350
47ED
  3
BYLAYER
350
47EC
  3
GLOBAL
350
47EE
  0
DICTIONARY
  5
4803
102
{ACAD_REACTORS
330
C
102
}
330
C
100
AcDbDictionary
  3
STANDARD
350
4F35
  0
DICTIONARY
  5
E
102
{ACAD_REACTORS
330
C
102
}
330
C
100
AcDbDictionary
  3
STANDARD
350
13
  0
DICTIONARY
  5
2817
102
{ACAD_REACTORS
330
C
102
}
330
C
100
AcDbDictionary
  0
DICTIONARY
  5
47CA
102
{ACAD_REACTORS
330
C
102
}
330
C
100
AcDbDictionary
  3
A0
350
47CB
  3
A1
350
47CC
  3
A2
350
47CD
  3
A3
350
47CE
  3
A4
350
47CF
  3
A5
350
47D0
  3
A6
350
47D1
  3
A7
350
47D2
  3
A8
350
47D3
  3
A9
350
47D4
  3
B0
350
47D5
  3
B1
350
47D6
  3
B2
350
47D7
  3
B3
350
47D8
  3
B4
350
47D9
  3
B5
350
47DA
  3
B6
350
47DB
  3
B7
350
47DC
  3
B8
350
47DD
  3
B9
350
47DE
  3
C0
350
47DF
  3
C1
350
47E0
  3
C2
350
47E1
  3
C3
350
47E2
  3
C4
350
47E3
  3
C5
350
47E4
  3
C6
350
47E5
  3
C7
350
47E6
  3
C8
350
47E7
  3
C9
350
47E8
  3
D0
350
47E9
  3
D1
350
47EA
  3
D2
350
47EB
  0
DICTIONARY
  5
47EF
102
{ACAD_REACTORS
330
C
102
}
330
C
100
AcDbDictionary
  3
2DWIREFRAME
350
47F4
  3
3D_HIDDEN
350
47F6
  3
3DWIREFRAME
350
47F5
  3
BASIC
350
47F7
  3
BRIGHTEN
350
47FB
  3
COLORCHANGE
350
47FF
  3
CONCEPTUAL
350
47F9
  3
DIM
350
47FA
  3
EDGECOLOROFF
350
4F2E
  3
FACEPATTERN
350
47FE
  3
FLAT
350
47F0
  3
FLATWITHEDGES
350
47F1
  3
GOURAUD
350
47F2
  3
GOURAUDWITHEDGES
350
47F3
  3
HIDDEN
350
4F2B
  3
JITTEROFF
350
4F2C
  3
LINEPATTERN
350
47FD
  3
MODELING
350
4F36
  3
OVERHANGOFF
350
4F2D
  3
REALISTIC
350
47F8
  3
SHADED
350
4F33
  3
SHADED_WITH_EDGES
350
4F32
  3
SHADES_OF_GRAY
350
4F2F
  3
SKETCHY
350
4F30
  3
THICKEN
350
47FC
  3
WIREFRAME
350
4F2A
  3
X-RAY
350
4F31
  0
XRECORD
  5
4312
102
{ACAD_REACTORS
330
C
102
}
330
C
100
AcDbXrecord
 90
   990106
  3

 60
     0
 61
     0
 62
     4
 63
     4
 64
     0
 65
     0
 66
     0
 67
     3
 68
     1
 69
     0
 70
     0
 71
     0
 72
     0
 40
0.0
170
     2
340
0
  0
DICTIONARY
  5
5162
102
{ACAD_REACTORS
330
C
102
}
330
C
100
AcDbDictionary
  3
CEPSNID
350
516C
  3
CEPSNTYPE
350
516B
  3
COLORDICT
350
5185
  3
DIMSTYLEDATA
350
5182
  3
FINGERPRINTGUID
350
516D
  3
HYPERLINKBASE
350
5165
  3
INSUNITS
350
516A
  3
LAYOUTDICT
350
5167
  3
LWETCUNION
350
5169
  3
MATERIALDICT
350
5186
  3
PLOTSETDICT
350
5168
  3
PSVPSCALE
350
516F
  3
PUCSBASE
350
5172
  3
PUCSORGBACK
350
5178
  3
PUCSORGBOTTOM
350
5174
  3
PUCSORGFRONT
350
5177
  3
PUCSORGLEFT
350
5175
  3
PUCSORGRIGHT
350
5176
  3
PUCSORGTOP
350
5173
  3
PUCSORTHOREF
350
5170
  3
PUCSORTHOVIEW
350
5171
  3
STYLESHEET
350
5166
  3
TSTACKALIGN
350
5163
  3
TSTACKSIZE
350
5164
  3
UCSBASE
350
517B
  3
UCSORGBACK
350
5181
  3
UCSORGBOTTOM
350
517D
  3
UCSORGFRONT
350
5180
  3
UCSORGLEFT
350
517E
  3
UCSORGRIGHT
350
517F
  3
UCSORGTOP
350
517C
  3
UCSORTHOREF
350
5179
  3
UCSORTHOVIEW
350
517A
  3
VERSIONGUID
350
516E
  0
DICTIONARY
  5
4800
102
{ACAD_REACTORS
330
C
102
}
330
C
100
AcDbDictionary
  3
CANNOSCALE
350
4801
  3
CMLEADERSTYLE
350
4F9F
  3
CTABLESTYLE
350
4F9E
  3
DIMASSOC
350
5183
  3
HIDETEXT
350
5184
  3
MSLTSCALE
350
4804
  3
XCLIPFRAME
350
4805
  0
XRECORD
  5
5187
102
{ACAD_REACTORS
330
C
102
}
330
C
100
AcDbXrecord
  1
DWGPROPS COOKIE
  2

  3

  4

  6

  7

  8
takahashi
  9

300
=
301
=
302
=
303
=
304
=
305
=
306
=
307
=
308
=
309
=
 40
0.0
 41
2450576.222302431
 42
2457661.239368125
  1

 90
        0
  0
XRECORD
  5
5189
102
{ACAD_REACTORS
330
5188
102
}
330
5188
100
AcDbXrecord
102
VTR_0.000_0.000_1.000_1.000_VISUALSTYLE
340
47F4
102
VTR_0.000_0.000_1.000_1.000_GRIDDISPLAY
 70
     3
102
VTR_0.000_0.000_1.000_1.000_GRIDMAJOR
 70
     5
102
VTR_0.000_0.000_1.000_1.000_DEFAULTLIGHTING
280
     1
102
VTR_0.000_0.000_1.000_1.000_DEFAULTLIGHTINGTYPE
 70
     1
102
VTR_0.000_0.000_1.000_1.000_BRIGHTNESS
141
0.0
102
VTR_0.000_0.000_1.000_1.000_CONTRAST
142
0.0
  0
DICTIONARY
  5
2B0C
102
{ACAD_REACTORS
330
29EA
102
}
330
29EA
100
AcDbDictionary
  0
DICTIONARY
  5
29EB
102
{ACAD_REACTORS
330
29EA
102
}
330
29EA
100
AcDbDictionary
  0
SORTENTSTABLE
  5
45A9
102
{ACAD_REACTORS
330
45A8
102
}
330
45A8
100
AcDbSortentsTable
330
1A
331
0
  5
2D37
331
3E99
  5
3E99
  0
SORTENTSTABLE
  5
4773
102
{ACAD_REACTORS
330
4772
102
}
330
4772
100
AcDbSortentsTable
330
476E
  0
DICTIONARY
  5
4F3A
102
{ACAD_REACTORS
330
4F39
102
}
330
4F39
100
AcDbDictionary
  3
ACDB_ANNOTATIONSCALES
350
4F3B
  0
DICTIONARY
  5
50CA
102
{ACAD_REACTORS
330
50C9
102
}
330
50C9
100
AcDbDictionary
  3
ACDB_ANNOTATIONSCALES
350
50CB
  0
DICTIONARY
  5
5100
102
{ACAD_REACTORS
330
50FF
102
}
330
50FF
100
AcDbDictionary
  3
ACDB_ANNOTATIONSCALES
350
5101
  0
MATERIAL
  5
47ED
102
{ACAD_REACTORS
330
2947
102
}
102
{ACAD_XDICTIONARY
360
518C
102
}
330
2947
100
AcDbMaterial
  1
BYBLOCK
  0
MATERIAL
  5
47EC
102
{ACAD_REACTORS
330
2947
102
}
102
{ACAD_XDICTIONARY
360
518A
102
}
330
2947
100
AcDbMaterial
  1
BYLAYER
  0
MATERIAL
  5
47EE
102
{ACAD_REACTORS
330
2947
102
}
102
{ACAD_XDICTIONARY
360
518E
102
}
330
2947
100
AcDbMaterial
  1
GLOBAL
  0
ACAD_PROXY_OBJECT
  5
4F35
102
{ACAD_REACTORS
330
4803
102
}
330
4803
100
AcDbProxyObject
 90
      499
 91
      509
 93
      610
310
40901902A4063FBFFFFFE0000000000000020400000000000020404214DD185B99185C990000000000000104090141901A00000000000004100000000000000041025764000000000000039000
340
14
340
0
340
10
340
0
 94
        0
1001
ACAD_MLEADERVER
1070
     2
  0
MLINESTYLE
  5
13
102
{ACAD_REACTORS
330
E
102
}
330
E
100
AcDbMlineStyle
  2
STANDARD
 70
     0
  3

 62
     0
 51
90.0
 52
90.0
 71
     2
 49
0.5
 62
   256
  6
BYLAYER
 49
-0.5
 62
   256
  6
BYLAYER
  0
ACAD_PROXY_OBJECT
  5
47CB
102
{ACAD_REACTORS
330
47CA
102
}
330
47CA
100
AcDbProxyObject
 90
      499
 91
      504
 93
       41
310
903313A31580
  0
ACAD_PROXY_OBJECT
  5
47CC
102
{ACAD_REACTORS
330
47CA
102
}
330
47CA
100
AcDbProxyObject
 90
      499
 91
      504
 93
      105
310
903313A324000000000000004000
  0
ACAD_PROXY_OBJECT
  5
47CD
102
{ACAD_REACTORS
330
47CA
102
}
330
47CA
100
AcDbProxyObject
 90
      499
 91
      504
 93
      105
310
903313A344000000000000104000
  0
ACAD_PROXY_OBJECT
  5
47CE
102
{ACAD_REACTORS
330
47CA
102
}
330
47CA
100
AcDbProxyObject
 90
      499
 91
      504
 93
      105
310
903313A354000000000000144000
  0
ACAD_PROXY_OBJECT
  5
47CF
102
{ACAD_REACTORS
330
47CA
102
}
330
47CA
100
AcDbProxyObject
 90
      499
 91
      504
 93
      105
310
903313A384000000000000204000
  0
ACAD_PROXY_OBJECT
  5
47D0
102
{ACAD_REACTORS
330
47CA
102
}
330
47CA
100
AcDbProxyObject
 90
      499
 91
      504
 93
      113
310
904313A31304000000000000244000
  0
ACAD_PROXY_OBJECT
  5
47D1
102
{ACAD_REACTORS
330
47CA
102
}
330
47CA
100
AcDbProxyObject
 90
      499
 91
      504
 93
      113
310
904313A31364000000000000304000
  0
ACAD_PROXY_OBJECT
  5
47D2
102
{ACAD_REACTORS
330
47CA
102
}
330
47CA
100
AcDbProxyObject
 90
      499
 91
      504
 93
      113
310
904313A32304000000000000344000
  0
ACAD_PROXY_OBJECT
  5
47D3
102
{ACAD_REACTORS
330
47CA
102
}
330
47CA
100
AcDbProxyObject
 90
      499
 91
      504
 93
      113
310
904313A333040000000000003E4000
  0
ACAD_PROXY_OBJECT
  5
47D4
102
{ACAD_REACTORS
330
47CA
102
}
330
47CA
100
AcDbProxyObject
 90
      499
 91
      504
 93
      113
310
904313A34304000000000000444000
  0
ACAD_PROXY_OBJECT
  5
47D5
102
{ACAD_REACTORS
330
47CA
102
}
330
47CA
100
AcDbProxyObject
 90
      499
 91
      504
 93
      113
310
904313A35304000000000000494000
  0
ACAD_PROXY_OBJECT
  5
47D6
102
{ACAD_REACTORS
330
47CA
102
}
330
47CA
100
AcDbProxyObject
 90
      499
 91
      504
 93
      121
310
905313A3130304000000000000594000
  0
ACAD_PROXY_OBJECT
  5
47D7
102
{ACAD_REACTORS
330
47CA
102
}
330
47CA
100
AcDbProxyObject
 90
      499
 91
      504
 93
      105
310
903323A310000000000000010100
  0
ACAD_PROXY_OBJECT
  5
47D8
102
{ACAD_REACTORS
330
47CA
102
}
330
47CA
100
AcDbProxyObject
 90
      499
 91
      504
 93
      105
310
903343A310000000000000410100
  0
ACAD_PROXY_OBJECT
  5
47D9
102
{ACAD_REACTORS
330
47CA
102
}
330
47CA
100
AcDbProxyObject
 90
      499
 91
      504
 93
      105
310
903383A310000000000000810100
  0
ACAD_PROXY_OBJECT
  5
47DA
102
{ACAD_REACTORS
330
47CA
102
}
330
47CA
100
AcDbProxyObject
 90
      499
 91
      504
 93
      113
310
90431303A310000000000000910100
  0
ACAD_PROXY_OBJECT
  5
47DB
102
{ACAD_REACTORS
330
47CA
102
}
330
47CA
100
AcDbProxyObject
 90
      499
 91
      504
 93
      121
310
9053130303A310000000000001650100
  0
ACAD_PROXY_OBJECT
  5
47DC
102
{ACAD_REACTORS
330
47CA
102
}
330
47CA
100
AcDbProxyObject
 90
      499
 91
      504
 93
      257
310
90E312F31323822203D2031272D3022000000000000200FC000000000000284000
  0
ACAD_PROXY_OBJECT
  5
47DD
102
{ACAD_REACTORS
330
47CA
102
}
330
47CA
100
AcDbProxyObject
 90
      499
 91
      504
 93
      249
310
90D312F363422203D2031272D3022000000000000240FC000000000000284000
  0
ACAD_PROXY_OBJECT
  5
47DE
102
{ACAD_REACTORS
330
47CA
102
}
330
47CA
100
AcDbProxyObject
 90
      499
 91
      504
 93
      249
310
90D312F333222203D2031272D3022000000000000280FC000000000000284000
  0
ACAD_PROXY_OBJECT
  5
47DF
102
{ACAD_REACTORS
330
47CA
102
}
330
47CA
100
AcDbProxyObject
 90
      499
 91
      504
 93
      249
310
90D312F313622203D2031272D30220000000000002C0FC000000000000284000
  0
ACAD_PROXY_OBJECT
  5
47E0
102
{ACAD_REACTORS
330
47CA
102
}
330
47CA
100
AcDbProxyObject
 90
      499
 91
      504
 93
      249
310
90D332F333222203D2031272D30220000000000002E0FC000000000000284000
  0
ACAD_PROXY_OBJECT
  5
47E1
102
{ACAD_REACTORS
330
47CA
102
}
330
47CA
100
AcDbProxyObject
 90
      499
 91
      504
 93
      241
310
90C312F3822203D2031272D3022000000000000300FC000000000000284000
  0
ACAD_PROXY_OBJECT
  5
47E2
102
{ACAD_REACTORS
330
47CA
102
}
330
47CA
100
AcDbProxyObject
 90
      499
 91
      504
 93
      249
310
90D332F313622203D2031272D3022000000000000320FC000000000000284000
  0
ACAD_PROXY_OBJECT
  5
47E3
102
{ACAD_REACTORS
330
47CA
102
}
330
47CA
100
AcDbProxyObject
 90
      499
 91
      504
 93
      241
310
90C312F3422203D2031272D3022000000000000340FC000000000000284000
  0
ACAD_PROXY_OBJECT
  5
47E4
102
{ACAD_REACTORS
330
47CA
102
}
330
47CA
100
AcDbProxyObject
 90
      499
 91
      504
 93
      241
310
90C332F3822203D2031272D3022000000000000360FC000000000000284000
  0
ACAD_PROXY_OBJECT
  5
47E5
102
{ACAD_REACTORS
330
47CA
102
}
330
47CA
100
AcDbProxyObject
 90
      499
 91
      504
 93
      241
310
90C312F3222203D2031272D3022000000000000380FC000000000000284000
  0
ACAD_PROXY_OBJECT
  5
47E6
102
{ACAD_REACTORS
330
47CA
102
}
330
47CA
100
AcDbProxyObject
 90
      499
 91
      504
 93
      241
310
90C332F3422203D2031272D30220000000000003A0FC000000000000284000
  0
ACAD_PROXY_OBJECT
  5
47E7
102
{ACAD_REACTORS
330
47CA
102
}
330
47CA
100
AcDbProxyObject
 90
      499
 91
      504
 93
      161
310
90A3122203D2031272D30224000000000000284000
  0
ACAD_PROXY_OBJECT
  5
47E8
102
{ACAD_REACTORS
330
47CA
102
}
330
47CA
100
AcDbProxyObject
 90
      499
 91
      504
 93
      257
310
90E312D312F3222203D2031272D30220000000000003E0FC000000000000284000
  0
ACAD_PROXY_OBJECT
  5
47E9
102
{ACAD_REACTORS
330
47CA
102
}
330
47CA
100
AcDbProxyObject
 90
      499
 91
      504
 93
      225
310
90A3322203D2031272D302200000000000002100000000000000284000
  0
ACAD_PROXY_OBJECT
  5
47EA
102
{ACAD_REACTORS
330
47CA
102
}
330
47CA
100
AcDbProxyObject
 90
      499
 91
      504
 93
      225
310
90A3622203D2031272D302200000000000006100000000000000284000
  0
ACAD_PROXY_OBJECT
  5
47EB
102
{ACAD_REACTORS
330
47CA
102
}
330
47CA
100
AcDbProxyObject
 90
      499
 91
      504
 93
      249
310
90D31272D3022203D2031272D30220000000000000A100000000000000284000
  0
ACAD_PROXY_OBJECT
  5
47F4
102
{ACAD_REACTORS
330
47EF
102
}
330
47EF
100
AcDbProxyObject
 90
      499
 91
      506
 93
      436
310
42CC9915DA5C99599C985B595049028333333333333E3BF0000000000000FB0107901411070040501600405405064090741402480A0340
1001
ACAD
1000
AcDbSavedByObjectVersion
1070
     0
  0
ACAD_PROXY_OBJECT
  5
47F6
102
{ACAD_REACTORS
330
47EF
102
}
330
47EF
100
AcDbProxyObject
 90
      499
 91
      506
 93
      500
310
424CD108121A5919195B90640502408333333333333E3BF0000000000000FB01079024090700405020000000000001110200405405064090740C02480A0340
1001
ACAD
1000
AcDbSavedByObjectVersion
1070
     0
  0
ACAD_PROXY_OBJECT
  5
47F5
102
{ACAD_REACTORS
330
47EF
102
}
330
47EF
100
AcDbProxyObject
 90
      499
 91
      506
 93
      436
310
42CCD915DA5C99599C985B595059028333333333333E3BF0000000000000FB0107901411070040501600405405064090741402480A0340
1001
ACAD
1000
AcDbSavedByObjectVersion
1070
     0
  0
ACAD_PROXY_OBJECT
  5
47F7
102
{ACAD_REACTORS
330
47EF
102
}
330
47EF
100
AcDbProxyObject
 90
      499
 91
      506
 93
      388
310
4150985CDA58D07406404333333333333E3BF0000000000000FB0107A41107004050150841D405064090741402480A0350
1001
ACAD
1000
AcDbSavedByObjectVersion
1070
     0
  0
ACAD_PROXY_OBJECT
  5
47FB
102
{ACAD_REACTORS
330
47EF
102
}
330
47EF
100
AcDbProxyObject
 90
      499
 91
      506
 93
      428
310
42109C9A59DA1D195B90C409028333333333333E3BF0000000000000FB010790141107004050150841D405064090741402480A029950
1001
ACAD
1000
AcDbSavedByObjectVersion
1070
     0
  0
ACAD_PROXY_OBJECT
  5
47FF
102
{ACAD_REACTORS
330
47EF
102
}
330
47EF
100
AcDbProxyObject
 90
      499
 91
      506
 93
      452
310
42D0DBDB1BDC90DA185B99D95104090240C333333333333E3BF0000000000000FB0108901411070040501508421405064090741402480A0350
1001
ACAD
1000
AcDbSavedByObjectVersion
1070
     0
  0
ACAD_PROXY_OBJECT
  5
47F9
102
{ACAD_REACTORS
330
47EF
102
}
330
47EF
100
AcDbProxyObject
 90
      499
 91
      506
 93
      500
310
4290DBDB98D95C1D1D585B10940D028333333333333E3BF0000000000000FB0107902409070040501000000000000111010841D405064090740C02480A0340
1001
ACAD
1000
AcDbSavedByObjectVersion
1070
     0
  0
ACAD_PROXY_OBJECT
  5
47FA
102
{ACAD_REACTORS
330
47EF
102
}
330
47EF
100
AcDbProxyObject
 90
      499
 91
      506
 93
      412
310
40D11A5B50B409028333333333333E3BF0000000000000FB010790141107004050150841D405064090741402480A02677FFFFFD0
1001
ACAD
1000
AcDbSavedByObjectVersion
1070
     0
  0
ACAD_PROXY_OBJECT
  5
4F2E
102
{ACAD_REACTORS
330
47EF
102
}
330
47EF
100
AcDbProxyObject
 90
      499
 91
      506
 93
      452
310
43115919D950DBDB1BDC93D999916409028333333333333E33F0000000000000F9010790141107004050150841D405064090741402480A0350
1001
ACAD
1000
AcDbSavedByObjectVersion
1070
     0
  0
ACAD_PROXY_OBJECT
  5
47FE
102
{ACAD_REACTORS
330
47EF
102
}
330
47EF
100
AcDbProxyObject
 90
      499
 91
      506
 93
      444
310
42D19858D95C185D1D195C9B90F409028333333333333E3BF0000000000000FB010790141107004050150841D405064090741402480A0350
1001
ACAD
1000
AcDbSavedByObjectVersion
1070
     0
  0
ACAD_PROXY_OBJECT
  5
47F0
102
{ACAD_REACTORS
330
47EF
102
}
330
47EF
100
AcDbProxyObject
 90
      499
 91
      506
 93
      388
310
41119B185D240901404333333333333E3BF0000000000000F9010740A41107004050150841D405064090741402480A1B50
1001
ACAD
1000
AcDbSavedByObjectVersion
1070
     0
  0
ACAD_PROXY_OBJECT
  5
47F1
102
{ACAD_REACTORS
330
47EF
102
}
330
47EF
100
AcDbProxyObject
 90
      499
 91
      506
 93
      476
310
43519B185D15DA5D1A115919D95CD0140901404333333333333E3BF0000000000000F9010740901411070040501600405405064090741402480A1B50
1001
ACAD
1000
AcDbSavedByObjectVersion
1070
     0
  0
ACAD_PROXY_OBJECT
  5
47F2
102
{ACAD_REACTORS
330
47EF
102
}
330
47EF
100
AcDbProxyObject
 90
      499
 91
      506
 93
      412
310
41D1DBDD5C985D5910240902404333333333333E3BF0000000000000F9010740A411070040501641D405064090741402480A1B50
1001
ACAD
1000
AcDbSavedByObjectVersion
1070
     0
  0
ACAD_PROXY_OBJECT
  5
47F3
102
{ACAD_REACTORS
330
47EF
102
}
330
47EF
100
AcDbProxyObject
 90
      499
 91
      506
 93
      500
310
4411DBDD5C985D5915DA5D1A115919D95CD0340902404333333333333E3BF0000000000000F9010740901411070040501600405405064090741402480A1B50
1001
ACAD
1000
AcDbSavedByObjectVersion
1070
     0
  0
ACAD_PROXY_OBJECT
  5
4F2B
102
{ACAD_REACTORS
330
47EF
102
}
330
47EF
100
AcDbProxyObject
 90
      499
 91
      506
 93
      476
310
41921A5919195B90640502408333333333333E33F0000000000000F901079024090700405020000000000001110200405405064090740C02480A0340
1001
ACAD
1000
AcDbSavedByObjectVersion
1070
     0
  0
ACAD_PROXY_OBJECT
  5
4F2C
102
{ACAD_REACTORS
330
47EF
102
}
330
47EF
100
AcDbProxyObject
 90
      499
 91
      506
 93
      428
310
42529A5D1D195C93D999914409028333333333333E33F0000000000000F9010790141107004050150A41D405064090741402480A0350
1001
ACAD
1000
AcDbSavedByObjectVersion
1070
     0
  0
ACAD_PROXY_OBJECT
  5
47FD
102
{ACAD_REACTORS
330
47EF
102
}
330
47EF
100
AcDbProxyObject
 90
      499
 91
      506
 93
      444
310
42D31A5B995C185D1D195C9B90E409028333333333333E3BF0000000000000FB010790141107004050750841D405064090741402483A0350
1001
ACAD
1000
AcDbSavedByObjectVersion
1070
     0
  0
ACAD_PROXY_OBJECT
  5
4F36
102
{ACAD_REACTORS
330
47EF
102
}
330
47EF
100
AcDbProxyObject
 90
      499
 91
      506
 93
      412
310
90A409038333333333333E33F0000000000000F901074090290700405010000000000201990108421405064090741402480A1B40
1001
ACAD
1000
AcDbSavedByObjectVersion
1070
     0
  0
ACAD_PROXY_OBJECT
  5
4F2D
102
{ACAD_REACTORS
330
47EF
102
}
330
47EF
100
AcDbProxyObject
 90
      499
 91
      506
 93
      444
310
42D3DD995C9A185B99D3D999915409028333333333333E33F0000000000000F9010790141107004050150941D405064090741402480A0350
1001
ACAD
1000
AcDbSavedByObjectVersion
1070
     0
  0
ACAD_PROXY_OBJECT
  5
47F8
102
{ACAD_REACTORS
330
47EF
102
}
330
47EF
100
AcDbProxyObject
 90
      499
 91
      506
 93
      428
310
425499585B1A5CDD1A58D08409038333333333333E33F0000000000000F9010740A907004050150800405405064090740C02480A1B40
1001
ACAD
1000
AcDbSavedByObjectVersion
1070
     0
  0
ACAD_PROXY_OBJECT
  5
4F33
102
{ACAD_REACTORS
330
47EF
102
}
330
47EF
100
AcDbProxyObject
 90
      499
 91
      506
 93
      420
310
4194DA1859195911B40902404333333333333E33F0000000000000F9010740A41107004050150800405405064090840C02480A0B40
1001
ACAD
1000
AcDbSavedByObjectVersion
1070
     0
  0
ACAD_PROXY_OBJECT
  5
4F32
102
{ACAD_REACTORS
330
47EF
102
}
330
47EF
100
AcDbProxyObject
 90
      499
 91
      506
 93
      516
310
4454DA18591959081DDA5D1A08195919D95CD1A40902404333333333333E33F0000000000000F901074090142907004050250800405405064090740C02480A0B40
1001
ACAD
1000
AcDbSavedByObjectVersion
1070
     0
  0
ACAD_PROXY_OBJECT
  5
4F2F
102
{ACAD_REACTORS
330
47EF
102
}
330
47EF
100
AcDbProxyObject
 90
      499
 91
      506
 93
      532
310
4394DA1859195CC81BD98811DC985E5174090240C333333333333E33F0000000000000F901079024090741D01000000000000111010841D405064090740C02480A0340
1001
ACAD
1000
AcDbSavedByObjectVersion
1070
     0
  0
ACAD_PROXY_OBJECT
  5
4F30
102
{ACAD_REACTORS
330
47EF
102
}
330
47EF
100
AcDbProxyObject
 90
      499
 91
      506
 93
      476
310
41D4DAD95D18DA1E51840502408333333333333E33F0000000000000F901079024090741D01000000000000111010B41D405064090741802480A0340
1001
ACAD
1000
AcDbSavedByObjectVersion
1070
     0
  0
ACAD_PROXY_OBJECT
  5
47FC
102
{ACAD_REACTORS
330
47EF
102
}
330
47EF
100
AcDbProxyObject
 90
      499
 91
      506
 93
      412
310
41D51A1A58DAD95B90D409028333333333333E3BF0000000000000FB010790141107004050150C41D405064090741402480A0350
1001
ACAD
1000
AcDbSavedByObjectVersion
1070
     0
  0
ACAD_PROXY_OBJECT
  5
4F2A
102
{ACAD_REACTORS
330
47EF
102
}
330
47EF
100
AcDbProxyObject
 90
      499
 91
      506
 93
      420
310
4255DA5C99599C985B595059028333333333333E33F0000000000000F90107901411070040501600405405064090740C02480A0340
1001
ACAD
1000
AcDbSavedByObjectVersion
1070
     0
  0
ACAD_PROXY_OBJECT
  5
4F31
102
{ACAD_REACTORS
330
47EF
102
}
330
47EF
100
AcDbProxyObject
 90
      499
 91
      506
 93
      404
310
41560B54985E51940902404000000000000E03F0000000000000F9010740501907004050150841D405064090740C02480A1B40
1001
ACAD
1000
AcDbSavedByObjectVersion
1070
     0
  0
XRECORD
  5
516C
102
{ACAD_REACTORS
330
5162
102
}
330
5162
100
AcDbXrecord
340
0
  0
XRECORD
  5
516B
102
{ACAD_REACTORS
330
5162
102
}
330
5162
100
AcDbXrecord
 90
        0
  0
XRECORD
  5
5185
102
{ACAD_REACTORS
330
5162
102
}
330
5162
100
AcDbXrecord
340
2948
  0
XRECORD
  5
5182
102
{ACAD_REACTORS
330
5162
102
}
330
5162
100
AcDbXrecord
1000
DSTYLE
1002
{
1070
   171
 70
     2
1070
   143
 40
0.0394
1070
   274
 70
     2
1070
    41
 40
6.0
1070
   342
340
2AF4
1070
   271
 70
     1
1070
   278
 70
    46
1070
   341
340
2AF4
1070
   272
 70
     1
1070
    48
 40
0.1
1070
   283
 70
     1
1070
    47
 40
0.1
1070
   145
 40
1.0
1070
   340
340
10
1070
   140
 40
8.0
1070
   284
 70
     0
1002
}
  0
XRECORD
  5
516D
102
{ACAD_REACTORS
330
5162
102
}
330
5162
100
AcDbXrecord
  1
{23698909-1D67-4744-B0E2-8DE11E3ED422}
  0
XRECORD
  5
5165
102
{ACAD_REACTORS
330
5162
102
}
330
5162
100
AcDbXrecord
  1

  0
XRECORD
  5
516A
102
{ACAD_REACTORS
330
5162
102
}
330
5162
100
AcDbXrecord
 90
        0
  0
XRECORD
  5
5167
102
{ACAD_REACTORS
330
5162
102
}
330
5162
100
AcDbXrecord
340
2816
  0
XRECORD
  5
5169
102
{ACAD_REACTORS
330
5162
102
}
330
5162
100
AcDbXrecord
 90
    10781
  0
XRECORD
  5
5186
102
{ACAD_REACTORS
330
5162
102
}
330
5162
100
AcDbXrecord
340
2947
  0
XRECORD
  5
5168
102
{ACAD_REACTORS
330
5162
102
}
330
5162
100
AcDbXrecord
340
2817
  0
XRECORD
  5
516F
102
{ACAD_REACTORS
330
5162
102
}
330
5162
100
AcDbXrecord
 40
0.25
  0
XRECORD
  5
5172
102
{ACAD_REACTORS
330
5162
102
}
330
5162
100
AcDbXrecord
340
0
  0
XRECORD
  5
5178
102
{ACAD_REACTORS
330
5162
102
}
330
5162
100
AcDbXrecord
 10
0.0
 20
0.0
 30
0.0
  0
XRECORD
  5
5174
102
{ACAD_REACTORS
330
5162
102
}
330
5162
100
AcDbXrecord
 10
0.0
 20
0.0
 30
0.0
  0
XRECORD
  5
5177
102
{ACAD_REACTORS
330
5162
102
}
330
5162
100
AcDbXrecord
 10
0.0
 20
0.0
 30
0.0
  0
XRECORD
  5
5175
102
{ACAD_REACTORS
330
5162
102
}
330
5162
100
AcDbXrecord
 10
0.0
 20
0.0
 30
0.0
  0
XRECORD
  5
5176
102
{ACAD_REACTORS
330
5162
102
}
330
5162
100
AcDbXrecord
 10
0.0
 20
0.0
 30
0.0
  0
XRECORD
  5
5173
102
{ACAD_REACTORS
330
5162
102
}
330
5162
100
AcDbXrecord
 10
0.0
 20
0.0
 30
0.0
  0
XRECORD
  5
5170
102
{ACAD_REACTORS
330
5162
102
}
330
5162
100
AcDbXrecord
340
0
  0
XRECORD
  5
5171
102
{ACAD_REACTORS
330
5162
102
}
330
5162
100
AcDbXrecord
 70
     0
  0
XRECORD
  5
5166
102
{ACAD_REACTORS
330
5162
102
}
330
5162
100
AcDbXrecord
  1

  0
XRECORD
  5
5163
102
{ACAD_REACTORS
330
5162
102
}
330
5162
100
AcDbXrecord
 90
        1
  0
XRECORD
  5
5164
102
{ACAD_REACTORS
330
5162
102
}
330
5162
100
AcDbXrecord
 90
       70
  0
XRECORD
  5
517B
102
{ACAD_REACTORS
330
5162
102
}
330
5162
100
AcDbXrecord
340
0
  0
XRECORD
  5
5181
102
{ACAD_REACTORS
330
5162
102
}
330
5162
100
AcDbXrecord
 10
0.0
 20
0.0
 30
0.0
  0
XRECORD
  5
517D
102
{ACAD_REACTORS
330
5162
102
}
330
5162
100
AcDbXrecord
 10
0.0
 20
0.0
 30
0.0
  0
XRECORD
  5
5180
102
{ACAD_REACTORS
330
5162
102
}
330
5162
100
AcDbXrecord
 10
0.0
 20
0.0
 30
0.0
  0
XRECORD
  5
517E
102
{ACAD_REACTORS
330
5162
102
}
330
5162
100
AcDbXrecord
 10
0.0
 20
0.0
 30
0.0
  0
XRECORD
  5
517F
102
{ACAD_REACTORS
330
5162
102
}
330
5162
100
AcDbXrecord
 10
0.0
 20
0.0
 30
0.0
  0
XRECORD
  5
517C
102
{ACAD_REACTORS
330
5162
102
}
330
5162
100
AcDbXrecord
 10
0.0
 20
0.0
 30
0.0
  0
XRECORD
  5
5179
102
{ACAD_REACTORS
330
5162
102
}
330
5162
100
AcDbXrecord
340
0
  0
XRECORD
  5
517A
102
{ACAD_REACTORS
330
5162
102
}
330
5162
100
AcDbXrecord
 70
     0
  0
XRECORD
  5
516E
102
{ACAD_REACTORS
330
5162
102
}
330
5162
100
AcDbXrecord
  1
{5C5D94D3-D84D-4381-A728-C8FB4639C316}
  0
DICTIONARYVAR
  5
4801
102
{ACAD_REACTORS
330
4800
102
}
330
4800
100
DictionaryVariables
280
     0
  1
1:1
  0
DICTIONARYVAR
  5
4F9F
102
{ACAD_REACTORS
330
4800
102
}
330
4800
100
DictionaryVariables
280
     0
  1
Standard
  0
DICTIONARYVAR
  5
4F9E
102
{ACAD_REACTORS
330
4800
102
}
330
4800
100
DictionaryVariables
280
     0
  1
Standard
  0
DICTIONARYVAR
  5
5183
102
{ACAD_REACTORS
330
4800
102
}
330
4800
100
DictionaryVariables
280
     0
  1
1
  0
DICTIONARYVAR
  5
5184
102
{ACAD_REACTORS
330
4800
102
}
330
4800
100
DictionaryVariables
280
     0
  1
0
  0
DICTIONARYVAR
  5
4804
102
{ACAD_REACTORS
330
4800
102
}
330
4800
100
DictionaryVariables
280
     0
  1
0
  0
DICTIONARYVAR
  5
4805
102
{ACAD_REACTORS
330
4800
102
}
330
4800
100
DictionaryVariables
280
     0
  1
0
  0
DICTIONARY
  5
4F3B
102
{ACAD_REACTORS
330
4F3A
102
}
330
4F3A
100
AcDbDictionary
  0
DICTIONARY
  5
50CB
102
{ACAD_REACTORS
330
50CA
102
}
330
50CA
100
AcDbDictionary
  0
DICTIONARY
  5
5101
102
{ACAD_REACTORS
330
5100
102
}
330
5100
100
AcDbDictionary
  0
DICTIONARY
  5
518C
330
47ED
100
AcDbDictionary
280
     1
  3
ACAD_XREC_ROUNDTRIP
360
518D
  0
DICTIONARY
  5
518A
330
47EC
100
AcDbDictionary
280
     1
  3
ACAD_XREC_ROUNDTRIP
360
518B
  0
DICTIONARY
  5
518E
330
47EE
100
AcDbDictionary
280
     1
  3
ACAD_XREC_ROUNDTRIP
360
518F
  0
XRECORD
  5
518D
102
{ACAD_REACTORS
330
518C
102
}
330
518C
100
AcDbXrecord
102
MATERIAL
148
0.0
149
0.0
149
0.0
 93
        0
 94
      127
282
     0
 72
     1
 77
     1
171
     1
175
     1
179
     1
273
     0
  0
XRECORD
  5
518B
102
{ACAD_REACTORS
330
518A
102
}
330
518A
100
AcDbXrecord
102
MATERIAL
148
0.0
149
0.0
149
0.0
 93
        0
 94
      127
282
     0
 72
     1
 77
     1
171
     1
175
     1
179
     1
273
     0
  0
XRECORD
  5
518F
102
{ACAD_REACTORS
330
518E
102
}
330
518E
100
AcDbXrecord
102
MATERIAL
148
0.0
149
0.0
149
0.0
 93
        0
 94
      127
282
     0
 72
     1
 77
     1
171
     1
175
     1
179
     1
273
     0
  0
ENDSEC
  0
EOF
