  0
SECTION
  2
HEADER
  9
$ACADVER
  1
AC1014
  9
$ACADMAINTVER
 70
     9
  9
$DWGCODEPAGE
  3
ANSI_932
  9
$INSBASE
 10
0.0
 20
0.0
 30
0.0
  9
$EXTMIN
 10
-89.942149422935
 20
82.898317188916
 30
0.0
  9
$EXTMAX
 10
658.49801111006
 20
521.549142540296
 30
0.0
  9
$LIMMIN
 10
-360.747566795242
 20
4.457354754526
  9
$LIMMAX
 10
-162.153696144267
 20
287.675440264018
  9
$ORTHOMODE
 70
     0
  9
$REGENMODE
 70
     1
  9
$FILLMODE
 70
     1
  9
$QTEXTMODE
 70
     0
  9
$MIRRTEXT
 70
     1
  9
$DRAGMODE
 70
     2
  9
$LTSCALE
 40
1.0
  9
$OSMODE
 70
   935
  9
$ATTMODE
 70
     1
  9
$TEXTSIZE
 40
4.0
  9
$TRACEWID
 40
1.0
  9
$TEXTSTYLE
  7
STANDARD
  9
$CLAYER
  8
隠れ線
  9
$CELTYPE
  6
BYLAYER
  9
$CECOLOR
 62
   256
  9
$CELTSCALE
 40
10.0
  9
$DELOBJ
 70
     1
  9
$DISPSILH
 70
     0
  9
$DIMSCALE
 40
1.0
  9
$DIMASZ
 40
6.0
  9
$DIMEXO
 40
0.625
  9
$DIMDLI
 40
3.75
  9
$DIMRND
 40
0.0
  9
$DIMDLE
 40
0.0
  9
$DIMEXE
 40
1.25
  9
$DIMTP
 40
0.1
  9
$DIMTM
 40
0.1
  9
$DIMTXT
 40
8.0
  9
$DIMCEN
 40
2.5
  9
$DIMTSZ
 40
0.0
  9
$DIMTOL
 70
     0
  9
$DIMLIM
 70
     0
  9
$DIMTIH
 70
     0
  9
$DIMTOH
 70
     0
  9
$DIMSE1
 70
     0
  9
$DIMSE2
 70
     0
  9
$DIMTAD
 70
     1
  9
$DIMZIN
 70
     8
  9
$DIMBLK
  1
OPEN30
  9
$DIMASO
 70
     1
  9
$DIMSHO
 70
     1
  9
$DIMPOST
  1

  9
$DIMAPOST
  1

  9
$DIMALT
 70
     0
  9
$DIMALTD
 70
     2
  9
$DIMALTF
 40
0.0394
  9
$DIMLFAC
 40
1.0
  9
$DIMTOFL
 70
     1
  9
$DIMTVP
 40
1.0
  9
$DIMTIX
 70
     0
  9
$DIMSOXD
 70
     0
  9
$DIMSAH
 70
     0
  9
$DIMBLK1
  1

  9
$DIMBLK2
  1

  9
$DIMSTYLE
  2
ISO-25
  9
$DIMCLRD
 70
     0
  9
$DIMCLRE
 70
     0
  9
$DIMCLRT
 70
     0
  9
$DIMTFAC
 40
1.0
  9
$DIMGAP
 40
0.625
  9
$DIMJUST
 70
     0
  9
$DIMSD1
 70
     0
  9
$DIMSD2
 70
     0
  9
$DIMTOLJ
 70
     1
  9
$DIMTZIN
 70
     0
  9
$DIMALTZ
 70
     0
  9
$DIMALTTZ
 70
     0
  9
$DIMFIT
 70
     3
  9
$DIMUPT
 70
     0
  9
$DIMUNIT
 70
     2
  9
$DIMDEC
 70
     1
  9
$DIMTDEC
 70
     1
  9
$DIMALTU
 70
     2
  9
$DIMALTTD
 70
     2
  9
$DIMTXSTY
  7
STANDARD
  9
$DIMAUNIT
 70
     0
  9
$LUNITS
 70
     2
  9
$LUPREC
 70
     4
  9
$SKETCHINC
 40
1.0
  9
$FILLETRAD
 40
1.0
  9
$AUNITS
 70
     0
  9
$AUPREC
 70
     0
  9
$MENU
  1
.
  9
$ELEVATION
 40
0.0
  9
$PELEVATION
 40
0.0
  9
$THICKNESS
 40
0.0
  9
$LIMCHECK
 70
     0
  9
$CHAMFERA
 40
0.5
  9
$CHAMFERB
 40
0.5
  9
$CHAMFERC
 40
20.0
  9
$CHAMFERD
 40
0.0
  9
$SKPOLY
 70
     0
  9
$TDCREATE
 40
2450576.597302431
  9
$TDUPDATE
 40
2457661.614848333
  9
$TDINDWG
 40
1.7339410069
  9
$TDUSRTIMER
 40
1.7339410069
  9
$USRTIMER
 70
     1
  9
$ANGBASE
 50
0.0
  9
$ANGDIR
 70
     0
  9
$PDMODE
 70
     0
  9
$PDSIZE
 40
0.0
  9
$PLINEWID
 40
0.0
  9
$COORDS
 70
     1
  9
$SPLFRAME
 70
     0
  9
$SPLINETYPE
 70
     6
  9
$SPLINESEGS
 70
     8
  9
$ATTDIA
 70
     0
  9
$ATTREQ
 70
     1
  9
$HANDLING
 70
     1
  9
$HANDSEED
  5
6990
  9
$SURFTAB1
 70
     6
  9
$SURFTAB2
 70
     6
  9
$SURFTYPE
 70
     6
  9
$SURFU
 70
     6
  9
$SURFV
 70
     6
  9
$UCSNAME
  2

  9
$UCSORG
 10
0.0
 20
0.0
 30
0.0
  9
$UCSXDIR
 10
1.0
 20
0.0
 30
0.0
  9
$UCSYDIR
 10
0.0
 20
1.0
 30
0.0
  9
$PUCSNAME
  2

  9
$PUCSORG
 10
0.0
 20
0.0
 30
0.0
  9
$PUCSXDIR
 10
1.0
 20
0.0
 30
0.0
  9
$PUCSYDIR
 10
0.0
 20
1.0
 30
0.0
  9
$USERI1
 70
     0
  9
$USERI2
 70
     0
  9
$USERI3
 70
     0
  9
$USERI4
 70
     0
  9
$USERI5
 70
     0
  9
$USERR1
 40
0.0
  9
$USERR2
 40
0.0
  9
$USERR3
 40
0.0
  9
$USERR4
 40
0.0
  9
$USERR5
 40
0.0
  9
$WORLDVIEW
 70
     1
  9
$SHADEDGE
 70
     3
  9
$SHADEDIF
 70
    70
  9
$TILEMODE
 70
     0
  9
$MAXACTVP
 70
    16
  9
$PINSBASE
 10
0.0
 20
0.0
 30
0.0
  9
$PLIMCHECK
 70
     0
  9
$PEXTMIN
 10
4.746305129083
 20
2.61287513705
 30
0.0
  9
$PEXTMAX
 10
404.746305129083
 20
282.61287513705
 30
0.0
  9
$PLIMMIN
 10
-7.007122192383
 20
-7.007118782997
  9
$PLIMMAX
 10
417.718108215332
 20
293.315290427208
  9
$UNITMODE
 70
     0
  9
$VISRETAIN
 70
     0
  9
$PLINEGEN
 70
     0
  9
$PSLTSCALE
 70
     1
  9
$TREEDEPTH
 70
  3020
  9
$PICKSTYLE
 70
     1
  9
$CMLSTYLE
  2
STANDARD
  9
$CMLJUST
 70
     0
  9
$CMLSCALE
 40
1.0
  9
$PROXYGRAPHICS
 70
     1
  9
$MEASUREMENT
 70
     1
  0
ENDSEC
  0
SECTION
  2
CLASSES
  0
CLASS
  1
ACDBDICTIONARYWDFLT
  2
AcDbDictionaryWithDefault
  3
ObjectDBX Classes
 90
        0
280
     0
281
     0
  0
CLASS
  1
ACDBPLACEHOLDER
  2
AcDbPlaceHolder
  3
ObjectDBX Classes
 90
        0
280
     0
281
     0
  0
CLASS
  1
LAYOUT
  2
AcDbLayout
  3
ObjectDBX Classes
 90
        0
280
     0
281
     0
  0
CLASS
  1
VISUALSTYLE
  2
AcDbVisualStyle
  3
ObjectDBX Classes
 90
     4095
280
     0
281
     0
  0
CLASS
  1
SCALE
  2
AcDbScale
  3
ObjectDBX Classes
 90
     1153
280
     0
281
     0
  0
CLASS
  1
MATERIAL
  2
AcDbMaterial
  3
ObjectDBX Classes
 90
     1153
280
     0
281
     0
  0
CLASS
  1
TABLESTYLE
  2
AcDbTableStyle
  3
ObjectDBX Classes
 90
     4095
280
     0
281
     0
  0
CLASS
  1
MLEADERSTYLE
  2
AcDbMLeaderStyle
  3
ACDB_MLEADERSTYLE_CLASS
 90
     4095
280
     0
281
     0
  0
CLASS
  1
SUN
  2
AcDbSun
  3
SCENEOE
 90
     1153
280
     0
281
     0
  0
CLASS
  1
DICTIONARYVAR
  2
AcDbDictionaryVar
  3
ObjectDBX Classes
 90
        0
280
     0
281
     0
  0
CLASS
  1
CELLSTYLEMAP
  2
AcDbCellStyleMap
  3
ObjectDBX Classes
 90
     1152
280
     0
281
     0
  0
CLASS
  1
SORTENTSTABLE
  2
AcDbSortentsTable
  3
ObjectDBX Classes
 90
        0
280
     0
281
     0
  0
CLASS
  1
XRECORD
  2
AcDbXrecord
  3
ObjectDBX Classes
 90
        0
280
     0
281
     0
  0
CLASS
  1
LWPOLYLINE
  2
AcDbPolyline
  3
ObjectDBX Classes
 90
        0
280
     0
281
     1
  0
CLASS
  1
HATCH
  2
AcDbHatch
  3
ObjectDBX Classes
 90
        0
280
     0
281
     1
  0
ENDSEC
  0
SECTION
  2
TABLES
  0
TABLE
  2
VPORT
  5
8
102
{ACAD_XDICTIONARY
360
6988
102
}
330
0
100
AcDbSymbolTable
 70
     1
  0
VPORT
  5
5340
330
8
100
AcDbSymbolTableRecord
100
AcDbViewportTableRecord
  2
*ACTIVE
 70
     0
 10
0.0
 20
0.0
 11
1.0
 21
1.0
 12
283.986264176896
 22
302.223729864606
 13
0.0
 23
0.0
 14
1.0
 24
1.0
 15
0.0
 25
0.0
 16
0.0
 26
0.0
 36
1.0
 17
0.0
 27
0.0
 37
0.0
 40
447.423841858407
 41
1.759407069555
 42
50.0
 43
0.0
 44
0.0
 50
0.0
 51
0.0
 71
    16
 72
   100
 73
     1
 74
     0
 75
     0
 76
     0
 77
     0
 78
     0
  0
ENDTAB
  0
TABLE
  2
LTYPE
  5
5
330
0
100
AcDbSymbolTable
 70
     6
  0
LTYPE
  5
14
330
5
100
AcDbSymbolTableRecord
100
AcDbLinetypeTableRecord
  2
BYBLOCK
 70
     0
  3

 72
    65
 73
     0
 40
0.0
  0
LTYPE
  5
15
330
5
100
AcDbSymbolTableRecord
100
AcDbLinetypeTableRecord
  2
BYLAYER
 70
     0
  3

 72
    65
 73
     0
 40
0.0
  0
LTYPE
  5
16
330
5
100
AcDbSymbolTableRecord
100
AcDbLinetypeTableRecord
  2
CONTINUOUS
 70
     0
  3
Solid line
 72
    65
 73
     0
 40
0.0
  0
LTYPE
  5
1EC
330
5
100
AcDbSymbolTableRecord
100
AcDbLinetypeTableRecord
  2
CENTER
 70
     0
  3
____ _ ____ _ ____ _ ____ _ ____ _ ____ _ ____ 
 72
    65
 73
     4
 40
2.0
 49
1.25
 74
     0
 49
-0.25
 74
     0
 49
0.25
 74
     0
 49
-0.25
 74
     0
  0
LTYPE
  5
1ED
330
5
100
AcDbSymbolTableRecord
100
AcDbLinetypeTableRecord
  2
DASHED
 70
     0
  3
__ __ __ __ __ __ __ __ __ __ __ __ __ __ __ __
 72
    65
 73
     2
 40
0.75
 49
0.5
 74
     0
 49
-0.25
 74
     0
  0
LTYPE
  5
2B1F
330
5
100
AcDbSymbolTableRecord
100
AcDbLinetypeTableRecord
  2
DASHDOT
 70
     0
  3
一点鎖線
 72
    65
 73
     4
 40
25.6
 49
20.0
 74
     0
 49
-2.0
 74
     0
 49
1.6
 74
     0
 49
-2.0
 74
     0
  0
LTYPE
  5
31A1
330
5
100
AcDbSymbolTableRecord
100
AcDbLinetypeTableRecord
  2
CENTER2
 70
     0
  3
Center (.5x) ___ _ ___ _ ___ _ ___ _ ___ _ ___
 72
    65
 73
     4
 40
28.575
 49
19.05
 74
     0
 49
-3.175
 74
     0
 49
3.175
 74
     0
 49
-3.175
 74
     0
  0
LTYPE
  5
4002
330
5
100
AcDbSymbolTableRecord
100
AcDbLinetypeTableRecord
  2
DASHED2
 70
     0
  3
Dashed (.5x) _ _ _ _ _ _ _ _ _ _ _ _ _ _ _ _ _
 72
    65
 73
     2
 40
9.525
 49
6.35
 74
     0
 49
-3.175
 74
     0
  0
ENDTAB
  0
TABLE
  2
LAYER
  5
2
102
{ACAD_XDICTIONARY
360
29EA
102
}
330
0
100
AcDbSymbolTable
 70
    13
  0
LAYER
  5
F
330
2
100
AcDbSymbolTableRecord
100
AcDbLayerTableRecord
  2
0
 70
     0
 62
     7
  6
CONTINUOUS
  0
LAYER
  5
61
330
2
100
AcDbSymbolTableRecord
100
AcDbLayerTableRecord
  2
図枠太線
 70
     0
 62
   251
  6
CONTINUOUS
  0
LAYER
  5
62
330
2
100
AcDbSymbolTableRecord
100
AcDbLayerTableRecord
  2
図枠細線
 70
     0
 62
   252
  6
CONTINUOUS
  0
LAYER
  5
63
330
2
100
AcDbSymbolTableRecord
100
AcDbLayerTableRecord
  2
図枠ロゴマーク
 70
     0
 62
   253
  6
CONTINUOUS
  0
LAYER
  5
1EF
330
2
100
AcDbSymbolTableRecord
100
AcDbLayerTableRecord
  2
外形線
 70
     0
 62
     7
  6
CONTINUOUS
  0
LAYER
  5
1F0
330
2
100
AcDbSymbolTableRecord
100
AcDbLayerTableRecord
  2
寸法線
 70
     0
 62
     1
  6
CONTINUOUS
  0
LAYER
  5
1F1
330
2
100
AcDbSymbolTableRecord
100
AcDbLayerTableRecord
  2
中心線
 70
     0
 62
     4
  6
CENTER
  0
LAYER
  5
1F4
330
2
100
AcDbSymbolTableRecord
100
AcDbLayerTableRecord
  2
DEFPOINTS
 70
     0
 62
     7
  6
CONTINUOUS
  0
LAYER
  5
2AA2
330
2
100
AcDbSymbolTableRecord
100
AcDbLayerTableRecord
  2
下書線
 70
     0
 62
     2
  6
CONTINUOUS
  0
LAYER
  5
2AA3
330
2
100
AcDbSymbolTableRecord
100
AcDbLayerTableRecord
  2
隠れ線
 70
     0
 62
     3
  6
DASHED
  0
LAYER
  5
2AA4
330
2
100
AcDbSymbolTableRecord
100
AcDbLayerTableRecord
  2
細線
 70
     0
 62
     6
  6
CONTINUOUS
  0
LAYER
  5
2AA5
330
2
100
AcDbSymbolTableRecord
100
AcDbLayerTableRecord
  2
太線
 70
     0
 62
   190
  6
CONTINUOUS
  0
LAYER
  5
4859
330
2
100
AcDbSymbolTableRecord
100
AcDbLayerTableRecord
  2
寸法線_文字
 70
     0
 62
     1
  6
CONTINUOUS
  0
ENDTAB
  0
TABLE
  2
STYLE
  5
3
330
0
100
AcDbSymbolTable
 70
     2
  0
STYLE
  5
10
330
3
100
AcDbSymbolTableRecord
100
AcDbTextStyleTableRecord
  2
STANDARD
 70
     0
 40
0.0
 41
1.0
 50
0.0
 71
     0
 42
4.0
  3
ISOCP
  4
bigfont.shx
  0
STYLE
  5
64
330
3
100
AcDbSymbolTableRecord
100
AcDbTextStyleTableRecord
  2
EXCADSTD
 70
     0
 40
0.0
 41
1.0
 50
0.0
 71
     0
 42
0.2
  3
monotxt
  4
bigfont
  0
ENDTAB
  0
TABLE
  2
VIEW
  5
6
330
0
100
AcDbSymbolTable
 70
     0
  0
ENDTAB
  0
TABLE
  2
UCS
  5
7
330
0
100
AcDbSymbolTable
 70
     0
  0
ENDTAB
  0
TABLE
  2
APPID
  5
9
330
0
100
AcDbSymbolTable
 70
     6
  0
APPID
  5
11
330
9
100
AcDbSymbolTableRecord
100
AcDbRegAppTableRecord
  2
ACAD
 70
     0
  0
APPID
  5
3507
330
9
100
AcDbSymbolTableRecord
100
AcDbRegAppTableRecord
  2
ACAD_DIMASSOC_CALC_DIMLFAC
 70
     0
  0
APPID
  5
3508
330
9
100
AcDbSymbolTableRecord
100
AcDbRegAppTableRecord
  2
ACAD_DIMASSOC_DIMLFAC
 70
     0
  0
APPID
  5
3509
330
9
100
AcDbSymbolTableRecord
100
AcDbRegAppTableRecord
  2
ACAD_DIMASSOC_OVERRIDDEN_D
 70
     0
  0
APPID
  5
5402
330
9
100
AcDbSymbolTableRecord
100
AcDbRegAppTableRecord
  2
ACADANNOTATIVE
 70
     0
  0
APPID
  5
5466
330
9
100
AcDbSymbolTableRecord
100
AcDbRegAppTableRecord
  2
ACAD_MLEADERVER
 70
     0
  0
ENDTAB
  0
TABLE
  2
DIMSTYLE
  5
A
330
0
100
AcDbSymbolTable
 70
     2
  0
DIMSTYLE
105
1D
330
A
100
AcDbSymbolTableRecord
100
AcDbDimStyleTableRecord
  2
STANDARD
 70
     0
  3

  4

  5

  6

  7

 40
1.0
 41
0.18
 42
0.0625
 43
0.38
 44
0.18
 45
0.0
 46
0.0
 47
0.0
 48
0.0
140
0.18
141
0.09
142
0.0
143
25.4
144
1.0
145
0.0
146
1.0
147
0.09
 71
     0
 72
     0
 73
     1
 74
     1
 75
     0
 76
     0
 77
     0
 78
     0
170
     0
171
     2
172
     0
173
     0
174
     0
175
     0
176
     0
177
     0
178
     0
270
     2
271
     4
272
     4
273
     2
274
     2
340
10
275
     0
280
     0
281
     0
282
     0
283
     1
284
     0
285
     0
286
     0
287
     3
288
     0
  0
DIMSTYLE
105
24
102
{ACAD_REACTORS
330
4293
330
4305
330
4337
330
4344
330
4351
330
439F
330
44E5
330
454C
330
4643
330
465D
330
4FE7
330
503C
330
5AFB
330
6202
102
}
330
A
100
AcDbSymbolTableRecord
100
AcDbDimStyleTableRecord
  2
ISO-25
 70
     0
  3

  4

  5

  6

  7

 40
1.0
 41
2.5
 42
0.625
 43
3.75
 44
1.25
 45
0.0
 46
0.0
 47
0.0
 48
0.0
140
2.5
141
2.5
142
0.0
143
0.0394
144
1.0
145
1.0
146
1.0
147
0.625
 71
     0
 72
     0
 73
     1
 74
     0
 75
     0
 76
     0
 77
     1
 78
     8
170
     0
171
     2
172
     1
173
     0
174
     0
175
     0
176
     0
177
     0
178
     0
270
     2
271
     4
272
     4
273
     2
274
     2
340
10
275
     0
280
     0
281
     0
282
     0
283
     1
284
     0
285
     0
286
     0
287
     3
288
     0
  0
ENDTAB
  0
TABLE
  2
BLOCK_RECORD
  5
1
330
0
100
AcDbSymbolTable
 70
    28
  0
BLOCK_RECORD
  5
1A
330
1
100
AcDbSymbolTableRecord
100
AcDbBlockTableRecord
  2
*MODEL_SPACE
  0
BLOCK_RECORD
  5
4F5F
330
1
100
AcDbSymbolTableRecord
100
AcDbBlockTableRecord
  2
*PAPER_SPACE
  0
BLOCK_RECORD
  5
65
330
1
100
AcDbSymbolTableRecord
100
AcDbBlockTableRecord
  2
A$C3392
  0
BLOCK_RECORD
  5
29BF
330
1
100
AcDbSymbolTableRecord
100
AcDbBlockTableRecord
  2
A4横用_タイトル
1001
ACAD
1000
DesignCenter Data
1002
{
1070
     1
1070
     4
1002
}
  0
BLOCK_RECORD
  5
29F4
330
1
100
AcDbSymbolTableRecord
100
AcDbBlockTableRecord
  2
A4縦用_タイトル
1001
ACAD
1000
DesignCenter Data
1002
{
1070
     1
1070
     4
1002
}
  0
BLOCK_RECORD
  5
2A32
330
1
100
AcDbSymbolTableRecord
100
AcDbBlockTableRecord
  2
A3横用_タイトル
1001
ACAD
1000
DesignCenter Data
1002
{
1070
     1
1070
     4
1002
}
  0
BLOCK_RECORD
  5
2A6C
330
1
100
AcDbSymbolTableRecord
100
AcDbBlockTableRecord
  2
A3縦用_タイトル
1001
ACAD
1000
DesignCenter Data
1002
{
1070
     1
1070
     4
1002
}
  0
BLOCK_RECORD
  5
2AF4
330
1
100
AcDbSymbolTableRecord
100
AcDbBlockTableRecord
  2
_OPEN30
  0
BLOCK_RECORD
  5
4294
330
1
100
AcDbSymbolTableRecord
100
AcDbBlockTableRecord
  2
*D6
  0
BLOCK_RECORD
  5
4306
330
1
100
AcDbSymbolTableRecord
100
AcDbBlockTableRecord
  2
*D8
  0
BLOCK_RECORD
  5
4338
330
1
100
AcDbSymbolTableRecord
100
AcDbBlockTableRecord
  2
*D9
  0
BLOCK_RECORD
  5
4345
330
1
100
AcDbSymbolTableRecord
100
AcDbBlockTableRecord
  2
*D10
  0
BLOCK_RECORD
  5
4352
330
1
100
AcDbSymbolTableRecord
100
AcDbBlockTableRecord
  2
*D11
  0
BLOCK_RECORD
  5
43A0
330
1
100
AcDbSymbolTableRecord
100
AcDbBlockTableRecord
  2
*D12
  0
BLOCK_RECORD
  5
44E6
330
1
100
AcDbSymbolTableRecord
100
AcDbBlockTableRecord
  2
*D13
  0
BLOCK_RECORD
  5
454D
330
1
100
AcDbSymbolTableRecord
100
AcDbBlockTableRecord
  2
*D14
  0
BLOCK_RECORD
  5
4644
330
1
100
AcDbSymbolTableRecord
100
AcDbBlockTableRecord
  2
*D16
  0
BLOCK_RECORD
  5
465E
330
1
100
AcDbSymbolTableRecord
100
AcDbBlockTableRecord
  2
*D17
  0
BLOCK_RECORD
  5
4E91
330
1
100
AcDbSymbolTableRecord
100
AcDbBlockTableRecord
  2
静電容量センサ
  0
BLOCK_RECORD
  5
4FA8
330
1
100
AcDbSymbolTableRecord
100
AcDbBlockTableRecord
  2
A3横用_タイトル_２_
  0
BLOCK_RECORD
  5
4FE8
330
1
100
AcDbSymbolTableRecord
100
AcDbBlockTableRecord
  2
*D20
  0
BLOCK_RECORD
  5
503D
330
1
100
AcDbSymbolTableRecord
100
AcDbBlockTableRecord
  2
*D21
  0
BLOCK_RECORD
  5
50B4
330
1
100
AcDbSymbolTableRecord
100
AcDbBlockTableRecord
  2
六角材
1001
ACAD
1000
DesignCenter Data
1002
{
1070
     1
1070
     4
1002
}
  0
BLOCK_RECORD
  5
5AFC
330
1
100
AcDbSymbolTableRecord
100
AcDbBlockTableRecord
  2
*D25
  0
BLOCK_RECORD
  5
6203
330
1
100
AcDbSymbolTableRecord
100
AcDbBlockTableRecord
  2
*D27
  0
ENDTAB
  0
ENDSEC
  0
SECTION
  2
BLOCKS
  0
BLOCK
  5
1B
330
1A
100
AcDbEntity
  8
0
100
AcDbBlockBegin
  2
*MODEL_SPACE
 70
     0
 10
0.0
 20
0.0
 30
0.0
  3
*MODEL_SPACE
  1

  0
ENDBLK
  5
1C
330
1A
100
AcDbEntity
  8
0
100
AcDbBlockEnd
  0
BLOCK
  5
4F60
330
4F5F
100
AcDbEntity
 67
     1
  8
0
 48
10.0
100
AcDbBlockBegin
  2
*PAPER_SPACE
 70
     0
 10
0.0
 20
0.0
 30
0.0
  3
*PAPER_SPACE
  1

  0
ENDBLK
  5
4F6D
330
4F5F
100
AcDbEntity
 67
     1
  8
0
 48
10.0
100
AcDbBlockEnd
  0
BLOCK
  5
93
330
65
100
AcDbEntity
  8
0
100
AcDbBlockBegin
  2
A$C3392
 70
     0
 10
0.0
 20
0.0
 30
0.0
  3
A$C3392
  1

  0
LINE
  5
66
330
65
100
AcDbEntity
  8
図枠太線
  6
CONTINUOUS
100
AcDbLine
 10
211.858584505185
 20
30.927375675439
 30
0.0
 11
211.858584505185
 21
0.927375675439
 31
0.0
  0
LINE
  5
67
330
65
100
AcDbEntity
  8
図枠細線
  6
CONTINUOUS
100
AcDbLine
 10
231.858592505185
 20
15.927377675439
 30
0.0
 11
287.858592505185
 21
15.927375675439
 31
0.0
  0
LINE
  5
68
330
65
100
AcDbEntity
  8
図枠細線
  6
CONTINUOUS
100
AcDbLine
 10
211.858592505185
 20
15.927377675439
 30
0.0
 11
231.858592505185
 21
15.927377675439
 31
0.0
  0
LINE
  5
69
330
65
100
AcDbEntity
  8
図枠太線
  6
CONTINUOUS
 62
   251
100
AcDbLine
 10
1.858584505185
 20
0.927375675439
 30
0.0
 11
1.858584505185
 21
275.927375675439
 31
0.0
  0
TEXT
  5
6A
330
65
100
AcDbEntity
  8
図枠細線
  6
CONTINUOUS
 62
   252
100
AcDbText
 10
351.358592505185
 20
28.427377675439
 30
0.0
 40
2.0
  1
ＴＩＴＬＥ
 41
0.903614457831
  7
EXCADSTD
 72
     5
 11
361.358592505185
 21
28.427377675439
 31
0.0
100
AcDbText
  0
TEXT
  5
6B
330
65
100
AcDbEntity
  8
図枠細線
  6
CONTINUOUS
 62
   252
100
AcDbText
 10
345.358592505185
 20
28.427377675439
 30
0.0
 40
2.0
  1
名称
 41
1.171875
  7
EXCADSTD
 72
     5
 11
350.358592505185
 21
28.427377675439
 31
0.0
100
AcDbText
  0
TEXT
  5
6C
330
65
100
AcDbEntity
  8
図枠細線
  6
CONTINUOUS
 62
   252
100
AcDbText
 10
274.358592505185
 20
25.927377675439
 30
0.0
 40
2.0
  1
ＤＲＡＷＮ
 41
0.882352941176
  7
EXCADSTD
 72
     5
 11
284.358592505185
 21
25.927377675439
 31
0.0
100
AcDbText
  0
TEXT
  5
6D
330
65
100
AcDbEntity
  8
図枠細線
  6
CONTINUOUS
 62
   252
100
AcDbText
 10
260.358592505185
 20
25.927377675439
 30
0.0
 40
2.0
  1
ＤＥＳＩＧＮＥＤ
 41
0.713043472041
  7
EXCADSTD
 72
     5
 11
273.478592390744
 21
25.927377675439
 31
0.0
100
AcDbText
  0
TEXT
  5
6E
330
65
100
AcDbEntity
  8
図枠細線
  6
CONTINUOUS
 62
   252
100
AcDbText
 10
246.358592505185
 20
25.927377675439
 30
0.0
 40
2.0
  1
ＣＨＥＣＫＥＤ
 41
0.831249989569
  7
EXCADSTD
 72
     5
 11
259.658592338292
 21
25.927377675439
 31
0.0
100
AcDbText
  0
TEXT
  5
6F
330
65
100
AcDbEntity
  8
図枠細線
  6
CONTINUOUS
 62
   252
100
AcDbText
 10
274.358592505185
 20
28.427377675439
 30
0.0
 40
2.0
  1
製図
 41
1.209677419355
  7
EXCADSTD
 72
     5
 11
279.358592505185
 21
28.427377675439
 31
0.0
100
AcDbText
  0
TEXT
  5
70
330
65
100
AcDbEntity
  8
図枠細線
  6
CONTINUOUS
 62
   252
100
AcDbText
 10
260.358592505185
 20
28.427377675439
 30
0.0
 40
2.0
  1
設計
 41
1.171875
  7
EXCADSTD
 72
     5
 11
265.358592505185
 21
28.427377675439
 31
0.0
100
AcDbText
  0
TEXT
  5
71
330
65
100
AcDbEntity
  8
図枠細線
  6
CONTINUOUS
 62
   252
100
AcDbText
 10
246.358592505185
 20
28.427377675439
 30
0.0
 40
2.0
  1
検図
 41
1.209677419355
  7
EXCADSTD
 72
     5
 11
251.358592505185
 21
28.427377675439
 31
0.0
100
AcDbText
  0
TEXT
  5
72
330
65
100
AcDbEntity
  8
図枠細線
  6
CONTINUOUS
 62
   252
100
AcDbText
 10
232.358592505185
 20
25.927377675439
 30
0.0
 40
2.0
  1
ＡＰＰＲＯＶＥＤ
 41
0.695652184279
  7
EXCADSTD
 72
     5
 11
245.15859269592
 21
25.927377675439
 31
0.0
100
AcDbText
  0
TEXT
  5
73
330
65
100
AcDbEntity
  8
図枠細線
  6
CONTINUOUS
 62
   252
100
AcDbText
 10
232.358592505185
 20
28.427377675439
 30
0.0
 40
2.0
  1
承認
 41
1.171875
  7
EXCADSTD
 72
     5
 11
237.358592505185
 21
28.427377675439
 31
0.0
100
AcDbText
  0
TEXT
  5
74
330
65
100
AcDbEntity
  8
図枠細線
  6
CONTINUOUS
 62
   252
100
AcDbText
 10
290.069888505185
 20
2.574868675439
 30
0.0
 40
3.5
  1
ＴＯＷＡ　ＳＥＩＤＥＮ　ＩＮＤＵＳＴＲＩＡＬ　ＣＯ．，ＬＴＤ．
 41
0.414568012377
  7
EXCADSTD
 72
     5
 11
342.692388209546
 21
2.574868675439
 31
0.0
100
AcDbText
  0
TEXT
  5
75
330
65
100
AcDbEntity
  8
図枠ロゴマーク
  6
CONTINUOUS
 62
   253
100
AcDbText
 10
290.107348505185
 20
7.519769675439
 30
0.0
 40
7.0
  1
東和制電工業株式会社
 41
0.639204545455
  7
EXCADSTD
 72
     5
 11
342.607348505185
 21
7.519769675439
 31
0.0
100
AcDbText
  0
TEXT
  5
76
330
65
100
AcDbEntity
  8
図枠細線
  6
CONTINUOUS
 62
   252
100
AcDbText
 10
232.499705505185
 20
5.759088675439
 30
0.0
 40
2.0
  1
ＰＲＯＪＥＣＴＩＯＮ
 41
0.754285710199
  7
EXCADSTD
 72
     5
 11
250.099705409817
 21
5.759088675439
 31
0.0
100
AcDbText
  0
TEXT
  5
77
330
65
100
AcDbEntity
  8
図枠細線
  6
CONTINUOUS
 62
   252
100
AcDbText
 10
232.574629505185
 20
8.681077675439
 30
0.0
 40
2.0
  1
ＴＨＩＲＤ　ＡＮＧＬＥ
 41
0.691099486738
  7
EXCADSTD
 72
     5
 11
250.174629767445
 21
8.681077675439
 31
0.0
100
AcDbText
  0
TEXT
  5
78
330
65
100
AcDbEntity
  8
図枠細線
  6
CONTINUOUS
 62
   252
100
AcDbText
 10
256.823999505185
 20
13.427377675439
 30
0.0
 40
2.0
  1
ＳＣＡＬＥ
 41
0.903614457831
  7
EXCADSTD
 72
     5
 11
266.823999505185
 21
13.427377675439
 31
0.0
100
AcDbText
  0
TEXT
  5
79
330
65
100
AcDbEntity
  8
図枠細線
  6
CONTINUOUS
 62
   252
100
AcDbText
 10
274.858592505185
 20
13.427377675439
 30
0.0
 40
2.0
  1
ＤＡＴＥ
 41
0.923076923077
  7
EXCADSTD
 72
     5
 11
282.858592505185
 21
13.427377675439
 31
0.0
100
AcDbText
  0
TEXT
  5
7A
330
65
100
AcDbEntity
  8
図枠細線
  6
CONTINUOUS
 62
   252
100
AcDbText
 10
356.358592505185
 20
13.427377675439
 30
0.0
 40
2.0
  1
ＤＲＧ．ＮＯ．
 41
0.9375
  7
EXCADSTD
 72
     5
 11
370.358592505185
 21
13.427377675439
 31
0.0
100
AcDbText
  0
TEXT
  5
7B
330
65
100
AcDbEntity
  8
図枠細線
  6
CONTINUOUS
 62
   252
100
AcDbText
 10
345.358592505185
 20
13.427377675439
 30
0.0
 40
2.0
  1
図面番号
 41
1.102941176471
  7
EXCADSTD
 72
     5
 11
355.358592505185
 21
13.427377675439
 31
0.0
100
AcDbText
  0
TEXT
  5
7C
330
65
100
AcDbEntity
  8
図枠細線
  6
CONTINUOUS
 62
   252
100
AcDbText
 10
269.358592505185
 20
13.427377675439
 30
0.0
 40
2.0
  1
日付
 41
1.171875
  7
EXCADSTD
 72
     5
 11
274.358592505185
 21
13.427377675439
 31
0.0
100
AcDbText
  0
TEXT
  5
7D
330
65
100
AcDbEntity
  8
図枠細線
  6
CONTINUOUS
 62
   252
100
AcDbText
 10
251.451512505185
 20
13.427377675439
 30
0.0
 40
2.0
  1
尺度
 41
1.171875
  7
EXCADSTD
 72
     5
 11
256.451512505185
 21
13.427377675439
 31
0.0
100
AcDbText
  0
TEXT
  5
7E
330
65
100
AcDbEntity
  8
図枠細線
  6
CONTINUOUS
 62
   252
100
AcDbText
 10
232.358592505185
 20
13.427377675439
 30
0.0
 40
2.0
  1
第三角法
 41
1.102941176471
  7
EXCADSTD
 72
     5
 11
242.358592505185
 21
13.427377675439
 31
0.0
100
AcDbText
  0
TEXT
  5
7F
330
65
100
AcDbEntity
  8
図枠細線
  6
CONTINUOUS
 62
   252
100
AcDbText
 10
212.358592505185
 20
28.427377675439
 30
0.0
 40
2.0
  1
ＮＯＴＥ
 41
0.923076923077
  7
EXCADSTD
 72
     5
 11
220.358592505185
 21
28.427377675439
 31
0.0
100
AcDbText
  0
LINE
  5
80
330
65
100
AcDbEntity
  8
図枠細線
  6
CONTINUOUS
 62
   252
100
AcDbLine
 10
287.858592505185
 20
23.427375675439
 30
0.0
 11
344.858592505185
 21
23.427375675439
 31
0.0
  0
LINE
  5
81
330
65
100
AcDbEntity
  8
図枠太線
  6
CONTINUOUS
 62
   251
100
AcDbLine
 10
287.858584505185
 20
15.927375675439
 30
0.0
 11
344.858592505185
 21
15.927375675439
 31
0.0
  0
LINE
  5
82
330
65
100
AcDbEntity
  8
図枠細線
  6
CONTINUOUS
 62
   252
100
AcDbLine
 10
344.858592505185
 20
15.927375675439
 30
0.0
 11
401.858584505185
 21
15.927375675439
 31
0.0
  0
LINE
  5
83
330
65
100
AcDbEntity
  8
図枠太線
  6
CONTINUOUS
 62
   251
100
AcDbLine
 10
344.858592505185
 20
0.927377675439
 30
0.0
 11
344.858592505185
 21
30.927375675439
 31
0.0
  0
LINE
  5
84
330
65
100
AcDbEntity
  8
図枠太線
  6
CONTINUOUS
 62
   251
100
AcDbLine
 10
287.858592505185
 20
0.927377675439
 30
0.0
 11
287.858592505185
 21
30.927375675439
 31
0.0
  0
LINE
  5
85
330
65
100
AcDbEntity
  8
図枠細線
  6
CONTINUOUS
 62
   252
100
AcDbLine
 10
268.858592505185
 20
0.927377675439
 30
0.0
 11
268.858592505185
 21
15.927375675439
 31
0.0
  0
LINE
  5
86
330
65
100
AcDbEntity
  8
図枠細線
  6
CONTINUOUS
 62
   252
100
AcDbLine
 10
250.858592505185
 20
0.927377675439
 30
0.0
 11
250.858592505185
 21
15.927375675439
 31
0.0
  0
LINE
  5
87
330
65
100
AcDbEntity
  8
図枠細線
  6
CONTINUOUS
 62
   252
100
AcDbLine
 10
273.858592505185
 20
30.927375675439
 30
0.0
 11
273.858592505185
 21
15.927375675439
 31
0.0
  0
LINE
  5
88
330
65
100
AcDbEntity
  8
図枠細線
  6
CONTINUOUS
 62
   252
100
AcDbLine
 10
259.858592505185
 20
30.927375675439
 30
0.0
 11
259.858592505185
 21
15.927375675439
 31
0.0
  0
LINE
  5
89
330
65
100
AcDbEntity
  8
図枠細線
  6
CONTINUOUS
 62
   252
100
AcDbLine
 10
245.858592505185
 20
30.927375675439
 30
0.0
 11
245.858592505185
 21
15.927375675439
 31
0.0
  0
LINE
  5
8A
330
65
100
AcDbEntity
  8
図枠太線
  6
CONTINUOUS
 62
   251
100
AcDbLine
 10
231.858592505185
 20
0.927377675439
 30
0.0
 11
231.858592505185
 21
30.927375675439
 31
0.0
  0
LINE
  5
8B
330
65
100
AcDbEntity
  8
図枠細線
  6
CONTINUOUS
 62
   252
100
AcDbLine
 10
211.858592505185
 20
25.927375675439
 30
0.0
 11
231.858592505185
 21
25.927375675439
 31
0.0
  0
LINE
  5
8C
330
65
100
AcDbEntity
  8
図枠細線
  6
CONTINUOUS
 62
   252
100
AcDbLine
 10
211.858592505185
 20
20.927375675439
 30
0.0
 11
231.858592505185
 21
20.927375675439
 31
0.0
  0
LINE
  5
8D
330
65
100
AcDbEntity
  8
図枠細線
  6
CONTINUOUS
 62
   252
100
AcDbLine
 10
211.858592505185
 20
10.927375675439
 30
0.0
 11
231.858592505185
 21
10.927375675439
 31
0.0
  0
LINE
  5
8E
330
65
100
AcDbEntity
  8
図枠細線
  6
CONTINUOUS
 62
   252
100
AcDbLine
 10
211.858592505185
 20
5.927377675439
 30
0.0
 11
231.858592505185
 21
5.927377675439
 31
0.0
  0
LINE
  5
8F
330
65
100
AcDbEntity
  8
図枠太線
  6
CONTINUOUS
 62
   251
100
AcDbLine
 10
211.858592505185
 20
30.927375675439
 30
0.0
 11
401.858584505185
 21
30.927375675439
 31
0.0
  0
LINE
  5
90
330
65
100
AcDbEntity
  8
図枠太線
  6
CONTINUOUS
 62
   251
100
AcDbLine
 10
1.858584505185
 20
275.927375675439
 30
0.0
 11
401.858584505185
 21
275.927375675439
 31
0.0
  0
LINE
  5
91
330
65
100
AcDbEntity
  8
図枠太線
  6
CONTINUOUS
 62
   251
100
AcDbLine
 10
401.858584505185
 20
0.927375675439
 30
0.0
 11
401.858584505185
 21
275.927375675439
 31
0.0
  0
LINE
  5
92
330
65
100
AcDbEntity
  8
図枠太線
  6
CONTINUOUS
 62
   251
100
AcDbLine
 10
1.858584505185
 20
0.927375675439
 30
0.0
 11
401.858584505185
 21
0.927375675439
 31
0.0
  0
ENDBLK
  5
94
330
65
100
AcDbEntity
  8
0
100
AcDbBlockEnd
  0
BLOCK
  5
29C0
330
29BF
100
AcDbEntity
  8
0
100
AcDbBlockBegin
  2
A4横用_タイトル
 70
     0
 10
0.0
 20
0.0
 30
0.0
  3
A4横用_タイトル
  1

  0
LINE
  5
29C1
330
29BF
100
AcDbEntity
  8
図枠細線
  6
CONTINUOUS
100
AcDbLine
 10
75.061011071051
 20
16.806607253358
 30
0.0
 11
144.061011071051
 21
16.806604789072
 31
0.0
  0
LINE
  5
29C2
330
29BF
100
AcDbEntity
  8
図枠細線
  6
CONTINUOUS
 62
   252
100
AcDbLine
 10
4.061011071051
 20
11.806606253358
 30
0.0
 11
75.061011071051
 21
11.806606253358
 31
0.0
  0
LINE
  5
29C3
330
29BF
100
AcDbEntity
  8
図枠細線
  6
CONTINUOUS
 62
   252
100
AcDbLine
 10
4.061011071051
 20
21.806606253358
 30
0.0
 11
75.061011071051
 21
21.806606253358
 31
0.0
  0
LINE
  5
29C4
330
29BF
100
AcDbEntity
  8
図枠細線
  6
CONTINUOUS
 62
   252
100
AcDbLine
 10
4.061011071051
 20
26.806606253358
 30
0.0
 11
75.061011071051
 21
26.806606253358
 31
0.0
  0
LINE
  5
29C5
330
29BF
100
AcDbEntity
  8
図枠細線
  6
CONTINUOUS
100
AcDbLine
 10
4.061011071051
 20
16.806608253358
 30
0.0
 11
75.061011071051
 21
16.806608253358
 31
0.0
  0
TEXT
  5
29C6
330
29BF
100
AcDbEntity
  8
図枠細線
  6
CONTINUOUS
 62
   252
100
AcDbText
 10
76.405475827713
 20
9.560308253358
 30
0.0
 40
2.0
  1
ＴＨＩＲＤ　ＡＮＧＬＥ
 41
0.691099486738
  7
EXCADSTD
 72
     5
 11
94.005476089973
 21
9.560308253358
 31
0.0
100
AcDbText
  0
TEXT
  5
29C7
330
29BF
100
AcDbEntity
  8
図枠細線
  6
CONTINUOUS
 62
   252
100
AcDbText
 10
76.705775880921
 20
14.306608253358
 30
0.0
 40
2.0
  1
第三角法
 41
1.102941176471
  7
EXCADSTD
 72
     5
 11
86.705775880921
 21
14.306608253358
 31
0.0
100
AcDbText
  0
TEXT
  5
29C8
330
29BF
100
AcDbEntity
  8
図枠細線
  6
CONTINUOUS
 62
   252
100
AcDbText
 10
76.705775880921
 20
26.806608253358
 30
0.0
 40
2.0
  1
ＡＰＰＲＯＶＥＤ
 41
0.695652184279
  7
EXCADSTD
 72
     5
 11
89.505776071656
 21
26.806608253358
 31
0.0
100
AcDbText
  0
TEXT
  5
29C9
330
29BF
100
AcDbEntity
  8
図枠細線
  6
CONTINUOUS
 62
   252
100
AcDbText
 10
76.705775880921
 20
29.306608253358
 30
0.0
 40
2.0
  1
承認
 41
1.171875
  7
EXCADSTD
 72
     5
 11
81.705775880921
 21
29.306608253358
 31
0.0
100
AcDbText
  0
LINE
  5
29CA
330
29BF
100
AcDbEntity
  8
図枠細線
  6
CONTINUOUS
 62
   252
100
AcDbLine
 10
98.061011071051
 20
31.806606253358
 30
0.0
 11
98.061011071051
 21
16.806606253358
 31
0.0
  0
TEXT
  5
29CB
330
29BF
100
AcDbEntity
  8
図枠細線
  6
CONTINUOUS
 62
   252
100
AcDbText
 10
104.216531119804
 20
14.306608253358
 30
0.0
 40
2.0
  1
ＳＣＡＬＥ
 41
0.903614457831
  7
EXCADSTD
 72
     5
 11
114.216531119804
 21
14.306608253358
 31
0.0
100
AcDbText
  0
TEXT
  5
29CC
330
29BF
100
AcDbEntity
  8
図枠細線
  6
CONTINUOUS
 62
   252
100
AcDbText
 10
98.844044119804
 20
14.306608253358
 30
0.0
 40
2.0
  1
尺度
 41
1.171875
  7
EXCADSTD
 72
     5
 11
103.844044119804
 21
14.306608253358
 31
0.0
100
AcDbText
  0
TEXT
  5
29CD
330
29BF
100
AcDbEntity
  8
図枠細線
  6
CONTINUOUS
 62
   252
100
AcDbText
 10
98.968727707497
 20
26.806608253358
 30
0.0
 40
2.0
  1
ＣＨＥＣＫＥＤ
 41
0.831249989569
  7
EXCADSTD
 72
     5
 11
112.268727540604
 21
26.806608253358
 31
0.0
100
AcDbText
  0
TEXT
  5
29CE
330
29BF
100
AcDbEntity
  8
図枠細線
  6
CONTINUOUS
 62
   252
100
AcDbText
 10
98.968727707497
 20
29.306608253358
 30
0.0
 40
2.0
  1
検図
 41
1.209677419355
  7
EXCADSTD
 72
     5
 11
103.968727707497
 21
29.306608253358
 31
0.0
100
AcDbText
  0
LINE
  5
29CF
330
29BF
100
AcDbEntity
  8
図枠細線
  6
CONTINUOUS
 62
   252
100
AcDbLine
 10
121.061011071051
 20
31.806606253358
 30
0.0
 11
121.061011071051
 21
16.806606253358
 31
0.0
  0
TEXT
  5
29D0
330
29BF
100
AcDbEntity
  8
図枠細線
  6
CONTINUOUS
 62
   252
100
AcDbText
 10
128.001465247253
 20
14.306608253358
 30
0.0
 40
2.0
  1
ＤＡＴＥ
 41
0.923076923077
  7
EXCADSTD
 72
     5
 11
136.001465247253
 21
14.306608253358
 31
0.0
100
AcDbText
  0
TEXT
  5
29D1
330
29BF
100
AcDbEntity
  8
図枠細線
  6
CONTINUOUS
 62
   252
100
AcDbText
 10
122.066415498841
 20
14.306608253358
 30
0.0
 40
2.0
  1
日付
 41
1.171875
  7
EXCADSTD
 72
     5
 11
127.066415498841
 21
14.306608253358
 31
0.0
100
AcDbText
  0
TEXT
  5
29D2
330
29BF
100
AcDbEntity
  8
図枠細線
  6
CONTINUOUS
 62
   252
100
AcDbText
 10
121.59429406571
 20
29.306608253358
 30
0.0
 40
2.0
  1
製図
 41
1.209677419355
  7
EXCADSTD
 72
     5
 11
126.59429406571
 21
29.306608253358
 31
0.0
100
AcDbText
  0
TEXT
  5
29D3
330
29BF
100
AcDbEntity
  8
図枠細線
  6
CONTINUOUS
 62
   252
100
AcDbText
 10
121.59429406571
 20
26.806608253358
 30
0.0
 40
2.0
  1
ＤＲＡＷＮ
 41
0.882352941176
  7
EXCADSTD
 72
     5
 11
131.59429406571
 21
26.806608253358
 31
0.0
100
AcDbText
  0
TEXT
  5
29D4
330
29BF
100
AcDbEntity
  8
図枠細線
  6
CONTINUOUS
 62
   252
100
AcDbText
 10
226.591229661348
 20
14.306608253358
 30
0.0
 40
2.0
  1
ＤＲＧ．ＮＯ．
 41
0.9375
  7
EXCADSTD
 72
     5
 11
240.591229661348
 21
14.306608253358
 31
0.0
100
AcDbText
  0
LINE
  5
29D5
330
29BF
100
AcDbEntity
  8
図枠太線
  6
CONTINUOUS
 62
   251
100
AcDbLine
 10
144.061003071051
 20
16.806606253358
 30
0.0
 11
214.061011071051
 21
16.806606253358
 31
0.0
  0
LINE
  5
29D6
330
29BF
100
AcDbEntity
  8
図枠細線
  6
CONTINUOUS
 62
   252
100
AcDbLine
 10
144.061011071051
 20
24.306606253358
 30
0.0
 11
214.061011071051
 21
24.306606253358
 31
0.0
  0
TEXT
  5
29D7
330
29BF
100
AcDbEntity
  8
図枠ロゴマーク
  6
CONTINUOUS
 62
   253
100
AcDbText
 10
146.433776781596
 20
8.399000253358
 30
0.0
 40
7.0
  1
東和制電工業株式会社
 41
0.80361088462
  7
EXCADSTD
 72
     5
 11
212.437017438349
 21
8.399000253358
 31
0.0
100
AcDbText
  0
TEXT
  5
29D8
330
29BF
100
AcDbEntity
  8
図枠細線
  6
CONTINUOUS
 62
   252
100
AcDbText
 10
215.156179912936
 20
14.306608253358
 30
0.0
 40
2.0
  1
図面番号
 41
1.102941176471
  7
EXCADSTD
 72
     5
 11
225.156179912936
 21
14.306608253358
 31
0.0
100
AcDbText
  0
TEXT
  5
29D9
330
29BF
100
AcDbEntity
  8
図枠細線
  6
CONTINUOUS
 62
   252
100
AcDbText
 10
221.591229661348
 20
29.306608253358
 30
0.0
 40
2.0
  1
ＴＩＴＬＥ
 41
0.903614457831
  7
EXCADSTD
 72
     5
 11
231.591229661348
 21
29.306608253358
 31
0.0
100
AcDbText
  0
TEXT
  5
29DA
330
29BF
100
AcDbEntity
  8
図枠細線
  6
CONTINUOUS
 62
   252
100
AcDbText
 10
215.156179912936
 20
29.306608253358
 30
0.0
 40
2.0
  1
名称
 41
1.171875
  7
EXCADSTD
 72
     5
 11
220.156179912936
 21
29.306608253358
 31
0.0
100
AcDbText
  0
LINE
  5
29DB
330
29BF
100
AcDbEntity
  8
図枠太線
  6
CONTINUOUS
 62
   251
100
AcDbLine
 10
4.061011071051
 20
1.806608253358
 30
0.0
 11
284.061011071051
 21
1.806608253358
 31
0.0
  0
LINE
  5
29DC
330
29BF
100
AcDbEntity
  8
図枠細線
  6
CONTINUOUS
 62
   252
100
AcDbLine
 10
4.061011071051
 20
6.806608253358
 30
0.0
 11
75.061011071051
 21
6.806608253358
 31
0.0
  0
LINE
  5
29DD
330
29BF
100
AcDbEntity
  8
図枠太線
  6
CONTINUOUS
 62
   251
100
AcDbLine
 10
75.061011071051
 20
1.806608253358
 30
0.0
 11
75.061011071051
 21
31.806606253358
 31
0.0
  0
TEXT
  5
29DE
330
29BF
100
AcDbEntity
  8
図枠細線
  6
CONTINUOUS
 62
   252
100
AcDbText
 10
76.330551827713
 20
6.638319253358
 30
0.0
 40
2.0
  1
ＰＲＯＪＥＣＴＩＯＮ
 41
0.754285710199
  7
EXCADSTD
 72
     5
 11
93.930551732346
 21
6.638319253358
 31
0.0
100
AcDbText
  0
LINE
  5
29DF
330
29BF
100
AcDbEntity
  8
図枠細線
  6
CONTINUOUS
 62
   252
100
AcDbLine
 10
98.061011071051
 20
1.806606931929
 30
0.0
 11
98.061011071051
 21
16.806604931929
 31
0.0
  0
LINE
  5
29E0
330
29BF
100
AcDbEntity
  8
図枠細線
  6
CONTINUOUS
 62
   252
100
AcDbLine
 10
121.061011071051
 20
1.806607574787
 30
0.0
 11
121.061011071051
 21
16.806605574787
 31
0.0
  0
LINE
  5
29E1
330
29BF
100
AcDbEntity
  8
図枠太線
  6
CONTINUOUS
 62
   251
100
AcDbLine
 10
284.061011071051
 20
1.806608253358
 30
0.0
 11
284.061011071051
 21
31.806606253358
 31
0.0
  0
LINE
  5
29E2
330
29BF
100
AcDbEntity
  8
図枠細線
  6
CONTINUOUS
 62
   252
100
AcDbLine
 10
214.061011071051
 20
16.806606253358
 30
0.0
 11
284.061011071051
 21
16.806606253358
 31
0.0
  0
TEXT
  5
29E3
330
29BF
100
AcDbEntity
  8
図枠細線
  6
CONTINUOUS
 62
   252
100
AcDbText
 10
146.199593676182
 20
3.454099253358
 30
0.0
 40
3.5
  1
ＴＯＷＡ　ＳＥＩＤＥＮ　ＩＮＤＵＳＴＲＩＡＬ　ＣＯ．，ＬＴＤ．
 41
0.528937826907
  7
EXCADSTD
 72
     5
 11
213.339435171588
 21
3.454099253358
 31
0.0
100
AcDbText
  0
LINE
  5
29E4
330
29BF
100
AcDbEntity
  8
図枠太線
  6
CONTINUOUS
 62
   251
100
AcDbLine
 10
144.061011071051
 20
1.806608253358
 30
0.0
 11
144.061011071051
 21
31.806606253358
 31
0.0
  0
LINE
  5
29E5
330
29BF
100
AcDbEntity
  8
図枠太線
  6
CONTINUOUS
 62
   251
100
AcDbLine
 10
214.061011071051
 20
1.806608253358
 30
0.0
 11
214.061011071051
 21
31.806606253358
 31
0.0
  0
MTEXT
  5
29E6
330
29BF
100
AcDbEntity
  8
図枠太線
100
AcDbMText
 10
5.064337346478
 20
31.010982137407
 30
0.0
 40
2.5
 41
8.67856098472
 71
     1
 72
     5
  1
{\Fmonotxt.shx,bigfont.shx|c128;図暦}
  0
LINE
  5
29E7
330
29BF
100
AcDbEntity
  8
図枠太線
  6
CONTINUOUS
 62
   251
100
AcDbLine
 10
4.061011071051
 20
1.806608253358
 30
0.0
 11
4.061011071051
 21
31.806606253358
 31
0.0
  0
TEXT
  5
29E8
330
29BF
100
AcDbEntity
  8
図枠細線
 48
10.0
100
AcDbText
 10
12.260817420402
 20
28.625419626495
 30
0.0
 40
2.0
  1
CHANGE NOTICE
100
AcDbText
  0
ENDBLK
  5
29E9
330
29BF
100
AcDbEntity
  8
0
100
AcDbBlockEnd
  0
BLOCK
  5
29F5
330
29F4
100
AcDbEntity
  8
0
100
AcDbBlockBegin
  2
A4縦用_タイトル
 70
     0
 10
0.0
 20
0.0
 30
0.0
  3
A4縦用_タイトル
  1

  0
LINE
  5
29F6
330
29F4
100
AcDbEntity
  8
図枠太線
  6
CONTINUOUS
 62
   251
100
AcDbLine
 10
2.368253864267
 20
4.525433224584
 30
0.0
 11
192.368245864267
 21
4.525433224584
 31
0.0
  0
LINE
  5
29F7
330
29F4
100
AcDbEntity
  8
図枠太線
  6
CONTINUOUS
 62
   251
100
AcDbLine
 10
78.368245864267
 20
19.525431224584
 30
0.0
 11
135.368253864267
 21
19.525431224584
 31
0.0
  0
LINE
  5
29F8
330
29F4
100
AcDbEntity
  8
図枠細線
  6
CONTINUOUS
 62
   252
100
AcDbLine
 10
78.368253864267
 20
27.025431224584
 30
0.0
 11
135.368253864267
 21
27.025431224584
 31
0.0
  0
TEXT
  5
29F9
330
29F4
100
AcDbEntity
  8
図枠ロゴマーク
  6
CONTINUOUS
 62
   253
100
AcDbText
 10
80.617009864267
 20
11.117825224584
 30
0.0
 40
7.0
  1
東和制電工業株式会社
 41
0.639204545455
  7
EXCADSTD
 72
     5
 11
133.117009864267
 21
11.117825224584
 31
0.0
100
AcDbText
  0
TEXT
  5
29FA
330
29F4
100
AcDbEntity
  8
図枠細線
  6
CONTINUOUS
 62
   252
100
AcDbText
 10
80.579549864267
 20
6.172924224584
 30
0.0
 40
3.5
  1
ＴＯＷＡ　ＳＥＩＤＥＮ　ＩＮＤＵＳＴＲＩＡＬ　ＣＯ．，ＬＴＤ．
 41
0.414568012377
  7
EXCADSTD
 72
     5
 11
133.202049568628
 21
6.172924224584
 31
0.0
100
AcDbText
  0
LINE
  5
29FB
330
29F4
100
AcDbEntity
  8
図枠太線
  6
CONTINUOUS
 62
   251
100
AcDbLine
 10
2.368253864267
 20
4.525433224584
 30
0.0
 11
2.368253864267
 21
34.525431224584
 31
0.0
  0
TEXT
  5
29FC
330
29F4
100
AcDbEntity
  8
図枠細線
  6
CONTINUOUS
 62
   252
100
AcDbText
 10
22.504308136501
 20
12.279133224584
 30
0.0
 40
2.0
  1
ＴＨＩＲＤ　ＡＮＧＬＥ
 41
0.691099486738
  7
EXCADSTD
 72
     5
 11
40.104308398762
 21
12.279133224584
 31
0.0
100
AcDbText
  0
TEXT
  5
29FD
330
29F4
100
AcDbEntity
  8
図枠細線
  6
CONTINUOUS
 62
   252
100
AcDbText
 10
22.429384136501
 20
9.357144224584
 30
0.0
 40
2.0
  1
ＰＲＯＪＥＣＴＩＯＮ
 41
0.754285710199
  7
EXCADSTD
 72
     5
 11
40.029384041134
 21
9.357144224584
 31
0.0
100
AcDbText
  0
LINE
  5
29FE
330
29F4
100
AcDbEntity
  8
図枠細線
  6
CONTINUOUS
100
AcDbLine
 10
22.368253864267
 20
19.525433224584
 30
0.0
 11
78.368253864267
 21
19.525431224584
 31
0.0
  0
TEXT
  5
29FF
330
29F4
100
AcDbEntity
  8
図枠細線
  6
CONTINUOUS
 62
   252
100
AcDbText
 10
22.868253864267
 20
17.025433224584
 30
0.0
 40
2.0
  1
第三角法
 41
1.102941176471
  7
EXCADSTD
 72
     5
 11
32.868253864267
 21
17.025433224584
 31
0.0
100
AcDbText
  0
TEXT
  5
2A00
330
29F4
100
AcDbEntity
  8
図枠細線
  6
CONTINUOUS
 62
   252
100
AcDbText
 10
22.868253864267
 20
29.525433224584
 30
0.0
 40
2.0
  1
ＡＰＰＲＯＶＥＤ
 41
0.695652184279
  7
EXCADSTD
 72
     5
 11
35.668254055002
 21
29.525433224584
 31
0.0
100
AcDbText
  0
LINE
  5
2A01
330
29F4
100
AcDbEntity
  8
図枠細線
  6
CONTINUOUS
 62
   252
100
AcDbLine
 10
2.368253864267
 20
9.525433224584
 30
0.0
 11
22.368253864267
 21
9.525433224584
 31
0.0
  0
LINE
  5
2A02
330
29F4
100
AcDbEntity
  8
図枠細線
  6
CONTINUOUS
 62
   252
100
AcDbLine
 10
2.368253864267
 20
14.525431224584
 30
0.0
 11
22.368253864267
 21
14.525431224584
 31
0.0
  0
LINE
  5
2A03
330
29F4
100
AcDbEntity
  8
図枠細線
  6
CONTINUOUS
 62
   252
100
AcDbLine
 10
2.368253864267
 20
24.525431224584
 30
0.0
 11
22.368253864267
 21
24.525431224584
 31
0.0
  0
LINE
  5
2A04
330
29F4
100
AcDbEntity
  8
図枠細線
  6
CONTINUOUS
 62
   252
100
AcDbLine
 10
2.368253864267
 20
29.525431224584
 30
0.0
 11
22.368253864267
 21
29.525431224584
 31
0.0
  0
LINE
  5
2A05
330
29F4
100
AcDbEntity
  8
図枠細線
  6
CONTINUOUS
100
AcDbLine
 10
2.368253864267
 20
19.525433224584
 30
0.0
 11
22.368253864267
 21
19.525433224584
 31
0.0
  0
TEXT
  5
2A06
330
29F4
100
AcDbEntity
  8
図枠細線
  6
CONTINUOUS
 62
   252
100
AcDbText
 10
2.868253864267
 20
32.025433224584
 30
0.0
 40
2.0
  1
ＮＯＴＥ
 41
0.923076923077
  7
EXCADSTD
 72
     5
 11
10.868253864267
 21
32.025433224584
 31
0.0
100
AcDbText
  0
LINE
  5
2A07
330
29F4
100
AcDbEntity
  8
図枠太線
  6
CONTINUOUS
 62
   251
100
AcDbLine
 10
22.368253864267
 20
4.525433224584
 30
0.0
 11
22.368253864267
 21
34.525431224584
 31
0.0
  0
TEXT
  5
2A08
330
29F4
100
AcDbEntity
  8
図枠細線
  6
CONTINUOUS
 62
   252
100
AcDbText
 10
22.868253864267
 20
32.025433224584
 30
0.0
 40
2.0
  1
承認
 41
1.171875
  7
EXCADSTD
 72
     5
 11
27.868253864267
 21
32.025433224584
 31
0.0
100
AcDbText
  0
TEXT
  5
2A09
330
29F4
100
AcDbEntity
  8
図枠細線
  6
CONTINUOUS
 62
   252
100
AcDbText
 10
60.711709035982
 20
32.025433224584
 30
0.0
 40
2.0
  1
製図
 41
1.209677419355
  7
EXCADSTD
 72
     5
 11
65.711709035982
 21
32.025433224584
 31
0.0
100
AcDbText
  0
TEXT
  5
2A0A
330
29F4
100
AcDbEntity
  8
図枠細線
  6
CONTINUOUS
 62
   252
100
AcDbText
 10
60.711709035982
 20
29.525433224584
 30
0.0
 40
2.0
  1
ＤＲＡＷＮ
 41
0.882352941176
  7
EXCADSTD
 72
     5
 11
70.711709035982
 21
29.525433224584
 31
0.0
100
AcDbText
  0
TEXT
  5
2A0B
330
29F4
100
AcDbEntity
  8
図枠細線
  6
CONTINUOUS
 62
   252
100
AcDbText
 10
60.834891743877
 20
17.025433224584
 30
0.0
 40
2.0
  1
日付
 41
1.171875
  7
EXCADSTD
 72
     5
 11
65.834891743877
 21
17.025433224584
 31
0.0
100
AcDbText
  0
TEXT
  5
2A0C
330
29F4
100
AcDbEntity
  8
図枠細線
  6
CONTINUOUS
 62
   252
100
AcDbText
 10
47.333660864267
 20
17.025433224584
 30
0.0
 40
2.0
  1
ＳＣＡＬＥ
 41
0.903614457831
  7
EXCADSTD
 72
     5
 11
57.333660864267
 21
17.025433224584
 31
0.0
100
AcDbText
  0
TEXT
  5
2A0D
330
29F4
100
AcDbEntity
  8
図枠細線
  6
CONTINUOUS
 62
   252
100
AcDbText
 10
42.281425990082
 20
29.525433224584
 30
0.0
 40
2.0
  1
ＣＨＥＣＫＥＤ
 41
0.831249989569
  7
EXCADSTD
 72
     5
 11
55.581425823189
 21
29.525433224584
 31
0.0
100
AcDbText
  0
LINE
  5
2A0E
330
29F4
100
AcDbEntity
  8
図枠細線
  6
CONTINUOUS
 62
   252
100
AcDbLine
 10
40.968253864267
 20
34.525431224584
 30
0.0
 11
40.968253864267
 21
19.525431224584
 31
0.0
  0
LINE
  5
2A0F
330
29F4
100
AcDbEntity
  8
図枠細線
  6
CONTINUOUS
 62
   252
100
AcDbLine
 10
40.968253864267
 20
4.525433224584
 30
0.0
 11
40.968253864267
 21
19.525431224584
 31
0.0
  0
TEXT
  5
2A10
330
29F4
100
AcDbEntity
  8
図枠細線
  6
CONTINUOUS
 62
   252
100
AcDbText
 10
41.961173864267
 20
17.025433224584
 30
0.0
 40
2.0
  1
尺度
 41
1.171875
  7
EXCADSTD
 72
     5
 11
46.961173864267
 21
17.025433224584
 31
0.0
100
AcDbText
  0
TEXT
  5
2A11
330
29F4
100
AcDbEntity
  8
図枠細線
  6
CONTINUOUS
 62
   252
100
AcDbText
 10
42.281425990082
 20
32.025433224584
 30
0.0
 40
2.0
  1
検図
 41
1.209677419355
  7
EXCADSTD
 72
     5
 11
47.281425990082
 21
32.025433224584
 31
0.0
100
AcDbText
  0
LINE
  5
2A12
330
29F4
100
AcDbEntity
  8
図枠細線
  6
CONTINUOUS
 62
   252
100
AcDbLine
 10
59.768253864267
 20
34.525431224584
 30
0.0
 11
59.768253864267
 21
19.525431224584
 31
0.0
  0
LINE
  5
2A13
330
29F4
100
AcDbEntity
  8
図枠細線
  6
CONTINUOUS
 62
   252
100
AcDbLine
 10
59.768253864267
 20
4.525433224584
 30
0.0
 11
59.768253864267
 21
19.525431224584
 31
0.0
  0
LINE
  5
2A14
330
29F4
100
AcDbEntity
  8
図枠太線
  6
CONTINUOUS
 62
   251
100
AcDbLine
 10
78.368253864267
 20
4.525433224584
 30
0.0
 11
78.368253864267
 21
34.525431224584
 31
0.0
  0
TEXT
  5
2A15
330
29F4
100
AcDbEntity
  8
図枠細線
  6
CONTINUOUS
 62
   252
100
AcDbText
 10
66.334891743877
 20
17.025433224584
 30
0.0
 40
2.0
  1
ＤＡＴＥ
 41
0.923076923077
  7
EXCADSTD
 72
     5
 11
74.334891743877
 21
17.025433224584
 31
0.0
100
AcDbText
  0
LINE
  5
2A16
330
29F4
100
AcDbEntity
  8
図枠細線
  6
CONTINUOUS
 62
   252
100
AcDbLine
 10
135.368253864267
 20
19.525431224584
 30
0.0
 11
192.368245864267
 21
19.525431224584
 31
0.0
  0
TEXT
  5
2A17
330
29F4
100
AcDbEntity
  8
図枠細線
  6
CONTINUOUS
 62
   252
100
AcDbText
 10
141.868253864267
 20
32.025433224584
 30
0.0
 40
2.0
  1
ＴＩＴＬＥ
 41
0.903614457831
  7
EXCADSTD
 72
     5
 11
151.868253864267
 21
32.025433224584
 31
0.0
100
AcDbText
  0
LINE
  5
2A18
330
29F4
100
AcDbEntity
  8
図枠太線
  6
CONTINUOUS
 62
   251
100
AcDbLine
 10
135.368253864267
 20
4.525433224584
 30
0.0
 11
135.368253864267
 21
34.525431224584
 31
0.0
  0
TEXT
  5
2A19
330
29F4
100
AcDbEntity
  8
図枠細線
  6
CONTINUOUS
 62
   252
100
AcDbText
 10
135.868253864267
 20
17.025433224584
 30
0.0
 40
2.0
  1
図面番号
 41
1.102941176471
  7
EXCADSTD
 72
     5
 11
145.868253864267
 21
17.025433224584
 31
0.0
100
AcDbText
  0
TEXT
  5
2A1A
330
29F4
100
AcDbEntity
  8
図枠細線
  6
CONTINUOUS
 62
   252
100
AcDbText
 10
135.868253864267
 20
32.025433224584
 30
0.0
 40
2.0
  1
名称
 41
1.171875
  7
EXCADSTD
 72
     5
 11
140.868253864267
 21
32.025433224584
 31
0.0
100
AcDbText
  0
TEXT
  5
2A1B
330
29F4
100
AcDbEntity
  8
図枠細線
  6
CONTINUOUS
 62
   252
100
AcDbText
 10
146.868253864267
 20
17.025433224584
 30
0.0
 40
2.0
  1
ＤＲＧ．ＮＯ．
 41
0.9375
  7
EXCADSTD
 72
     5
 11
160.868253864267
 21
17.025433224584
 31
0.0
100
AcDbText
  0
LINE
  5
2A1C
330
29F4
100
AcDbEntity
  8
図枠太線
  6
CONTINUOUS
 62
   251
100
AcDbLine
 10
192.368245864267
 20
4.525433224584
 30
0.0
 11
192.368245864267
 21
34.525431224584
 31
0.0
  0
ENDBLK
  5
2A1D
330
29F4
100
AcDbEntity
  8
0
100
AcDbBlockEnd
  0
BLOCK
  5
2A33
330
2A32
100
AcDbEntity
  8
0
100
AcDbBlockBegin
  2
A3横用_タイトル
 70
     0
 10
0.0
 20
0.0
 30
0.0
  3
A3横用_タイトル
  1

  0
LINE
  5
2A34
330
2A32
100
AcDbEntity
  8
図枠細線
  6
CONTINUOUS
 62
   252
100
AcDbLine
 10
205.098414535793
 20
33.525959753527
 30
0.0
 11
305.098414535793
 21
33.525959753527
 31
0.0
  0
LINE
  5
2A35
330
2A32
100
AcDbEntity
  8
図枠太線
  6
CONTINUOUS
 62
   251
100
AcDbLine
 10
205.098414535793
 20
23.525959753527
 30
0.0
 11
305.098414535793
 21
23.525959753527
 31
0.0
  0
LINE
  5
2A36
330
2A32
100
AcDbEntity
  8
図枠細線
  6
CONTINUOUS
100
AcDbLine
 10
5.098414535793
 20
23.525959753527
 30
0.0
 11
105.098414535793
 21
23.525959753527
 31
0.0
  0
LINE
  5
2A37
330
2A32
100
AcDbEntity
  8
図枠細線
  6
CONTINUOUS
 62
   252
100
AcDbLine
 10
5.098414535793
 20
36.725957753527
 30
0.0
 11
105.098414535793
 21
36.725957753527
 31
0.0
  0
LINE
  5
2A38
330
2A32
100
AcDbEntity
  8
図枠細線
  6
CONTINUOUS
 62
   252
100
AcDbLine
 10
5.098414535793
 20
30.125957753527
 30
0.0
 11
105.098414535793
 21
30.125957753527
 31
0.0
  0
LINE
  5
2A39
330
2A32
100
AcDbEntity
  8
図枠細線
  6
CONTINUOUS
 62
   252
100
AcDbLine
 10
5.098414535793
 20
16.725959753527
 30
0.0
 11
105.098414535793
 21
16.725959753527
 31
0.0
  0
LINE
  5
2A3A
330
2A32
100
AcDbEntity
  8
図枠細線
  6
CONTINUOUS
 62
   252
100
AcDbLine
 10
5.098414535793
 20
10.125959753527
 30
0.0
 11
105.098414535793
 21
10.125959753527
 31
0.0
  0
LINE
  5
2A3B
330
2A32
100
AcDbEntity
  8
図枠細線
  6
CONTINUOUS
100
AcDbLine
 10
105.098414535793
 20
23.525961753527
 30
0.0
 11
205.098414535793
 21
23.525959753527
 31
0.0
  0
LINE
  5
2A3C
330
2A32
100
AcDbEntity
  8
図枠細線
  6
CONTINUOUS
 62
   252
100
AcDbLine
 10
138.398414535793
 20
43.525959753527
 30
0.0
 11
138.398414535793
 21
18.525957753527
 31
0.0
  0
LINE
  5
2A3D
330
2A32
100
AcDbEntity
  8
図枠細線
  6
CONTINUOUS
 62
   252
100
AcDbLine
 10
171.698414535793
 20
43.525959753527
 30
0.0
 11
171.698414535793
 21
18.525957753527
 31
0.0
  0
LINE
  5
2A3E
330
2A32
100
AcDbEntity
  8
図枠細線
  6
CONTINUOUS
 62
   252
100
AcDbLine
 10
305.098414535793
 20
23.525959753527
 30
0.0
 11
405.098414535793
 21
23.525959753527
 31
0.0
  0
TEXT
  5
2A3F
330
2A32
100
AcDbEntity
  8
図枠ロゴマーク
  6
CONTINUOUS
 62
   253
100
AcDbText
 10
206.102509212755
 20
13.294257570546
 30
0.0
 40
7.0
  1
東和制電工業株式会社
 50
0.016555220185
 41
1.186384129432
  7
EXCADSTD
 72
     5
 11
303.544188309143
 21
13.322412672217
 31
0.0
100
AcDbText
  0
MTEXT
  5
2A40
330
2A32
100
AcDbEntity
  8
図枠細線
100
AcDbMText
 10
6.356764112375
 20
41.976594175478
 30
0.0
 40
2.5
 41
49.938282706292
 71
     1
 72
     5
  1
{\Fmonotxt.shx,bigfont.shx|c128;図暦　CHANGE　NOTICE}
  0
MTEXT
  5
2A41
330
2A32
100
AcDbEntity
  8
図枠細線
 48
10.0
100
AcDbMText
 10
306.544114926828
 20
41.701835800934
 30
0.0
 40
2.5
 41
28.002809618823
 71
     1
 72
     5
  1
{\Fmonotxt.shx,bigfont.shx|c128;名称　TITLE}
  0
MTEXT
  5
2A42
330
2A32
100
AcDbEntity
  8
図枠細線
 48
10.0
100
AcDbMText
 10
307.329617114284
 20
21.606206797226
 30
0.0
 40
2.5
 41
24.385612216707
 71
     1
 72
     5
  1
{\Fmonotxt.shx,bigfont.shx|c128;図面番号\PDRG.　No.}
  0
MTEXT
  5
2A43
330
2A32
100
AcDbEntity
  8
図枠細線
 48
10.0
100
AcDbMText
 10
173.726349404609
 20
21.73680662198
 30
0.0
 40
2.5
 41
25.735090160813
 71
     1
 72
     5
  1
{\Fmonotxt.shx,bigfont.shx|c128;日付 DATE}
  0
MTEXT
  5
2A44
330
2A32
100
AcDbEntity
  8
図枠細線
 48
10.0
100
AcDbMText
 10
173.48708833982
 20
41.621592044998
 30
0.0
 40
2.5
 41
24.983741184205
 71
     1
 72
     5
  1
{\Fmonotxt.shx,bigfont.shx|c128;製図　DRAWN}
  0
MTEXT
  5
2A45
330
2A32
100
AcDbEntity
  8
図枠細線
 48
10.0
100
AcDbMText
 10
139.28009927741
 20
21.866713069868
 30
0.0
 40
2.5
 41
22.629632913243
 71
     1
 72
     5
  1
{\Fmonotxt.shx,bigfont.shx|c128;尺度　SCALE}
  0
MTEXT
  5
2A46
330
2A32
100
AcDbEntity
  8
図枠細線
 48
10.0
100
AcDbMText
 10
139.910091179835
 20
41.311840415554
 30
0.0
 40
2.5
 41
28.998753428368
 71
     1
 72
     5
  1
{\Fmonotxt.shx,bigfont.shx|c128;検図  CHECKED}
  0
MTEXT
  5
2A47
330
2A32
100
AcDbEntity
  8
図枠細線
 48
10.0
100
AcDbMText
 10
114.253294667728
 20
21.916124850174
 30
0.0
 40
3.0
 41
19.692400475383
 71
     1
 72
     5
  1
{\Fmonotxt.shx,bigfont.shx|c128;第三角法}
  0
MTEXT
  5
2A48
330
2A32
100
AcDbEntity
  8
図枠細線
 48
10.0
100
AcDbMText
 10
108.986959929915
 20
15.282880185837
 30
0.0
 40
2.5
 41
27.954882823547
 71
     1
 72
     5
  1
{\Fmonotxt.shx,bigfont.shx|c128;THIRD ANGLE\PPROJECTION}
  0
MTEXT
  5
2A49
330
2A32
100
AcDbEntity
  8
図枠細線
 48
10.0
100
AcDbMText
 10
106.319432640184
 20
41.511437145487
 30
0.0
 40
2.5
 41
28.233595265074
 71
     1
 72
     5
  1
{\Fmonotxt.shx,bigfont.shx|c128;承認 APPROVED}
  0
LINE
  5
2A4A
330
2A32
100
AcDbEntity
  8
図枠太線
  6
CONTINUOUS
 62
   251
100
AcDbLine
 10
5.098414535793
 20
3.525959753527
 30
0.0
 11
405.098414535793
 21
3.525959753527
 31
0.0
  0
LINE
  5
2A4B
330
2A32
100
AcDbEntity
  8
図枠太線
 48
10.0
100
AcDbLine
 10
5.098414535793
 20
3.525959753527
 30
0.0
 11
5.098414535793
 21
43.525959753527
 31
0.0
  0
LINE
  5
2A4C
330
2A32
100
AcDbEntity
  8
図枠太線
  6
CONTINUOUS
 62
   251
100
AcDbLine
 10
105.098414535793
 20
3.525959753527
 30
0.0
 11
105.098414535793
 21
43.525959753527
 31
0.0
  0
LINE
  5
2A4D
330
2A32
100
AcDbEntity
  8
図枠細線
  6
CONTINUOUS
 62
   252
100
AcDbLine
 10
138.398414535793
 20
3.525959753527
 30
0.0
 11
138.398414535793
 21
18.525957753527
 31
0.0
  0
LINE
  5
2A4E
330
2A32
100
AcDbEntity
  8
図枠細線
  6
CONTINUOUS
 62
   252
100
AcDbLine
 10
171.698414535793
 20
3.525959753527
 30
0.0
 11
171.698414535793
 21
18.525957753527
 31
0.0
  0
LINE
  5
2A4F
330
2A32
100
AcDbEntity
  8
図枠太線
  6
CONTINUOUS
 62
   251
100
AcDbLine
 10
205.098414535793
 20
3.525959753527
 30
0.0
 11
205.098414535793
 21
43.525959753527
 31
0.0
  0
LINE
  5
2A50
330
2A32
100
AcDbEntity
  8
図枠太線
 48
10.0
100
AcDbLine
 10
405.098414535793
 20
43.525959753527
 30
0.0
 11
405.098414535793
 21
3.525959753527
 31
0.0
  0
TEXT
  5
2A51
330
2A32
100
AcDbEntity
  8
図枠細線
  6
CONTINUOUS
 62
   252
100
AcDbText
 10
208.519754474572
 20
6.482358407285
 30
0.0
 40
3.5
  1
ＴＯＷＡ　ＳＥＩＤＥＮ　ＩＮＤＵＳＴＲＩＡＬ　ＣＯ．，ＬＴＤ．
 41
0.746656297509
  7
EXCADSTD
 72
     5
 11
303.295327171727
 21
6.482358407285
 31
0.0
100
AcDbText
  0
LINE
  5
2A52
330
2A32
100
AcDbEntity
  8
図枠太線
  6
CONTINUOUS
 62
   251
100
AcDbLine
 10
305.098414535793
 20
3.525959753527
 30
0.0
 11
305.098414535793
 21
43.525959753527
 31
0.0
  0
ENDBLK
  5
2A53
330
2A32
100
AcDbEntity
  8
0
100
AcDbBlockEnd
  0
BLOCK
  5
2A6D
330
2A6C
100
AcDbEntity
  8
0
100
AcDbBlockBegin
  2
A3縦用_タイトル
 70
     0
 10
0.0
 20
0.0
 30
0.0
  3
A3縦用_タイトル
  1

  0
MTEXT
  5
2A6E
330
2A6C
100
AcDbEntity
  8
図枠細線
100
AcDbMText
 10
5.040804501593
 20
31.626098649005
 30
0.0
 40
2.5
 41
49.938282706292
 71
     1
 72
     5
  1
{\Fmonotxt.shx,bigfont.shx|c128;図暦　CHANGE　NOTICE}
  0
LINE
  5
2A6F
330
2A6C
100
AcDbEntity
  8
図枠太線
  6
CONTINUOUS
 62
   251
100
AcDbLine
 10
283.577871882961
 20
2.820844689254
 30
0.0
 11
283.577871882961
 21
32.820842689254
 31
0.0
  0
MTEXT
  5
2A70
330
2A6C
100
AcDbEntity
  8
図枠細線
 48
10.0
100
AcDbMText
 10
214.912458947454
 20
31.621488632308
 30
0.0
 40
2.5
 41
28.002809618823
 71
     1
 72
     5
  1
{\Fmonotxt.shx,bigfont.shx|c128;名称　TITLE}
  0
MTEXT
  5
2A71
330
2A6C
100
AcDbEntity
  8
図枠細線
 48
10.0
100
AcDbMText
 10
214.740030458938
 20
16.310225796722
 30
0.0
 40
2.5
 41
24.385612216707
 71
     1
 72
     5
  1
{\Fmonotxt.shx,bigfont.shx|c128;図面番号\PDRG.　No.}
  0
LINE
  5
2A72
330
2A6C
100
AcDbEntity
  8
図枠太線
  6
CONTINUOUS
 62
   251
100
AcDbLine
 10
213.577871882961
 20
2.820844689254
 30
0.0
 11
213.577871882961
 21
32.820842689254
 31
0.0
  0
LINE
  5
2A73
330
2A6C
100
AcDbEntity
  8
図枠太線
  6
CONTINUOUS
 62
   251
100
AcDbLine
 10
143.577871882961
 20
2.820844689254
 30
0.0
 11
143.577871882961
 21
32.820842689254
 31
0.0
  0
TEXT
  5
2A74
330
2A6C
100
AcDbEntity
  8
図枠細線
  6
CONTINUOUS
 62
   252
100
AcDbText
 10
145.716454488093
 20
4.468335689254
 30
0.0
 40
3.5
  1
ＴＯＷＡ　ＳＥＩＤＥＮ　ＩＮＤＵＳＴＲＩＡＬ　ＣＯ．，ＬＴＤ．
 41
0.528937826907
  7
EXCADSTD
 72
     5
 11
212.856295983498
 21
4.468335689254
 31
0.0
100
AcDbText
  0
TEXT
  5
2A75
330
2A6C
100
AcDbEntity
  8
図枠ロゴマーク
  6
CONTINUOUS
 62
   253
100
AcDbText
 10
145.950637593507
 20
9.413236689254
 30
0.0
 40
7.0
  1
東和制電工業株式会社
 41
0.80361088462
  7
EXCADSTD
 72
     5
 11
211.953878250259
 21
9.413236689254
 31
0.0
100
AcDbText
  0
LINE
  5
2A76
330
2A6C
100
AcDbEntity
  8
図枠細線
  6
CONTINUOUS
 62
   252
100
AcDbLine
 10
143.577871882961
 20
25.320842689254
 30
0.0
 11
213.577871882961
 21
25.320842689254
 31
0.0
  0
LINE
  5
2A77
330
2A6C
100
AcDbEntity
  8
図枠太線
  6
CONTINUOUS
 62
   251
100
AcDbLine
 10
143.577863882961
 20
17.820842689254
 30
0.0
 11
213.577871882961
 21
17.820842689254
 31
0.0
  0
LINE
  5
2A78
330
2A6C
100
AcDbEntity
  8
図枠細線
  6
CONTINUOUS
 62
   252
100
AcDbLine
 10
213.577871882961
 20
17.820842689254
 30
0.0
 11
283.577871882961
 21
17.820842689254
 31
0.0
  0
LINE
  5
2A79
330
2A6C
100
AcDbEntity
  8
図枠細線
  6
CONTINUOUS
 62
   252
100
AcDbLine
 10
120.577871882961
 20
32.820842689254
 30
0.0
 11
120.577871882961
 21
17.820842689254
 31
0.0
  0
MTEXT
  5
2A7A
330
2A6C
100
AcDbEntity
  8
図枠細線
 48
10.0
100
AcDbMText
 10
121.100885670352
 20
16.33785922638
 30
0.0
 40
2.0
 41
17.705978285068
 71
     1
 72
     5
  1
{\Fmonotxt.shx,bigfont.shx|c128;日付 DATE}
  0
MTEXT
  5
2A7B
330
2A6C
100
AcDbEntity
  8
図枠細線
 48
10.0
100
AcDbMText
 10
121.254842273491
 20
31.208993514037
 30
0.0
 40
2.0
 41
18.363799568758
 71
     1
 72
     5
  1
{\Fmonotxt.shx,bigfont.shx|c128;製図　DRAWN}
  0
LINE
  5
2A7C
330
2A6C
100
AcDbEntity
  8
図枠細線
  6
CONTINUOUS
 62
   252
100
AcDbLine
 10
97.577871882961
 20
32.820842689254
 30
0.0
 11
97.577871882961
 21
17.820842689254
 31
0.0
  0
MTEXT
  5
2A7D
330
2A6C
100
AcDbEntity
  8
図枠細線
 48
10.0
100
AcDbMText
 10
98.239734796872
 20
16.467764839281
 30
0.0
 40
2.0
 41
17.757791689903
 71
     1
 72
     5
  1
{\Fmonotxt.shx,bigfont.shx|c128;尺度　SCALE}
  0
MTEXT
  5
2A7E
330
2A6C
100
AcDbEntity
  8
図枠細線
 48
10.0
100
AcDbMText
 10
97.864744625154
 20
31.298433377664
 30
0.0
 40
2.0
 41
23.162655920976
 71
     1
 72
     5
  1
{\Fmonotxt.shx,bigfont.shx|c128;検図  CHECKED}
  0
LINE
  5
2A7F
330
2A6C
100
AcDbEntity
  8
図枠細線
  6
CONTINUOUS
 62
   252
100
AcDbLine
 10
97.577871882961
 20
2.820843367826
 30
0.0
 11
97.577871882961
 21
17.820841367826
 31
0.0
  0
LINE
  5
2A80
330
2A6C
100
AcDbEntity
  8
図枠細線
  6
CONTINUOUS
 62
   252
100
AcDbLine
 10
120.577871882961
 20
2.820844010683
 30
0.0
 11
120.577871882961
 21
17.820842010683
 31
0.0
  0
MTEXT
  5
2A81
330
2A6C
100
AcDbEntity
  8
図枠細線
 48
10.0
100
AcDbMText
 10
81.402399084102
 20
16.316484117426
 30
0.0
 40
2.0
 41
12.920322819369
 71
     1
 72
     5
  1
{\Fmonotxt.shx,bigfont.shx|c128;第三角法}
  0
MTEXT
  5
2A82
330
2A6C
100
AcDbEntity
  8
図枠細線
 48
10.0
100
AcDbMText
 10
75.736576535096
 20
11.080410931319
 30
0.0
 40
2.0
 41
21.072870671471
 71
     1
 72
     5
  1
{\Fmonotxt.shx,bigfont.shx|c128;THIRD ANGLE\PPROJECTION}
  0
LINE
  5
2A83
330
2A6C
100
AcDbEntity
  8
図枠太線
  6
CONTINUOUS
 62
   251
100
AcDbLine
 10
74.577871882961
 20
2.820844689254
 30
0.0
 11
74.577871882961
 21
32.820842689254
 31
0.0
  0
MTEXT
  5
2A84
330
2A6C
100
AcDbEntity
  8
図枠細線
 48
10.0
100
AcDbMText
 10
75.060214781573
 20
31.298434778555
 30
0.0
 40
2.0
 41
22.240928805967
 71
     1
 72
     5
  1
{\Fmonotxt.shx,bigfont.shx|c128;承認 APPROVED}
  0
LINE
  5
2A85
330
2A6C
100
AcDbEntity
  8
図枠細線
  6
CONTINUOUS
100
AcDbLine
 10
3.577871882961
 20
17.820844689254
 30
0.0
 11
74.577871882961
 21
17.820844689254
 31
0.0
  0
LINE
  5
2A86
330
2A6C
100
AcDbEntity
  8
図枠細線
  6
CONTINUOUS
 62
   252
100
AcDbLine
 10
3.577871882961
 20
27.820842689254
 30
0.0
 11
74.577871882961
 21
27.820842689254
 31
0.0
  0
LINE
  5
2A87
330
2A6C
100
AcDbEntity
  8
図枠細線
  6
CONTINUOUS
 62
   252
100
AcDbLine
 10
3.577871882961
 20
22.820842689254
 30
0.0
 11
74.577871882961
 21
22.820842689254
 31
0.0
  0
LINE
  5
2A88
330
2A6C
100
AcDbEntity
  8
図枠細線
  6
CONTINUOUS
 62
   252
100
AcDbLine
 10
3.577871882961
 20
12.820842689254
 30
0.0
 11
74.577871882961
 21
12.820842689254
 31
0.0
  0
LINE
  5
2A89
330
2A6C
100
AcDbEntity
  8
図枠細線
  6
CONTINUOUS
 62
   252
100
AcDbLine
 10
3.577871882961
 20
7.820844689254
 30
0.0
 11
74.577871882961
 21
7.820844689254
 31
0.0
  0
LINE
  5
2A8A
330
2A6C
100
AcDbEntity
  8
図枠細線
  6
CONTINUOUS
100
AcDbLine
 10
74.577871882961
 20
17.820843689254
 30
0.0
 11
143.577871882961
 21
17.820841224969
 31
0.0
  0
LINE
  5
2A8B
330
2A6C
100
AcDbEntity
  8
図枠太線
  6
CONTINUOUS
 62
   251
100
AcDbLine
 10
3.577871882961
 20
2.820844689254
 30
0.0
 11
283.577871882961
 21
2.820844689254
 31
0.0
  0
LINE
  5
2A8C
330
2A6C
100
AcDbEntity
  8
図枠太線
  6
CONTINUOUS
 62
   251
100
AcDbLine
 10
3.577871882961
 20
2.820844689254
 30
0.0
 11
3.577871882961
 21
32.820842689254
 31
0.0
  0
ENDBLK
  5
2A8D
330
2A6C
100
AcDbEntity
  8
0
100
AcDbBlockEnd
  0
BLOCK
  5
2AF8
330
2AF4
100
AcDbEntity
  8
0
 48
10.0
100
AcDbBlockBegin
  2
_OPEN30
 70
     0
 10
0.0
 20
0.0
 30
0.0
  3
_OPEN30
  1

  0
LINE
  5
2AF5
330
2AF4
100
AcDbEntity
  8
0
  6
BYBLOCK
 62
     0
100
AcDbLine
 10
-1.0
 20
0.26794919
 30
0.0
 11
0.0
 21
0.0
 31
0.0
  0
LINE
  5
2AF6
330
2AF4
100
AcDbEntity
  8
0
  6
BYBLOCK
 62
     0
100
AcDbLine
 10
0.0
 20
0.0
 30
0.0
 11
-1.0
 21
-0.26794919
 31
0.0
  0
LINE
  5
2AF7
330
2AF4
100
AcDbEntity
  8
0
  6
BYBLOCK
 62
     0
100
AcDbLine
 10
0.0
 20
0.0
 30
0.0
 11
-1.0
 21
0.0
 31
0.0
  0
ENDBLK
  5
2AF9
330
2AF4
100
AcDbEntity
  8
0
 48
10.0
100
AcDbBlockEnd
  0
BLOCK
  5
429E
330
4294
100
AcDbEntity
  8
0
 48
10.0
100
AcDbBlockBegin
  2
*D6
 70
     1
 10
0.0
 20
0.0
 30
0.0
  3
*D6
  1

  0
LINE
  5
5335
330
4294
100
AcDbEntity
  8
寸法線
 62
     0
 48
10.0
100
AcDbLine
 10
52.664993533653
 20
408.467877082275
 30
0.0
 11
38.40152527738
 21
408.467877082275
 31
0.0
  0
LINE
  5
5336
330
4294
100
AcDbEntity
  8
寸法線
 62
     0
 48
10.0
100
AcDbLine
 10
52.664993533653
 20
386.967877082275
 30
0.0
 11
38.40152527738
 21
386.967877082275
 31
0.0
  0
LINE
  5
5337
330
4294
100
AcDbEntity
  8
寸法線
 62
     0
 48
10.0
100
AcDbLine
 10
39.65152527738
 20
408.467877082275
 30
0.0
 11
39.65152527738
 21
439.584543748942
 31
0.0
  0
LINE
  5
5338
330
4294
100
AcDbEntity
  8
寸法線
 62
     0
 48
10.0
100
AcDbLine
 10
39.65152527738
 20
402.467877082275
 30
0.0
 11
39.65152527738
 21
392.967877082275
 31
0.0
  0
INSERT
  5
5339
330
4294
100
AcDbEntity
  8
寸法線
 62
     0
100
AcDbBlockReference
  2
_OPEN30
 10
39.65152527738
 20
408.467877082275
 30
0.0
 41
6.0
 42
6.0
 43
6.0
 50
90.0
  0
INSERT
  5
533A
330
4294
100
AcDbEntity
  8
寸法線
 62
     0
100
AcDbBlockReference
  2
_OPEN30
 10
39.65152527738
 20
386.967877082275
 30
0.0
 41
6.0
 42
6.0
 43
6.0
 50
270.0
  0
MTEXT
  5
533B
330
4294
100
AcDbEntity
  8
寸法線
 62
     0
 48
10.0
100
AcDbMText
 10
35.022358610713
 20
427.026210415609
 30
0.0
 40
8.0
 41
0.0
 71
     5
 72
     1
  1
\A1;φ21.5
 11
0.0
 21
1.0
 31
0.0
  0
POINT
  5
533C
330
4294
100
AcDbEntity
  8
DEFPOINTS
 62
     0
100
AcDbPoint
 10
53.289993533653
 20
408.467877082275
 30
0.0
  0
POINT
  5
533D
330
4294
100
AcDbEntity
  8
DEFPOINTS
 62
     0
100
AcDbPoint
 10
53.289993533653
 20
386.967877082275
 30
0.0
  0
POINT
  5
533E
330
4294
100
AcDbEntity
  8
DEFPOINTS
 62
     0
100
AcDbPoint
 10
39.65152527738
 20
386.967877082275
 30
0.0
  0
ENDBLK
  5
429F
330
4294
100
AcDbEntity
  8
0
 48
10.0
100
AcDbBlockEnd
  0
BLOCK
  5
4310
330
4306
100
AcDbEntity
  8
0
 48
10.0
100
AcDbBlockBegin
  2
*D8
 70
     1
 10
0.0
 20
0.0
 30
0.0
  3
*D8
  1

  0
LINE
  5
5325
330
4306
100
AcDbEntity
  8
寸法線
 62
     0
 48
10.0
100
AcDbLine
 10
281.745619813119
 20
408.467877082275
 30
0.0
 11
281.745619813119
 21
440.016895840558
 31
0.0
  0
LINE
  5
5326
330
4306
100
AcDbEntity
  8
寸法線
 62
     0
 48
10.0
100
AcDbLine
 10
281.745619813119
 20
402.467877082275
 30
0.0
 11
281.745619813119
 21
392.967877082275
 31
0.0
  0
INSERT
  5
5327
330
4306
100
AcDbEntity
  8
寸法線
 62
     0
100
AcDbBlockReference
  2
_OPEN30
 10
281.745619813119
 20
408.467877082275
 30
0.0
 41
6.0
 42
6.0
 43
6.0
 50
90.0
  0
INSERT
  5
5328
330
4306
100
AcDbEntity
  8
寸法線
 62
     0
100
AcDbBlockReference
  2
_OPEN30
 10
281.745619813119
 20
386.967877082275
 30
0.0
 41
6.0
 42
6.0
 43
6.0
 50
270.0
  0
MTEXT
  5
5329
330
4306
100
AcDbEntity
  8
寸法線
 62
     0
 48
10.0
100
AcDbMText
 10
277.116453146452
 20
427.458562507225
 30
0.0
 40
8.0
 41
0.0
 71
     5
 72
     1
  1
\A1;φ21.5
 11
0.0
 21
1.0
 31
0.0
  0
POINT
  5
532A
330
4306
100
AcDbEntity
  8
DEFPOINTS
 62
     0
100
AcDbPoint
 10
302.289993533653
 20
408.467877082275
 30
0.0
  0
POINT
  5
532B
330
4306
100
AcDbEntity
  8
DEFPOINTS
 62
     0
100
AcDbPoint
 10
302.289993533653
 20
386.967877082275
 30
0.0
  0
POINT
  5
532C
330
4306
100
AcDbEntity
  8
DEFPOINTS
 62
     0
100
AcDbPoint
 10
281.745619813119
 20
386.967877082275
 30
0.0
  0
ENDBLK
  5
4311
330
4306
100
AcDbEntity
  8
0
 48
10.0
100
AcDbBlockEnd
  0
BLOCK
  5
4342
330
4338
100
AcDbEntity
  8
0
 48
10.0
100
AcDbBlockBegin
  2
*D9
 70
     1
 10
0.0
 20
0.0
 30
0.0
  3
*D9
  1

  0
LINE
  5
531C
330
4338
100
AcDbEntity
  8
寸法線
 62
     0
 48
10.0
100
AcDbLine
 10
52.289993533653
 20
390.092877082275
 30
0.0
 11
52.289993533653
 21
302.463097640282
 31
0.0
  0
LINE
  5
531D
330
4338
100
AcDbEntity
  8
寸法線
 62
     0
 48
10.0
100
AcDbLine
 10
152.289993533653
 20
386.842877082275
 30
0.0
 11
152.289993533653
 21
302.463097640282
 31
0.0
  0
LINE
  5
531E
330
4338
100
AcDbEntity
  8
寸法線
 62
     0
 48
10.0
100
AcDbLine
 10
58.289993533653
 20
303.713097640282
 30
0.0
 11
146.289993533653
 21
303.713097640282
 31
0.0
  0
INSERT
  5
531F
330
4338
100
AcDbEntity
  8
寸法線
 62
     0
100
AcDbBlockReference
  2
_OPEN30
 10
52.289993533653
 20
303.713097640282
 30
0.0
 41
6.0
 42
6.0
 43
6.0
 50
180.0
  0
INSERT
  5
5320
330
4338
100
AcDbEntity
  8
寸法線
 62
     0
100
AcDbBlockReference
  2
_OPEN30
 10
152.289993533653
 20
303.713097640282
 30
0.0
 41
6.0
 42
6.0
 43
6.0
  0
POINT
  5
5321
330
4338
100
AcDbEntity
  8
DEFPOINTS
 62
     0
100
AcDbPoint
 10
52.289993533653
 20
390.717877082275
 30
0.0
  0
POINT
  5
5322
330
4338
100
AcDbEntity
  8
DEFPOINTS
 62
     0
100
AcDbPoint
 10
152.289993533653
 20
387.467877082275
 30
0.0
  0
POINT
  5
5323
330
4338
100
AcDbEntity
  8
DEFPOINTS
 62
     0
100
AcDbPoint
 10
152.289993533653
 20
303.713097640282
 30
0.0
  0
ENDBLK
  5
4343
330
4338
100
AcDbEntity
  8
0
 48
10.0
100
AcDbBlockEnd
  0
BLOCK
  5
434F
330
4345
100
AcDbEntity
  8
0
 48
10.0
100
AcDbBlockBegin
  2
*D10
 70
     1
 10
0.0
 20
0.0
 30
0.0
  3
*D10
  1

  0
LINE
  5
5313
330
4345
100
AcDbEntity
  8
寸法線
 62
     0
 48
10.0
100
AcDbLine
 10
152.289993533653
 20
386.842877082275
 30
0.0
 11
152.289993533653
 21
302.463097640282
 31
0.0
  0
LINE
  5
5314
330
4345
100
AcDbEntity
  8
寸法線
 62
     0
 48
10.0
100
AcDbLine
 10
202.289993533653
 20
386.342877082275
 30
0.0
 11
202.289993533653
 21
302.463097640282
 31
0.0
  0
LINE
  5
5315
330
4345
100
AcDbEntity
  8
寸法線
 62
     0
 48
10.0
100
AcDbLine
 10
158.289993533653
 20
303.713097640282
 30
0.0
 11
196.289993533653
 21
303.713097640282
 31
0.0
  0
INSERT
  5
5316
330
4345
100
AcDbEntity
  8
寸法線
 62
     0
100
AcDbBlockReference
  2
_OPEN30
 10
152.289993533653
 20
303.713097640282
 30
0.0
 41
6.0
 42
6.0
 43
6.0
 50
180.0
  0
INSERT
  5
5317
330
4345
100
AcDbEntity
  8
寸法線
 62
     0
100
AcDbBlockReference
  2
_OPEN30
 10
202.289993533653
 20
303.713097640282
 30
0.0
 41
6.0
 42
6.0
 43
6.0
  0
POINT
  5
5318
330
4345
100
AcDbEntity
  8
DEFPOINTS
 62
     0
100
AcDbPoint
 10
152.289993533653
 20
387.467877082275
 30
0.0
  0
POINT
  5
5319
330
4345
100
AcDbEntity
  8
DEFPOINTS
 62
     0
100
AcDbPoint
 10
202.289993533653
 20
386.967877082275
 30
0.0
  0
POINT
  5
531A
330
4345
100
AcDbEntity
  8
DEFPOINTS
 62
     0
100
AcDbPoint
 10
202.289993533653
 20
303.713097640282
 30
0.0
  0
ENDBLK
  5
4350
330
4345
100
AcDbEntity
  8
0
 48
10.0
100
AcDbBlockEnd
  0
BLOCK
  5
435C
330
4352
100
AcDbEntity
  8
0
 48
10.0
100
AcDbBlockBegin
  2
*D11
 70
     1
 10
0.0
 20
0.0
 30
0.0
  3
*D11
  1

  0
LINE
  5
530A
330
4352
100
AcDbEntity
  8
寸法線
 62
     0
 48
10.0
100
AcDbLine
 10
202.289993533653
 20
386.342877082275
 30
0.0
 11
202.289993533653
 21
302.463097640282
 31
0.0
  0
LINE
  5
530B
330
4352
100
AcDbEntity
  8
寸法線
 62
     0
 48
10.0
100
AcDbLine
 10
302.289993533653
 20
380.793064582275
 30
0.0
 11
302.289993533653
 21
302.463097640282
 31
0.0
  0
LINE
  5
530C
330
4352
100
AcDbEntity
  8
寸法線
 62
     0
 48
10.0
100
AcDbLine
 10
208.289993533653
 20
303.713097640282
 30
0.0
 11
296.289993533653
 21
303.713097640282
 31
0.0
  0
INSERT
  5
530D
330
4352
100
AcDbEntity
  8
寸法線
 62
     0
100
AcDbBlockReference
  2
_OPEN30
 10
202.289993533653
 20
303.713097640282
 30
0.0
 41
6.0
 42
6.0
 43
6.0
 50
180.0
  0
INSERT
  5
530E
330
4352
100
AcDbEntity
  8
寸法線
 62
     0
100
AcDbBlockReference
  2
_OPEN30
 10
302.289993533653
 20
303.713097640282
 30
0.0
 41
6.0
 42
6.0
 43
6.0
  0
POINT
  5
530F
330
4352
100
AcDbEntity
  8
DEFPOINTS
 62
     0
100
AcDbPoint
 10
202.289993533653
 20
386.967877082275
 30
0.0
  0
POINT
  5
5310
330
4352
100
AcDbEntity
  8
DEFPOINTS
 62
     0
100
AcDbPoint
 10
302.289993533653
 20
381.418064582275
 30
0.0
  0
POINT
  5
5311
330
4352
100
AcDbEntity
  8
DEFPOINTS
 62
     0
100
AcDbPoint
 10
302.289993533653
 20
303.713097640282
 30
0.0
  0
ENDBLK
  5
435D
330
4352
100
AcDbEntity
  8
0
 48
10.0
100
AcDbBlockEnd
  0
BLOCK
  5
43AA
330
43A0
100
AcDbEntity
  8
0
 48
10.0
100
AcDbBlockBegin
  2
*D12
 70
     1
 10
0.0
 20
0.0
 30
0.0
  3
*D12
  1

  0
LINE
  5
5301
330
43A0
100
AcDbEntity
  8
寸法線
 62
     0
 48
10.0
100
AcDbLine
 10
52.289993533653
 20
390.092877082275
 30
0.0
 11
52.289993533653
 21
282.463097640282
 31
0.0
  0
LINE
  5
5302
330
43A0
100
AcDbEntity
  8
寸法線
 62
     0
 48
10.0
100
AcDbLine
 10
302.289993533653
 20
380.793064582275
 30
0.0
 11
302.289993533653
 21
282.463097640282
 31
0.0
  0
LINE
  5
5303
330
43A0
100
AcDbEntity
  8
寸法線
 62
     0
 48
10.0
100
AcDbLine
 10
58.289993533653
 20
283.713097640282
 30
0.0
 11
296.289993533653
 21
283.713097640282
 31
0.0
  0
INSERT
  5
5304
330
43A0
100
AcDbEntity
  8
寸法線
 62
     0
100
AcDbBlockReference
  2
_OPEN30
 10
52.289993533653
 20
283.713097640282
 30
0.0
 41
6.0
 42
6.0
 43
6.0
 50
180.0
  0
INSERT
  5
5305
330
43A0
100
AcDbEntity
  8
寸法線
 62
     0
100
AcDbBlockReference
  2
_OPEN30
 10
302.289993533653
 20
283.713097640282
 30
0.0
 41
6.0
 42
6.0
 43
6.0
  0
POINT
  5
5306
330
43A0
100
AcDbEntity
  8
DEFPOINTS
 62
     0
100
AcDbPoint
 10
52.289993533653
 20
390.717877082275
 30
0.0
  0
POINT
  5
5307
330
43A0
100
AcDbEntity
  8
DEFPOINTS
 62
     0
100
AcDbPoint
 10
302.289993533653
 20
381.418064582275
 30
0.0
  0
POINT
  5
5308
330
43A0
100
AcDbEntity
  8
DEFPOINTS
 62
     0
100
AcDbPoint
 10
302.289993533653
 20
283.713097640282
 30
0.0
  0
ENDBLK
  5
43AB
330
43A0
100
AcDbEntity
  8
0
 48
10.0
100
AcDbBlockEnd
  0
BLOCK
  5
44F0
330
44E6
100
AcDbEntity
  8
0
 48
10.0
100
AcDbBlockBegin
  2
*D13
 70
     1
 10
0.0
 20
0.0
 30
0.0
  3
*D13
  1

  0
LINE
  5
52F8
330
44E6
100
AcDbEntity
  8
寸法線
 62
     0
 48
10.0
100
AcDbLine
 10
302.289993533653
 20
380.793064582275
 30
0.0
 11
302.289993533653
 21
302.463097640282
 31
0.0
  0
LINE
  5
52F9
330
44E6
100
AcDbEntity
  8
寸法線
 62
     0
 48
10.0
100
AcDbLine
 10
327.289993533653
 20
378.092877082275
 30
0.0
 11
327.289993533653
 21
302.463097640282
 31
0.0
  0
LINE
  5
52FA
330
44E6
100
AcDbEntity
  8
寸法線
 62
     0
 48
10.0
100
AcDbLine
 10
308.289993533653
 20
303.713097640282
 30
0.0
 11
321.289993533653
 21
303.713097640282
 31
0.0
  0
INSERT
  5
52FB
330
44E6
100
AcDbEntity
  8
寸法線
 62
     0
100
AcDbBlockReference
  2
_OPEN30
 10
302.289993533653
 20
303.713097640282
 30
0.0
 41
6.0
 42
6.0
 43
6.0
 50
180.0
  0
INSERT
  5
52FC
330
44E6
100
AcDbEntity
  8
寸法線
 62
     0
100
AcDbBlockReference
  2
_OPEN30
 10
327.289993533653
 20
303.713097640282
 30
0.0
 41
6.0
 42
6.0
 43
6.0
  0
MTEXT
  5
52FD
330
44E6
100
AcDbEntity
  8
寸法線
 62
     0
 48
10.0
100
AcDbMText
 10
314.789993533653
 20
308.342264306948
 30
0.0
 40
8.0
 41
0.0
 71
     5
 72
     1
  1
\A1;25
  0
POINT
  5
52FE
330
44E6
100
AcDbEntity
  8
DEFPOINTS
 62
     0
100
AcDbPoint
 10
302.289993533653
 20
381.418064582275
 30
0.0
  0
POINT
  5
52FF
330
44E6
100
AcDbEntity
  8
DEFPOINTS
 62
     0
100
AcDbPoint
 10
327.289993533653
 20
378.717877082275
 30
0.0
  0
POINT
  5
5300
330
44E6
100
AcDbEntity
  8
DEFPOINTS
 62
     0
100
AcDbPoint
 10
327.289993533653
 20
303.713097640282
 30
0.0
  0
ENDBLK
  5
44F1
330
44E6
100
AcDbEntity
  8
0
 48
10.0
100
AcDbBlockEnd
  0
BLOCK
  5
4557
330
454D
100
AcDbEntity
  8
0
 48
10.0
100
AcDbBlockBegin
  2
*D14
 70
     1
 10
0.0
 20
0.0
 30
0.0
  3
*D14
  1

  0
LINE
  5
52EF
330
454D
100
AcDbEntity
  8
寸法線
 62
     0
 48
10.0
100
AcDbLine
 10
458.916029404791
 20
455.712618992198
 30
0.0
 11
515.645953670628
 21
455.712618992198
 31
0.0
  0
LINE
  5
52F0
330
454D
100
AcDbEntity
  8
寸法線
 62
     0
 48
10.0
100
AcDbLine
 10
458.916029404791
 20
339.718723268572
 30
0.0
 11
515.645953670628
 21
339.718723268572
 31
0.0
  0
LINE
  5
52F1
330
454D
100
AcDbEntity
  8
寸法線
 62
     0
 48
10.0
100
AcDbLine
 10
514.395953670628
 20
449.712618992198
 30
0.0
 11
514.395953670628
 21
345.718723268572
 31
0.0
  0
INSERT
  5
52F2
330
454D
100
AcDbEntity
  8
寸法線
 62
     0
100
AcDbBlockReference
  2
_OPEN30
 10
514.395953670628
 20
455.712618992198
 30
0.0
 41
6.0
 42
6.0
 43
6.0
 50
90.0
  0
INSERT
  5
52F3
330
454D
100
AcDbEntity
  8
寸法線
 62
     0
100
AcDbBlockReference
  2
_OPEN30
 10
514.395953670628
 20
339.718723268572
 30
0.0
 41
6.0
 42
6.0
 43
6.0
 50
270.0
  0
MTEXT
  5
52F4
330
454D
100
AcDbEntity
  8
寸法線
 62
     0
 48
10.0
100
AcDbMText
 10
509.770953670628
 20
397.715671130385
 30
0.0
 40
8.0
 41
0.0
 71
     5
 72
     1
  1
\A1;φ116
 11
0.0
 21
1.0
 31
0.0
  0
POINT
  5
52F5
330
454D
100
AcDbEntity
  8
DEFPOINTS
 62
     0
100
AcDbPoint
 10
458.291029404791
 20
455.712618992198
 30
0.0
  0
POINT
  5
52F6
330
454D
100
AcDbEntity
  8
DEFPOINTS
 62
     0
100
AcDbPoint
 10
458.291029404791
 20
339.718723268572
 30
0.0
  0
POINT
  5
52F7
330
454D
100
AcDbEntity
  8
DEFPOINTS
 62
     0
100
AcDbPoint
 10
514.395953670628
 20
339.718723268572
 30
0.0
  0
ENDBLK
  5
4558
330
454D
100
AcDbEntity
  8
0
 48
10.0
100
AcDbBlockEnd
  0
BLOCK
  5
464E
330
4644
100
AcDbEntity
  8
0
 48
10.0
100
AcDbBlockBegin
  2
*D16
 70
     1
 10
0.0
 20
0.0
 30
0.0
  3
*D16
  1

  0
LINE
  5
52DD
330
4644
100
AcDbEntity
  8
寸法線
 62
     0
 48
10.0
100
AcDbLine
 10
327.289993533653
 20
378.092877082275
 30
0.0
 11
327.289993533653
 21
302.463097640282
 31
0.0
  0
LINE
  5
52DE
330
4644
100
AcDbEntity
  8
寸法線
 62
     0
 48
10.0
100
AcDbLine
 10
347.289993533653
 20
378.092877082275
 30
0.0
 11
347.289993533653
 21
302.463097640282
 31
0.0
  0
LINE
  5
52DF
330
4644
100
AcDbEntity
  8
寸法線
 62
     0
 48
10.0
100
AcDbLine
 10
333.289993533653
 20
303.713097640282
 30
0.0
 11
341.289993533653
 21
303.713097640282
 31
0.0
  0
INSERT
  5
52E0
330
4644
100
AcDbEntity
  8
寸法線
 62
     0
100
AcDbBlockReference
  2
_OPEN30
 10
327.289993533653
 20
303.713097640282
 30
0.0
 41
6.0
 42
6.0
 43
6.0
 50
180.0
  0
INSERT
  5
52E1
330
4644
100
AcDbEntity
  8
寸法線
 62
     0
100
AcDbBlockReference
  2
_OPEN30
 10
347.289993533653
 20
303.713097640282
 30
0.0
 41
6.0
 42
6.0
 43
6.0
  0
MTEXT
  5
52E2
330
4644
100
AcDbEntity
  8
寸法線
 62
     0
 48
10.0
100
AcDbMText
 10
337.289993533653
 20
308.342264306948
 30
0.0
 40
8.0
 41
0.0
 71
     5
 72
     1
  1
\A1;20
  0
POINT
  5
52E3
330
4644
100
AcDbEntity
  8
DEFPOINTS
 62
     0
100
AcDbPoint
 10
327.289993533653
 20
378.717877082275
 30
0.0
  0
POINT
  5
52E4
330
4644
100
AcDbEntity
  8
DEFPOINTS
 62
     0
100
AcDbPoint
 10
347.289993533653
 20
378.717877082275
 30
0.0
  0
POINT
  5
52E5
330
4644
100
AcDbEntity
  8
DEFPOINTS
 62
     0
100
AcDbPoint
 10
347.289993533653
 20
303.713097640282
 30
0.0
  0
ENDBLK
  5
464F
330
4644
100
AcDbEntity
  8
0
 48
10.0
100
AcDbBlockEnd
  0
BLOCK
  5
4668
330
465E
100
AcDbEntity
  8
0
 48
10.0
100
AcDbBlockBegin
  2
*D17
 70
     1
 10
0.0
 20
0.0
 30
0.0
  3
*D17
  1

  0
LINE
  5
52D4
330
465E
100
AcDbEntity
  8
寸法線
 62
     0
 48
10.0
100
AcDbLine
 10
302.289993533653
 20
380.793064582275
 30
0.0
 11
302.289993533653
 21
282.463943826578
 31
0.0
  0
LINE
  5
52D5
330
465E
100
AcDbEntity
  8
寸法線
 62
     0
 48
10.0
100
AcDbLine
 10
485.28999350116
 20
352.866587970506
 30
0.0
 11
485.28999350116
 21
282.463943826578
 31
0.0
  0
LINE
  5
52D6
330
465E
100
AcDbEntity
  8
寸法線
 62
     0
 48
10.0
100
AcDbLine
 10
308.289993533653
 20
283.713943826578
 30
0.0
 11
479.28999350116
 21
283.713943826578
 31
0.0
  0
INSERT
  5
52D7
330
465E
100
AcDbEntity
  8
寸法線
 62
     0
100
AcDbBlockReference
  2
_OPEN30
 10
302.289993533653
 20
283.713943826578
 30
0.0
 41
6.0
 42
6.0
 43
6.0
 50
180.0
  0
INSERT
  5
52D8
330
465E
100
AcDbEntity
  8
寸法線
 62
     0
100
AcDbBlockReference
  2
_OPEN30
 10
485.28999350116
 20
283.713943826578
 30
0.0
 41
6.0
 42
6.0
 43
6.0
  0
MTEXT
  5
52D9
330
465E
100
AcDbEntity
  8
寸法線
 62
     0
 48
10.0
100
AcDbMText
 10
393.789993517406
 20
288.351443826578
 30
0.0
 40
8.0
 41
0.0
 71
     5
 72
     1
  1
\A1;183
  0
POINT
  5
52DA
330
465E
100
AcDbEntity
  8
DEFPOINTS
 62
     0
100
AcDbPoint
 10
302.289993533653
 20
381.418064582275
 30
0.0
  0
POINT
  5
52DB
330
465E
100
AcDbEntity
  8
DEFPOINTS
 62
     0
100
AcDbPoint
 10
485.28999350116
 20
353.491587970506
 30
0.0
  0
POINT
  5
52DC
330
465E
100
AcDbEntity
  8
DEFPOINTS
 62
     0
100
AcDbPoint
 10
485.28999350116
 20
283.713943826578
 30
0.0
  0
ENDBLK
  5
4669
330
465E
100
AcDbEntity
  8
0
 48
10.0
100
AcDbBlockEnd
  0
BLOCK
  5
4E92
330
4E91
100
AcDbEntity
  8
0
 48
10.0
100
AcDbBlockBegin
  2
静電容量センサ
 70
     0
 10
0.0
 20
0.0
 30
0.0
  3
静電容量センサ
  1

  0
ARC
  5
4E93
330
4E91
100
AcDbEntity
  8
外形線
 48
10.0
100
AcDbCircle
 10
1021.898525663106
 20
1073.412780408912
 30
0.0
 40
1.0
100
AcDbArc
 50
180.0
 51
268.999999999998
  0
ARC
  5
4E94
330
4E91
100
AcDbEntity
  8
外形線
 48
10.0
100
AcDbCircle
 10
1021.898525663106
 20
1115.960781516243
 30
0.0
 40
1.0
100
AcDbArc
 50
91.000000000002
 51
180.0
  0
LINE
  5
4E95
330
4E91
100
AcDbEntity
  8
外形線
 48
10.0
100
AcDbLine
 10
1020.898525663106
 20
1115.960781516243
 30
0.0
 11
1020.898525663106
 21
1073.412780408912
 31
0.0
  0
LINE
  5
4E96
330
4E91
100
AcDbEntity
  8
外形線
 48
10.0
100
AcDbLine
 10
1035.026308504175
 20
1117.944859066978
 30
0.0
 11
1041.278741748243
 21
1143.02199911049
 31
0.0
  0
ARC
  5
4E97
330
4E91
100
AcDbEntity
  8
外形線
 48
10.0
100
AcDbCircle
 10
1046.130220379623
 20
1141.812389632491
 30
0.0
 40
5.0
100
AcDbArc
 50
91.3
 51
166.000000000004
  0
ARC
  5
4E98
330
4E91
100
AcDbEntity
  8
外形線
 48
10.0
100
AcDbCircle
 10
1034.056012777899
 20
1118.186780962578
 30
0.0
 40
1.0
100
AcDbArc
 50
270.0
 51
346.000000000004
  0
ARC
  5
4E99
330
4E91
100
AcDbEntity
  8
外形線
 48
10.0
100
AcDbCircle
 10
1034.056012777899
 20
1118.186780962578
 30
0.0
 40
1.0
100
AcDbArc
 50
270.0
 51
346.000000000004
  0
LINE
  5
4E9A
330
4E91
100
AcDbEntity
  8
外形線
 48
10.0
100
AcDbLine
 10
1021.881073256669
 20
1116.960629211399
 30
0.0
 11
1034.056012777899
 21
1117.186780962578
 31
0.0
  0
ARC
  5
4E9B
330
4E91
100
AcDbEntity
  8
外形線
 48
10.0
100
AcDbCircle
 10
1122.899564892808
 20
1151.93622955513
 30
0.0
 40
0.5
100
AcDbArc
 50
359.999254274584
 51
88.999999999998
  0
ARC
  5
4E9C
330
4E91
100
AcDbEntity
  8
細線
 48
10.0
100
AcDbCircle
 10
1123.898525663106
 20
1107.819822714047
 30
0.0
 40
0.5
100
AcDbArc
 50
180.0
 51
264.089361084595
  0
ARC
  5
4E9D
330
4E91
100
AcDbEntity
  8
外形線
 48
10.0
100
AcDbCircle
 10
1123.898525663106
 20
1100.44543233102
 30
0.0
 40
0.5
100
AcDbArc
 50
91.000000000002
 51
180.0
  0
ARC
  5
4E9E
330
4E91
100
AcDbEntity
  8
細線
 48
10.0
100
AcDbCircle
 10
1123.898525663106
 20
1108.078641759149
 30
0.0
 40
0.5
100
AcDbArc
 50
180.0
 51
264.089361084595
  0
ARC
  5
4E9F
330
4E91
100
AcDbEntity
  8
細線
 48
10.0
100
AcDbCircle
 10
1123.898525663106
 20
1129.71320712675
 30
0.0
 40
0.5
100
AcDbArc
 50
180.0
 51
254.206830951738
  0
ARC
  5
4EA0
330
4E91
100
AcDbEntity
  8
細線
 48
10.0
100
AcDbCircle
 10
1123.898525663106
 20
1130.420313907937
 30
0.0
 40
0.5
100
AcDbArc
 50
180.0
 51
254.206830951738
  0
ARC
  5
4EA1
330
4E91
100
AcDbEntity
  8
細線
 48
10.0
100
AcDbCircle
 10
1123.898525663106
 20
1142.359984147006
 30
0.0
 40
0.5
100
AcDbArc
 50
180.0
 51
248.874947125989
  0
ARC
  5
4EA2
330
4E91
100
AcDbEntity
  8
細線
 48
10.0
100
AcDbCircle
 10
1123.898525663106
 20
1143.325909973296
 30
0.0
 40
0.5
100
AcDbArc
 50
180.0
 51
248.874947125989
  0
ARC
  5
4EA3
330
4E91
100
AcDbEntity
  8
外形線
 48
10.0
100
AcDbCircle
 10
1123.898413585187
 20
1144.632076415673
 30
0.0
 40
0.5
100
AcDbArc
 50
180.019033969455
 51
248.025023881972
  0
LINE
  5
4EA4
330
4E91
100
AcDbEntity
  8
外形線
 48
10.0
100
AcDbLine
 10
1123.398525663106
 20
1143.325909973296
 30
0.0
 11
1123.398525663106
 21
1144.294618045039
 31
0.0
  0
LINE
  5
4EA5
330
4E91
100
AcDbEntity
  8
外形線
 48
10.0
100
AcDbLine
 10
1123.398525663106
 20
1142.359984147006
 30
0.0
 11
1123.398525663106
 21
1142.98307227703
 31
0.0
  0
LINE
  5
4EA6
330
4E91
100
AcDbEntity
  8
外形線
 48
10.0
100
AcDbLine
 10
1123.398525663106
 20
1130.420313907937
 30
0.0
 11
1123.398525663106
 21
1142.017146450741
 31
0.0
  0
LINE
  5
4EA7
330
4E91
100
AcDbEntity
  8
外形線
 48
10.0
100
AcDbLine
 10
1123.398525663106
 20
1129.71320712675
 30
0.0
 11
1123.398525663106
 21
1130.042120021904
 31
0.0
  0
LINE
  5
4EA8
330
4E91
100
AcDbEntity
  8
外形線
 48
10.0
100
AcDbLine
 10
1123.398525663106
 20
1108.078641759149
 30
0.0
 11
1123.398525663106
 21
1130.420313907937
 31
0.0
  0
LINE
  5
4EA9
330
4E91
100
AcDbEntity
  8
外形線
 48
10.0
100
AcDbLine
 10
1123.398525663106
 20
1107.819822714047
 30
0.0
 11
1123.398525663106
 21
1108.700149198143
 31
0.0
  0
LINE
  5
4EAA
330
4E91
100
AcDbEntity
  8
外形線
 48
10.0
100
AcDbLine
 10
1123.398525663106
 20
1100.44543233102
 30
0.0
 11
1123.398525663106
 21
1108.078641759149
 31
0.0
  0
ARC
  5
4EAB
330
4E91
100
AcDbEntity
  8
外形線
 48
10.0
100
AcDbCircle
 10
1123.898525663106
 20
1088.928129594135
 30
0.0
 40
0.5
100
AcDbArc
 50
180.0
 51
268.999999999998
  0
LINE
  5
4EAC
330
4E91
100
AcDbEntity
  8
外形線
 48
10.0
100
AcDbLine
 10
1123.398525663106
 20
1088.928129594135
 30
0.0
 11
1123.398525663106
 21
1100.44543233102
 31
0.0
  0
ARC
  5
4EAD
330
4E91
100
AcDbEntity
  8
外形線
 48
10.0
100
AcDbCircle
 10
1135.396646406818
 20
1087.727276821958
 30
0.0
 40
0.5
100
AcDbArc
 50
0.002863323129
 51
88.999999999998
  0
ARC
  5
4EAE
330
4E91
100
AcDbEntity
  8
外形線
 48
10.0
100
AcDbCircle
 10
1135.396646406818
 20
1101.646285103198
 30
0.0
 40
0.5
100
AcDbArc
 50
271.000000000002
 51
359.997136676878
  0
ARC
  5
4EAF
330
4E91
100
AcDbEntity
  8
細線
 48
10.0
100
AcDbCircle
 10
1135.398359871226
 20
1105.882746614783
 30
0.0
 40
0.5
100
AcDbArc
 50
359.978936747976
 51
84.089361084595
  0
ARC
  5
4EB0
330
4E91
100
AcDbEntity
  8
細線
 48
10.0
100
AcDbCircle
 10
1135.396845195015
 20
1105.6240843805
 30
0.0
 40
0.5
100
AcDbArc
 50
359.997136676878
 51
84.089361084595
  0
ARC
  5
4EB1
330
4E91
100
AcDbEntity
  8
細線
 48
10.0
100
AcDbCircle
 10
1135.398405428356
 20
1136.84472607817
 30
0.0
 40
0.5
100
AcDbArc
 50
359.997136676878
 51
68.874947125989
  0
ARC
  5
4EB2
330
4E91
100
AcDbEntity
  8
細線
 48
10.0
100
AcDbCircle
 10
1135.398453699003
 20
1137.810633254114
 30
0.0
 40
0.5
100
AcDbArc
 50
359.997136676878
 51
68.874947125989
  0
ARC
  5
4EB3
330
4E91
100
AcDbEntity
  8
外形線
 48
10.0
100
AcDbCircle
 10
1135.398508800797
 20
1138.913233296621
 30
0.0
 40
0.5
100
AcDbArc
 50
359.997136676878
 51
68.025023881972
  0
LINE
  5
4EB4
330
4E91
100
AcDbEntity
  8
外形線
 48
10.0
100
AcDbLine
 10
1135.405372610037
 20
1101.146361255619
 30
0.0
 11
1123.889799459887
 21
1100.945356178598
 31
0.0
  0
LINE
  5
4EB5
330
4E91
100
AcDbEntity
  8
外形線
 48
10.0
100
AcDbLine
 10
1135.405372610037
 20
1088.227200669536
 30
0.0
 11
1123.889799459887
 21
1088.428205746557
 31
0.0
  0
LINE
  5
4EB6
330
4E91
100
AcDbEntity
  8
外形線
 48
10.0
100
AcDbLine
 10
1123.711312779708
 20
1144.168402728055
 30
0.0
 11
1135.585609606275
 21
1139.376906984239
 31
0.0
  0
LINE
  5
4EB7
330
4E91
100
AcDbEntity
  8
細線
 48
10.0
100
AcDbLine
 10
1135.448333812772
 20
1106.121426237015
 30
0.0
 11
1123.847037045349
 21
1107.322480857532
 31
0.0
  0
LINE
  5
4EB8
330
4E91
100
AcDbEntity
  8
細線
 48
10.0
100
AcDbLine
 10
1135.449848488983
 20
1106.380088471297
 30
0.0
 11
1123.847037045349
 21
1107.581299902634
 31
0.0
  0
LINE
  5
4EB9
330
4E91
100
AcDbEntity
  8
細線
 48
10.0
100
AcDbLine
 10
1135.533952658586
 20
1126.609702933466
 30
0.0
 11
1123.762442899618
 21
1129.939188683612
 31
0.0
  0
LINE
  5
4EBA
330
4E91
100
AcDbEntity
  8
細線
 48
10.0
100
AcDbLine
 10
1135.578607784566
 20
1137.311124095764
 30
0.0
 11
1123.718323306896
 21
1141.893586129411
 31
0.0
  0
LINE
  5
4EBB
330
4E91
100
AcDbEntity
  8
細線
 48
10.0
100
AcDbLine
 10
1135.578656055213
 20
1138.277031271709
 30
0.0
 11
1123.718323306896
 21
1142.859511955701
 31
0.0
  0
LINE
  5
4EBC
330
4E91
100
AcDbEntity
  8
外形線
 48
10.0
100
AcDbLine
 10
1108.899561566736
 20
1152.686780962578
 30
0.0
 11
1122.908291096026
 21
1152.436153402709
 31
0.0
  0
LINE
  5
4EBD
330
4E91
100
AcDbEntity
  8
外形線
 48
10.0
100
AcDbLine
 10
1108.899561566736
 20
1152.686780962578
 30
0.0
 11
1108.399561566736
 21
1152.180676686204
 31
0.0
  0
LINE
  5
4EBE
330
4E91
100
AcDbEntity
  8
外形線
 48
10.0
100
AcDbLine
 10
1108.399561566736
 20
1151.192885238951
 30
0.0
 11
1108.399561566736
 21
1150.692885238951
 31
0.0
  0
ARC
  5
4EBF
330
4E91
100
AcDbEntity
  8
外形線
 48
10.0
100
AcDbCircle
 10
1098.998525663106
 20
1152.414559409545
 30
0.0
 40
4.4
100
AcDbArc
 50
271.3
 51
0.0
  0
LINE
  5
4EC0
330
4E91
100
AcDbEntity
  8
外形線
 48
10.0
100
AcDbLine
 10
1046.016783711759
 20
1146.811102679105
 30
0.0
 11
1099.098349930826
 21
1148.015691928525
 31
0.0
  0
LINE
  5
4EC1
330
4E91
100
AcDbEntity
  8
外形線
 48
10.0
100
AcDbLine
 10
1103.398525663105
 20
1152.686780962578
 30
0.0
 11
1103.398525663105
 21
1152.414559409545
 31
0.0
  0
LINE
  5
4EC2
330
4E91
100
AcDbEntity
  8
外形線
 48
10.0
100
AcDbLine
 10
1106.398525663105
 20
1152.686780962578
 30
0.0
 11
1103.398525663105
 21
1152.686780962578
 31
0.0
  0
ARC
  5
4EC3
330
4E91
100
AcDbEntity
  8
外形線
 48
10.0
100
AcDbCircle
 10
1107.898525663105
 20
1150.161780962577
 30
0.0
 40
1.500000000000156
100
AcDbArc
 50
70.528779365514
 51
179.999999999993
  0
LINE
  5
4EC4
330
4E91
100
AcDbEntity
  8
細線
 48
10.0
100
AcDbLine
 10
1108.899561566736
 20
1152.686780962578
 30
0.0
 11
1108.899561566736
 21
1036.686780962578
 31
0.0
  0
LINE
  5
4EC5
330
4E91
100
AcDbEntity
  8
細線
 48
10.0
100
AcDbLine
 10
1108.899561566736
 20
1152.680676686204
 30
0.0
 11
1108.899561566736
 21
1036.692885238951
 31
0.0
  0
LINE
  5
4EC6
330
4E91
100
AcDbEntity
  8
外形線
 48
10.0
100
AcDbLine
 10
1123.398525663106
 20
1072.956444458874
 30
0.0
 11
1123.398525663106
 21
1059.660354798405
 31
0.0
  0
ARC
  5
4EC7
330
4E91
100
AcDbEntity
  8
細線
 48
10.0
100
AcDbCircle
 10
1123.898525663106
 20
1047.013577778149
 30
0.0
 40
0.5
100
AcDbArc
 50
111.125052874011
 51
180.0
  0
ARC
  5
4EC8
330
4E91
100
AcDbEntity
  8
細線
 48
10.0
100
AcDbCircle
 10
1123.898066965619
 20
1046.04747472476
 30
0.0
 40
0.5
100
AcDbArc
 50
111.125052874011
 51
179.923306313171
  0
ARC
  5
4EC9
330
4E91
100
AcDbEntity
  8
細線
 48
10.0
100
AcDbCircle
 10
1123.898525663106
 20
1059.660354798405
 30
0.0
 40
0.5
100
AcDbArc
 50
105.793169048262
 51
180.0
  0
ARC
  5
4ECA
330
4E91
100
AcDbEntity
  8
細線
 48
10.0
100
AcDbCircle
 10
1123.898525663106
 20
1058.953248017218
 30
0.0
 40
0.5
100
AcDbArc
 50
105.793169048262
 51
180.0
  0
ARC
  5
4ECB
330
4E91
100
AcDbEntity
  8
細線
 48
10.0
100
AcDbCircle
 10
1123.898525663106
 20
1081.294920166006
 30
0.0
 40
0.5
100
AcDbArc
 50
95.910638915405
 51
180.0
  0
ARC
  5
4ECC
330
4E91
100
AcDbEntity
  8
細線
 48
10.0
100
AcDbCircle
 10
1123.898525663106
 20
1081.553739211108
 30
0.0
 40
0.5
100
AcDbArc
 50
95.910638915405
 51
180.0
  0
LINE
  5
4ECD
330
4E91
100
AcDbEntity
  8
外形線
 48
10.0
100
AcDbLine
 10
1123.398525663106
 20
1081.294920166006
 30
0.0
 11
1123.398525663106
 21
1088.928129594135
 31
0.0
  0
LINE
  5
4ECE
330
4E91
100
AcDbEntity
  8
外形線
 48
10.0
100
AcDbLine
 10
1123.398525663106
 20
1081.745828707453
 30
0.0
 11
1123.398525663106
 21
1082.004647752555
 31
0.0
  0
LINE
  5
4ECF
330
4E91
100
AcDbEntity
  8
外形線
 48
10.0
100
AcDbLine
 10
1123.398525663106
 20
1072.956444458874
 30
0.0
 11
1123.398525663106
 21
1081.294920166006
 31
0.0
  0
LINE
  5
4ED0
330
4E91
100
AcDbEntity
  8
外形線
 48
10.0
100
AcDbLine
 10
1123.398525663106
 20
1058.953248017218
 30
0.0
 11
1123.398525663106
 21
1059.660354798405
 31
0.0
  0
LINE
  5
4ED1
330
4E91
100
AcDbEntity
  8
外形線
 48
10.0
100
AcDbLine
 10
1123.398525663106
 20
1047.013577778149
 30
0.0
 11
1123.398525663106
 21
1058.953248017218
 31
0.0
  0
LINE
  5
4ED2
330
4E91
100
AcDbEntity
  8
外形線
 48
10.0
100
AcDbLine
 10
1123.398067413553
 20
1046.048144003235
 30
0.0
 11
1123.398525663106
 21
1047.013577778149
 31
0.0
  0
LINE
  5
4ED3
330
4E91
100
AcDbEntity
  8
外形線
 48
10.0
100
AcDbLine
 10
1123.396317242873
 20
1044.740639597053
 30
0.0
 11
1123.398067413553
 21
1046.048144003235
 31
0.0
  0
ARC
  5
4ED4
330
4E91
100
AcDbEntity
  8
外形線
 48
10.0
100
AcDbCircle
 10
1123.896317242873
 20
1044.740639597053
 30
0.0
 40
0.5
100
AcDbArc
 50
111.974976118028
 51
180.0
  0
ARC
  5
4ED5
330
4E91
100
AcDbEntity
  8
細線
 48
10.0
100
AcDbCircle
 10
1135.398494161258
 20
1063.952267566336
 30
0.0
 40
0.5
100
AcDbArc
 50
285.793169048262
 51
0.004772330144
  0
ARC
  5
4ED6
330
4E91
100
AcDbEntity
  8
細線
 48
10.0
100
AcDbCircle
 10
1135.398525663106
 20
1063.245169695216
 30
0.0
 40
0.5
100
AcDbArc
 50
285.793169048262
 51
0.0
  0
ARC
  5
4ED7
330
4E91
100
AcDbEntity
  8
細線
 48
10.0
100
AcDbCircle
 10
1135.398525663106
 20
1052.528882302126
 30
0.0
 40
0.5
100
AcDbArc
 50
291.125052874011
 51
0.0
  0
ARC
  5
4ED8
330
4E91
100
AcDbEntity
  8
細線
 48
10.0
100
AcDbCircle
 10
1135.398525663106
 20
1051.562956475835
 30
0.0
 40
0.5
100
AcDbArc
 50
291.125052874011
 51
0.0
  0
ARC
  5
4ED9
330
4E91
100
AcDbEntity
  8
外形線
 48
10.0
100
AcDbCircle
 10
1135.398525663106
 20
1050.460335432784
 30
0.0
 40
0.5
100
AcDbArc
 50
291.974976118028
 51
0.0
  0
LINE
  5
4EDA
330
4E91
100
AcDbEntity
  8
外形線
 48
10.0
100
AcDbLine
 10
1135.898525663106
 20
1051.562956475835
 30
0.0
 11
1135.898525663106
 21
1050.460335432784
 31
0.0
  0
LINE
  5
4EDB
330
4E91
100
AcDbEntity
  8
外形線
 48
10.0
100
AcDbLine
 10
1135.898525663106
 20
1052.528882302126
 30
0.0
 11
1135.898525663106
 21
1051.562956475835
 31
0.0
  0
LINE
  5
4EDC
330
4E91
100
AcDbEntity
  8
外形線
 48
10.0
100
AcDbLine
 10
1135.898525663106
 20
1063.245169695216
 30
0.0
 11
1135.898525663106
 21
1052.528882302126
 31
0.0
  0
LINE
  5
4EDD
330
4E91
100
AcDbEntity
  8
外形線
 48
10.0
100
AcDbLine
 10
1135.898494159523
 20
1063.952309212773
 30
0.0
 11
1135.898525663106
 21
1063.245169695216
 31
0.0
  0
LINE
  5
4EDE
330
4E91
100
AcDbEntity
  8
外形線
 48
10.0
100
AcDbLine
 10
1135.896845194391
 20
1083.749502531863
 30
0.0
 11
1135.898494159523
 21
1063.952309212773
 31
0.0
  0
ARC
  5
4EDF
330
4E91
100
AcDbEntity
  8
細線
 48
10.0
100
AcDbCircle
 10
1135.396794220963
 20
1083.49065322233
 30
0.0
 40
0.5
100
AcDbArc
 50
275.910638915405
 51
0.00199902817
  0
ARC
  5
4EE0
330
4E91
100
AcDbEntity
  8
細線
 48
10.0
100
AcDbCircle
 10
1135.396845195015
 20
1083.749477544655
 30
0.0
 40
0.5
100
AcDbArc
 50
275.910638915405
 51
0.002863323129
  0
ARC
  5
4EE1
330
4E91
100
AcDbEntity
  8
外形線
 48
10.0
100
AcDbCircle
 10
1122.897486448612
 20
1037.437296090646
 30
0.0
 40
0.5
100
AcDbArc
 50
271.000000000002
 51
359.984453673186
  0
LINE
  5
4EE2
330
4E91
100
AcDbEntity
  8
外形線
 48
10.0
100
AcDbLine
 10
1135.896646406194
 20
1087.727301809166
 30
0.0
 11
1135.896794220659
 21
1083.490670667142
 31
0.0
  0
LINE
  5
4EE3
330
4E91
100
AcDbEntity
  8
外形線
 48
10.0
100
AcDbLine
 10
1123.709216437395
 20
1045.204313284671
 30
0.0
 11
1135.585626468584
 21
1049.996661745166
 31
0.0
  0
LINE
  5
4EE4
330
4E91
100
AcDbEntity
  8
細線
 48
10.0
100
AcDbLine
 10
1135.578728019316
 20
1052.062484284531
 30
0.0
 11
1123.718323306896
 21
1047.479975795744
 31
0.0
  0
LINE
  5
4EE5
330
4E91
100
AcDbEntity
  8
細線
 48
10.0
100
AcDbLine
 10
1135.578728019316
 20
1051.09655845824
 30
0.0
 11
1123.717864609409
 21
1046.513872742355
 31
0.0
  0
LINE
  5
4EE6
330
4E91
100
AcDbEntity
  8
細線
 48
10.0
100
AcDbLine
 10
1135.534608426593
 20
1062.764044470891
 30
0.0
 11
1123.762442899618
 21
1059.434373241543
 31
0.0
  0
LINE
  5
4EE7
330
4E91
100
AcDbEntity
  8
細線
 48
10.0
100
AcDbLine
 10
1135.534576924746
 20
1063.471142342011
 30
0.0
 11
1123.762442899618
 21
1060.141480022729
 31
0.0
  0
LINE
  5
4EE8
330
4E91
100
AcDbEntity
  8
細線
 48
10.0
100
AcDbLine
 10
1135.44828283872
 20
1082.993311365815
 30
0.0
 11
1123.847037045349
 21
1081.792262022521
 31
0.0
  0
LINE
  5
4EE9
330
4E91
100
AcDbEntity
  8
細線
 48
10.0
100
AcDbLine
 10
1135.448333812772
 20
1083.25213568814
 30
0.0
 11
1123.847037045349
 21
1082.051081067623
 31
0.0
  0
LINE
  5
4EEA
330
4E91
100
AcDbEntity
  8
外形線
 48
10.0
100
AcDbLine
 10
1123.399470041665
 20
1044.747733739171
 30
0.0
 11
1123.397486430207
 21
1037.437160423353
 31
0.0
  0
LINE
  5
4EEB
330
4E91
100
AcDbEntity
  8
外形線
 48
10.0
100
AcDbLine
 10
1123.399564892765
 20
1151.936223047449
 30
0.0
 11
1123.397486430207
 21
1037.437160423353
 31
0.0
  0
LINE
  5
4EEC
330
4E91
100
AcDbEntity
  8
外形線
 48
10.0
100
AcDbLine
 10
1108.399561566736
 20
1152.180676686204
 30
0.0
 11
1108.399561566736
 21
1037.192885238951
 31
0.0
  0
LINE
  5
4EED
330
4E91
100
AcDbEntity
  8
外形線
 48
10.0
100
AcDbLine
 10
1108.899561566736
 20
1036.686780962578
 30
0.0
 11
1122.906212651831
 21
1036.937372243068
 31
0.0
  0
LINE
  5
4EEE
330
4E91
100
AcDbEntity
  8
外形線
 48
10.0
100
AcDbLine
 10
1108.899561566736
 20
1036.686780962578
 30
0.0
 11
1108.399561566736
 21
1037.192885238951
 31
0.0
  0
LINE
  5
4EEF
330
4E91
100
AcDbEntity
  8
外形線
 48
10.0
100
AcDbLine
 10
1108.399561566736
 20
1038.192885238951
 30
0.0
 11
1108.399561566736
 21
1038.692885238951
 31
0.0
  0
LINE
  5
4EF0
330
4E91
100
AcDbEntity
  8
外形線
 48
10.0
100
AcDbLine
 10
1035.022931603883
 20
1071.442246865485
 30
0.0
 11
1041.278741748243
 21
1046.351562814666
 31
0.0
  0
ARC
  5
4EF1
330
4E91
100
AcDbEntity
  8
外形線
 48
10.0
100
AcDbCircle
 10
1046.130220379623
 20
1047.561172292664
 30
0.0
 40
5.0
100
AcDbArc
 50
193.999999999996
 51
268.7
  0
ARC
  5
4EF2
330
4E91
100
AcDbEntity
  8
外形線
 48
10.0
100
AcDbCircle
 10
1034.052635877606
 20
1071.200324969886
 30
0.0
 40
1.0
100
AcDbArc
 50
13.999999999996
 51
89.000000000011
  0
ARC
  5
4EF3
330
4E91
100
AcDbEntity
  8
外形線
 48
10.0
100
AcDbCircle
 10
1069.398525663106
 20
1041.031595836918
 30
0.0
 40
1.0
100
AcDbArc
 50
0.0
 51
88.7
  0
ARC
  5
4EF4
330
4E91
100
AcDbEntity
  8
外形線
 48
10.0
100
AcDbCircle
 10
1071.398525663106
 20
1031.186780962577
 30
0.0
 40
1.0
100
AcDbArc
 50
180.0
 51
270.0
  0
ARC
  5
4EF5
330
4E91
100
AcDbEntity
  8
外形線
 48
10.0
100
AcDbCircle
 10
1105.398525663105
 20
1031.186780962577
 30
0.0
 40
1.0
100
AcDbArc
 50
270.0
 51
0.0
  0
LINE
  5
4EF6
330
4E91
100
AcDbEntity
  8
外形線
 48
10.0
100
AcDbLine
 10
1070.398525663106
 20
1031.186780962577
 30
0.0
 11
1070.398525663106
 21
1041.031595836918
 31
0.0
  0
LINE
  5
4EF7
330
4E91
100
AcDbEntity
  8
外形線
 48
10.0
100
AcDbLine
 10
1046.016783711759
 20
1042.56245924605
 30
0.0
 11
1099.098349930826
 21
1041.35786999663
 31
0.0
  0
LINE
  5
4EF8
330
4E91
100
AcDbEntity
  8
外形線
 48
10.0
100
AcDbLine
 10
1021.881073256668
 20
1072.412932713756
 30
0.0
 11
1034.070088284044
 21
1072.200172665042
 31
0.0
  0
LINE
  5
4EF9
330
4E91
100
AcDbEntity
  8
外形線
 48
10.0
100
AcDbLine
 10
1106.398525663105
 20
1040.711780962577
 30
0.0
 11
1106.398525663105
 21
1031.186780962577
 31
0.0
  0
LINE
  5
4EFA
330
4E91
100
AcDbEntity
  8
外形線
 48
10.0
100
AcDbLine
 10
1106.398525663105
 20
1040.711780962577
 30
0.0
 11
1106.398525663105
 21
1152.686780962578
 31
0.0
  0
LINE
  5
4EFB
330
4E91
100
AcDbEntity
  8
外形線
 48
10.0
100
AcDbLine
 10
1105.398525663105
 20
1030.186780962577
 30
0.0
 11
1071.398525663106
 21
1030.186780962577
 31
0.0
  0
LINE
  5
4EFC
330
4E91
100
AcDbEntity
  8
外形線
 48
10.0
100
AcDbLine
 10
1103.398525663106
 20
1036.95900251561
 30
0.0
 11
1103.398525663105
 21
1036.692885238951
 31
0.0
  0
LINE
  5
4EFD
330
4E91
100
AcDbEntity
  8
外形線
 48
10.0
100
AcDbLine
 10
1106.398525663105
 20
1036.692885238951
 30
0.0
 11
1103.398525663105
 21
1036.692885238951
 31
0.0
  0
ARC
  5
4EFE
330
4E91
100
AcDbEntity
  8
外形線
 48
10.0
100
AcDbCircle
 10
1107.898525663105
 20
1039.211780962577
 30
0.0
 40
1.499999999999659
100
AcDbArc
 50
179.99999999998
 51
289.471220634515
  0
ARC
  5
4EFF
330
4E91
100
AcDbEntity
  8
外形線
 48
10.0
100
AcDbCircle
 10
1098.998525663106
 20
1036.95900251561
 30
0.0
 40
4.4
100
AcDbArc
 50
0.0
 51
88.7
  0
LINE
  5
4F00
330
4E91
100
AcDbEntity
  8
細線
 48
10.0
100
AcDbLine
 10
1103.398525663105
 20
1152.686780962578
 30
0.0
 11
1103.398525663106
 21
1036.95900251561
 31
0.0
  0
LINE
  5
4F01
330
4E91
100
AcDbEntity
  8
細線
 48
10.0
100
AcDbLine
 10
1034.837298404406
 20
1072.186780962578
 30
0.0
 11
1034.840933619068
 21
1117.201361012233
 31
0.0
  0
LINE
  5
4F02
330
4E91
100
AcDbEntity
  8
細線
 48
10.0
100
AcDbLine
 10
1042.201886517784
 20
1144.905639229587
 30
0.0
 11
1042.201886517784
 21
1044.467922695569
 31
0.0
  0
LINE
  5
4F03
330
4E91
100
AcDbEntity
  8
外形線
 48
10.0
100
AcDbLine
 10
1135.898508800172
 20
1138.913208309413
 30
0.0
 11
1135.896646406194
 21
1101.646260115989
 31
0.0
  0
ARC
  5
4F04
330
4E91
100
AcDbEntity
  8
細線
 48
10.0
100
AcDbCircle
 10
1135.397834558349
 20
1125.421480922695
 30
0.0
 40
0.5
100
AcDbArc
 50
359.997136676878
 51
74.206830951738
  0
ARC
  5
4F05
330
4E91
100
AcDbEntity
  8
細線
 48
10.0
100
AcDbCircle
 10
1135.397869895098
 20
1126.128577709141
 30
0.0
 40
0.5
100
AcDbArc
 50
359.997136676878
 51
74.206830951738
  0
LINE
  5
4F06
330
4E91
100
AcDbEntity
  8
細線
 48
10.0
100
AcDbLine
 10
1135.533917321837
 20
1125.90260614702
 30
0.0
 11
1123.762442899618
 21
1129.232081902426
 31
0.0
  0
LINE
  5
4F07
330
4E91
100
AcDbEntity
  8
中心線
 48
10.0
100
AcDbLine
 10
1088.398525663106
 20
1052.03299312045
 30
0.0
 11
1088.398525663106
 21
1013.722487401784
 31
0.0
  0
ENDBLK
  5
4F08
330
4E91
100
AcDbEntity
  8
0
 48
10.0
100
AcDbBlockEnd
  0
BLOCK
  5
4FA9
330
4FA8
100
AcDbEntity
  8
0
 48
10.0
100
AcDbBlockBegin
  2
A3横用_タイトル_２_
 70
     0
 10
0.0
 20
0.0
 30
0.0
  3
A3横用_タイトル_２_
  1

  0
MTEXT
  5
4FAB
330
4FA8
100
AcDbEntity
  8
図枠細線
 48
10.0
100
AcDbMText
 10
298.882956062989
 20
-79.779606504922
 30
0.0
 40
2.5
 41
8.710074614597
 71
     1
 72
     5
  1
型式\PTYPE
  0
LINE
  5
4FAC
330
4FA8
100
AcDbEntity
  8
図枠細線
  6
CONTINUOUS
 62
   252
100
AcDbLine
 10
297.690741351862
 20
-79.06604104897
 30
0.0
 11
397.690741351862
 21
-79.06604104897
 31
0.0
  0
LINE
  5
4FAD
330
4FA8
100
AcDbEntity
  8
図枠太線
  6
CONTINUOUS
 62
   251
100
AcDbLine
 10
297.690741351862
 20
-105.06604104897
 30
0.0
 11
297.690741351862
 21
-65.06604104897
 31
0.0
  0
TEXT
  5
4FAE
330
4FA8
100
AcDbEntity
  8
図枠細線
  6
CONTINUOUS
 62
   252
100
AcDbText
 10
201.112081290641
 20
-102.109642395212
 30
0.0
 40
3.5
  1
ＴＯＷＡ　ＳＥＩＤＥＮ　ＩＮＤＵＳＴＲＩＡＬ　ＣＯ．，ＬＴＤ．
 41
0.746656297509
  7
EXCADSTD
 72
     5
 11
295.887653987796
 21
-102.109642395212
 31
0.0
100
AcDbText
  0
LINE
  5
4FAF
330
4FA8
100
AcDbEntity
  8
図枠太線
 48
10.0
100
AcDbLine
 10
397.690741351862
 20
-65.06604104897
 30
0.0
 11
397.690741351862
 21
-105.06604104897
 31
0.0
  0
LINE
  5
4FB0
330
4FA8
100
AcDbEntity
  8
図枠太線
  6
CONTINUOUS
 62
   251
100
AcDbLine
 10
197.690741351862
 20
-105.06604104897
 30
0.0
 11
197.690741351862
 21
-65.06604104897
 31
0.0
  0
LINE
  5
4FB1
330
4FA8
100
AcDbEntity
  8
図枠細線
  6
CONTINUOUS
 62
   252
100
AcDbLine
 10
164.290741351862
 20
-105.06604104897
 30
0.0
 11
164.290741351862
 21
-90.06604304897
 31
0.0
  0
LINE
  5
4FB2
330
4FA8
100
AcDbEntity
  8
図枠細線
  6
CONTINUOUS
 62
   252
100
AcDbLine
 10
130.990741351862
 20
-105.06604104897
 30
0.0
 11
130.990741351862
 21
-90.06604304897
 31
0.0
  0
LINE
  5
4FB3
330
4FA8
100
AcDbEntity
  8
図枠太線
  6
CONTINUOUS
 62
   251
100
AcDbLine
 10
97.690741351862
 20
-105.06604104897
 30
0.0
 11
97.690741351862
 21
-65.06604104897
 31
0.0
  0
LINE
  5
4FB4
330
4FA8
100
AcDbEntity
  8
図枠太線
 48
10.0
100
AcDbLine
 10
-2.309258648138
 20
-105.06604104897
 30
0.0
 11
-2.309258648138
 21
-65.06604104897
 31
0.0
  0
LINE
  5
4FB5
330
4FA8
100
AcDbEntity
  8
図枠太線
  6
CONTINUOUS
 62
   251
100
AcDbLine
 10
-2.309258648138
 20
-105.06604104897
 30
0.0
 11
397.690741351862
 21
-105.06604104897
 31
0.0
  0
MTEXT
  5
4FB6
330
4FA8
100
AcDbEntity
  8
図枠細線
 48
10.0
100
AcDbMText
 10
98.911759456254
 20
-67.08056365701
 30
0.0
 40
2.5
 41
28.233595265074
 71
     1
 72
     5
  1
{\Fmonotxt.shx,bigfont.shx|c128;承認 APPROVED}
  0
MTEXT
  5
4FB7
330
4FA8
100
AcDbEntity
  8
図枠細線
 48
10.0
100
AcDbMText
 10
101.579286745984
 20
-93.30912061666
 30
0.0
 40
2.5
 41
27.954882823547
 71
     1
 72
     5
  1
{\Fmonotxt.shx,bigfont.shx|c128;THIRD ANGLE\PPROJECTION}
  0
MTEXT
  5
4FB8
330
4FA8
100
AcDbEntity
  8
図枠細線
 48
10.0
100
AcDbMText
 10
106.845621483798
 20
-86.675875952323
 30
0.0
 40
3.0
 41
19.692400475383
 71
     1
 72
     5
  1
{\Fmonotxt.shx,bigfont.shx|c128;第三角法}
  0
MTEXT
  5
4FB9
330
4FA8
100
AcDbEntity
  8
図枠細線
 48
10.0
100
AcDbMText
 10
132.502417995904
 20
-67.280160386943
 30
0.0
 40
2.5
 41
28.998753428368
 71
     1
 72
     5
  1
{\Fmonotxt.shx,bigfont.shx|c128;検図  CHECKED}
  0
MTEXT
  5
4FBA
330
4FA8
100
AcDbEntity
  8
図枠細線
 48
10.0
100
AcDbMText
 10
131.87242609348
 20
-86.72528773263
 30
0.0
 40
2.5
 41
22.629632913243
 71
     1
 72
     5
  1
{\Fmonotxt.shx,bigfont.shx|c128;尺度　SCALE}
  0
MTEXT
  5
4FBB
330
4FA8
100
AcDbEntity
  8
図枠細線
 48
10.0
100
AcDbMText
 10
166.07941515589
 20
-66.970408757499
 30
0.0
 40
2.5
 41
24.983741184205
 71
     1
 72
     5
  1
{\Fmonotxt.shx,bigfont.shx|c128;製図　DRAWN}
  0
MTEXT
  5
4FBC
330
4FA8
100
AcDbEntity
  8
図枠細線
 48
10.0
100
AcDbMText
 10
166.318676220678
 20
-86.855194180517
 30
0.0
 40
2.5
 41
25.735090160813
 71
     1
 72
     5
  1
{\Fmonotxt.shx,bigfont.shx|c128;日付 DATE}
  0
MTEXT
  5
4FBD
330
4FA8
100
AcDbEntity
  8
図枠細線
 48
10.0
100
AcDbMText
 10
298.660781344849
 20
-92.773779514431
 30
0.0
 40
2.5
 41
24.385612216707
 71
     1
 72
     5
  1
{\Fmonotxt.shx,bigfont.shx|c128;図面番号\PDRG.　No.}
  0
MTEXT
  5
4FBE
330
4FA8
100
AcDbEntity
  8
図枠細線
 48
10.0
100
AcDbMText
 10
298.680102695284
 20
-65.598090878201
 30
0.0
 40
2.5
 41
8.710074614597
 71
     1
 72
     5
  1
名称\PTITLE
  0
MTEXT
  5
4FBF
330
4FA8
100
AcDbEntity
  8
図枠細線
100
AcDbMText
 10
-1.050909071556
 20
-66.61540662702
 30
0.0
 40
2.5
 41
49.938282706292
 71
     1
 72
     5
  1
{\Fmonotxt.shx,bigfont.shx|c128;図暦　CHANGE　NOTICE}
  0
TEXT
  5
4FC0
330
4FA8
100
AcDbEntity
  8
図枠ロゴマーク
  6
CONTINUOUS
 62
   253
100
AcDbText
 10
198.694836028825
 20
-95.297743231951
 30
0.0
 40
7.0
  1
東和制電工業株式会社
 50
0.016555220185
 41
1.186384129432
  7
EXCADSTD
 72
     5
 11
296.136515125212
 21
-95.26958813028
 31
0.0
100
AcDbText
  0
LINE
  5
4FC1
330
4FA8
100
AcDbEntity
  8
図枠細線
  6
CONTINUOUS
 62
   252
100
AcDbLine
 10
297.690741351862
 20
-92.06604104897
 30
0.0
 11
397.690741351862
 21
-92.06604104897
 31
0.0
  0
LINE
  5
4FC2
330
4FA8
100
AcDbEntity
  8
図枠細線
  6
CONTINUOUS
 62
   252
100
AcDbLine
 10
164.290741351862
 20
-65.06604104897
 30
0.0
 11
164.290741351862
 21
-90.06604304897
 31
0.0
  0
LINE
  5
4FC3
330
4FA8
100
AcDbEntity
  8
図枠細線
  6
CONTINUOUS
 62
   252
100
AcDbLine
 10
130.990741351862
 20
-65.06604104897
 30
0.0
 11
130.990741351862
 21
-90.06604304897
 31
0.0
  0
LINE
  5
4FC4
330
4FA8
100
AcDbEntity
  8
図枠細線
  6
CONTINUOUS
100
AcDbLine
 10
97.690741351862
 20
-85.06603904897
 30
0.0
 11
197.690741351862
 21
-85.06604104897
 31
0.0
  0
LINE
  5
4FC5
330
4FA8
100
AcDbEntity
  8
図枠細線
  6
CONTINUOUS
 62
   252
100
AcDbLine
 10
-2.309258648138
 20
-98.46604104897
 30
0.0
 11
97.690741351862
 21
-98.46604104897
 31
0.0
  0
LINE
  5
4FC6
330
4FA8
100
AcDbEntity
  8
図枠細線
  6
CONTINUOUS
 62
   252
100
AcDbLine
 10
-2.309258648138
 20
-91.86604104897
 30
0.0
 11
97.690741351862
 21
-91.86604104897
 31
0.0
  0
LINE
  5
4FC7
330
4FA8
100
AcDbEntity
  8
図枠細線
  6
CONTINUOUS
 62
   252
100
AcDbLine
 10
-2.309258648138
 20
-78.46604304897
 30
0.0
 11
97.690741351862
 21
-78.46604304897
 31
0.0
  0
LINE
  5
4FC8
330
4FA8
100
AcDbEntity
  8
図枠細線
  6
CONTINUOUS
 62
   252
100
AcDbLine
 10
-2.309258648138
 20
-71.86604304897
 30
0.0
 11
97.690741351862
 21
-71.86604304897
 31
0.0
  0
LINE
  5
4FC9
330
4FA8
100
AcDbEntity
  8
図枠細線
  6
CONTINUOUS
100
AcDbLine
 10
-2.309258648138
 20
-85.06604104897
 30
0.0
 11
97.690741351862
 21
-85.06604104897
 31
0.0
  0
LINE
  5
4FCA
330
4FA8
100
AcDbEntity
  8
図枠太線
  6
CONTINUOUS
 62
   251
100
AcDbLine
 10
197.690741351862
 20
-85.06604104897
 30
0.0
 11
297.690741351862
 21
-85.06604104897
 31
0.0
  0
LINE
  5
4FCB
330
4FA8
100
AcDbEntity
  8
図枠細線
  6
CONTINUOUS
 62
   252
100
AcDbLine
 10
197.690741351862
 20
-75.06604104897
 30
0.0
 11
297.690741351862
 21
-75.06604104897
 31
0.0
  0
ENDBLK
  5
4FAA
330
4FA8
100
AcDbEntity
  8
0
 48
10.0
100
AcDbBlockEnd
  0
BLOCK
  5
4FF2
330
4FE8
100
AcDbEntity
  8
0
 48
10.0
100
AcDbBlockBegin
  2
*D20
 70
     1
 10
0.0
 20
0.0
 30
0.0
  3
*D20
  1

  0
LINE
  5
52CB
330
4FE8
100
AcDbEntity
  8
寸法線
 62
     0
 48
10.0
100
AcDbLine
 10
455.78999350116
 20
333.593723268571
 30
0.0
 11
455.78999350116
 21
302.463943826578
 31
0.0
  0
LINE
  5
52CC
330
4FE8
100
AcDbEntity
  8
寸法線
 62
     0
 48
10.0
100
AcDbLine
 10
485.28999350116
 20
352.867277738778
 30
0.0
 11
485.28999350116
 21
302.463943826578
 31
0.0
  0
LINE
  5
52CD
330
4FE8
100
AcDbEntity
  8
寸法線
 62
     0
 48
10.0
100
AcDbLine
 10
461.78999350116
 20
303.713943826578
 30
0.0
 11
479.28999350116
 21
303.713943826578
 31
0.0
  0
INSERT
  5
52CE
330
4FE8
100
AcDbEntity
  8
寸法線
 62
     0
100
AcDbBlockReference
  2
_OPEN30
 10
455.78999350116
 20
303.713943826578
 30
0.0
 41
6.0
 42
6.0
 43
6.0
 50
180.0
  0
INSERT
  5
52CF
330
4FE8
100
AcDbEntity
  8
寸法線
 62
     0
100
AcDbBlockReference
  2
_OPEN30
 10
485.28999350116
 20
303.713943826578
 30
0.0
 41
6.0
 42
6.0
 43
6.0
  0
MTEXT
  5
52D0
330
4FE8
100
AcDbEntity
  8
寸法線
 62
     0
 48
10.0
100
AcDbMText
 10
470.53999350116
 20
308.343110493245
 30
0.0
 40
8.0
 41
0.0
 71
     5
 72
     1
  1
\A1;30
  0
POINT
  5
52D1
330
4FE8
100
AcDbEntity
  8
DEFPOINTS
 62
     0
100
AcDbPoint
 10
455.78999350116
 20
334.218723268571
 30
0.0
  0
POINT
  5
52D2
330
4FE8
100
AcDbEntity
  8
DEFPOINTS
 62
     0
100
AcDbPoint
 10
485.28999350116
 20
353.492277738778
 30
0.0
  0
POINT
  5
52D3
330
4FE8
100
AcDbEntity
  8
DEFPOINTS
 62
     0
100
AcDbPoint
 10
485.28999350116
 20
303.713943826578
 30
0.0
  0
ENDBLK
  5
4FF3
330
4FE8
100
AcDbEntity
  8
0
 48
10.0
100
AcDbBlockEnd
  0
BLOCK
  5
5047
330
503D
100
AcDbEntity
  8
0
 48
10.0
100
AcDbBlockBegin
  2
*D21
 70
     1
 10
0.0
 20
0.0
 30
0.0
  3
*D21
  1

  0
LINE
  5
52C2
330
503D
100
AcDbEntity
  8
寸法線
 62
     0
 48
10.0
100
AcDbLine
 10
367.28999350116
 20
378.093723268572
 30
0.0
 11
367.28999350116
 21
302.463943826578
 31
0.0
  0
LINE
  5
52C3
330
503D
100
AcDbEntity
  8
寸法線
 62
     0
 48
10.0
100
AcDbLine
 10
455.78999350116
 20
333.593723268571
 30
0.0
 11
455.78999350116
 21
302.463943826578
 31
0.0
  0
LINE
  5
52C4
330
503D
100
AcDbEntity
  8
寸法線
 62
     0
 48
10.0
100
AcDbLine
 10
373.28999350116
 20
303.713943826578
 30
0.0
 11
449.78999350116
 21
303.713943826578
 31
0.0
  0
INSERT
  5
52C5
330
503D
100
AcDbEntity
  8
寸法線
 62
     0
100
AcDbBlockReference
  2
_OPEN30
 10
367.28999350116
 20
303.713943826578
 30
0.0
 41
6.0
 42
6.0
 43
6.0
 50
180.0
  0
INSERT
  5
52C6
330
503D
100
AcDbEntity
  8
寸法線
 62
     0
100
AcDbBlockReference
  2
_OPEN30
 10
455.78999350116
 20
303.713943826578
 30
0.0
 41
6.0
 42
6.0
 43
6.0
  0
MTEXT
  5
52C7
330
503D
100
AcDbEntity
  8
寸法線
 62
     0
 48
10.0
100
AcDbMText
 10
411.53999350116
 20
308.355610493245
 30
0.0
 40
8.0
 41
0.0
 71
     5
 72
     1
  1
\A1;88
  0
POINT
  5
52C8
330
503D
100
AcDbEntity
  8
DEFPOINTS
 62
     0
100
AcDbPoint
 10
367.28999350116
 20
378.718723268572
 30
0.0
  0
POINT
  5
52C9
330
503D
100
AcDbEntity
  8
DEFPOINTS
 62
     0
100
AcDbPoint
 10
455.78999350116
 20
334.218723268571
 30
0.0
  0
POINT
  5
52CA
330
503D
100
AcDbEntity
  8
DEFPOINTS
 62
     0
100
AcDbPoint
 10
455.78999350116
 20
303.713943826578
 30
0.0
  0
ENDBLK
  5
5048
330
503D
100
AcDbEntity
  8
0
 48
10.0
100
AcDbBlockEnd
  0
BLOCK
  5
50B5
330
50B4
100
AcDbEntity
  8
0
100
AcDbBlockBegin
  2
六角材
 70
     0
 10
0.0
 20
0.0
 30
0.0
  3
六角材
  1

  0
LINE
  5
50B6
330
50B4
100
AcDbEntity
  8
外形線
100
AcDbLine
 10
429.302987692688
 20
303.309020801611
 30
0.0
 11
430.999999244751
 21
300.369710572405
 31
0.0
  0
LINE
  5
50B7
330
50B4
100
AcDbEntity
  8
細線
100
AcDbLine
 10
432.999999244751
 20
294.237210572405
 30
0.0
 11
432.999999244751
 21
268.502210572405
 31
0.0
  0
LINE
  5
50B8
330
50B4
100
AcDbEntity
  8
外形線
100
AcDbLine
 10
432.999999244751
 20
268.502210572405
 30
0.0
 11
430.999999244751
 21
268.502210572405
 31
0.0
  0
LINE
  5
50B9
330
50B4
100
AcDbEntity
  8
外形線
100
AcDbLine
 10
432.999999244751
 20
294.237210572405
 30
0.0
 11
430.999999244751
 21
294.237210572405
 31
0.0
  0
LINE
  5
50BA
330
50B4
100
AcDbEntity
  8
細線
100
AcDbLine
 10
432.999999244751
 20
294.237210572405
 30
0.0
 11
440.999999244751
 21
294.237210572405
 31
0.0
  0
LINE
  5
50BB
330
50B4
100
AcDbEntity
  8
細線
100
AcDbLine
 10
432.999999244751
 20
268.502210572405
 30
0.0
 11
440.999999244751
 21
268.502210572405
 31
0.0
  0
LWPOLYLINE
  5
50BC
330
50B4
100
AcDbEntity
  8
外形線
100
AcDbPolyline
 90
        6
 70
     0
 43
0.0
 10
432.999999244751
 20
268.502210572405
 10
432.999999244751
 20
267.419710572405
 10
440.999999244751
 20
267.419710572405
 10
440.999999244751
 20
295.319710572405
 10
432.999999244751
 20
295.319710572405
 10
432.999999244751
 20
294.237210572405
  0
LINE
  5
50BD
330
50B4
100
AcDbEntity
  8
細線
100
AcDbLine
 10
385.999999244751
 20
266.548898072405
 30
0.0
 11
410.999999244751
 21
265.767648072405
 31
0.0
  0
LINE
  5
50BE
330
50B4
100
AcDbEntity
  8
細線
100
AcDbLine
 10
385.999999244751
 20
296.190523072405
 30
0.0
 11
410.999999244751
 21
296.971773072405
 31
0.0
  0
LINE
  5
50BF
330
50B4
100
AcDbEntity
  8
外形線
100
AcDbLine
 10
385.999999244751
 20
265.069898072405
 30
0.0
 11
410.999999244751
 21
264.288648072405
 31
0.0
  0
LINE
  5
50C0
330
50B4
100
AcDbEntity
  8
外形線
100
AcDbLine
 10
385.999999244751
 20
265.069898072405
 30
0.0
 11
385.999999244751
 21
297.669523072405
 31
0.0
  0
LINE
  5
50C1
330
50B4
100
AcDbEntity
  8
外形線
100
AcDbLine
 10
385.999999244751
 20
297.669523072405
 30
0.0
 11
410.999999244751
 21
298.450773072405
 31
0.0
  0
ARC
  5
50C2
330
50B4
100
AcDbEntity
  8
細線
100
AcDbCircle
 10
394.860604766983
 20
258.92704071018
 30
0.0
 40
36.303
100
AcDbArc
 50
5.441624729911
 51
18.423300686138
  0
ARC
  5
50C3
330
50B4
100
AcDbEntity
  8
細線
100
AcDbCircle
 10
447.139393722519
 20
258.92704071018
 30
0.0
 40
36.303
100
AcDbArc
 50
161.576699313861
 51
174.558375270088
  0
ARC
  5
50C4
330
50B4
100
AcDbEntity
  8
細線
100
AcDbCircle
 10
394.860604766983
 20
303.812380434631
 30
0.0
 40
36.303
100
AcDbArc
 50
341.576699313862
 51
354.558375270089
  0
ARC
  5
50C5
330
50B4
100
AcDbEntity
  8
細線
100
AcDbCircle
 10
447.139393722519
 20
303.812380434631
 30
0.0
 40
36.303
100
AcDbArc
 50
185.441624729912
 51
198.423300686138
  0
ARC
  5
50C6
330
50B4
100
AcDbEntity
  8
細線
100
AcDbCircle
 10
394.697010796814
 20
281.369710572405
 30
0.0
 40
36.30298844793743
100
AcDbArc
 50
342.412046226007
 51
17.587953773993
  0
ARC
  5
50C7
330
50B4
100
AcDbEntity
  8
細線
100
AcDbCircle
 10
447.302987692687
 20
281.369710572405
 30
0.0
 40
36.30298844793568
100
AcDbArc
 50
162.412046226006
 51
197.587953773994
  0
LINE
  5
50C8
330
50B4
100
AcDbEntity
  8
細線
100
AcDbLine
 10
412.697010796815
 20
270.400055457803
 30
0.0
 11
429.302987692688
 21
270.400055457803
 31
0.0
  0
LINE
  5
50C9
330
50B4
100
AcDbEntity
  8
細線
100
AcDbLine
 10
412.697010796815
 20
292.339365687008
 30
0.0
 11
429.302987692688
 21
292.339365687008
 31
0.0
  0
LINE
  5
50CA
330
50B4
100
AcDbEntity
  8
外形線
100
AcDbLine
 10
430.999999244751
 20
300.369710572405
 30
0.0
 11
430.999999244751
 21
262.369710572405
 31
0.0
  0
LINE
  5
50CB
330
50B4
100
AcDbEntity
  8
外形線
100
AcDbLine
 10
429.302987692688
 20
259.4304003432
 30
0.0
 11
430.999999244751
 21
262.369710572405
 31
0.0
  0
LINE
  5
50CC
330
50B4
100
AcDbEntity
  8
外形線
100
AcDbLine
 10
410.999999244751
 20
262.369710572405
 30
0.0
 11
412.697010796815
 21
259.4304003432
 31
0.0
  0
LINE
  5
50CD
330
50B4
100
AcDbEntity
  8
外形線
100
AcDbLine
 10
412.697010796815
 20
259.4304003432
 30
0.0
 11
429.302987692688
 21
259.4304003432
 31
0.0
  0
LINE
  5
50CE
330
50B4
100
AcDbEntity
  8
外形線
100
AcDbLine
 10
410.999999244751
 20
300.369710572405
 30
0.0
 11
412.697010796815
 21
303.309020801611
 31
0.0
  0
LINE
  5
50CF
330
50B4
100
AcDbEntity
  8
外形線
100
AcDbLine
 10
410.999999244751
 20
300.369710572405
 30
0.0
 11
410.999999244751
 21
262.369710572405
 31
0.0
  0
LINE
  5
50D0
330
50B4
100
AcDbEntity
  8
外形線
100
AcDbLine
 10
412.697010796815
 20
303.309020801611
 30
0.0
 11
429.302987692688
 21
303.309020801611
 31
0.0
  0
ENDBLK
  5
50D1
330
50B4
100
AcDbEntity
  8
0
100
AcDbBlockEnd
  0
BLOCK
  5
5AFD
330
5AFC
100
AcDbEntity
  8
0
100
AcDbBlockBegin
  2
*D25
 70
     1
 10
0.0
 20
0.0
 30
0.0
  3
*D25
  1

  0
LINE
  5
5AFF
330
5AFC
100
AcDbEntity
  8
寸法線
 62
     0
 48
10.0
100
AcDbLine
 10
191.589717711216
 20
408.467877082275
 30
0.0
 11
191.589717711216
 21
440.016895840558
 31
0.0
  0
LINE
  5
5B00
330
5AFC
100
AcDbEntity
  8
寸法線
 62
     0
 48
10.0
100
AcDbLine
 10
191.589717711216
 20
402.467877082275
 30
0.0
 11
191.589717711216
 21
392.967877082275
 31
0.0
  0
INSERT
  5
5B01
330
5AFC
100
AcDbEntity
  8
寸法線
 62
     0
100
AcDbBlockReference
  2
_OPEN30
 10
191.589717711216
 20
408.467877082275
 30
0.0
 41
6.0
 42
6.0
 43
6.0
 50
90.0
  0
INSERT
  5
5B02
330
5AFC
100
AcDbEntity
  8
寸法線
 62
     0
100
AcDbBlockReference
  2
_OPEN30
 10
191.589717711216
 20
386.967877082275
 30
0.0
 41
6.0
 42
6.0
 43
6.0
 50
270.0
  0
MTEXT
  5
5B03
330
5AFC
100
AcDbEntity
  8
寸法線
 62
     0
 48
10.0
100
AcDbMText
 10
186.960551044549
 20
427.458562507225
 30
0.0
 40
8.0
 41
0.0
 71
     5
 72
     1
  1
\A1;φ21.5
 11
0.0
 21
1.0
 31
0.0
  0
POINT
  5
5B04
330
5AFC
100
AcDbEntity
  8
DEFPOINTS
 62
     0
100
AcDbPoint
 10
202.289993533653
 20
408.467877082275
 30
0.0
  0
POINT
  5
5B05
330
5AFC
100
AcDbEntity
  8
DEFPOINTS
 62
     0
100
AcDbPoint
 10
202.289993533653
 20
386.967877082275
 30
0.0
  0
POINT
  5
5B06
330
5AFC
100
AcDbEntity
  8
DEFPOINTS
 62
     0
100
AcDbPoint
 10
191.589717711216
 20
386.967877082275
 30
0.0
  0
ENDBLK
  5
5AFE
330
5AFC
100
AcDbEntity
  8
0
100
AcDbBlockEnd
  0
BLOCK
  5
6204
330
6203
100
AcDbEntity
  8
0
100
AcDbBlockBegin
  2
*D27
 70
     1
 10
0.0
 20
0.0
 30
0.0
  3
*D27
  1

  0
LINE
  5
6206
330
6203
100
AcDbEntity
  8
寸法線
 62
     0
 48
10.0
100
AcDbLine
 10
367.289993490124
 20
378.092343729505
 30
0.0
 11
367.289993490124
 21
302.463097640282
 31
0.0
  0
LINE
  5
6207
330
6203
100
AcDbEntity
  8
寸法線
 62
     0
 48
10.0
100
AcDbLine
 10
347.289993490124
 20
378.091653955506
 30
0.0
 11
347.289993490124
 21
302.463097640282
 31
0.0
  0
LINE
  5
6208
330
6203
100
AcDbEntity
  8
寸法線
 62
     0
 48
10.0
100
AcDbLine
 10
361.289993490124
 20
303.713097640282
 30
0.0
 11
353.289993490124
 21
303.713097640282
 31
0.0
  0
INSERT
  5
6209
330
6203
100
AcDbEntity
  8
寸法線
 62
     0
100
AcDbBlockReference
  2
_OPEN30
 10
367.289993490124
 20
303.713097640282
 30
0.0
 41
6.0
 42
6.0
 43
6.0
  0
INSERT
  5
620A
330
6203
100
AcDbEntity
  8
寸法線
 62
     0
100
AcDbBlockReference
  2
_OPEN30
 10
347.289993490124
 20
303.713097640282
 30
0.0
 41
6.0
 42
6.0
 43
6.0
 50
180.0
  0
MTEXT
  5
620B
330
6203
100
AcDbEntity
  8
寸法線
 62
     0
 48
10.0
100
AcDbMText
 10
357.289993490124
 20
308.342264306948
 30
0.0
 40
8.0
 41
0.0
 71
     5
 72
     1
  1
\A1;20
  0
POINT
  5
620C
330
6203
100
AcDbEntity
  8
DEFPOINTS
 62
     0
100
AcDbPoint
 10
367.289993490124
 20
378.717343729505
 30
0.0
  0
POINT
  5
620D
330
6203
100
AcDbEntity
  8
DEFPOINTS
 62
     0
100
AcDbPoint
 10
347.289993490124
 20
378.716653955506
 30
0.0
  0
POINT
  5
620E
330
6203
100
AcDbEntity
  8
DEFPOINTS
 62
     0
100
AcDbPoint
 10
347.289993490124
 20
303.713097640282
 30
0.0
  0
ENDBLK
  5
6205
330
6203
100
AcDbEntity
  8
0
100
AcDbBlockEnd
  0
ENDSEC
  0
SECTION
  2
ENTITIES
  0
LWPOLYLINE
  5
31A0
330
1A
100
AcDbEntity
  8
外形線
100
AcDbPolyline
 90
        4
 70
     1
 43
0.0
 10
367.28999350116
 20
378.7180335003
 10
370.28999350116
 20
378.7180335003
 10
370.28999350116
 20
416.7180335003
 10
367.28999350116
 20
416.7180335003
  0
TEXT
  5
3541
330
1A
100
AcDbEntity
  8
寸法線
100
AcDbText
 10
518.479403085558
 20
513.549142540296
 30
0.0
 40
8.0
  1
塗装色：10YR7.5/14
100
AcDbText
  0
LINE
  5
3E98
330
1A
100
AcDbEntity
  8
下書線
100
AcDbLine
 10
541.291085092159
 20
482.218723121042
 30
0.0
 11
53.577936984832
 21
482.218723121042
 31
0.0
  0
MTEXT
  5
3E9C
102
{ACAD_XDICTIONARY
360
6244
102
}
330
1A
100
AcDbEntity
  8
寸法線
 48
10.0
100
AcDbMText
 10
294.070634665618
 20
483.654978871791
 30
0.0
 40
8.0
 41
0.0
 71
     7
 72
     1
  1
摺動\P取付ねじR1"\PSUS304
1001
ACADANNOTATIVE
1000
AnnotativeData
1002
{
1070
     1
1070
     0
1002
}
  0
LWPOLYLINE
  5
4025
330
1A
100
AcDbEntity
  8
外形線
100
AcDbPolyline
 90
        6
 70
     0
 43
0.0
 10
174.039993533653
 20
408.467877082275
 10
152.789993533653
 20
408.467877082275
 10
152.289993533653
 20
407.967877082275
 10
152.289993533653
 20
387.467877082275
 10
152.789993533653
 20
386.967877082275
 10
174.039993533652
 20
386.967877082275
  0
LWPOLYLINE
  5
4026
330
1A
100
AcDbEntity
  8
外形線
100
AcDbPolyline
 90
        6
 70
     0
 43
0.0
 10
248.789993533653
 20
408.467877082275
 10
202.789993533653
 20
408.467877082275
 10
202.289993533653
 20
407.967877082275
 10
202.289993533653
 20
387.467877082275
 10
202.789993533653
 20
386.967877082275
 10
248.789993533652
 20
386.967877082275
  0
LINE
  5
408F
330
1A
100
AcDbEntity
  8
中心線
 48
10.0
100
AcDbLine
 10
46.978273717457
 20
397.718723268572
 30
0.0
 11
484.362429373696
 21
397.718723268572
 31
0.0
  0
MTEXT
  5
4279
330
1A
100
AcDbEntity
  8
寸法線
 48
10.0
100
AcDbMText
 10
501.346159665665
 20
483.502736643027
 30
0.0
 40
8.0
 41
0.0
 71
     7
 72
     1
  1
アルミ\Pダイカスト
  0
MTEXT
  5
427B
330
1A
100
AcDbEntity
  8
寸法線
 48
10.0
100
AcDbMText
 10
404.83888603391
 20
483.546034372483
 30
0.0
 40
8.0
 41
0.0
 71
     7
 72
     1
  1
アルミ\Pダイカスト
  0
MTEXT
  5
4289
330
1A
100
AcDbEntity
  8
寸法線
 48
10.0
100
AcDbMText
 10
459.902615118972
 20
483.651005208548
 30
0.0
 40
8.0
 41
0.0
 71
     7
 72
     1
  1
Oリング
  0
MTEXT
  5
428B
330
1A
100
AcDbEntity
  8
寸法線
 48
10.0
100
AcDbMText
 10
245.617660716731
 20
483.650159022251
 30
0.0
 40
8.0
 41
0.0
 71
     7
 72
     1
  1
\A1;接地電極\PSUS304
  0
MTEXT
  5
428E
330
1A
100
AcDbEntity
  8
寸法線
 48
10.0
100
AcDbMText
 10
227.667450651845
 20
504.983492355585
 30
0.0
 40
8.0
 41
0.0
 71
     3
 72
     1
  1
\A1;シール\Pシリコンゴム
  0
MTEXT
  5
4290
330
1A
100
AcDbEntity
  8
寸法線
 48
10.0
100
AcDbMText
 10
152.962580067913
 20
483.650159022251
 30
0.0
 40
8.0
 41
0.0
 71
     9
 72
     1
  1
\A1;絶縁体\Pポリアセタール
  0
MTEXT
  5
4292
330
1A
100
AcDbEntity
  8
寸法線
 48
10.0
100
AcDbMText
 10
68.613049914931
 20
483.958836926964
 30
0.0
 40
8.0
 41
0.0
 71
     9
 72
     1
  1
\A1;検知電極\PSUS304
  0
DIMENSION
  5
4293
330
1A
100
AcDbEntity
  8
寸法線
 48
10.0
100
AcDbDimension
  2
*D6
 10
39.65152527738
 20
386.967877082275
 30
0.0
 11
39.65152527738
 21
427.026210415609
 31
0.0
 70
   160
  1
φ<>
  3
ISO-25
100
AcDbAlignedDimension
 13
53.289993533653
 23
408.467877082275
 33
0.0
 14
53.289993533653
 24
386.967877082275
 34
0.0
 50
90.0
100
AcDbRotatedDimension
1001
ACAD
1000
DSTYLE
1002
{
1070
     5
1000
OPEN30
1070
    41
1040
6.0
1070
    47
1040
0.1
1070
    48
1040
0.1
1070
    73
1070
     0
1070
   140
1040
8.0
1070
   271
1070
     1
1070
   272
1070
     1
1070
   341
1005
2AF4
1002
}
  0
DIMENSION
  5
4305
330
1A
100
AcDbEntity
  8
寸法線
 48
10.0
100
AcDbDimension
  2
*D8
 10
281.745619813119
 20
386.967877082275
 30
0.0
 11
281.745619813119
 21
427.458562507225
 31
0.0
 70
   160
  1
φ<>
  3
ISO-25
100
AcDbAlignedDimension
 13
302.289993533653
 23
408.467877082275
 33
0.0
 14
302.289993533653
 24
386.967877082275
 34
0.0
 50
90.0
100
AcDbRotatedDimension
1001
ACAD
1000
DSTYLE
1002
{
1070
     5
1000
OPEN30
1070
    76
1070
     1
1070
    75
1070
     1
1070
    41
1040
6.0
1070
    47
1040
0.1
1070
    48
1040
0.1
1070
    73
1070
     0
1070
   140
1040
8.0
1070
   271
1070
     1
1070
   272
1070
     1
1070
   341
1005
2AF4
1002
}
  0
DIMENSION
  5
4337
330
1A
100
AcDbEntity
  8
寸法線
 48
10.0
100
AcDbDimension
  2
*D9
 10
152.289993533653
 20
303.713097640282
 30
0.0
 11
102.289993533653
 21
308.338097640282
 31
0.0
 70
    32
  1
 
  3
ISO-25
100
AcDbAlignedDimension
 13
52.289993533653
 23
390.717877082275
 33
0.0
 14
152.289993533653
 24
387.467877082275
 34
0.0
100
AcDbRotatedDimension
1001
ACAD
1000
DSTYLE
1002
{
1070
     5
1000
OPEN30
1070
    41
1040
6.0
1070
    47
1040
0.1
1070
    48
1040
0.1
1070
    73
1070
     0
1070
   140
1040
8.0
1070
   271
1070
     1
1070
   272
1070
     1
1070
   341
1005
2AF4
1002
}
  0
DIMENSION
  5
4344
330
1A
100
AcDbEntity
  8
寸法線
 48
10.0
100
AcDbDimension
  2
*D10
 10
202.289993533653
 20
303.713097640282
 30
0.0
 11
177.289993533653
 21
308.338097640282
 31
0.0
 70
    32
  1
 
  3
ISO-25
100
AcDbAlignedDimension
 13
152.289993533653
 23
387.467877082275
 33
0.0
 14
202.289993533653
 24
386.967877082275
 34
0.0
100
AcDbRotatedDimension
1001
ACAD
1000
DSTYLE
1002
{
1070
     5
1000
OPEN30
1070
    41
1040
6.0
1070
    47
1040
0.1
1070
    48
1040
0.1
1070
    73
1070
     0
1070
   140
1040
8.0
1070
   271
1070
     1
1070
   272
1070
     1
1070
   341
1005
2AF4
1002
}
  0
DIMENSION
  5
4351
330
1A
100
AcDbEntity
  8
寸法線
 48
10.0
100
AcDbDimension
  2
*D11
 10
302.289993533653
 20
303.713097640282
 30
0.0
 11
252.289993533653
 21
308.342264306948
 31
0.0
 70
    32
  1
 
  3
ISO-25
100
AcDbAlignedDimension
 13
202.289993533653
 23
386.967877082275
 33
0.0
 14
302.289993533653
 24
381.418064582275
 34
0.0
100
AcDbRotatedDimension
1001
ACAD
1000
DSTYLE
1002
{
1070
     5
1000
OPEN30
1070
    41
1040
6.0
1070
    47
1040
0.1
1070
    48
1040
0.1
1070
    73
1070
     0
1070
   140
1040
8.0
1070
   271
1070
     1
1070
   272
1070
     1
1070
   341
1005
2AF4
1002
}
  0
DIMENSION
  5
439F
330
1A
100
AcDbEntity
  8
寸法線
 48
10.0
100
AcDbDimension
  2
*D12
 10
302.289993533653
 20
283.713097640282
 30
0.0
 11
177.289993533653
 21
288.342264306948
 31
0.0
 70
    32
  1
 
  3
ISO-25
100
AcDbAlignedDimension
 13
52.289993533653
 23
390.717877082275
 33
0.0
 14
302.289993533653
 24
381.418064582275
 34
0.0
100
AcDbRotatedDimension
1001
ACAD
1000
DSTYLE
1002
{
1070
     5
1000
OPEN30
1070
    41
1040
6.0
1070
    47
1040
0.1
1070
    48
1040
0.1
1070
    73
1070
     0
1070
   140
1040
8.0
1070
   271
1070
     1
1070
   272
1070
     1
1070
   341
1005
2AF4
1002
}
  0
DIMENSION
  5
44E5
330
1A
100
AcDbEntity
  8
寸法線
 48
10.0
100
AcDbDimension
  2
*D13
 10
327.289993533653
 20
303.713097640282
 30
0.0
 11
314.789993533653
 21
308.342264306948
 31
0.0
 70
    32
  3
ISO-25
100
AcDbAlignedDimension
 13
302.289993533653
 23
381.418064582275
 33
0.0
 14
327.289993533653
 24
378.717877082275
 34
0.0
100
AcDbRotatedDimension
1001
ACAD
1000
DSTYLE
1002
{
1070
     5
1000
OPEN30
1070
    41
1040
6.0
1070
    47
1040
0.1
1070
    48
1040
0.1
1070
    73
1070
     0
1070
   140
1040
8.0
1070
   271
1070
     1
1070
   272
1070
     1
1070
   341
1005
2AF4
1002
}
  0
DIMENSION
  5
454C
330
1A
100
AcDbEntity
  8
寸法線
 48
10.0
100
AcDbDimension
  2
*D14
 10
514.395953670628
 20
339.718723268572
 30
0.0
 11
509.770953670628
 21
397.715671130385
 31
0.0
 70
    32
  1
φ<>
  3
ISO-25
100
AcDbAlignedDimension
 13
458.291029404791
 23
455.712618992198
 33
0.0
 14
458.291029404791
 24
339.718723268572
 34
0.0
 50
90.0
100
AcDbRotatedDimension
1001
ACAD
1000
DSTYLE
1002
{
1070
     5
1000
OPEN30
1070
    41
1040
6.0
1070
    47
1040
0.1
1070
    48
1040
0.1
1070
    73
1070
     0
1070
   140
1040
8.0
1070
   271
1070
     1
1070
   272
1070
     1
1070
   341
1005
2AF4
1002
}
  0
DIMENSION
  5
4643
330
1A
100
AcDbEntity
  8
寸法線
 48
10.0
100
AcDbDimension
  2
*D16
 10
347.289993533653
 20
303.713097640282
 30
0.0
 11
337.289993533653
 21
308.342264306948
 31
0.0
 70
    32
  3
ISO-25
100
AcDbAlignedDimension
 13
327.289993533653
 23
378.717877082275
 33
0.0
 14
347.289993533653
 24
378.717877082275
 34
0.0
100
AcDbRotatedDimension
1001
ACAD
1000
DSTYLE
1002
{
1070
     5
1000
OPEN30
1070
    41
1040
6.0
1070
    47
1040
0.1
1070
    48
1040
0.1
1070
    73
1070
     0
1070
   140
1040
8.0
1070
   271
1070
     1
1070
   272
1070
     1
1070
   341
1005
2AF4
1002
}
  0
DIMENSION
  5
465D
330
1A
100
AcDbEntity
  8
寸法線
 48
10.0
100
AcDbDimension
  2
*D17
 10
485.28999350116
 20
283.713943826578
 30
0.0
 11
393.789993517406
 21
288.351443826578
 31
0.0
 70
    32
  3
ISO-25
100
AcDbAlignedDimension
 13
302.289993533653
 23
381.418064582275
 33
0.0
 14
485.28999350116
 24
353.491587970506
 34
0.0
100
AcDbRotatedDimension
1001
ACAD
1000
DSTYLE
1002
{
1070
     5
1000
OPEN30
1070
    41
1040
6.0
1070
    47
1040
0.1
1070
    48
1040
0.1
1070
    73
1070
     0
1070
   140
1040
8.0
1070
   271
1070
     1
1070
   272
1070
     1
1070
   341
1005
2AF4
1002
}
  0
INSERT
  5
4F0E
330
1A
100
AcDbEntity
  8
外形線
100
AcDbBlockReference
  2
静電容量センサ
 10
-650.608532161946
 20
-696.968057694006
 30
0.0
  0
DIMENSION
  5
4FE7
330
1A
100
AcDbEntity
  8
寸法線
 48
10.0
100
AcDbDimension
  2
*D20
 10
485.28999350116
 20
303.713943826578
 30
0.0
 11
470.53999350116
 21
308.343110493245
 31
0.0
 70
    32
  1
30
  3
ISO-25
100
AcDbAlignedDimension
 13
455.78999350116
 23
334.218723268571
 33
0.0
 14
485.28999350116
 24
353.492277738778
 34
0.0
100
AcDbRotatedDimension
1001
ACAD
1000
DSTYLE
1002
{
1070
     5
1000
OPEN30
1070
    41
1040
6.0
1070
    47
1040
0.1
1070
    48
1040
0.1
1070
    73
1070
     0
1070
   140
1040
8.0
1070
   271
1070
     1
1070
   272
1070
     1
1070
   341
1005
2AF4
1002
}
  0
DIMENSION
  5
503C
330
1A
100
AcDbEntity
  8
寸法線
 48
10.0
100
AcDbDimension
  2
*D21
 10
455.78999350116
 20
303.713943826578
 30
0.0
 11
411.53999350116
 21
308.355610493245
 31
0.0
 70
    32
  1
88
  3
ISO-25
100
AcDbAlignedDimension
 13
367.28999350116
 23
378.718723268572
 33
0.0
 14
455.78999350116
 24
334.218723268571
 34
0.0
100
AcDbRotatedDimension
1001
ACAD
1000
DSTYLE
1002
{
1070
     5
1000
OPEN30
1070
    41
1040
6.0
1070
    47
1040
0.1
1070
    48
1040
0.1
1070
    73
1070
     0
1070
   140
1040
8.0
1070
   271
1070
     1
1070
   272
1070
     1
1070
   341
1005
2AF4
1002
}
  0
MTEXT
  5
5063
330
1A
100
AcDbEntity
  8
寸法線
 48
10.0
100
AcDbMText
 10
461.664535825494
 20
251.348288735195
 30
0.0
 40
8.0
 41
0.0
 71
     7
 72
     1
  1
導線取出口\PG 1/2"
  0
LINE
  5
50D8
102
{ACAD_REACTORS
330
50F3
102
}
330
1A
100
AcDbEntity
  8
外形線
100
AcDbLine
 10
345.592981981589
 20
419.657187311481
 30
0.0
 11
347.289993533653
 21
416.717877082275
 31
0.0
  0
LINE
  5
50DF
102
{ACAD_REACTORS
330
50F3
102
}
330
1A
100
AcDbEntity
  8
細線
100
AcDbLine
 10
302.289993533653
 20
382.897064582275
 30
0.0
 11
327.289993533653
 21
382.115814582275
 31
0.0
  0
LINE
  5
50E0
102
{ACAD_REACTORS
330
50F3
102
}
330
1A
100
AcDbEntity
  8
細線
100
AcDbLine
 10
302.289993533653
 20
412.538689582275
 30
0.0
 11
327.289993533653
 21
413.319939582275
 31
0.0
  0
LINE
  5
50E1
102
{ACAD_REACTORS
330
50F3
102
}
330
1A
100
AcDbEntity
  8
外形線
100
AcDbLine
 10
302.289993533653
 20
381.418064582275
 30
0.0
 11
327.289993533653
 21
380.636814582275
 31
0.0
  0
LINE
  5
50E2
102
{ACAD_REACTORS
330
50F3
102
}
330
1A
100
AcDbEntity
  8
外形線
100
AcDbLine
 10
302.289993533653
 20
381.418064582275
 30
0.0
 11
302.289993533653
 21
414.017689582275
 31
0.0
  0
LINE
  5
50E3
102
{ACAD_REACTORS
330
50F3
102
}
330
1A
100
AcDbEntity
  8
外形線
100
AcDbLine
 10
302.289993533653
 20
414.017689582275
 30
0.0
 11
327.289993533653
 21
414.798939582275
 31
0.0
  0
ARC
  5
50E4
102
{ACAD_REACTORS
330
50F3
102
}
330
1A
100
AcDbEntity
  8
細線
100
AcDbCircle
 10
311.150599055885
 20
375.27520722005
 30
0.0
 40
36.303
100
AcDbArc
 50
5.441624729911
 51
18.423300686138
  0
ARC
  5
50E5
102
{ACAD_REACTORS
330
50F3
102
}
330
1A
100
AcDbEntity
  8
細線
100
AcDbCircle
 10
363.429388011421
 20
375.27520722005
 30
0.0
 40
36.303
100
AcDbArc
 50
161.576699313861
 51
174.558375270088
  0
ARC
  5
50E6
102
{ACAD_REACTORS
330
50F3
102
}
330
1A
100
AcDbEntity
  8
細線
100
AcDbCircle
 10
311.150599055885
 20
420.160546944501
 30
0.0
 40
36.303
100
AcDbArc
 50
341.576699313862
 51
354.558375270088
  0
ARC
  5
50E7
102
{ACAD_REACTORS
330
50F3
102
}
330
1A
100
AcDbEntity
  8
細線
100
AcDbCircle
 10
363.429388011421
 20
420.160546944501
 30
0.0
 40
36.303
100
AcDbArc
 50
185.441624729912
 51
198.423300686138
  0
ARC
  5
50E8
102
{ACAD_REACTORS
330
50F3
102
}
330
1A
100
AcDbEntity
  8
細線
100
AcDbCircle
 10
310.987005085715
 20
397.717877082275
 30
0.0
 40
36.30298844793743
100
AcDbArc
 50
342.412046226007
 51
17.587953773993
  0
ARC
  5
50E9
102
{ACAD_REACTORS
330
50F3
102
}
330
1A
100
AcDbEntity
  8
細線
100
AcDbCircle
 10
363.592981981588
 20
397.717877082275
 30
0.0
 40
36.30298844793568
100
AcDbArc
 50
162.412046226006
 51
197.587953773994
  0
LINE
  5
50EA
102
{ACAD_REACTORS
330
50F3
102
}
330
1A
100
AcDbEntity
  8
細線
100
AcDbLine
 10
328.987005085716
 20
386.748221967672
 30
0.0
 11
345.592981981589
 21
386.748221967672
 31
0.0
  0
LINE
  5
50EB
102
{ACAD_REACTORS
330
50F3
102
}
330
1A
100
AcDbEntity
  8
細線
100
AcDbLine
 10
328.987005085716
 20
408.687532196878
 30
0.0
 11
345.592981981589
 21
408.687532196878
 31
0.0
  0
LINE
  5
50EC
102
{ACAD_REACTORS
330
50F3
102
}
330
1A
100
AcDbEntity
  8
外形線
100
AcDbLine
 10
347.289993533653
 20
416.717877082275
 30
0.0
 11
347.289993533653
 21
378.717877082275
 31
0.0
  0
LINE
  5
50ED
102
{ACAD_REACTORS
330
50F3
102
}
330
1A
100
AcDbEntity
  8
外形線
100
AcDbLine
 10
345.592981981589
 20
375.77856685307
 30
0.0
 11
347.289993533653
 21
378.717877082275
 31
0.0
  0
LINE
  5
50EE
102
{ACAD_REACTORS
330
50F3
102
}
330
1A
100
AcDbEntity
  8
外形線
100
AcDbLine
 10
327.289993533653
 20
378.717877082275
 30
0.0
 11
328.987005085716
 21
375.77856685307
 31
0.0
  0
LINE
  5
50EF
102
{ACAD_REACTORS
330
50F3
102
}
330
1A
100
AcDbEntity
  8
外形線
100
AcDbLine
 10
328.987005085716
 20
375.77856685307
 30
0.0
 11
345.592981981589
 21
375.77856685307
 31
0.0
  0
LINE
  5
50F0
102
{ACAD_REACTORS
330
50F3
102
}
330
1A
100
AcDbEntity
  8
外形線
100
AcDbLine
 10
327.289993533653
 20
416.717877082275
 30
0.0
 11
328.987005085716
 21
419.657187311481
 31
0.0
  0
LINE
  5
50F1
102
{ACAD_REACTORS
330
50F3
102
}
330
1A
100
AcDbEntity
  8
外形線
100
AcDbLine
 10
327.289993533653
 20
416.717877082275
 30
0.0
 11
327.289993533653
 21
378.717877082275
 31
0.0
  0
LINE
  5
50F2
102
{ACAD_REACTORS
330
50F3
102
}
330
1A
100
AcDbEntity
  8
外形線
100
AcDbLine
 10
328.987005085716
 20
419.657187311481
 30
0.0
 11
345.592981981589
 21
419.657187311481
 31
0.0
  0
LEADER
  5
51B5
330
1A
100
AcDbEntity
  8
寸法線
 48
10.0
100
AcDbLeader
  3
ISO-25
 76
     3
 10
202.308515723023
 20
408.475535182772
 30
0.0
 10
228.53174151903
 20
482.213903271502
 30
0.0
 10
216.029969911962
 20
482.213903271502
 30
0.0
1001
ACAD
1000
DSTYLE
1002
{
1070
     5
1000
OPEN30
1070
   147
1040
0.625
1070
    77
1070
     0
1070
    41
1040
6.0
1070
    47
1040
0.1
1070
    48
1040
0.1
1070
    73
1070
     0
1070
   140
1040
8.0
1070
   271
1070
     1
1070
   272
1070
     1
1070
   341
1005
2AF4
1070
   342
1005
2AF4
1002
}
  0
LEADER
  5
51B6
330
1A
100
AcDbEntity
  8
寸法線
 48
10.0
100
AcDbLeader
  3
ISO-25
 76
     3
 10
159.619542837284
 20
408.475535182772
 30
0.0
 10
152.606354453046
 20
482.213903271502
 30
0.0
 10
140.409502846757
 20
482.213903271502
 30
0.0
1001
ACAD
1000
DSTYLE
1002
{
1070
     5
1000
OPEN30
1070
   147
1040
0.625
1070
    77
1070
     0
1070
    41
1040
6.0
1070
    47
1040
0.1
1070
    48
1040
0.1
1070
    73
1070
     0
1070
   140
1040
8.0
1070
   271
1070
     1
1070
   272
1070
     1
1070
   341
1005
2AF4
1070
   342
1005
2AF4
1002
}
  0
LEADER
  5
51B7
330
1A
100
AcDbEntity
  8
寸法線
 48
10.0
100
AcDbLeader
  3
ISO-25
 76
     3
 10
76.039993533653
 20
408.467877082275
 30
0.0
 10
68.864581199297
 20
482.217876934746
 30
0.0
 10
59.71694249458
 20
482.217876934746
 30
0.0
1001
ACAD
1000
DSTYLE
1002
{
1070
     5
1000
OPEN30
1070
   147
1040
0.625
1070
    77
1070
     0
1070
    41
1040
6.0
1070
    47
1040
0.1
1070
    48
1040
0.1
1070
    73
1070
     0
1070
   140
1040
8.0
1070
   271
1070
     1
1070
   272
1070
     1
1070
   341
1005
2AF4
1070
   342
1005
2AF4
1002
}
  0
LEADER
  5
51B8
330
1A
100
AcDbEntity
  8
寸法線
 48
10.0
100
AcDbLeader
  3
ISO-25
 76
     3
 10
245.607331189077
 20
408.475535182772
 30
0.0
 10
245.607331189077
 20
482.213903271502
 30
0.0
 10
257.194337636295
 20
482.213903271502
 30
0.0
1001
ACAD
1000
DSTYLE
1002
{
1070
     5
1000
OPEN30
1070
   147
1040
0.625
1070
    77
1070
     0
1070
    41
1040
6.0
1070
    47
1040
0.1
1070
    48
1040
0.1
1070
    73
1070
     0
1070
   140
1040
8.0
1070
   271
1070
     1
1070
   272
1070
     1
1070
   341
1005
2AF4
1070
   342
1005
2AF4
1002
}
  0
LEADER
  5
51B9
330
1A
100
AcDbEntity
  8
寸法線
 48
10.0
100
AcDbLeader
  3
ISO-25
 76
     3
 10
314.789993533653
 20
414.408314582275
 30
0.0
 10
294.207229773918
 20
482.218723121042
 30
0.0
 10
304.269628480971
 20
482.218723121042
 30
0.0
1001
ACAD
1000
DSTYLE
1002
{
1070
     5
1000
OPEN30
1070
   147
1040
0.625
1070
    77
1070
     0
1070
    41
1040
6.0
1070
    47
1040
0.1
1070
    48
1040
0.1
1070
    73
1070
     0
1070
   140
1040
8.0
1070
   271
1070
     1
1070
   272
1070
     1
1070
   341
1005
2AF4
1070
   342
1005
2AF4
1002
}
  0
LEADER
  5
51BA
330
1A
100
AcDbEntity
  8
寸法線
 48
10.0
100
AcDbLeader
  3
ISO-25
 76
     3
 10
456.718605182999
 20
454.580631841575
 30
0.0
 10
459.523307546458
 20
482.218723121042
 30
0.0
 10
465.300776057104
 20
482.218723121042
 30
0.0
1001
ACAD
1000
DSTYLE
1002
{
1070
     5
1000
OPEN30
1070
   147
1040
0.625
1070
    77
1070
     0
1070
    41
1040
6.0
1070
    47
1040
0.1
1070
    48
1040
0.1
1070
    73
1070
     0
1070
   140
1040
8.0
1070
   271
1070
     1
1070
   272
1070
     1
1070
   341
1005
2AF4
1070
   342
1005
2AF4
1002
}
  0
LEADER
  5
51BB
330
1A
100
AcDbEntity
  8
寸法線
 48
10.0
100
AcDbLeader
  3
ISO-25
 76
     3
 10
406.405987077039
 20
449.992924423287
 30
0.0
 10
402.903255149566
 20
482.218723121042
 30
0.0
 10
414.07426233862
 20
482.218723121042
 30
0.0
1001
ACAD
1000
DSTYLE
1002
{
1070
     5
1000
OPEN30
1070
   147
1040
0.625
1070
    77
1070
     0
1070
    41
1040
6.0
1070
    47
1040
0.1
1070
    48
1040
0.1
1070
    73
1070
     0
1070
   140
1040
8.0
1070
   271
1070
     1
1070
   272
1070
     1
1070
   341
1005
2AF4
1070
   342
1005
2AF4
1002
}
  0
LEADER
  5
51BC
330
1A
100
AcDbEntity
  8
寸法線
 48
10.0
100
AcDbLeader
  3
ISO-25
 76
     3
 10
480.099065324685
 20
444.745513581809
 30
0.0
 10
501.098015049742
 20
482.180950108455
 30
0.0
 10
509.329604373468
 20
482.180950108455
 30
0.0
1001
ACAD
1000
DSTYLE
1002
{
1070
     5
1000
OPEN30
1070
   147
1040
0.625
1070
    77
1070
     0
1070
    41
1040
6.0
1070
    47
1040
0.1
1070
    48
1040
0.1
1070
    73
1070
     0
1070
   140
1040
8.0
1070
   271
1070
     1
1070
   272
1070
     1
1070
   341
1005
2AF4
1070
   342
1005
2AF4
1002
}
  0
LEADER
  5
51BE
330
1A
100
AcDbEntity
  8
寸法線
 48
10.0
100
AcDbLeader
  3
ISO-25
 76
     3
 10
440.162670886981
 20
330.789186834959
 30
0.0
 10
458.968753702182
 20
249.980647118765
 30
0.0
 10
469.4464277504
 20
249.980647118765
 30
0.0
1001
ACAD
1000
DSTYLE
1002
{
1070
     5
1000
OPEN30
1070
   147
1040
0.625
1070
    77
1070
     0
1070
    41
1040
6.0
1070
    47
1040
0.1
1070
    48
1040
0.1
1070
    73
1070
     0
1070
   140
1040
8.0
1070
   271
1070
     1
1070
   272
1070
     1
1070
   341
1005
2AF4
1070
   342
1005
2AF4
1002
}
  0
LINE
  5
5769
330
1A
100
AcDbEntity
  8
外形線
100
AcDbLine
 10
152.289993533653
 20
386.967877082275
 30
0.0
 11
152.289993533653
 21
408.467877082275
 31
0.0
  0
LINE
  5
576A
330
1A
100
AcDbEntity
  8
外形線
100
AcDbLine
 10
152.289993533653
 20
408.467877082275
 30
0.0
 11
105.789993533652
 21
408.467877082275
 31
0.0
  0
LINE
  5
576B
330
1A
100
AcDbEntity
  8
外形線
100
AcDbLine
 10
53.289993533653
 20
408.467877082275
 30
0.0
 11
52.289993533653
 21
407.467877082275
 31
0.0
  0
LINE
  5
576C
330
1A
100
AcDbEntity
  8
外形線
100
AcDbLine
 10
52.289993533653
 20
407.467877082275
 30
0.0
 11
52.289993533653
 21
387.967877082275
 31
0.0
  0
LINE
  5
576F
330
1A
100
AcDbEntity
  8
外形線
100
AcDbLine
 10
53.289993533653
 20
386.967877082275
 30
0.0
 11
52.289993533653
 21
387.967877082275
 31
0.0
  0
LINE
  5
5770
330
1A
100
AcDbEntity
  8
外形線
100
AcDbLine
 10
152.289993533653
 20
386.967877082275
 30
0.0
 11
105.789993533652
 21
386.967877082275
 31
0.0
  0
ARC
  5
57AA
330
1A
100
AcDbEntity
  8
細線
 48
10.0
100
AcDbCircle
 10
242.567337283653
 20
403.092877082276
 30
0.0
 40
8.222656249999796
100
AcDbArc
 50
319.180234332391
 51
40.819765667609
  0
ARC
  5
57AB
330
1A
100
AcDbEntity
  8
細線
 48
10.0
100
AcDbCircle
 10
242.567337283653
 20
392.342877082276
 30
0.0
 40
8.222656249999796
100
AcDbArc
 50
319.180234332391
 51
40.819765667609
  0
ARC
  5
57AC
330
1A
100
AcDbEntity
  8
細線
 48
10.0
100
AcDbCircle
 10
255.012649783652
 20
403.092877082275
 30
0.0
 40
8.222656249999796
100
AcDbArc
 50
139.180234332391
 51
220.819765667608
  0
ARC
  5
57AD
330
1A
100
AcDbEntity
  8
細線
 48
10.0
100
AcDbCircle
 10
262.012649783652
 20
403.092877082275
 30
0.0
 40
8.222656249999796
100
AcDbArc
 50
139.180234332391
 51
220.819765667608
  0
ARC
  5
57AE
330
1A
100
AcDbEntity
  8
細線
 48
10.0
100
AcDbCircle
 10
249.567337283652
 20
392.342877082276
 30
0.0
 40
8.222656249999796
100
AcDbArc
 50
319.180234332391
 51
40.819765667609
  0
ARC
  5
57AF
330
1A
100
AcDbEntity
  8
細線
 48
10.0
100
AcDbCircle
 10
262.012649783652
 20
392.342877082276
 30
0.0
 40
8.222656249999796
100
AcDbArc
 50
139.180234332391
 51
220.819765667608
  0
ARC
  5
57B0
330
1A
100
AcDbEntity
  8
細線
 48
10.0
100
AcDbCircle
 10
180.262649783652
 20
403.092877082275
 30
0.0
 40
8.222656249999796
100
AcDbArc
 50
139.180234332391
 51
220.819765667608
  0
ARC
  5
57B1
330
1A
100
AcDbEntity
  8
細線
 48
10.0
100
AcDbCircle
 10
167.817337283653
 20
403.092877082276
 30
0.0
 40
8.222656249999796
100
AcDbArc
 50
319.180234332391
 51
40.819765667609
  0
ARC
  5
57B2
330
1A
100
AcDbEntity
  8
細線
 48
10.0
100
AcDbCircle
 10
167.817337283653
 20
392.342877082276
 30
0.0
 40
8.222656249999796
100
AcDbArc
 50
319.180234332391
 51
40.819765667609
  0
ARC
  5
57B3
330
1A
100
AcDbEntity
  8
細線
 48
10.0
100
AcDbCircle
 10
187.262649783652
 20
392.342877082276
 30
0.0
 40
8.222656249999796
100
AcDbArc
 50
139.180234332391
 51
220.819765667608
  0
ARC
  5
57B4
330
1A
100
AcDbEntity
  8
細線
 48
10.0
100
AcDbCircle
 10
174.817337283653
 20
392.342877082276
 30
0.0
 40
8.222656249999796
100
AcDbArc
 50
319.180234332391
 51
40.819765667609
  0
ARC
  5
57B5
330
1A
100
AcDbEntity
  8
細線
 48
10.0
100
AcDbCircle
 10
187.262649783652
 20
403.092877082275
 30
0.0
 40
8.222656249999796
100
AcDbArc
 50
139.180234332391
 51
220.819765667608
  0
LWPOLYLINE
  5
57B6
330
1A
100
AcDbEntity
  8
外形線
100
AcDbPolyline
 90
        4
 70
     0
 43
0.0
 10
255.789993533652
 20
386.967877082275
 10
302.289993533653
 20
386.967877082275
 10
302.289993533653
 20
408.467877082275
 10
255.789993533652
 20
408.467877082275
  0
LWPOLYLINE
  5
57B7
330
1A
100
AcDbEntity
  8
外形線
100
AcDbPolyline
 90
        4
 70
     0
 43
0.0
 10
181.039993533652
 20
386.967877082275
 10
202.289993533653
 20
386.967877082275
 10
202.289993533653
 20
408.467877082275
 10
181.039993533652
 20
408.467877082275
  0
ARC
  5
57EB
330
1A
100
AcDbEntity
  8
細線
 48
10.0
100
AcDbCircle
 10
92.567337283653
 20
403.092877082276
 30
0.0
 40
8.222656249999796
100
AcDbArc
 50
319.180234332391
 51
40.819765667609
  0
ARC
  5
57EC
330
1A
100
AcDbEntity
  8
細線
 48
10.0
100
AcDbCircle
 10
92.567337283653
 20
392.342877082276
 30
0.0
 40
8.222656249999796
100
AcDbArc
 50
319.180234332391
 51
40.819765667609
  0
ARC
  5
57ED
330
1A
100
AcDbEntity
  8
細線
 48
10.0
100
AcDbCircle
 10
105.012649783652
 20
403.092877082275
 30
0.0
 40
8.222656249999796
100
AcDbArc
 50
139.180234332391
 51
220.819765667608
  0
ARC
  5
57EE
330
1A
100
AcDbEntity
  8
細線
 48
10.0
100
AcDbCircle
 10
112.012649783652
 20
403.092877082275
 30
0.0
 40
8.222656249999796
100
AcDbArc
 50
139.180234332391
 51
220.819765667608
  0
ARC
  5
57EF
330
1A
100
AcDbEntity
  8
細線
 48
10.0
100
AcDbCircle
 10
99.567337283652
 20
392.342877082276
 30
0.0
 40
8.222656249999796
100
AcDbArc
 50
319.180234332391
 51
40.819765667609
  0
ARC
  5
57F0
330
1A
100
AcDbEntity
  8
細線
 48
10.0
100
AcDbCircle
 10
112.012649783652
 20
392.342877082276
 30
0.0
 40
8.222656249999796
100
AcDbArc
 50
139.180234332391
 51
220.819765667608
  0
LINE
  5
57F1
330
1A
100
AcDbEntity
  8
外形線
100
AcDbLine
 10
98.789993533653
 20
408.467877082275
 30
0.0
 11
53.289993533653
 21
408.467877082275
 31
0.0
  0
LINE
  5
57F2
330
1A
100
AcDbEntity
  8
外形線
100
AcDbLine
 10
98.789993533652
 20
386.967877082275
 30
0.0
 11
53.289993533653
 21
386.967877082275
 31
0.0
  0
DIMENSION
  5
5AFB
330
1A
100
AcDbEntity
  8
寸法線
 48
10.0
100
AcDbDimension
  2
*D25
 10
191.589717711216
 20
386.967877082275
 30
0.0
 11
191.589717711216
 21
427.458562507225
 31
0.0
 70
   160
  1
φ<>
  3
ISO-25
100
AcDbAlignedDimension
 13
202.289993533653
 23
408.467877082275
 33
0.0
 14
202.289993533653
 24
386.967877082275
 34
0.0
 50
90.0
100
AcDbRotatedDimension
1001
ACAD
1000
DSTYLE
1002
{
1070
     5
1000
OPEN30
1070
    76
1070
     1
1070
    75
1070
     1
1070
   282
1070
     0
1070
   281
1070
     0
1070
    41
1040
6.0
1070
    47
1040
0.1
1070
    48
1040
0.1
1070
    73
1070
     0
1070
   140
1040
8.0
1070
   271
1070
     1
1070
   272
1070
     1
1070
   341
1005
2AF4
1002
}
  0
LINE
  5
5D8E
330
1A
100
AcDbEntity
  8
寸法線
100
AcDbLine
 10
88.539087900067
 20
128.002636606105
 30
0.0
 11
658.49801111006
 21
128.002636606105
 31
0.0
  0
LINE
  5
5D8F
330
1A
100
AcDbEntity
  8
寸法線
100
AcDbLine
 10
120.539057900067
 20
114.950010498528
 30
0.0
 11
120.539057900067
 21
233.441019359144
 31
0.0
  0
LINE
  5
5D90
330
1A
100
AcDbEntity
  8
寸法線
100
AcDbLine
 10
88.539087900067
 20
219.371019359144
 30
0.0
 11
658.49801111006
 21
219.371019359144
 31
0.0
  0
LINE
  5
5D91
330
1A
100
AcDbEntity
  8
寸法線
100
AcDbLine
 10
88.539087900067
 20
233.441019359144
 30
0.0
 11
658.49801111006
 21
233.441019359144
 31
0.0
  0
LINE
  5
5D92
330
1A
100
AcDbEntity
  8
寸法線
100
AcDbLine
 10
88.539087900067
 20
114.950010498528
 30
0.0
 11
88.539087900067
 21
233.441019359144
 31
0.0
  0
LINE
  5
5D93
330
1A
100
AcDbEntity
  8
寸法線
100
AcDbLine
 10
341.09989603325
 20
114.950010498528
 30
0.0
 11
341.09989603325
 21
233.441019359144
 31
0.0
  0
LINE
  5
5D94
330
1A
100
AcDbEntity
  8
寸法線
100
AcDbLine
 10
88.539087900067
 20
193.26576714399
 30
0.0
 11
658.49801111006
 21
193.26576714399
 31
0.0
  0
LINE
  5
5D95
330
1A
100
AcDbEntity
  8
寸法線
100
AcDbLine
 10
88.539087900067
 20
180.213141036414
 30
0.0
 11
658.49801111006
 21
180.213141036414
 31
0.0
  0
LINE
  5
5D96
330
1A
100
AcDbEntity
  8
寸法線
100
AcDbLine
 10
88.539087900067
 20
167.160514928837
 30
0.0
 11
658.49801111006
 21
167.160514928837
 31
0.0
  0
LINE
  5
5D97
330
1A
100
AcDbEntity
  8
寸法線
100
AcDbLine
 10
88.539087900067
 20
154.107888821259
 30
0.0
 11
658.49801111006
 21
154.107888821259
 31
0.0
  0
LINE
  5
5D98
330
1A
100
AcDbEntity
  8
寸法線
100
AcDbLine
 10
88.539087900067
 20
141.055262713682
 30
0.0
 11
658.49801111006
 21
141.055262713682
 31
0.0
  0
LINE
  5
5D99
330
1A
100
AcDbEntity
  8
寸法線
100
AcDbLine
 10
372.856214597539
 20
114.950010498528
 30
0.0
 11
372.856214597539
 21
233.441019359144
 31
0.0
  0
LINE
  5
5D9A
330
1A
100
AcDbEntity
  8
寸法線
100
AcDbLine
 10
88.539087900067
 20
206.318393251567
 30
0.0
 11
658.49801111006
 21
206.318393251567
 31
0.0
  0
MTEXT
  5
5D9B
102
{ACAD_XDICTIONARY
360
5D9C
102
}
330
1A
100
AcDbEntity
  8
寸法線
 48
10.0
100
AcDbMText
 10
161.341049074465
 20
230.584238327749
 30
0.0
 40
8.0
 41
81.603982348796
 71
     2
 72
     5
  1
型式\PTSE-A3SA-025\PTSE-A3SA-030\PTSE-A3SA-035\PTSE-A3SA-040\PTSE-A3SA-045\PTSE-A3SA-050\PTSE-A3SA-055\PTSE-A3SA-060
1001
ACADANNOTATIVE
1000
AnnotativeData
1002
{
1070
     1
1070
     0
1002
}
1001
ACAD
1000
MTEXTBEGIN
1070
    44
1040
0.99
1000
MTEXTEND
  0
LINE
  5
5D9F
330
1A
100
AcDbEntity
  8
寸法線
 48
10.0
100
AcDbLine
 10
202.143040248863
 20
233.441019359144
 30
0.0
 11
202.143040248863
 21
114.950010498528
 31
0.0
  0
MTEXT
  5
5DA0
330
1A
100
AcDbEntity
  8
寸法線
 48
10.0
100
AcDbMText
 10
91.065995061007
 20
230.723803115109
 30
0.0
 40
8.0
 41
41.842424242424
 71
     1
 72
     5
  1
御仕様\P \P\P　
  0
SPLINE
  5
5DA1
330
1A
100
AcDbEntity
  8
寸法線
 48
10.0
100
AcDbSpline
210
0.0
220
0.0
230
1.0
 70
  1064
 71
     3
 72
    13
 73
     9
 74
     7
 42
0.000000001
 43
0.0000000001
 44
0.0000000001
 40
0.0
 40
0.0
 40
0.0
 40
0.0
 40
3.546053604694658
 40
9.278996093298932
 40
13.89970108471587
 40
17.09539662994945
 40
18.79470455702454
 40
20.0270469945584
 40
20.0270469945584
 40
20.0270469945584
 40
20.0270469945584
 10
210.5786552988531
 20
222.5597950511303
 30
0.0
 10
211.6331835679314
 20
223.0469237853345
 30
0.0
 10
214.3925788788473
 20
224.3215987128737
 30
0.0
 10
215.0575157852074
 20
233.2200555856923
 30
0.0
 10
211.124212766061
 20
226.8199687617502
 30
0.0
 10
211.2964489622621
 20
223.5709512031817
 30
0.0
 10
213.3687306599115
 20
222.2981321263718
 30
0.0
 10
214.2853347381475
 20
222.7566492102413
 30
0.0
 10
214.6706365182175
 20
222.94939049604
 30
0.0
 11
210.5786552988531
 21
222.5597950511303
 31
0.0
 11
213.4040707318019
 21
224.7025791743268
 31
0.0
 11
214.0373536250095
 21
230.4004368730425
 31
0.0
 11
211.5529372251513
 21
226.5044659067979
 31
0.0
 11
211.9913642116137
 21
223.3389877761884
 31
0.0
 11
213.5014986851745
 21
222.5597950511303
 31
0.0
 11
214.6706365182175
 21
222.94939049604
 31
0.0
  0
SPLINE
  5
5DA2
330
1A
100
AcDbEntity
  8
寸法線
 48
10.0
100
AcDbSpline
210
0.0
220
0.0
230
1.0
 70
  1064
 71
     3
 72
    13
 73
     9
 74
     7
 42
0.000000001
 43
0.0000000001
 44
0.0000000001
 40
0.0
 40
0.0
 40
0.0
 40
0.0
 40
3.546053604694658
 40
9.278996093298932
 40
13.89970108471587
 40
17.09539662994945
 40
18.79470455702454
 40
20.0270469945584
 40
20.0270469945584
 40
20.0270469945584
 40
20.0270469945584
 10
234.8175484030729
 20
222.5597950511303
 30
0.0
 10
235.8720766721513
 20
223.0469237853345
 30
0.0
 10
238.6314719830672
 20
224.3215987128737
 30
0.0
 10
239.2964088894273
 20
233.2200555856923
 30
0.0
 10
235.3631058702809
 20
226.8199687617502
 30
0.0
 10
235.5353420664821
 20
223.5709512031817
 30
0.0
 10
237.6076237641313
 20
222.2981321263718
 30
0.0
 10
238.5242278423673
 20
222.7566492102413
 30
0.0
 10
238.9095296224374
 20
222.94939049604
 30
0.0
 11
234.8175484030729
 21
222.5597950511303
 31
0.0
 11
237.6429638360217
 21
224.7025791743268
 31
0.0
 11
238.2762467292294
 21
230.4004368730425
 31
0.0
 11
235.7918303293712
 21
226.5044659067979
 31
0.0
 11
236.2302573158336
 21
223.3389877761884
 31
0.0
 11
237.7403917893944
 21
222.5597950511303
 31
0.0
 11
238.9095296224374
 21
222.94939049604
 31
0.0
  0
LINE
  5
5DA3
330
1A
100
AcDbEntity
  8
寸法線
 48
10.0
100
AcDbLine
 10
228.26550415598
 20
233.441019359144
 30
0.0
 11
228.26550415598
 21
114.950010498528
 31
0.0
  0
LINE
  5
5DA4
330
1A
100
AcDbEntity
  8
寸法線
 48
10.0
100
AcDbLine
 10
252.484746535859
 20
233.441019359144
 30
0.0
 11
252.484746535859
 21
114.950010498528
 31
0.0
  0
LINE
  5
5DA5
330
1A
100
AcDbEntity
  8
寸法線
 48
10.0
100
AcDbLine
 10
276.703988915738
 20
233.441019359144
 30
0.0
 11
276.703988915738
 21
114.950010498528
 31
0.0
  0
LINE
  5
5DA6
330
1A
100
AcDbEntity
  8
寸法線
 48
10.0
100
AcDbLine
 10
302.55456403325
 20
233.441019359144
 30
0.0
 11
302.55456403325
 21
114.950010498528
 31
0.0
  0
TEXT
  5
5DA7
330
1A
100
AcDbEntity
  8
寸法線
 48
10.0
100
AcDbText
 10
241.275577200557
 20
222.644122790474
 30
0.0
 40
5.2
  1
1
100
AcDbText
  0
SPLINE
  5
5DA8
330
1A
100
AcDbEntity
  8
寸法線
 48
10.0
100
AcDbSpline
210
0.0
220
0.0
230
1.0
 70
  1064
 71
     3
 72
    13
 73
     9
 74
     7
 42
0.000000001
 43
0.0000000001
 44
0.0000000001
 40
0.0
 40
0.0
 40
0.0
 40
0.0
 40
3.546053604694681
 40
9.278996093298952
 40
13.89970108471591
 40
17.09539662994949
 40
18.79470455702458
 40
20.02704699455844
 40
20.02704699455844
 40
20.02704699455844
 40
20.02704699455844
 10
260.6681235205848
 20
222.5597950511303
 30
0.0
 10
261.7226517896631
 20
223.0469237853345
 30
0.0
 10
264.482047100579
 20
224.3215987128735
 30
0.0
 10
265.1469840069392
 20
233.2200555856923
 30
0.0
 10
261.2136809877927
 20
226.8199687617503
 30
0.0
 10
261.3859171839939
 20
223.5709512031817
 30
0.0
 10
263.4581988816433
 20
222.2981321263718
 30
0.0
 10
264.3748029598792
 20
222.7566492102413
 30
0.0
 10
264.7601047399493
 20
222.94939049604
 30
0.0
 11
260.6681235205848
 21
222.5597950511303
 31
0.0
 11
263.4935389535336
 21
224.7025791743268
 31
0.0
 11
264.1268218467413
 21
230.4004368730425
 31
0.0
 11
261.642405446883
 21
226.5044659067979
 31
0.0
 11
262.0808324333454
 21
223.3389877761884
 31
0.0
 11
263.5909669069063
 21
222.5597950511303
 31
0.0
 11
264.7601047399493
 21
222.94939049604
 31
0.0
  0
TEXT
  5
5DA9
330
1A
100
AcDbEntity
  8
寸法線
 48
10.0
100
AcDbText
 10
267.126152318069
 20
222.644122790474
 30
0.0
 40
5.2
  1
2
100
AcDbText
  0
TEXT
  5
5DAA
330
1A
100
AcDbEntity
  8
寸法線
 48
10.0
100
AcDbText
 10
292.976727435581
 20
222.644122790474
 30
0.0
 40
5.2
  1
3
100
AcDbText
  0
SPLINE
  5
5DAB
330
1A
100
AcDbEntity
  8
寸法線
 48
10.0
100
AcDbSpline
210
0.0
220
0.0
230
1.0
 70
  1064
 71
     3
 72
    13
 73
     9
 74
     7
 42
0.000000001
 43
0.0000000001
 44
0.0000000001
 40
0.0
 40
0.0
 40
0.0
 40
0.0
 40
3.546053604694681
 40
9.278996093298952
 40
13.89970108471591
 40
17.09539662994949
 40
18.79470455702458
 40
20.02704699455844
 40
20.02704699455844
 40
20.02704699455844
 40
20.02704699455844
 10
286.5186986380967
 20
222.5597950511303
 30
0.0
 10
287.573226907175
 20
223.0469237853345
 30
0.0
 10
290.3326222180908
 20
224.3215987128735
 30
0.0
 10
290.997559124451
 20
233.2200555856923
 30
0.0
 10
287.0642561053047
 20
226.8199687617503
 30
0.0
 10
287.2364923015057
 20
223.5709512031817
 30
0.0
 10
289.3087739991552
 20
222.2981321263718
 30
0.0
 10
290.225378077391
 20
222.7566492102413
 30
0.0
 10
290.6106798574612
 20
222.94939049604
 30
0.0
 11
286.5186986380967
 21
222.5597950511303
 31
0.0
 11
289.3441140710455
 21
224.7025791743268
 31
0.0
 11
289.9773969642532
 21
230.4004368730425
 31
0.0
 11
287.4929805643949
 21
226.5044659067979
 31
0.0
 11
287.9314075508573
 21
223.3389877761884
 31
0.0
 11
289.4415420244181
 21
222.5597950511303
 31
0.0
 11
290.6106798574612
 21
222.94939049604
 31
0.0
  0
MTEXT
  5
5DAC
330
1A
100
AcDbEntity
  8
寸法線
 48
10.0
100
AcDbMText
 10
312.733286769979
 20
230.223201701117
 30
0.0
 40
8.0
 41
19.321844296148
 71
     1
 72
     5
  1
記事
  0
MTEXT
  5
5DAD
330
1A
100
AcDbEntity
  8
寸法線
 48
10.0
100
AcDbMText
 10
348.41991846096
 20
230.223201701117
 30
0.0
 40
8.0
 41
27.29696969697
 71
     1
 72
     5
  1
台数\P\P 
  0
LINE
  5
5DAE
330
1A
100
AcDbEntity
  8
寸法線
100
AcDbLine
 10
375.390714646215
 20
114.950010498528
 30
0.0
 11
375.390714646215
 21
233.441019359144
 31
0.0
  0
MTEXT
  5
5DAF
330
1A
100
AcDbEntity
  8
寸法線
 48
10.0
100
AcDbMText
 10
377.917621807156
 20
230.223201701117
 30
0.0
 40
8.0
 41
27.323158825411
 71
     1
 72
     5
  1
御仕様
  0
MTEXT
  5
5DB0
102
{ACAD_XDICTIONARY
360
5DB1
102
}
330
1A
100
AcDbEntity
  8
寸法線
 48
10.0
100
AcDbMText
 10
446.247192417004
 20
230.584238327749
 30
0.0
 40
8.0
 41
77.713015541577
 71
     2
 72
     5
  1
型式\PTSE-A3SA-065\PTSE-A3SA-070\PTSE-A3SA-075\PTSE-A3SA-080\PTSE-A3SA-085\PTSE-A3SA-090\PTSE-A3SA-095\PTSE-A3SA-100
1001
ACADANNOTATIVE
1000
AnnotativeData
1002
{
1070
     1
1070
     0
1002
}
1001
ACAD
1000
MTEXTBEGIN
1070
    44
1040
0.99
1000
MTEXTEND
  0
SPLINE
  5
5DB4
330
1A
100
AcDbEntity
  8
寸法線
 48
10.0
100
AcDbSpline
210
0.0
220
0.0
230
1.0
 70
  1064
 71
     3
 72
    13
 73
     9
 74
     7
 42
0.000000001
 43
0.0000000001
 44
0.0000000001
 40
0.0
 40
0.0
 40
0.0
 40
0.0
 40
3.546053604694681
 40
9.278996093298952
 40
13.89970108471591
 40
17.09539662994949
 40
18.79470455702458
 40
20.02704699455844
 40
20.02704699455844
 40
20.02704699455844
 40
20.02704699455844
 10
496.2204518113741
 20
222.5597950511303
 30
0.0
 10
497.2749800804524
 20
223.0469237853345
 30
0.0
 10
500.0343753913683
 20
224.3215987128735
 30
0.0
 10
500.6993122977285
 20
233.2200555856923
 30
0.0
 10
496.7660092785821
 20
226.8199687617503
 30
0.0
 10
496.9382454747832
 20
223.5709512031817
 30
0.0
 10
499.0105271724327
 20
222.2981321263718
 30
0.0
 10
499.9271312506686
 20
222.7566492102413
 30
0.0
 10
500.3124330307386
 20
222.94939049604
 30
0.0
 11
496.2204518113741
 21
222.5597950511303
 31
0.0
 11
499.0458672443229
 21
224.7025791743268
 31
0.0
 11
499.6791501375306
 21
230.4004368730425
 31
0.0
 11
497.1947337376723
 21
226.5044659067979
 31
0.0
 11
497.6331607241348
 21
223.3389877761884
 31
0.0
 11
499.1432951976956
 21
222.5597950511303
 31
0.0
 11
500.3124330307386
 21
222.94939049604
 31
0.0
  0
SPLINE
  5
5DB5
330
1A
100
AcDbEntity
  8
寸法線
 48
10.0
100
AcDbSpline
210
0.0
220
0.0
230
1.0
 70
  1064
 71
     3
 72
    13
 73
     9
 74
     7
 42
0.000000001
 43
0.0000000001
 44
0.0000000001
 40
0.0
 40
0.0
 40
0.0
 40
0.0
 40
3.546053604694681
 40
9.278996093298959
 40
13.89970108471594
 40
17.09539662994952
 40
18.79470455702462
 40
20.02704699455848
 40
20.02704699455848
 40
20.02704699455848
 40
20.02704699455848
 10
520.459344915594
 20
222.5597950511303
 30
0.0
 10
521.5138731846723
 20
223.0469237853345
 30
0.0
 10
524.2732684955881
 20
224.3215987128735
 30
0.0
 10
524.9382054019485
 20
233.2200555856923
 30
0.0
 10
521.0049023828017
 20
226.8199687617501
 30
0.0
 10
521.1771385790031
 20
223.5709512031817
 30
0.0
 10
523.2494202766525
 20
222.2981321263717
 30
0.0
 10
524.1660243548885
 20
222.7566492102414
 30
0.0
 10
524.5513261349585
 20
222.94939049604
 30
0.0
 11
520.459344915594
 21
222.5597950511303
 31
0.0
 11
523.2847603485428
 21
224.7025791743268
 31
0.0
 11
523.9180432417505
 21
230.4004368730425
 31
0.0
 11
521.4336268418922
 21
226.5044659067979
 31
0.0
 11
521.8720538283546
 21
223.3389877761884
 31
0.0
 11
523.3821883019154
 21
222.5597950511303
 31
0.0
 11
524.5513261349585
 21
222.94939049604
 31
0.0
  0
TEXT
  5
5DB6
330
1A
100
AcDbEntity
  8
寸法線
 48
10.0
100
AcDbText
 10
526.917373713078
 20
222.644122790474
 30
0.0
 40
5.2
  1
1
100
AcDbText
  0
SPLINE
  5
5DB7
330
1A
100
AcDbEntity
  8
寸法線
 48
10.0
100
AcDbSpline
210
0.0
220
0.0
230
1.0
 70
  1064
 71
     3
 72
    13
 73
     9
 74
     7
 42
0.000000001
 43
0.0000000001
 44
0.0000000001
 40
0.0
 40
0.0
 40
0.0
 40
0.0
 40
3.546053604694681
 40
9.278996093298945
 40
13.89970108471587
 40
17.09539662994945
 40
18.79470455702454
 40
20.0270469945584
 40
20.0270469945584
 40
20.0270469945584
 40
20.0270469945584
 10
546.3099200331059
 20
222.5597950511303
 30
0.0
 10
547.3644483021842
 20
223.0469237853345
 30
0.0
 10
550.1238436130999
 20
224.3215987128735
 30
0.0
 10
550.7887805194601
 20
233.2200555856923
 30
0.0
 10
546.855477500314
 20
226.8199687617502
 30
0.0
 10
547.0277136965149
 20
223.5709512031817
 30
0.0
 10
549.0999953941644
 20
222.2981321263718
 30
0.0
 10
550.0165994724002
 20
222.7566492102413
 30
0.0
 10
550.4019012524703
 20
222.94939049604
 30
0.0
 11
546.3099200331059
 21
222.5597950511303
 31
0.0
 11
549.1353354660547
 21
224.7025791743268
 31
0.0
 11
549.7686183592623
 21
230.4004368730425
 31
0.0
 11
547.2842019594041
 21
226.5044659067979
 31
0.0
 11
547.7226289458665
 21
223.3389877761884
 31
0.0
 11
549.2327634194273
 21
222.5597950511303
 31
0.0
 11
550.4019012524703
 21
222.94939049604
 31
0.0
  0
TEXT
  5
5DB8
330
1A
100
AcDbEntity
  8
寸法線
 48
10.0
100
AcDbText
 10
552.76794883059
 20
222.644122790474
 30
0.0
 40
5.2
  1
2
100
AcDbText
  0
SPLINE
  5
5DB9
330
1A
100
AcDbEntity
  8
寸法線
 48
10.0
100
AcDbSpline
210
0.0
220
0.0
230
1.0
 70
  1064
 71
     3
 72
    13
 73
     9
 74
     7
 42
0.000000001
 43
0.0000000001
 44
0.0000000001
 40
0.0
 40
0.0
 40
0.0
 40
0.0
 40
3.546053604694681
 40
9.278996093298945
 40
13.89970108471587
 40
17.09539662994945
 40
18.79470455702454
 40
20.0270469945584
 40
20.0270469945584
 40
20.0270469945584
 40
20.0270469945584
 10
572.1604951506177
 20
222.5597950511303
 30
0.0
 10
573.215023419696
 20
223.0469237853345
 30
0.0
 10
575.9744187306117
 20
224.3215987128735
 30
0.0
 10
576.6393556369721
 20
233.2200555856923
 30
0.0
 10
572.7060526178259
 20
226.8199687617502
 30
0.0
 10
572.8782888140267
 20
223.5709512031817
 30
0.0
 10
574.9505705116762
 20
222.2981321263718
 30
0.0
 10
575.8671745899122
 20
222.7566492102413
 30
0.0
 10
576.2524763699822
 20
222.94939049604
 30
0.0
 11
572.1604951506177
 21
222.5597950511303
 31
0.0
 11
574.9859105835666
 21
224.7025791743268
 31
0.0
 11
575.6191934767742
 21
230.4004368730425
 31
0.0
 11
573.134777076916
 21
226.5044659067979
 31
0.0
 11
573.5732040633784
 21
223.3389877761884
 31
0.0
 11
575.0833385369392
 21
222.5597950511303
 31
0.0
 11
576.2524763699822
 21
222.94939049604
 31
0.0
  0
TEXT
  5
5DBA
330
1A
100
AcDbEntity
  8
寸法線
 48
10.0
100
AcDbText
 10
578.618523948102
 20
222.644122790474
 30
0.0
 40
5.2
  1
3
100
AcDbText
  0
MTEXT
  5
5DBB
330
1A
100
AcDbEntity
  8
寸法線
 48
10.0
100
AcDbMText
 10
598.3750832825
 20
230.223201701117
 30
0.0
 40
8.0
 41
19.321844296148
 71
     1
 72
     5
  1
記事
  0
MTEXT
  5
5DBC
330
1A
100
AcDbEntity
  8
寸法線
 48
10.0
100
AcDbMText
 10
634.061714973481
 20
230.223201701117
 30
0.0
 40
8.0
 41
19.321844296148
 71
     1
 72
     5
  1
台数
  0
LINE
  5
5DBD
330
1A
100
AcDbEntity
  8
寸法線
100
AcDbLine
 10
407.390684646215
 20
114.950010498528
 30
0.0
 11
407.390684646215
 21
233.441019359144
 31
0.0
  0
LINE
  5
5DBE
330
1A
100
AcDbEntity
  8
寸法線
 48
10.0
100
AcDbLine
 10
485.103700187792
 20
233.441019359144
 30
0.0
 11
485.103700187792
 21
114.950010498528
 31
0.0
  0
LINE
  5
5DBF
330
1A
100
AcDbEntity
  8
寸法線
 48
10.0
100
AcDbLine
 10
512.502475865649
 20
233.441019359144
 30
0.0
 11
512.502475865649
 21
114.950010498528
 31
0.0
  0
LINE
  5
5DC0
330
1A
100
AcDbEntity
  8
寸法線
 48
10.0
100
AcDbLine
 10
538.580509952919
 20
233.441019359144
 30
0.0
 11
538.580509952919
 21
114.950010498528
 31
0.0
  0
LINE
  5
5DC1
330
1A
100
AcDbEntity
  8
寸法線
 48
10.0
100
AcDbLine
 10
562.345785428259
 20
233.441019359144
 30
0.0
 11
562.345785428259
 21
114.950010498528
 31
0.0
  0
LINE
  5
5DC2
330
1A
100
AcDbEntity
  8
寸法線
 48
10.0
100
AcDbLine
 10
588.196360545771
 20
233.441019359144
 30
0.0
 11
588.196360545771
 21
114.950010498528
 31
0.0
  0
LINE
  5
5DC3
330
1A
100
AcDbEntity
  8
寸法線
100
AcDbLine
 10
626.741692545771
 20
114.950010498528
 30
0.0
 11
626.741692545771
 21
233.441019359144
 31
0.0
  0
LINE
  5
5DC4
330
1A
100
AcDbEntity
  8
寸法線
100
AcDbLine
 10
658.49801111006
 20
114.950010498528
 30
0.0
 11
658.49801111006
 21
233.441019359144
 31
0.0
  0
TEXT
  5
5DC5
330
1A
100
AcDbEntity
  8
寸法線
 48
10.0
100
AcDbText
 10
519.395796224525
 20
101.820688381346
 30
0.0
 40
8.0
  1
○印が今回の貴社の御仕様です。
100
AcDbText
  0
LINE
  5
5DC6
330
1A
100
AcDbEntity
  8
寸法線
100
AcDbLine
 10
88.539087900067
 20
114.950010498528
 30
0.0
 11
658.49801111006
 21
114.950010498528
 31
0.0
  0
MTEXT
  5
5DC7
102
{ACAD_XDICTIONARY
360
5DC8
102
}
330
1A
100
AcDbEntity
  8
寸法線
 48
10.0
100
AcDbMText
 10
214.228183241451
 20
216.687766391365
 30
0.0
 40
8.0
 41
23.854899029718
 71
     2
 72
     5
  1
250\P300\P350\P400\P450\P500\P550\P600
1001
ACADANNOTATIVE
1000
AnnotativeData
1002
{
1070
     1
1070
     0
1002
}
1001
ACAD
1000
MTEXTBEGIN
1070
    44
1040
0.98
1000
MTEXTEND
  0
MTEXT
  5
5DCB
102
{ACAD_XDICTIONARY
360
5DCC
102
}
330
1A
100
AcDbEntity
  8
寸法線
 48
10.0
100
AcDbMText
 10
238.662399630475
 20
216.687766391365
 30
0.0
 40
8.0
 41
23.854899029718
 71
     2
 72
     5
  1
100\P100\P100\P100\P100\P100\P150\P150
1001
ACADANNOTATIVE
1000
AnnotativeData
1002
{
1070
     1
1070
     0
1002
}
1001
ACAD
1000
MTEXTBEGIN
1070
    44
1040
0.98
1000
MTEXTEND
  0
MTEXT
  5
5DCF
102
{ACAD_XDICTIONARY
360
5DD0
102
}
330
1A
100
AcDbEntity
  8
寸法線
 48
10.0
100
AcDbMText
 10
264.492495070659
 20
216.687766391365
 30
0.0
 40
8.0
 41
23.854899029718
 71
     2
 72
     5
  1
50\P50\P50\P50\P50\P50\P50\P50
1001
ACADANNOTATIVE
1000
AnnotativeData
1002
{
1070
     1
1070
     0
1002
}
1001
ACAD
1000
MTEXTBEGIN
1070
    44
1040
0.98
1000
MTEXTEND
  0
MTEXT
  5
5DD3
102
{ACAD_XDICTIONARY
360
5DD4
102
}
330
1A
100
AcDbEntity
  8
寸法線
 48
10.0
100
AcDbMText
 10
288.980497093706
 20
216.687766391365
 30
0.0
 40
8.0
 41
23.854899029718
 71
     2
 72
     5
  1
100\P150\P200\P250\P300\P350\P350\P400
1001
ACADANNOTATIVE
1000
AnnotativeData
1002
{
1070
     1
1070
     0
1002
}
1001
ACAD
1000
MTEXTBEGIN
1070
    44
1040
0.98
1000
MTEXTEND
  0
MTEXT
  5
5DD7
102
{ACAD_XDICTIONARY
360
5DD8
102
}
330
1A
100
AcDbEntity
  8
寸法線
 48
10.0
100
AcDbMText
 10
525.196993562149
 20
216.687766391365
 30
0.0
 40
8.0
 41
23.854899029718
 71
     2
 72
     5
  1
150\P150\P150\P150\P150\P150\P150\P150
1001
ACADANNOTATIVE
1000
AnnotativeData
1002
{
1070
     1
1070
     0
1002
}
1001
ACAD
1000
MTEXTBEGIN
1070
    44
1040
0.98
1000
MTEXTEND
  0
MTEXT
  5
5DDB
102
{ACAD_XDICTIONARY
360
5DDC
102
}
330
1A
100
AcDbEntity
  8
寸法線
 48
10.0
100
AcDbMText
 10
550.189781554278
 20
216.687766391365
 30
0.0
 40
8.0
 41
23.854899029718
 71
     2
 72
     5
  1
50\P50\P50\P50\P50\P50\P50\P50
1001
ACADANNOTATIVE
1000
AnnotativeData
1002
{
1070
     1
1070
     0
1002
}
1001
ACAD
1000
MTEXTBEGIN
1070
    44
1040
0.98
1000
MTEXTEND
  0
MTEXT
  5
5DDF
102
{ACAD_XDICTIONARY
360
5DE0
102
}
330
1A
100
AcDbEntity
  8
寸法線
 48
10.0
100
AcDbMText
 10
574.428403846592
 20
216.687766391365
 30
0.0
 40
8.0
 41
23.854899029718
 71
     2
 72
     5
  1
450\P500\P550\P600\P650\P700\P750\P800
1001
ACADANNOTATIVE
1000
AnnotativeData
1002
{
1070
     1
1070
     0
1002
}
1001
ACAD
1000
MTEXTBEGIN
1070
    44
1040
0.98
1000
MTEXTEND
  0
MTEXT
  5
5DE3
102
{ACAD_XDICTIONARY
360
5DE4
102
}
330
1A
100
AcDbEntity
  8
寸法線
 48
10.0
100
AcDbMText
 10
498.69587417039
 20
216.687766391365
 30
0.0
 40
8.0
 41
23.854899029718
 71
     2
 72
     5
  1
650\P700\P750\P800\P850\P900\P950\P1000
1001
ACADANNOTATIVE
1000
AnnotativeData
1002
{
1070
     1
1070
     0
1002
}
1001
ACAD
1000
MTEXTBEGIN
1070
    44
1040
0.98
1000
MTEXTEND
  0
LINE
  5
61F1
330
1A
100
AcDbEntity
  8
外形線
 48
10.0
100
AcDbLine
 10
347.289993490124
 20
416.718033497095
 30
0.0
 11
347.289993490124
 21
378.716653955506
 31
0.0
  0
LINE
  5
61F2
330
1A
100
AcDbEntity
  8
細線
100
AcDbLine
 10
350.289993490124
 20
408.6880335003
 30
0.0
 11
364.289993490124
 21
408.6880335003
 31
0.0
  0
LINE
  5
61F3
330
1A
100
AcDbEntity
  8
細線
100
AcDbLine
 10
350.289993490124
 20
386.7480335003
 30
0.0
 11
364.289993490124
 21
386.7480335003
 31
0.0
  0
ARC
  5
61F4
330
1A
100
AcDbEntity
  8
細線
 48
10.0
100
AcDbCircle
 10
368.846810077494
 20
397.7180335003
 30
0.0
 40
21.5568165984052
100
AcDbArc
 50
149.410227986311
 51
210.589772013689
  0
ARC
  5
61F5
330
1A
100
AcDbEntity
  8
細線
 48
10.0
100
AcDbCircle
 10
345.733176902756
 20
397.7180335003
 30
0.0
 40
21.55681659840436
100
AcDbArc
 50
329.41022798631
 51
30.589772013689
  0
LINE
  5
61F6
330
1A
100
AcDbEntity
  8
外形線
 48
10.0
100
AcDbLine
 10
350.289993490124
 20
419.6580335003
 30
0.0
 11
364.289993490124
 21
419.6580335003
 31
0.0
  0
LINE
  5
61F7
330
1A
100
AcDbEntity
  8
外形線
 48
10.0
100
AcDbLine
 10
350.289993490124
 20
375.779413041888
 30
0.0
 11
364.289993490124
 21
375.779413041888
 31
0.0
  0
ARC
  5
61F8
330
1A
100
AcDbEntity
  8
細線
 48
10.0
100
AcDbCircle
 10
368.580519393129
 20
420.096464086122
 30
0.0
 40
21.5568
100
AcDbArc
 50
189.014839552026
 51
211.953209848837
  0
ARC
  5
61F9
330
1A
100
AcDbEntity
  8
外形線
 48
10.0
100
AcDbCircle
 10
363.80465346746
 20
402.863701363028
 30
0.0
 40
21.5568
100
AcDbArc
 50
128.824173789179
 51
140.004933775737
  0
ARC
  5
61FA
330
1A
100
AcDbEntity
  8
外形線
 48
10.0
100
AcDbCircle
 10
350.775333512789
 20
402.863701363028
 30
0.0
 40
21.5568
100
AcDbArc
 50
39.995066224263
 51
51.175826210821
  0
ARC
  5
61FB
330
1A
100
AcDbEntity
  8
細線
 48
10.0
100
AcDbCircle
 10
345.99946758712
 20
420.096464086122
 30
0.0
 40
21.5568
100
AcDbArc
 50
328.046790151163
 51
350.985160447974
  0
ARC
  5
61FC
330
1A
100
AcDbEntity
  8
外形線
 48
10.0
100
AcDbCircle
 10
363.80465346746
 20
392.572365637571
 30
0.0
 40
21.5568
100
AcDbArc
 50
219.995066224262
 51
231.17582621082
  0
ARC
  5
61FD
330
1A
100
AcDbEntity
  8
外形線
 48
10.0
100
AcDbCircle
 10
350.775333512789
 20
392.572365637572
 30
0.0
 40
21.5568
100
AcDbArc
 50
308.824173789179
 51
320.004933775737
  0
ARC
  5
61FE
330
1A
100
AcDbEntity
  8
細線
 48
10.0
100
AcDbCircle
 10
345.99946758712
 20
375.339602914477
 30
0.0
 40
21.5568
100
AcDbArc
 50
9.014839552025
 51
31.953209848837
  0
ARC
  5
61FF
330
1A
100
AcDbEntity
  8
細線
 48
10.0
100
AcDbCircle
 10
368.580519393128
 20
375.339602914477
 30
0.0
 40
21.5568
100
AcDbArc
 50
148.046790151163
 51
170.985160447973
  0
LINE
  5
6200
330
1A
100
AcDbEntity
  8
外形線
 48
10.0
100
AcDbLine
 10
347.289993490124
 20
416.718723271094
 30
0.0
 11
347.289993490124
 21
378.717343729506
 31
0.0
  0
LINE
  5
6201
330
1A
100
AcDbEntity
  8
外形線
 48
10.0
100
AcDbLine
 10
367.289993490124
 20
416.718723271094
 30
0.0
 11
367.289993490124
 21
378.717343729505
 31
0.0
  0
DIMENSION
  5
6202
330
1A
100
AcDbEntity
  8
寸法線
 48
10.0
100
AcDbDimension
  2
*D27
 10
347.289993490124
 20
303.713097640282
 30
0.0
 11
357.289993490124
 21
308.342264306948
 31
0.0
 70
    32
  3
ISO-25
100
AcDbAlignedDimension
 13
367.289993490124
 23
378.717343729505
 33
0.0
 14
347.289993490124
 24
378.716653955506
 34
0.0
100
AcDbRotatedDimension
1001
ACAD
1000
DSTYLE
1002
{
1070
     5
1000
OPEN30
1070
    41
1040
6.0
1070
   271
1070
     1
1070
   341
1005
2AF4
1070
   272
1070
     1
1070
    73
1070
     0
1070
    48
1040
0.1
1070
    47
1040
0.1
1070
   140
1040
8.0
1002
}
  0
LINE
  5
620F
330
1A
100
AcDbEntity
  8
隠れ線
 48
10.0
100
AcDbLine
 10
302.289993533653
 20
408.467877082275
 30
0.0
 11
347.289993490124
 21
408.467877082275
 31
0.0
  0
LINE
  5
6210
330
1A
100
AcDbEntity
  8
隠れ線
 48
10.0
100
AcDbLine
 10
302.289993533653
 20
386.967877082275
 30
0.0
 11
347.289993533653
 21
386.967877082275
 31
0.0
  0
LINE
  5
6241
330
1A
100
AcDbEntity
  8
細線
100
AcDbLine
 10
337.289993533652
 20
423.367839890776
 30
0.0
 11
337.289993533652
 21
413.701318350841
 31
0.0
  0
MTEXT
  5
6242
330
1A
100
AcDbEntity
  8
寸法線
 48
10.0
100
AcDbMText
 10
354.424043660347
 20
483.722970626335
 30
0.0
 40
8.0
 41
0.0
 71
     7
 72
     1
  1
六角穴付\P押しねじ
  0
LEADER
  5
6243
330
1A
100
AcDbEntity
  8
寸法線
 48
10.0
100
AcDbLeader
  3
ISO-25
 76
     3
 10
337.273147553281
 20
425.661798061285
 30
0.0
 10
355.495325875681
 20
482.218723121042
 30
0.0
 10
368.533419293986
 20
482.218723121042
 30
0.0
1001
ACAD
1000
DSTYLE
1002
{
1070
     5
1000
OPEN30
1070
   147
1040
0.625
1070
    77
1070
     0
1070
    41
1040
6.0
1070
    47
1040
0.1
1070
    48
1040
0.1
1070
    73
1070
     0
1070
   140
1040
8.0
1070
   271
1070
     1
1070
   272
1070
     1
1070
   341
1005
2AF4
1070
   342
1005
2AF4
1002
}
  0
MTEXT
  5
6627
330
1A
100
AcDbEntity
  8
寸法線
 48
10.0
100
AcDbMText
 10
85.556531173306
 20
104.231650522249
 30
0.0
 40
8.0
 41
184.266666666667
 71
     1
 72
     5
  1
取付位置決定後は、六角穴付押ねじを\P確実に締付けて下さい。
  0
ARC
  5
66D0
330
1A
100
AcDbEntity
  8
寸法線
100
AcDbCircle
 10
250.113355143179
 20
307.018423248772
 30
0.0
 40
1.76059
100
AcDbArc
 50
252.903398883406
 51
337.412611017141
  0
ARC
  5
66D1
330
1A
100
AcDbEntity
  8
寸法線
100
AcDbCircle
 10
245.567335143179
 20
310.339651248772
 30
0.0
 40
5.02039
100
AcDbArc
 50
274.628927150735
 51
33.374029121142
  0
ARC
  5
66D2
330
1A
100
AcDbEntity
  8
寸法線
100
AcDbCircle
 10
245.575757143179
 20
310.340567248772
 30
0.0
 40
5.013138
100
AcDbArc
 50
273.280470979898
 51
33.415912335969
  0
ARC
  5
66D3
330
1A
100
AcDbEntity
  8
寸法線
100
AcDbCircle
 10
251.926343143179
 20
309.335623248772
 30
0.0
 40
4.62938
100
AcDbArc
 50
123.469024399698
 51
239.774013712205
  0
ARC
  5
66D4
330
1A
100
AcDbEntity
  8
寸法線
100
AcDbCircle
 10
251.926343143179
 20
309.335623248772
 30
0.0
 40
4.629386
100
AcDbArc
 50
123.469024399698
 51
239.773899120646
  0
ARC
  5
66D5
330
1A
100
AcDbEntity
  8
寸法線
100
AcDbCircle
 10
249.523267143179
 20
312.974173248772
 30
0.0
 40
0.26895
100
AcDbArc
 50
28.230948369044
 51
123.883845843401
  0
TEXT
  5
66D6
330
1A
100
AcDbEntity
  8
寸法線
100
AcDbText
 10
252.852185143179
 20
304.727895248772
 30
0.0
 40
4.0
  1
３
 41
0.854632287386
  7
EXCADSTD
 72
     5
 11
255.473057491162
 21
304.727895248772
 31
0.0
100
AcDbText
  0
ARC
  5
66D7
330
1A
100
AcDbEntity
  8
寸法線
100
AcDbCircle
 10
178.838101828424
 20
306.612018155864
 30
0.0
 40
1.76059
100
AcDbArc
 50
252.903398883406
 51
337.412611017141
  0
ARC
  5
66D8
330
1A
100
AcDbEntity
  8
寸法線
100
AcDbCircle
 10
174.292081828424
 20
309.933306155863
 30
0.0
 40
5.02039
100
AcDbArc
 50
274.628927150735
 51
33.374029121142
  0
ARC
  5
66D9
330
1A
100
AcDbEntity
  8
寸法線
100
AcDbCircle
 10
174.300505828424
 20
309.934162155864
 30
0.0
 40
5.013138
100
AcDbArc
 50
273.280470979898
 51
33.415912335969
  0
ARC
  5
66DA
330
1A
100
AcDbEntity
  8
寸法線
100
AcDbCircle
 10
180.651091828424
 20
308.929278155863
 30
0.0
 40
4.62938
100
AcDbArc
 50
123.469024399698
 51
239.774013712205
  0
ARC
  5
66DB
330
1A
100
AcDbEntity
  8
寸法線
100
AcDbCircle
 10
180.651091828424
 20
308.929278155863
 30
0.0
 40
4.629386
100
AcDbArc
 50
123.469024399698
 51
239.773899120646
  0
ARC
  5
66DC
330
1A
100
AcDbEntity
  8
寸法線
100
AcDbCircle
 10
178.248013828424
 20
312.567828155864
 30
0.0
 40
0.26895
100
AcDbArc
 50
28.230948369017
 51
123.883845843401
  0
TEXT
  5
66DD
330
1A
100
AcDbEntity
  8
寸法線
100
AcDbText
 10
181.576993828424
 20
304.321490155864
 30
0.0
 40
4.0
  1
２
 41
0.786507233152
  7
EXCADSTD
 72
     5
 11
183.988949343423
 21
304.321490155864
 31
0.0
100
AcDbText
  0
ARC
  5
66DE
330
1A
100
AcDbEntity
  8
寸法線
100
AcDbCircle
 10
100.319720024668
 20
306.488195898014
 30
0.0
 40
1.76059
100
AcDbArc
 50
252.903398883407
 51
337.412611017141
  0
ARC
  5
66DF
330
1A
100
AcDbEntity
  8
寸法線
100
AcDbCircle
 10
95.773700024668
 20
309.809423898014
 30
0.0
 40
5.02039
100
AcDbArc
 50
274.628927150735
 51
33.374029121142
  0
ARC
  5
66E0
330
1A
100
AcDbEntity
  8
寸法線
100
AcDbCircle
 10
95.782062024668
 20
309.810339898015
 30
0.0
 40
5.013138
100
AcDbArc
 50
273.280470979898
 51
33.415912335969
  0
ARC
  5
66E1
330
1A
100
AcDbEntity
  8
寸法線
100
AcDbCircle
 10
102.132648024668
 20
308.805395898015
 30
0.0
 40
4.62938
100
AcDbArc
 50
123.469024399698
 51
239.774013712204
  0
ARC
  5
66E2
330
1A
100
AcDbEntity
  8
寸法線
100
AcDbCircle
 10
102.132648024668
 20
308.805395898015
 30
0.0
 40
4.629386
100
AcDbArc
 50
123.469024399698
 51
239.773899120646
  0
ARC
  5
66E3
330
1A
100
AcDbEntity
  8
寸法線
100
AcDbCircle
 10
99.729572024668
 20
312.443945898014
 30
0.0
 40
0.26895
100
AcDbArc
 50
28.230948369017
 51
123.883845843413
  0
TEXT
  5
66E4
330
1A
100
AcDbEntity
  8
寸法線
100
AcDbText
 10
102.658526024668
 20
304.397619898015
 30
0.0
 40
4.0
  1
１
 41
1.5
  7
EXCADSTD
 72
     5
 11
106.658526024668
 21
304.397619898015
 31
0.0
100
AcDbText
  0
ARC
  5
66E5
330
1A
100
AcDbEntity
  8
寸法線
100
AcDbCircle
 10
180.180370118157
 20
286.746664335012
 30
0.0
 40
1.76059
100
AcDbArc
 50
252.903398883406
 51
337.412611017141
  0
ARC
  5
66E6
330
1A
100
AcDbEntity
  8
寸法線
100
AcDbCircle
 10
175.634350118157
 20
290.067892335012
 30
0.0
 40
5.02039
100
AcDbArc
 50
274.628927150735
 51
33.374029121142
  0
ARC
  5
66E7
330
1A
100
AcDbEntity
  8
寸法線
100
AcDbCircle
 10
175.642650118157
 20
290.068808335012
 30
0.0
 40
5.013138
100
AcDbArc
 50
273.280470979895
 51
33.415912335969
  0
ARC
  5
66E8
330
1A
100
AcDbEntity
  8
寸法線
100
AcDbCircle
 10
181.993236118157
 20
289.063864335012
 30
0.0
 40
4.62938
100
AcDbArc
 50
123.469024399698
 51
239.774013712205
  0
ARC
  5
66E9
330
1A
100
AcDbEntity
  8
寸法線
100
AcDbCircle
 10
181.993236118157
 20
289.063864335012
 30
0.0
 40
4.629386
100
AcDbArc
 50
123.469024399698
 51
239.773899120643
  0
ARC
  5
66EA
330
1A
100
AcDbEntity
  8
寸法線
100
AcDbCircle
 10
179.590160118157
 20
292.702414335012
 30
0.0
 40
0.26895
100
AcDbArc
 50
28.230948369017
 51
123.883845843401
  0
LINE
  5
6794
330
1A
100
AcDbEntity
  8
寸法線
100
AcDbLine
 10
-48.150482756268
 20
198.90578198524
 30
0.0
 11
-48.150482756269
 21
217.655781985241
 31
0.0
  0
LINE
  5
6795
330
1A
100
AcDbEntity
  8
寸法線
100
AcDbLine
 10
-19.400482756268
 20
198.905781985241
 30
0.0
 11
-48.150482756268
 21
198.90578198524
 31
0.0
  0
CIRCLE
  5
6796
330
1A
100
AcDbEntity
  8
寸法線
100
AcDbCircle
 10
36.849517243732
 20
198.905781985241
 30
0.0
 40
3.75
  0
CIRCLE
  5
6797
330
1A
100
AcDbEntity
  8
寸法線
100
AcDbCircle
 10
36.849517243732
 20
198.905781985241
 30
0.0
 40
2.5
  0
CIRCLE
  5
6798
330
1A
100
AcDbEntity
  8
寸法線
100
AcDbCircle
 10
11.849517243732
 20
198.905781985241
 30
0.0
 40
2.5
  0
CIRCLE
  5
6799
330
1A
100
AcDbEntity
  8
寸法線
100
AcDbCircle
 10
11.849517243732
 20
198.905781985241
 30
0.0
 40
3.75
  0
CIRCLE
  5
679A
330
1A
100
AcDbEntity
  8
寸法線
100
AcDbCircle
 10
-13.150482756268
 20
198.905781985241
 30
0.0
 40
2.5
  0
CIRCLE
  5
679B
330
1A
100
AcDbEntity
  8
寸法線
100
AcDbCircle
 10
-13.150482756268
 20
198.905781985241
 30
0.0
 40
3.75
  0
LINE
  5
679C
330
1A
100
AcDbEntity
  8
寸法線
100
AcDbLine
 10
46.849517243732
 20
223.905781985241
 30
0.0
 11
46.849517243732
 21
232.655781985241
 31
0.0
  0
LINE
  5
679D
330
1A
100
AcDbEntity
  8
寸法線
100
AcDbLine
 10
-23.150482756268
 20
232.655781985241
 30
0.0
 11
-23.150482756268
 21
223.905781985241
 31
0.0
  0
LINE
  5
679E
330
1A
100
AcDbEntity
  8
寸法線
100
AcDbLine
 10
46.849517243732
 20
223.905781985241
 30
0.0
 11
-23.150482756268
 21
223.905781985241
 31
0.0
  0
LINE
  5
679F
330
1A
100
AcDbEntity
  8
寸法線
100
AcDbLine
 10
43.099517243732
 20
198.905781985241
 30
0.0
 11
71.849517243732
 21
198.905781985241
 31
0.0
  0
LINE
  5
67A0
330
1A
100
AcDbEntity
  8
寸法線
100
AcDbLine
 10
71.849517243732
 20
198.905781985241
 30
0.0
 11
71.849517243732
 21
217.655781985241
 31
0.0
  0
LINE
  5
67A1
330
1A
100
AcDbEntity
  8
寸法線
100
AcDbLine
 10
36.849517243732
 20
223.905781985241
 30
0.0
 11
36.849517243732
 21
202.655781985241
 31
0.0
  0
LINE
  5
67A2
330
1A
100
AcDbEntity
  8
寸法線
100
AcDbLine
 10
11.849517243732
 20
223.905781985241
 30
0.0
 11
11.849517243732
 21
202.655781985241
 31
0.0
  0
LINE
  5
67A3
330
1A
100
AcDbEntity
  8
寸法線
100
AcDbLine
 10
-13.150482756268
 20
223.905781985241
 30
0.0
 11
-13.150482756268
 21
202.655781985241
 31
0.0
  0
TEXT
  5
67A4
330
1A
100
AcDbEntity
  8
寸法線
100
AcDbText
 10
-19.400482756268
 20
182.968281985241
 30
0.0
 40
8.75
  1
B1
100
AcDbText
  0
TEXT
  5
67A5
330
1A
100
AcDbEntity
  8
寸法線
100
AcDbText
 10
5.599517243732
 20
182.968281985241
 30
0.0
 40
8.75
  1
NC
100
AcDbText
  0
TEXT
  5
67A6
330
1A
100
AcDbEntity
  8
寸法線
100
AcDbText
 10
30.599517243732
 20
182.968281985241
 30
0.0
 40
8.75
  1
B2
100
AcDbText
  0
LINE
  5
67A7
330
1A
100
AcDbEntity
  8
寸法線
100
AcDbLine
 10
36.849517243732
 20
181.405781985241
 30
0.0
 11
36.849517243732
 21
161.405781985241
 31
0.0
  0
LINE
  5
67A8
330
1A
100
AcDbEntity
  8
寸法線
100
AcDbLine
 10
31.849517243732
 20
156.405781985241
 30
0.0
 11
-48.150482756268
 21
156.405781985241
 31
0.0
  0
TEXT
  5
67A9
330
1A
100
AcDbEntity
  8
寸法線
100
AcDbText
 10
-90.525482756268
 20
152.030781985241
 30
0.0
 40
8.75
  1
変換器へ
100
AcDbText
  0
ARC
  5
67AA
330
1A
100
AcDbEntity
  8
寸法線
100
AcDbCircle
 10
31.849517243732
 20
161.405781985241
 30
0.0
 40
5.0
100
AcDbArc
 50
269.999999999999
 51
0.0
  0
ARC
  5
67AB
330
1A
100
AcDbEntity
  8
寸法線
100
AcDbCircle
 10
6.849517243732
 20
161.405781985241
 30
0.0
 40
5.0
100
AcDbArc
 50
269.999999999999
 51
0.0
  0
LINE
  5
67AC
330
1A
100
AcDbEntity
  8
寸法線
100
AcDbLine
 10
11.849517243732
 20
181.405781985241
 30
0.0
 11
11.849517243732
 21
161.405781985241
 31
0.0
  0
ARC
  5
67AD
330
1A
100
AcDbEntity
  8
寸法線
100
AcDbCircle
 10
-18.150482756268
 20
161.405781985241
 30
0.0
 40
5.0
100
AcDbArc
 50
270.0
 51
0.0
  0
LINE
  5
67AE
330
1A
100
AcDbEntity
  8
寸法線
100
AcDbLine
 10
-13.150482756268
 20
181.405781985241
 30
0.0
 11
-13.150482756268
 21
161.405781985241
 31
0.0
  0
TEXT
  5
67AF
330
1A
100
AcDbEntity
  8
寸法線
100
AcDbText
 10
562.76076871521
 20
289.94045211609
 30
0.0
 40
8.75
  1
ia3nG5
100
AcDbText
  0
TEXT
  5
67B0
330
1A
100
AcDbEntity
  8
寸法線
100
AcDbText
 10
562.76076871521
 20
277.44045211609
 30
0.0
 40
8.75
  1
労検第T68867号
100
AcDbText
  0
TEXT
  5
67B1
330
1A
100
AcDbEntity
  8
寸法線
100
AcDbText
 10
562.76076871521
 20
264.94045211609
 30
0.0
 40
8.75
  1
本質安全防爆構造
100
AcDbText
  0
VIEWPORT
  5
4F61
330
4F5F
100
AcDbEntity
 67
     1
  8
0
 48
10.0
100
AcDbViewport
 10
0.0
 20
0.0
 30
0.0
 40
467.315849486887
 41
285.6
 68
     1
 69
     1
1001
ACAD
1000
MVIEW
1002
{
1070
    16
1010
0.0
1020
0.0
1030
0.0
1010
0.0
1020
0.0
1030
1.0
1040
0.0
1040
285.6
1040
204.746305129083
1040
142.61287513705
1040
50.0
1040
0.0
1040
0.0
1070
    16
1070
   100
1070
     0
1070
     1
1070
     0
1070
     0
1070
     0
1070
     0
1040
0.0
1040
0.0
1040
0.0
1040
10.0
1040
10.0
1040
10.0
1040
10.0
1070
     0
1002
{
1002
}
1002
}
  0
VIEWPORT
  5
4F62
330
4F5F
100
AcDbEntity
 67
     1
  8
図枠太線
 48
10.0
100
AcDbViewport
 10
204.746305129083
 20
162.61287513705
 30
0.0
 40
400.0
 41
240.0
 68
     2
 69
     2
1001
ACAD
1000
MVIEW
1002
{
1070
    16
1010
0.0
1020
0.0
1030
0.0
1010
0.0
1020
0.0
1030
1.0
1040
0.0
1040
480.000003226523
1040
268.663355597203
1040
307.249990915222
1040
50.0
1040
0.0
1040
0.0
1070
    16
1070
   100
1070
     0
1070
     0
1070
     0
1070
     0
1070
     0
1070
     0
1040
0.0
1040
0.0
1040
0.0
1040
1.0
1040
1.0
1040
0.0
1040
0.0
1070
     0
1002
{
1002
}
1002
}
  0
INSERT
  5
4F63
330
4F5F
100
AcDbEntity
 67
     1
  8
図枠太線
100
AcDbBlockReference
  2
A3横用_タイトル
 10
-0.352109406709
 20
-0.913084616477
 30
0.0
  0
MTEXT
  5
4F64
330
4F5F
100
AcDbEntity
 67
     1
  8
寸法線
 48
10.0
100
AcDbMText
 10
278.185251813897
 20
51.625934114855
 30
0.0
 40
5.0
 41
59.487124795261
 71
     1
 72
     5
  1
A3縮小図
  0
LINE
  5
4F66
330
4F5F
100
AcDbEntity
 67
     1
  8
寸法線
 48
10.0
100
AcDbLine
 10
277.251629862852
 20
45.242335028596
 30
0.0
 11
302.886493472669
 21
45.242335028596
 31
0.0
  0
MTEXT
  5
4F68
102
{ACAD_XDICTIONARY
360
5765
102
}
330
4F5F
100
AcDbEntity
 67
     1
  8
寸法線
 48
10.0
100
AcDbMText
 10
338.952685188947
 20
16.710162801059
 30
0.0
 40
8.0
 41
33.206594841881
 71
     1
 72
     5
  1
HE-14004
1001
ACADANNOTATIVE
1000
AnnotativeData
1002
{
1070
     1
1070
     0
1002
}
  0
MTEXT
  5
4F6A
330
4F5F
100
AcDbEntity
 67
     1
  8
寸法線
 48
10.0
100
AcDbMText
 10
149.12611673873
 20
15.471474704332
 30
0.0
 40
5.0
 41
11.452149180996
 71
     1
 72
     5
  1
{\H1.4x;1:2}
  0
MTEXT
  5
5888
102
{ACAD_XDICTIONARY
360
5889
102
}
330
4F5F
100
AcDbEntity
 67
     1
  8
寸法線
 48
10.0
100
AcDbMText
 10
173.844001466027
 20
33.343129199194
 30
0.0
 40
5.0
 41
31.372065131184
 71
     1
 72
     5
  1
takahashi
1001
ACADANNOTATIVE
1000
AnnotativeData
1002
{
1070
     1
1070
     0
1002
}
  0
MTEXT
  5
5EE1
102
{ACAD_XDICTIONARY
360
5EE2
102
}
330
4F5F
100
AcDbEntity
 67
     1
  8
寸法線
 48
10.0
100
AcDbMText
 10
372.919698999695
 20
51.768582030205
 30
0.0
 40
5.0
 41
34.444444444444
 71
     1
 72
     5
  1
台数   台
1001
ACADANNOTATIVE
1000
AnnotativeData
1002
{
1070
     1
1070
     0
1002
}
  0
LWPOLYLINE
  5
6090
330
4F5F
100
AcDbEntity
 67
     1
  8
下書線
 48
10.0
100
AcDbPolyline
 90
        4
 70
     1
 43
0.0
 10
87.347445379939
 20
61.45618098038
 10
271.026590391823
 20
61.45618098038
 10
271.026590391823
 20
46.70728790786
 10
87.347445379939
 20
46.70728790786
  0
MTEXT
  5
6091
102
{ACAD_XDICTIONARY
360
6092
102
}
330
4F5F
100
AcDbEntity
 67
     1
  8
下書線
 48
10.0
100
AcDbMText
 10
91.217866200024
 20
58.988749108686
 30
0.0
 40
8.0
 41
202.250202097325
 71
     1
 72
     1
  1
ホームページ用　L寸指定追記・変更不可
1001
ACADANNOTATIVE
1000
AnnotativeData
1002
{
1070
     1
1070
     0
1002
}
  0
MTEXT
  5
6569
102
{ACAD_XDICTIONARY
360
656A
102
}
330
4F5F
100
AcDbEntity
 67
     1
  8
寸法線
 48
10.0
100
AcDbMText
 10
310.214176586136
 20
34.18002157841
 30
0.0
 40
6.0
 41
58.239684951579
 71
     1
 72
     5
  1
TSE-A3SA-□
1001
ACADANNOTATIVE
1000
AnnotativeData
1002
{
1070
     1
1070
     0
1002
}
  0
MTEXT
  5
659B
330
4F5F
100
AcDbEntity
 67
     1
  8
寸法線
 48
10.0
100
AcDbMText
 10
370.673835800578
 20
38.112851719615
 30
0.0
 40
4.0
 41
39.417543602742
 71
     1
 72
     5
  1
{\H1.125x;静電容量式\Pレベルセンサ}
  0
MTEXT
  5
68A0
102
{ACAD_XDICTIONARY
360
68A1
102
}
330
4F5F
100
AcDbEntity
 67
     1
  8
寸法線
 48
10.0
100
AcDbMText
 10
175.252680195869
 20
13.460504580445
 30
0.0
 40
4.5
 41
31.372065131184
 71
     1
 72
     5
  1
2016.09.26
1001
ACADANNOTATIVE
1000
AnnotativeData
1002
{
1070
     1
1070
     0
1002
}
  0
ENDSEC
  0
SECTION
  2
OBJECTS
  0
DICTIONARY
  5
C
330
0
100
AcDbDictionary
  3
ACAD_COLOR
350
2948
  3
ACAD_GROUP
350
D
  3
ACAD_LAYOUT
350
2816
  3
ACAD_MATERIAL
350
2947
  3
ACAD_MLEADERSTYLE
350
53FF
  3
ACAD_MLINESTYLE
350
E
  3
ACAD_PLOTSETTINGS
350
2817
  3
ACAD_SCALELIST
350
53D8
  3
ACAD_VISUALSTYLE
350
53BF
  3
ACADDIM
350
4312
  3
ACDBHEADERROUNDTRIPXREC
350
6962
  3
ACDBVARIABLEDICTIONARY
350
542B
  3
DWGPROPS
350
6987
  0
DICTIONARY
  5
6988
330
8
100
AcDbDictionary
280
     1
  3
ACAD_XREC_ROUNDTRIP
360
6989
  0
DICTIONARY
  5
29EA
330
2
100
AcDbDictionary
280
     1
  3
ACAD_LAYERFILTERS
360
2B0C
  3
ACAD_LAYERSTATES
360
29EB
  0
DICTIONARY
  5
6244
330
3E9C
100
AcDbDictionary
280
     1
  3
ACDBCONTEXTDATAMANAGER
360
6902
  0
DICTIONARY
  5
5D9C
330
5D9B
100
AcDbDictionary
280
     1
  3
ACDBCONTEXTDATAMANAGER
360
5D9D
  0
DICTIONARY
  5
5DB1
330
5DB0
100
AcDbDictionary
280
     1
  3
ACDBCONTEXTDATAMANAGER
360
5DB2
  0
DICTIONARY
  5
5DC8
330
5DC7
100
AcDbDictionary
280
     1
  3
ACDBCONTEXTDATAMANAGER
360
5DC9
  0
DICTIONARY
  5
5DCC
330
5DCB
100
AcDbDictionary
280
     1
  3
ACDBCONTEXTDATAMANAGER
360
5DCD
  0
DICTIONARY
  5
5DD0
330
5DCF
100
AcDbDictionary
280
     1
  3
ACDBCONTEXTDATAMANAGER
360
5DD1
  0
DICTIONARY
  5
5DD4
330
5DD3
100
AcDbDictionary
280
     1
  3
ACDBCONTEXTDATAMANAGER
360
5DD5
  0
DICTIONARY
  5
5DD8
330
5DD7
100
AcDbDictionary
280
     1
  3
ACDBCONTEXTDATAMANAGER
360
5DD9
  0
DICTIONARY
  5
5DDC
330
5DDB
100
AcDbDictionary
280
     1
  3
ACDBCONTEXTDATAMANAGER
360
5DDD
  0
DICTIONARY
  5
5DE0
330
5DDF
100
AcDbDictionary
280
     1
  3
ACDBCONTEXTDATAMANAGER
360
5DE1
  0
DICTIONARY
  5
5DE4
330
5DE3
100
AcDbDictionary
280
     1
  3
ACDBCONTEXTDATAMANAGER
360
5DE5
  0
DICTIONARY
  5
5765
330
4F68
100
AcDbDictionary
280
     1
  3
ACDBCONTEXTDATAMANAGER
360
5766
  0
DICTIONARY
  5
5889
330
5888
100
AcDbDictionary
280
     1
  3
ACDBCONTEXTDATAMANAGER
360
588A
  0
DICTIONARY
  5
5EE2
330
5EE1
100
AcDbDictionary
280
     1
  3
ACDBCONTEXTDATAMANAGER
360
5EE3
  0
DICTIONARY
  5
6092
330
6091
100
AcDbDictionary
280
     1
  3
ACDBCONTEXTDATAMANAGER
360
6093
  0
DICTIONARY
  5
656A
330
6569
100
AcDbDictionary
280
     1
  3
ACDBCONTEXTDATAMANAGER
360
656B
  0
DICTIONARY
  5
68A1
330
68A0
100
AcDbDictionary
280
     1
  3
ACDBCONTEXTDATAMANAGER
360
68A2
  0
DICTIONARY
  5
2948
102
{ACAD_REACTORS
330
C
102
}
330
C
100
AcDbDictionary
  0
DICTIONARY
  5
D
102
{ACAD_REACTORS
330
C
102
}
330
C
100
AcDbDictionary
  3
*A1
350
50F3
  0
DICTIONARY
  5
2816
102
{ACAD_REACTORS
330
C
102
}
330
C
100
AcDbDictionary
  0
DICTIONARY
  5
2947
102
{ACAD_REACTORS
330
C
102
}
330
C
100
AcDbDictionary
  3
BYBLOCK
350
53FB
  3
BYLAYER
350
53FA
  3
GLOBAL
350
53FC
  0
DICTIONARY
  5
53FF
102
{ACAD_REACTORS
330
C
102
}
330
C
100
AcDbDictionary
  3
STANDARD
350
5400
  0
DICTIONARY
  5
E
102
{ACAD_REACTORS
330
C
102
}
330
C
100
AcDbDictionary
  3
STANDARD
350
13
  0
DICTIONARY
  5
2817
102
{ACAD_REACTORS
330
C
102
}
330
C
100
AcDbDictionary
  0
DICTIONARY
  5
53D8
102
{ACAD_REACTORS
330
C
102
}
330
C
100
AcDbDictionary
  3
A0
350
53D9
  3
A1
350
53DA
  3
A2
350
53DB
  3
A3
350
53DC
  3
A4
350
53DD
  3
A5
350
53DE
  3
A6
350
53DF
  3
A7
350
53E0
  3
A8
350
53E1
  3
A9
350
53E2
  3
B0
350
53E3
  3
B1
350
53E4
  3
B2
350
53E5
  3
B3
350
53E6
  3
B4
350
53E7
  3
B5
350
53E8
  3
B6
350
53E9
  3
B7
350
53EA
  3
B8
350
53EB
  3
B9
350
53EC
  3
C0
350
53ED
  3
C1
350
53EE
  3
C2
350
53EF
  3
C3
350
53F0
  3
C4
350
53F1
  3
C5
350
53F2
  3
C6
350
53F3
  3
C7
350
53F4
  3
C8
350
53F5
  3
C9
350
53F6
  3
D0
350
53F7
  3
D1
350
53F8
  3
D2
350
53F9
  0
DICTIONARY
  5
53BF
102
{ACAD_REACTORS
330
C
102
}
330
C
100
AcDbDictionary
  3
2DWIREFRAME
350
53C4
  3
BASIC
350
53C7
  3
BRIGHTEN
350
53CB
  3
COLORCHANGE
350
53CF
  3
CONCEPTUAL
350
53C9
  3
DIM
350
53CA
  3
EDGECOLOROFF
350
53D2
  3
FACEPATTERN
350
53CE
  3
FLAT
350
53C0
  3
FLATWITHEDGES
350
53C1
  3
GOURAUD
350
53C2
  3
GOURAUDWITHEDGES
350
53C3
  3
HIDDEN
350
53C6
  3
JITTEROFF
350
53D0
  3
LINEPATTERN
350
53CD
  3
MODELING
350
5470
  3
OVERHANGOFF
350
53D1
  3
REALISTIC
350
53C8
  3
SHADED
350
53D7
  3
SHADED_WITH_EDGES
350
53D6
  3
SHADES_OF_GRAY
350
53D3
  3
SKETCHY
350
53D4
  3
THICKEN
350
53CC
  3
WIREFRAME
350
53C5
  3
X-RAY
350
53D5
  0
XRECORD
  5
4312
102
{ACAD_REACTORS
330
C
102
}
330
C
100
AcDbXrecord
 90
   990106
  3

 60
     0
 61
     0
 62
     4
 63
     4
 64
     0
 65
     0
 66
     0
 67
     3
 68
     1
 69
     0
 70
     0
 71
     0
 72
     0
 40
0.0
170
     2
340
4292
  0
DICTIONARY
  5
6962
102
{ACAD_REACTORS
330
C
102
}
330
C
100
AcDbDictionary
  3
CEPSNID
350
696C
  3
CEPSNTYPE
350
696B
  3
COLORDICT
350
6985
  3
DIMSTYLEDATA
350
6982
  3
FINGERPRINTGUID
350
696D
  3
HYPERLINKBASE
350
6965
  3
INSUNITS
350
696A
  3
LAYOUTDICT
350
6967
  3
LWETCUNION
350
6969
  3
MATERIALDICT
350
6986
  3
PLOTSETDICT
350
6968
  3
PSVPSCALE
350
696F
  3
PUCSBASE
350
6972
  3
PUCSORGBACK
350
6978
  3
PUCSORGBOTTOM
350
6974
  3
PUCSORGFRONT
350
6977
  3
PUCSORGLEFT
350
6975
  3
PUCSORGRIGHT
350
6976
  3
PUCSORGTOP
350
6973
  3
PUCSORTHOREF
350
6970
  3
PUCSORTHOVIEW
350
6971
  3
STYLESHEET
350
6966
  3
TSTACKALIGN
350
6963
  3
TSTACKSIZE
350
6964
  3
UCSBASE
350
697B
  3
UCSORGBACK
350
6981
  3
UCSORGBOTTOM
350
697D
  3
UCSORGFRONT
350
6980
  3
UCSORGLEFT
350
697E
  3
UCSORGRIGHT
350
697F
  3
UCSORGTOP
350
697C
  3
UCSORTHOREF
350
6979
  3
UCSORTHOVIEW
350
697A
  3
VERSIONGUID
350
696E
  0
DICTIONARY
  5
542B
102
{ACAD_REACTORS
330
C
102
}
330
C
100
AcDbDictionary
  3
CANNOSCALE
350
542C
  3
CMLEADERSTYLE
350
546B
  3
CTABLESTYLE
350
546A
  3
DIMASSOC
350
6983
  3
HIDETEXT
350
6984
  3
MSLTSCALE
350
546C
  3
XCLIPFRAME
350
546D
  0
XRECORD
  5
6987
102
{ACAD_REACTORS
330
C
102
}
330
C
100
AcDbXrecord
  1
DWGPROPS COOKIE
  2

  3

  4

  6

  7

  8
takahashi
  9

300
=
301
=
302
=
303
=
304
=
305
=
306
=
307
=
308
=
309
=
 40
0.0
 41
2450576.222302431
 42
2457661.239848333
  1

 90
        0
  0
XRECORD
  5
6989
102
{ACAD_REACTORS
330
6988
102
}
330
6988
100
AcDbXrecord
102
VTR_0.000_0.000_1.000_1.000_VISUALSTYLE
340
53C4
102
VTR_0.000_0.000_1.000_1.000_GRIDDISPLAY
 70
     3
102
VTR_0.000_0.000_1.000_1.000_GRIDMAJOR
 70
     5
102
VTR_0.000_0.000_1.000_1.000_DEFAULTLIGHTING
280
     1
102
VTR_0.000_0.000_1.000_1.000_DEFAULTLIGHTINGTYPE
 70
     1
102
VTR_0.000_0.000_1.000_1.000_BRIGHTNESS
141
0.0
102
VTR_0.000_0.000_1.000_1.000_CONTRAST
142
0.0
  0
DICTIONARY
  5
2B0C
102
{ACAD_REACTORS
330
29EA
102
}
330
29EA
100
AcDbDictionary
  0
DICTIONARY
  5
29EB
102
{ACAD_REACTORS
330
29EA
102
}
330
29EA
100
AcDbDictionary
  0
DICTIONARY
  5
6902
102
{ACAD_REACTORS
330
6244
102
}
330
6244
100
AcDbDictionary
  3
ACDB_ANNOTATIONSCALES
350
6903
  0
DICTIONARY
  5
5D9D
102
{ACAD_REACTORS
330
5D9C
102
}
330
5D9C
100
AcDbDictionary
  3
ACDB_ANNOTATIONSCALES
350
5D9E
  0
DICTIONARY
  5
5DB2
102
{ACAD_REACTORS
330
5DB1
102
}
330
5DB1
100
AcDbDictionary
  3
ACDB_ANNOTATIONSCALES
350
5DB3
  0
DICTIONARY
  5
5DC9
102
{ACAD_REACTORS
330
5DC8
102
}
330
5DC8
100
AcDbDictionary
  3
ACDB_ANNOTATIONSCALES
350
5DCA
  0
DICTIONARY
  5
5DCD
102
{ACAD_REACTORS
330
5DCC
102
}
330
5DCC
100
AcDbDictionary
  3
ACDB_ANNOTATIONSCALES
350
5DCE
  0
DICTIONARY
  5
5DD1
102
{ACAD_REACTORS
330
5DD0
102
}
330
5DD0
100
AcDbDictionary
  3
ACDB_ANNOTATIONSCALES
350
5DD2
  0
DICTIONARY
  5
5DD5
102
{ACAD_REACTORS
330
5DD4
102
}
330
5DD4
100
AcDbDictionary
  3
ACDB_ANNOTATIONSCALES
350
5DD6
  0
DICTIONARY
  5
5DD9
102
{ACAD_REACTORS
330
5DD8
102
}
330
5DD8
100
AcDbDictionary
  3
ACDB_ANNOTATIONSCALES
350
5DDA
  0
DICTIONARY
  5
5DDD
102
{ACAD_REACTORS
330
5DDC
102
}
330
5DDC
100
AcDbDictionary
  3
ACDB_ANNOTATIONSCALES
350
5DDE
  0
DICTIONARY
  5
5DE1
102
{ACAD_REACTORS
330
5DE0
102
}
330
5DE0
100
AcDbDictionary
  3
ACDB_ANNOTATIONSCALES
350
5DE2
  0
DICTIONARY
  5
5DE5
102
{ACAD_REACTORS
330
5DE4
102
}
330
5DE4
100
AcDbDictionary
  3
ACDB_ANNOTATIONSCALES
350
5DE6
  0
DICTIONARY
  5
5766
102
{ACAD_REACTORS
330
5765
102
}
330
5765
100
AcDbDictionary
  3
ACDB_ANNOTATIONSCALES
350
5767
  0
DICTIONARY
  5
588A
102
{ACAD_REACTORS
330
5889
102
}
330
5889
100
AcDbDictionary
  3
ACDB_ANNOTATIONSCALES
350
588B
  0
DICTIONARY
  5
5EE3
102
{ACAD_REACTORS
330
5EE2
102
}
330
5EE2
100
AcDbDictionary
  3
ACDB_ANNOTATIONSCALES
350
5EE4
  0
DICTIONARY
  5
6093
102
{ACAD_REACTORS
330
6092
102
}
330
6092
100
AcDbDictionary
  3
ACDB_ANNOTATIONSCALES
350
6094
  0
DICTIONARY
  5
656B
102
{ACAD_REACTORS
330
656A
102
}
330
656A
100
AcDbDictionary
  3
ACDB_ANNOTATIONSCALES
350
656C
  0
DICTIONARY
  5
68A2
102
{ACAD_REACTORS
330
68A1
102
}
330
68A1
100
AcDbDictionary
  3
ACDB_ANNOTATIONSCALES
350
68A3
  0
GROUP
  5
50F3
102
{ACAD_REACTORS
330
D
102
}
330
D
100
AcDbGroup
300

 70
     1
 71
     1
340
50F2
340
50F1
340
50F0
340
50EF
340
50EE
340
50ED
340
50EC
340
50EB
340
50EA
340
50E9
340
50E8
340
50E7
340
50E6
340
50E5
340
50E4
340
50E3
340
50E2
340
50E1
340
50E0
340
50DF
340
50D8
  0
MATERIAL
  5
53FB
102
{ACAD_REACTORS
330
2947
102
}
102
{ACAD_XDICTIONARY
360
698C
102
}
330
2947
100
AcDbMaterial
  1
BYBLOCK
  0
MATERIAL
  5
53FA
102
{ACAD_REACTORS
330
2947
102
}
102
{ACAD_XDICTIONARY
360
698A
102
}
330
2947
100
AcDbMaterial
  1
BYLAYER
  0
MATERIAL
  5
53FC
102
{ACAD_REACTORS
330
2947
102
}
102
{ACAD_XDICTIONARY
360
698E
102
}
330
2947
100
AcDbMaterial
  1
GLOBAL
  0
ACAD_PROXY_OBJECT
  5
5400
102
{ACAD_REACTORS
330
53FF
102
}
330
53FF
100
AcDbProxyObject
 90
      499
 91
      507
 93
      610
310
40901902A4063FBFFFFFE0000000000000020400000000000020404214DD185B99185C990000000000000104090141901A00000000000004100000000000000041025764000000000000039000
340
14
340
0
340
10
340
0
 94
        0
1001
ACAD_MLEADERVER
1070
     2
  0
MLINESTYLE
  5
13
102
{ACAD_REACTORS
330
E
102
}
330
E
100
AcDbMlineStyle
  2
STANDARD
 70
     0
  3

 62
     0
 51
90.0
 52
90.0
 71
     2
 49
0.5
 62
   256
  6
BYLAYER
 49
-0.5
 62
   256
  6
BYLAYER
  0
ACAD_PROXY_OBJECT
  5
53D9
102
{ACAD_REACTORS
330
53D8
102
}
330
53D8
100
AcDbProxyObject
 90
      499
 91
      504
 93
       41
310
903313A31580
  0
ACAD_PROXY_OBJECT
  5
53DA
102
{ACAD_REACTORS
330
53D8
102
}
330
53D8
100
AcDbProxyObject
 90
      499
 91
      504
 93
      105
310
903313A324000000000000004000
  0
ACAD_PROXY_OBJECT
  5
53DB
102
{ACAD_REACTORS
330
53D8
102
}
330
53D8
100
AcDbProxyObject
 90
      499
 91
      504
 93
      105
310
903313A344000000000000104000
  0
ACAD_PROXY_OBJECT
  5
53DC
102
{ACAD_REACTORS
330
53D8
102
}
330
53D8
100
AcDbProxyObject
 90
      499
 91
      504
 93
      105
310
903313A354000000000000144000
  0
ACAD_PROXY_OBJECT
  5
53DD
102
{ACAD_REACTORS
330
53D8
102
}
330
53D8
100
AcDbProxyObject
 90
      499
 91
      504
 93
      105
310
903313A384000000000000204000
  0
ACAD_PROXY_OBJECT
  5
53DE
102
{ACAD_REACTORS
330
53D8
102
}
330
53D8
100
AcDbProxyObject
 90
      499
 91
      504
 93
      113
310
904313A31304000000000000244000
  0
ACAD_PROXY_OBJECT
  5
53DF
102
{ACAD_REACTORS
330
53D8
102
}
330
53D8
100
AcDbProxyObject
 90
      499
 91
      504
 93
      113
310
904313A31364000000000000304000
  0
ACAD_PROXY_OBJECT
  5
53E0
102
{ACAD_REACTORS
330
53D8
102
}
330
53D8
100
AcDbProxyObject
 90
      499
 91
      504
 93
      113
310
904313A32304000000000000344000
  0
ACAD_PROXY_OBJECT
  5
53E1
102
{ACAD_REACTORS
330
53D8
102
}
330
53D8
100
AcDbProxyObject
 90
      499
 91
      504
 93
      113
310
904313A333040000000000003E4000
  0
ACAD_PROXY_OBJECT
  5
53E2
102
{ACAD_REACTORS
330
53D8
102
}
330
53D8
100
AcDbProxyObject
 90
      499
 91
      504
 93
      113
310
904313A34304000000000000444000
  0
ACAD_PROXY_OBJECT
  5
53E3
102
{ACAD_REACTORS
330
53D8
102
}
330
53D8
100
AcDbProxyObject
 90
      499
 91
      504
 93
      113
310
904313A35304000000000000494000
  0
ACAD_PROXY_OBJECT
  5
53E4
102
{ACAD_REACTORS
330
53D8
102
}
330
53D8
100
AcDbProxyObject
 90
      499
 91
      504
 93
      121
310
905313A3130304000000000000594000
  0
ACAD_PROXY_OBJECT
  5
53E5
102
{ACAD_REACTORS
330
53D8
102
}
330
53D8
100
AcDbProxyObject
 90
      499
 91
      504
 93
      105
310
903323A310000000000000010100
  0
ACAD_PROXY_OBJECT
  5
53E6
102
{ACAD_REACTORS
330
53D8
102
}
330
53D8
100
AcDbProxyObject
 90
      499
 91
      504
 93
      105
310
903343A310000000000000410100
  0
ACAD_PROXY_OBJECT
  5
53E7
102
{ACAD_REACTORS
330
53D8
102
}
330
53D8
100
AcDbProxyObject
 90
      499
 91
      504
 93
      105
310
903383A310000000000000810100
  0
ACAD_PROXY_OBJECT
  5
53E8
102
{ACAD_REACTORS
330
53D8
102
}
330
53D8
100
AcDbProxyObject
 90
      499
 91
      504
 93
      113
310
90431303A310000000000000910100
  0
ACAD_PROXY_OBJECT
  5
53E9
102
{ACAD_REACTORS
330
53D8
102
}
330
53D8
100
AcDbProxyObject
 90
      499
 91
      504
 93
      121
310
9053130303A310000000000001650100
  0
ACAD_PROXY_OBJECT
  5
53EA
102
{ACAD_REACTORS
330
53D8
102
}
330
53D8
100
AcDbProxyObject
 90
      499
 91
      504
 93
      257
310
90E312F31323822203D2031272D3022000000000000200FC000000000000284000
  0
ACAD_PROXY_OBJECT
  5
53EB
102
{ACAD_REACTORS
330
53D8
102
}
330
53D8
100
AcDbProxyObject
 90
      499
 91
      504
 93
      249
310
90D312F363422203D2031272D3022000000000000240FC000000000000284000
  0
ACAD_PROXY_OBJECT
  5
53EC
102
{ACAD_REACTORS
330
53D8
102
}
330
53D8
100
AcDbProxyObject
 90
      499
 91
      504
 93
      249
310
90D312F333222203D2031272D3022000000000000280FC000000000000284000
  0
ACAD_PROXY_OBJECT
  5
53ED
102
{ACAD_REACTORS
330
53D8
102
}
330
53D8
100
AcDbProxyObject
 90
      499
 91
      504
 93
      249
310
90D312F313622203D2031272D30220000000000002C0FC000000000000284000
  0
ACAD_PROXY_OBJECT
  5
53EE
102
{ACAD_REACTORS
330
53D8
102
}
330
53D8
100
AcDbProxyObject
 90
      499
 91
      504
 93
      249
310
90D332F333222203D2031272D30220000000000002E0FC000000000000284000
  0
ACAD_PROXY_OBJECT
  5
53EF
102
{ACAD_REACTORS
330
53D8
102
}
330
53D8
100
AcDbProxyObject
 90
      499
 91
      504
 93
      241
310
90C312F3822203D2031272D3022000000000000300FC000000000000284000
  0
ACAD_PROXY_OBJECT
  5
53F0
102
{ACAD_REACTORS
330
53D8
102
}
330
53D8
100
AcDbProxyObject
 90
      499
 91
      504
 93
      249
310
90D332F313622203D2031272D3022000000000000320FC000000000000284000
  0
ACAD_PROXY_OBJECT
  5
53F1
102
{ACAD_REACTORS
330
53D8
102
}
330
53D8
100
AcDbProxyObject
 90
      499
 91
      504
 93
      241
310
90C312F3422203D2031272D3022000000000000340FC000000000000284000
  0
ACAD_PROXY_OBJECT
  5
53F2
102
{ACAD_REACTORS
330
53D8
102
}
330
53D8
100
AcDbProxyObject
 90
      499
 91
      504
 93
      241
310
90C332F3822203D2031272D3022000000000000360FC000000000000284000
  0
ACAD_PROXY_OBJECT
  5
53F3
102
{ACAD_REACTORS
330
53D8
102
}
330
53D8
100
AcDbProxyObject
 90
      499
 91
      504
 93
      241
310
90C312F3222203D2031272D3022000000000000380FC000000000000284000
  0
ACAD_PROXY_OBJECT
  5
53F4
102
{ACAD_REACTORS
330
53D8
102
}
330
53D8
100
AcDbProxyObject
 90
      499
 91
      504
 93
      241
310
90C332F3422203D2031272D30220000000000003A0FC000000000000284000
  0
ACAD_PROXY_OBJECT
  5
53F5
102
{ACAD_REACTORS
330
53D8
102
}
330
53D8
100
AcDbProxyObject
 90
      499
 91
      504
 93
      161
310
90A3122203D2031272D30224000000000000284000
  0
ACAD_PROXY_OBJECT
  5
53F6
102
{ACAD_REACTORS
330
53D8
102
}
330
53D8
100
AcDbProxyObject
 90
      499
 91
      504
 93
      257
310
90E312D312F3222203D2031272D30220000000000003E0FC000000000000284000
  0
ACAD_PROXY_OBJECT
  5
53F7
102
{ACAD_REACTORS
330
53D8
102
}
330
53D8
100
AcDbProxyObject
 90
      499
 91
      504
 93
      225
310
90A3322203D2031272D302200000000000002100000000000000284000
  0
ACAD_PROXY_OBJECT
  5
53F8
102
{ACAD_REACTORS
330
53D8
102
}
330
53D8
100
AcDbProxyObject
 90
      499
 91
      504
 93
      225
310
90A3622203D2031272D302200000000000006100000000000000284000
  0
ACAD_PROXY_OBJECT
  5
53F9
102
{ACAD_REACTORS
330
53D8
102
}
330
53D8
100
AcDbProxyObject
 90
      499
 91
      504
 93
      249
310
90D31272D3022203D2031272D30220000000000000A100000000000000284000
  0
ACAD_PROXY_OBJECT
  5
53C4
102
{ACAD_REACTORS
330
53BF
102
}
330
53BF
100
AcDbProxyObject
 90
      499
 91
      503
 93
      436
310
42CC9915DA5C99599C985B595049028333333333333E33F0000000000000F90107901411070040501600405405064090741402480A0340
1001
ACAD
1000
AcDbSavedByObjectVersion
1070
     0
  0
ACAD_PROXY_OBJECT
  5
53C7
102
{ACAD_REACTORS
330
53BF
102
}
330
53BF
100
AcDbProxyObject
 90
      499
 91
      503
 93
      388
310
4150985CDA58D07406404333333333333E33F0000000000000F90107A41107004050150841D405064090741402480A0350
1001
ACAD
1000
AcDbSavedByObjectVersion
1070
     0
  0
ACAD_PROXY_OBJECT
  5
53CB
102
{ACAD_REACTORS
330
53BF
102
}
330
53BF
100
AcDbProxyObject
 90
      499
 91
      503
 93
      428
310
42109C9A59DA1D195B90C409028333333333333E33F0000000000000F9010790141107004050150841D405064090741402480A029950
1001
ACAD
1000
AcDbSavedByObjectVersion
1070
     0
  0
ACAD_PROXY_OBJECT
  5
53CF
102
{ACAD_REACTORS
330
53BF
102
}
330
53BF
100
AcDbProxyObject
 90
      499
 91
      503
 93
      452
310
42D0DBDB1BDC90DA185B99D95104090240C333333333333E33F0000000000000F90108901411070040501508421405064090741402480A0350
1001
ACAD
1000
AcDbSavedByObjectVersion
1070
     0
  0
ACAD_PROXY_OBJECT
  5
53C9
102
{ACAD_REACTORS
330
53BF
102
}
330
53BF
100
AcDbProxyObject
 90
      499
 91
      503
 93
      500
310
4290DBDB98D95C1D1D585B10940D028333333333333E33F0000000000000F90107902409070040501000000000018199010841D405064090740C02480A0340
1001
ACAD
1000
AcDbSavedByObjectVersion
1070
     0
  0
ACAD_PROXY_OBJECT
  5
53CA
102
{ACAD_REACTORS
330
53BF
102
}
330
53BF
100
AcDbProxyObject
 90
      499
 91
      503
 93
      412
310
40D11A5B50B409028333333333333E33F0000000000000F9010790141107004050150841D405064090741402480A02677FFFFFD0
1001
ACAD
1000
AcDbSavedByObjectVersion
1070
     0
  0
ACAD_PROXY_OBJECT
  5
53D2
102
{ACAD_REACTORS
330
53BF
102
}
330
53BF
100
AcDbProxyObject
 90
      499
 91
      503
 93
      452
310
43115919D950DBDB1BDC93D999916409028333333333333E33F0000000000000F9010790141107004050150841D405064090741402480A0350
1001
ACAD
1000
AcDbSavedByObjectVersion
1070
     0
  0
ACAD_PROXY_OBJECT
  5
53CE
102
{ACAD_REACTORS
330
53BF
102
}
330
53BF
100
AcDbProxyObject
 90
      499
 91
      503
 93
      444
310
42D19858D95C185D1D195C9B90F409028333333333333E33F0000000000000F9010790141107004050150841D405064090741402480A0350
1001
ACAD
1000
AcDbSavedByObjectVersion
1070
     0
  0
ACAD_PROXY_OBJECT
  5
53C0
102
{ACAD_REACTORS
330
53BF
102
}
330
53BF
100
AcDbProxyObject
 90
      499
 91
      503
 93
      380
310
41119B185D240901404333333333333E33F0000000000000F9010740A907004050150841D405064090741402480A1B50
1001
ACAD
1000
AcDbSavedByObjectVersion
1070
     0
  0
ACAD_PROXY_OBJECT
  5
53C1
102
{ACAD_REACTORS
330
53BF
102
}
330
53BF
100
AcDbProxyObject
 90
      499
 91
      503
 93
      468
310
43519B185D15DA5D1A115919D95CD0140901404333333333333E33F0000000000000F90107409019070040501600405405064090741402480A1B50
1001
ACAD
1000
AcDbSavedByObjectVersion
1070
     0
  0
ACAD_PROXY_OBJECT
  5
53C2
102
{ACAD_REACTORS
330
53BF
102
}
330
53BF
100
AcDbProxyObject
 90
      499
 91
      503
 93
      404
310
41D1DBDD5C985D5910240902404333333333333E33F0000000000000F9010740A9070040501641D405064090741402480A1B50
1001
ACAD
1000
AcDbSavedByObjectVersion
1070
     0
  0
ACAD_PROXY_OBJECT
  5
53C3
102
{ACAD_REACTORS
330
53BF
102
}
330
53BF
100
AcDbProxyObject
 90
      499
 91
      503
 93
      492
310
4411DBDD5C985D5915DA5D1A115919D95CD0340902404333333333333E33F0000000000000F90107409019070040501600405405064090741402480A1B50
1001
ACAD
1000
AcDbSavedByObjectVersion
1070
     0
  0
ACAD_PROXY_OBJECT
  5
53C6
102
{ACAD_REACTORS
330
53BF
102
}
330
53BF
100
AcDbProxyObject
 90
      499
 91
      503
 93
      476
310
41921A5919195B90640502408333333333333E33F0000000000000F901079024090700405020000000000001110200405405064090740C02480A0340
1001
ACAD
1000
AcDbSavedByObjectVersion
1070
     0
  0
ACAD_PROXY_OBJECT
  5
53D0
102
{ACAD_REACTORS
330
53BF
102
}
330
53BF
100
AcDbProxyObject
 90
      499
 91
      503
 93
      428
310
42529A5D1D195C93D999914409028333333333333E33F0000000000000F9010790141107004050150A41D405064090741402480A0350
1001
ACAD
1000
AcDbSavedByObjectVersion
1070
     0
  0
ACAD_PROXY_OBJECT
  5
53CD
102
{ACAD_REACTORS
330
53BF
102
}
330
53BF
100
AcDbProxyObject
 90
      499
 91
      503
 93
      444
310
42D31A5B995C185D1D195C9B90E409028333333333333E33F0000000000000F9010790141107004050750841D405064090741402483A0350
1001
ACAD
1000
AcDbSavedByObjectVersion
1070
     0
  0
ACAD_PROXY_OBJECT
  5
5470
102
{ACAD_REACTORS
330
53BF
102
}
330
53BF
100
AcDbProxyObject
 90
      499
 91
      503
 93
      412
310
90A409038333333333333E33F0000000000000F901074090290700405010000000000201990108421405064090741402480A1B40
1001
ACAD
1000
AcDbSavedByObjectVersion
1070
     0
  0
ACAD_PROXY_OBJECT
  5
53D1
102
{ACAD_REACTORS
330
53BF
102
}
330
53BF
100
AcDbProxyObject
 90
      499
 91
      503
 93
      444
310
42D3DD995C9A185B99D3D999915409028333333333333E33F0000000000000F9010790141107004050150941D405064090741402480A0350
1001
ACAD
1000
AcDbSavedByObjectVersion
1070
     0
  0
ACAD_PROXY_OBJECT
  5
53C8
102
{ACAD_REACTORS
330
53BF
102
}
330
53BF
100
AcDbProxyObject
 90
      499
 91
      503
 93
      428
310
425499585B1A5CDD1A58D08409038333333333333E33F0000000000000F9010740A907004050150800405405064090740C02480A1B40
1001
ACAD
1000
AcDbSavedByObjectVersion
1070
     0
  0
ACAD_PROXY_OBJECT
  5
53D7
102
{ACAD_REACTORS
330
53BF
102
}
330
53BF
100
AcDbProxyObject
 90
      499
 91
      503
 93
      420
310
4194DA1859195911B40902404333333333333E33F0000000000000F9010740A41107004050150800405405064090840C02480A0B40
1001
ACAD
1000
AcDbSavedByObjectVersion
1070
     0
  0
ACAD_PROXY_OBJECT
  5
53D6
102
{ACAD_REACTORS
330
53BF
102
}
330
53BF
100
AcDbProxyObject
 90
      499
 91
      503
 93
      516
310
4454DA18591959081DDA5D1A08195919D95CD1A40902404333333333333E33F0000000000000F901074090142907004050250800405405064090740C02480A0B40
1001
ACAD
1000
AcDbSavedByObjectVersion
1070
     0
  0
ACAD_PROXY_OBJECT
  5
53D3
102
{ACAD_REACTORS
330
53BF
102
}
330
53BF
100
AcDbProxyObject
 90
      499
 91
      503
 93
      532
310
4394DA1859195CC81BD98811DC985E5174090240C333333333333E33F0000000000000F901079024090741D01000000000000111010841D405064090740C02480A0340
1001
ACAD
1000
AcDbSavedByObjectVersion
1070
     0
  0
ACAD_PROXY_OBJECT
  5
53D4
102
{ACAD_REACTORS
330
53BF
102
}
330
53BF
100
AcDbProxyObject
 90
      499
 91
      503
 93
      476
310
41D4DAD95D18DA1E51840502408333333333333E33F0000000000000F901079024090741D01000000000000111010B41D405064090741802480A0340
1001
ACAD
1000
AcDbSavedByObjectVersion
1070
     0
  0
ACAD_PROXY_OBJECT
  5
53CC
102
{ACAD_REACTORS
330
53BF
102
}
330
53BF
100
AcDbProxyObject
 90
      499
 91
      503
 93
      412
310
41D51A1A58DAD95B90D409028333333333333E33F0000000000000F9010790141107004050150C41D405064090741402480A0350
1001
ACAD
1000
AcDbSavedByObjectVersion
1070
     0
  0
ACAD_PROXY_OBJECT
  5
53C5
102
{ACAD_REACTORS
330
53BF
102
}
330
53BF
100
AcDbProxyObject
 90
      499
 91
      503
 93
      420
310
4255DA5C99599C985B595059028333333333333E33F0000000000000F90107901411070040501600405405064090740C02480A0340
1001
ACAD
1000
AcDbSavedByObjectVersion
1070
     0
  0
ACAD_PROXY_OBJECT
  5
53D5
102
{ACAD_REACTORS
330
53BF
102
}
330
53BF
100
AcDbProxyObject
 90
      499
 91
      503
 93
      404
310
41560B54985E51940902404000000000000E03F0000000000000F9010740501907004050150841D405064090740C02480A1B40
1001
ACAD
1000
AcDbSavedByObjectVersion
1070
     0
  0
XRECORD
  5
696C
102
{ACAD_REACTORS
330
6962
102
}
330
6962
100
AcDbXrecord
340
0
  0
XRECORD
  5
696B
102
{ACAD_REACTORS
330
6962
102
}
330
6962
100
AcDbXrecord
 90
        0
  0
XRECORD
  5
6985
102
{ACAD_REACTORS
330
6962
102
}
330
6962
100
AcDbXrecord
340
2948
  0
XRECORD
  5
6982
102
{ACAD_REACTORS
330
6962
102
}
330
6962
100
AcDbXrecord
1000
DSTYLE
1002
{
1070
   171
 70
     2
1070
   143
 40
0.0394
1070
   274
 70
     2
1070
    41
 40
6.0
1070
   342
340
2AF4
1070
   271
 70
     1
1070
   278
 70
    46
1070
   341
340
2AF4
1070
   272
 70
     1
1070
    48
 40
0.1
1070
   283
 70
     1
1070
    47
 40
0.1
1070
   145
 40
1.0
1070
   340
340
10
1070
   140
 40
8.0
1070
   284
 70
     0
1002
}
  0
XRECORD
  5
696D
102
{ACAD_REACTORS
330
6962
102
}
330
6962
100
AcDbXrecord
  1
{23698909-1D67-4744-B0E2-8DE11E3ED422}
  0
XRECORD
  5
6965
102
{ACAD_REACTORS
330
6962
102
}
330
6962
100
AcDbXrecord
  1

  0
XRECORD
  5
696A
102
{ACAD_REACTORS
330
6962
102
}
330
6962
100
AcDbXrecord
 90
        0
  0
XRECORD
  5
6967
102
{ACAD_REACTORS
330
6962
102
}
330
6962
100
AcDbXrecord
340
2816
  0
XRECORD
  5
6969
102
{ACAD_REACTORS
330
6962
102
}
330
6962
100
AcDbXrecord
 90
    10781
  0
XRECORD
  5
6986
102
{ACAD_REACTORS
330
6962
102
}
330
6962
100
AcDbXrecord
340
2947
  0
XRECORD
  5
6968
102
{ACAD_REACTORS
330
6962
102
}
330
6962
100
AcDbXrecord
340
2817
  0
XRECORD
  5
696F
102
{ACAD_REACTORS
330
6962
102
}
330
6962
100
AcDbXrecord
 40
0.25
  0
XRECORD
  5
6972
102
{ACAD_REACTORS
330
6962
102
}
330
6962
100
AcDbXrecord
340
0
  0
XRECORD
  5
6978
102
{ACAD_REACTORS
330
6962
102
}
330
6962
100
AcDbXrecord
 10
0.0
 20
0.0
 30
0.0
  0
XRECORD
  5
6974
102
{ACAD_REACTORS
330
6962
102
}
330
6962
100
AcDbXrecord
 10
0.0
 20
0.0
 30
0.0
  0
XRECORD
  5
6977
102
{ACAD_REACTORS
330
6962
102
}
330
6962
100
AcDbXrecord
 10
0.0
 20
0.0
 30
0.0
  0
XRECORD
  5
6975
102
{ACAD_REACTORS
330
6962
102
}
330
6962
100
AcDbXrecord
 10
0.0
 20
0.0
 30
0.0
  0
XRECORD
  5
6976
102
{ACAD_REACTORS
330
6962
102
}
330
6962
100
AcDbXrecord
 10
0.0
 20
0.0
 30
0.0
  0
XRECORD
  5
6973
102
{ACAD_REACTORS
330
6962
102
}
330
6962
100
AcDbXrecord
 10
0.0
 20
0.0
 30
0.0
  0
XRECORD
  5
6970
102
{ACAD_REACTORS
330
6962
102
}
330
6962
100
AcDbXrecord
340
0
  0
XRECORD
  5
6971
102
{ACAD_REACTORS
330
6962
102
}
330
6962
100
AcDbXrecord
 70
     0
  0
XRECORD
  5
6966
102
{ACAD_REACTORS
330
6962
102
}
330
6962
100
AcDbXrecord
  1

  0
XRECORD
  5
6963
102
{ACAD_REACTORS
330
6962
102
}
330
6962
100
AcDbXrecord
 90
        1
  0
XRECORD
  5
6964
102
{ACAD_REACTORS
330
6962
102
}
330
6962
100
AcDbXrecord
 90
       70
  0
XRECORD
  5
697B
102
{ACAD_REACTORS
330
6962
102
}
330
6962
100
AcDbXrecord
340
0
  0
XRECORD
  5
6981
102
{ACAD_REACTORS
330
6962
102
}
330
6962
100
AcDbXrecord
 10
0.0
 20
0.0
 30
0.0
  0
XRECORD
  5
697D
102
{ACAD_REACTORS
330
6962
102
}
330
6962
100
AcDbXrecord
 10
0.0
 20
0.0
 30
0.0
  0
XRECORD
  5
6980
102
{ACAD_REACTORS
330
6962
102
}
330
6962
100
AcDbXrecord
 10
0.0
 20
0.0
 30
0.0
  0
XRECORD
  5
697E
102
{ACAD_REACTORS
330
6962
102
}
330
6962
100
AcDbXrecord
 10
0.0
 20
0.0
 30
0.0
  0
XRECORD
  5
697F
102
{ACAD_REACTORS
330
6962
102
}
330
6962
100
AcDbXrecord
 10
0.0
 20
0.0
 30
0.0
  0
XRECORD
  5
697C
102
{ACAD_REACTORS
330
6962
102
}
330
6962
100
AcDbXrecord
 10
0.0
 20
0.0
 30
0.0
  0
XRECORD
  5
6979
102
{ACAD_REACTORS
330
6962
102
}
330
6962
100
AcDbXrecord
340
0
  0
XRECORD
  5
697A
102
{ACAD_REACTORS
330
6962
102
}
330
6962
100
AcDbXrecord
 70
     0
  0
XRECORD
  5
696E
102
{ACAD_REACTORS
330
6962
102
}
330
6962
100
AcDbXrecord
  1
{5D5B4AD7-4486-4780-8F67-23541D97F859}
  0
DICTIONARYVAR
  5
542C
102
{ACAD_REACTORS
330
542B
102
}
330
542B
100
DictionaryVariables
280
     0
  1
1:1
  0
DICTIONARYVAR
  5
546B
102
{ACAD_REACTORS
330
542B
102
}
330
542B
100
DictionaryVariables
280
     0
  1
Standard
  0
DICTIONARYVAR
  5
546A
102
{ACAD_REACTORS
330
542B
102
}
330
542B
100
DictionaryVariables
280
     0
  1
Standard
  0
DICTIONARYVAR
  5
6983
102
{ACAD_REACTORS
330
542B
102
}
330
542B
100
DictionaryVariables
280
     0
  1
1
  0
DICTIONARYVAR
  5
6984
102
{ACAD_REACTORS
330
542B
102
}
330
542B
100
DictionaryVariables
280
     0
  1
0
  0
DICTIONARYVAR
  5
546C
102
{ACAD_REACTORS
330
542B
102
}
330
542B
100
DictionaryVariables
280
     0
  1
0
  0
DICTIONARYVAR
  5
546D
102
{ACAD_REACTORS
330
542B
102
}
330
542B
100
DictionaryVariables
280
     0
  1
0
  0
DICTIONARY
  5
6903
102
{ACAD_REACTORS
330
6902
102
}
330
6902
100
AcDbDictionary
  0
DICTIONARY
  5
5D9E
102
{ACAD_REACTORS
330
5D9D
102
}
330
5D9D
100
AcDbDictionary
  0
DICTIONARY
  5
5DB3
102
{ACAD_REACTORS
330
5DB2
102
}
330
5DB2
100
AcDbDictionary
  0
DICTIONARY
  5
5DCA
102
{ACAD_REACTORS
330
5DC9
102
}
330
5DC9
100
AcDbDictionary
  0
DICTIONARY
  5
5DCE
102
{ACAD_REACTORS
330
5DCD
102
}
330
5DCD
100
AcDbDictionary
  0
DICTIONARY
  5
5DD2
102
{ACAD_REACTORS
330
5DD1
102
}
330
5DD1
100
AcDbDictionary
  0
DICTIONARY
  5
5DD6
102
{ACAD_REACTORS
330
5DD5
102
}
330
5DD5
100
AcDbDictionary
  0
DICTIONARY
  5
5DDA
102
{ACAD_REACTORS
330
5DD9
102
}
330
5DD9
100
AcDbDictionary
  0
DICTIONARY
  5
5DDE
102
{ACAD_REACTORS
330
5DDD
102
}
330
5DDD
100
AcDbDictionary
  0
DICTIONARY
  5
5DE2
102
{ACAD_REACTORS
330
5DE1
102
}
330
5DE1
100
AcDbDictionary
  0
DICTIONARY
  5
5DE6
102
{ACAD_REACTORS
330
5DE5
102
}
330
5DE5
100
AcDbDictionary
  0
DICTIONARY
  5
5767
102
{ACAD_REACTORS
330
5766
102
}
330
5766
100
AcDbDictionary
  0
DICTIONARY
  5
588B
102
{ACAD_REACTORS
330
588A
102
}
330
588A
100
AcDbDictionary
  0
DICTIONARY
  5
5EE4
102
{ACAD_REACTORS
330
5EE3
102
}
330
5EE3
100
AcDbDictionary
  0
DICTIONARY
  5
6094
102
{ACAD_REACTORS
330
6093
102
}
330
6093
100
AcDbDictionary
  0
DICTIONARY
  5
656C
102
{ACAD_REACTORS
330
656B
102
}
330
656B
100
AcDbDictionary
  0
DICTIONARY
  5
68A3
102
{ACAD_REACTORS
330
68A2
102
}
330
68A2
100
AcDbDictionary
  0
DICTIONARY
  5
698C
330
53FB
100
AcDbDictionary
280
     1
  3
ACAD_XREC_ROUNDTRIP
360
698D
  0
DICTIONARY
  5
698A
330
53FA
100
AcDbDictionary
280
     1
  3
ACAD_XREC_ROUNDTRIP
360
698B
  0
DICTIONARY
  5
698E
330
53FC
100
AcDbDictionary
280
     1
  3
ACAD_XREC_ROUNDTRIP
360
698F
  0
XRECORD
  5
698D
102
{ACAD_REACTORS
330
698C
102
}
330
698C
100
AcDbXrecord
102
MATERIAL
148
0.0
149
0.0
149
0.0
 93
        0
 94
      127
282
     0
 72
     1
 77
     1
171
     1
175
     1
179
     1
273
     0
  0
XRECORD
  5
698B
102
{ACAD_REACTORS
330
698A
102
}
330
698A
100
AcDbXrecord
102
MATERIAL
148
0.0
149
0.0
149
0.0
 93
        0
 94
      127
282
     0
 72
     1
 77
     1
171
     1
175
     1
179
     1
273
     0
  0
XRECORD
  5
698F
102
{ACAD_REACTORS
330
698E
102
}
330
698E
100
AcDbXrecord
102
MATERIAL
148
0.0
149
0.0
149
0.0
 93
        0
 94
      127
282
     0
 72
     1
 77
     1
171
     1
175
     1
179
     1
273
     0
  0
ENDSEC
  0
EOF
