  0
SECTION
  2
HEADER
  9
$ACADVER
  1
AC1014
  9
$ACADMAINTVER
 70
     9
  9
$DWGCODEPAGE
  3
ANSI_932
  9
$INSBASE
 10
0.0
 20
0.0
 30
0.0
  9
$EXTMIN
 10
4.559899369592
 20
706.535628128265
 30
0.0
  9
$EXTMAX
 10
787.877351492809
 20
1112.464367501707
 30
0.0
  9
$LIMMIN
 10
-360.747566795242
 20
4.457354754526
  9
$LIMMAX
 10
-162.153696144267
 20
287.675440264018
  9
$ORTHOMODE
 70
     0
  9
$REGENMODE
 70
     1
  9
$FILLMODE
 70
     1
  9
$QTEXTMODE
 70
     0
  9
$MIRRTEXT
 70
     1
  9
$DRAGMODE
 70
     2
  9
$LTSCALE
 40
1.0
  9
$OSMODE
 70
   935
  9
$ATTMODE
 70
     1
  9
$TEXTSIZE
 40
4.0
  9
$TRACEWID
 40
1.0
  9
$TEXTSTYLE
  7
STANDARD
  9
$CLAYER
  8
寸法線
  9
$CELTYPE
  6
BYLAYER
  9
$CECOLOR
 62
   256
  9
$CELTSCALE
 40
10.0
  9
$DELOBJ
 70
     1
  9
$DISPSILH
 70
     0
  9
$DIMSCALE
 40
1.0
  9
$DIMASZ
 40
6.0
  9
$DIMEXO
 40
0.625
  9
$DIMDLI
 40
3.75
  9
$DIMRND
 40
0.0
  9
$DIMDLE
 40
0.0
  9
$DIMEXE
 40
1.25
  9
$DIMTP
 40
0.1
  9
$DIMTM
 40
0.1
  9
$DIMTXT
 40
8.0
  9
$DIMCEN
 40
2.5
  9
$DIMTSZ
 40
0.0
  9
$DIMTOL
 70
     0
  9
$DIMLIM
 70
     0
  9
$DIMTIH
 70
     0
  9
$DIMTOH
 70
     0
  9
$DIMSE1
 70
     0
  9
$DIMSE2
 70
     0
  9
$DIMTAD
 70
     1
  9
$DIMZIN
 70
     8
  9
$DIMBLK
  1
OPEN30
  9
$DIMASO
 70
     1
  9
$DIMSHO
 70
     1
  9
$DIMPOST
  1

  9
$DIMAPOST
  1

  9
$DIMALT
 70
     0
  9
$DIMALTD
 70
     2
  9
$DIMALTF
 40
0.0394
  9
$DIMLFAC
 40
1.0
  9
$DIMTOFL
 70
     1
  9
$DIMTVP
 40
1.0
  9
$DIMTIX
 70
     0
  9
$DIMSOXD
 70
     0
  9
$DIMSAH
 70
     0
  9
$DIMBLK1
  1

  9
$DIMBLK2
  1

  9
$DIMSTYLE
  2
ISO-25
  9
$DIMCLRD
 70
     0
  9
$DIMCLRE
 70
     0
  9
$DIMCLRT
 70
     0
  9
$DIMTFAC
 40
1.0
  9
$DIMGAP
 40
0.625
  9
$DIMJUST
 70
     0
  9
$DIMSD1
 70
     0
  9
$DIMSD2
 70
     0
  9
$DIMTOLJ
 70
     1
  9
$DIMTZIN
 70
     0
  9
$DIMALTZ
 70
     0
  9
$DIMALTTZ
 70
     0
  9
$DIMFIT
 70
     3
  9
$DIMUPT
 70
     0
  9
$DIMUNIT
 70
     2
  9
$DIMDEC
 70
     1
  9
$DIMTDEC
 70
     1
  9
$DIMALTU
 70
     2
  9
$DIMALTTD
 70
     2
  9
$DIMTXSTY
  7
STANDARD
  9
$DIMAUNIT
 70
     0
  9
$LUNITS
 70
     2
  9
$LUPREC
 70
     4
  9
$SKETCHINC
 40
1.0
  9
$FILLETRAD
 40
1.0
  9
$AUNITS
 70
     0
  9
$AUPREC
 70
     0
  9
$MENU
  1
.
  9
$ELEVATION
 40
0.0
  9
$PELEVATION
 40
0.0
  9
$THICKNESS
 40
0.0
  9
$LIMCHECK
 70
     0
  9
$CHAMFERA
 40
0.5
  9
$CHAMFERB
 40
0.5
  9
$CHAMFERC
 40
20.0
  9
$CHAMFERD
 40
0.0
  9
$SKPOLY
 70
     0
  9
$TDCREATE
 40
2450576.597302431
  9
$TDUPDATE
 40
2457661.614094398
  9
$TDINDWG
 40
1.8161860764
  9
$TDUSRTIMER
 40
1.8161860764
  9
$USRTIMER
 70
     1
  9
$ANGBASE
 50
0.0
  9
$ANGDIR
 70
     0
  9
$PDMODE
 70
     0
  9
$PDSIZE
 40
0.0
  9
$PLINEWID
 40
0.0
  9
$COORDS
 70
     1
  9
$SPLFRAME
 70
     0
  9
$SPLINETYPE
 70
     6
  9
$SPLINESEGS
 70
     8
  9
$ATTDIA
 70
     0
  9
$ATTREQ
 70
     1
  9
$HANDLING
 70
     1
  9
$HANDSEED
  5
6334
  9
$SURFTAB1
 70
     6
  9
$SURFTAB2
 70
     6
  9
$SURFTYPE
 70
     6
  9
$SURFU
 70
     6
  9
$SURFV
 70
     6
  9
$UCSNAME
  2

  9
$UCSORG
 10
0.0
 20
0.0
 30
0.0
  9
$UCSXDIR
 10
1.0
 20
0.0
 30
0.0
  9
$UCSYDIR
 10
0.0
 20
1.0
 30
0.0
  9
$PUCSNAME
  2

  9
$PUCSORG
 10
0.0
 20
0.0
 30
0.0
  9
$PUCSXDIR
 10
1.0
 20
0.0
 30
0.0
  9
$PUCSYDIR
 10
0.0
 20
1.0
 30
0.0
  9
$USERI1
 70
     0
  9
$USERI2
 70
     0
  9
$USERI3
 70
     0
  9
$USERI4
 70
     0
  9
$USERI5
 70
     0
  9
$USERR1
 40
0.0
  9
$USERR2
 40
0.0
  9
$USERR3
 40
0.0
  9
$USERR4
 40
0.0
  9
$USERR5
 40
0.0
  9
$WORLDVIEW
 70
     1
  9
$SHADEDGE
 70
     3
  9
$SHADEDIF
 70
    70
  9
$TILEMODE
 70
     0
  9
$MAXACTVP
 70
    16
  9
$PINSBASE
 10
0.0
 20
0.0
 30
0.0
  9
$PLIMCHECK
 70
     0
  9
$PEXTMIN
 10
4.746305129083
 20
2.539649615544
 30
0.0
  9
$PEXTMAX
 10
404.746305129083
 20
282.539649615544
 30
0.0
  9
$PLIMMIN
 10
-7.007122192383
 20
-7.007118782997
  9
$PLIMMAX
 10
417.718108215332
 20
293.315290427208
  9
$UNITMODE
 70
     0
  9
$VISRETAIN
 70
     0
  9
$PLINEGEN
 70
     0
  9
$PSLTSCALE
 70
     1
  9
$TREEDEPTH
 70
  3020
  9
$PICKSTYLE
 70
     1
  9
$CMLSTYLE
  2
STANDARD
  9
$CMLJUST
 70
     0
  9
$CMLSCALE
 40
1.0
  9
$PROXYGRAPHICS
 70
     1
  9
$MEASUREMENT
 70
     1
  0
ENDSEC
  0
SECTION
  2
CLASSES
  0
CLASS
  1
ACDBDICTIONARYWDFLT
  2
AcDbDictionaryWithDefault
  3
ObjectDBX Classes
 90
        0
280
     0
281
     0
  0
CLASS
  1
ACDBPLACEHOLDER
  2
AcDbPlaceHolder
  3
ObjectDBX Classes
 90
        0
280
     0
281
     0
  0
CLASS
  1
LAYOUT
  2
AcDbLayout
  3
ObjectDBX Classes
 90
        0
280
     0
281
     0
  0
CLASS
  1
SORTENTSTABLE
  2
AcDbSortentsTable
  3
ObjectDBX Classes
 90
        0
280
     0
281
     0
  0
CLASS
  1
VISUALSTYLE
  2
AcDbVisualStyle
  3
ObjectDBX Classes
 90
     4095
280
     0
281
     0
  0
CLASS
  1
SCALE
  2
AcDbScale
  3
ObjectDBX Classes
 90
     1153
280
     0
281
     0
  0
CLASS
  1
MATERIAL
  2
AcDbMaterial
  3
ObjectDBX Classes
 90
     1153
280
     0
281
     0
  0
CLASS
  1
TABLESTYLE
  2
AcDbTableStyle
  3
ObjectDBX Classes
 90
     4095
280
     0
281
     0
  0
CLASS
  1
MLEADERSTYLE
  2
AcDbMLeaderStyle
  3
ACDB_MLEADERSTYLE_CLASS
 90
     4095
280
     0
281
     0
  0
CLASS
  1
SUN
  2
AcDbSun
  3
SCENEOE
 90
     1153
280
     0
281
     0
  0
CLASS
  1
DICTIONARYVAR
  2
AcDbDictionaryVar
  3
ObjectDBX Classes
 90
        0
280
     0
281
     0
  0
CLASS
  1
CELLSTYLEMAP
  2
AcDbCellStyleMap
  3
ObjectDBX Classes
 90
     1152
280
     0
281
     0
  0
CLASS
  1
XRECORD
  2
AcDbXrecord
  3
ObjectDBX Classes
 90
        0
280
     0
281
     0
  0
CLASS
  1
LWPOLYLINE
  2
AcDbPolyline
  3
ObjectDBX Classes
 90
        0
280
     0
281
     1
  0
CLASS
  1
HATCH
  2
AcDbHatch
  3
ObjectDBX Classes
 90
        0
280
     0
281
     1
  0
ENDSEC
  0
SECTION
  2
TABLES
  0
TABLE
  2
VPORT
  5
8
102
{ACAD_XDICTIONARY
360
632C
102
}
330
0
100
AcDbSymbolTable
 70
     2
  0
VPORT
  5
563C
330
8
100
AcDbSymbolTableRecord
100
AcDbViewportTableRecord
  2
*ACTIVE
 70
     0
 10
0.0
 20
0.0
 11
1.0
 21
1.0
 12
395.926958764533
 22
909.499997814986
 13
0.0
 23
0.0
 14
1.0
 24
1.0
 15
0.0
 25
0.0
 16
0.0
 26
0.0
 36
1.0
 17
0.0
 27
0.0
 37
0.0
 40
454.459240844007
 41
1.759407069555
 42
50.0
 43
0.0
 44
0.0
 50
0.0
 51
0.0
 71
    16
 72
   100
 73
     1
 74
     0
 75
     0
 76
     0
 77
     0
 78
     0
  0
ENDTAB
  0
TABLE
  2
LTYPE
  5
5
330
0
100
AcDbSymbolTable
 70
     6
  0
LTYPE
  5
14
330
5
100
AcDbSymbolTableRecord
100
AcDbLinetypeTableRecord
  2
BYBLOCK
 70
     0
  3

 72
    65
 73
     0
 40
0.0
  0
LTYPE
  5
15
330
5
100
AcDbSymbolTableRecord
100
AcDbLinetypeTableRecord
  2
BYLAYER
 70
     0
  3

 72
    65
 73
     0
 40
0.0
  0
LTYPE
  5
16
330
5
100
AcDbSymbolTableRecord
100
AcDbLinetypeTableRecord
  2
CONTINUOUS
 70
     0
  3
Solid line
 72
    65
 73
     0
 40
0.0
  0
LTYPE
  5
1EC
330
5
100
AcDbSymbolTableRecord
100
AcDbLinetypeTableRecord
  2
CENTER
 70
     0
  3
____ _ ____ _ ____ _ ____ _ ____ _ ____ _ ____ 
 72
    65
 73
     4
 40
2.0
 49
1.25
 74
     0
 49
-0.25
 74
     0
 49
0.25
 74
     0
 49
-0.25
 74
     0
  0
LTYPE
  5
1ED
330
5
100
AcDbSymbolTableRecord
100
AcDbLinetypeTableRecord
  2
DASHED
 70
     0
  3
__ __ __ __ __ __ __ __ __ __ __ __ __ __ __ __
 72
    65
 73
     2
 40
0.75
 49
0.5
 74
     0
 49
-0.25
 74
     0
  0
LTYPE
  5
2B1F
330
5
100
AcDbSymbolTableRecord
100
AcDbLinetypeTableRecord
  2
DASHDOT
 70
     0
  3
一点鎖線
 72
    65
 73
     4
 40
25.6
 49
20.0
 74
     0
 49
-2.0
 74
     0
 49
1.6
 74
     0
 49
-2.0
 74
     0
  0
LTYPE
  5
31A1
330
5
100
AcDbSymbolTableRecord
100
AcDbLinetypeTableRecord
  2
CENTER2
 70
     0
  3
Center (.5x) ___ _ ___ _ ___ _ ___ _ ___ _ ___
 72
    65
 73
     4
 40
28.575
 49
19.05
 74
     0
 49
-3.175
 74
     0
 49
3.175
 74
     0
 49
-3.175
 74
     0
  0
LTYPE
  5
4002
330
5
100
AcDbSymbolTableRecord
100
AcDbLinetypeTableRecord
  2
DASHED2
 70
     0
  3
Dashed (.5x) _ _ _ _ _ _ _ _ _ _ _ _ _ _ _ _ _
 72
    65
 73
     2
 40
9.525
 49
6.35
 74
     0
 49
-3.175
 74
     0
  0
ENDTAB
  0
TABLE
  2
LAYER
  5
2
102
{ACAD_XDICTIONARY
360
29EA
102
}
330
0
100
AcDbSymbolTable
 70
    13
  0
LAYER
  5
F
330
2
100
AcDbSymbolTableRecord
100
AcDbLayerTableRecord
  2
0
 70
     0
 62
     7
  6
CONTINUOUS
  0
LAYER
  5
61
330
2
100
AcDbSymbolTableRecord
100
AcDbLayerTableRecord
  2
図枠太線
 70
     0
 62
   251
  6
CONTINUOUS
  0
LAYER
  5
62
330
2
100
AcDbSymbolTableRecord
100
AcDbLayerTableRecord
  2
図枠細線
 70
     0
 62
   252
  6
CONTINUOUS
  0
LAYER
  5
63
330
2
100
AcDbSymbolTableRecord
100
AcDbLayerTableRecord
  2
図枠ロゴマーク
 70
     0
 62
   253
  6
CONTINUOUS
  0
LAYER
  5
1EF
330
2
100
AcDbSymbolTableRecord
100
AcDbLayerTableRecord
  2
外形線
 70
     0
 62
     7
  6
CONTINUOUS
  0
LAYER
  5
1F0
330
2
100
AcDbSymbolTableRecord
100
AcDbLayerTableRecord
  2
寸法線
 70
     0
 62
     1
  6
CONTINUOUS
  0
LAYER
  5
1F1
330
2
100
AcDbSymbolTableRecord
100
AcDbLayerTableRecord
  2
中心線
 70
     0
 62
     4
  6
CENTER
  0
LAYER
  5
1F4
330
2
100
AcDbSymbolTableRecord
100
AcDbLayerTableRecord
  2
DEFPOINTS
 70
     0
 62
     7
  6
CONTINUOUS
  0
LAYER
  5
2AA2
330
2
100
AcDbSymbolTableRecord
100
AcDbLayerTableRecord
  2
下書線
 70
     0
 62
     2
  6
CONTINUOUS
  0
LAYER
  5
2AA3
330
2
100
AcDbSymbolTableRecord
100
AcDbLayerTableRecord
  2
隠れ線
 70
     0
 62
     3
  6
DASHED
  0
LAYER
  5
2AA4
330
2
100
AcDbSymbolTableRecord
100
AcDbLayerTableRecord
  2
細線
 70
     0
 62
     6
  6
CONTINUOUS
  0
LAYER
  5
2AA5
330
2
100
AcDbSymbolTableRecord
100
AcDbLayerTableRecord
  2
太線
 70
     0
 62
   190
  6
CONTINUOUS
  0
LAYER
  5
47C1
330
2
100
AcDbSymbolTableRecord
100
AcDbLayerTableRecord
  2
LAY-1
 70
     0
 62
     7
  6
CONTINUOUS
  0
ENDTAB
  0
TABLE
  2
STYLE
  5
3
330
0
100
AcDbSymbolTable
 70
     2
  0
STYLE
  5
10
330
3
100
AcDbSymbolTableRecord
100
AcDbTextStyleTableRecord
  2
STANDARD
 70
     0
 40
0.0
 41
1.0
 50
0.0
 71
     0
 42
4.0
  3
ISOCP
  4
bigfont.shx
  0
STYLE
  5
64
330
3
100
AcDbSymbolTableRecord
100
AcDbTextStyleTableRecord
  2
EXCADSTD
 70
     0
 40
0.0
 41
1.0
 50
0.0
 71
     0
 42
0.2
  3
monotxt
  4
bigfont
  0
ENDTAB
  0
TABLE
  2
VIEW
  5
6
330
0
100
AcDbSymbolTable
 70
     0
  0
ENDTAB
  0
TABLE
  2
UCS
  5
7
330
0
100
AcDbSymbolTable
 70
     0
  0
ENDTAB
  0
TABLE
  2
APPID
  5
9
330
0
100
AcDbSymbolTable
 70
     6
  0
APPID
  5
11
330
9
100
AcDbSymbolTableRecord
100
AcDbRegAppTableRecord
  2
ACAD
 70
     0
  0
APPID
  5
3507
330
9
100
AcDbSymbolTableRecord
100
AcDbRegAppTableRecord
  2
ACAD_DIMASSOC_CALC_DIMLFAC
 70
     0
  0
APPID
  5
3508
330
9
100
AcDbSymbolTableRecord
100
AcDbRegAppTableRecord
  2
ACAD_DIMASSOC_DIMLFAC
 70
     0
  0
APPID
  5
3509
330
9
100
AcDbSymbolTableRecord
100
AcDbRegAppTableRecord
  2
ACAD_DIMASSOC_OVERRIDDEN_D
 70
     0
  0
APPID
  5
5681
330
9
100
AcDbSymbolTableRecord
100
AcDbRegAppTableRecord
  2
ACADANNOTATIVE
 70
     0
  0
APPID
  5
5A28
330
9
100
AcDbSymbolTableRecord
100
AcDbRegAppTableRecord
  2
ACAD_MLEADERVER
 70
     0
  0
ENDTAB
  0
TABLE
  2
DIMSTYLE
  5
A
330
0
100
AcDbSymbolTable
 70
     2
  0
DIMSTYLE
105
1D
330
A
100
AcDbSymbolTableRecord
100
AcDbDimStyleTableRecord
  2
STANDARD
 70
     0
  3

  4

  5

  6

  7

 40
1.0
 41
0.18
 42
0.0625
 43
0.38
 44
0.18
 45
0.0
 46
0.0
 47
0.0
 48
0.0
140
0.18
141
0.09
142
0.0
143
25.4
144
1.0
145
0.0
146
1.0
147
0.09
 71
     0
 72
     0
 73
     1
 74
     1
 75
     0
 76
     0
 77
     0
 78
     0
170
     0
171
     2
172
     0
173
     0
174
     0
175
     0
176
     0
177
     0
178
     0
270
     2
271
     4
272
     4
273
     2
274
     2
340
10
275
     0
280
     0
281
     0
282
     0
283
     1
284
     0
285
     0
286
     0
287
     3
288
     0
  0
DIMSTYLE
105
24
102
{ACAD_REACTORS
330
4F60
330
4F61
330
4F62
330
4F65
330
4F81
330
4F82
330
4F83
330
4F84
330
51B5
330
51EE
330
5B98
330
5B99
330
5BB6
102
}
330
A
100
AcDbSymbolTableRecord
100
AcDbDimStyleTableRecord
  2
ISO-25
 70
     0
  3

  4

  5

  6

  7

 40
1.0
 41
2.5
 42
0.625
 43
3.75
 44
1.25
 45
0.0
 46
0.0
 47
0.0
 48
0.0
140
2.5
141
2.5
142
0.0
143
0.0394
144
1.0
145
1.0
146
1.0
147
0.625
 71
     0
 72
     0
 73
     1
 74
     0
 75
     0
 76
     0
 77
     1
 78
     8
170
     0
171
     2
172
     1
173
     0
174
     0
175
     0
176
     0
177
     0
178
     0
270
     2
271
     4
272
     4
273
     2
274
     2
340
10
275
     0
280
     0
281
     0
282
     0
283
     1
284
     0
285
     0
286
     0
287
     3
288
     0
  0
ENDTAB
  0
TABLE
  2
BLOCK_RECORD
  5
1
330
0
100
AcDbSymbolTable
 70
    28
  0
BLOCK_RECORD
  5
1A
102
{ACAD_XDICTIONARY
360
51B3
102
}
330
1
100
AcDbSymbolTableRecord
100
AcDbBlockTableRecord
  2
*MODEL_SPACE
  0
BLOCK_RECORD
  5
28FB
330
1
100
AcDbSymbolTableRecord
100
AcDbBlockTableRecord
  2
*PAPER_SPACE
  0
BLOCK_RECORD
  5
65
330
1
100
AcDbSymbolTableRecord
100
AcDbBlockTableRecord
  2
A$C3392
  0
BLOCK_RECORD
  5
29BF
330
1
100
AcDbSymbolTableRecord
100
AcDbBlockTableRecord
  2
A4横用_タイトル
1001
ACAD
1000
DesignCenter Data
1002
{
1070
     1
1070
     4
1002
}
  0
BLOCK_RECORD
  5
29F4
330
1
100
AcDbSymbolTableRecord
100
AcDbBlockTableRecord
  2
A4縦用_タイトル
1001
ACAD
1000
DesignCenter Data
1002
{
1070
     1
1070
     4
1002
}
  0
BLOCK_RECORD
  5
2A32
330
1
100
AcDbSymbolTableRecord
100
AcDbBlockTableRecord
  2
A3横用_タイトル
1001
ACAD
1000
DesignCenter Data
1002
{
1070
     1
1070
     4
1002
}
  0
BLOCK_RECORD
  5
2A6C
330
1
100
AcDbSymbolTableRecord
100
AcDbBlockTableRecord
  2
A3縦用_タイトル
1001
ACAD
1000
DesignCenter Data
1002
{
1070
     1
1070
     4
1002
}
  0
BLOCK_RECORD
  5
2AF4
330
1
100
AcDbSymbolTableRecord
100
AcDbBlockTableRecord
  2
_OPEN30
  0
BLOCK_RECORD
  5
4A81
330
1
100
AcDbSymbolTableRecord
100
AcDbBlockTableRecord
  2
静電容量センサ
  0
BLOCK_RECORD
  5
4FB5
330
1
100
AcDbSymbolTableRecord
100
AcDbBlockTableRecord
  2
*D7
  0
BLOCK_RECORD
  5
4FC1
330
1
100
AcDbSymbolTableRecord
100
AcDbBlockTableRecord
  2
*D8
  0
BLOCK_RECORD
  5
4FCD
330
1
100
AcDbSymbolTableRecord
100
AcDbBlockTableRecord
  2
*D9
  0
BLOCK_RECORD
  5
4FD9
330
1
100
AcDbSymbolTableRecord
100
AcDbBlockTableRecord
  2
*D10
  0
BLOCK_RECORD
  5
4FF1
330
1
100
AcDbSymbolTableRecord
100
AcDbBlockTableRecord
  2
*D11
  0
BLOCK_RECORD
  5
4FFD
330
1
100
AcDbSymbolTableRecord
100
AcDbBlockTableRecord
  2
*D12
  0
BLOCK_RECORD
  5
5009
330
1
100
AcDbSymbolTableRecord
100
AcDbBlockTableRecord
  2
*D13
  0
BLOCK_RECORD
  5
5015
330
1
100
AcDbSymbolTableRecord
100
AcDbBlockTableRecord
  2
*D14
  0
BLOCK_RECORD
  5
51B6
330
1
100
AcDbSymbolTableRecord
100
AcDbBlockTableRecord
  2
*D18
  0
BLOCK_RECORD
  5
51EF
330
1
100
AcDbSymbolTableRecord
100
AcDbBlockTableRecord
  2
*D20
  0
BLOCK_RECORD
  5
5BB7
330
1
100
AcDbSymbolTableRecord
100
AcDbBlockTableRecord
  2
*D25
  0
BLOCK_RECORD
  5
5BC4
330
1
100
AcDbSymbolTableRecord
100
AcDbBlockTableRecord
  2
*D26
  0
BLOCK_RECORD
  5
5BCF
330
1
100
AcDbSymbolTableRecord
100
AcDbBlockTableRecord
  2
*D27
  0
ENDTAB
  0
ENDSEC
  0
SECTION
  2
BLOCKS
  0
BLOCK
  5
1B
330
1A
100
AcDbEntity
  8
0
100
AcDbBlockBegin
  2
*MODEL_SPACE
 70
     0
 10
0.0
 20
0.0
 30
0.0
  3
*MODEL_SPACE
  1

  0
ENDBLK
  5
1C
330
1A
100
AcDbEntity
  8
0
100
AcDbBlockEnd
  0
BLOCK
  5
28FD
330
28FB
100
AcDbEntity
 67
     1
  8
0
 48
10.0
100
AcDbBlockBegin
  2
*PAPER_SPACE
 70
     0
 10
0.0
 20
0.0
 30
0.0
  3
*PAPER_SPACE
  1

  0
ENDBLK
  5
28FE
330
28FB
100
AcDbEntity
 67
     1
  8
0
 48
10.0
100
AcDbBlockEnd
  0
BLOCK
  5
93
330
65
100
AcDbEntity
  8
0
100
AcDbBlockBegin
  2
A$C3392
 70
     0
 10
0.0
 20
0.0
 30
0.0
  3
A$C3392
  1

  0
LINE
  5
66
330
65
100
AcDbEntity
  8
図枠太線
  6
CONTINUOUS
100
AcDbLine
 10
211.858584505185
 20
30.927375675439
 30
0.0
 11
211.858584505185
 21
0.927375675439
 31
0.0
  0
LINE
  5
67
330
65
100
AcDbEntity
  8
図枠細線
  6
CONTINUOUS
100
AcDbLine
 10
231.858592505185
 20
15.927377675439
 30
0.0
 11
287.858592505185
 21
15.927375675439
 31
0.0
  0
LINE
  5
68
330
65
100
AcDbEntity
  8
図枠細線
  6
CONTINUOUS
100
AcDbLine
 10
211.858592505185
 20
15.927377675439
 30
0.0
 11
231.858592505185
 21
15.927377675439
 31
0.0
  0
LINE
  5
69
330
65
100
AcDbEntity
  8
図枠太線
  6
CONTINUOUS
 62
   251
100
AcDbLine
 10
1.858584505185
 20
0.927375675439
 30
0.0
 11
1.858584505185
 21
275.927375675439
 31
0.0
  0
TEXT
  5
6A
330
65
100
AcDbEntity
  8
図枠細線
  6
CONTINUOUS
 62
   252
100
AcDbText
 10
351.358592505185
 20
28.427377675439
 30
0.0
 40
2.0
  1
ＴＩＴＬＥ
 41
0.903614457831
  7
EXCADSTD
 72
     5
 11
361.358592505185
 21
28.427377675439
 31
0.0
100
AcDbText
  0
TEXT
  5
6B
330
65
100
AcDbEntity
  8
図枠細線
  6
CONTINUOUS
 62
   252
100
AcDbText
 10
345.358592505185
 20
28.427377675439
 30
0.0
 40
2.0
  1
名称
 41
1.171875
  7
EXCADSTD
 72
     5
 11
350.358592505185
 21
28.427377675439
 31
0.0
100
AcDbText
  0
TEXT
  5
6C
330
65
100
AcDbEntity
  8
図枠細線
  6
CONTINUOUS
 62
   252
100
AcDbText
 10
274.358592505185
 20
25.927377675439
 30
0.0
 40
2.0
  1
ＤＲＡＷＮ
 41
0.882352941176
  7
EXCADSTD
 72
     5
 11
284.358592505185
 21
25.927377675439
 31
0.0
100
AcDbText
  0
TEXT
  5
6D
330
65
100
AcDbEntity
  8
図枠細線
  6
CONTINUOUS
 62
   252
100
AcDbText
 10
260.358592505185
 20
25.927377675439
 30
0.0
 40
2.0
  1
ＤＥＳＩＧＮＥＤ
 41
0.713043472041
  7
EXCADSTD
 72
     5
 11
273.478592390744
 21
25.927377675439
 31
0.0
100
AcDbText
  0
TEXT
  5
6E
330
65
100
AcDbEntity
  8
図枠細線
  6
CONTINUOUS
 62
   252
100
AcDbText
 10
246.358592505185
 20
25.927377675439
 30
0.0
 40
2.0
  1
ＣＨＥＣＫＥＤ
 41
0.831249989569
  7
EXCADSTD
 72
     5
 11
259.658592338292
 21
25.927377675439
 31
0.0
100
AcDbText
  0
TEXT
  5
6F
330
65
100
AcDbEntity
  8
図枠細線
  6
CONTINUOUS
 62
   252
100
AcDbText
 10
274.358592505185
 20
28.427377675439
 30
0.0
 40
2.0
  1
製図
 41
1.209677419355
  7
EXCADSTD
 72
     5
 11
279.358592505185
 21
28.427377675439
 31
0.0
100
AcDbText
  0
TEXT
  5
70
330
65
100
AcDbEntity
  8
図枠細線
  6
CONTINUOUS
 62
   252
100
AcDbText
 10
260.358592505185
 20
28.427377675439
 30
0.0
 40
2.0
  1
設計
 41
1.171875
  7
EXCADSTD
 72
     5
 11
265.358592505185
 21
28.427377675439
 31
0.0
100
AcDbText
  0
TEXT
  5
71
330
65
100
AcDbEntity
  8
図枠細線
  6
CONTINUOUS
 62
   252
100
AcDbText
 10
246.358592505185
 20
28.427377675439
 30
0.0
 40
2.0
  1
検図
 41
1.209677419355
  7
EXCADSTD
 72
     5
 11
251.358592505185
 21
28.427377675439
 31
0.0
100
AcDbText
  0
TEXT
  5
72
330
65
100
AcDbEntity
  8
図枠細線
  6
CONTINUOUS
 62
   252
100
AcDbText
 10
232.358592505185
 20
25.927377675439
 30
0.0
 40
2.0
  1
ＡＰＰＲＯＶＥＤ
 41
0.695652184279
  7
EXCADSTD
 72
     5
 11
245.15859269592
 21
25.927377675439
 31
0.0
100
AcDbText
  0
TEXT
  5
73
330
65
100
AcDbEntity
  8
図枠細線
  6
CONTINUOUS
 62
   252
100
AcDbText
 10
232.358592505185
 20
28.427377675439
 30
0.0
 40
2.0
  1
承認
 41
1.171875
  7
EXCADSTD
 72
     5
 11
237.358592505185
 21
28.427377675439
 31
0.0
100
AcDbText
  0
TEXT
  5
74
330
65
100
AcDbEntity
  8
図枠細線
  6
CONTINUOUS
 62
   252
100
AcDbText
 10
290.069888505185
 20
2.574868675439
 30
0.0
 40
3.5
  1
ＴＯＷＡ　ＳＥＩＤＥＮ　ＩＮＤＵＳＴＲＩＡＬ　ＣＯ．，ＬＴＤ．
 41
0.414568012377
  7
EXCADSTD
 72
     5
 11
342.692388209546
 21
2.574868675439
 31
0.0
100
AcDbText
  0
TEXT
  5
75
330
65
100
AcDbEntity
  8
図枠ロゴマーク
  6
CONTINUOUS
 62
   253
100
AcDbText
 10
290.107348505185
 20
7.519769675439
 30
0.0
 40
7.0
  1
東和制電工業株式会社
 41
0.639204545455
  7
EXCADSTD
 72
     5
 11
342.607348505185
 21
7.519769675439
 31
0.0
100
AcDbText
  0
TEXT
  5
76
330
65
100
AcDbEntity
  8
図枠細線
  6
CONTINUOUS
 62
   252
100
AcDbText
 10
232.499705505185
 20
5.759088675439
 30
0.0
 40
2.0
  1
ＰＲＯＪＥＣＴＩＯＮ
 41
0.754285710199
  7
EXCADSTD
 72
     5
 11
250.099705409817
 21
5.759088675439
 31
0.0
100
AcDbText
  0
TEXT
  5
77
330
65
100
AcDbEntity
  8
図枠細線
  6
CONTINUOUS
 62
   252
100
AcDbText
 10
232.574629505185
 20
8.681077675439
 30
0.0
 40
2.0
  1
ＴＨＩＲＤ　ＡＮＧＬＥ
 41
0.691099486738
  7
EXCADSTD
 72
     5
 11
250.174629767445
 21
8.681077675439
 31
0.0
100
AcDbText
  0
TEXT
  5
78
330
65
100
AcDbEntity
  8
図枠細線
  6
CONTINUOUS
 62
   252
100
AcDbText
 10
256.823999505185
 20
13.427377675439
 30
0.0
 40
2.0
  1
ＳＣＡＬＥ
 41
0.903614457831
  7
EXCADSTD
 72
     5
 11
266.823999505185
 21
13.427377675439
 31
0.0
100
AcDbText
  0
TEXT
  5
79
330
65
100
AcDbEntity
  8
図枠細線
  6
CONTINUOUS
 62
   252
100
AcDbText
 10
274.858592505185
 20
13.427377675439
 30
0.0
 40
2.0
  1
ＤＡＴＥ
 41
0.923076923077
  7
EXCADSTD
 72
     5
 11
282.858592505185
 21
13.427377675439
 31
0.0
100
AcDbText
  0
TEXT
  5
7A
330
65
100
AcDbEntity
  8
図枠細線
  6
CONTINUOUS
 62
   252
100
AcDbText
 10
356.358592505185
 20
13.427377675439
 30
0.0
 40
2.0
  1
ＤＲＧ．ＮＯ．
 41
0.9375
  7
EXCADSTD
 72
     5
 11
370.358592505185
 21
13.427377675439
 31
0.0
100
AcDbText
  0
TEXT
  5
7B
330
65
100
AcDbEntity
  8
図枠細線
  6
CONTINUOUS
 62
   252
100
AcDbText
 10
345.358592505185
 20
13.427377675439
 30
0.0
 40
2.0
  1
図面番号
 41
1.102941176471
  7
EXCADSTD
 72
     5
 11
355.358592505185
 21
13.427377675439
 31
0.0
100
AcDbText
  0
TEXT
  5
7C
330
65
100
AcDbEntity
  8
図枠細線
  6
CONTINUOUS
 62
   252
100
AcDbText
 10
269.358592505185
 20
13.427377675439
 30
0.0
 40
2.0
  1
日付
 41
1.171875
  7
EXCADSTD
 72
     5
 11
274.358592505185
 21
13.427377675439
 31
0.0
100
AcDbText
  0
TEXT
  5
7D
330
65
100
AcDbEntity
  8
図枠細線
  6
CONTINUOUS
 62
   252
100
AcDbText
 10
251.451512505185
 20
13.427377675439
 30
0.0
 40
2.0
  1
尺度
 41
1.171875
  7
EXCADSTD
 72
     5
 11
256.451512505185
 21
13.427377675439
 31
0.0
100
AcDbText
  0
TEXT
  5
7E
330
65
100
AcDbEntity
  8
図枠細線
  6
CONTINUOUS
 62
   252
100
AcDbText
 10
232.358592505185
 20
13.427377675439
 30
0.0
 40
2.0
  1
第三角法
 41
1.102941176471
  7
EXCADSTD
 72
     5
 11
242.358592505185
 21
13.427377675439
 31
0.0
100
AcDbText
  0
TEXT
  5
7F
330
65
100
AcDbEntity
  8
図枠細線
  6
CONTINUOUS
 62
   252
100
AcDbText
 10
212.358592505185
 20
28.427377675439
 30
0.0
 40
2.0
  1
ＮＯＴＥ
 41
0.923076923077
  7
EXCADSTD
 72
     5
 11
220.358592505185
 21
28.427377675439
 31
0.0
100
AcDbText
  0
LINE
  5
80
330
65
100
AcDbEntity
  8
図枠細線
  6
CONTINUOUS
 62
   252
100
AcDbLine
 10
287.858592505185
 20
23.427375675439
 30
0.0
 11
344.858592505185
 21
23.427375675439
 31
0.0
  0
LINE
  5
81
330
65
100
AcDbEntity
  8
図枠太線
  6
CONTINUOUS
 62
   251
100
AcDbLine
 10
287.858584505185
 20
15.927375675439
 30
0.0
 11
344.858592505185
 21
15.927375675439
 31
0.0
  0
LINE
  5
82
330
65
100
AcDbEntity
  8
図枠細線
  6
CONTINUOUS
 62
   252
100
AcDbLine
 10
344.858592505185
 20
15.927375675439
 30
0.0
 11
401.858584505185
 21
15.927375675439
 31
0.0
  0
LINE
  5
83
330
65
100
AcDbEntity
  8
図枠太線
  6
CONTINUOUS
 62
   251
100
AcDbLine
 10
344.858592505185
 20
0.927377675439
 30
0.0
 11
344.858592505185
 21
30.927375675439
 31
0.0
  0
LINE
  5
84
330
65
100
AcDbEntity
  8
図枠太線
  6
CONTINUOUS
 62
   251
100
AcDbLine
 10
287.858592505185
 20
0.927377675439
 30
0.0
 11
287.858592505185
 21
30.927375675439
 31
0.0
  0
LINE
  5
85
330
65
100
AcDbEntity
  8
図枠細線
  6
CONTINUOUS
 62
   252
100
AcDbLine
 10
268.858592505185
 20
0.927377675439
 30
0.0
 11
268.858592505185
 21
15.927375675439
 31
0.0
  0
LINE
  5
86
330
65
100
AcDbEntity
  8
図枠細線
  6
CONTINUOUS
 62
   252
100
AcDbLine
 10
250.858592505185
 20
0.927377675439
 30
0.0
 11
250.858592505185
 21
15.927375675439
 31
0.0
  0
LINE
  5
87
330
65
100
AcDbEntity
  8
図枠細線
  6
CONTINUOUS
 62
   252
100
AcDbLine
 10
273.858592505185
 20
30.927375675439
 30
0.0
 11
273.858592505185
 21
15.927375675439
 31
0.0
  0
LINE
  5
88
330
65
100
AcDbEntity
  8
図枠細線
  6
CONTINUOUS
 62
   252
100
AcDbLine
 10
259.858592505185
 20
30.927375675439
 30
0.0
 11
259.858592505185
 21
15.927375675439
 31
0.0
  0
LINE
  5
89
330
65
100
AcDbEntity
  8
図枠細線
  6
CONTINUOUS
 62
   252
100
AcDbLine
 10
245.858592505185
 20
30.927375675439
 30
0.0
 11
245.858592505185
 21
15.927375675439
 31
0.0
  0
LINE
  5
8A
330
65
100
AcDbEntity
  8
図枠太線
  6
CONTINUOUS
 62
   251
100
AcDbLine
 10
231.858592505185
 20
0.927377675439
 30
0.0
 11
231.858592505185
 21
30.927375675439
 31
0.0
  0
LINE
  5
8B
330
65
100
AcDbEntity
  8
図枠細線
  6
CONTINUOUS
 62
   252
100
AcDbLine
 10
211.858592505185
 20
25.927375675439
 30
0.0
 11
231.858592505185
 21
25.927375675439
 31
0.0
  0
LINE
  5
8C
330
65
100
AcDbEntity
  8
図枠細線
  6
CONTINUOUS
 62
   252
100
AcDbLine
 10
211.858592505185
 20
20.927375675439
 30
0.0
 11
231.858592505185
 21
20.927375675439
 31
0.0
  0
LINE
  5
8D
330
65
100
AcDbEntity
  8
図枠細線
  6
CONTINUOUS
 62
   252
100
AcDbLine
 10
211.858592505185
 20
10.927375675439
 30
0.0
 11
231.858592505185
 21
10.927375675439
 31
0.0
  0
LINE
  5
8E
330
65
100
AcDbEntity
  8
図枠細線
  6
CONTINUOUS
 62
   252
100
AcDbLine
 10
211.858592505185
 20
5.927377675439
 30
0.0
 11
231.858592505185
 21
5.927377675439
 31
0.0
  0
LINE
  5
8F
330
65
100
AcDbEntity
  8
図枠太線
  6
CONTINUOUS
 62
   251
100
AcDbLine
 10
211.858592505185
 20
30.927375675439
 30
0.0
 11
401.858584505185
 21
30.927375675439
 31
0.0
  0
LINE
  5
90
330
65
100
AcDbEntity
  8
図枠太線
  6
CONTINUOUS
 62
   251
100
AcDbLine
 10
1.858584505185
 20
275.927375675439
 30
0.0
 11
401.858584505185
 21
275.927375675439
 31
0.0
  0
LINE
  5
91
330
65
100
AcDbEntity
  8
図枠太線
  6
CONTINUOUS
 62
   251
100
AcDbLine
 10
401.858584505185
 20
0.927375675439
 30
0.0
 11
401.858584505185
 21
275.927375675439
 31
0.0
  0
LINE
  5
92
330
65
100
AcDbEntity
  8
図枠太線
  6
CONTINUOUS
 62
   251
100
AcDbLine
 10
1.858584505185
 20
0.927375675439
 30
0.0
 11
401.858584505185
 21
0.927375675439
 31
0.0
  0
ENDBLK
  5
94
330
65
100
AcDbEntity
  8
0
100
AcDbBlockEnd
  0
BLOCK
  5
29C0
330
29BF
100
AcDbEntity
  8
0
100
AcDbBlockBegin
  2
A4横用_タイトル
 70
     0
 10
0.0
 20
0.0
 30
0.0
  3
A4横用_タイトル
  1

  0
LINE
  5
29C1
330
29BF
100
AcDbEntity
  8
図枠細線
  6
CONTINUOUS
100
AcDbLine
 10
75.061011071051
 20
16.806607253358
 30
0.0
 11
144.061011071051
 21
16.806604789072
 31
0.0
  0
LINE
  5
29C2
330
29BF
100
AcDbEntity
  8
図枠細線
  6
CONTINUOUS
 62
   252
100
AcDbLine
 10
4.061011071051
 20
11.806606253358
 30
0.0
 11
75.061011071051
 21
11.806606253358
 31
0.0
  0
LINE
  5
29C3
330
29BF
100
AcDbEntity
  8
図枠細線
  6
CONTINUOUS
 62
   252
100
AcDbLine
 10
4.061011071051
 20
21.806606253358
 30
0.0
 11
75.061011071051
 21
21.806606253358
 31
0.0
  0
LINE
  5
29C4
330
29BF
100
AcDbEntity
  8
図枠細線
  6
CONTINUOUS
 62
   252
100
AcDbLine
 10
4.061011071051
 20
26.806606253358
 30
0.0
 11
75.061011071051
 21
26.806606253358
 31
0.0
  0
LINE
  5
29C5
330
29BF
100
AcDbEntity
  8
図枠細線
  6
CONTINUOUS
100
AcDbLine
 10
4.061011071051
 20
16.806608253358
 30
0.0
 11
75.061011071051
 21
16.806608253358
 31
0.0
  0
TEXT
  5
29C6
330
29BF
100
AcDbEntity
  8
図枠細線
  6
CONTINUOUS
 62
   252
100
AcDbText
 10
76.405475827713
 20
9.560308253358
 30
0.0
 40
2.0
  1
ＴＨＩＲＤ　ＡＮＧＬＥ
 41
0.691099486738
  7
EXCADSTD
 72
     5
 11
94.005476089973
 21
9.560308253358
 31
0.0
100
AcDbText
  0
TEXT
  5
29C7
330
29BF
100
AcDbEntity
  8
図枠細線
  6
CONTINUOUS
 62
   252
100
AcDbText
 10
76.705775880921
 20
14.306608253358
 30
0.0
 40
2.0
  1
第三角法
 41
1.102941176471
  7
EXCADSTD
 72
     5
 11
86.705775880921
 21
14.306608253358
 31
0.0
100
AcDbText
  0
TEXT
  5
29C8
330
29BF
100
AcDbEntity
  8
図枠細線
  6
CONTINUOUS
 62
   252
100
AcDbText
 10
76.705775880921
 20
26.806608253358
 30
0.0
 40
2.0
  1
ＡＰＰＲＯＶＥＤ
 41
0.695652184279
  7
EXCADSTD
 72
     5
 11
89.505776071656
 21
26.806608253358
 31
0.0
100
AcDbText
  0
TEXT
  5
29C9
330
29BF
100
AcDbEntity
  8
図枠細線
  6
CONTINUOUS
 62
   252
100
AcDbText
 10
76.705775880921
 20
29.306608253358
 30
0.0
 40
2.0
  1
承認
 41
1.171875
  7
EXCADSTD
 72
     5
 11
81.705775880921
 21
29.306608253358
 31
0.0
100
AcDbText
  0
LINE
  5
29CA
330
29BF
100
AcDbEntity
  8
図枠細線
  6
CONTINUOUS
 62
   252
100
AcDbLine
 10
98.061011071051
 20
31.806606253358
 30
0.0
 11
98.061011071051
 21
16.806606253358
 31
0.0
  0
TEXT
  5
29CB
330
29BF
100
AcDbEntity
  8
図枠細線
  6
CONTINUOUS
 62
   252
100
AcDbText
 10
104.216531119804
 20
14.306608253358
 30
0.0
 40
2.0
  1
ＳＣＡＬＥ
 41
0.903614457831
  7
EXCADSTD
 72
     5
 11
114.216531119804
 21
14.306608253358
 31
0.0
100
AcDbText
  0
TEXT
  5
29CC
330
29BF
100
AcDbEntity
  8
図枠細線
  6
CONTINUOUS
 62
   252
100
AcDbText
 10
98.844044119804
 20
14.306608253358
 30
0.0
 40
2.0
  1
尺度
 41
1.171875
  7
EXCADSTD
 72
     5
 11
103.844044119804
 21
14.306608253358
 31
0.0
100
AcDbText
  0
TEXT
  5
29CD
330
29BF
100
AcDbEntity
  8
図枠細線
  6
CONTINUOUS
 62
   252
100
AcDbText
 10
98.968727707497
 20
26.806608253358
 30
0.0
 40
2.0
  1
ＣＨＥＣＫＥＤ
 41
0.831249989569
  7
EXCADSTD
 72
     5
 11
112.268727540604
 21
26.806608253358
 31
0.0
100
AcDbText
  0
TEXT
  5
29CE
330
29BF
100
AcDbEntity
  8
図枠細線
  6
CONTINUOUS
 62
   252
100
AcDbText
 10
98.968727707497
 20
29.306608253358
 30
0.0
 40
2.0
  1
検図
 41
1.209677419355
  7
EXCADSTD
 72
     5
 11
103.968727707497
 21
29.306608253358
 31
0.0
100
AcDbText
  0
LINE
  5
29CF
330
29BF
100
AcDbEntity
  8
図枠細線
  6
CONTINUOUS
 62
   252
100
AcDbLine
 10
121.061011071051
 20
31.806606253358
 30
0.0
 11
121.061011071051
 21
16.806606253358
 31
0.0
  0
TEXT
  5
29D0
330
29BF
100
AcDbEntity
  8
図枠細線
  6
CONTINUOUS
 62
   252
100
AcDbText
 10
128.001465247253
 20
14.306608253358
 30
0.0
 40
2.0
  1
ＤＡＴＥ
 41
0.923076923077
  7
EXCADSTD
 72
     5
 11
136.001465247253
 21
14.306608253358
 31
0.0
100
AcDbText
  0
TEXT
  5
29D1
330
29BF
100
AcDbEntity
  8
図枠細線
  6
CONTINUOUS
 62
   252
100
AcDbText
 10
122.066415498841
 20
14.306608253358
 30
0.0
 40
2.0
  1
日付
 41
1.171875
  7
EXCADSTD
 72
     5
 11
127.066415498841
 21
14.306608253358
 31
0.0
100
AcDbText
  0
TEXT
  5
29D2
330
29BF
100
AcDbEntity
  8
図枠細線
  6
CONTINUOUS
 62
   252
100
AcDbText
 10
121.59429406571
 20
29.306608253358
 30
0.0
 40
2.0
  1
製図
 41
1.209677419355
  7
EXCADSTD
 72
     5
 11
126.59429406571
 21
29.306608253358
 31
0.0
100
AcDbText
  0
TEXT
  5
29D3
330
29BF
100
AcDbEntity
  8
図枠細線
  6
CONTINUOUS
 62
   252
100
AcDbText
 10
121.59429406571
 20
26.806608253358
 30
0.0
 40
2.0
  1
ＤＲＡＷＮ
 41
0.882352941176
  7
EXCADSTD
 72
     5
 11
131.59429406571
 21
26.806608253358
 31
0.0
100
AcDbText
  0
TEXT
  5
29D4
330
29BF
100
AcDbEntity
  8
図枠細線
  6
CONTINUOUS
 62
   252
100
AcDbText
 10
226.591229661348
 20
14.306608253358
 30
0.0
 40
2.0
  1
ＤＲＧ．ＮＯ．
 41
0.9375
  7
EXCADSTD
 72
     5
 11
240.591229661348
 21
14.306608253358
 31
0.0
100
AcDbText
  0
LINE
  5
29D5
330
29BF
100
AcDbEntity
  8
図枠太線
  6
CONTINUOUS
 62
   251
100
AcDbLine
 10
144.061003071051
 20
16.806606253358
 30
0.0
 11
214.061011071051
 21
16.806606253358
 31
0.0
  0
LINE
  5
29D6
330
29BF
100
AcDbEntity
  8
図枠細線
  6
CONTINUOUS
 62
   252
100
AcDbLine
 10
144.061011071051
 20
24.306606253358
 30
0.0
 11
214.061011071051
 21
24.306606253358
 31
0.0
  0
TEXT
  5
29D7
330
29BF
100
AcDbEntity
  8
図枠ロゴマーク
  6
CONTINUOUS
 62
   253
100
AcDbText
 10
146.433776781596
 20
8.399000253358
 30
0.0
 40
7.0
  1
東和制電工業株式会社
 41
0.80361088462
  7
EXCADSTD
 72
     5
 11
212.437017438349
 21
8.399000253358
 31
0.0
100
AcDbText
  0
TEXT
  5
29D8
330
29BF
100
AcDbEntity
  8
図枠細線
  6
CONTINUOUS
 62
   252
100
AcDbText
 10
215.156179912936
 20
14.306608253358
 30
0.0
 40
2.0
  1
図面番号
 41
1.102941176471
  7
EXCADSTD
 72
     5
 11
225.156179912936
 21
14.306608253358
 31
0.0
100
AcDbText
  0
TEXT
  5
29D9
330
29BF
100
AcDbEntity
  8
図枠細線
  6
CONTINUOUS
 62
   252
100
AcDbText
 10
221.591229661348
 20
29.306608253358
 30
0.0
 40
2.0
  1
ＴＩＴＬＥ
 41
0.903614457831
  7
EXCADSTD
 72
     5
 11
231.591229661348
 21
29.306608253358
 31
0.0
100
AcDbText
  0
TEXT
  5
29DA
330
29BF
100
AcDbEntity
  8
図枠細線
  6
CONTINUOUS
 62
   252
100
AcDbText
 10
215.156179912936
 20
29.306608253358
 30
0.0
 40
2.0
  1
名称
 41
1.171875
  7
EXCADSTD
 72
     5
 11
220.156179912936
 21
29.306608253358
 31
0.0
100
AcDbText
  0
LINE
  5
29DB
330
29BF
100
AcDbEntity
  8
図枠太線
  6
CONTINUOUS
 62
   251
100
AcDbLine
 10
4.061011071051
 20
1.806608253358
 30
0.0
 11
284.061011071051
 21
1.806608253358
 31
0.0
  0
LINE
  5
29DC
330
29BF
100
AcDbEntity
  8
図枠細線
  6
CONTINUOUS
 62
   252
100
AcDbLine
 10
4.061011071051
 20
6.806608253358
 30
0.0
 11
75.061011071051
 21
6.806608253358
 31
0.0
  0
LINE
  5
29DD
330
29BF
100
AcDbEntity
  8
図枠太線
  6
CONTINUOUS
 62
   251
100
AcDbLine
 10
75.061011071051
 20
1.806608253358
 30
0.0
 11
75.061011071051
 21
31.806606253358
 31
0.0
  0
TEXT
  5
29DE
330
29BF
100
AcDbEntity
  8
図枠細線
  6
CONTINUOUS
 62
   252
100
AcDbText
 10
76.330551827713
 20
6.638319253358
 30
0.0
 40
2.0
  1
ＰＲＯＪＥＣＴＩＯＮ
 41
0.754285710199
  7
EXCADSTD
 72
     5
 11
93.930551732346
 21
6.638319253358
 31
0.0
100
AcDbText
  0
LINE
  5
29DF
330
29BF
100
AcDbEntity
  8
図枠細線
  6
CONTINUOUS
 62
   252
100
AcDbLine
 10
98.061011071051
 20
1.806606931929
 30
0.0
 11
98.061011071051
 21
16.806604931929
 31
0.0
  0
LINE
  5
29E0
330
29BF
100
AcDbEntity
  8
図枠細線
  6
CONTINUOUS
 62
   252
100
AcDbLine
 10
121.061011071051
 20
1.806607574787
 30
0.0
 11
121.061011071051
 21
16.806605574787
 31
0.0
  0
LINE
  5
29E1
330
29BF
100
AcDbEntity
  8
図枠太線
  6
CONTINUOUS
 62
   251
100
AcDbLine
 10
284.061011071051
 20
1.806608253358
 30
0.0
 11
284.061011071051
 21
31.806606253358
 31
0.0
  0
LINE
  5
29E2
330
29BF
100
AcDbEntity
  8
図枠細線
  6
CONTINUOUS
 62
   252
100
AcDbLine
 10
214.061011071051
 20
16.806606253358
 30
0.0
 11
284.061011071051
 21
16.806606253358
 31
0.0
  0
TEXT
  5
29E3
330
29BF
100
AcDbEntity
  8
図枠細線
  6
CONTINUOUS
 62
   252
100
AcDbText
 10
146.199593676182
 20
3.454099253358
 30
0.0
 40
3.5
  1
ＴＯＷＡ　ＳＥＩＤＥＮ　ＩＮＤＵＳＴＲＩＡＬ　ＣＯ．，ＬＴＤ．
 41
0.528937826907
  7
EXCADSTD
 72
     5
 11
213.339435171588
 21
3.454099253358
 31
0.0
100
AcDbText
  0
LINE
  5
29E4
330
29BF
100
AcDbEntity
  8
図枠太線
  6
CONTINUOUS
 62
   251
100
AcDbLine
 10
144.061011071051
 20
1.806608253358
 30
0.0
 11
144.061011071051
 21
31.806606253358
 31
0.0
  0
LINE
  5
29E5
330
29BF
100
AcDbEntity
  8
図枠太線
  6
CONTINUOUS
 62
   251
100
AcDbLine
 10
214.061011071051
 20
1.806608253358
 30
0.0
 11
214.061011071051
 21
31.806606253358
 31
0.0
  0
MTEXT
  5
29E6
330
29BF
100
AcDbEntity
  8
図枠太線
100
AcDbMText
 10
5.064337346478
 20
31.010982137407
 30
0.0
 40
2.5
 41
8.67856098472
 71
     1
 72
     5
  1
{\Fmonotxt.shx,bigfont.shx|c128;図暦}
  0
LINE
  5
29E7
330
29BF
100
AcDbEntity
  8
図枠太線
  6
CONTINUOUS
 62
   251
100
AcDbLine
 10
4.061011071051
 20
1.806608253358
 30
0.0
 11
4.061011071051
 21
31.806606253358
 31
0.0
  0
TEXT
  5
29E8
330
29BF
100
AcDbEntity
  8
図枠細線
 48
10.0
100
AcDbText
 10
12.260817420402
 20
28.625419626495
 30
0.0
 40
2.0
  1
CHANGE NOTICE
100
AcDbText
  0
ENDBLK
  5
29E9
330
29BF
100
AcDbEntity
  8
0
100
AcDbBlockEnd
  0
BLOCK
  5
29F5
330
29F4
100
AcDbEntity
  8
0
100
AcDbBlockBegin
  2
A4縦用_タイトル
 70
     0
 10
0.0
 20
0.0
 30
0.0
  3
A4縦用_タイトル
  1

  0
LINE
  5
29F6
330
29F4
100
AcDbEntity
  8
図枠太線
  6
CONTINUOUS
 62
   251
100
AcDbLine
 10
2.368253864267
 20
4.525433224584
 30
0.0
 11
192.368245864267
 21
4.525433224584
 31
0.0
  0
LINE
  5
29F7
330
29F4
100
AcDbEntity
  8
図枠太線
  6
CONTINUOUS
 62
   251
100
AcDbLine
 10
78.368245864267
 20
19.525431224584
 30
0.0
 11
135.368253864267
 21
19.525431224584
 31
0.0
  0
LINE
  5
29F8
330
29F4
100
AcDbEntity
  8
図枠細線
  6
CONTINUOUS
 62
   252
100
AcDbLine
 10
78.368253864267
 20
27.025431224584
 30
0.0
 11
135.368253864267
 21
27.025431224584
 31
0.0
  0
TEXT
  5
29F9
330
29F4
100
AcDbEntity
  8
図枠ロゴマーク
  6
CONTINUOUS
 62
   253
100
AcDbText
 10
80.617009864267
 20
11.117825224584
 30
0.0
 40
7.0
  1
東和制電工業株式会社
 41
0.639204545455
  7
EXCADSTD
 72
     5
 11
133.117009864267
 21
11.117825224584
 31
0.0
100
AcDbText
  0
TEXT
  5
29FA
330
29F4
100
AcDbEntity
  8
図枠細線
  6
CONTINUOUS
 62
   252
100
AcDbText
 10
80.579549864267
 20
6.172924224584
 30
0.0
 40
3.5
  1
ＴＯＷＡ　ＳＥＩＤＥＮ　ＩＮＤＵＳＴＲＩＡＬ　ＣＯ．，ＬＴＤ．
 41
0.414568012377
  7
EXCADSTD
 72
     5
 11
133.202049568628
 21
6.172924224584
 31
0.0
100
AcDbText
  0
LINE
  5
29FB
330
29F4
100
AcDbEntity
  8
図枠太線
  6
CONTINUOUS
 62
   251
100
AcDbLine
 10
2.368253864267
 20
4.525433224584
 30
0.0
 11
2.368253864267
 21
34.525431224584
 31
0.0
  0
TEXT
  5
29FC
330
29F4
100
AcDbEntity
  8
図枠細線
  6
CONTINUOUS
 62
   252
100
AcDbText
 10
22.504308136501
 20
12.279133224584
 30
0.0
 40
2.0
  1
ＴＨＩＲＤ　ＡＮＧＬＥ
 41
0.691099486738
  7
EXCADSTD
 72
     5
 11
40.104308398762
 21
12.279133224584
 31
0.0
100
AcDbText
  0
TEXT
  5
29FD
330
29F4
100
AcDbEntity
  8
図枠細線
  6
CONTINUOUS
 62
   252
100
AcDbText
 10
22.429384136501
 20
9.357144224584
 30
0.0
 40
2.0
  1
ＰＲＯＪＥＣＴＩＯＮ
 41
0.754285710199
  7
EXCADSTD
 72
     5
 11
40.029384041134
 21
9.357144224584
 31
0.0
100
AcDbText
  0
LINE
  5
29FE
330
29F4
100
AcDbEntity
  8
図枠細線
  6
CONTINUOUS
100
AcDbLine
 10
22.368253864267
 20
19.525433224584
 30
0.0
 11
78.368253864267
 21
19.525431224584
 31
0.0
  0
TEXT
  5
29FF
330
29F4
100
AcDbEntity
  8
図枠細線
  6
CONTINUOUS
 62
   252
100
AcDbText
 10
22.868253864267
 20
17.025433224584
 30
0.0
 40
2.0
  1
第三角法
 41
1.102941176471
  7
EXCADSTD
 72
     5
 11
32.868253864267
 21
17.025433224584
 31
0.0
100
AcDbText
  0
TEXT
  5
2A00
330
29F4
100
AcDbEntity
  8
図枠細線
  6
CONTINUOUS
 62
   252
100
AcDbText
 10
22.868253864267
 20
29.525433224584
 30
0.0
 40
2.0
  1
ＡＰＰＲＯＶＥＤ
 41
0.695652184279
  7
EXCADSTD
 72
     5
 11
35.668254055002
 21
29.525433224584
 31
0.0
100
AcDbText
  0
LINE
  5
2A01
330
29F4
100
AcDbEntity
  8
図枠細線
  6
CONTINUOUS
 62
   252
100
AcDbLine
 10
2.368253864267
 20
9.525433224584
 30
0.0
 11
22.368253864267
 21
9.525433224584
 31
0.0
  0
LINE
  5
2A02
330
29F4
100
AcDbEntity
  8
図枠細線
  6
CONTINUOUS
 62
   252
100
AcDbLine
 10
2.368253864267
 20
14.525431224584
 30
0.0
 11
22.368253864267
 21
14.525431224584
 31
0.0
  0
LINE
  5
2A03
330
29F4
100
AcDbEntity
  8
図枠細線
  6
CONTINUOUS
 62
   252
100
AcDbLine
 10
2.368253864267
 20
24.525431224584
 30
0.0
 11
22.368253864267
 21
24.525431224584
 31
0.0
  0
LINE
  5
2A04
330
29F4
100
AcDbEntity
  8
図枠細線
  6
CONTINUOUS
 62
   252
100
AcDbLine
 10
2.368253864267
 20
29.525431224584
 30
0.0
 11
22.368253864267
 21
29.525431224584
 31
0.0
  0
LINE
  5
2A05
330
29F4
100
AcDbEntity
  8
図枠細線
  6
CONTINUOUS
100
AcDbLine
 10
2.368253864267
 20
19.525433224584
 30
0.0
 11
22.368253864267
 21
19.525433224584
 31
0.0
  0
TEXT
  5
2A06
330
29F4
100
AcDbEntity
  8
図枠細線
  6
CONTINUOUS
 62
   252
100
AcDbText
 10
2.868253864267
 20
32.025433224584
 30
0.0
 40
2.0
  1
ＮＯＴＥ
 41
0.923076923077
  7
EXCADSTD
 72
     5
 11
10.868253864267
 21
32.025433224584
 31
0.0
100
AcDbText
  0
LINE
  5
2A07
330
29F4
100
AcDbEntity
  8
図枠太線
  6
CONTINUOUS
 62
   251
100
AcDbLine
 10
22.368253864267
 20
4.525433224584
 30
0.0
 11
22.368253864267
 21
34.525431224584
 31
0.0
  0
TEXT
  5
2A08
330
29F4
100
AcDbEntity
  8
図枠細線
  6
CONTINUOUS
 62
   252
100
AcDbText
 10
22.868253864267
 20
32.025433224584
 30
0.0
 40
2.0
  1
承認
 41
1.171875
  7
EXCADSTD
 72
     5
 11
27.868253864267
 21
32.025433224584
 31
0.0
100
AcDbText
  0
TEXT
  5
2A09
330
29F4
100
AcDbEntity
  8
図枠細線
  6
CONTINUOUS
 62
   252
100
AcDbText
 10
60.711709035982
 20
32.025433224584
 30
0.0
 40
2.0
  1
製図
 41
1.209677419355
  7
EXCADSTD
 72
     5
 11
65.711709035982
 21
32.025433224584
 31
0.0
100
AcDbText
  0
TEXT
  5
2A0A
330
29F4
100
AcDbEntity
  8
図枠細線
  6
CONTINUOUS
 62
   252
100
AcDbText
 10
60.711709035982
 20
29.525433224584
 30
0.0
 40
2.0
  1
ＤＲＡＷＮ
 41
0.882352941176
  7
EXCADSTD
 72
     5
 11
70.711709035982
 21
29.525433224584
 31
0.0
100
AcDbText
  0
TEXT
  5
2A0B
330
29F4
100
AcDbEntity
  8
図枠細線
  6
CONTINUOUS
 62
   252
100
AcDbText
 10
60.834891743877
 20
17.025433224584
 30
0.0
 40
2.0
  1
日付
 41
1.171875
  7
EXCADSTD
 72
     5
 11
65.834891743877
 21
17.025433224584
 31
0.0
100
AcDbText
  0
TEXT
  5
2A0C
330
29F4
100
AcDbEntity
  8
図枠細線
  6
CONTINUOUS
 62
   252
100
AcDbText
 10
47.333660864267
 20
17.025433224584
 30
0.0
 40
2.0
  1
ＳＣＡＬＥ
 41
0.903614457831
  7
EXCADSTD
 72
     5
 11
57.333660864267
 21
17.025433224584
 31
0.0
100
AcDbText
  0
TEXT
  5
2A0D
330
29F4
100
AcDbEntity
  8
図枠細線
  6
CONTINUOUS
 62
   252
100
AcDbText
 10
42.281425990082
 20
29.525433224584
 30
0.0
 40
2.0
  1
ＣＨＥＣＫＥＤ
 41
0.831249989569
  7
EXCADSTD
 72
     5
 11
55.581425823189
 21
29.525433224584
 31
0.0
100
AcDbText
  0
LINE
  5
2A0E
330
29F4
100
AcDbEntity
  8
図枠細線
  6
CONTINUOUS
 62
   252
100
AcDbLine
 10
40.968253864267
 20
34.525431224584
 30
0.0
 11
40.968253864267
 21
19.525431224584
 31
0.0
  0
LINE
  5
2A0F
330
29F4
100
AcDbEntity
  8
図枠細線
  6
CONTINUOUS
 62
   252
100
AcDbLine
 10
40.968253864267
 20
4.525433224584
 30
0.0
 11
40.968253864267
 21
19.525431224584
 31
0.0
  0
TEXT
  5
2A10
330
29F4
100
AcDbEntity
  8
図枠細線
  6
CONTINUOUS
 62
   252
100
AcDbText
 10
41.961173864267
 20
17.025433224584
 30
0.0
 40
2.0
  1
尺度
 41
1.171875
  7
EXCADSTD
 72
     5
 11
46.961173864267
 21
17.025433224584
 31
0.0
100
AcDbText
  0
TEXT
  5
2A11
330
29F4
100
AcDbEntity
  8
図枠細線
  6
CONTINUOUS
 62
   252
100
AcDbText
 10
42.281425990082
 20
32.025433224584
 30
0.0
 40
2.0
  1
検図
 41
1.209677419355
  7
EXCADSTD
 72
     5
 11
47.281425990082
 21
32.025433224584
 31
0.0
100
AcDbText
  0
LINE
  5
2A12
330
29F4
100
AcDbEntity
  8
図枠細線
  6
CONTINUOUS
 62
   252
100
AcDbLine
 10
59.768253864267
 20
34.525431224584
 30
0.0
 11
59.768253864267
 21
19.525431224584
 31
0.0
  0
LINE
  5
2A13
330
29F4
100
AcDbEntity
  8
図枠細線
  6
CONTINUOUS
 62
   252
100
AcDbLine
 10
59.768253864267
 20
4.525433224584
 30
0.0
 11
59.768253864267
 21
19.525431224584
 31
0.0
  0
LINE
  5
2A14
330
29F4
100
AcDbEntity
  8
図枠太線
  6
CONTINUOUS
 62
   251
100
AcDbLine
 10
78.368253864267
 20
4.525433224584
 30
0.0
 11
78.368253864267
 21
34.525431224584
 31
0.0
  0
TEXT
  5
2A15
330
29F4
100
AcDbEntity
  8
図枠細線
  6
CONTINUOUS
 62
   252
100
AcDbText
 10
66.334891743877
 20
17.025433224584
 30
0.0
 40
2.0
  1
ＤＡＴＥ
 41
0.923076923077
  7
EXCADSTD
 72
     5
 11
74.334891743877
 21
17.025433224584
 31
0.0
100
AcDbText
  0
LINE
  5
2A16
330
29F4
100
AcDbEntity
  8
図枠細線
  6
CONTINUOUS
 62
   252
100
AcDbLine
 10
135.368253864267
 20
19.525431224584
 30
0.0
 11
192.368245864267
 21
19.525431224584
 31
0.0
  0
TEXT
  5
2A17
330
29F4
100
AcDbEntity
  8
図枠細線
  6
CONTINUOUS
 62
   252
100
AcDbText
 10
141.868253864267
 20
32.025433224584
 30
0.0
 40
2.0
  1
ＴＩＴＬＥ
 41
0.903614457831
  7
EXCADSTD
 72
     5
 11
151.868253864267
 21
32.025433224584
 31
0.0
100
AcDbText
  0
LINE
  5
2A18
330
29F4
100
AcDbEntity
  8
図枠太線
  6
CONTINUOUS
 62
   251
100
AcDbLine
 10
135.368253864267
 20
4.525433224584
 30
0.0
 11
135.368253864267
 21
34.525431224584
 31
0.0
  0
TEXT
  5
2A19
330
29F4
100
AcDbEntity
  8
図枠細線
  6
CONTINUOUS
 62
   252
100
AcDbText
 10
135.868253864267
 20
17.025433224584
 30
0.0
 40
2.0
  1
図面番号
 41
1.102941176471
  7
EXCADSTD
 72
     5
 11
145.868253864267
 21
17.025433224584
 31
0.0
100
AcDbText
  0
TEXT
  5
2A1A
330
29F4
100
AcDbEntity
  8
図枠細線
  6
CONTINUOUS
 62
   252
100
AcDbText
 10
135.868253864267
 20
32.025433224584
 30
0.0
 40
2.0
  1
名称
 41
1.171875
  7
EXCADSTD
 72
     5
 11
140.868253864267
 21
32.025433224584
 31
0.0
100
AcDbText
  0
TEXT
  5
2A1B
330
29F4
100
AcDbEntity
  8
図枠細線
  6
CONTINUOUS
 62
   252
100
AcDbText
 10
146.868253864267
 20
17.025433224584
 30
0.0
 40
2.0
  1
ＤＲＧ．ＮＯ．
 41
0.9375
  7
EXCADSTD
 72
     5
 11
160.868253864267
 21
17.025433224584
 31
0.0
100
AcDbText
  0
LINE
  5
2A1C
330
29F4
100
AcDbEntity
  8
図枠太線
  6
CONTINUOUS
 62
   251
100
AcDbLine
 10
192.368245864267
 20
4.525433224584
 30
0.0
 11
192.368245864267
 21
34.525431224584
 31
0.0
  0
ENDBLK
  5
2A1D
330
29F4
100
AcDbEntity
  8
0
100
AcDbBlockEnd
  0
BLOCK
  5
2A33
330
2A32
100
AcDbEntity
  8
0
100
AcDbBlockBegin
  2
A3横用_タイトル
 70
     0
 10
0.0
 20
0.0
 30
0.0
  3
A3横用_タイトル
  1

  0
LINE
  5
2A34
330
2A32
100
AcDbEntity
  8
図枠細線
  6
CONTINUOUS
 62
   252
100
AcDbLine
 10
205.098414535793
 20
33.525959753527
 30
0.0
 11
305.098414535793
 21
33.525959753527
 31
0.0
  0
LINE
  5
2A35
330
2A32
100
AcDbEntity
  8
図枠太線
  6
CONTINUOUS
 62
   251
100
AcDbLine
 10
205.098414535793
 20
23.525959753527
 30
0.0
 11
305.098414535793
 21
23.525959753527
 31
0.0
  0
LINE
  5
2A36
330
2A32
100
AcDbEntity
  8
図枠細線
  6
CONTINUOUS
100
AcDbLine
 10
5.098414535793
 20
23.525959753527
 30
0.0
 11
105.098414535793
 21
23.525959753527
 31
0.0
  0
LINE
  5
2A37
330
2A32
100
AcDbEntity
  8
図枠細線
  6
CONTINUOUS
 62
   252
100
AcDbLine
 10
5.098414535793
 20
36.725957753527
 30
0.0
 11
105.098414535793
 21
36.725957753527
 31
0.0
  0
LINE
  5
2A38
330
2A32
100
AcDbEntity
  8
図枠細線
  6
CONTINUOUS
 62
   252
100
AcDbLine
 10
5.098414535793
 20
30.125957753527
 30
0.0
 11
105.098414535793
 21
30.125957753527
 31
0.0
  0
LINE
  5
2A39
330
2A32
100
AcDbEntity
  8
図枠細線
  6
CONTINUOUS
 62
   252
100
AcDbLine
 10
5.098414535793
 20
16.725959753527
 30
0.0
 11
105.098414535793
 21
16.725959753527
 31
0.0
  0
LINE
  5
2A3A
330
2A32
100
AcDbEntity
  8
図枠細線
  6
CONTINUOUS
 62
   252
100
AcDbLine
 10
5.098414535793
 20
10.125959753527
 30
0.0
 11
105.098414535793
 21
10.125959753527
 31
0.0
  0
LINE
  5
2A3B
330
2A32
100
AcDbEntity
  8
図枠細線
  6
CONTINUOUS
100
AcDbLine
 10
105.098414535793
 20
23.525961753527
 30
0.0
 11
205.098414535793
 21
23.525959753527
 31
0.0
  0
LINE
  5
2A3C
330
2A32
100
AcDbEntity
  8
図枠細線
  6
CONTINUOUS
 62
   252
100
AcDbLine
 10
138.398414535793
 20
43.525959753527
 30
0.0
 11
138.398414535793
 21
18.525957753527
 31
0.0
  0
LINE
  5
2A3D
330
2A32
100
AcDbEntity
  8
図枠細線
  6
CONTINUOUS
 62
   252
100
AcDbLine
 10
171.698414535793
 20
43.525959753527
 30
0.0
 11
171.698414535793
 21
18.525957753527
 31
0.0
  0
LINE
  5
2A3E
330
2A32
100
AcDbEntity
  8
図枠細線
  6
CONTINUOUS
 62
   252
100
AcDbLine
 10
305.098414535793
 20
23.525959753527
 30
0.0
 11
405.098414535793
 21
23.525959753527
 31
0.0
  0
TEXT
  5
2A3F
330
2A32
100
AcDbEntity
  8
図枠ロゴマーク
  6
CONTINUOUS
 62
   253
100
AcDbText
 10
206.102509212755
 20
13.294257570546
 30
0.0
 40
7.0
  1
東和制電工業株式会社
 50
0.016555220185
 41
1.186384129432
  7
EXCADSTD
 72
     5
 11
303.544188309143
 21
13.322412672217
 31
0.0
100
AcDbText
  0
MTEXT
  5
2A40
330
2A32
100
AcDbEntity
  8
図枠細線
100
AcDbMText
 10
6.356764112375
 20
41.976594175478
 30
0.0
 40
2.5
 41
49.938282706292
 71
     1
 72
     5
  1
{\Fmonotxt.shx,bigfont.shx|c128;図暦　CHANGE　NOTICE}
  0
MTEXT
  5
2A41
330
2A32
100
AcDbEntity
  8
図枠細線
 48
10.0
100
AcDbMText
 10
306.544114926828
 20
41.701835800934
 30
0.0
 40
2.5
 41
28.002809618823
 71
     1
 72
     5
  1
{\Fmonotxt.shx,bigfont.shx|c128;名称　TITLE}
  0
MTEXT
  5
2A42
330
2A32
100
AcDbEntity
  8
図枠細線
 48
10.0
100
AcDbMText
 10
307.329617114284
 20
21.606206797226
 30
0.0
 40
2.5
 41
24.385612216707
 71
     1
 72
     5
  1
{\Fmonotxt.shx,bigfont.shx|c128;図面番号\PDRG.　No.}
  0
MTEXT
  5
2A43
330
2A32
100
AcDbEntity
  8
図枠細線
 48
10.0
100
AcDbMText
 10
173.726349404609
 20
21.73680662198
 30
0.0
 40
2.5
 41
25.735090160813
 71
     1
 72
     5
  1
{\Fmonotxt.shx,bigfont.shx|c128;日付 DATE}
  0
MTEXT
  5
2A44
330
2A32
100
AcDbEntity
  8
図枠細線
 48
10.0
100
AcDbMText
 10
173.48708833982
 20
41.621592044998
 30
0.0
 40
2.5
 41
24.983741184205
 71
     1
 72
     5
  1
{\Fmonotxt.shx,bigfont.shx|c128;製図　DRAWN}
  0
MTEXT
  5
2A45
330
2A32
100
AcDbEntity
  8
図枠細線
 48
10.0
100
AcDbMText
 10
139.28009927741
 20
21.866713069868
 30
0.0
 40
2.5
 41
22.629632913243
 71
     1
 72
     5
  1
{\Fmonotxt.shx,bigfont.shx|c128;尺度　SCALE}
  0
MTEXT
  5
2A46
330
2A32
100
AcDbEntity
  8
図枠細線
 48
10.0
100
AcDbMText
 10
139.910091179835
 20
41.311840415554
 30
0.0
 40
2.5
 41
28.998753428368
 71
     1
 72
     5
  1
{\Fmonotxt.shx,bigfont.shx|c128;検図  CHECKED}
  0
MTEXT
  5
2A47
330
2A32
100
AcDbEntity
  8
図枠細線
 48
10.0
100
AcDbMText
 10
114.253294667728
 20
21.916124850174
 30
0.0
 40
3.0
 41
19.692400475383
 71
     1
 72
     5
  1
{\Fmonotxt.shx,bigfont.shx|c128;第三角法}
  0
MTEXT
  5
2A48
330
2A32
100
AcDbEntity
  8
図枠細線
 48
10.0
100
AcDbMText
 10
108.986959929915
 20
15.282880185837
 30
0.0
 40
2.5
 41
27.954882823547
 71
     1
 72
     5
  1
{\Fmonotxt.shx,bigfont.shx|c128;THIRD ANGLE\PPROJECTION}
  0
MTEXT
  5
2A49
330
2A32
100
AcDbEntity
  8
図枠細線
 48
10.0
100
AcDbMText
 10
106.319432640184
 20
41.511437145487
 30
0.0
 40
2.5
 41
28.233595265074
 71
     1
 72
     5
  1
{\Fmonotxt.shx,bigfont.shx|c128;承認 APPROVED}
  0
LINE
  5
2A4A
330
2A32
100
AcDbEntity
  8
図枠太線
  6
CONTINUOUS
 62
   251
100
AcDbLine
 10
5.098414535793
 20
3.525959753527
 30
0.0
 11
405.098414535793
 21
3.525959753527
 31
0.0
  0
LINE
  5
2A4B
330
2A32
100
AcDbEntity
  8
図枠太線
 48
10.0
100
AcDbLine
 10
5.098414535793
 20
3.525959753527
 30
0.0
 11
5.098414535793
 21
43.525959753527
 31
0.0
  0
LINE
  5
2A4C
330
2A32
100
AcDbEntity
  8
図枠太線
  6
CONTINUOUS
 62
   251
100
AcDbLine
 10
105.098414535793
 20
3.525959753527
 30
0.0
 11
105.098414535793
 21
43.525959753527
 31
0.0
  0
LINE
  5
2A4D
330
2A32
100
AcDbEntity
  8
図枠細線
  6
CONTINUOUS
 62
   252
100
AcDbLine
 10
138.398414535793
 20
3.525959753527
 30
0.0
 11
138.398414535793
 21
18.525957753527
 31
0.0
  0
LINE
  5
2A4E
330
2A32
100
AcDbEntity
  8
図枠細線
  6
CONTINUOUS
 62
   252
100
AcDbLine
 10
171.698414535793
 20
3.525959753527
 30
0.0
 11
171.698414535793
 21
18.525957753527
 31
0.0
  0
LINE
  5
2A4F
330
2A32
100
AcDbEntity
  8
図枠太線
  6
CONTINUOUS
 62
   251
100
AcDbLine
 10
205.098414535793
 20
3.525959753527
 30
0.0
 11
205.098414535793
 21
43.525959753527
 31
0.0
  0
LINE
  5
2A50
330
2A32
100
AcDbEntity
  8
図枠太線
 48
10.0
100
AcDbLine
 10
405.098414535793
 20
43.525959753527
 30
0.0
 11
405.098414535793
 21
3.525959753527
 31
0.0
  0
TEXT
  5
2A51
330
2A32
100
AcDbEntity
  8
図枠細線
  6
CONTINUOUS
 62
   252
100
AcDbText
 10
208.519754474572
 20
6.482358407285
 30
0.0
 40
3.5
  1
ＴＯＷＡ　ＳＥＩＤＥＮ　ＩＮＤＵＳＴＲＩＡＬ　ＣＯ．，ＬＴＤ．
 41
0.746656297509
  7
EXCADSTD
 72
     5
 11
303.295327171727
 21
6.482358407285
 31
0.0
100
AcDbText
  0
LINE
  5
2A52
330
2A32
100
AcDbEntity
  8
図枠太線
  6
CONTINUOUS
 62
   251
100
AcDbLine
 10
305.098414535793
 20
3.525959753527
 30
0.0
 11
305.098414535793
 21
43.525959753527
 31
0.0
  0
ENDBLK
  5
2A53
330
2A32
100
AcDbEntity
  8
0
100
AcDbBlockEnd
  0
BLOCK
  5
2A6D
330
2A6C
100
AcDbEntity
  8
0
100
AcDbBlockBegin
  2
A3縦用_タイトル
 70
     0
 10
0.0
 20
0.0
 30
0.0
  3
A3縦用_タイトル
  1

  0
MTEXT
  5
2A6E
330
2A6C
100
AcDbEntity
  8
図枠細線
100
AcDbMText
 10
5.040804501593
 20
31.626098649005
 30
0.0
 40
2.5
 41
49.938282706292
 71
     1
 72
     5
  1
{\Fmonotxt.shx,bigfont.shx|c128;図暦　CHANGE　NOTICE}
  0
LINE
  5
2A6F
330
2A6C
100
AcDbEntity
  8
図枠太線
  6
CONTINUOUS
 62
   251
100
AcDbLine
 10
283.577871882961
 20
2.820844689254
 30
0.0
 11
283.577871882961
 21
32.820842689254
 31
0.0
  0
MTEXT
  5
2A70
330
2A6C
100
AcDbEntity
  8
図枠細線
 48
10.0
100
AcDbMText
 10
214.912458947454
 20
31.621488632308
 30
0.0
 40
2.5
 41
28.002809618823
 71
     1
 72
     5
  1
{\Fmonotxt.shx,bigfont.shx|c128;名称　TITLE}
  0
MTEXT
  5
2A71
330
2A6C
100
AcDbEntity
  8
図枠細線
 48
10.0
100
AcDbMText
 10
214.740030458938
 20
16.310225796722
 30
0.0
 40
2.5
 41
24.385612216707
 71
     1
 72
     5
  1
{\Fmonotxt.shx,bigfont.shx|c128;図面番号\PDRG.　No.}
  0
LINE
  5
2A72
330
2A6C
100
AcDbEntity
  8
図枠太線
  6
CONTINUOUS
 62
   251
100
AcDbLine
 10
213.577871882961
 20
2.820844689254
 30
0.0
 11
213.577871882961
 21
32.820842689254
 31
0.0
  0
LINE
  5
2A73
330
2A6C
100
AcDbEntity
  8
図枠太線
  6
CONTINUOUS
 62
   251
100
AcDbLine
 10
143.577871882961
 20
2.820844689254
 30
0.0
 11
143.577871882961
 21
32.820842689254
 31
0.0
  0
TEXT
  5
2A74
330
2A6C
100
AcDbEntity
  8
図枠細線
  6
CONTINUOUS
 62
   252
100
AcDbText
 10
145.716454488093
 20
4.468335689254
 30
0.0
 40
3.5
  1
ＴＯＷＡ　ＳＥＩＤＥＮ　ＩＮＤＵＳＴＲＩＡＬ　ＣＯ．，ＬＴＤ．
 41
0.528937826907
  7
EXCADSTD
 72
     5
 11
212.856295983498
 21
4.468335689254
 31
0.0
100
AcDbText
  0
TEXT
  5
2A75
330
2A6C
100
AcDbEntity
  8
図枠ロゴマーク
  6
CONTINUOUS
 62
   253
100
AcDbText
 10
145.950637593507
 20
9.413236689254
 30
0.0
 40
7.0
  1
東和制電工業株式会社
 41
0.80361088462
  7
EXCADSTD
 72
     5
 11
211.953878250259
 21
9.413236689254
 31
0.0
100
AcDbText
  0
LINE
  5
2A76
330
2A6C
100
AcDbEntity
  8
図枠細線
  6
CONTINUOUS
 62
   252
100
AcDbLine
 10
143.577871882961
 20
25.320842689254
 30
0.0
 11
213.577871882961
 21
25.320842689254
 31
0.0
  0
LINE
  5
2A77
330
2A6C
100
AcDbEntity
  8
図枠太線
  6
CONTINUOUS
 62
   251
100
AcDbLine
 10
143.577863882961
 20
17.820842689254
 30
0.0
 11
213.577871882961
 21
17.820842689254
 31
0.0
  0
LINE
  5
2A78
330
2A6C
100
AcDbEntity
  8
図枠細線
  6
CONTINUOUS
 62
   252
100
AcDbLine
 10
213.577871882961
 20
17.820842689254
 30
0.0
 11
283.577871882961
 21
17.820842689254
 31
0.0
  0
LINE
  5
2A79
330
2A6C
100
AcDbEntity
  8
図枠細線
  6
CONTINUOUS
 62
   252
100
AcDbLine
 10
120.577871882961
 20
32.820842689254
 30
0.0
 11
120.577871882961
 21
17.820842689254
 31
0.0
  0
MTEXT
  5
2A7A
330
2A6C
100
AcDbEntity
  8
図枠細線
 48
10.0
100
AcDbMText
 10
121.100885670352
 20
16.33785922638
 30
0.0
 40
2.0
 41
17.705978285068
 71
     1
 72
     5
  1
{\Fmonotxt.shx,bigfont.shx|c128;日付 DATE}
  0
MTEXT
  5
2A7B
330
2A6C
100
AcDbEntity
  8
図枠細線
 48
10.0
100
AcDbMText
 10
121.254842273491
 20
31.208993514037
 30
0.0
 40
2.0
 41
18.363799568758
 71
     1
 72
     5
  1
{\Fmonotxt.shx,bigfont.shx|c128;製図　DRAWN}
  0
LINE
  5
2A7C
330
2A6C
100
AcDbEntity
  8
図枠細線
  6
CONTINUOUS
 62
   252
100
AcDbLine
 10
97.577871882961
 20
32.820842689254
 30
0.0
 11
97.577871882961
 21
17.820842689254
 31
0.0
  0
MTEXT
  5
2A7D
330
2A6C
100
AcDbEntity
  8
図枠細線
 48
10.0
100
AcDbMText
 10
98.239734796872
 20
16.467764839281
 30
0.0
 40
2.0
 41
17.757791689903
 71
     1
 72
     5
  1
{\Fmonotxt.shx,bigfont.shx|c128;尺度　SCALE}
  0
MTEXT
  5
2A7E
330
2A6C
100
AcDbEntity
  8
図枠細線
 48
10.0
100
AcDbMText
 10
97.864744625154
 20
31.298433377664
 30
0.0
 40
2.0
 41
23.162655920976
 71
     1
 72
     5
  1
{\Fmonotxt.shx,bigfont.shx|c128;検図  CHECKED}
  0
LINE
  5
2A7F
330
2A6C
100
AcDbEntity
  8
図枠細線
  6
CONTINUOUS
 62
   252
100
AcDbLine
 10
97.577871882961
 20
2.820843367826
 30
0.0
 11
97.577871882961
 21
17.820841367826
 31
0.0
  0
LINE
  5
2A80
330
2A6C
100
AcDbEntity
  8
図枠細線
  6
CONTINUOUS
 62
   252
100
AcDbLine
 10
120.577871882961
 20
2.820844010683
 30
0.0
 11
120.577871882961
 21
17.820842010683
 31
0.0
  0
MTEXT
  5
2A81
330
2A6C
100
AcDbEntity
  8
図枠細線
 48
10.0
100
AcDbMText
 10
81.402399084102
 20
16.316484117426
 30
0.0
 40
2.0
 41
12.920322819369
 71
     1
 72
     5
  1
{\Fmonotxt.shx,bigfont.shx|c128;第三角法}
  0
MTEXT
  5
2A82
330
2A6C
100
AcDbEntity
  8
図枠細線
 48
10.0
100
AcDbMText
 10
75.736576535096
 20
11.080410931319
 30
0.0
 40
2.0
 41
21.072870671471
 71
     1
 72
     5
  1
{\Fmonotxt.shx,bigfont.shx|c128;THIRD ANGLE\PPROJECTION}
  0
LINE
  5
2A83
330
2A6C
100
AcDbEntity
  8
図枠太線
  6
CONTINUOUS
 62
   251
100
AcDbLine
 10
74.577871882961
 20
2.820844689254
 30
0.0
 11
74.577871882961
 21
32.820842689254
 31
0.0
  0
MTEXT
  5
2A84
330
2A6C
100
AcDbEntity
  8
図枠細線
 48
10.0
100
AcDbMText
 10
75.060214781573
 20
31.298434778555
 30
0.0
 40
2.0
 41
22.240928805967
 71
     1
 72
     5
  1
{\Fmonotxt.shx,bigfont.shx|c128;承認 APPROVED}
  0
LINE
  5
2A85
330
2A6C
100
AcDbEntity
  8
図枠細線
  6
CONTINUOUS
100
AcDbLine
 10
3.577871882961
 20
17.820844689254
 30
0.0
 11
74.577871882961
 21
17.820844689254
 31
0.0
  0
LINE
  5
2A86
330
2A6C
100
AcDbEntity
  8
図枠細線
  6
CONTINUOUS
 62
   252
100
AcDbLine
 10
3.577871882961
 20
27.820842689254
 30
0.0
 11
74.577871882961
 21
27.820842689254
 31
0.0
  0
LINE
  5
2A87
330
2A6C
100
AcDbEntity
  8
図枠細線
  6
CONTINUOUS
 62
   252
100
AcDbLine
 10
3.577871882961
 20
22.820842689254
 30
0.0
 11
74.577871882961
 21
22.820842689254
 31
0.0
  0
LINE
  5
2A88
330
2A6C
100
AcDbEntity
  8
図枠細線
  6
CONTINUOUS
 62
   252
100
AcDbLine
 10
3.577871882961
 20
12.820842689254
 30
0.0
 11
74.577871882961
 21
12.820842689254
 31
0.0
  0
LINE
  5
2A89
330
2A6C
100
AcDbEntity
  8
図枠細線
  6
CONTINUOUS
 62
   252
100
AcDbLine
 10
3.577871882961
 20
7.820844689254
 30
0.0
 11
74.577871882961
 21
7.820844689254
 31
0.0
  0
LINE
  5
2A8A
330
2A6C
100
AcDbEntity
  8
図枠細線
  6
CONTINUOUS
100
AcDbLine
 10
74.577871882961
 20
17.820843689254
 30
0.0
 11
143.577871882961
 21
17.820841224969
 31
0.0
  0
LINE
  5
2A8B
330
2A6C
100
AcDbEntity
  8
図枠太線
  6
CONTINUOUS
 62
   251
100
AcDbLine
 10
3.577871882961
 20
2.820844689254
 30
0.0
 11
283.577871882961
 21
2.820844689254
 31
0.0
  0
LINE
  5
2A8C
330
2A6C
100
AcDbEntity
  8
図枠太線
  6
CONTINUOUS
 62
   251
100
AcDbLine
 10
3.577871882961
 20
2.820844689254
 30
0.0
 11
3.577871882961
 21
32.820842689254
 31
0.0
  0
ENDBLK
  5
2A8D
330
2A6C
100
AcDbEntity
  8
0
100
AcDbBlockEnd
  0
BLOCK
  5
2AF8
330
2AF4
100
AcDbEntity
  8
0
 48
10.0
100
AcDbBlockBegin
  2
_OPEN30
 70
     0
 10
0.0
 20
0.0
 30
0.0
  3
_OPEN30
  1

  0
LINE
  5
2AF5
330
2AF4
100
AcDbEntity
  8
0
  6
BYBLOCK
 62
     0
100
AcDbLine
 10
-1.0
 20
0.26794919
 30
0.0
 11
0.0
 21
0.0
 31
0.0
  0
LINE
  5
2AF6
330
2AF4
100
AcDbEntity
  8
0
  6
BYBLOCK
 62
     0
100
AcDbLine
 10
0.0
 20
0.0
 30
0.0
 11
-1.0
 21
-0.26794919
 31
0.0
  0
LINE
  5
2AF7
330
2AF4
100
AcDbEntity
  8
0
  6
BYBLOCK
 62
     0
100
AcDbLine
 10
0.0
 20
0.0
 30
0.0
 11
-1.0
 21
0.0
 31
0.0
  0
ENDBLK
  5
2AF9
330
2AF4
100
AcDbEntity
  8
0
 48
10.0
100
AcDbBlockEnd
  0
BLOCK
  5
4A82
330
4A81
100
AcDbEntity
  8
0
 48
10.0
100
AcDbBlockBegin
  2
静電容量センサ
 70
     0
 10
0.0
 20
0.0
 30
0.0
  3
静電容量センサ
  1

  0
ARC
  5
4A83
330
4A81
100
AcDbEntity
  8
外形線
 48
10.0
100
AcDbCircle
 10
1021.898525663106
 20
1073.412780408912
 30
0.0
 40
1.0
100
AcDbArc
 50
180.0
 51
268.999999999998
  0
ARC
  5
4A84
330
4A81
100
AcDbEntity
  8
外形線
 48
10.0
100
AcDbCircle
 10
1021.898525663106
 20
1115.960781516243
 30
0.0
 40
1.0
100
AcDbArc
 50
91.000000000002
 51
180.0
  0
LINE
  5
4A85
330
4A81
100
AcDbEntity
  8
外形線
 48
10.0
100
AcDbLine
 10
1020.898525663106
 20
1115.960781516243
 30
0.0
 11
1020.898525663106
 21
1073.412780408912
 31
0.0
  0
LINE
  5
4A86
330
4A81
100
AcDbEntity
  8
外形線
 48
10.0
100
AcDbLine
 10
1035.026308504175
 20
1117.944859066978
 30
0.0
 11
1041.278741748243
 21
1143.02199911049
 31
0.0
  0
ARC
  5
4A87
330
4A81
100
AcDbEntity
  8
外形線
 48
10.0
100
AcDbCircle
 10
1046.130220379623
 20
1141.812389632491
 30
0.0
 40
5.0
100
AcDbArc
 50
91.3
 51
166.000000000004
  0
ARC
  5
4A88
330
4A81
100
AcDbEntity
  8
外形線
 48
10.0
100
AcDbCircle
 10
1034.056012777899
 20
1118.186780962578
 30
0.0
 40
1.0
100
AcDbArc
 50
270.0
 51
346.000000000004
  0
ARC
  5
4A89
330
4A81
100
AcDbEntity
  8
外形線
 48
10.0
100
AcDbCircle
 10
1034.056012777899
 20
1118.186780962578
 30
0.0
 40
1.0
100
AcDbArc
 50
270.0
 51
346.000000000004
  0
LINE
  5
4A8A
330
4A81
100
AcDbEntity
  8
外形線
 48
10.0
100
AcDbLine
 10
1021.881073256669
 20
1116.960629211399
 30
0.0
 11
1034.056012777899
 21
1117.186780962578
 31
0.0
  0
ARC
  5
4A8B
330
4A81
100
AcDbEntity
  8
外形線
 48
10.0
100
AcDbCircle
 10
1122.899564892808
 20
1151.93622955513
 30
0.0
 40
0.5
100
AcDbArc
 50
359.999254274584
 51
88.999999999998
  0
ARC
  5
4A8C
330
4A81
100
AcDbEntity
  8
細線
 48
10.0
100
AcDbCircle
 10
1123.898525663106
 20
1107.819822714047
 30
0.0
 40
0.5
100
AcDbArc
 50
180.0
 51
264.089361084595
  0
ARC
  5
4A8D
330
4A81
100
AcDbEntity
  8
外形線
 48
10.0
100
AcDbCircle
 10
1123.898525663106
 20
1100.44543233102
 30
0.0
 40
0.5
100
AcDbArc
 50
91.000000000002
 51
180.0
  0
ARC
  5
4A8E
330
4A81
100
AcDbEntity
  8
細線
 48
10.0
100
AcDbCircle
 10
1123.898525663106
 20
1108.078641759149
 30
0.0
 40
0.5
100
AcDbArc
 50
180.0
 51
264.089361084595
  0
ARC
  5
4A8F
330
4A81
100
AcDbEntity
  8
細線
 48
10.0
100
AcDbCircle
 10
1123.898525663106
 20
1129.71320712675
 30
0.0
 40
0.5
100
AcDbArc
 50
180.0
 51
254.206830951738
  0
ARC
  5
4A90
330
4A81
100
AcDbEntity
  8
細線
 48
10.0
100
AcDbCircle
 10
1123.898525663106
 20
1130.420313907937
 30
0.0
 40
0.5
100
AcDbArc
 50
180.0
 51
254.206830951738
  0
ARC
  5
4A91
330
4A81
100
AcDbEntity
  8
細線
 48
10.0
100
AcDbCircle
 10
1123.898525663106
 20
1142.359984147006
 30
0.0
 40
0.5
100
AcDbArc
 50
180.0
 51
248.874947125989
  0
ARC
  5
4A92
330
4A81
100
AcDbEntity
  8
細線
 48
10.0
100
AcDbCircle
 10
1123.898525663106
 20
1143.325909973296
 30
0.0
 40
0.5
100
AcDbArc
 50
180.0
 51
248.874947125989
  0
ARC
  5
4A93
330
4A81
100
AcDbEntity
  8
外形線
 48
10.0
100
AcDbCircle
 10
1123.898413585187
 20
1144.632076415673
 30
0.0
 40
0.5
100
AcDbArc
 50
180.019033969455
 51
248.025023881972
  0
LINE
  5
4A94
330
4A81
100
AcDbEntity
  8
外形線
 48
10.0
100
AcDbLine
 10
1123.398525663106
 20
1143.325909973296
 30
0.0
 11
1123.398525663106
 21
1144.294618045039
 31
0.0
  0
LINE
  5
4A95
330
4A81
100
AcDbEntity
  8
外形線
 48
10.0
100
AcDbLine
 10
1123.398525663106
 20
1142.359984147006
 30
0.0
 11
1123.398525663106
 21
1142.98307227703
 31
0.0
  0
LINE
  5
4A96
330
4A81
100
AcDbEntity
  8
外形線
 48
10.0
100
AcDbLine
 10
1123.398525663106
 20
1130.420313907937
 30
0.0
 11
1123.398525663106
 21
1142.017146450741
 31
0.0
  0
LINE
  5
4A97
330
4A81
100
AcDbEntity
  8
外形線
 48
10.0
100
AcDbLine
 10
1123.398525663106
 20
1129.71320712675
 30
0.0
 11
1123.398525663106
 21
1130.042120021904
 31
0.0
  0
LINE
  5
4A98
330
4A81
100
AcDbEntity
  8
外形線
 48
10.0
100
AcDbLine
 10
1123.398525663106
 20
1108.078641759149
 30
0.0
 11
1123.398525663106
 21
1130.420313907937
 31
0.0
  0
LINE
  5
4A99
330
4A81
100
AcDbEntity
  8
外形線
 48
10.0
100
AcDbLine
 10
1123.398525663106
 20
1107.819822714047
 30
0.0
 11
1123.398525663106
 21
1108.700149198143
 31
0.0
  0
LINE
  5
4A9A
330
4A81
100
AcDbEntity
  8
外形線
 48
10.0
100
AcDbLine
 10
1123.398525663106
 20
1100.44543233102
 30
0.0
 11
1123.398525663106
 21
1108.078641759149
 31
0.0
  0
ARC
  5
4A9B
330
4A81
100
AcDbEntity
  8
外形線
 48
10.0
100
AcDbCircle
 10
1123.898525663106
 20
1088.928129594135
 30
0.0
 40
0.5
100
AcDbArc
 50
180.0
 51
268.999999999998
  0
LINE
  5
4A9C
330
4A81
100
AcDbEntity
  8
外形線
 48
10.0
100
AcDbLine
 10
1123.398525663106
 20
1088.928129594135
 30
0.0
 11
1123.398525663106
 21
1100.44543233102
 31
0.0
  0
ARC
  5
4A9D
330
4A81
100
AcDbEntity
  8
外形線
 48
10.0
100
AcDbCircle
 10
1135.396646406818
 20
1087.727276821958
 30
0.0
 40
0.5
100
AcDbArc
 50
0.002863323129
 51
88.999999999998
  0
ARC
  5
4A9E
330
4A81
100
AcDbEntity
  8
外形線
 48
10.0
100
AcDbCircle
 10
1135.396646406818
 20
1101.646285103198
 30
0.0
 40
0.5
100
AcDbArc
 50
271.000000000002
 51
359.997136676878
  0
ARC
  5
4A9F
330
4A81
100
AcDbEntity
  8
細線
 48
10.0
100
AcDbCircle
 10
1135.398359871226
 20
1105.882746614783
 30
0.0
 40
0.5
100
AcDbArc
 50
359.978936747976
 51
84.089361084595
  0
ARC
  5
4AA0
330
4A81
100
AcDbEntity
  8
細線
 48
10.0
100
AcDbCircle
 10
1135.396845195015
 20
1105.6240843805
 30
0.0
 40
0.5
100
AcDbArc
 50
359.997136676878
 51
84.089361084595
  0
ARC
  5
4AA1
330
4A81
100
AcDbEntity
  8
細線
 48
10.0
100
AcDbCircle
 10
1135.398405428356
 20
1136.84472607817
 30
0.0
 40
0.5
100
AcDbArc
 50
359.997136676878
 51
68.874947125989
  0
ARC
  5
4AA2
330
4A81
100
AcDbEntity
  8
細線
 48
10.0
100
AcDbCircle
 10
1135.398453699003
 20
1137.810633254114
 30
0.0
 40
0.5
100
AcDbArc
 50
359.997136676878
 51
68.874947125989
  0
ARC
  5
4AA3
330
4A81
100
AcDbEntity
  8
外形線
 48
10.0
100
AcDbCircle
 10
1135.398508800797
 20
1138.913233296621
 30
0.0
 40
0.5
100
AcDbArc
 50
359.997136676878
 51
68.025023881972
  0
LINE
  5
4AA4
330
4A81
100
AcDbEntity
  8
外形線
 48
10.0
100
AcDbLine
 10
1135.405372610037
 20
1101.146361255619
 30
0.0
 11
1123.889799459887
 21
1100.945356178598
 31
0.0
  0
LINE
  5
4AA5
330
4A81
100
AcDbEntity
  8
外形線
 48
10.0
100
AcDbLine
 10
1135.405372610037
 20
1088.227200669536
 30
0.0
 11
1123.889799459887
 21
1088.428205746557
 31
0.0
  0
LINE
  5
4AA6
330
4A81
100
AcDbEntity
  8
外形線
 48
10.0
100
AcDbLine
 10
1123.711312779708
 20
1144.168402728055
 30
0.0
 11
1135.585609606275
 21
1139.376906984239
 31
0.0
  0
LINE
  5
4AA7
330
4A81
100
AcDbEntity
  8
細線
 48
10.0
100
AcDbLine
 10
1135.448333812772
 20
1106.121426237015
 30
0.0
 11
1123.847037045349
 21
1107.322480857532
 31
0.0
  0
LINE
  5
4AA8
330
4A81
100
AcDbEntity
  8
細線
 48
10.0
100
AcDbLine
 10
1135.449848488983
 20
1106.380088471297
 30
0.0
 11
1123.847037045349
 21
1107.581299902634
 31
0.0
  0
LINE
  5
4AA9
330
4A81
100
AcDbEntity
  8
細線
 48
10.0
100
AcDbLine
 10
1135.533952658586
 20
1126.609702933466
 30
0.0
 11
1123.762442899618
 21
1129.939188683612
 31
0.0
  0
LINE
  5
4AAA
330
4A81
100
AcDbEntity
  8
細線
 48
10.0
100
AcDbLine
 10
1135.578607784566
 20
1137.311124095764
 30
0.0
 11
1123.718323306896
 21
1141.893586129411
 31
0.0
  0
LINE
  5
4AAB
330
4A81
100
AcDbEntity
  8
細線
 48
10.0
100
AcDbLine
 10
1135.578656055213
 20
1138.277031271709
 30
0.0
 11
1123.718323306896
 21
1142.859511955701
 31
0.0
  0
LINE
  5
4AAC
330
4A81
100
AcDbEntity
  8
外形線
 48
10.0
100
AcDbLine
 10
1108.899561566736
 20
1152.686780962578
 30
0.0
 11
1122.908291096026
 21
1152.436153402709
 31
0.0
  0
LINE
  5
4AAD
330
4A81
100
AcDbEntity
  8
外形線
 48
10.0
100
AcDbLine
 10
1108.899561566736
 20
1152.686780962578
 30
0.0
 11
1108.399561566736
 21
1152.180676686204
 31
0.0
  0
LINE
  5
4AAE
330
4A81
100
AcDbEntity
  8
外形線
 48
10.0
100
AcDbLine
 10
1108.399561566736
 20
1151.192885238951
 30
0.0
 11
1108.399561566736
 21
1150.692885238951
 31
0.0
  0
ARC
  5
4AAF
330
4A81
100
AcDbEntity
  8
外形線
 48
10.0
100
AcDbCircle
 10
1098.998525663106
 20
1152.414559409545
 30
0.0
 40
4.4
100
AcDbArc
 50
271.3
 51
0.0
  0
LINE
  5
4AB0
330
4A81
100
AcDbEntity
  8
外形線
 48
10.0
100
AcDbLine
 10
1046.016783711759
 20
1146.811102679105
 30
0.0
 11
1099.098349930826
 21
1148.015691928525
 31
0.0
  0
LINE
  5
4AB1
330
4A81
100
AcDbEntity
  8
外形線
 48
10.0
100
AcDbLine
 10
1103.398525663105
 20
1152.686780962578
 30
0.0
 11
1103.398525663105
 21
1152.414559409545
 31
0.0
  0
LINE
  5
4AB2
330
4A81
100
AcDbEntity
  8
外形線
 48
10.0
100
AcDbLine
 10
1106.398525663105
 20
1152.686780962578
 30
0.0
 11
1103.398525663105
 21
1152.686780962578
 31
0.0
  0
ARC
  5
4AB3
330
4A81
100
AcDbEntity
  8
外形線
 48
10.0
100
AcDbCircle
 10
1107.898525663105
 20
1150.161780962577
 30
0.0
 40
1.500000000000156
100
AcDbArc
 50
70.528779365514
 51
179.999999999993
  0
LINE
  5
4AB4
330
4A81
100
AcDbEntity
  8
細線
 48
10.0
100
AcDbLine
 10
1108.899561566736
 20
1152.686780962578
 30
0.0
 11
1108.899561566736
 21
1036.686780962578
 31
0.0
  0
LINE
  5
4AB5
330
4A81
100
AcDbEntity
  8
細線
 48
10.0
100
AcDbLine
 10
1108.899561566736
 20
1152.680676686204
 30
0.0
 11
1108.899561566736
 21
1036.692885238951
 31
0.0
  0
LINE
  5
4AB6
330
4A81
100
AcDbEntity
  8
外形線
 48
10.0
100
AcDbLine
 10
1123.398525663106
 20
1072.956444458874
 30
0.0
 11
1123.398525663106
 21
1059.660354798405
 31
0.0
  0
ARC
  5
4AB7
330
4A81
100
AcDbEntity
  8
細線
 48
10.0
100
AcDbCircle
 10
1123.898525663106
 20
1047.013577778149
 30
0.0
 40
0.5
100
AcDbArc
 50
111.125052874011
 51
180.0
  0
ARC
  5
4AB8
330
4A81
100
AcDbEntity
  8
細線
 48
10.0
100
AcDbCircle
 10
1123.898066965619
 20
1046.04747472476
 30
0.0
 40
0.5
100
AcDbArc
 50
111.125052874011
 51
179.923306313171
  0
ARC
  5
4AB9
330
4A81
100
AcDbEntity
  8
細線
 48
10.0
100
AcDbCircle
 10
1123.898525663106
 20
1059.660354798405
 30
0.0
 40
0.5
100
AcDbArc
 50
105.793169048262
 51
180.0
  0
ARC
  5
4ABA
330
4A81
100
AcDbEntity
  8
細線
 48
10.0
100
AcDbCircle
 10
1123.898525663106
 20
1058.953248017218
 30
0.0
 40
0.5
100
AcDbArc
 50
105.793169048262
 51
180.0
  0
ARC
  5
4ABB
330
4A81
100
AcDbEntity
  8
細線
 48
10.0
100
AcDbCircle
 10
1123.898525663106
 20
1081.294920166006
 30
0.0
 40
0.5
100
AcDbArc
 50
95.910638915405
 51
180.0
  0
ARC
  5
4ABC
330
4A81
100
AcDbEntity
  8
細線
 48
10.0
100
AcDbCircle
 10
1123.898525663106
 20
1081.553739211108
 30
0.0
 40
0.5
100
AcDbArc
 50
95.910638915405
 51
180.0
  0
LINE
  5
4ABD
330
4A81
100
AcDbEntity
  8
外形線
 48
10.0
100
AcDbLine
 10
1123.398525663106
 20
1081.294920166006
 30
0.0
 11
1123.398525663106
 21
1088.928129594135
 31
0.0
  0
LINE
  5
4ABE
330
4A81
100
AcDbEntity
  8
外形線
 48
10.0
100
AcDbLine
 10
1123.398525663106
 20
1081.745828707453
 30
0.0
 11
1123.398525663106
 21
1082.004647752555
 31
0.0
  0
LINE
  5
4ABF
330
4A81
100
AcDbEntity
  8
外形線
 48
10.0
100
AcDbLine
 10
1123.398525663106
 20
1072.956444458874
 30
0.0
 11
1123.398525663106
 21
1081.294920166006
 31
0.0
  0
LINE
  5
4AC0
330
4A81
100
AcDbEntity
  8
外形線
 48
10.0
100
AcDbLine
 10
1123.398525663106
 20
1058.953248017218
 30
0.0
 11
1123.398525663106
 21
1059.660354798405
 31
0.0
  0
LINE
  5
4AC1
330
4A81
100
AcDbEntity
  8
外形線
 48
10.0
100
AcDbLine
 10
1123.398525663106
 20
1047.013577778149
 30
0.0
 11
1123.398525663106
 21
1058.953248017218
 31
0.0
  0
LINE
  5
4AC2
330
4A81
100
AcDbEntity
  8
外形線
 48
10.0
100
AcDbLine
 10
1123.398067413553
 20
1046.048144003235
 30
0.0
 11
1123.398525663106
 21
1047.013577778149
 31
0.0
  0
LINE
  5
4AC3
330
4A81
100
AcDbEntity
  8
外形線
 48
10.0
100
AcDbLine
 10
1123.396317242873
 20
1044.740639597053
 30
0.0
 11
1123.398067413553
 21
1046.048144003235
 31
0.0
  0
ARC
  5
4AC4
330
4A81
100
AcDbEntity
  8
外形線
 48
10.0
100
AcDbCircle
 10
1123.896317242873
 20
1044.740639597053
 30
0.0
 40
0.5
100
AcDbArc
 50
111.974976118028
 51
180.0
  0
ARC
  5
4AC5
330
4A81
100
AcDbEntity
  8
細線
 48
10.0
100
AcDbCircle
 10
1135.398494161258
 20
1063.952267566336
 30
0.0
 40
0.5
100
AcDbArc
 50
285.793169048262
 51
0.004772330144
  0
ARC
  5
4AC6
330
4A81
100
AcDbEntity
  8
細線
 48
10.0
100
AcDbCircle
 10
1135.398525663106
 20
1063.245169695216
 30
0.0
 40
0.5
100
AcDbArc
 50
285.793169048262
 51
0.0
  0
ARC
  5
4AC7
330
4A81
100
AcDbEntity
  8
細線
 48
10.0
100
AcDbCircle
 10
1135.398525663106
 20
1052.528882302126
 30
0.0
 40
0.5
100
AcDbArc
 50
291.125052874011
 51
0.0
  0
ARC
  5
4AC8
330
4A81
100
AcDbEntity
  8
細線
 48
10.0
100
AcDbCircle
 10
1135.398525663106
 20
1051.562956475835
 30
0.0
 40
0.5
100
AcDbArc
 50
291.125052874011
 51
0.0
  0
ARC
  5
4AC9
330
4A81
100
AcDbEntity
  8
外形線
 48
10.0
100
AcDbCircle
 10
1135.398525663106
 20
1050.460335432784
 30
0.0
 40
0.5
100
AcDbArc
 50
291.974976118028
 51
0.0
  0
LINE
  5
4ACA
330
4A81
100
AcDbEntity
  8
外形線
 48
10.0
100
AcDbLine
 10
1135.898525663106
 20
1051.562956475835
 30
0.0
 11
1135.898525663106
 21
1050.460335432784
 31
0.0
  0
LINE
  5
4ACB
330
4A81
100
AcDbEntity
  8
外形線
 48
10.0
100
AcDbLine
 10
1135.898525663106
 20
1052.528882302126
 30
0.0
 11
1135.898525663106
 21
1051.562956475835
 31
0.0
  0
LINE
  5
4ACC
330
4A81
100
AcDbEntity
  8
外形線
 48
10.0
100
AcDbLine
 10
1135.898525663106
 20
1063.245169695216
 30
0.0
 11
1135.898525663106
 21
1052.528882302126
 31
0.0
  0
LINE
  5
4ACD
330
4A81
100
AcDbEntity
  8
外形線
 48
10.0
100
AcDbLine
 10
1135.898494159523
 20
1063.952309212773
 30
0.0
 11
1135.898525663106
 21
1063.245169695216
 31
0.0
  0
LINE
  5
4ACE
330
4A81
100
AcDbEntity
  8
外形線
 48
10.0
100
AcDbLine
 10
1135.896845194391
 20
1083.749502531863
 30
0.0
 11
1135.898494159523
 21
1063.952309212773
 31
0.0
  0
ARC
  5
4ACF
330
4A81
100
AcDbEntity
  8
細線
 48
10.0
100
AcDbCircle
 10
1135.396794220963
 20
1083.49065322233
 30
0.0
 40
0.5
100
AcDbArc
 50
275.910638915405
 51
0.00199902817
  0
ARC
  5
4AD0
330
4A81
100
AcDbEntity
  8
細線
 48
10.0
100
AcDbCircle
 10
1135.396845195015
 20
1083.749477544655
 30
0.0
 40
0.5
100
AcDbArc
 50
275.910638915405
 51
0.002863323129
  0
ARC
  5
4AD1
330
4A81
100
AcDbEntity
  8
外形線
 48
10.0
100
AcDbCircle
 10
1122.897486448612
 20
1037.437296090646
 30
0.0
 40
0.5
100
AcDbArc
 50
271.000000000002
 51
359.984453673186
  0
LINE
  5
4AD2
330
4A81
100
AcDbEntity
  8
外形線
 48
10.0
100
AcDbLine
 10
1135.896646406194
 20
1087.727301809166
 30
0.0
 11
1135.896794220659
 21
1083.490670667142
 31
0.0
  0
LINE
  5
4AD3
330
4A81
100
AcDbEntity
  8
外形線
 48
10.0
100
AcDbLine
 10
1123.709216437395
 20
1045.204313284671
 30
0.0
 11
1135.585626468584
 21
1049.996661745166
 31
0.0
  0
LINE
  5
4AD4
330
4A81
100
AcDbEntity
  8
細線
 48
10.0
100
AcDbLine
 10
1135.578728019316
 20
1052.062484284531
 30
0.0
 11
1123.718323306896
 21
1047.479975795744
 31
0.0
  0
LINE
  5
4AD5
330
4A81
100
AcDbEntity
  8
細線
 48
10.0
100
AcDbLine
 10
1135.578728019316
 20
1051.09655845824
 30
0.0
 11
1123.717864609409
 21
1046.513872742355
 31
0.0
  0
LINE
  5
4AD6
330
4A81
100
AcDbEntity
  8
細線
 48
10.0
100
AcDbLine
 10
1135.534608426593
 20
1062.764044470891
 30
0.0
 11
1123.762442899618
 21
1059.434373241543
 31
0.0
  0
LINE
  5
4AD7
330
4A81
100
AcDbEntity
  8
細線
 48
10.0
100
AcDbLine
 10
1135.534576924746
 20
1063.471142342011
 30
0.0
 11
1123.762442899618
 21
1060.141480022729
 31
0.0
  0
LINE
  5
4AD8
330
4A81
100
AcDbEntity
  8
細線
 48
10.0
100
AcDbLine
 10
1135.44828283872
 20
1082.993311365815
 30
0.0
 11
1123.847037045349
 21
1081.792262022521
 31
0.0
  0
LINE
  5
4AD9
330
4A81
100
AcDbEntity
  8
細線
 48
10.0
100
AcDbLine
 10
1135.448333812772
 20
1083.25213568814
 30
0.0
 11
1123.847037045349
 21
1082.051081067623
 31
0.0
  0
LINE
  5
4ADA
330
4A81
100
AcDbEntity
  8
外形線
 48
10.0
100
AcDbLine
 10
1123.399470041665
 20
1044.747733739171
 30
0.0
 11
1123.397486430207
 21
1037.437160423353
 31
0.0
  0
LINE
  5
4ADB
330
4A81
100
AcDbEntity
  8
外形線
 48
10.0
100
AcDbLine
 10
1123.399564892765
 20
1151.936223047449
 30
0.0
 11
1123.397486430207
 21
1037.437160423353
 31
0.0
  0
LINE
  5
4ADC
330
4A81
100
AcDbEntity
  8
外形線
 48
10.0
100
AcDbLine
 10
1108.399561566736
 20
1152.180676686204
 30
0.0
 11
1108.399561566736
 21
1037.192885238951
 31
0.0
  0
LINE
  5
4ADD
330
4A81
100
AcDbEntity
  8
外形線
 48
10.0
100
AcDbLine
 10
1108.899561566736
 20
1036.686780962578
 30
0.0
 11
1122.906212651831
 21
1036.937372243068
 31
0.0
  0
LINE
  5
4ADE
330
4A81
100
AcDbEntity
  8
外形線
 48
10.0
100
AcDbLine
 10
1108.899561566736
 20
1036.686780962578
 30
0.0
 11
1108.399561566736
 21
1037.192885238951
 31
0.0
  0
LINE
  5
4ADF
330
4A81
100
AcDbEntity
  8
外形線
 48
10.0
100
AcDbLine
 10
1108.399561566736
 20
1038.192885238951
 30
0.0
 11
1108.399561566736
 21
1038.692885238951
 31
0.0
  0
LINE
  5
4AE0
330
4A81
100
AcDbEntity
  8
外形線
 48
10.0
100
AcDbLine
 10
1035.022931603883
 20
1071.442246865485
 30
0.0
 11
1041.278741748243
 21
1046.351562814666
 31
0.0
  0
ARC
  5
4AE1
330
4A81
100
AcDbEntity
  8
外形線
 48
10.0
100
AcDbCircle
 10
1046.130220379623
 20
1047.561172292664
 30
0.0
 40
5.0
100
AcDbArc
 50
193.999999999996
 51
268.7
  0
ARC
  5
4AE2
330
4A81
100
AcDbEntity
  8
外形線
 48
10.0
100
AcDbCircle
 10
1034.052635877606
 20
1071.200324969886
 30
0.0
 40
1.0
100
AcDbArc
 50
13.999999999996
 51
89.000000000011
  0
ARC
  5
4AE3
330
4A81
100
AcDbEntity
  8
外形線
 48
10.0
100
AcDbCircle
 10
1069.398525663106
 20
1041.031595836918
 30
0.0
 40
1.0
100
AcDbArc
 50
0.0
 51
88.7
  0
ARC
  5
4AE4
330
4A81
100
AcDbEntity
  8
外形線
 48
10.0
100
AcDbCircle
 10
1071.398525663106
 20
1031.186780962577
 30
0.0
 40
1.0
100
AcDbArc
 50
180.0
 51
270.0
  0
ARC
  5
4AE5
330
4A81
100
AcDbEntity
  8
外形線
 48
10.0
100
AcDbCircle
 10
1105.398525663105
 20
1031.186780962577
 30
0.0
 40
1.0
100
AcDbArc
 50
270.0
 51
0.0
  0
LINE
  5
4AE6
330
4A81
100
AcDbEntity
  8
外形線
 48
10.0
100
AcDbLine
 10
1070.398525663106
 20
1031.186780962577
 30
0.0
 11
1070.398525663106
 21
1041.031595836918
 31
0.0
  0
LINE
  5
4AE7
330
4A81
100
AcDbEntity
  8
外形線
 48
10.0
100
AcDbLine
 10
1046.016783711759
 20
1042.56245924605
 30
0.0
 11
1099.098349930826
 21
1041.35786999663
 31
0.0
  0
LINE
  5
4AE8
330
4A81
100
AcDbEntity
  8
外形線
 48
10.0
100
AcDbLine
 10
1021.881073256668
 20
1072.412932713756
 30
0.0
 11
1034.070088284044
 21
1072.200172665042
 31
0.0
  0
LINE
  5
4AE9
330
4A81
100
AcDbEntity
  8
外形線
 48
10.0
100
AcDbLine
 10
1106.398525663105
 20
1040.711780962577
 30
0.0
 11
1106.398525663105
 21
1031.186780962577
 31
0.0
  0
LINE
  5
4AEA
330
4A81
100
AcDbEntity
  8
外形線
 48
10.0
100
AcDbLine
 10
1106.398525663105
 20
1040.711780962577
 30
0.0
 11
1106.398525663105
 21
1152.686780962578
 31
0.0
  0
LINE
  5
4AEB
330
4A81
100
AcDbEntity
  8
外形線
 48
10.0
100
AcDbLine
 10
1105.398525663105
 20
1030.186780962577
 30
0.0
 11
1071.398525663106
 21
1030.186780962577
 31
0.0
  0
LINE
  5
4AEC
330
4A81
100
AcDbEntity
  8
外形線
 48
10.0
100
AcDbLine
 10
1103.398525663106
 20
1036.95900251561
 30
0.0
 11
1103.398525663105
 21
1036.692885238951
 31
0.0
  0
LINE
  5
4AED
330
4A81
100
AcDbEntity
  8
外形線
 48
10.0
100
AcDbLine
 10
1106.398525663105
 20
1036.692885238951
 30
0.0
 11
1103.398525663105
 21
1036.692885238951
 31
0.0
  0
ARC
  5
4AEE
330
4A81
100
AcDbEntity
  8
外形線
 48
10.0
100
AcDbCircle
 10
1107.898525663105
 20
1039.211780962577
 30
0.0
 40
1.499999999999659
100
AcDbArc
 50
179.99999999998
 51
289.471220634515
  0
ARC
  5
4AEF
330
4A81
100
AcDbEntity
  8
外形線
 48
10.0
100
AcDbCircle
 10
1098.998525663106
 20
1036.95900251561
 30
0.0
 40
4.4
100
AcDbArc
 50
0.0
 51
88.7
  0
LINE
  5
4AF0
330
4A81
100
AcDbEntity
  8
細線
 48
10.0
100
AcDbLine
 10
1103.398525663105
 20
1152.686780962578
 30
0.0
 11
1103.398525663106
 21
1036.95900251561
 31
0.0
  0
LINE
  5
4AF1
330
4A81
100
AcDbEntity
  8
細線
 48
10.0
100
AcDbLine
 10
1034.837298404406
 20
1072.186780962578
 30
0.0
 11
1034.840933619068
 21
1117.201361012233
 31
0.0
  0
LINE
  5
4AF2
330
4A81
100
AcDbEntity
  8
細線
 48
10.0
100
AcDbLine
 10
1042.201886517784
 20
1144.905639229587
 30
0.0
 11
1042.201886517784
 21
1044.467922695569
 31
0.0
  0
LINE
  5
4AF3
330
4A81
100
AcDbEntity
  8
外形線
 48
10.0
100
AcDbLine
 10
1135.898508800172
 20
1138.913208309413
 30
0.0
 11
1135.896646406194
 21
1101.646260115989
 31
0.0
  0
ARC
  5
4AF4
330
4A81
100
AcDbEntity
  8
細線
 48
10.0
100
AcDbCircle
 10
1135.397834558349
 20
1125.421480922695
 30
0.0
 40
0.5
100
AcDbArc
 50
359.997136676878
 51
74.206830951738
  0
ARC
  5
4AF5
330
4A81
100
AcDbEntity
  8
細線
 48
10.0
100
AcDbCircle
 10
1135.397869895098
 20
1126.128577709141
 30
0.0
 40
0.5
100
AcDbArc
 50
359.997136676878
 51
74.206830951738
  0
LINE
  5
4AF6
330
4A81
100
AcDbEntity
  8
細線
 48
10.0
100
AcDbLine
 10
1135.533917321837
 20
1125.90260614702
 30
0.0
 11
1123.762442899618
 21
1129.232081902426
 31
0.0
  0
LINE
  5
4AF7
330
4A81
100
AcDbEntity
  8
中心線
 48
10.0
100
AcDbLine
 10
1088.398525663106
 20
1052.03299312045
 30
0.0
 11
1088.398525663106
 21
1013.722487401784
 31
0.0
  0
ENDBLK
  5
4AF8
330
4A81
100
AcDbEntity
  8
0
 48
10.0
100
AcDbBlockEnd
  0
BLOCK
  5
4FBF
330
4FB5
100
AcDbEntity
  8
0
 48
10.0
100
AcDbBlockBegin
  2
*D7
 70
     1
 10
0.0
 20
0.0
 30
0.0
  3
*D7
  1

  0
LINE
  5
557B
330
4FB5
100
AcDbEntity
  8
寸法線
 62
     0
 48
10.0
100
AcDbLine
 10
470.305927854654
 20
950.046078629648
 30
0.0
 11
470.305927854654
 21
871.922458021184
 31
0.0
  0
LINE
  5
557C
330
4FB5
100
AcDbEntity
  8
寸法線
 62
     0
 48
10.0
100
AcDbLine
 10
490.305927854654
 20
950.046768400442
 30
0.0
 11
490.305927854654
 21
871.922458021184
 31
0.0
  0
LINE
  5
557D
330
4FB5
100
AcDbEntity
  8
寸法線
 62
     0
 48
10.0
100
AcDbLine
 10
476.305927854654
 20
873.172458021184
 30
0.0
 11
484.305927854654
 21
873.172458021184
 31
0.0
  0
INSERT
  5
557E
330
4FB5
100
AcDbEntity
  8
寸法線
 62
     0
 48
10.0
100
AcDbBlockReference
  2
_OPEN30
 10
470.305927854654
 20
873.172458021184
 30
0.0
 41
6.0
 42
6.0
 43
6.0
 50
180.0
  0
INSERT
  5
557F
330
4FB5
100
AcDbEntity
  8
寸法線
 62
     0
 48
10.0
100
AcDbBlockReference
  2
_OPEN30
 10
490.305927854654
 20
873.172458021184
 30
0.0
 41
6.0
 42
6.0
 43
6.0
  0
MTEXT
  5
5580
330
4FB5
100
AcDbEntity
  8
寸法線
 62
     0
 48
10.0
100
AcDbMText
 10
480.305927854654
 20
877.798245422759
 30
0.0
 40
8.0
 41
0.0
 71
     5
 72
     1
  1
\A1;20
  0
POINT
  5
5581
330
4FB5
100
AcDbEntity
  8
DEFPOINTS
 62
     0
 48
10.0
100
AcDbPoint
 10
470.305927854654
 20
950.671078629648
 30
0.0
  0
POINT
  5
5582
330
4FB5
100
AcDbEntity
  8
DEFPOINTS
 62
     0
 48
10.0
100
AcDbPoint
 10
490.305927854654
 20
950.671768400442
 30
0.0
  0
POINT
  5
5583
330
4FB5
100
AcDbEntity
  8
DEFPOINTS
 62
     0
 48
10.0
100
AcDbPoint
 10
490.305927854654
 20
873.172458021184
 30
0.0
  0
ENDBLK
  5
4FC0
330
4FB5
100
AcDbEntity
  8
0
 48
10.0
100
AcDbBlockEnd
  0
BLOCK
  5
4FCB
330
4FC1
100
AcDbEntity
  8
0
 48
10.0
100
AcDbBlockBegin
  2
*D8
 70
     1
 10
0.0
 20
0.0
 30
0.0
  3
*D8
  1

  0
LINE
  5
5572
330
4FC1
100
AcDbEntity
  8
寸法線
 62
     0
 48
10.0
100
AcDbLine
 10
490.305927854654
 20
950.046768400442
 30
0.0
 11
490.305927854654
 21
871.922458021184
 31
0.0
  0
LINE
  5
5573
330
4FC1
100
AcDbEntity
  8
寸法線
 62
     0
 48
10.0
100
AcDbLine
 10
578.805927854654
 20
905.547458168714
 30
0.0
 11
578.805927854654
 21
871.922458021184
 31
0.0
  0
LINE
  5
5574
330
4FC1
100
AcDbEntity
  8
寸法線
 62
     0
 48
10.0
100
AcDbLine
 10
496.305927854654
 20
873.172458021184
 30
0.0
 11
572.805927854654
 21
873.172458021184
 31
0.0
  0
INSERT
  5
5575
330
4FC1
100
AcDbEntity
  8
寸法線
 62
     0
 48
10.0
100
AcDbBlockReference
  2
_OPEN30
 10
490.305927854654
 20
873.172458021184
 30
0.0
 41
6.0
 42
6.0
 43
6.0
 50
180.0
  0
INSERT
  5
5576
330
4FC1
100
AcDbEntity
  8
寸法線
 62
     0
 48
10.0
100
AcDbBlockReference
  2
_OPEN30
 10
578.805927854654
 20
873.172458021184
 30
0.0
 41
6.0
 42
6.0
 43
6.0
  0
MTEXT
  5
5577
330
4FC1
100
AcDbEntity
  8
寸法線
 62
     0
 48
10.0
100
AcDbMText
 10
534.555927854654
 20
877.797458021184
 30
0.0
 40
8.0
 41
0.0
 71
     5
 72
     1
  1
\A1;88
  0
POINT
  5
5578
330
4FC1
100
AcDbEntity
  8
DEFPOINTS
 62
     0
 48
10.0
100
AcDbPoint
 10
490.305927854654
 20
950.671768400442
 30
0.0
  0
POINT
  5
5579
330
4FC1
100
AcDbEntity
  8
DEFPOINTS
 62
     0
 48
10.0
100
AcDbPoint
 10
578.805927854654
 20
906.172458168714
 30
0.0
  0
POINT
  5
557A
330
4FC1
100
AcDbEntity
  8
DEFPOINTS
 62
     0
 48
10.0
100
AcDbPoint
 10
578.805927854654
 20
873.172458021184
 30
0.0
  0
ENDBLK
  5
4FCC
330
4FC1
100
AcDbEntity
  8
0
 48
10.0
100
AcDbBlockEnd
  0
BLOCK
  5
4FD7
330
4FCD
100
AcDbEntity
  8
0
 48
10.0
100
AcDbBlockBegin
  2
*D9
 70
     1
 10
0.0
 20
0.0
 30
0.0
  3
*D9
  1

  0
LINE
  5
5569
330
4FCD
100
AcDbEntity
  8
寸法線
 62
     0
 48
10.0
100
AcDbLine
 10
578.805927854654
 20
905.547458168714
 30
0.0
 11
578.805927854654
 21
871.922458021184
 31
0.0
  0
LINE
  5
556A
330
4FCD
100
AcDbEntity
  8
寸法線
 62
     0
 48
10.0
100
AcDbLine
 10
608.305927854654
 20
924.82101263892
 30
0.0
 11
608.305927854654
 21
871.922458021184
 31
0.0
  0
LINE
  5
556B
330
4FCD
100
AcDbEntity
  8
寸法線
 62
     0
 48
10.0
100
AcDbLine
 10
584.805927854654
 20
873.172458021184
 30
0.0
 11
602.305927854654
 21
873.172458021184
 31
0.0
  0
INSERT
  5
556C
330
4FCD
100
AcDbEntity
  8
寸法線
 62
     0
 48
10.0
100
AcDbBlockReference
  2
_OPEN30
 10
578.805927854654
 20
873.172458021184
 30
0.0
 41
6.0
 42
6.0
 43
6.0
 50
180.0
  0
INSERT
  5
556D
330
4FCD
100
AcDbEntity
  8
寸法線
 62
     0
 48
10.0
100
AcDbBlockReference
  2
_OPEN30
 10
608.305927854654
 20
873.172458021184
 30
0.0
 41
6.0
 42
6.0
 43
6.0
  0
MTEXT
  5
556E
330
4FCD
100
AcDbEntity
  8
寸法線
 62
     0
 48
10.0
100
AcDbMText
 10
593.555927854654
 20
877.797458021184
 30
0.0
 40
8.0
 41
0.0
 71
     5
 72
     1
  1
\A1;30
  0
POINT
  5
556F
330
4FCD
100
AcDbEntity
  8
DEFPOINTS
 62
     0
 48
10.0
100
AcDbPoint
 10
578.805927854654
 20
906.172458168714
 30
0.0
  0
POINT
  5
5570
330
4FCD
100
AcDbEntity
  8
DEFPOINTS
 62
     0
 48
10.0
100
AcDbPoint
 10
608.305927854654
 20
925.44601263892
 30
0.0
  0
POINT
  5
5571
330
4FCD
100
AcDbEntity
  8
DEFPOINTS
 62
     0
 48
10.0
100
AcDbPoint
 10
608.305927854654
 20
873.172458021184
 30
0.0
  0
ENDBLK
  5
4FD8
330
4FCD
100
AcDbEntity
  8
0
 48
10.0
100
AcDbBlockEnd
  0
BLOCK
  5
4FE3
330
4FD9
100
AcDbEntity
  8
0
 48
10.0
100
AcDbBlockBegin
  2
*D10
 70
     1
 10
0.0
 20
0.0
 30
0.0
  3
*D10
  1

  0
LINE
  5
5560
330
4FD9
100
AcDbEntity
  8
寸法線
 62
     0
 48
10.0
100
AcDbLine
 10
597.256483527125
 20
911.672458168714
 30
0.0
 11
634.187593453061
 21
911.672458168714
 31
0.0
  0
LINE
  5
5561
330
4FD9
100
AcDbEntity
  8
寸法線
 62
     0
 48
10.0
100
AcDbLine
 10
597.17204373008
 20
1027.672458168714
 30
0.0
 11
634.187593453061
 21
1027.672458168714
 31
0.0
  0
LINE
  5
5562
330
4FD9
100
AcDbEntity
  8
寸法線
 62
     0
 48
10.0
100
AcDbLine
 10
632.937593453061
 20
917.672458168714
 30
0.0
 11
632.937593453061
 21
1021.672458168714
 31
0.0
  0
INSERT
  5
5563
330
4FD9
100
AcDbEntity
  8
寸法線
 62
     0
100
AcDbBlockReference
  2
_OPEN30
 10
632.937593453061
 20
911.672458168714
 30
0.0
 41
6.0
 42
6.0
 43
6.0
 50
270.0
  0
INSERT
  5
5564
330
4FD9
100
AcDbEntity
  8
寸法線
 62
     0
100
AcDbBlockReference
  2
_OPEN30
 10
632.937593453061
 20
1027.672458168714
 30
0.0
 41
6.0
 42
6.0
 43
6.0
 50
90.0
  0
MTEXT
  5
5565
330
4FD9
100
AcDbEntity
  8
寸法線
 62
     0
 48
10.0
100
AcDbMText
 10
628.312593453061
 20
969.672458168714
 30
0.0
 40
8.0
 41
0.0
 71
     5
 72
     1
  1
\A1;φ116
 11
0.0
 21
1.0
 31
0.0
  0
POINT
  5
5566
330
4FD9
100
AcDbEntity
  8
DEFPOINTS
 62
     0
100
AcDbPoint
 10
596.631483527125
 20
911.672458168714
 30
0.0
  0
POINT
  5
5567
330
4FD9
100
AcDbEntity
  8
DEFPOINTS
 62
     0
100
AcDbPoint
 10
596.54704373008
 20
1027.672458168714
 30
0.0
  0
POINT
  5
5568
330
4FD9
100
AcDbEntity
  8
DEFPOINTS
 62
     0
100
AcDbPoint
 10
632.937593453061
 20
1027.672458168714
 30
0.0
  0
ENDBLK
  5
4FE4
330
4FD9
100
AcDbEntity
  8
0
 48
10.0
100
AcDbBlockEnd
  0
BLOCK
  5
4FFB
330
4FF1
100
AcDbEntity
  8
0
 48
10.0
100
AcDbBlockBegin
  2
*D11
 70
     1
 10
0.0
 20
0.0
 30
0.0
  3
*D11
  1

  0
LINE
  5
5557
330
4FF1
100
AcDbEntity
  8
寸法線
 62
     0
 48
10.0
100
AcDbLine
 10
195.305927854654
 20
961.047458168714
 30
0.0
 11
195.305927854654
 21
851.922458021184
 31
0.0
  0
LINE
  5
5558
330
4FF1
100
AcDbEntity
  8
寸法線
 62
     0
 48
10.0
100
AcDbLine
 10
445.305927854654
 20
953.297958168714
 30
0.0
 11
445.305927854654
 21
851.922458021184
 31
0.0
  0
LINE
  5
5559
330
4FF1
100
AcDbEntity
  8
寸法線
 62
     0
 48
10.0
100
AcDbLine
 10
201.305927854654
 20
853.172458021184
 30
0.0
 11
439.305927854654
 21
853.172458021184
 31
0.0
  0
INSERT
  5
555A
330
4FF1
100
AcDbEntity
  8
寸法線
 62
     0
 48
10.0
100
AcDbBlockReference
  2
_OPEN30
 10
195.305927854654
 20
853.172458021184
 30
0.0
 41
6.0
 42
6.0
 43
6.0
 50
180.0
  0
INSERT
  5
555B
330
4FF1
100
AcDbEntity
  8
寸法線
 62
     0
 48
10.0
100
AcDbBlockReference
  2
_OPEN30
 10
445.305927854654
 20
853.172458021184
 30
0.0
 41
6.0
 42
6.0
 43
6.0
  0
MTEXT
  5
555C
330
4FF1
100
AcDbEntity
  8
寸法線
 62
     0
 48
10.0
100
AcDbMText
 10
320.305927854654
 20
857.797458021184
 30
0.0
 40
8.0
 41
0.0
 71
     5
 72
     1
  1
\A1;　
  0
POINT
  5
555D
330
4FF1
100
AcDbEntity
  8
DEFPOINTS
 62
     0
 48
10.0
100
AcDbPoint
 10
195.305927854654
 20
961.672458168714
 30
0.0
  0
POINT
  5
555E
330
4FF1
100
AcDbEntity
  8
DEFPOINTS
 62
     0
 48
10.0
100
AcDbPoint
 10
445.305927854654
 20
953.922958168714
 30
0.0
  0
POINT
  5
555F
330
4FF1
100
AcDbEntity
  8
DEFPOINTS
 62
     0
 48
10.0
100
AcDbPoint
 10
445.305927854654
 20
853.172458021184
 30
0.0
  0
ENDBLK
  5
4FFC
330
4FF1
100
AcDbEntity
  8
0
 48
10.0
100
AcDbBlockEnd
  0
BLOCK
  5
5007
330
4FFD
100
AcDbEntity
  8
0
 48
10.0
100
AcDbBlockBegin
  2
*D12
 70
     1
 10
0.0
 20
0.0
 30
0.0
  3
*D12
  1

  0
LINE
  5
554E
330
4FFD
100
AcDbEntity
  8
寸法線
 62
     0
 48
10.0
100
AcDbLine
 10
345.305927854654
 20
958.297458168714
 30
0.0
 11
345.305927854654
 21
871.922458021184
 31
0.0
  0
LINE
  5
554F
330
4FFD
100
AcDbEntity
  8
寸法線
 62
     0
 48
10.0
100
AcDbLine
 10
445.305927854654
 20
953.297958168714
 30
0.0
 11
445.305927854654
 21
871.922458021184
 31
0.0
  0
LINE
  5
5550
330
4FFD
100
AcDbEntity
  8
寸法線
 62
     0
 48
10.0
100
AcDbLine
 10
351.305927854654
 20
873.172458021184
 30
0.0
 11
439.305927854654
 21
873.172458021184
 31
0.0
  0
INSERT
  5
5551
330
4FFD
100
AcDbEntity
  8
寸法線
 62
     0
 48
10.0
100
AcDbBlockReference
  2
_OPEN30
 10
345.305927854654
 20
873.172458021184
 30
0.0
 41
6.0
 42
6.0
 43
6.0
 50
180.0
  0
INSERT
  5
5552
330
4FFD
100
AcDbEntity
  8
寸法線
 62
     0
 48
10.0
100
AcDbBlockReference
  2
_OPEN30
 10
445.305927854654
 20
873.172458021184
 30
0.0
 41
6.0
 42
6.0
 43
6.0
  0
MTEXT
  5
5553
330
4FFD
100
AcDbEntity
  8
寸法線
 62
     0
 48
10.0
100
AcDbMText
 10
395.305927854654
 20
877.797458021184
 30
0.0
 40
8.0
 41
0.0
 71
     5
 72
     1
  1
\A1;　
  0
POINT
  5
5554
330
4FFD
100
AcDbEntity
  8
DEFPOINTS
 62
     0
 48
10.0
100
AcDbPoint
 10
345.305927854654
 20
958.922458168714
 30
0.0
  0
POINT
  5
5555
330
4FFD
100
AcDbEntity
  8
DEFPOINTS
 62
     0
 48
10.0
100
AcDbPoint
 10
445.305927854654
 20
953.922958168714
 30
0.0
  0
POINT
  5
5556
330
4FFD
100
AcDbEntity
  8
DEFPOINTS
 62
     0
 48
10.0
100
AcDbPoint
 10
445.305927854654
 20
873.172458021184
 30
0.0
  0
ENDBLK
  5
5008
330
4FFD
100
AcDbEntity
  8
0
 48
10.0
100
AcDbBlockEnd
  0
BLOCK
  5
5013
330
5009
100
AcDbEntity
  8
0
 48
10.0
100
AcDbBlockBegin
  2
*D13
 70
     1
 10
0.0
 20
0.0
 30
0.0
  3
*D13
  1

  0
LINE
  5
5545
330
5009
100
AcDbEntity
  8
寸法線
 62
     0
 48
10.0
100
AcDbLine
 10
295.305927854654
 20
958.797458168714
 30
0.0
 11
295.305927854654
 21
871.922458021184
 31
0.0
  0
LINE
  5
5546
330
5009
100
AcDbEntity
  8
寸法線
 62
     0
 48
10.0
100
AcDbLine
 10
345.305927854654
 20
958.297458168714
 30
0.0
 11
345.305927854654
 21
871.922458021184
 31
0.0
  0
LINE
  5
5547
330
5009
100
AcDbEntity
  8
寸法線
 62
     0
 48
10.0
100
AcDbLine
 10
301.305927854654
 20
873.172458021184
 30
0.0
 11
339.305927854654
 21
873.172458021184
 31
0.0
  0
INSERT
  5
5548
330
5009
100
AcDbEntity
  8
寸法線
 62
     0
 48
10.0
100
AcDbBlockReference
  2
_OPEN30
 10
295.305927854654
 20
873.172458021184
 30
0.0
 41
6.0
 42
6.0
 43
6.0
 50
180.0
  0
INSERT
  5
5549
330
5009
100
AcDbEntity
  8
寸法線
 62
     0
 48
10.0
100
AcDbBlockReference
  2
_OPEN30
 10
345.305927854654
 20
873.172458021184
 30
0.0
 41
6.0
 42
6.0
 43
6.0
  0
MTEXT
  5
554A
330
5009
100
AcDbEntity
  8
寸法線
 62
     0
 48
10.0
100
AcDbMText
 10
320.305927854654
 20
877.797458021184
 30
0.0
 40
8.0
 41
0.0
 71
     5
 72
     1
  1
\A1;　
  0
POINT
  5
554B
330
5009
100
AcDbEntity
  8
DEFPOINTS
 62
     0
 48
10.0
100
AcDbPoint
 10
295.305927854654
 20
959.422458168714
 30
0.0
  0
POINT
  5
554C
330
5009
100
AcDbEntity
  8
DEFPOINTS
 62
     0
 48
10.0
100
AcDbPoint
 10
345.305927854654
 20
958.922458168714
 30
0.0
  0
POINT
  5
554D
330
5009
100
AcDbEntity
  8
DEFPOINTS
 62
     0
 48
10.0
100
AcDbPoint
 10
345.305927854654
 20
873.172458021184
 30
0.0
  0
ENDBLK
  5
5014
330
5009
100
AcDbEntity
  8
0
 48
10.0
100
AcDbBlockEnd
  0
BLOCK
  5
501F
330
5015
100
AcDbEntity
  8
0
 48
10.0
100
AcDbBlockBegin
  2
*D14
 70
     1
 10
0.0
 20
0.0
 30
0.0
  3
*D14
  1

  0
LINE
  5
553C
330
5015
100
AcDbEntity
  8
寸法線
 62
     0
 48
10.0
100
AcDbLine
 10
195.305927854654
 20
961.047458168714
 30
0.0
 11
195.305927854654
 21
871.922458021184
 31
0.0
  0
LINE
  5
553D
330
5015
100
AcDbEntity
  8
寸法線
 62
     0
 48
10.0
100
AcDbLine
 10
295.305927854654
 20
958.797458168714
 30
0.0
 11
295.305927854654
 21
871.922458021184
 31
0.0
  0
LINE
  5
553E
330
5015
100
AcDbEntity
  8
寸法線
 62
     0
 48
10.0
100
AcDbLine
 10
201.305927854654
 20
873.172458021184
 30
0.0
 11
289.305927854654
 21
873.172458021184
 31
0.0
  0
INSERT
  5
553F
330
5015
100
AcDbEntity
  8
寸法線
 62
     0
 48
10.0
100
AcDbBlockReference
  2
_OPEN30
 10
195.305927854654
 20
873.172458021184
 30
0.0
 41
6.0
 42
6.0
 43
6.0
 50
180.0
  0
INSERT
  5
5540
330
5015
100
AcDbEntity
  8
寸法線
 62
     0
 48
10.0
100
AcDbBlockReference
  2
_OPEN30
 10
295.305927854654
 20
873.172458021184
 30
0.0
 41
6.0
 42
6.0
 43
6.0
  0
MTEXT
  5
5541
330
5015
100
AcDbEntity
  8
寸法線
 62
     0
 48
10.0
100
AcDbMText
 10
245.305927854654
 20
877.797458021184
 30
0.0
 40
8.0
 41
0.0
 71
     5
 72
     1
  1
\A1;　
  0
POINT
  5
5542
330
5015
100
AcDbEntity
  8
DEFPOINTS
 62
     0
 48
10.0
100
AcDbPoint
 10
195.305927854654
 20
961.672458168714
 30
0.0
  0
POINT
  5
5543
330
5015
100
AcDbEntity
  8
DEFPOINTS
 62
     0
 48
10.0
100
AcDbPoint
 10
295.305927854654
 20
959.422458168714
 30
0.0
  0
POINT
  5
5544
330
5015
100
AcDbEntity
  8
DEFPOINTS
 62
     0
 48
10.0
100
AcDbPoint
 10
295.305927854654
 20
873.172458021184
 30
0.0
  0
ENDBLK
  5
5020
330
5015
100
AcDbEntity
  8
0
 48
10.0
100
AcDbBlockEnd
  0
BLOCK
  5
51C0
330
51B6
100
AcDbEntity
  8
0
 48
10.0
100
AcDbBlockBegin
  2
*D18
 70
     1
 10
0.0
 20
0.0
 30
0.0
  3
*D18
  1

  0
LINE
  5
5519
330
51B6
100
AcDbEntity
  8
寸法線
 62
     0
 48
10.0
100
AcDbLine
 10
445.305927854654
 20
953.297958168714
 30
0.0
 11
445.305927854654
 21
871.922458021184
 31
0.0
  0
LINE
  5
551A
330
51B6
100
AcDbEntity
  8
寸法線
 62
     0
 48
10.0
100
AcDbLine
 10
470.305927854654
 20
950.046078629648
 30
0.0
 11
470.305927854654
 21
871.922458021184
 31
0.0
  0
LINE
  5
551B
330
51B6
100
AcDbEntity
  8
寸法線
 62
     0
 48
10.0
100
AcDbLine
 10
451.305927854654
 20
873.172458021184
 30
0.0
 11
464.305927854654
 21
873.172458021184
 31
0.0
  0
INSERT
  5
551C
330
51B6
100
AcDbEntity
  8
寸法線
 62
     0
 48
10.0
100
AcDbBlockReference
  2
_OPEN30
 10
445.305927854654
 20
873.172458021184
 30
0.0
 41
6.0
 42
6.0
 43
6.0
 50
180.0
  0
INSERT
  5
551D
330
51B6
100
AcDbEntity
  8
寸法線
 62
     0
 48
10.0
100
AcDbBlockReference
  2
_OPEN30
 10
470.305927854654
 20
873.172458021184
 30
0.0
 41
6.0
 42
6.0
 43
6.0
  0
MTEXT
  5
551E
330
51B6
100
AcDbEntity
  8
寸法線
 62
     0
 48
10.0
100
AcDbMText
 10
457.805927854654
 20
877.798245422759
 30
0.0
 40
8.0
 41
0.0
 71
     5
 72
     1
  1
\A1;25
  0
POINT
  5
551F
330
51B6
100
AcDbEntity
  8
DEFPOINTS
 62
     0
 48
10.0
100
AcDbPoint
 10
445.305927854654
 20
953.922958168714
 30
0.0
  0
POINT
  5
5520
330
51B6
100
AcDbEntity
  8
DEFPOINTS
 62
     0
 48
10.0
100
AcDbPoint
 10
470.305927854654
 20
950.671078629648
 30
0.0
  0
POINT
  5
5521
330
51B6
100
AcDbEntity
  8
DEFPOINTS
 62
     0
 48
10.0
100
AcDbPoint
 10
470.305927854654
 20
873.172458021184
 30
0.0
  0
ENDBLK
  5
51C1
330
51B6
100
AcDbEntity
  8
0
 48
10.0
100
AcDbBlockEnd
  0
BLOCK
  5
51F9
330
51EF
100
AcDbEntity
  8
0
 48
10.0
100
AcDbBlockBegin
  2
*D20
 70
     1
 10
0.0
 20
0.0
 30
0.0
  3
*D20
  1

  0
LINE
  5
5507
330
51EF
100
AcDbEntity
  8
寸法線
 62
     0
 48
10.0
100
AcDbLine
 10
445.305927854654
 20
872.547458021184
 30
0.0
 11
445.305927854654
 21
851.922458021184
 31
0.0
  0
LINE
  5
5508
330
51EF
100
AcDbEntity
  8
寸法線
 62
     0
 48
10.0
100
AcDbLine
 10
608.305927854654
 20
924.82101263892
 30
0.0
 11
608.305927854654
 21
851.922458021184
 31
0.0
  0
LINE
  5
5509
330
51EF
100
AcDbEntity
  8
寸法線
 62
     0
 48
10.0
100
AcDbLine
 10
451.305927854654
 20
853.172458021184
 30
0.0
 11
602.305927854654
 21
853.172458021184
 31
0.0
  0
INSERT
  5
550A
330
51EF
100
AcDbEntity
  8
寸法線
 62
     0
100
AcDbBlockReference
  2
_OPEN30
 10
445.305927854654
 20
853.172458021184
 30
0.0
 41
6.0
 42
6.0
 43
6.0
 50
180.0
  0
INSERT
  5
550B
330
51EF
100
AcDbEntity
  8
寸法線
 62
     0
100
AcDbBlockReference
  2
_OPEN30
 10
608.305927854654
 20
853.172458021184
 30
0.0
 41
6.0
 42
6.0
 43
6.0
  0
MTEXT
  5
550C
330
51EF
100
AcDbEntity
  8
寸法線
 62
     0
 48
10.0
100
AcDbMText
 10
526.805927854654
 20
857.797458021184
 30
0.0
 40
8.0
 41
0.0
 71
     5
 72
     1
  1
\A1;163
  0
POINT
  5
550D
330
51EF
100
AcDbEntity
  8
DEFPOINTS
 62
     0
100
AcDbPoint
 10
445.305927854654
 20
873.172458021184
 30
0.0
  0
POINT
  5
550E
330
51EF
100
AcDbEntity
  8
DEFPOINTS
 62
     0
100
AcDbPoint
 10
608.305927854654
 20
925.44601263892
 30
0.0
  0
POINT
  5
550F
330
51EF
100
AcDbEntity
  8
DEFPOINTS
 62
     0
100
AcDbPoint
 10
608.305927854654
 20
853.172458021184
 30
0.0
  0
ENDBLK
  5
51FA
330
51EF
100
AcDbEntity
  8
0
 48
10.0
100
AcDbBlockEnd
  0
BLOCK
  5
5BB8
330
5BB7
100
AcDbEntity
  8
0
100
AcDbBlockBegin
  2
*D25
 70
     1
 10
0.0
 20
0.0
 30
0.0
  3
*D25
  1

  0
LINE
  5
5BBA
330
5BB7
100
AcDbEntity
  8
寸法線
 62
     0
 48
10.0
100
AcDbLine
 10
195.680927854654
 20
980.422458168714
 30
0.0
 11
181.417459598382
 21
980.422458168714
 31
0.0
  0
LINE
  5
5BBB
330
5BB7
100
AcDbEntity
  8
寸法線
 62
     0
 48
10.0
100
AcDbLine
 10
195.680927854654
 20
958.922458168714
 30
0.0
 11
181.417459598382
 21
958.922458168714
 31
0.0
  0
LINE
  5
5BBC
330
5BB7
100
AcDbEntity
  8
寸法線
 62
     0
 48
10.0
100
AcDbLine
 10
182.667459598382
 20
980.422458168714
 30
0.0
 11
182.667459598382
 21
1011.53912483538
 31
0.0
  0
LINE
  5
5BBD
330
5BB7
100
AcDbEntity
  8
寸法線
 62
     0
 48
10.0
100
AcDbLine
 10
182.667459598382
 20
974.422458168714
 30
0.0
 11
182.667459598382
 21
964.922458168714
 31
0.0
  0
INSERT
  5
5BBE
330
5BB7
100
AcDbEntity
  8
寸法線
 62
     0
100
AcDbBlockReference
  2
_OPEN30
 10
182.667459598382
 20
980.422458168714
 30
0.0
 41
6.0
 42
6.0
 43
6.0
 50
90.0
  0
INSERT
  5
5BBF
330
5BB7
100
AcDbEntity
  8
寸法線
 62
     0
100
AcDbBlockReference
  2
_OPEN30
 10
182.667459598382
 20
958.922458168714
 30
0.0
 41
6.0
 42
6.0
 43
6.0
 50
270.0
  0
MTEXT
  5
5BC0
330
5BB7
100
AcDbEntity
  8
寸法線
 62
     0
 48
10.0
100
AcDbMText
 10
178.038292931715
 20
998.980791502047
 30
0.0
 40
8.0
 41
0.0
 71
     5
 72
     1
  1
\A1;φ21.5
 11
0.0
 21
1.0
 31
0.0
  0
POINT
  5
5BC1
330
5BB7
100
AcDbEntity
  8
DEFPOINTS
 62
     0
100
AcDbPoint
 10
196.305927854654
 20
980.422458168714
 30
0.0
  0
POINT
  5
5BC2
330
5BB7
100
AcDbEntity
  8
DEFPOINTS
 62
     0
100
AcDbPoint
 10
196.305927854654
 20
958.922458168714
 30
0.0
  0
POINT
  5
5BC3
330
5BB7
100
AcDbEntity
  8
DEFPOINTS
 62
     0
100
AcDbPoint
 10
182.667459598382
 20
958.922458168714
 30
0.0
  0
ENDBLK
  5
5BB9
330
5BB7
100
AcDbEntity
  8
0
100
AcDbBlockEnd
  0
BLOCK
  5
5BC5
330
5BC4
100
AcDbEntity
  8
0
100
AcDbBlockBegin
  2
*D26
 70
     1
 10
0.0
 20
0.0
 30
0.0
  3
*D26
  1

  0
LINE
  5
5BC7
330
5BC4
100
AcDbEntity
  8
寸法線
 62
     0
 48
10.0
100
AcDbLine
 10
431.99540260369
 20
980.422458168714
 30
0.0
 11
431.99540260369
 21
1011.53912483538
 31
0.0
  0
LINE
  5
5BC8
330
5BC4
100
AcDbEntity
  8
寸法線
 62
     0
 48
10.0
100
AcDbLine
 10
431.99540260369
 20
974.422458168714
 30
0.0
 11
431.99540260369
 21
964.922458168714
 31
0.0
  0
INSERT
  5
5BC9
330
5BC4
100
AcDbEntity
  8
寸法線
 62
     0
100
AcDbBlockReference
  2
_OPEN30
 10
431.99540260369
 20
980.422458168714
 30
0.0
 41
6.0
 42
6.0
 43
6.0
 50
90.0
  0
INSERT
  5
5BCA
330
5BC4
100
AcDbEntity
  8
寸法線
 62
     0
100
AcDbBlockReference
  2
_OPEN30
 10
431.99540260369
 20
958.922458168714
 30
0.0
 41
6.0
 42
6.0
 43
6.0
 50
270.0
  0
MTEXT
  5
5BCB
330
5BC4
100
AcDbEntity
  8
寸法線
 62
     0
 48
10.0
100
AcDbMText
 10
427.366235937023
 20
998.980791502047
 30
0.0
 40
8.0
 41
0.0
 71
     5
 72
     1
  1
\A1;φ21.5
 11
0.0
 21
1.0
 31
0.0
  0
POINT
  5
5BCC
330
5BC4
100
AcDbEntity
  8
DEFPOINTS
 62
     0
100
AcDbPoint
 10
445.305927854654
 20
980.422458168714
 30
0.0
  0
POINT
  5
5BCD
330
5BC4
100
AcDbEntity
  8
DEFPOINTS
 62
     0
100
AcDbPoint
 10
445.305927854654
 20
958.922458168714
 30
0.0
  0
POINT
  5
5BCE
330
5BC4
100
AcDbEntity
  8
DEFPOINTS
 62
     0
100
AcDbPoint
 10
431.99540260369
 20
958.922458168714
 30
0.0
  0
ENDBLK
  5
5BC6
330
5BC4
100
AcDbEntity
  8
0
100
AcDbBlockEnd
  0
BLOCK
  5
5BD0
330
5BCF
100
AcDbEntity
  8
0
100
AcDbBlockBegin
  2
*D27
 70
     1
 10
0.0
 20
0.0
 30
0.0
  3
*D27
  1

  0
LINE
  5
5BD2
330
5BCF
100
AcDbEntity
  8
寸法線
 62
     0
 48
10.0
100
AcDbLine
 10
334.605652032218
 20
980.422458168714
 30
0.0
 11
334.605652032218
 21
1011.971476926996
 31
0.0
  0
LINE
  5
5BD3
330
5BCF
100
AcDbEntity
  8
寸法線
 62
     0
 48
10.0
100
AcDbLine
 10
334.605652032218
 20
974.422458168714
 30
0.0
 11
334.605652032218
 21
964.922458168714
 31
0.0
  0
INSERT
  5
5BD4
330
5BCF
100
AcDbEntity
  8
寸法線
 62
     0
100
AcDbBlockReference
  2
_OPEN30
 10
334.605652032218
 20
980.422458168714
 30
0.0
 41
6.0
 42
6.0
 43
6.0
 50
90.0
  0
INSERT
  5
5BD5
330
5BCF
100
AcDbEntity
  8
寸法線
 62
     0
100
AcDbBlockReference
  2
_OPEN30
 10
334.605652032218
 20
958.922458168714
 30
0.0
 41
6.0
 42
6.0
 43
6.0
 50
270.0
  0
MTEXT
  5
5BD6
330
5BCF
100
AcDbEntity
  8
寸法線
 62
     0
 48
10.0
100
AcDbMText
 10
329.976485365551
 20
999.413143593663
 30
0.0
 40
8.0
 41
0.0
 71
     5
 72
     1
  1
\A1;φ21.5
 11
0.0
 21
1.0
 31
0.0
  0
POINT
  5
5BD7
330
5BCF
100
AcDbEntity
  8
DEFPOINTS
 62
     0
100
AcDbPoint
 10
345.305927854654
 20
980.422458168714
 30
0.0
  0
POINT
  5
5BD8
330
5BCF
100
AcDbEntity
  8
DEFPOINTS
 62
     0
100
AcDbPoint
 10
345.305927854654
 20
958.922458168714
 30
0.0
  0
POINT
  5
5BD9
330
5BCF
100
AcDbEntity
  8
DEFPOINTS
 62
     0
100
AcDbPoint
 10
334.605652032218
 20
958.922458168714
 30
0.0
  0
ENDBLK
  5
5BD1
330
5BCF
100
AcDbEntity
  8
0
100
AcDbBlockEnd
  0
ENDSEC
  0
SECTION
  2
ENTITIES
  0
DIMENSION
  5
4F60
330
1A
100
AcDbEntity
  8
寸法線
 48
10.0
100
AcDbDimension
  2
*D7
 10
490.305927854654
 20
873.172458021184
 30
0.0
 11
480.305927854654
 21
877.798245422759
 31
0.0
 70
    32
  3
ISO-25
100
AcDbAlignedDimension
 13
470.305927854654
 23
950.671078629648
 33
0.0
 14
490.305927854654
 24
950.671768400442
 34
0.0
100
AcDbRotatedDimension
1001
ACAD
1000
DSTYLE
1002
{
1070
     5
1000
OPEN30
1070
    41
1040
6.0
1070
    47
1040
0.1
1070
    48
1040
0.1
1070
    73
1070
     0
1070
   140
1040
8.0
1070
   271
1070
     1
1070
   272
1070
     1
1070
   341
1005
2AF4
1002
}
  0
DIMENSION
  5
4F61
330
1A
100
AcDbEntity
  8
寸法線
 48
10.0
100
AcDbDimension
  2
*D8
 10
578.805927854654
 20
873.172458021184
 30
0.0
 11
534.555927854654
 21
877.797458021184
 31
0.0
 70
    32
  1
88
  3
ISO-25
100
AcDbAlignedDimension
 13
490.305927854654
 23
950.671768400442
 33
0.0
 14
578.805927854654
 24
906.172458168714
 34
0.0
100
AcDbRotatedDimension
1001
ACAD
1000
DSTYLE
1002
{
1070
     5
1000
OPEN30
1070
    41
1040
6.0
1070
    47
1040
0.1
1070
    48
1040
0.1
1070
    73
1070
     0
1070
   140
1040
8.0
1070
   271
1070
     1
1070
   272
1070
     1
1070
   341
1005
2AF4
1002
}
  0
DIMENSION
  5
4F62
330
1A
100
AcDbEntity
  8
寸法線
 48
10.0
100
AcDbDimension
  2
*D9
 10
608.305927854654
 20
873.172458021184
 30
0.0
 11
593.555927854654
 21
877.797458021184
 31
0.0
 70
    32
  1
30
  3
ISO-25
100
AcDbAlignedDimension
 13
578.805927854654
 23
906.172458168714
 33
0.0
 14
608.305927854654
 24
925.44601263892
 34
0.0
100
AcDbRotatedDimension
1001
ACAD
1000
DSTYLE
1002
{
1070
     5
1000
OPEN30
1070
    41
1040
6.0
1070
    47
1040
0.1
1070
    48
1040
0.1
1070
    73
1070
     0
1070
   140
1040
8.0
1070
   271
1070
     1
1070
   272
1070
     1
1070
   341
1005
2AF4
1002
}
  0
DIMENSION
  5
4F65
330
1A
100
AcDbEntity
  8
寸法線
 48
10.0
100
AcDbDimension
  2
*D10
 10
632.937593453061
 20
1027.672458168714
 30
0.0
 11
632.937593453061
 21
969.672458168714
 31
0.0
 70
   160
  1
φ<>
  3
ISO-25
100
AcDbAlignedDimension
 13
596.631483527125
 23
911.672458168714
 33
0.0
 14
596.54704373008
 24
1027.672458168714
 34
0.0
 50
90.0
100
AcDbRotatedDimension
1001
ACAD
1000
DSTYLE
1002
{
1070
     5
1000
OPEN30
1070
    41
1040
6.0
1070
    47
1040
0.1
1070
    48
1040
0.1
1070
    73
1070
     0
1070
   140
1040
8.0
1070
   271
1070
     1
1070
   272
1070
     1
1070
   341
1005
2AF4
1002
}
  0
LINE
  5
4F67
330
1A
100
AcDbEntity
  8
細線
100
AcDbLine
 10
473.305927854654
 20
980.641768400442
 30
0.0
 11
487.305927854654
 21
980.641768400442
 31
0.0
  0
LINE
  5
4F68
330
1A
100
AcDbEntity
  8
細線
100
AcDbLine
 10
473.305927854654
 20
958.701768400442
 30
0.0
 11
487.305927854654
 21
958.701768400442
 31
0.0
  0
ARC
  5
4F69
330
1A
100
AcDbEntity
  8
細線
 48
10.0
100
AcDbCircle
 10
491.862744442024
 20
969.671768400442
 30
0.0
 40
21.5568165984052
100
AcDbArc
 50
149.410227986312
 51
210.589772013688
  0
ARC
  5
4F6A
330
1A
100
AcDbEntity
  8
細線
 48
10.0
100
AcDbCircle
 10
468.749111267286
 20
969.671768400442
 30
0.0
 40
21.55681659840436
100
AcDbArc
 50
329.410227986311
 51
30.589772013689
  0
LINE
  5
4F6B
330
1A
100
AcDbEntity
  8
外形線
 48
10.0
100
AcDbLine
 10
473.305927854654
 20
991.611768400442
 30
0.0
 11
487.305927854654
 21
991.611768400442
 31
0.0
  0
LINE
  5
4F6C
330
1A
100
AcDbEntity
  8
外形線
 48
10.0
100
AcDbLine
 10
473.305927854654
 20
947.733147942031
 30
0.0
 11
487.305927854654
 21
947.73314794203
 31
0.0
  0
ARC
  5
4F6D
330
1A
100
AcDbEntity
  8
細線
 48
10.0
100
AcDbCircle
 10
491.596453757658
 20
992.050198986265
 30
0.0
 40
21.5568
100
AcDbArc
 50
189.014839552029
 51
211.953209848835
  0
ARC
  5
4F6E
330
1A
100
AcDbEntity
  8
外形線
 48
10.0
100
AcDbCircle
 10
486.82058783199
 20
974.81743626317
 30
0.0
 40
21.5568
100
AcDbArc
 50
128.824173789178
 51
140.00493377574
  0
ARC
  5
4F6F
330
1A
100
AcDbEntity
  8
外形線
 48
10.0
100
AcDbCircle
 10
473.791267877319
 20
974.81743626317
 30
0.0
 40
21.5568
100
AcDbArc
 50
39.99506622426
 51
51.175826210822
  0
ARC
  5
4F70
330
1A
100
AcDbEntity
  8
細線
 48
10.0
100
AcDbCircle
 10
469.01540195165
 20
992.050198986265
 30
0.0
 40
21.5568
100
AcDbArc
 50
328.046790151165
 51
350.985160447971
  0
ARC
  5
4F71
330
1A
100
AcDbEntity
  8
外形線
 48
10.0
100
AcDbCircle
 10
486.82058783199
 20
964.526100537714
 30
0.0
 40
21.5568
100
AcDbArc
 50
219.99506622426
 51
231.175826210822
  0
ARC
  5
4F72
330
1A
100
AcDbEntity
  8
外形線
 48
10.0
100
AcDbCircle
 10
473.791267877319
 20
964.526100537714
 30
0.0
 40
21.5568
100
AcDbArc
 50
308.824173789178
 51
320.004933775735
  0
ARC
  5
4F73
330
1A
100
AcDbEntity
  8
細線
 48
10.0
100
AcDbCircle
 10
469.01540195165
 20
947.293337814619
 30
0.0
 40
21.5568
100
AcDbArc
 50
9.014839552023
 51
31.953209848835
  0
ARC
  5
4F74
330
1A
100
AcDbEntity
  8
細線
 48
10.0
100
AcDbCircle
 10
491.596453757658
 20
947.293337814619
 30
0.0
 40
21.5568
100
AcDbArc
 50
148.046790151165
 51
170.985160447971
  0
LINE
  5
4F75
330
1A
100
AcDbEntity
  8
外形線
 48
10.0
100
AcDbLine
 10
470.305927854654
 20
988.672458171236
 30
0.0
 11
470.305927854654
 21
950.671078629648
 31
0.0
  0
LINE
  5
4F76
330
1A
100
AcDbEntity
  8
外形線
 48
10.0
100
AcDbLine
 10
490.305927854654
 20
988.672458171236
 30
0.0
 11
490.305927854654
 21
950.671078629647
 31
0.0
  0
LINE
  5
4F77
330
1A
100
AcDbEntity
  8
寸法線
100
AcDbLine
 10
143.998589442722
 20
728.106095978434
 30
0.0
 11
292.198589442722
 21
728.106095978434
 31
0.0
  0
LINE
  5
4F78
330
1A
100
AcDbEntity
  8
寸法線
100
AcDbLine
 10
143.998589442722
 20
741.449996093864
 30
0.0
 11
292.198589442722
 21
741.449996093864
 31
0.0
  0
LINE
  5
4F79
330
1A
100
AcDbEntity
  8
寸法線
100
AcDbLine
 10
143.998589442722
 20
754.793896209293
 30
0.0
 11
292.198589442722
 21
754.793896209293
 31
0.0
  0
LINE
  5
4F7A
330
1A
100
AcDbEntity
  8
寸法線
100
AcDbLine
 10
143.998589442722
 20
768.137796324722
 30
0.0
 11
292.198589442722
 21
768.137796324722
 31
0.0
  0
LINE
  5
4F7B
330
1A
100
AcDbEntity
  8
寸法線
100
AcDbLine
 10
143.998589442722
 20
781.481696440152
 30
0.0
 11
292.198589442722
 21
781.481696440152
 31
0.0
  0
LINE
  5
4F7C
330
1A
100
AcDbEntity
  8
寸法線
100
AcDbLine
 10
143.998589442722
 20
794.825596555581
 30
0.0
 11
292.198589442722
 21
794.825596555581
 31
0.0
  0
LINE
  5
4F7D
330
1A
100
AcDbEntity
  8
寸法線
 48
10.0
100
AcDbLine
 10
292.198589442722
 20
808.16949667101
 30
0.0
 11
292.198589442722
 21
728.106095978434
 31
0.0
  0
LINE
  5
4F7E
330
1A
100
AcDbEntity
  8
寸法線
 48
10.0
100
AcDbLine
 10
211.901285827281
 20
808.16949667101
 30
0.0
 11
211.901285827281
 21
728.106095978434
 31
0.0
  0
LINE
  5
4F7F
330
1A
100
AcDbEntity
  8
寸法線
 48
10.0
100
AcDbLine
 10
143.998589442722
 20
808.16949667101
 30
0.0
 11
143.998589442722
 21
728.106095978434
 31
0.0
  0
LINE
  5
4F80
330
1A
100
AcDbEntity
  8
寸法線
100
AcDbLine
 10
143.998589442722
 20
808.16949667101
 30
0.0
 11
292.198589442722
 21
808.16949667101
 31
0.0
  0
DIMENSION
  5
4F81
330
1A
100
AcDbEntity
  8
寸法線
 48
10.0
100
AcDbDimension
  2
*D11
 10
445.305927854654
 20
853.172458021184
 30
0.0
 11
320.305927854654
 21
857.797458021184
 31
0.0
 70
    32
  1
　
  3
ISO-25
100
AcDbAlignedDimension
 13
195.305927854654
 23
961.672458168714
 33
0.0
 14
445.305927854654
 24
953.922958168714
 34
0.0
100
AcDbRotatedDimension
1001
ACAD
1000
DSTYLE
1002
{
1070
     5
1000
OPEN30
1070
    41
1040
6.0
1070
    47
1040
0.1
1070
    48
1040
0.1
1070
    73
1070
     0
1070
   140
1040
8.0
1070
   271
1070
     1
1070
   272
1070
     1
1070
   341
1005
2AF4
1002
}
  0
DIMENSION
  5
4F82
330
1A
100
AcDbEntity
  8
寸法線
 48
10.0
100
AcDbDimension
  2
*D12
 10
445.305927854654
 20
873.172458021184
 30
0.0
 11
395.305927854654
 21
877.797458021184
 31
0.0
 70
    32
  1
　
  3
ISO-25
100
AcDbAlignedDimension
 13
345.305927854654
 23
958.922458168714
 33
0.0
 14
445.305927854654
 24
953.922958168714
 34
0.0
100
AcDbRotatedDimension
1001
ACAD
1000
DSTYLE
1002
{
1070
     5
1000
OPEN30
1070
    41
1040
6.0
1070
    47
1040
0.1
1070
    48
1040
0.1
1070
    73
1070
     0
1070
   140
1040
8.0
1070
   271
1070
     1
1070
   272
1070
     1
1070
   341
1005
2AF4
1002
}
  0
DIMENSION
  5
4F83
330
1A
100
AcDbEntity
  8
寸法線
 48
10.0
100
AcDbDimension
  2
*D13
 10
345.305927854654
 20
873.172458021184
 30
0.0
 11
320.305927854654
 21
877.797458021184
 31
0.0
 70
    32
  1
　
  3
ISO-25
100
AcDbAlignedDimension
 13
295.305927854654
 23
959.422458168714
 33
0.0
 14
345.305927854654
 24
958.922458168714
 34
0.0
100
AcDbRotatedDimension
1001
ACAD
1000
DSTYLE
1002
{
1070
     5
1000
OPEN30
1070
    41
1040
6.0
1070
    47
1040
0.1
1070
    48
1040
0.1
1070
    73
1070
     0
1070
   140
1040
8.0
1070
   271
1070
     1
1070
   272
1070
     1
1070
   341
1005
2AF4
1002
}
  0
DIMENSION
  5
4F84
330
1A
100
AcDbEntity
  8
寸法線
 48
10.0
100
AcDbDimension
  2
*D14
 10
295.305927854654
 20
873.172458021184
 30
0.0
 11
245.305927854654
 21
877.797458021184
 31
0.0
 70
    32
  1
　
  3
ISO-25
100
AcDbAlignedDimension
 13
195.305927854654
 23
961.672458168714
 33
0.0
 14
295.305927854654
 24
959.422458168714
 34
0.0
100
AcDbRotatedDimension
1001
ACAD
1000
DSTYLE
1002
{
1070
     5
1000
OPEN30
1070
    41
1040
6.0
1070
    47
1040
0.1
1070
    48
1040
0.1
1070
    73
1070
     0
1070
   140
1040
8.0
1070
   271
1070
     1
1070
   272
1070
     1
1070
   341
1005
2AF4
1002
}
  0
MTEXT
  5
4F85
330
1A
100
AcDbEntity
  8
寸法線
 48
10.0
100
AcDbMText
 10
192.606154227151
 20
1071.729038168714
 30
0.0
 40
8.0
 41
0.0
 71
     9
 72
     1
  1
\A1;検知電極\PSUS304
  0
MTEXT
  5
4F87
330
1A
100
AcDbEntity
  8
寸法線
 48
10.0
100
AcDbMText
 10
278.056292251302
 20
1071.729038168714
 30
0.0
 40
8.0
 41
0.0
 71
     9
 72
     1
  1
\A1;絶縁体\Pポリアセタール
  0
MTEXT
  5
4F89
330
1A
100
AcDbEntity
  8
寸法線
 48
10.0
100
AcDbMText
 10
349.207850665983
 20
1070.972713773459
 30
0.0
 40
8.0
 41
0.0
 71
     9
 72
     1
  1
\A1;シール\Pシリコンゴム
  0
MTEXT
  5
4F8B
330
1A
100
AcDbEntity
  8
寸法線
 48
10.0
100
AcDbMText
 10
407.172836465463
 20
1070.972713773459
 30
0.0
 40
8.0
 41
0.0
 71
     9
 72
     1
  1
\A1;接地電極\PSUS304
  0
MTEXT
  5
4F8D
330
1A
100
AcDbEntity
  8
寸法線
 48
10.0
100
AcDbMText
 10
445.807261892873
 20
1071.729038168714
 30
0.0
 40
8.0
 41
0.0
 71
     7
 72
     1
  1
フランジ\Pアルミ鋳物
  0
MTEXT
  5
4F8F
102
{ACAD_REACTORS
330
4F90
102
}
330
1A
100
AcDbEntity
  8
寸法線
 48
10.0
100
AcDbMText
 10
479.318535361849
 20
1029.517388482644
 30
0.0
 40
8.0
 41
0.0
 71
     7
 72
     1
  1
R1"
  0
LEADER
  5
4F90
330
1A
100
AcDbEntity
  8
寸法線
 48
10.0
100
AcDbLeader
  3
ISO-25
 73
     0
 74
     0
 75
     1
 40
8.008333333333
 41
12.8
 76
     3
 10
463.522994342296
 20
986.734458168714
 30
0.0
 10
477.146753117762
 20
1029.517388482644
 30
0.0
 10
483.146753117762
 20
1029.517388482644
 30
0.0
340
4F8F
213
4.453217755912931
223
0.0
233
0.0
1001
ACAD
1000
DSTYLE
1002
{
1070
     5
1000
OPEN30
1070
   147
1040
0.625
1070
    77
1070
     0
1070
    41
1040
6.0
1070
    47
1040
0.1
1070
    48
1040
0.1
1070
    73
1070
     0
1070
   140
1040
5.0
1070
   271
1070
     1
1070
   272
1070
     1
1070
   341
1005
2AF4
1070
   342
1005
2AF4
1002
}
  0
MTEXT
  5
4F91
102
{ACAD_XDICTIONARY
360
5A2F
102
}
330
1A
100
AcDbEntity
  8
寸法線
 48
10.0
100
AcDbMText
 10
624.035668969736
 20
1070.979392954733
 30
0.0
 40
8.0
 41
0.0
 71
     7
 72
     1
  1
アルミ\Pダイカスト
1001
ACADANNOTATIVE
1000
AnnotativeData
1002
{
1070
     1
1070
     0
1002
}
  0
MTEXT
  5
4F93
330
1A
100
AcDbEntity
  8
寸法線
 48
10.0
100
AcDbMText
 10
574.779225722797
 20
1070.979392954733
 30
0.0
 40
8.0
 41
0.0
 71
     7
 72
     1
  1
\A1;Ｏリング
  0
MTEXT
  5
4F95
102
{ACAD_XDICTIONARY
360
5A2C
102
}
330
1A
100
AcDbEntity
  8
寸法線
 48
10.0
100
AcDbMText
 10
507.933911244823
 20
1070.979392954733
 30
0.0
 40
8.0
 41
0.0
 71
     7
 72
     1
  1
アルミ\Pダイカスト
1001
ACADANNOTATIVE
1000
AnnotativeData
1002
{
1070
     1
1070
     0
1002
}
  0
LINE
  5
4F9F
330
1A
100
AcDbEntity
  8
外形線
100
AcDbLine
 10
462.305927854654
 20
952.860458168714
 30
0.0
 11
470.305927854654
 21
952.360458168714
 31
0.0
  0
LINE
  5
4FA0
330
1A
100
AcDbEntity
  8
細線
100
AcDbLine
 10
462.305927854654
 20
954.339458168714
 30
0.0
 11
470.305927854654
 21
953.839458168714
 31
0.0
  0
LINE
  5
4FA1
330
1A
100
AcDbEntity
  8
細線
100
AcDbLine
 10
462.305927854654
 20
985.005458168714
 30
0.0
 11
470.305927854654
 21
985.505458168714
 31
0.0
  0
LINE
  5
4FA2
330
1A
100
AcDbEntity
  8
外形線
100
AcDbLine
 10
462.305927854654
 20
986.484458168714
 30
0.0
 11
470.305927854654
 21
986.984458168714
 31
0.0
  0
LINE
  5
4FA3
330
1A
100
AcDbEntity
  8
外形線
100
AcDbLine
 10
445.305927854654
 20
985.421958168714
 30
0.0
 11
447.305927854654
 21
985.546958168714
 31
0.0
  0
LINE
  5
4FA4
330
1A
100
AcDbEntity
  8
外形線
100
AcDbLine
 10
445.305927854654
 20
985.421958168714
 30
0.0
 11
445.305927854654
 21
953.922958168714
 31
0.0
  0
LINE
  5
4FA5
330
1A
100
AcDbEntity
  8
細線
100
AcDbLine
 10
445.305927854654
 20
983.942958168714
 30
0.0
 11
447.305927854654
 21
984.067958168714
 31
0.0
  0
LINE
  5
4FA6
330
1A
100
AcDbEntity
  8
細線
100
AcDbLine
 10
445.305927854654
 20
955.401958168714
 30
0.0
 11
447.305927854654
 21
955.276958168714
 31
0.0
  0
LINE
  5
4FA7
330
1A
100
AcDbEntity
  8
外形線
100
AcDbLine
 10
445.305927854654
 20
953.922958168714
 30
0.0
 11
447.305927854654
 21
953.797958168714
 31
0.0
  0
MTEXT
  5
4FAD
330
1A
100
AcDbEntity
  8
寸法線
 48
10.0
100
AcDbMText
 10
625.262220877558
 20
875.208364814323
 30
0.0
 40
8.0
 41
0.0
 71
     7
 72
     1
  1
導線取出口\PG 1/2"
  0
LWPOLYLINE
  5
4FAF
330
1A
100
AcDbEntity
  8
外形線
100
AcDbPolyline
 90
        4
 70
     1
 43
0.0
 10
490.305927854654
 20
950.671768400442
 10
493.305927854654
 20
950.671768400442
 10
493.305927854654
 20
988.671768400442
 10
490.305927854654
 20
988.671768400442
  0
MTEXT
  5
4FB0
102
{ACAD_XDICTIONARY
360
5682
102
}
330
1A
100
AcDbEntity
  8
寸法線
 48
10.0
100
AcDbMText
 10
252.049937635002
 20
805.845252163425
 30
0.0
 40
8.0
 41
80.297303615441
 71
     2
 72
     5
  1
JIS5K 呼び65\Pアルミ鋳物\Pφ155\Pφ130\P4-φ15\P12
1001
ACADANNOTATIVE
1000
AnnotativeData
1002
{
1070
     1
1070
     0
1002
}
  0
MTEXT
  5
4FB1
330
1A
100
AcDbEntity
  8
寸法線
 48
10.0
100
AcDbMText
 10
150.661263037492
 20
805.108252516844
 30
0.0
 40
8.0
 41
60.717249709215
 71
     1
 72
     5
  1
フ ラ ン ジ\P材　　　　質\Pフランジ外径\P取付穴中心径\P取　 付 　穴\P厚　　　　み
  0
LINE
  5
4FB3
330
1A
100
AcDbEntity
  8
中心線
 48
10.0
100
AcDbLine
 10
187.248318716866
 20
969.672458168714
 30
0.0
 11
609.044400968265
 21
969.672458168714
 31
0.0
  0
LINE
  5
4FB4
330
1A
100
AcDbEntity
  8
下書線
100
AcDbLine
 10
704.39282427785
 20
1069.437327878695
 30
0.0
 11
160.824652359345
 21
1069.437327878695
 31
0.0
  0
ARC
  5
5151
330
1A
100
AcDbEntity
  8
寸法線
100
AcDbCircle
 10
393.129289464181
 20
876.477783629675
 30
0.0
 40
1.76059
100
AcDbArc
 50
252.903398883406
 51
337.412611017142
  0
ARC
  5
5152
330
1A
100
AcDbEntity
  8
寸法線
100
AcDbCircle
 10
388.583269464181
 20
879.799011629675
 30
0.0
 40
5.02039
100
AcDbArc
 50
274.628927150735
 51
33.374029121142
  0
ARC
  5
5153
330
1A
100
AcDbEntity
  8
寸法線
100
AcDbCircle
 10
388.591691464181
 20
879.799927629675
 30
0.0
 40
5.013138
100
AcDbArc
 50
273.280470979898
 51
33.415912335968
  0
ARC
  5
5154
330
1A
100
AcDbEntity
  8
寸法線
100
AcDbCircle
 10
394.942277464181
 20
878.794983629675
 30
0.0
 40
4.62938
100
AcDbArc
 50
123.469024399698
 51
239.774013712205
  0
ARC
  5
5155
330
1A
100
AcDbEntity
  8
寸法線
100
AcDbCircle
 10
394.942277464181
 20
878.794983629675
 30
0.0
 40
4.629386
100
AcDbArc
 50
123.469024399698
 51
239.773899120646
  0
ARC
  5
5156
330
1A
100
AcDbEntity
  8
寸法線
100
AcDbCircle
 10
392.539201464181
 20
882.433533629675
 30
0.0
 40
0.26895
100
AcDbArc
 50
28.230948369049
 51
123.883845843403
  0
TEXT
  5
5157
330
1A
100
AcDbEntity
  8
寸法線
100
AcDbText
 10
395.868119464181
 20
874.187255629675
 30
0.0
 40
4.0
  1
３
 41
0.819022608745
  7
EXCADSTD
 72
     5
 11
398.488991812164
 21
874.187255629675
 31
0.0
100
AcDbText
  0
ARC
  5
5158
330
1A
100
AcDbEntity
  8
寸法線
100
AcDbCircle
 10
321.854036149425
 20
876.071378536766
 30
0.0
 40
1.76059
100
AcDbArc
 50
252.903398883406
 51
337.412611017142
  0
ARC
  5
5159
330
1A
100
AcDbEntity
  8
寸法線
100
AcDbCircle
 10
317.308016149425
 20
879.392666536766
 30
0.0
 40
5.02039
100
AcDbArc
 50
274.628927150735
 51
33.374029121142
  0
ARC
  5
515A
330
1A
100
AcDbEntity
  8
寸法線
100
AcDbCircle
 10
317.316440149425
 20
879.393522536766
 30
0.0
 40
5.013138
100
AcDbArc
 50
273.280470979898
 51
33.415912335968
  0
ARC
  5
515B
330
1A
100
AcDbEntity
  8
寸法線
100
AcDbCircle
 10
323.667026149426
 20
878.388638536766
 30
0.0
 40
4.62938
100
AcDbArc
 50
123.469024399698
 51
239.774013712205
  0
ARC
  5
515C
330
1A
100
AcDbEntity
  8
寸法線
100
AcDbCircle
 10
323.667026149426
 20
878.388638536766
 30
0.0
 40
4.629386
100
AcDbArc
 50
123.469024399698
 51
239.773899120646
  0
ARC
  5
515D
330
1A
100
AcDbEntity
  8
寸法線
100
AcDbCircle
 10
321.263948149425
 20
882.027188536766
 30
0.0
 40
0.26895
100
AcDbArc
 50
28.230948369013
 51
123.883845843403
  0
TEXT
  5
515E
330
1A
100
AcDbEntity
  8
寸法線
100
AcDbText
 10
324.592928149425
 20
873.780850536766
 30
0.0
 40
4.0
  1
２
 41
0.753736098437
  7
EXCADSTD
 72
     5
 11
327.004883664424
 21
873.780850536766
 31
0.0
100
AcDbText
  0
ARC
  5
515F
330
1A
100
AcDbEntity
  8
寸法線
100
AcDbCircle
 10
243.33565434567
 20
875.947556278917
 30
0.0
 40
1.76059
100
AcDbArc
 50
252.903398883406
 51
337.412611017142
  0
ARC
  5
5160
330
1A
100
AcDbEntity
  8
寸法線
100
AcDbCircle
 10
238.78963434567
 20
879.268784278917
 30
0.0
 40
5.02039
100
AcDbArc
 50
274.628927150735
 51
33.374029121142
  0
ARC
  5
5161
330
1A
100
AcDbEntity
  8
寸法線
100
AcDbCircle
 10
238.79799634567
 20
879.269700278917
 30
0.0
 40
5.013138
100
AcDbArc
 50
273.280470979898
 51
33.415912335968
  0
ARC
  5
5162
330
1A
100
AcDbEntity
  8
寸法線
100
AcDbCircle
 10
245.14858234567
 20
878.264756278917
 30
0.0
 40
4.62938
100
AcDbArc
 50
123.469024399698
 51
239.774013712205
  0
ARC
  5
5163
330
1A
100
AcDbEntity
  8
寸法線
100
AcDbCircle
 10
245.14858234567
 20
878.264756278917
 30
0.0
 40
4.629386
100
AcDbArc
 50
123.469024399698
 51
239.773899120646
  0
ARC
  5
5164
330
1A
100
AcDbEntity
  8
寸法線
100
AcDbCircle
 10
242.74550634567
 20
881.903306278917
 30
0.0
 40
0.26895
100
AcDbArc
 50
28.230948369013
 51
123.883845843403
  0
TEXT
  5
5165
330
1A
100
AcDbEntity
  8
寸法線
100
AcDbText
 10
245.67446034567
 20
873.856980278917
 30
0.0
 40
4.0
  1
１
 41
1.875
  7
EXCADSTD
 72
     5
 11
249.67446034567
 21
873.856980278917
 31
0.0
100
AcDbText
  0
ARC
  5
5166
330
1A
100
AcDbEntity
  8
寸法線
100
AcDbCircle
 10
323.196304439159
 20
856.206024715915
 30
0.0
 40
1.76059
100
AcDbArc
 50
252.903398883406
 51
337.412611017142
  0
ARC
  5
5167
330
1A
100
AcDbEntity
  8
寸法線
100
AcDbCircle
 10
318.650284439159
 20
859.527252715915
 30
0.0
 40
5.02039
100
AcDbArc
 50
274.628927150735
 51
33.374029121142
  0
ARC
  5
5168
330
1A
100
AcDbEntity
  8
寸法線
100
AcDbCircle
 10
318.658584439159
 20
859.528168715915
 30
0.0
 40
5.013138
100
AcDbArc
 50
273.280470979895
 51
33.415912335968
  0
ARC
  5
5169
330
1A
100
AcDbEntity
  8
寸法線
100
AcDbCircle
 10
325.009170439159
 20
858.523224715915
 30
0.0
 40
4.62938
100
AcDbArc
 50
123.469024399698
 51
239.774013712205
  0
ARC
  5
516A
330
1A
100
AcDbEntity
  8
寸法線
100
AcDbCircle
 10
325.009170439159
 20
858.523224715915
 30
0.0
 40
4.629386
100
AcDbArc
 50
123.469024399698
 51
239.773899120643
  0
ARC
  5
516B
330
1A
100
AcDbEntity
  8
寸法線
100
AcDbCircle
 10
322.606094439159
 20
862.161774715915
 30
0.0
 40
0.26895
100
AcDbArc
 50
28.230948369013
 51
123.883845843403
  0
DIMENSION
  5
51B5
330
1A
100
AcDbEntity
  8
寸法線
 48
10.0
100
AcDbDimension
  2
*D18
 10
470.305927854654
 20
873.172458021184
 30
0.0
 11
457.805927854654
 21
877.798245422759
 31
0.0
 70
    32
  3
ISO-25
100
AcDbAlignedDimension
 13
445.305927854654
 23
953.922958168714
 33
0.0
 14
470.305927854654
 24
950.671078629648
 34
0.0
100
AcDbRotatedDimension
1001
ACAD
1000
DSTYLE
1002
{
1070
     5
1000
OPEN30
1070
    41
1040
6.0
1070
    47
1040
0.1
1070
    48
1040
0.1
1070
    73
1070
     0
1070
   140
1040
8.0
1070
   271
1070
     1
1070
   272
1070
     1
1070
   341
1005
2AF4
1002
}
  0
MTEXT
  5
51DF
330
1A
100
AcDbEntity
  8
寸法線
 48
10.0
100
AcDbMText
 10
454.60424351928
 20
1057.861469123253
 30
0.0
 40
8.0
 41
0.0
 71
     7
 72
     1
  1
ねじ込み
  0
MTEXT
  5
51E0
330
1A
100
AcDbEntity
  8
寸法線
 48
10.0
100
AcDbMText
 10
623.708830850028
 20
1112.464367501707
 30
0.0
 40
8.0
 41
96.582235030477
 71
     1
 72
     5
  1
塗装色：10YR7.5/14
  0
DIMENSION
  5
51EE
330
1A
100
AcDbEntity
  8
寸法線
 48
10.0
100
AcDbDimension
  2
*D20
 10
608.305927854654
 20
853.172458021184
 30
0.0
 11
526.805927854654
 21
857.797458021184
 31
0.0
 70
    32
  3
ISO-25
100
AcDbAlignedDimension
 13
445.305927854654
 23
873.172458021184
 33
0.0
 14
608.305927854654
 24
925.44601263892
 34
0.0
100
AcDbRotatedDimension
1001
ACAD
1000
DSTYLE
1002
{
1070
     5
1000
OPEN30
1070
    41
1040
6.0
1070
    47
1040
0.1
1070
    48
1040
0.1
1070
    73
1070
     0
1070
   140
1040
8.0
1070
   271
1070
     1
1070
   272
1070
     1
1070
   341
1005
2AF4
1002
}
  0
LEADER
  5
52B1
330
1A
100
AcDbEntity
  8
寸法線
 48
10.0
100
AcDbLeader
  3
ISO-25
 76
     3
 10
562.014009165924
 20
903.927124965617
 30
0.0
 10
624.202105665497
 20
873.192248748992
 30
0.0
 10
634.34336862828
 20
873.192248748992
 30
0.0
213
-28.37046195743108
223
0.0
233
0.0
1001
ACAD
1000
DSTYLE
1002
{
1070
     5
1000
OPEN30
1070
   147
1040
0.625
1070
    77
1070
     0
1070
    41
1040
6.0
1070
    47
1040
0.1
1070
    48
1040
0.1
1070
    73
1070
     0
1070
   140
1040
8.0
1070
   271
1070
     1
1070
   272
1070
     1
1070
   341
1005
2AF4
1070
   342
1005
2AF4
1002
}
  0
LEADER
  5
5334
330
1A
100
AcDbEntity
  8
寸法線
 48
10.0
100
AcDbLeader
  3
ISO-25
 76
     3
 10
217.738166856133
 20
980.422458168714
 30
0.0
 10
192.438999419044
 20
1069.398328867653
 30
0.0
 10
180.573723096681
 20
1069.398328867653
 30
0.0
1001
ACAD
1000
DSTYLE
1002
{
1070
     5
1000
OPEN30
1070
   147
1040
0.625
1070
    77
1070
     0
1070
    41
1040
6.0
1070
    47
1040
0.1
1070
    48
1040
0.1
1070
    73
1070
     0
1070
   140
1040
8.0
1070
   271
1070
     1
1070
   272
1070
     1
1070
   341
1005
2AF4
1070
   342
1005
2AF4
1002
}
  0
LEADER
  5
5335
330
1A
100
AcDbEntity
  8
寸法線
 48
10.0
100
AcDbLeader
  3
ISO-25
 76
     3
 10
301.698959017343
 20
980.476887378425
 30
0.0
 10
276.484706702456
 20
1069.386892633335
 30
0.0
 10
260.757261790902
 20
1069.386892633335
 30
0.0
1001
ACAD
1000
DSTYLE
1002
{
1070
     5
1000
OPEN30
1070
   147
1040
0.625
1070
    77
1070
     0
1070
    41
1040
6.0
1070
    47
1040
0.1
1070
    48
1040
0.1
1070
    73
1070
     0
1070
   140
1040
8.0
1070
   271
1070
     1
1070
   272
1070
     1
1070
   341
1005
2AF4
1070
   342
1005
2AF4
1002
}
  0
LEADER
  5
5336
330
1A
100
AcDbEntity
  8
寸法線
 48
10.0
100
AcDbLeader
  3
ISO-25
 76
     3
 10
345.268931643395
 20
980.415607923605
 30
0.0
 10
349.304751094253
 20
1069.43562803325
 30
0.0
 10
337.461214116372
 20
1069.43562803325
 30
0.0
1001
ACAD
1000
DSTYLE
1002
{
1070
     5
1000
OPEN30
1070
   147
1040
0.625
1070
    77
1070
     0
1070
    41
1040
6.0
1070
    47
1040
0.1
1070
    48
1040
0.1
1070
    73
1070
     0
1070
   140
1040
8.0
1070
   271
1070
     1
1070
   272
1070
     1
1070
   341
1005
2AF4
1070
   342
1005
2AF4
1002
}
  0
LEADER
  5
5337
330
1A
100
AcDbEntity
  8
寸法線
 48
10.0
100
AcDbLeader
  3
ISO-25
 76
     3
 10
416.211765897036
 20
980.422458168714
 30
0.0
 10
406.713272767508
 20
1069.40090471375
 30
0.0
 10
395.122601292485
 20
1069.40090471375
 30
0.0
1001
ACAD
1000
DSTYLE
1002
{
1070
     5
1000
OPEN30
1070
   147
1040
0.625
1070
    77
1070
     0
1070
    41
1040
6.0
1070
    47
1040
0.1
1070
    48
1040
0.1
1070
    73
1070
     0
1070
   140
1040
8.0
1070
   271
1070
     1
1070
   272
1070
     1
1070
   341
1005
2AF4
1070
   342
1005
2AF4
1002
}
  0
LEADER
  5
5338
330
1A
100
AcDbEntity
  8
寸法線
 48
10.0
100
AcDbLeader
  3
ISO-25
 76
     3
 10
453.325746724547
 20
1047.114058550356
 30
0.0
 10
446.210956689084
 20
1069.459822704256
 30
0.0
 10
459.637792578094
 20
1069.459822704256
 30
0.0
1001
ACAD
1000
DSTYLE
1002
{
1070
     5
1000
OPEN30
1070
   147
1040
0.625
1070
    77
1070
     0
1070
    41
1040
6.0
1070
    47
1040
0.1
1070
    48
1040
0.1
1070
    73
1070
     0
1070
   140
1040
8.0
1070
   271
1070
     1
1070
   272
1070
     1
1070
   341
1005
2AF4
1070
   342
1005
2AF4
1002
}
  0
LEADER
  5
5339
330
1A
100
AcDbEntity
  8
寸法線
 48
10.0
100
AcDbLeader
  3
ISO-25
 76
     3
 10
522.941653444663
 20
1021.935233688962
 30
0.0
 10
509.355429821965
 20
1069.511539860955
 30
0.0
 10
522.517677977952
 20
1069.511539860955
 30
0.0
1001
ACAD
1000
DSTYLE
1002
{
1070
     5
1000
OPEN30
1070
   147
1040
0.625
1070
    77
1070
     0
1070
    41
1040
6.0
1070
    47
1040
0.1
1070
    48
1040
0.1
1070
    73
1070
     0
1070
   140
1040
8.0
1070
   271
1070
     1
1070
   272
1070
     1
1070
   341
1005
2AF4
1070
   342
1005
2AF4
1002
}
  0
LEADER
  5
533A
330
1A
100
AcDbEntity
  8
寸法線
 48
10.0
100
AcDbLeader
  3
ISO-25
 76
     3
 10
579.77218701123
 20
1026.466311296376
 30
0.0
 10
575.596199040169
 20
1069.717498725461
 30
0.0
 10
583.595790633832
 20
1069.717498725461
 30
0.0
1001
ACAD
1000
DSTYLE
1002
{
1070
     5
1000
OPEN30
1070
   147
1040
0.625
1070
    77
1070
     0
1070
    41
1040
6.0
1070
    47
1040
0.1
1070
    48
1040
0.1
1070
    73
1070
     0
1070
   140
1040
8.0
1070
   271
1070
     1
1070
   272
1070
     1
1070
   341
1005
2AF4
1070
   342
1005
2AF4
1002
}
  0
LEADER
  5
533B
330
1A
100
AcDbEntity
  8
寸法線
 48
10.0
100
AcDbLeader
  3
ISO-25
 76
     3
 10
605.441552103198
 20
1015.4209363218
 30
0.0
 10
622.90547488378
 20
1069.511539860955
 30
0.0
 10
632.563934145961
 20
1069.511539860955
 30
0.0
1001
ACAD
1000
DSTYLE
1002
{
1070
     5
1000
OPEN30
1070
   147
1040
0.625
1070
    77
1070
     0
1070
    41
1040
6.0
1070
    47
1040
0.1
1070
    48
1040
0.1
1070
    73
1070
     0
1070
   140
1040
8.0
1070
   271
1070
     1
1070
   272
1070
     1
1070
   341
1005
2AF4
1070
   342
1005
2AF4
1002
}
  0
LINE
  5
56F3
330
1A
100
AcDbEntity
  8
寸法線
100
AcDbLine
 10
300.408090429542
 20
729.575742566054
 30
0.0
 11
787.877351492809
 21
729.575742566054
 31
0.0
  0
LINE
  5
56F4
330
1A
100
AcDbEntity
  8
寸法線
100
AcDbLine
 10
328.568064029542
 20
718.089431591386
 30
0.0
 11
328.568064029541
 21
822.361519388728
 31
0.0
  0
LINE
  5
56F5
330
1A
100
AcDbEntity
  8
寸法線
100
AcDbLine
 10
300.408090429542
 20
809.979919388728
 30
0.0
 11
787.877351492809
 21
809.979919388728
 31
0.0
  0
LINE
  5
56F6
330
1A
100
AcDbEntity
  8
寸法線
100
AcDbLine
 10
300.408090429542
 20
822.361519388728
 30
0.0
 11
787.877351492809
 21
822.361519388728
 31
0.0
  0
LINE
  5
56F7
330
1A
100
AcDbEntity
  8
寸法線
100
AcDbLine
 10
300.408090429542
 20
718.089431591386
 30
0.0
 11
300.408090429542
 21
822.361519388728
 31
0.0
  0
LINE
  5
56F8
330
1A
100
AcDbEntity
  8
寸法線
100
AcDbLine
 10
515.081980603183
 20
718.089431591386
 30
0.0
 11
515.081980603183
 21
822.361519388728
 31
0.0
  0
LINE
  5
56F9
330
1A
100
AcDbEntity
  8
寸法線
100
AcDbLine
 10
300.408090429542
 20
787.007297439393
 30
0.0
 11
787.877351492809
 21
787.007297439393
 31
0.0
  0
LINE
  5
56FA
330
1A
100
AcDbEntity
  8
寸法線
100
AcDbLine
 10
300.408090429542
 20
775.520986464725
 30
0.0
 11
787.877351492809
 21
775.520986464725
 31
0.0
  0
LINE
  5
56FB
330
1A
100
AcDbEntity
  8
寸法線
100
AcDbLine
 10
300.408090429542
 20
764.034675490058
 30
0.0
 11
787.877351492809
 21
764.034675490058
 31
0.0
  0
LINE
  5
56FC
330
1A
100
AcDbEntity
  8
寸法線
100
AcDbLine
 10
300.408090429542
 20
752.548364515389
 30
0.0
 11
787.877351492809
 21
752.548364515389
 31
0.0
  0
LINE
  5
56FD
330
1A
100
AcDbEntity
  8
寸法線
100
AcDbLine
 10
300.408090429542
 20
741.062053540722
 30
0.0
 11
787.877351492809
 21
741.062053540722
 31
0.0
  0
LINE
  5
56FE
330
1A
100
AcDbEntity
  8
寸法線
100
AcDbLine
 10
543.027540939757
 20
718.089431591386
 30
0.0
 11
543.027540939758
 21
822.361519388728
 31
0.0
  0
LINE
  5
56FF
330
1A
100
AcDbEntity
  8
寸法線
100
AcDbLine
 10
300.408090429542
 20
798.49360841406
 30
0.0
 11
787.877351492809
 21
798.49360841406
 31
0.0
  0
MTEXT
  5
5700
102
{ACAD_XDICTIONARY
360
5701
102
}
330
1A
100
AcDbEntity
  8
寸法線
 48
10.0
100
AcDbMText
 10
360.881478146317
 20
819.847552081101
 30
0.0
 40
7.04
 41
64.62682823355
 71
     2
 72
     5
  1
型式\P\W0.9;TSE-A4SA-025\PTSE-A4SA-030\PTSE-A4SA-035\PTSE-A4SA-040\PTSE-A4SA-045\PTSE-A4SA-050\PTSE-A4SA-055\PTSE-A4SA-060
1001
ACADANNOTATIVE
1000
AnnotativeData
1002
{
1070
     1
1070
     0
1002
}
1001
ACAD
1000
MTEXTBEGIN
1070
    44
1040
0.99
1000
MTEXTEND
  0
LINE
  5
5704
330
1A
100
AcDbEntity
  8
寸法線
 48
10.0
100
AcDbLine
 10
393.194892263092
 20
822.361519388728
 30
0.0
 11
393.194892263092
 21
718.089431591386
 31
0.0
  0
MTEXT
  5
5705
330
1A
100
AcDbEntity
  8
寸法線
 48
10.0
100
AcDbMText
 10
302.631768731169
 20
819.970369093978
 30
0.0
 40
7.04
 41
36.821333333333
 71
     1
 72
     5
  1
御仕様\P \P\P　
  0
SPLINE
  5
5706
330
1A
100
AcDbEntity
  8
寸法線
 48
10.0
100
AcDbSpline
210
0.0
220
0.0
230
1.0
 70
  1064
 71
     3
 72
    13
 73
     9
 74
     7
 42
0.000000001
 43
0.0000000001
 44
0.0000000001
 40
0.0
 40
0.0
 40
0.0
 40
0.0
 40
3.12052717213118
 40
8.165516562102944
 40
12.23173695454976
 40
15.04394903435545
 40
16.53934001018143
 40
17.62380135521131
 40
17.62380135521131
 40
17.62380135521131
 40
17.62380135521131
 10
402.4612063758736
 20
812.786041997676
 30
0.0
 10
403.3891912526625
 20
813.2147152837756
 30
0.0
 10
405.8174591262685
 20
814.3364292200101
 30
0.0
 10
406.4026036038655
 20
822.1670712680905
 30
0.0
 10
402.9412969470166
 20
816.5349948630212
 30
0.0
 10
403.0928647996734
 20
813.675859411481
 30
0.0
 10
404.9164726936049
 20
812.5557786238884
 30
0.0
 10
405.7230842824526
 20
812.9592736576936
 30
0.0
 10
406.0621498489143
 20
813.1288859891964
 30
0.0
 11
402.4612063758736
 21
812.786041997676
 31
0.0
 11
404.9475719568684
 21
814.6716920260887
 31
0.0
 11
405.5048609028913
 21
819.6858068009586
 31
0.0
 11
403.318574471016
 21
816.2573523506635
 31
0.0
 11
403.7043902191029
 21
813.471731595727
 31
0.0
 11
405.0333085558364
 21
812.786041997676
 31
0.0
 11
406.0621498489143
 21
813.1288859891964
 31
0.0
  0
SPLINE
  5
5707
330
1A
100
AcDbEntity
  8
寸法線
 48
10.0
100
AcDbSpline
210
0.0
220
0.0
230
1.0
 70
  1064
 71
     3
 72
    13
 73
     9
 74
     7
 42
0.000000001
 43
0.0000000001
 44
0.0000000001
 40
0.0
 40
0.0
 40
0.0
 40
0.0
 40
3.12052717213118
 40
8.165516562102944
 40
12.23173695454976
 40
15.04394903435544
 40
16.53934001018152
 40
17.6238013552114
 40
17.6238013552114
 40
17.6238013552114
 40
17.6238013552114
 10
423.7914323075871
 20
812.786041997676
 30
0.0
 10
424.719417184376
 20
813.2147152837756
 30
0.0
 10
427.147685057982
 20
814.3364292200101
 30
0.0
 10
427.732829535579
 20
822.1670712680904
 30
0.0
 10
424.2715228787303
 20
816.5349948630218
 30
0.0
 10
424.4230907313868
 20
813.6758594114808
 30
0.0
 10
426.2466986253185
 20
812.5557786238887
 30
0.0
 10
427.0533102141662
 20
812.9592736576938
 30
0.0
 10
427.3923757806278
 20
813.1288859891964
 30
0.0
 11
423.7914323075871
 21
812.786041997676
 31
0.0
 11
426.2777978885819
 21
814.6716920260887
 31
0.0
 11
426.8350868346047
 21
819.6858068009586
 31
0.0
 11
424.6488004027295
 21
816.2573523506635
 31
0.0
 11
425.0346161508163
 21
813.471731595727
 31
0.0
 11
426.3635344875499
 21
812.786041997676
 31
0.0
 11
427.3923757806278
 21
813.1288859891964
 31
0.0
  0
LINE
  5
570C
330
1A
100
AcDbEntity
  8
寸法線
 48
10.0
100
AcDbLine
 10
415.154487751911
 20
822.361519388728
 30
0.0
 11
415.154487751911
 21
718.089431591386
 31
0.0
  0
LINE
  5
570D
330
1A
100
AcDbEntity
  8
寸法線
 48
10.0
100
AcDbLine
 10
437.405678828886
 20
822.361519388728
 30
0.0
 11
437.405678828886
 21
718.089431591386
 31
0.0
  0
LINE
  5
570E
330
1A
100
AcDbEntity
  8
寸法線
 48
10.0
100
AcDbLine
 10
458.413582339773
 20
822.361519388728
 30
0.0
 11
458.413582339773
 21
718.089431591386
 31
0.0
  0
LINE
  5
570F
330
1A
100
AcDbEntity
  8
寸法線
 48
10.0
100
AcDbLine
 10
481.162088443183
 20
822.361519388728
 30
0.0
 11
481.162088443183
 21
718.089431591386
 31
0.0
  0
TEXT
  5
5710
330
1A
100
AcDbEntity
  8
寸法線
 48
10.0
100
AcDbText
 10
429.474497649373
 20
812.860250408298
 30
0.0
 40
4.576
  1
1
100
AcDbText
  0
SPLINE
  5
5711
330
1A
100
AcDbEntity
  8
寸法線
 48
10.0
100
AcDbSpline
210
0.0
220
0.0
230
1.0
 70
  1064
 71
     3
 72
    13
 73
     9
 74
     7
 42
0.000000001
 43
0.0000000001
 44
0.0000000001
 40
0.0
 40
0.0
 40
0.0
 40
0.0
 40
3.120527172131271
 40
8.165516562103015
 40
12.2317369545498
 40
15.04394903435548
 40
16.53934001018156
 40
17.62380135521138
 40
17.62380135521138
 40
17.62380135521138
 40
17.62380135521138
 10
445.2966508449088
 20
812.786041997676
 30
0.0
 10
446.2246357216977
 20
813.2147152837756
 30
0.0
 10
448.6529035953039
 20
814.3364292200099
 30
0.0
 10
449.2380480729008
 20
822.1670712680909
 30
0.0
 10
445.7767414160519
 20
816.5349948630217
 30
0.0
 10
445.9283092687085
 20
813.6758594114806
 30
0.0
 10
447.7519171626402
 20
812.5557786238885
 30
0.0
 10
448.5585287514879
 20
812.9592736576936
 30
0.0
 10
448.8975943179495
 20
813.1288859891964
 30
0.0
 11
445.2966508449088
 21
812.786041997676
 31
0.0
 11
447.7830164259038
 21
814.6716920260887
 31
0.0
 11
448.3403053719264
 21
819.6858068009586
 31
0.0
 11
446.1540189400512
 21
816.2573523506635
 31
0.0
 11
446.5398346881381
 21
813.471731595727
 31
0.0
 11
447.8687530248716
 21
812.786041997676
 31
0.0
 11
448.8975943179495
 21
813.1288859891964
 31
0.0
  0
TEXT
  5
5712
330
1A
100
AcDbEntity
  8
寸法線
 48
10.0
100
AcDbText
 10
450.979716186695
 20
812.860250408298
 30
0.0
 40
4.576
  1
2
100
AcDbText
  0
TEXT
  5
5713
330
1A
100
AcDbEntity
  8
寸法線
 48
10.0
100
AcDbText
 10
472.733592237234
 20
812.860250408298
 30
0.0
 40
4.576
  1
3
100
AcDbText
  0
SPLINE
  5
5714
330
1A
100
AcDbEntity
  8
寸法線
 48
10.0
100
AcDbSpline
210
0.0
220
0.0
230
1.0
 70
  1064
 71
     3
 72
    13
 73
     9
 74
     7
 42
0.000000001
 43
0.0000000001
 44
0.0000000001
 40
0.0
 40
0.0
 40
0.0
 40
0.0
 40
3.120527172131226
 40
8.165516562102965
 40
12.23173695454978
 40
15.04394903435549
 40
16.53934001018152
 40
17.62380135521134
 40
17.62380135521134
 40
17.62380135521134
 40
17.62380135521134
 10
467.0505268954485
 20
812.786041997676
 30
0.0
 10
467.9785117722374
 20
813.2147152837756
 30
0.0
 10
470.4067796458435
 20
814.3364292200102
 30
0.0
 10
470.9919241234401
 20
822.1670712680902
 30
0.0
 10
467.5306174665913
 20
816.5349948630214
 30
0.0
 10
467.6821853192485
 20
813.6758594114813
 30
0.0
 10
469.5057932131797
 20
812.5557786238883
 30
0.0
 10
470.3124048020275
 20
812.9592736576936
 30
0.0
 10
470.6514703684892
 20
813.1288859891964
 30
0.0
 11
467.0505268954485
 21
812.786041997676
 31
0.0
 11
469.5368924764434
 21
814.6716920260887
 31
0.0
 11
470.094181422466
 21
819.6858068009586
 31
0.0
 11
467.9078949905908
 21
816.2573523506635
 31
0.0
 11
468.2937107386778
 21
813.471731595727
 31
0.0
 11
469.6226290754113
 21
812.786041997676
 31
0.0
 11
470.6514703684892
 21
813.1288859891964
 31
0.0
  0
MTEXT
  5
5715
330
1A
100
AcDbEntity
  8
寸法線
 48
10.0
100
AcDbMText
 10
490.119364451505
 20
819.529839849665
 30
0.0
 40
7.04
 41
17.00322298061
 71
     1
 72
     5
  1
記事
  0
MTEXT
  5
5716
330
1A
100
AcDbEntity
  8
寸法線
 48
10.0
100
AcDbMText
 10
521.523600339568
 20
819.529839849665
 30
0.0
 40
7.04
 41
24.021333333333
 71
     1
 72
     5
  1
台数\P\P 
  0
LINE
  5
5717
330
1A
100
AcDbEntity
  8
寸法線
100
AcDbLine
 10
545.257900982593
 20
718.089431591386
 30
0.0
 11
545.257900982593
 21
822.361519388728
 31
0.0
  0
MTEXT
  5
5718
330
1A
100
AcDbEntity
  8
寸法線
 48
10.0
100
AcDbMText
 10
547.48157928422
 20
819.529839849665
 30
0.0
 40
7.04
 41
24.044379766361
 71
     1
 72
     5
  1
御仕様
  0
MTEXT
  5
5719
102
{ACAD_XDICTIONARY
360
571A
102
}
330
1A
100
AcDbEntity
  8
寸法線
 48
10.0
100
AcDbMText
 10
606.288227156758
 20
819.847552081101
 30
0.0
 40
7.04
 41
65.740705148331
 71
     2
 72
     5
  1
型式\P\W0.9;TSE-A4SA-065\PTSE-A4SA-070\PTSE-A4SA-075\PTSE-A4SA-080\PTSE-A4SA-085\PTSE-A4SA-090\PTSE-A4SA-095\PTSE-A4SA-100
1001
ACADANNOTATIVE
1000
AnnotativeData
1002
{
1070
     1
1070
     0
1002
}
1001
ACAD
1000
MTEXTBEGIN
1070
    44
1040
0.99
1000
MTEXTEND
  0
SPLINE
  5
571D
330
1A
100
AcDbEntity
  8
寸法線
 48
10.0
100
AcDbSpline
210
0.0
220
0.0
230
1.0
 70
  1064
 71
     3
 72
    13
 73
     9
 74
     7
 42
0.000000001
 43
0.0000000001
 44
0.0000000001
 40
0.0
 40
0.0
 40
0.0
 40
0.0
 40
3.120527172131271
 40
8.165516562103022
 40
12.23173695454984
 40
15.04394903435553
 40
16.53934001018166
 40
17.62380135521127
 40
17.62380135521127
 40
17.62380135521127
 40
17.62380135521127
 10
646.3373100698135
 20
812.786041997676
 30
0.0
 10
647.2652949466025
 20
813.2147152837756
 30
0.0
 10
649.6935628202087
 20
814.3364292200101
 30
0.0
 10
650.2787072978053
 20
822.1670712680901
 30
0.0
 10
646.8174006409564
 20
816.5349948630214
 30
0.0
 10
646.9689684936136
 20
813.6758594114809
 30
0.0
 10
648.7925763875447
 20
812.5557786238884
 30
0.0
 10
649.5991879763925
 20
812.9592736576936
 30
0.0
 10
649.9382535428541
 20
813.1288859891964
 30
0.0
 11
646.3373100698135
 21
812.786041997676
 31
0.0
 11
648.8236756508085
 21
814.6716920260887
 31
0.0
 11
649.3809645968312
 21
819.6858068009586
 31
0.0
 11
647.1946781649559
 21
816.2573523506635
 31
0.0
 11
647.5804939130428
 21
813.471731595727
 31
0.0
 11
648.9094122497764
 21
812.786041997676
 31
0.0
 11
649.9382535428541
 21
813.1288859891964
 31
0.0
  0
SPLINE
  5
571E
330
1A
100
AcDbEntity
  8
寸法線
 48
10.0
100
AcDbSpline
210
0.0
220
0.0
230
1.0
 70
  1064
 71
     3
 72
    13
 73
     9
 74
     7
 42
0.000000001
 43
0.0000000001
 44
0.0000000001
 40
0.0
 40
0.0
 40
0.0
 40
0.0
 40
3.120527172131271
 40
8.165516562103022
 40
12.23173695454978
 40
15.04394903435547
 40
16.5393400101815
 40
17.6238013552111
 40
17.6238013552111
 40
17.6238013552111
 40
17.6238013552111
 10
668.9266917693437
 20
812.786041997676
 30
0.0
 10
669.8546766461326
 20
813.2147152837756
 30
0.0
 10
672.2829445197387
 20
814.33642922001
 30
0.0
 10
672.8680889973356
 20
822.1670712680905
 30
0.0
 10
669.4067823404866
 20
816.534994863021
 30
0.0
 10
669.558350193144
 20
813.6758594114813
 30
0.0
 10
671.3819580870752
 20
812.5557786238885
 30
0.0
 10
672.1885696759228
 20
812.9592736576935
 30
0.0
 10
672.5276352423843
 20
813.1288859891964
 30
0.0
 11
668.9266917693437
 21
812.786041997676
 31
0.0
 11
671.4130573503387
 21
814.6716920260887
 31
0.0
 11
671.9703462963614
 21
819.6858068009586
 31
0.0
 11
669.7840598644863
 21
816.2573523506635
 31
0.0
 11
670.1698756125732
 21
813.471731595727
 31
0.0
 11
671.4987939493067
 21
812.786041997676
 31
0.0
 11
672.5276352423843
 21
813.1288859891964
 31
0.0
  0
TEXT
  5
571F
330
1A
100
AcDbEntity
  8
寸法線
 48
10.0
100
AcDbText
 10
674.60975711113
 20
812.860250408298
 30
0.0
 40
4.576
  1
1
100
AcDbText
  0
SPLINE
  5
5720
330
1A
100
AcDbEntity
  8
寸法線
 48
10.0
100
AcDbSpline
210
0.0
220
0.0
230
1.0
 70
  1064
 71
     3
 72
    13
 73
     9
 74
     7
 42
0.000000001
 43
0.0000000001
 44
0.0000000001
 40
0.0
 40
0.0
 40
0.0
 40
0.0
 40
3.120527172131271
 40
8.165516562103036
 40
12.23173695454986
 40
15.04394903435556
 40
16.53934001018159
 40
17.6238013552112
 40
17.6238013552112
 40
17.6238013552112
 40
17.6238013552112
 10
689.151831345089
 20
812.786041997676
 30
0.0
 10
690.079816221878
 20
813.2147152837755
 30
0.0
 10
692.5080840954842
 20
814.33642922001
 30
0.0
 10
693.093228573081
 20
822.1670712680902
 30
0.0
 10
689.6319219162319
 20
816.5349948630212
 30
0.0
 10
689.7834897688892
 20
813.675859411481
 30
0.0
 10
691.6070976628205
 20
812.5557786238884
 30
0.0
 10
692.4137092516683
 20
812.9592736576935
 30
0.0
 10
692.7527748181298
 20
813.1288859891964
 30
0.0
 11
689.151831345089
 21
812.786041997676
 31
0.0
 11
691.638196926084
 21
814.6716920260887
 31
0.0
 11
692.1954858721068
 21
819.6858068009586
 31
0.0
 11
690.0091994402316
 21
816.2573523506635
 31
0.0
 11
690.3950151883186
 21
813.471731595727
 31
0.0
 11
691.7239335250521
 21
812.786041997676
 31
0.0
 11
692.7527748181298
 21
813.1288859891964
 31
0.0
  0
TEXT
  5
5721
330
1A
100
AcDbEntity
  8
寸法線
 48
10.0
100
AcDbText
 10
694.834896686875
 20
812.860250408298
 30
0.0
 40
4.576
  1
2
100
AcDbText
  0
SPLINE
  5
5722
330
1A
100
AcDbEntity
  8
寸法線
 48
10.0
100
AcDbSpline
210
0.0
220
0.0
230
1.0
 70
  1064
 71
     3
 72
    13
 73
     9
 74
     7
 42
0.000000001
 43
0.0000000001
 44
0.0000000001
 40
0.0
 40
0.0
 40
0.0
 40
0.0
 40
3.120527172131271
 40
8.165516562103022
 40
12.23173695454978
 40
15.04394903435548
 40
16.53934001018152
 40
17.62380135521112
 40
17.62380135521112
 40
17.62380135521112
 40
17.62380135521112
 10
711.9003374484995
 20
812.786041997676
 30
0.0
 10
712.8283223252885
 20
813.2147152837756
 30
0.0
 10
715.2565901988947
 20
814.3364292200101
 30
0.0
 10
715.8417346764909
 20
822.16707126809
 30
0.0
 10
712.3804280196425
 20
816.5349948630214
 30
0.0
 10
712.5319958722998
 20
813.6758594114812
 30
0.0
 10
714.3556037662308
 20
812.5557786238884
 30
0.0
 10
715.1622153550787
 20
812.9592736576935
 30
0.0
 10
715.5012809215402
 20
813.1288859891964
 30
0.0
 11
711.9003374484995
 21
812.786041997676
 31
0.0
 11
714.3867030294945
 21
814.6716920260887
 31
0.0
 11
714.9439919755172
 21
819.6858068009586
 31
0.0
 11
712.757705543642
 21
816.2573523506635
 31
0.0
 11
713.143521291729
 21
813.471731595727
 31
0.0
 11
714.4724396284626
 21
812.786041997676
 31
0.0
 11
715.5012809215402
 21
813.1288859891964
 31
0.0
  0
TEXT
  5
5723
330
1A
100
AcDbEntity
  8
寸法線
 48
10.0
100
AcDbText
 10
717.583402790286
 20
812.860250408298
 30
0.0
 40
4.576
  1
3
100
AcDbText
  0
MTEXT
  5
5724
330
1A
100
AcDbEntity
  8
寸法線
 48
10.0
100
AcDbMText
 10
734.969175004556
 20
819.529839849665
 30
0.0
 40
7.04
 41
17.00322298061
 71
     1
 72
     5
  1
記事
  0
MTEXT
  5
5725
330
1A
100
AcDbEntity
  8
寸法線
 48
10.0
100
AcDbMText
 10
766.37341089262
 20
819.529839849665
 30
0.0
 40
7.04
 41
17.00322298061
 71
     1
 72
     5
  1
台数
  0
LINE
  5
572A
330
1A
100
AcDbEntity
  8
寸法線
100
AcDbLine
 10
573.417874582593
 20
718.089431591386
 30
0.0
 11
573.417874582593
 21
822.361519388728
 31
0.0
  0
LINE
  5
572B
330
1A
100
AcDbEntity
  8
寸法線
 48
10.0
100
AcDbLine
 10
639.158579730923
 20
822.041908901118
 30
0.0
 11
639.158579730923
 21
717.769821103777
 31
0.0
  0
LINE
  5
572C
330
1A
100
AcDbEntity
  8
寸法線
 48
10.0
100
AcDbLine
 10
661.553957973517
 20
822.361519388728
 30
0.0
 11
661.553957973517
 21
718.089431591386
 31
0.0
  0
LINE
  5
572D
330
1A
100
AcDbEntity
  8
寸法線
 48
10.0
100
AcDbLine
 10
684.87331700219
 20
822.361519388728
 30
0.0
 11
684.87331700219
 21
718.089431591386
 31
0.0
  0
LINE
  5
572E
330
1A
100
AcDbEntity
  8
寸法線
 48
10.0
100
AcDbLine
 10
703.263392892824
 20
822.361519388728
 30
0.0
 11
703.263392892824
 21
718.089431591386
 31
0.0
  0
LINE
  5
572F
330
1A
100
AcDbEntity
  8
寸法線
 48
10.0
100
AcDbLine
 10
726.011898996235
 20
822.361519388728
 30
0.0
 11
726.011898996235
 21
718.089431591386
 31
0.0
  0
LINE
  5
5730
330
1A
100
AcDbEntity
  8
寸法線
100
AcDbLine
 10
759.931791156234
 20
718.089431591386
 30
0.0
 11
759.931791156234
 21
822.361519388728
 31
0.0
  0
LINE
  5
5731
330
1A
100
AcDbEntity
  8
寸法線
100
AcDbLine
 10
787.877351492809
 20
718.089431591386
 30
0.0
 11
787.877351492809
 21
822.361519388728
 31
0.0
  0
TEXT
  5
5732
330
1A
100
AcDbEntity
  8
寸法線
 48
10.0
100
AcDbText
 10
645.94423299643
 20
706.535628128265
 30
0.0
 40
7.04
  1
○印が今回の貴社の御仕様です。
100
AcDbText
  0
LINE
  5
5734
330
1A
100
AcDbEntity
  8
寸法線
100
AcDbLine
 10
300.408090429542
 20
718.089431591386
 30
0.0
 11
787.877351492809
 21
718.089431591386
 31
0.0
  0
ARC
  5
57F8
330
1A
100
AcDbEntity
  8
外形線
 48
10.0
100
AcDbCircle
 10
494.305927854654
 20
948.398457615049
 30
0.0
 40
1.0
100
AcDbArc
 50
180.0
 51
268.999999999998
  0
ARC
  5
57F9
330
1A
100
AcDbEntity
  8
外形線
 48
10.0
100
AcDbCircle
 10
494.305927854654
 20
990.946458722379
 30
0.0
 40
1.0
100
AcDbArc
 50
91.000000000002
 51
180.0
  0
LINE
  5
57FA
330
1A
100
AcDbEntity
  8
外形線
 48
10.0
100
AcDbLine
 10
493.305927854654
 20
990.946458722379
 30
0.0
 11
493.305927854654
 21
948.398457615049
 31
0.0
  0
LINE
  5
57FB
330
1A
100
AcDbEntity
  8
外形線
 48
10.0
100
AcDbLine
 10
507.433710695724
 20
992.930536273114
 30
0.0
 11
513.686143939791
 21
1018.007676316626
 31
0.0
  0
ARC
  5
57FC
330
1A
100
AcDbEntity
  8
外形線
 48
10.0
100
AcDbCircle
 10
518.537622571171
 20
1016.798066838627
 30
0.0
 40
5.0
100
AcDbArc
 50
91.3
 51
166.000000000005
  0
ARC
  5
57FD
330
1A
100
AcDbEntity
  8
外形線
 48
10.0
100
AcDbCircle
 10
506.463414969448
 20
993.172458168714
 30
0.0
 40
1.0
100
AcDbArc
 50
270.0
 51
346.000000000009
  0
ARC
  5
57FE
330
1A
100
AcDbEntity
  8
外形線
 48
10.0
100
AcDbCircle
 10
506.463414969448
 20
993.172458168714
 30
0.0
 40
1.0
100
AcDbArc
 50
270.0
 51
346.000000000009
  0
LINE
  5
57FF
330
1A
100
AcDbEntity
  8
外形線
 48
10.0
100
AcDbLine
 10
494.288475448217
 20
991.946306417535
 30
0.0
 11
506.463414969448
 21
992.172458168714
 31
0.0
  0
ARC
  5
5800
330
1A
100
AcDbEntity
  8
外形線
 48
10.0
100
AcDbCircle
 10
595.306967084356
 20
1026.921906761267
 30
0.0
 40
0.5
100
AcDbArc
 50
359.999254274577
 51
88.999999999998
  0
ARC
  5
5801
330
1A
100
AcDbEntity
  8
細線
 48
10.0
100
AcDbCircle
 10
596.305927854654
 20
982.805499920183
 30
0.0
 40
0.5
100
AcDbArc
 50
180.0
 51
264.089361084594
  0
ARC
  5
5802
330
1A
100
AcDbEntity
  8
外形線
 48
10.0
100
AcDbCircle
 10
596.305927854654
 20
975.431109537156
 30
0.0
 40
0.5
100
AcDbArc
 50
91.000000000002
 51
180.0
  0
ARC
  5
5803
330
1A
100
AcDbEntity
  8
細線
 48
10.0
100
AcDbCircle
 10
596.305927854654
 20
983.064318965285
 30
0.0
 40
0.5
100
AcDbArc
 50
180.0
 51
264.089361084594
  0
ARC
  5
5804
330
1A
100
AcDbEntity
  8
細線
 48
10.0
100
AcDbCircle
 10
596.305927854654
 20
1004.698884332887
 30
0.0
 40
0.5
100
AcDbArc
 50
180.0
 51
254.206830951723
  0
ARC
  5
5805
330
1A
100
AcDbEntity
  8
細線
 48
10.0
100
AcDbCircle
 10
596.305927854654
 20
1005.405991114073
 30
0.0
 40
0.5
100
AcDbArc
 50
180.0
 51
254.206830951723
  0
ARC
  5
5806
330
1A
100
AcDbEntity
  8
細線
 48
10.0
100
AcDbCircle
 10
596.305927854654
 20
1017.345661353142
 30
0.0
 40
0.5
100
AcDbArc
 50
180.0
 51
248.874947125992
  0
ARC
  5
5807
330
1A
100
AcDbEntity
  8
細線
 48
10.0
100
AcDbCircle
 10
596.305927854654
 20
1018.311587179432
 30
0.0
 40
0.5
100
AcDbArc
 50
180.0
 51
248.874947125992
  0
ARC
  5
5808
330
1A
100
AcDbEntity
  8
外形線
 48
10.0
100
AcDbCircle
 10
596.305815776735
 20
1019.617753621809
 30
0.0
 40
0.5
100
AcDbArc
 50
180.019033969441
 51
248.025023881981
  0
LINE
  5
5809
330
1A
100
AcDbEntity
  8
外形線
 48
10.0
100
AcDbLine
 10
595.805927854654
 20
1018.311587179432
 30
0.0
 11
595.805927854654
 21
1019.280295251175
 31
0.0
  0
LINE
  5
580A
330
1A
100
AcDbEntity
  8
外形線
 48
10.0
100
AcDbLine
 10
595.805927854654
 20
1017.345661353142
 30
0.0
 11
595.805927854654
 21
1017.968749483166
 31
0.0
  0
LINE
  5
580B
330
1A
100
AcDbEntity
  8
外形線
 48
10.0
100
AcDbLine
 10
595.805927854654
 20
1005.405991114073
 30
0.0
 11
595.805927854654
 21
1017.002823656877
 31
0.0
  0
LINE
  5
580C
330
1A
100
AcDbEntity
  8
外形線
 48
10.0
100
AcDbLine
 10
595.805927854654
 20
1004.698884332887
 30
0.0
 11
595.805927854654
 21
1005.02779722804
 31
0.0
  0
LINE
  5
580D
330
1A
100
AcDbEntity
  8
外形線
 48
10.0
100
AcDbLine
 10
595.805927854654
 20
983.064318965285
 30
0.0
 11
595.805927854654
 21
1005.405991114073
 31
0.0
  0
LINE
  5
580E
330
1A
100
AcDbEntity
  8
外形線
 48
10.0
100
AcDbLine
 10
595.805927854654
 20
982.805499920183
 30
0.0
 11
595.805927854654
 21
983.68582640428
 31
0.0
  0
LINE
  5
580F
330
1A
100
AcDbEntity
  8
外形線
 48
10.0
100
AcDbLine
 10
595.805927854654
 20
975.431109537156
 30
0.0
 11
595.805927854654
 21
983.064318965285
 31
0.0
  0
ARC
  5
5810
330
1A
100
AcDbEntity
  8
外形線
 48
10.0
100
AcDbCircle
 10
596.305927854654
 20
963.913806800271
 30
0.0
 40
0.5
100
AcDbArc
 50
180.0
 51
268.999999999998
  0
LINE
  5
5811
330
1A
100
AcDbEntity
  8
外形線
 48
10.0
100
AcDbLine
 10
595.805927854654
 20
963.913806800271
 30
0.0
 11
595.805927854654
 21
975.431109537156
 31
0.0
  0
ARC
  5
5812
330
1A
100
AcDbEntity
  8
外形線
 48
10.0
100
AcDbCircle
 10
607.804048598367
 20
962.712954028094
 30
0.0
 40
0.5
100
AcDbArc
 50
0.002863323122
 51
88.999999999998
  0
ARC
  5
5813
330
1A
100
AcDbEntity
  8
外形線
 48
10.0
100
AcDbCircle
 10
607.804048598367
 20
976.631962309334
 30
0.0
 40
0.5
100
AcDbArc
 50
271.000000000002
 51
359.997136676878
  0
ARC
  5
5814
330
1A
100
AcDbEntity
  8
細線
 48
10.0
100
AcDbCircle
 10
607.805762062775
 20
980.868423820919
 30
0.0
 40
0.5
100
AcDbArc
 50
359.97893674797
 51
84.089361084594
  0
ARC
  5
5815
330
1A
100
AcDbEntity
  8
細線
 48
10.0
100
AcDbCircle
 10
607.804247386563
 20
980.609761586636
 30
0.0
 40
0.5
100
AcDbArc
 50
359.997136676878
 51
84.089361084594
  0
ARC
  5
5816
330
1A
100
AcDbEntity
  8
細線
 48
10.0
100
AcDbCircle
 10
607.805807619904
 20
1011.830403284306
 30
0.0
 40
0.5
100
AcDbArc
 50
359.997136676878
 51
68.874947125992
  0
ARC
  5
5817
330
1A
100
AcDbEntity
  8
細線
 48
10.0
100
AcDbCircle
 10
607.805855890551
 20
1012.79631046025
 30
0.0
 40
0.5
100
AcDbArc
 50
359.997136676878
 51
68.874947125992
  0
ARC
  5
5818
330
1A
100
AcDbEntity
  8
外形線
 48
10.0
100
AcDbCircle
 10
607.805910992345
 20
1013.898910502757
 30
0.0
 40
0.5
100
AcDbArc
 50
359.997136676878
 51
68.025023881981
  0
LINE
  5
5819
330
1A
100
AcDbEntity
  8
外形線
 48
10.0
100
AcDbLine
 10
607.812774801586
 20
976.132038461756
 30
0.0
 11
596.297201651435
 21
975.931033384734
 31
0.0
  0
LINE
  5
581A
330
1A
100
AcDbEntity
  8
外形線
 48
10.0
100
AcDbLine
 10
607.812774801586
 20
963.212877875672
 30
0.0
 11
596.297201651435
 21
963.413882952693
 31
0.0
  0
LINE
  5
581B
330
1A
100
AcDbEntity
  8
外形線
 48
10.0
100
AcDbLine
 10
596.118714971256
 20
1019.154079934191
 30
0.0
 11
607.993011797823
 21
1014.362584190375
 31
0.0
  0
LINE
  5
581C
330
1A
100
AcDbEntity
  8
細線
 48
10.0
100
AcDbLine
 10
607.855736004321
 20
981.107103443151
 30
0.0
 11
596.254439236897
 21
982.308158063668
 31
0.0
  0
LINE
  5
581D
330
1A
100
AcDbEntity
  8
細線
 48
10.0
100
AcDbLine
 10
607.857250680532
 20
981.365765677434
 30
0.0
 11
596.254439236897
 21
982.566977108771
 31
0.0
  0
LINE
  5
581E
330
1A
100
AcDbEntity
  8
細線
 48
10.0
100
AcDbLine
 10
607.941354850134
 20
1001.595380139602
 30
0.0
 11
596.169845091166
 21
1004.924865889748
 31
0.0
  0
LINE
  5
581F
330
1A
100
AcDbEntity
  8
細線
 48
10.0
100
AcDbLine
 10
607.986009976114
 20
1012.296801301901
 30
0.0
 11
596.125725498444
 21
1016.879263335547
 31
0.0
  0
LINE
  5
5820
330
1A
100
AcDbEntity
  8
細線
 48
10.0
100
AcDbLine
 10
607.986058246761
 20
1013.262708477845
 30
0.0
 11
596.125725498444
 21
1017.845189161837
 31
0.0
  0
LINE
  5
5821
330
1A
100
AcDbEntity
  8
外形線
 48
10.0
100
AcDbLine
 10
581.306963758285
 20
1027.672458168714
 30
0.0
 11
595.315693287575
 21
1027.421830608845
 31
0.0
  0
LINE
  5
5822
330
1A
100
AcDbEntity
  8
外形線
 48
10.0
100
AcDbLine
 10
581.306963758285
 20
1027.672458168714
 30
0.0
 11
580.806963758285
 21
1027.166353892341
 31
0.0
  0
LINE
  5
5823
330
1A
100
AcDbEntity
  8
外形線
 48
10.0
100
AcDbLine
 10
580.806963758285
 20
1026.178562445087
 30
0.0
 11
580.806963758285
 21
1025.678562445087
 31
0.0
  0
ARC
  5
5824
330
1A
100
AcDbEntity
  8
外形線
 48
10.0
100
AcDbCircle
 10
571.405927854654
 20
1027.400236615681
 30
0.0
 40
4.4
100
AcDbArc
 50
271.299999999999
 51
0.0
  0
LINE
  5
5825
330
1A
100
AcDbEntity
  8
外形線
 48
10.0
100
AcDbLine
 10
518.424185903307
 20
1021.796779885241
 30
0.0
 11
571.505752122374
 21
1023.001369134661
 31
0.0
  0
LINE
  5
5826
330
1A
100
AcDbEntity
  8
外形線
 48
10.0
100
AcDbLine
 10
575.805927854654
 20
1027.672458168714
 30
0.0
 11
575.805927854654
 21
1027.400236615681
 31
0.0
  0
LINE
  5
5827
330
1A
100
AcDbEntity
  8
外形線
 48
10.0
100
AcDbLine
 10
578.805927854654
 20
1027.672458168714
 30
0.0
 11
575.805927854654
 21
1027.672458168714
 31
0.0
  0
ARC
  5
5828
330
1A
100
AcDbEntity
  8
外形線
 48
10.0
100
AcDbCircle
 10
580.305927854654
 20
1025.147458168714
 30
0.0
 40
1.500000000000156
100
AcDbArc
 50
70.528779365512
 51
179.999999999991
  0
LINE
  5
5829
330
1A
100
AcDbEntity
  8
細線
 48
10.0
100
AcDbLine
 10
581.306963758285
 20
1027.672458168714
 30
0.0
 11
581.306963758285
 21
911.672458168714
 31
0.0
  0
LINE
  5
582A
330
1A
100
AcDbEntity
  8
細線
 48
10.0
100
AcDbLine
 10
581.306963758285
 20
1027.666353892341
 30
0.0
 11
581.306963758285
 21
911.678562445087
 31
0.0
  0
LINE
  5
582B
330
1A
100
AcDbEntity
  8
外形線
 48
10.0
100
AcDbLine
 10
595.805927854654
 20
947.94212166501
 30
0.0
 11
595.805927854654
 21
934.646032004541
 31
0.0
  0
ARC
  5
582C
330
1A
100
AcDbEntity
  8
細線
 48
10.0
100
AcDbCircle
 10
596.305927854654
 20
921.999254984285
 30
0.0
 40
0.5
100
AcDbArc
 50
111.125052874008
 51
180.0
  0
ARC
  5
582D
330
1A
100
AcDbEntity
  8
細線
 48
10.0
100
AcDbCircle
 10
596.305469157167
 20
921.033151930896
 30
0.0
 40
0.5
100
AcDbArc
 50
111.125052874008
 51
179.923306313171
  0
ARC
  5
582E
330
1A
100
AcDbEntity
  8
細線
 48
10.0
100
AcDbCircle
 10
596.305927854654
 20
934.646032004541
 30
0.0
 40
0.5
100
AcDbArc
 50
105.793169048277
 51
180.0
  0
ARC
  5
582F
330
1A
100
AcDbEntity
  8
細線
 48
10.0
100
AcDbCircle
 10
596.305927854654
 20
933.938925223354
 30
0.0
 40
0.5
100
AcDbArc
 50
105.793169048277
 51
180.0
  0
ARC
  5
5830
330
1A
100
AcDbEntity
  8
細線
 48
10.0
100
AcDbCircle
 10
596.305927854654
 20
956.280597372142
 30
0.0
 40
0.5
100
AcDbArc
 50
95.910638915406
 51
180.0
  0
ARC
  5
5831
330
1A
100
AcDbEntity
  8
細線
 48
10.0
100
AcDbCircle
 10
596.305927854654
 20
956.539416417244
 30
0.0
 40
0.5
100
AcDbArc
 50
95.910638915406
 51
180.0
  0
LINE
  5
5832
330
1A
100
AcDbEntity
  8
外形線
 48
10.0
100
AcDbLine
 10
595.805927854654
 20
956.280597372142
 30
0.0
 11
595.805927854654
 21
963.913806800271
 31
0.0
  0
LINE
  5
5833
330
1A
100
AcDbEntity
  8
外形線
 48
10.0
100
AcDbLine
 10
595.805927854654
 20
956.731505913589
 30
0.0
 11
595.805927854654
 21
956.990324958691
 31
0.0
  0
LINE
  5
5834
330
1A
100
AcDbEntity
  8
外形線
 48
10.0
100
AcDbLine
 10
595.805927854654
 20
947.94212166501
 30
0.0
 11
595.805927854654
 21
956.280597372142
 31
0.0
  0
LINE
  5
5835
330
1A
100
AcDbEntity
  8
外形線
 48
10.0
100
AcDbLine
 10
595.805927854654
 20
933.938925223354
 30
0.0
 11
595.805927854654
 21
934.646032004541
 31
0.0
  0
LINE
  5
5836
330
1A
100
AcDbEntity
  8
外形線
 48
10.0
100
AcDbLine
 10
595.805927854654
 20
921.999254984285
 30
0.0
 11
595.805927854654
 21
933.938925223354
 31
0.0
  0
LINE
  5
5837
330
1A
100
AcDbEntity
  8
外形線
 48
10.0
100
AcDbLine
 10
595.805469605101
 20
921.033821209371
 30
0.0
 11
595.805927854654
 21
921.999254984285
 31
0.0
  0
LINE
  5
5838
330
1A
100
AcDbEntity
  8
外形線
 48
10.0
100
AcDbLine
 10
595.803719434422
 20
919.726316803189
 30
0.0
 11
595.805469605101
 21
921.033821209371
 31
0.0
  0
ARC
  5
5839
330
1A
100
AcDbEntity
  8
外形線
 48
10.0
100
AcDbCircle
 10
596.303719434422
 20
919.726316803189
 30
0.0
 40
0.5
100
AcDbArc
 50
111.974976118019
 51
180.0
  0
ARC
  5
583A
330
1A
100
AcDbEntity
  8
細線
 48
10.0
100
AcDbCircle
 10
607.805896352806
 20
938.937944772472
 30
0.0
 40
0.5
100
AcDbArc
 50
285.793169048277
 51
0.004772330151
  0
ARC
  5
583B
330
1A
100
AcDbEntity
  8
細線
 48
10.0
100
AcDbCircle
 10
607.805927854654
 20
938.230846901352
 30
0.0
 40
0.5
100
AcDbArc
 50
285.793169048277
 51
0.0
  0
ARC
  5
583C
330
1A
100
AcDbEntity
  8
細線
 48
10.0
100
AcDbCircle
 10
607.805927854654
 20
927.514559508262
 30
0.0
 40
0.5
100
AcDbArc
 50
291.125052874008
 51
0.0
  0
ARC
  5
583D
330
1A
100
AcDbEntity
  8
細線
 48
10.0
100
AcDbCircle
 10
607.805927854654
 20
926.548633681971
 30
0.0
 40
0.5
100
AcDbArc
 50
291.125052874008
 51
0.0
  0
ARC
  5
583E
330
1A
100
AcDbEntity
  8
外形線
 48
10.0
100
AcDbCircle
 10
607.805927854654
 20
925.44601263892
 30
0.0
 40
0.5
100
AcDbArc
 50
291.974976118019
 51
0.0
  0
LINE
  5
583F
330
1A
100
AcDbEntity
  8
外形線
 48
10.0
100
AcDbLine
 10
608.305927854654
 20
926.548633681971
 30
0.0
 11
608.305927854654
 21
925.44601263892
 31
0.0
  0
LINE
  5
5840
330
1A
100
AcDbEntity
  8
外形線
 48
10.0
100
AcDbLine
 10
608.305927854654
 20
927.514559508262
 30
0.0
 11
608.305927854654
 21
926.548633681971
 31
0.0
  0
LINE
  5
5841
330
1A
100
AcDbEntity
  8
外形線
 48
10.0
100
AcDbLine
 10
608.305927854654
 20
938.230846901352
 30
0.0
 11
608.305927854654
 21
927.514559508262
 31
0.0
  0
LINE
  5
5842
330
1A
100
AcDbEntity
  8
外形線
 48
10.0
100
AcDbLine
 10
608.305896351072
 20
938.937986418909
 30
0.0
 11
608.305927854654
 21
938.230846901352
 31
0.0
  0
LINE
  5
5843
330
1A
100
AcDbEntity
  8
外形線
 48
10.0
100
AcDbLine
 10
608.304247385939
 20
958.735179737999
 30
0.0
 11
608.305896351072
 21
938.937986418909
 31
0.0
  0
ARC
  5
5844
330
1A
100
AcDbEntity
  8
細線
 48
10.0
100
AcDbCircle
 10
607.804196412512
 20
958.476330428466
 30
0.0
 40
0.5
100
AcDbArc
 50
275.910638915406
 51
0.001999028164
  0
ARC
  5
5845
330
1A
100
AcDbEntity
  8
細線
 48
10.0
100
AcDbCircle
 10
607.804247386563
 20
958.735154750791
 30
0.0
 40
0.5
100
AcDbArc
 50
275.910638915406
 51
0.002863323122
  0
ARC
  5
5846
330
1A
100
AcDbEntity
  8
外形線
 48
10.0
100
AcDbCircle
 10
595.304888640161
 20
912.422973296782
 30
0.0
 40
0.5
100
AcDbArc
 50
271.000000000002
 51
359.984453673186
  0
LINE
  5
5847
330
1A
100
AcDbEntity
  8
外形線
 48
10.0
100
AcDbLine
 10
608.304048597743
 20
962.712979015302
 30
0.0
 11
608.304196412208
 21
958.476347873278
 31
0.0
  0
LINE
  5
5848
330
1A
100
AcDbEntity
  8
外形線
 48
10.0
100
AcDbLine
 10
596.116618628943
 20
920.189990490807
 30
0.0
 11
607.993028660132
 21
924.982338951302
 31
0.0
  0
LINE
  5
5849
330
1A
100
AcDbEntity
  8
細線
 48
10.0
100
AcDbLine
 10
607.986130210864
 20
927.048161490667
 30
0.0
 11
596.125725498444
 21
922.46565300188
 31
0.0
  0
LINE
  5
584A
330
1A
100
AcDbEntity
  8
細線
 48
10.0
100
AcDbLine
 10
607.986130210864
 20
926.082235664376
 30
0.0
 11
596.125266800957
 21
921.499549948491
 31
0.0
  0
LINE
  5
584B
330
1A
100
AcDbEntity
  8
細線
 48
10.0
100
AcDbLine
 10
607.942010618142
 20
937.749721677027
 30
0.0
 11
596.169845091166
 21
934.420050447679
 31
0.0
  0
LINE
  5
584C
330
1A
100
AcDbEntity
  8
細線
 48
10.0
100
AcDbLine
 10
607.941979116294
 20
938.456819548147
 30
0.0
 11
596.169845091166
 21
935.127157228866
 31
0.0
  0
LINE
  5
584D
330
1A
100
AcDbEntity
  8
細線
 48
10.0
100
AcDbLine
 10
607.855685030269
 20
957.978988571952
 30
0.0
 11
596.254439236897
 21
956.777939228657
 31
0.0
  0
LINE
  5
584E
330
1A
100
AcDbEntity
  8
細線
 48
10.0
100
AcDbLine
 10
607.855736004321
 20
958.237812894277
 30
0.0
 11
596.254439236897
 21
957.036758273759
 31
0.0
  0
LINE
  5
584F
330
1A
100
AcDbEntity
  8
外形線
 48
10.0
100
AcDbLine
 10
595.806872233214
 20
919.733410945307
 30
0.0
 11
595.804888621755
 21
912.422837629489
 31
0.0
  0
LINE
  5
5850
330
1A
100
AcDbEntity
  8
外形線
 48
10.0
100
AcDbLine
 10
595.806967084314
 20
1026.921900253585
 30
0.0
 11
595.804888621755
 21
912.422837629489
 31
0.0
  0
LINE
  5
5851
330
1A
100
AcDbEntity
  8
外形線
 48
10.0
100
AcDbLine
 10
580.806963758285
 20
1027.166353892341
 30
0.0
 11
580.806963758285
 21
912.178562445087
 31
0.0
  0
LINE
  5
5852
330
1A
100
AcDbEntity
  8
外形線
 48
10.0
100
AcDbLine
 10
581.306963758285
 20
911.672458168714
 30
0.0
 11
595.31361484338
 21
911.923049449204
 31
0.0
  0
LINE
  5
5853
330
1A
100
AcDbEntity
  8
外形線
 48
10.0
100
AcDbLine
 10
581.306963758285
 20
911.672458168714
 30
0.0
 11
580.806963758285
 21
912.178562445087
 31
0.0
  0
LINE
  5
5854
330
1A
100
AcDbEntity
  8
外形線
 48
10.0
100
AcDbLine
 10
580.806963758285
 20
913.178562445087
 30
0.0
 11
580.806963758285
 21
913.678562445087
 31
0.0
  0
LINE
  5
5855
330
1A
100
AcDbEntity
  8
外形線
 48
10.0
100
AcDbLine
 10
507.430333795431
 20
946.427924071622
 30
0.0
 11
513.686143939792
 21
921.337240020802
 31
0.0
  0
ARC
  5
5856
330
1A
100
AcDbEntity
  8
外形線
 48
10.0
100
AcDbCircle
 10
518.537622571172
 20
922.5468494988
 30
0.0
 40
5.0
100
AcDbArc
 50
193.999999999995
 51
268.7
  0
ARC
  5
5857
330
1A
100
AcDbEntity
  8
外形線
 48
10.0
100
AcDbCircle
 10
506.460038069155
 20
946.186002176022
 30
0.0
 40
1.0
100
AcDbArc
 50
13.999999999991
 51
89.000000000011
  0
ARC
  5
5858
330
1A
100
AcDbEntity
  8
外形線
 48
10.0
100
AcDbCircle
 10
541.805927854654
 20
916.017273043054
 30
0.0
 40
1.0
100
AcDbArc
 50
0.0
 51
88.7
  0
ARC
  5
5859
330
1A
100
AcDbEntity
  8
外形線
 48
10.0
100
AcDbCircle
 10
543.805927854654
 20
906.172458168714
 30
0.0
 40
1.0
100
AcDbArc
 50
180.0
 51
270.0
  0
ARC
  5
585A
330
1A
100
AcDbEntity
  8
外形線
 48
10.0
100
AcDbCircle
 10
577.805927854654
 20
906.172458168714
 30
0.0
 40
1.0
100
AcDbArc
 50
270.0
 51
0.0
  0
LINE
  5
585B
330
1A
100
AcDbEntity
  8
外形線
 48
10.0
100
AcDbLine
 10
542.805927854654
 20
906.172458168714
 30
0.0
 11
542.805927854654
 21
916.017273043054
 31
0.0
  0
LINE
  5
585C
330
1A
100
AcDbEntity
  8
外形線
 48
10.0
100
AcDbLine
 10
518.424185903308
 20
917.548136452187
 30
0.0
 11
571.505752122374
 21
916.343547202766
 31
0.0
  0
LINE
  5
585D
330
1A
100
AcDbEntity
  8
外形線
 48
10.0
100
AcDbLine
 10
494.288475448217
 20
947.398609919892
 30
0.0
 11
506.477490475592
 21
947.185849871178
 31
0.0
  0
LINE
  5
585E
330
1A
100
AcDbEntity
  8
外形線
 48
10.0
100
AcDbLine
 10
578.805927854654
 20
915.697458168714
 30
0.0
 11
578.805927854654
 21
906.172458168714
 31
0.0
  0
LINE
  5
585F
330
1A
100
AcDbEntity
  8
外形線
 48
10.0
100
AcDbLine
 10
578.805927854654
 20
915.697458168714
 30
0.0
 11
578.805927854654
 21
1027.672458168714
 31
0.0
  0
LINE
  5
5860
330
1A
100
AcDbEntity
  8
外形線
 48
10.0
100
AcDbLine
 10
577.805927854654
 20
905.172458168714
 30
0.0
 11
543.805927854654
 21
905.172458168714
 31
0.0
  0
LINE
  5
5861
330
1A
100
AcDbEntity
  8
外形線
 48
10.0
100
AcDbLine
 10
575.805927854654
 20
911.944679721747
 30
0.0
 11
575.805927854654
 21
911.678562445087
 31
0.0
  0
LINE
  5
5862
330
1A
100
AcDbEntity
  8
外形線
 48
10.0
100
AcDbLine
 10
578.805927854654
 20
911.678562445087
 30
0.0
 11
575.805927854654
 21
911.678562445087
 31
0.0
  0
ARC
  5
5863
330
1A
100
AcDbEntity
  8
外形線
 48
10.0
100
AcDbCircle
 10
580.305927854654
 20
914.197458168713
 30
0.0
 40
1.499999999999659
100
AcDbArc
 50
179.999999999983
 51
289.471220634513
  0
ARC
  5
5864
330
1A
100
AcDbEntity
  8
外形線
 48
10.0
100
AcDbCircle
 10
571.405927854654
 20
911.944679721747
 30
0.0
 40
4.4
100
AcDbArc
 50
0.0
 51
88.700000000001
  0
LINE
  5
5865
330
1A
100
AcDbEntity
  8
細線
 48
10.0
100
AcDbLine
 10
575.805927854654
 20
1027.672458168714
 30
0.0
 11
575.805927854654
 21
911.944679721747
 31
0.0
  0
LINE
  5
5866
330
1A
100
AcDbEntity
  8
細線
 48
10.0
100
AcDbLine
 10
507.244700595954
 20
947.172458168714
 30
0.0
 11
507.248335810616
 21
992.187038218369
 31
0.0
  0
LINE
  5
5867
330
1A
100
AcDbEntity
  8
細線
 48
10.0
100
AcDbLine
 10
514.609288709333
 20
1019.891316435723
 30
0.0
 11
514.609288709333
 21
919.453599901705
 31
0.0
  0
LINE
  5
5868
330
1A
100
AcDbEntity
  8
外形線
 48
10.0
100
AcDbLine
 10
608.305910991721
 20
1013.898885515549
 30
0.0
 11
608.304048597743
 21
976.631937322126
 31
0.0
  0
ARC
  5
5869
330
1A
100
AcDbEntity
  8
細線
 48
10.0
100
AcDbCircle
 10
607.805236749897
 20
1000.407158128831
 30
0.0
 40
0.5
100
AcDbArc
 50
359.997136676878
 51
74.206830951723
  0
ARC
  5
586A
330
1A
100
AcDbEntity
  8
細線
 48
10.0
100
AcDbCircle
 10
607.805272086646
 20
1001.114254915278
 30
0.0
 40
0.5
100
AcDbArc
 50
359.997136676878
 51
74.206830951723
  0
LINE
  5
586B
330
1A
100
AcDbEntity
  8
細線
 48
10.0
100
AcDbLine
 10
607.941319513385
 20
1000.888283353156
 30
0.0
 11
596.169845091166
 21
1004.217759108562
 31
0.0
  0
LINE
  5
586C
330
1A
100
AcDbEntity
  8
中心線
 48
10.0
100
AcDbLine
 10
560.805927854654
 20
922.585962018557
 30
0.0
 11
560.805927854654
 21
897.323130554959
 31
0.0
  0
MTEXT
  5
592B
102
{ACAD_XDICTIONARY
360
592C
102
}
330
1A
100
AcDbEntity
  8
寸法線
 48
10.0
100
AcDbMText
 10
404.375867092733
 20
807.922022415481
 30
0.0
 40
7.04
 41
23.854899029718
 71
     2
 72
     5
  1
250\P300\P350\P400\P450\P500\P550\P600
1001
ACADANNOTATIVE
1000
AnnotativeData
1002
{
1070
     1
1070
     0
1002
}
1001
ACAD
1000
MTEXTBEGIN
1070
    44
1040
0.98
1000
MTEXTEND
  0
MTEXT
  5
592F
102
{ACAD_XDICTIONARY
360
5930
102
}
330
1A
100
AcDbEntity
  8
寸法線
 48
10.0
100
AcDbMText
 10
425.956736242118
 20
807.34039652432
 30
0.0
 40
7.04
 41
23.854899029718
 71
     2
 72
     5
  1
100\P100\P100\P100\P100\P100\P150\P150
1001
ACADANNOTATIVE
1000
AnnotativeData
1002
{
1070
     1
1070
     0
1002
}
1001
ACAD
1000
MTEXTBEGIN
1070
    44
1040
0.98
1000
MTEXTEND
  0
MTEXT
  5
5933
102
{ACAD_XDICTIONARY
360
5934
102
}
330
1A
100
AcDbEntity
  8
寸法線
 48
10.0
100
AcDbMText
 10
448.081927974201
 20
807.34039652432
 30
0.0
 40
7.04
 41
23.854899029718
 71
     2
 72
     5
  1
50\P50\P50\P50\P50\P50\P50\P50
1001
ACADANNOTATIVE
1000
AnnotativeData
1002
{
1070
     1
1070
     0
1002
}
1001
ACAD
1000
MTEXTBEGIN
1070
    44
1040
0.98
1000
MTEXTEND
  0
MTEXT
  5
5937
102
{ACAD_XDICTIONARY
360
5938
102
}
330
1A
100
AcDbEntity
  8
寸法線
 48
10.0
100
AcDbMText
 10
469.32912674094
 20
807.922022415481
 30
0.0
 40
7.04
 41
23.854899029718
 71
     2
 72
     5
  1
100\P150\P200\P250\P300\P350\P350\P400
1001
ACADANNOTATIVE
1000
AnnotativeData
1002
{
1070
     1
1070
     0
1002
}
1001
ACAD
1000
MTEXTBEGIN
1070
    44
1040
0.98
1000
MTEXTEND
  0
MTEXT
  5
593B
102
{ACAD_XDICTIONARY
360
593C
102
}
330
1A
100
AcDbEntity
  8
寸法線
 48
10.0
100
AcDbMText
 10
672.268777873402
 20
807.816927984653
 30
0.0
 40
7.04
 41
23.854899029718
 71
     2
 72
     5
  1
150\P150\P150\P150\P150\P150\P150\P150
1001
ACADANNOTATIVE
1000
AnnotativeData
1002
{
1070
     1
1070
     0
1002
}
1001
ACAD
1000
MTEXTBEGIN
1070
    44
1040
0.98
1000
MTEXTEND
  0
MTEXT
  5
593F
102
{ACAD_XDICTIONARY
360
5940
102
}
330
1A
100
AcDbEntity
  8
寸法線
 48
10.0
100
AcDbMText
 10
694.422778521908
 20
807.781724768587
 30
0.0
 40
7.04
 41
23.854899029718
 71
     2
 72
     5
  1
50\P50\P50\P50\P50\P50\P50\P50
1001
ACADANNOTATIVE
1000
AnnotativeData
1002
{
1070
     1
1070
     0
1002
}
1001
ACAD
1000
MTEXTBEGIN
1070
    44
1040
0.98
1000
MTEXTEND
  0
MTEXT
  5
5943
102
{ACAD_XDICTIONARY
360
5944
102
}
330
1A
100
AcDbEntity
  8
寸法線
 48
10.0
100
AcDbMText
 10
713.614667758892
 20
807.781724768587
 30
0.0
 40
7.04
 41
23.854899029718
 71
     2
 72
     5
  1
450\P500\P550\P600\P650\P700\P750\P800
1001
ACADANNOTATIVE
1000
AnnotativeData
1002
{
1070
     1
1070
     0
1002
}
1001
ACAD
1000
MTEXTBEGIN
1070
    44
1040
0.98
1000
MTEXTEND
  0
MTEXT
  5
5947
102
{ACAD_XDICTIONARY
360
5948
102
}
330
1A
100
AcDbEntity
  8
寸法線
 48
10.0
100
AcDbMText
 10
650.186077401072
 20
807.940139240887
 30
0.0
 40
7.04
 41
23.854899029718
 71
     2
 72
     5
  1
650\P700\P750\P800\P850\P900\P950\P1000
1001
ACADANNOTATIVE
1000
AnnotativeData
1002
{
1070
     1
1070
     0
1002
}
1001
ACAD
1000
MTEXTBEGIN
1070
    44
1040
0.98
1000
MTEXTEND
  0
LWPOLYLINE
  5
59A3
330
1A
100
AcDbEntity
  8
外形線
100
AcDbPolyline
 90
       10
 70
     0
 43
0.0
 10
459.305927854654
 20
942.672458168714
 10
459.305927854654
 20
942.672458168714
 42
-0.414213562373
 10
461.305927854654
 20
944.672458168714
 10
461.805927854654
 20
944.672458168714
 10
462.305927854654
 20
945.172458168714
 10
462.305927854654
 20
994.172458168714
 10
461.805927854654
 20
994.672458168714
 10
461.305927854654
 20
994.672458168714
 42
-0.414213562373
 10
459.305927854654
 20
996.672458168714
 10
459.305927854654
 20
996.672458168714
  0
LINE
  5
59A4
330
1A
100
AcDbEntity
  8
中心線
 48
10.0
100
AcDbLine
 10
464.305927854654
 20
1034.672458168714
 30
0.0
 11
442.305927854654
 21
1034.672458168714
 31
0.0
  0
LINE
  5
59A5
330
1A
100
AcDbEntity
  8
中心線
 48
10.0
100
AcDbLine
 10
464.305927854654
 20
907.172458168714
 30
0.0
 11
442.305927854654
 21
907.172458168714
 31
0.0
  0
LINE
  5
59A6
330
1A
100
AcDbEntity
  8
外形線
100
AcDbLine
 10
459.305927854654
 20
1046.172458168714
 30
0.0
 11
458.305927854654
 21
1047.172458168714
 31
0.0
  0
LINE
  5
59A7
330
1A
100
AcDbEntity
  8
外形線
100
AcDbLine
 10
458.305927854654
 20
1047.172458168714
 30
0.0
 11
447.805927854654
 21
1047.172458168714
 31
0.0
  0
LINE
  5
59A8
330
1A
100
AcDbEntity
  8
外形線
100
AcDbLine
 10
447.805927854654
 20
1047.172458168714
 30
0.0
 11
447.305927854654
 21
1046.672458168714
 31
0.0
  0
LINE
  5
59A9
330
1A
100
AcDbEntity
  8
外形線
100
AcDbLine
 10
447.305927854654
 20
1046.672458168714
 30
0.0
 11
447.305927854654
 21
892.672458168714
 31
0.0
  0
LINE
  5
59AA
330
1A
100
AcDbEntity
  8
外形線
100
AcDbLine
 10
447.305927854654
 20
892.672458168714
 30
0.0
 11
447.805927854654
 21
892.172458168714
 31
0.0
  0
LINE
  5
59AB
330
1A
100
AcDbEntity
  8
外形線
100
AcDbLine
 10
447.805927854654
 20
892.172458168714
 30
0.0
 11
458.305927854654
 21
892.172458168714
 31
0.0
  0
LINE
  5
59AC
330
1A
100
AcDbEntity
  8
外形線
100
AcDbLine
 10
458.305927854654
 20
892.172458168714
 30
0.0
 11
459.305927854654
 21
893.172458168714
 31
0.0
  0
LINE
  5
59AD
330
1A
100
AcDbEntity
  8
外形線
100
AcDbLine
 10
459.305927854654
 20
893.172458168714
 30
0.0
 11
459.305927854654
 21
1046.172458168714
 31
0.0
  0
LWPOLYLINE
  5
5B96
330
1A
100
AcDbEntity
  8
外形線
100
AcDbPolyline
 90
        6
 70
     0
 43
0.0
 10
317.055927854654
 20
980.422458168714
 10
295.805927854654
 20
980.422458168714
 10
295.305927854654
 20
979.922458168714
 10
295.305927854654
 20
959.422458168714
 10
295.805927854654
 20
958.922458168714
 10
317.055927854654
 20
958.922458168714
  0
LWPOLYLINE
  5
5B97
330
1A
100
AcDbEntity
  8
外形線
100
AcDbPolyline
 90
        6
 70
     0
 43
0.0
 10
391.805927854654
 20
980.422458168714
 10
345.805927854654
 20
980.422458168714
 10
345.305927854654
 20
979.922458168714
 10
345.305927854654
 20
959.422458168714
 10
345.805927854654
 20
958.922458168714
 10
391.805927854654
 20
958.922458168714
  0
DIMENSION
  5
5B98
330
1A
100
AcDbEntity
  8
寸法線
 48
10.0
100
AcDbDimension
  2
*D25
 10
182.667459598382
 20
958.922458168714
 30
0.0
 11
182.667459598382
 21
998.980791502047
 31
0.0
 70
   160
  1
φ<>
  3
ISO-25
100
AcDbAlignedDimension
 13
196.305927854654
 23
980.422458168714
 33
0.0
 14
196.305927854654
 24
958.922458168714
 34
0.0
 50
90.0
100
AcDbRotatedDimension
1001
ACAD
1000
DSTYLE
1002
{
1070
     5
1000
OPEN30
1070
    41
1040
6.0
1070
    47
1040
0.1
1070
    48
1040
0.1
1070
    73
1070
     0
1070
   140
1040
8.0
1070
   271
1070
     1
1070
   272
1070
     1
1070
   341
1005
2AF4
1002
}
  0
DIMENSION
  5
5B99
330
1A
100
AcDbEntity
  8
寸法線
 48
10.0
100
AcDbDimension
  2
*D26
 10
431.99540260369
 20
958.922458168714
 30
0.0
 11
431.99540260369
 21
998.980791502047
 31
0.0
 70
   160
  1
φ<>
  3
ISO-25
100
AcDbAlignedDimension
 13
445.305927854654
 23
980.422458168714
 33
0.0
 14
445.305927854654
 24
958.922458168714
 34
0.0
 50
90.0
100
AcDbRotatedDimension
1001
ACAD
1000
DSTYLE
1002
{
1070
     5
1000
OPEN30
1070
    76
1070
     1
1070
    75
1070
     1
1070
    41
1040
6.0
1070
    47
1040
0.1
1070
    48
1040
0.1
1070
    73
1070
     0
1070
   140
1040
8.0
1070
   271
1070
     1
1070
   272
1070
     1
1070
   341
1005
2AF4
1002
}
  0
LINE
  5
5B9A
330
1A
100
AcDbEntity
  8
外形線
100
AcDbLine
 10
295.305927854654
 20
958.922458168714
 30
0.0
 11
295.305927854654
 21
980.422458168714
 31
0.0
  0
LINE
  5
5B9B
330
1A
100
AcDbEntity
  8
外形線
100
AcDbLine
 10
295.305927854654
 20
980.422458168714
 30
0.0
 11
248.805927854654
 21
980.422458168714
 31
0.0
  0
LINE
  5
5B9C
330
1A
100
AcDbEntity
  8
外形線
100
AcDbLine
 10
196.305927854654
 20
980.422458168714
 30
0.0
 11
195.305927854654
 21
979.422458168714
 31
0.0
  0
LINE
  5
5B9D
330
1A
100
AcDbEntity
  8
外形線
100
AcDbLine
 10
195.305927854654
 20
979.422458168714
 30
0.0
 11
195.305927854654
 21
959.922458168714
 31
0.0
  0
LINE
  5
5B9E
330
1A
100
AcDbEntity
  8
外形線
100
AcDbLine
 10
196.305927854654
 20
958.922458168714
 30
0.0
 11
195.305927854654
 21
959.922458168714
 31
0.0
  0
LINE
  5
5B9F
330
1A
100
AcDbEntity
  8
外形線
100
AcDbLine
 10
295.305927854654
 20
958.922458168714
 30
0.0
 11
248.805927854653
 21
958.922458168714
 31
0.0
  0
ARC
  5
5BA0
330
1A
100
AcDbEntity
  8
細線
 48
10.0
100
AcDbCircle
 10
385.583271604654
 20
975.047458168714
 30
0.0
 40
8.222656249999796
100
AcDbArc
 50
319.180234332391
 51
40.819765667608
  0
ARC
  5
5BA1
330
1A
100
AcDbEntity
  8
細線
 48
10.0
100
AcDbCircle
 10
385.583271604654
 20
964.297458168714
 30
0.0
 40
8.222656249999796
100
AcDbArc
 50
319.180234332391
 51
40.819765667609
  0
ARC
  5
5BA2
330
1A
100
AcDbEntity
  8
細線
 48
10.0
100
AcDbCircle
 10
398.028584104654
 20
975.047458168714
 30
0.0
 40
8.222656249999796
100
AcDbArc
 50
139.180234332391
 51
220.819765667608
  0
ARC
  5
5BA3
330
1A
100
AcDbEntity
  8
細線
 48
10.0
100
AcDbCircle
 10
405.028584104654
 20
975.047458168714
 30
0.0
 40
8.222656249999796
100
AcDbArc
 50
139.180234332391
 51
220.819765667607
  0
ARC
  5
5BA4
330
1A
100
AcDbEntity
  8
細線
 48
10.0
100
AcDbCircle
 10
392.583271604654
 20
964.297458168714
 30
0.0
 40
8.222656249999796
100
AcDbArc
 50
319.180234332391
 51
40.819765667608
  0
ARC
  5
5BA5
330
1A
100
AcDbEntity
  8
細線
 48
10.0
100
AcDbCircle
 10
405.028584104654
 20
964.297458168714
 30
0.0
 40
8.222656249999796
100
AcDbArc
 50
139.180234332391
 51
220.819765667607
  0
ARC
  5
5BA6
330
1A
100
AcDbEntity
  8
細線
 48
10.0
100
AcDbCircle
 10
323.278584104654
 20
975.047458168714
 30
0.0
 40
8.222656249999796
100
AcDbArc
 50
139.18023433239
 51
220.819765667608
  0
ARC
  5
5BA7
330
1A
100
AcDbEntity
  8
細線
 48
10.0
100
AcDbCircle
 10
310.833271604654
 20
975.047458168714
 30
0.0
 40
8.222656249999796
100
AcDbArc
 50
319.180234332391
 51
40.819765667609
  0
ARC
  5
5BA8
330
1A
100
AcDbEntity
  8
細線
 48
10.0
100
AcDbCircle
 10
310.833271604654
 20
964.297458168714
 30
0.0
 40
8.222656249999796
100
AcDbArc
 50
319.180234332392
 51
40.819765667609
  0
ARC
  5
5BA9
330
1A
100
AcDbEntity
  8
細線
 48
10.0
100
AcDbCircle
 10
330.278584104654
 20
964.297458168714
 30
0.0
 40
8.222656249999796
100
AcDbArc
 50
139.180234332391
 51
220.819765667608
  0
ARC
  5
5BAA
330
1A
100
AcDbEntity
  8
細線
 48
10.0
100
AcDbCircle
 10
317.833271604654
 20
964.297458168714
 30
0.0
 40
8.222656249999796
100
AcDbArc
 50
319.180234332391
 51
40.819765667609
  0
ARC
  5
5BAB
330
1A
100
AcDbEntity
  8
細線
 48
10.0
100
AcDbCircle
 10
330.278584104654
 20
975.047458168714
 30
0.0
 40
8.222656249999796
100
AcDbArc
 50
139.180234332391
 51
220.819765667608
  0
LWPOLYLINE
  5
5BAC
330
1A
100
AcDbEntity
  8
外形線
100
AcDbPolyline
 90
        4
 70
     0
 43
0.0
 10
398.805927854654
 20
958.922458168714
 10
445.305927854654
 20
958.922458168714
 10
445.305927854654
 20
980.422458168714
 10
398.805927854654
 20
980.422458168714
  0
LWPOLYLINE
  5
5BAD
330
1A
100
AcDbEntity
  8
外形線
100
AcDbPolyline
 90
        4
 70
     0
 43
0.0
 10
324.055927854654
 20
958.922458168714
 10
345.305927854654
 20
958.922458168714
 10
345.305927854654
 20
980.422458168714
 10
324.055927854654
 20
980.422458168714
  0
ARC
  5
5BAE
330
1A
100
AcDbEntity
  8
細線
 48
10.0
100
AcDbCircle
 10
235.583271604654
 20
975.047458168714
 30
0.0
 40
8.222656249999796
100
AcDbArc
 50
319.180234332391
 51
40.819765667609
  0
ARC
  5
5BAF
330
1A
100
AcDbEntity
  8
細線
 48
10.0
100
AcDbCircle
 10
235.583271604654
 20
964.297458168714
 30
0.0
 40
8.222656249999796
100
AcDbArc
 50
319.180234332391
 51
40.819765667608
  0
ARC
  5
5BB0
330
1A
100
AcDbEntity
  8
細線
 48
10.0
100
AcDbCircle
 10
248.028584104654
 20
975.047458168714
 30
0.0
 40
8.222656249999796
100
AcDbArc
 50
139.180234332391
 51
220.819765667608
  0
ARC
  5
5BB1
330
1A
100
AcDbEntity
  8
細線
 48
10.0
100
AcDbCircle
 10
255.028584104654
 20
975.047458168714
 30
0.0
 40
8.222656249999796
100
AcDbArc
 50
139.18023433239
 51
220.819765667607
  0
ARC
  5
5BB2
330
1A
100
AcDbEntity
  8
細線
 48
10.0
100
AcDbCircle
 10
242.583271604654
 20
964.297458168714
 30
0.0
 40
8.222656249999796
100
AcDbArc
 50
319.180234332391
 51
40.819765667609
  0
ARC
  5
5BB3
330
1A
100
AcDbEntity
  8
細線
 48
10.0
100
AcDbCircle
 10
255.028584104654
 20
964.297458168714
 30
0.0
 40
8.222656249999796
100
AcDbArc
 50
139.18023433239
 51
220.819765667607
  0
LINE
  5
5BB4
330
1A
100
AcDbEntity
  8
外形線
100
AcDbLine
 10
241.805927854654
 20
980.422458168714
 30
0.0
 11
196.305927854654
 21
980.422458168714
 31
0.0
  0
LINE
  5
5BB5
330
1A
100
AcDbEntity
  8
外形線
100
AcDbLine
 10
241.805927854654
 20
958.922458168714
 30
0.0
 11
196.305927854654
 21
958.922458168714
 31
0.0
  0
DIMENSION
  5
5BB6
330
1A
100
AcDbEntity
  8
寸法線
 48
10.0
100
AcDbDimension
  2
*D27
 10
334.605652032218
 20
958.922458168714
 30
0.0
 11
334.605652032218
 21
999.413143593663
 31
0.0
 70
   160
  1
φ<>
  3
ISO-25
100
AcDbAlignedDimension
 13
345.305927854654
 23
980.422458168714
 33
0.0
 14
345.305927854654
 24
958.922458168714
 34
0.0
 50
90.0
100
AcDbRotatedDimension
1001
ACAD
1000
DSTYLE
1002
{
1070
     5
1000
OPEN30
1070
    76
1070
     1
1070
    75
1070
     1
1070
   282
1070
     0
1070
   281
1070
     0
1070
    41
1040
6.0
1070
    47
1040
0.1
1070
    48
1040
0.1
1070
    73
1070
     0
1070
   140
1040
8.0
1070
   271
1070
     1
1070
   272
1070
     1
1070
   341
1005
2AF4
1002
}
  0
LINE
  5
604E
330
1A
100
AcDbEntity
  8
寸法線
100
AcDbLine
 10
15.729080656333
 20
784.80788618792
 30
0.0
 11
15.729080656333
 21
803.55788618792
 31
0.0
  0
LINE
  5
604F
330
1A
100
AcDbEntity
  8
寸法線
100
AcDbLine
 10
44.479080656333
 20
784.80788618792
 30
0.0
 11
15.729080656333
 21
784.80788618792
 31
0.0
  0
CIRCLE
  5
6050
330
1A
100
AcDbEntity
  8
寸法線
100
AcDbCircle
 10
100.729080656333
 20
784.80788618792
 30
0.0
 40
3.75
  0
CIRCLE
  5
6051
330
1A
100
AcDbEntity
  8
寸法線
100
AcDbCircle
 10
100.729080656333
 20
784.80788618792
 30
0.0
 40
2.5
  0
CIRCLE
  5
6052
330
1A
100
AcDbEntity
  8
寸法線
100
AcDbCircle
 10
75.729080656333
 20
784.80788618792
 30
0.0
 40
2.5
  0
CIRCLE
  5
6053
330
1A
100
AcDbEntity
  8
寸法線
100
AcDbCircle
 10
75.729080656333
 20
784.80788618792
 30
0.0
 40
3.75
  0
CIRCLE
  5
6054
330
1A
100
AcDbEntity
  8
寸法線
100
AcDbCircle
 10
50.729080656333
 20
784.80788618792
 30
0.0
 40
2.5
  0
CIRCLE
  5
6055
330
1A
100
AcDbEntity
  8
寸法線
100
AcDbCircle
 10
50.729080656333
 20
784.80788618792
 30
0.0
 40
3.75
  0
LINE
  5
6056
330
1A
100
AcDbEntity
  8
寸法線
100
AcDbLine
 10
110.729080656333
 20
809.80788618792
 30
0.0
 11
110.729080656333
 21
818.55788618792
 31
0.0
  0
LINE
  5
6057
330
1A
100
AcDbEntity
  8
寸法線
100
AcDbLine
 10
40.729080656333
 20
818.55788618792
 30
0.0
 11
40.729080656333
 21
809.80788618792
 31
0.0
  0
LINE
  5
6058
330
1A
100
AcDbEntity
  8
寸法線
100
AcDbLine
 10
110.729080656333
 20
809.80788618792
 30
0.0
 11
40.729080656333
 21
809.80788618792
 31
0.0
  0
LINE
  5
6059
330
1A
100
AcDbEntity
  8
寸法線
100
AcDbLine
 10
106.979080656333
 20
784.80788618792
 30
0.0
 11
135.729080656333
 21
784.80788618792
 31
0.0
  0
LINE
  5
605A
330
1A
100
AcDbEntity
  8
寸法線
100
AcDbLine
 10
135.729080656333
 20
784.80788618792
 30
0.0
 11
135.729080656333
 21
803.55788618792
 31
0.0
  0
LINE
  5
605B
330
1A
100
AcDbEntity
  8
寸法線
100
AcDbLine
 10
100.729080656333
 20
809.80788618792
 30
0.0
 11
100.729080656333
 21
788.55788618792
 31
0.0
  0
LINE
  5
605C
330
1A
100
AcDbEntity
  8
寸法線
100
AcDbLine
 10
75.729080656333
 20
809.80788618792
 30
0.0
 11
75.729080656333
 21
788.55788618792
 31
0.0
  0
LINE
  5
605D
330
1A
100
AcDbEntity
  8
寸法線
100
AcDbLine
 10
50.729080656333
 20
809.80788618792
 30
0.0
 11
50.729080656333
 21
788.55788618792
 31
0.0
  0
TEXT
  5
605E
330
1A
100
AcDbEntity
  8
寸法線
100
AcDbText
 10
44.479080656333
 20
768.87038618792
 30
0.0
 40
8.75
  1
B1
100
AcDbText
  0
TEXT
  5
605F
330
1A
100
AcDbEntity
  8
寸法線
100
AcDbText
 10
69.479080656333
 20
768.87038618792
 30
0.0
 40
8.75
  1
NC
100
AcDbText
  0
TEXT
  5
6060
330
1A
100
AcDbEntity
  8
寸法線
100
AcDbText
 10
94.479080656333
 20
768.87038618792
 30
0.0
 40
8.75
  1
B2
100
AcDbText
  0
LINE
  5
6061
330
1A
100
AcDbEntity
  8
寸法線
100
AcDbLine
 10
100.729080656333
 20
767.30788618792
 30
0.0
 11
100.729080656333
 21
747.30788618792
 31
0.0
  0
LINE
  5
6062
330
1A
100
AcDbEntity
  8
寸法線
100
AcDbLine
 10
95.729080656333
 20
742.30788618792
 30
0.0
 11
15.729080656333
 21
742.30788618792
 31
0.0
  0
TEXT
  5
6063
330
1A
100
AcDbEntity
  8
寸法線
100
AcDbText
 10
3.976566036258
 20
728.853200334137
 30
0.0
 40
8.75
  1
変換器へ
100
AcDbText
  0
ARC
  5
6064
330
1A
100
AcDbEntity
  8
寸法線
100
AcDbCircle
 10
95.729080656333
 20
747.30788618792
 30
0.0
 40
5.0
100
AcDbArc
 50
270.0
 51
0.0
  0
ARC
  5
6065
330
1A
100
AcDbEntity
  8
寸法線
100
AcDbCircle
 10
70.729080656333
 20
747.30788618792
 30
0.0
 40
5.0
100
AcDbArc
 50
270.0
 51
0.0
  0
LINE
  5
6066
330
1A
100
AcDbEntity
  8
寸法線
100
AcDbLine
 10
75.729080656333
 20
767.30788618792
 30
0.0
 11
75.729080656333
 21
747.30788618792
 31
0.0
  0
ARC
  5
6067
330
1A
100
AcDbEntity
  8
寸法線
100
AcDbCircle
 10
45.729080656333
 20
747.30788618792
 30
0.0
 40
5.0
100
AcDbArc
 50
270.0
 51
0.0
  0
LINE
  5
6068
330
1A
100
AcDbEntity
  8
寸法線
100
AcDbLine
 10
50.729080656333
 20
767.30788618792
 30
0.0
 11
50.729080656333
 21
747.30788618792
 31
0.0
  0
TEXT
  5
6099
330
1A
100
AcDbEntity
  8
寸法線
100
AcDbText
 10
692.140109097959
 20
878.860952145674
 30
0.0
 40
8.75
  1
ia3nG5
100
AcDbText
  0
TEXT
  5
609A
330
1A
100
AcDbEntity
  8
寸法線
100
AcDbText
 10
692.140109097959
 20
866.360952145674
 30
0.0
 40
8.75
  1
労検第T68867号
100
AcDbText
  0
TEXT
  5
609B
330
1A
100
AcDbEntity
  8
寸法線
100
AcDbText
 10
692.140109097959
 20
853.860952145674
 30
0.0
 40
8.75
  1
本質安全防爆構造
100
AcDbText
  0
VIEWPORT
  5
2902
330
28FB
100
AcDbEntity
 67
     1
  8
0
 48
10.0
100
AcDbViewport
 10
0.0
 20
0.0
 30
0.0
 40
528.349942987457
 41
300.3
 68
     1
 69
     1
1001
ACAD
1000
MVIEW
1002
{
1070
    16
1010
0.0
1020
0.0
1030
0.0
1010
0.0
1020
0.0
1030
1.0
1040
0.0
1040
300.3
1040
205.756503333333
1040
143.551503333333
1040
50.0
1040
0.0
1040
0.0
1070
    16
1070
   100
1070
     0
1070
     1
1070
     0
1070
     0
1070
     0
1070
     0
1040
0.0
1040
0.0
1040
0.0
1040
10.0
1040
10.0
1040
10.0
1040
10.0
1070
     0
1002
{
1002
}
1002
}
  0
VIEWPORT
  5
2904
330
28FB
100
AcDbEntity
 67
     1
  8
図枠太線
 48
10.0
100
AcDbViewport
 10
204.746305129083
 20
162.539649615544
 30
0.0
 40
400.0
 41
240.0
 68
     2
 69
     2
1001
ACAD
1000
MVIEW
1002
{
1070
    16
1010
0.0
1020
0.0
1030
0.0
1010
0.0
1020
0.0
1030
1.0
1040
0.0
1040
480.000005367619
1040
399.207211171772
1040
887.576928683299
1040
50.0
1040
0.0
1040
0.0
1070
    16
1070
   100
1070
     0
1070
     0
1070
     0
1070
     0
1070
     0
1070
     0
1040
0.0
1040
0.0
1040
0.0
1040
1.0
1040
1.0
1040
0.0
1040
0.0
1070
     0
1002
{
1002
}
1002
}
  0
INSERT
  5
2A59
330
28FB
100
AcDbEntity
 67
     1
  8
図枠太線
100
AcDbBlockReference
  2
A3横用_タイトル
 10
-0.352109406709
 20
-0.986310137983
 30
0.0
  0
MTEXT
  5
2E70
330
28FB
100
AcDbEntity
 67
     1
  8
寸法線
 48
10.0
100
AcDbMText
 10
110.891441303342
 20
51.159298483026
 30
0.0
 40
5.0
 41
59.487124795261
 71
     1
 72
     5
  1
A3縮小図
  0
MTEXT
  5
2E71
102
{ACAD_XDICTIONARY
360
57ED
102
}
330
28FB
100
AcDbEntity
 67
     1
  8
寸法線
 48
10.0
100
AcDbMText
 10
371.297043223639
 20
52.596514523916
 30
0.0
 40
5.0
 41
34.444444444444
 71
     1
 72
     5
  1
台数   台
1001
ACADANNOTATIVE
1000
AnnotativeData
1002
{
1070
     1
1070
     0
1002
}
  0
LINE
  5
2E72
330
28FB
100
AcDbEntity
 67
     1
  8
寸法線
 48
10.0
100
AcDbLine
 10
109.957819352298
 20
44.775699396767
 30
0.0
 11
135.592682962114
 21
44.775699396767
 31
0.0
  0
MTEXT
  5
2E85
330
28FB
100
AcDbEntity
 67
     1
  8
寸法線
 48
10.0
100
AcDbMText
 10
149.12611673873
 20
15.398249182826
 30
0.0
 40
5.0
 41
11.452149180996
 71
     1
 72
     5
  1
{\H1.4x;1:2}
  0
MTEXT
  5
5ABD
330
28FB
100
AcDbEntity
 67
     1
  8
下書線
 48
10.0
100
AcDbMText
 10
157.293718484671
 20
67.320060023765
 30
0.0
 40
10.0
 41
175.933723286424
 71
     1
 72
     1
  1
HP用図面、追記・変更　不可
  0
LWPOLYLINE
  5
5ABE
330
28FB
100
AcDbEntity
 67
     1
  8
下書線
 48
10.0
100
AcDbPolyline
 90
        4
 70
     1
 43
0.0
 10
149.244463170913
 20
73.069528105021
 10
321.153558800458
 20
73.069528105021
 10
321.153558800458
 20
51.796496204375
 10
149.244463170913
 20
51.796496204375
  0
MTEXT
  5
5C18
102
{ACAD_XDICTIONARY
360
5C19
102
}
330
28FB
100
AcDbEntity
 67
     1
  8
寸法線
 48
10.0
100
AcDbMText
 10
173.844001466027
 20
33.269903677687
 30
0.0
 40
5.0
 41
31.372065131184
 71
     1
 72
     5
  1
takahashi
1001
ACADANNOTATIVE
1000
AnnotativeData
1002
{
1070
     1
1070
     0
1002
}
  0
MTEXT
  5
5DC6
102
{ACAD_XDICTIONARY
360
5DC7
102
}
330
28FB
100
AcDbEntity
 67
     1
  8
寸法線
 48
10.0
100
AcDbMText
 10
310.214176586136
 20
34.106796056904
 30
0.0
 40
6.0
 41
58.239684951579
 71
     1
 72
     5
  1
TSE-A4SA-□
1001
ACADANNOTATIVE
1000
AnnotativeData
1002
{
1070
     1
1070
     0
1002
}
  0
MTEXT
  5
5E56
330
28FB
100
AcDbEntity
 67
     1
  8
寸法線
 48
10.0
100
AcDbMText
 10
370.673835800578
 20
38.039626198108
 30
0.0
 40
4.0
 41
39.417543602742
 71
     1
 72
     5
  1
{\H1.125x;静電容量式\Pレベルセンサ}
  0
MTEXT
  5
5E89
102
{ACAD_XDICTIONARY
360
5E8A
102
}
330
28FB
100
AcDbEntity
 67
     1
  8
寸法線
 48
10.0
100
AcDbMText
 10
338.952685188947
 20
16.636937279553
 30
0.0
 40
8.0
 41
33.206594841881
 71
     1
 72
     5
  1
HE-14005
1001
ACADANNOTATIVE
1000
AnnotativeData
1002
{
1070
     1
1070
     0
1002
}
  0
MTEXT
  5
61E8
102
{ACAD_XDICTIONARY
360
61E9
102
}
330
28FB
100
AcDbEntity
 67
     1
  8
寸法線
 48
10.0
100
AcDbMText
 10
175.252680195869
 20
13.387279058939
 30
0.0
 40
4.5
 41
31.372065131184
 71
     1
 72
     5
  1
2016.09.26
1001
ACADANNOTATIVE
1000
AnnotativeData
1002
{
1070
     1
1070
     0
1002
}
  0
ENDSEC
  0
SECTION
  2
OBJECTS
  0
DICTIONARY
  5
C
330
0
100
AcDbDictionary
  3
ACAD_COLOR
350
2948
  3
ACAD_GROUP
350
D
  3
ACAD_LAYOUT
350
2816
  3
ACAD_MATERIAL
350
2947
  3
ACAD_MLEADERSTYLE
350
567D
  3
ACAD_MLINESTYLE
350
E
  3
ACAD_PLOTSETTINGS
350
2817
  3
ACAD_SCALELIST
350
5656
  3
ACAD_VISUALSTYLE
350
563D
  3
ACADDIM
350
4312
  3
ACDBHEADERROUNDTRIPXREC
350
6306
  3
ACDBVARIABLEDICTIONARY
350
57F0
  3
DWGPROPS
350
632B
  0
DICTIONARY
  5
632C
330
8
100
AcDbDictionary
280
     1
  3
ACAD_XREC_ROUNDTRIP
360
632D
  0
DICTIONARY
  5
29EA
330
2
100
AcDbDictionary
280
     1
  3
ACAD_LAYERFILTERS
360
2B0C
  3
ACAD_LAYERSTATES
360
29EB
  0
DICTIONARY
  5
51B3
330
1A
100
AcDbDictionary
280
     1
  3
ACAD_SORTENTS
360
51B4
  0
DICTIONARY
  5
5A2F
330
4F91
100
AcDbDictionary
280
     1
  3
ACDBCONTEXTDATAMANAGER
360
5A30
  0
DICTIONARY
  5
5A2C
330
4F95
100
AcDbDictionary
280
     1
  3
ACDBCONTEXTDATAMANAGER
360
5A2D
  0
DICTIONARY
  5
5682
330
4FB0
100
AcDbDictionary
280
     1
  3
ACDBCONTEXTDATAMANAGER
360
5683
  0
DICTIONARY
  5
5701
330
5700
100
AcDbDictionary
280
     1
  3
ACDBCONTEXTDATAMANAGER
360
5702
  0
DICTIONARY
  5
571A
330
5719
100
AcDbDictionary
280
     1
  3
ACDBCONTEXTDATAMANAGER
360
571B
  0
DICTIONARY
  5
592C
330
592B
100
AcDbDictionary
280
     1
  3
ACDBCONTEXTDATAMANAGER
360
592D
  0
DICTIONARY
  5
5930
330
592F
100
AcDbDictionary
280
     1
  3
ACDBCONTEXTDATAMANAGER
360
5931
  0
DICTIONARY
  5
5934
330
5933
100
AcDbDictionary
280
     1
  3
ACDBCONTEXTDATAMANAGER
360
5935
  0
DICTIONARY
  5
5938
330
5937
100
AcDbDictionary
280
     1
  3
ACDBCONTEXTDATAMANAGER
360
5939
  0
DICTIONARY
  5
593C
330
593B
100
AcDbDictionary
280
     1
  3
ACDBCONTEXTDATAMANAGER
360
593D
  0
DICTIONARY
  5
5940
330
593F
100
AcDbDictionary
280
     1
  3
ACDBCONTEXTDATAMANAGER
360
5941
  0
DICTIONARY
  5
5944
330
5943
100
AcDbDictionary
280
     1
  3
ACDBCONTEXTDATAMANAGER
360
5945
  0
DICTIONARY
  5
5948
330
5947
100
AcDbDictionary
280
     1
  3
ACDBCONTEXTDATAMANAGER
360
5949
  0
DICTIONARY
  5
57ED
330
2E71
100
AcDbDictionary
280
     1
  3
ACDBCONTEXTDATAMANAGER
360
57EE
  0
DICTIONARY
  5
5C19
330
5C18
100
AcDbDictionary
280
     1
  3
ACDBCONTEXTDATAMANAGER
360
5C1A
  0
DICTIONARY
  5
5DC7
330
5DC6
100
AcDbDictionary
280
     1
  3
ACDBCONTEXTDATAMANAGER
360
5DC8
  0
DICTIONARY
  5
5E8A
330
5E89
100
AcDbDictionary
280
     1
  3
ACDBCONTEXTDATAMANAGER
360
5E8B
  0
DICTIONARY
  5
61E9
330
61E8
100
AcDbDictionary
280
     1
  3
ACDBCONTEXTDATAMANAGER
360
61EA
  0
DICTIONARY
  5
2948
102
{ACAD_REACTORS
330
C
102
}
330
C
100
AcDbDictionary
  0
DICTIONARY
  5
D
102
{ACAD_REACTORS
330
C
102
}
330
C
100
AcDbDictionary
  0
DICTIONARY
  5
2816
102
{ACAD_REACTORS
330
C
102
}
330
C
100
AcDbDictionary
  0
DICTIONARY
  5
2947
102
{ACAD_REACTORS
330
C
102
}
330
C
100
AcDbDictionary
  3
BYBLOCK
350
5679
  3
BYLAYER
350
5678
  3
GLOBAL
350
567A
  0
DICTIONARY
  5
567D
102
{ACAD_REACTORS
330
C
102
}
330
C
100
AcDbDictionary
  3
STANDARD
350
567E
  0
DICTIONARY
  5
E
102
{ACAD_REACTORS
330
C
102
}
330
C
100
AcDbDictionary
  3
STANDARD
350
13
  0
DICTIONARY
  5
2817
102
{ACAD_REACTORS
330
C
102
}
330
C
100
AcDbDictionary
  0
DICTIONARY
  5
5656
102
{ACAD_REACTORS
330
C
102
}
330
C
100
AcDbDictionary
  3
A0
350
5657
  3
A1
350
5658
  3
A2
350
5659
  3
A3
350
565A
  3
A4
350
565B
  3
A5
350
565C
  3
A6
350
565D
  3
A7
350
565E
  3
A8
350
565F
  3
A9
350
5660
  3
B0
350
5661
  3
B1
350
5662
  3
B2
350
5663
  3
B3
350
5664
  3
B4
350
5665
  3
B5
350
5666
  3
B6
350
5667
  3
B7
350
5668
  3
B8
350
5669
  3
B9
350
566A
  3
C0
350
566B
  3
C1
350
566C
  3
C2
350
566D
  3
C3
350
566E
  3
C4
350
566F
  3
C5
350
5670
  3
C6
350
5671
  3
C7
350
5672
  3
C8
350
5673
  3
C9
350
5674
  3
D0
350
5675
  3
D1
350
5676
  3
D2
350
5677
  0
DICTIONARY
  5
563D
102
{ACAD_REACTORS
330
C
102
}
330
C
100
AcDbDictionary
  3
2DWIREFRAME
350
5642
  3
BASIC
350
5645
  3
BRIGHTEN
350
5649
  3
COLORCHANGE
350
564D
  3
CONCEPTUAL
350
5647
  3
DIM
350
5648
  3
EDGECOLOROFF
350
5650
  3
FACEPATTERN
350
564C
  3
FLAT
350
563E
  3
FLATWITHEDGES
350
563F
  3
GOURAUD
350
5640
  3
GOURAUDWITHEDGES
350
5641
  3
HIDDEN
350
5644
  3
JITTEROFF
350
564E
  3
LINEPATTERN
350
564B
  3
MODELING
350
5B1B
  3
OVERHANGOFF
350
564F
  3
REALISTIC
350
5646
  3
SHADED
350
5655
  3
SHADED_WITH_EDGES
350
5654
  3
SHADES_OF_GRAY
350
5651
  3
SKETCHY
350
5652
  3
THICKEN
350
564A
  3
WIREFRAME
350
5643
  3
X-RAY
350
5653
  0
XRECORD
  5
4312
102
{ACAD_REACTORS
330
C
102
}
330
C
100
AcDbXrecord
 90
   990106
  3

 60
     0
 61
     0
 62
     4
 63
     4
 64
     0
 65
     0
 66
     0
 67
     3
 68
     1
 69
     0
 70
     0
 71
     0
 72
     0
 40
0.0
170
     2
  0
DICTIONARY
  5
6306
102
{ACAD_REACTORS
330
C
102
}
330
C
100
AcDbDictionary
  3
CEPSNID
350
6310
  3
CEPSNTYPE
350
630F
  3
COLORDICT
350
6329
  3
DIMSTYLEDATA
350
6326
  3
FINGERPRINTGUID
350
6311
  3
HYPERLINKBASE
350
6309
  3
INSUNITS
350
630E
  3
LAYOUTDICT
350
630B
  3
LWETCUNION
350
630D
  3
MATERIALDICT
350
632A
  3
PLOTSETDICT
350
630C
  3
PSVPSCALE
350
6313
  3
PUCSBASE
350
6316
  3
PUCSORGBACK
350
631C
  3
PUCSORGBOTTOM
350
6318
  3
PUCSORGFRONT
350
631B
  3
PUCSORGLEFT
350
6319
  3
PUCSORGRIGHT
350
631A
  3
PUCSORGTOP
350
6317
  3
PUCSORTHOREF
350
6314
  3
PUCSORTHOVIEW
350
6315
  3
STYLESHEET
350
630A
  3
TSTACKALIGN
350
6307
  3
TSTACKSIZE
350
6308
  3
UCSBASE
350
631F
  3
UCSORGBACK
350
6325
  3
UCSORGBOTTOM
350
6321
  3
UCSORGFRONT
350
6324
  3
UCSORGLEFT
350
6322
  3
UCSORGRIGHT
350
6323
  3
UCSORGTOP
350
6320
  3
UCSORTHOREF
350
631D
  3
UCSORTHOVIEW
350
631E
  3
VERSIONGUID
350
6312
  0
DICTIONARY
  5
57F0
102
{ACAD_REACTORS
330
C
102
}
330
C
100
AcDbDictionary
  3
CANNOSCALE
350
57F1
  3
CMLEADERSTYLE
350
57F3
  3
CTABLESTYLE
350
57F2
  3
DIMASSOC
350
6327
  3
HIDETEXT
350
6328
  3
MSLTSCALE
350
57F4
  3
XCLIPFRAME
350
57F5
  0
XRECORD
  5
632B
102
{ACAD_REACTORS
330
C
102
}
330
C
100
AcDbXrecord
  1
DWGPROPS COOKIE
  2

  3

  4

  6

  7

  8
takahashi
  9

300
=
301
=
302
=
303
=
304
=
305
=
306
=
307
=
308
=
309
=
 40
0.0
 41
2450576.222302431
 42
2457661.239094398
  1

 90
        0
  0
XRECORD
  5
632D
102
{ACAD_REACTORS
330
632C
102
}
330
632C
100
AcDbXrecord
102
VTR_0.000_0.000_1.000_1.000_VISUALSTYLE
340
5642
102
VTR_0.000_0.000_1.000_1.000_GRIDDISPLAY
 70
     3
102
VTR_0.000_0.000_1.000_1.000_GRIDMAJOR
 70
     5
102
VTR_0.000_0.000_1.000_1.000_DEFAULTLIGHTING
280
     1
102
VTR_0.000_0.000_1.000_1.000_DEFAULTLIGHTINGTYPE
 70
     1
102
VTR_0.000_0.000_1.000_1.000_BRIGHTNESS
141
0.0
102
VTR_0.000_0.000_1.000_1.000_CONTRAST
142
0.0
  0
DICTIONARY
  5
2B0C
102
{ACAD_REACTORS
330
29EA
102
}
330
29EA
100
AcDbDictionary
  0
DICTIONARY
  5
29EB
102
{ACAD_REACTORS
330
29EA
102
}
330
29EA
100
AcDbDictionary
  0
SORTENTSTABLE
  5
51B4
102
{ACAD_REACTORS
330
51B3
102
}
330
51B3
100
AcDbSortentsTable
330
1A
331
0
  5
4F13
331
4F60
  5
4F63
331
4F61
  5
4F64
331
4F62
  5
4F65
331
4F65
  5
4F68
331
4F67
  5
4F6A
331
4F68
  5
4F6B
331
4F69
  5
4F6C
331
4F6A
  5
4F6D
331
4F6B
  5
4F6E
331
4F6C
  5
4F6F
331
4F6D
  5
4F70
331
4F6E
  5
4F71
331
4F6F
  5
4F72
331
4F70
  5
4F73
331
4F71
  5
4F74
331
4F72
  5
4F75
331
4F73
  5
4F76
331
4F74
  5
4F77
331
4F75
  5
4F78
331
4F76
  5
4F79
331
4F77
  5
4F7A
331
4F78
  5
4F7B
331
4F79
  5
4F7C
331
4F7A
  5
4F7D
331
4F7B
  5
4F7E
331
4F7C
  5
4F7F
331
4F7D
  5
4F80
331
4F7E
  5
4F81
331
4F7F
  5
4F82
331
4F80
  5
4F83
331
4F81
  5
4F84
331
4F82
  5
4F85
331
4F83
  5
4F86
331
4F84
  5
4F87
331
4F85
  5
4F88
331
4F87
  5
4F8A
331
4F89
  5
4F8C
331
4F8B
  5
4F8E
331
4F8D
  5
4F90
331
4F8F
  5
4F92
331
4F90
  5
4F93
331
4F91
  5
4F94
331
4F93
  5
4F96
331
4F95
  5
4F98
331
4F9F
  5
4FA2
331
4FA0
  5
4FA3
331
4FA1
  5
4FA4
331
4FA2
  5
4FA5
331
4FA3
  5
4FA6
331
4FA4
  5
4FA7
331
4FA5
  5
4FA8
331
4FA6
  5
4FA9
331
4FA7
  5
4FAA
331
4FAD
  5
4FAF
331
4FAF
  5
4FB1
331
4FB0
  5
4FB2
331
4FB1
  5
4FB3
331
4FB3
  5
4FB4
331
4FB4
  5
4F14
331
5151
  5
5151
331
5152
  5
5152
331
5153
  5
5153
331
5154
  5
5154
331
5155
  5
5155
331
5156
  5
5156
331
5157
  5
5157
331
5158
  5
5158
331
5159
  5
5159
331
515A
  5
515A
331
515B
  5
515B
331
515C
  5
515C
331
515D
  5
515D
331
515E
  5
515E
331
515F
  5
515F
331
5160
  5
5160
331
5161
  5
5161
331
5162
  5
5162
331
5163
  5
5163
331
5164
  5
5164
331
5165
  5
5165
331
5166
  5
5166
331
5167
  5
5167
331
5168
  5
5168
331
5169
  5
5169
331
516A
  5
516A
331
516B
  5
516B
  0
DICTIONARY
  5
5A30
102
{ACAD_REACTORS
330
5A2F
102
}
330
5A2F
100
AcDbDictionary
  3
ACDB_ANNOTATIONSCALES
350
5A31
  0
DICTIONARY
  5
5A2D
102
{ACAD_REACTORS
330
5A2C
102
}
330
5A2C
100
AcDbDictionary
  3
ACDB_ANNOTATIONSCALES
350
5A2E
  0
DICTIONARY
  5
5683
102
{ACAD_REACTORS
330
5682
102
}
330
5682
100
AcDbDictionary
  3
ACDB_ANNOTATIONSCALES
350
5684
  0
DICTIONARY
  5
5702
102
{ACAD_REACTORS
330
5701
102
}
330
5701
100
AcDbDictionary
  3
ACDB_ANNOTATIONSCALES
350
5703
  0
DICTIONARY
  5
571B
102
{ACAD_REACTORS
330
571A
102
}
330
571A
100
AcDbDictionary
  3
ACDB_ANNOTATIONSCALES
350
571C
  0
DICTIONARY
  5
592D
102
{ACAD_REACTORS
330
592C
102
}
330
592C
100
AcDbDictionary
  3
ACDB_ANNOTATIONSCALES
350
592E
  0
DICTIONARY
  5
5931
102
{ACAD_REACTORS
330
5930
102
}
330
5930
100
AcDbDictionary
  3
ACDB_ANNOTATIONSCALES
350
5932
  0
DICTIONARY
  5
5935
102
{ACAD_REACTORS
330
5934
102
}
330
5934
100
AcDbDictionary
  3
ACDB_ANNOTATIONSCALES
350
5936
  0
DICTIONARY
  5
5939
102
{ACAD_REACTORS
330
5938
102
}
330
5938
100
AcDbDictionary
  3
ACDB_ANNOTATIONSCALES
350
593A
  0
DICTIONARY
  5
593D
102
{ACAD_REACTORS
330
593C
102
}
330
593C
100
AcDbDictionary
  3
ACDB_ANNOTATIONSCALES
350
593E
  0
DICTIONARY
  5
5941
102
{ACAD_REACTORS
330
5940
102
}
330
5940
100
AcDbDictionary
  3
ACDB_ANNOTATIONSCALES
350
5942
  0
DICTIONARY
  5
5945
102
{ACAD_REACTORS
330
5944
102
}
330
5944
100
AcDbDictionary
  3
ACDB_ANNOTATIONSCALES
350
5946
  0
DICTIONARY
  5
5949
102
{ACAD_REACTORS
330
5948
102
}
330
5948
100
AcDbDictionary
  3
ACDB_ANNOTATIONSCALES
350
594A
  0
DICTIONARY
  5
57EE
102
{ACAD_REACTORS
330
57ED
102
}
330
57ED
100
AcDbDictionary
  3
ACDB_ANNOTATIONSCALES
350
57EF
  0
DICTIONARY
  5
5C1A
102
{ACAD_REACTORS
330
5C19
102
}
330
5C19
100
AcDbDictionary
  3
ACDB_ANNOTATIONSCALES
350
5C1B
  0
DICTIONARY
  5
5DC8
102
{ACAD_REACTORS
330
5DC7
102
}
330
5DC7
100
AcDbDictionary
  3
ACDB_ANNOTATIONSCALES
350
5DC9
  0
DICTIONARY
  5
5E8B
102
{ACAD_REACTORS
330
5E8A
102
}
330
5E8A
100
AcDbDictionary
  3
ACDB_ANNOTATIONSCALES
350
5E8C
  0
DICTIONARY
  5
61EA
102
{ACAD_REACTORS
330
61E9
102
}
330
61E9
100
AcDbDictionary
  3
ACDB_ANNOTATIONSCALES
350
61EB
  0
MATERIAL
  5
5679
102
{ACAD_REACTORS
330
2947
102
}
102
{ACAD_XDICTIONARY
360
6330
102
}
330
2947
100
AcDbMaterial
  1
BYBLOCK
  0
MATERIAL
  5
5678
102
{ACAD_REACTORS
330
2947
102
}
102
{ACAD_XDICTIONARY
360
632E
102
}
330
2947
100
AcDbMaterial
  1
BYLAYER
  0
MATERIAL
  5
567A
102
{ACAD_REACTORS
330
2947
102
}
102
{ACAD_XDICTIONARY
360
6332
102
}
330
2947
100
AcDbMaterial
  1
GLOBAL
  0
ACAD_PROXY_OBJECT
  5
567E
102
{ACAD_REACTORS
330
567D
102
}
330
567D
100
AcDbProxyObject
 90
      499
 91
      508
 93
      610
310
40901902A4063FBFFFFFE0000000000000020400000000000020404214DD185B99185C990000000000000104090141901A00000000000004100000000000000041025764000000000000039000
340
14
340
0
340
10
340
0
 94
        0
1001
ACAD_MLEADERVER
1070
     2
  0
MLINESTYLE
  5
13
102
{ACAD_REACTORS
330
E
102
}
330
E
100
AcDbMlineStyle
  2
STANDARD
 70
     0
  3

 62
     0
 51
90.0
 52
90.0
 71
     2
 49
0.5
 62
   256
  6
BYLAYER
 49
-0.5
 62
   256
  6
BYLAYER
  0
ACAD_PROXY_OBJECT
  5
5657
102
{ACAD_REACTORS
330
5656
102
}
330
5656
100
AcDbProxyObject
 90
      499
 91
      505
 93
       41
310
903313A31580
  0
ACAD_PROXY_OBJECT
  5
5658
102
{ACAD_REACTORS
330
5656
102
}
330
5656
100
AcDbProxyObject
 90
      499
 91
      505
 93
      105
310
903313A324000000000000004000
  0
ACAD_PROXY_OBJECT
  5
5659
102
{ACAD_REACTORS
330
5656
102
}
330
5656
100
AcDbProxyObject
 90
      499
 91
      505
 93
      105
310
903313A344000000000000104000
  0
ACAD_PROXY_OBJECT
  5
565A
102
{ACAD_REACTORS
330
5656
102
}
330
5656
100
AcDbProxyObject
 90
      499
 91
      505
 93
      105
310
903313A354000000000000144000
  0
ACAD_PROXY_OBJECT
  5
565B
102
{ACAD_REACTORS
330
5656
102
}
330
5656
100
AcDbProxyObject
 90
      499
 91
      505
 93
      105
310
903313A384000000000000204000
  0
ACAD_PROXY_OBJECT
  5
565C
102
{ACAD_REACTORS
330
5656
102
}
330
5656
100
AcDbProxyObject
 90
      499
 91
      505
 93
      113
310
904313A31304000000000000244000
  0
ACAD_PROXY_OBJECT
  5
565D
102
{ACAD_REACTORS
330
5656
102
}
330
5656
100
AcDbProxyObject
 90
      499
 91
      505
 93
      113
310
904313A31364000000000000304000
  0
ACAD_PROXY_OBJECT
  5
565E
102
{ACAD_REACTORS
330
5656
102
}
330
5656
100
AcDbProxyObject
 90
      499
 91
      505
 93
      113
310
904313A32304000000000000344000
  0
ACAD_PROXY_OBJECT
  5
565F
102
{ACAD_REACTORS
330
5656
102
}
330
5656
100
AcDbProxyObject
 90
      499
 91
      505
 93
      113
310
904313A333040000000000003E4000
  0
ACAD_PROXY_OBJECT
  5
5660
102
{ACAD_REACTORS
330
5656
102
}
330
5656
100
AcDbProxyObject
 90
      499
 91
      505
 93
      113
310
904313A34304000000000000444000
  0
ACAD_PROXY_OBJECT
  5
5661
102
{ACAD_REACTORS
330
5656
102
}
330
5656
100
AcDbProxyObject
 90
      499
 91
      505
 93
      113
310
904313A35304000000000000494000
  0
ACAD_PROXY_OBJECT
  5
5662
102
{ACAD_REACTORS
330
5656
102
}
330
5656
100
AcDbProxyObject
 90
      499
 91
      505
 93
      121
310
905313A3130304000000000000594000
  0
ACAD_PROXY_OBJECT
  5
5663
102
{ACAD_REACTORS
330
5656
102
}
330
5656
100
AcDbProxyObject
 90
      499
 91
      505
 93
      105
310
903323A310000000000000010100
  0
ACAD_PROXY_OBJECT
  5
5664
102
{ACAD_REACTORS
330
5656
102
}
330
5656
100
AcDbProxyObject
 90
      499
 91
      505
 93
      105
310
903343A310000000000000410100
  0
ACAD_PROXY_OBJECT
  5
5665
102
{ACAD_REACTORS
330
5656
102
}
330
5656
100
AcDbProxyObject
 90
      499
 91
      505
 93
      105
310
903383A310000000000000810100
  0
ACAD_PROXY_OBJECT
  5
5666
102
{ACAD_REACTORS
330
5656
102
}
330
5656
100
AcDbProxyObject
 90
      499
 91
      505
 93
      113
310
90431303A310000000000000910100
  0
ACAD_PROXY_OBJECT
  5
5667
102
{ACAD_REACTORS
330
5656
102
}
330
5656
100
AcDbProxyObject
 90
      499
 91
      505
 93
      121
310
9053130303A310000000000001650100
  0
ACAD_PROXY_OBJECT
  5
5668
102
{ACAD_REACTORS
330
5656
102
}
330
5656
100
AcDbProxyObject
 90
      499
 91
      505
 93
      257
310
90E312F31323822203D2031272D3022000000000000200FC000000000000284000
  0
ACAD_PROXY_OBJECT
  5
5669
102
{ACAD_REACTORS
330
5656
102
}
330
5656
100
AcDbProxyObject
 90
      499
 91
      505
 93
      249
310
90D312F363422203D2031272D3022000000000000240FC000000000000284000
  0
ACAD_PROXY_OBJECT
  5
566A
102
{ACAD_REACTORS
330
5656
102
}
330
5656
100
AcDbProxyObject
 90
      499
 91
      505
 93
      249
310
90D312F333222203D2031272D3022000000000000280FC000000000000284000
  0
ACAD_PROXY_OBJECT
  5
566B
102
{ACAD_REACTORS
330
5656
102
}
330
5656
100
AcDbProxyObject
 90
      499
 91
      505
 93
      249
310
90D312F313622203D2031272D30220000000000002C0FC000000000000284000
  0
ACAD_PROXY_OBJECT
  5
566C
102
{ACAD_REACTORS
330
5656
102
}
330
5656
100
AcDbProxyObject
 90
      499
 91
      505
 93
      249
310
90D332F333222203D2031272D30220000000000002E0FC000000000000284000
  0
ACAD_PROXY_OBJECT
  5
566D
102
{ACAD_REACTORS
330
5656
102
}
330
5656
100
AcDbProxyObject
 90
      499
 91
      505
 93
      241
310
90C312F3822203D2031272D3022000000000000300FC000000000000284000
  0
ACAD_PROXY_OBJECT
  5
566E
102
{ACAD_REACTORS
330
5656
102
}
330
5656
100
AcDbProxyObject
 90
      499
 91
      505
 93
      249
310
90D332F313622203D2031272D3022000000000000320FC000000000000284000
  0
ACAD_PROXY_OBJECT
  5
566F
102
{ACAD_REACTORS
330
5656
102
}
330
5656
100
AcDbProxyObject
 90
      499
 91
      505
 93
      241
310
90C312F3422203D2031272D3022000000000000340FC000000000000284000
  0
ACAD_PROXY_OBJECT
  5
5670
102
{ACAD_REACTORS
330
5656
102
}
330
5656
100
AcDbProxyObject
 90
      499
 91
      505
 93
      241
310
90C332F3822203D2031272D3022000000000000360FC000000000000284000
  0
ACAD_PROXY_OBJECT
  5
5671
102
{ACAD_REACTORS
330
5656
102
}
330
5656
100
AcDbProxyObject
 90
      499
 91
      505
 93
      241
310
90C312F3222203D2031272D3022000000000000380FC000000000000284000
  0
ACAD_PROXY_OBJECT
  5
5672
102
{ACAD_REACTORS
330
5656
102
}
330
5656
100
AcDbProxyObject
 90
      499
 91
      505
 93
      241
310
90C332F3422203D2031272D30220000000000003A0FC000000000000284000
  0
ACAD_PROXY_OBJECT
  5
5673
102
{ACAD_REACTORS
330
5656
102
}
330
5656
100
AcDbProxyObject
 90
      499
 91
      505
 93
      161
310
90A3122203D2031272D30224000000000000284000
  0
ACAD_PROXY_OBJECT
  5
5674
102
{ACAD_REACTORS
330
5656
102
}
330
5656
100
AcDbProxyObject
 90
      499
 91
      505
 93
      257
310
90E312D312F3222203D2031272D30220000000000003E0FC000000000000284000
  0
ACAD_PROXY_OBJECT
  5
5675
102
{ACAD_REACTORS
330
5656
102
}
330
5656
100
AcDbProxyObject
 90
      499
 91
      505
 93
      225
310
90A3322203D2031272D302200000000000002100000000000000284000
  0
ACAD_PROXY_OBJECT
  5
5676
102
{ACAD_REACTORS
330
5656
102
}
330
5656
100
AcDbProxyObject
 90
      499
 91
      505
 93
      225
310
90A3622203D2031272D302200000000000006100000000000000284000
  0
ACAD_PROXY_OBJECT
  5
5677
102
{ACAD_REACTORS
330
5656
102
}
330
5656
100
AcDbProxyObject
 90
      499
 91
      505
 93
      249
310
90D31272D3022203D2031272D30220000000000000A100000000000000284000
  0
ACAD_PROXY_OBJECT
  5
5642
102
{ACAD_REACTORS
330
563D
102
}
330
563D
100
AcDbProxyObject
 90
      499
 91
      504
 93
      436
310
42CC9915DA5C99599C985B595049028333333333333E33F0000000000000F90107901411070040501600405405064090741402480A0340
1001
ACAD
1000
AcDbSavedByObjectVersion
1070
     0
  0
ACAD_PROXY_OBJECT
  5
5645
102
{ACAD_REACTORS
330
563D
102
}
330
563D
100
AcDbProxyObject
 90
      499
 91
      504
 93
      388
310
4150985CDA58D07406404333333333333E33F0000000000000F90107A41107004050150841D405064090741402480A0350
1001
ACAD
1000
AcDbSavedByObjectVersion
1070
     0
  0
ACAD_PROXY_OBJECT
  5
5649
102
{ACAD_REACTORS
330
563D
102
}
330
563D
100
AcDbProxyObject
 90
      499
 91
      504
 93
      428
310
42109C9A59DA1D195B90C409028333333333333E33F0000000000000F9010790141107004050150841D405064090741402480A029950
1001
ACAD
1000
AcDbSavedByObjectVersion
1070
     0
  0
ACAD_PROXY_OBJECT
  5
564D
102
{ACAD_REACTORS
330
563D
102
}
330
563D
100
AcDbProxyObject
 90
      499
 91
      504
 93
      452
310
42D0DBDB1BDC90DA185B99D95104090240C333333333333E33F0000000000000F90108901411070040501508421405064090741402480A0350
1001
ACAD
1000
AcDbSavedByObjectVersion
1070
     0
  0
ACAD_PROXY_OBJECT
  5
5647
102
{ACAD_REACTORS
330
563D
102
}
330
563D
100
AcDbProxyObject
 90
      499
 91
      504
 93
      500
310
4290DBDB98D95C1D1D585B10940D028333333333333E33F0000000000000F90107902409070040501000000000018199010841D405064090740C02480A0340
1001
ACAD
1000
AcDbSavedByObjectVersion
1070
     0
  0
ACAD_PROXY_OBJECT
  5
5648
102
{ACAD_REACTORS
330
563D
102
}
330
563D
100
AcDbProxyObject
 90
      499
 91
      504
 93
      412
310
40D11A5B50B409028333333333333E33F0000000000000F9010790141107004050150841D405064090741402480A02677FFFFFD0
1001
ACAD
1000
AcDbSavedByObjectVersion
1070
     0
  0
ACAD_PROXY_OBJECT
  5
5650
102
{ACAD_REACTORS
330
563D
102
}
330
563D
100
AcDbProxyObject
 90
      499
 91
      504
 93
      452
310
43115919D950DBDB1BDC93D999916409028333333333333E33F0000000000000F9010790141107004050150841D405064090741402480A0350
1001
ACAD
1000
AcDbSavedByObjectVersion
1070
     0
  0
ACAD_PROXY_OBJECT
  5
564C
102
{ACAD_REACTORS
330
563D
102
}
330
563D
100
AcDbProxyObject
 90
      499
 91
      504
 93
      444
310
42D19858D95C185D1D195C9B90F409028333333333333E33F0000000000000F9010790141107004050150841D405064090741402480A0350
1001
ACAD
1000
AcDbSavedByObjectVersion
1070
     0
  0
ACAD_PROXY_OBJECT
  5
563E
102
{ACAD_REACTORS
330
563D
102
}
330
563D
100
AcDbProxyObject
 90
      499
 91
      504
 93
      380
310
41119B185D240901404333333333333E33F0000000000000F9010740A907004050150841D405064090741402480A1B50
1001
ACAD
1000
AcDbSavedByObjectVersion
1070
     0
  0
ACAD_PROXY_OBJECT
  5
563F
102
{ACAD_REACTORS
330
563D
102
}
330
563D
100
AcDbProxyObject
 90
      499
 91
      504
 93
      468
310
43519B185D15DA5D1A115919D95CD0140901404333333333333E33F0000000000000F90107409019070040501600405405064090741402480A1B50
1001
ACAD
1000
AcDbSavedByObjectVersion
1070
     0
  0
ACAD_PROXY_OBJECT
  5
5640
102
{ACAD_REACTORS
330
563D
102
}
330
563D
100
AcDbProxyObject
 90
      499
 91
      504
 93
      404
310
41D1DBDD5C985D5910240902404333333333333E33F0000000000000F9010740A9070040501641D405064090741402480A1B50
1001
ACAD
1000
AcDbSavedByObjectVersion
1070
     0
  0
ACAD_PROXY_OBJECT
  5
5641
102
{ACAD_REACTORS
330
563D
102
}
330
563D
100
AcDbProxyObject
 90
      499
 91
      504
 93
      492
310
4411DBDD5C985D5915DA5D1A115919D95CD0340902404333333333333E33F0000000000000F90107409019070040501600405405064090741402480A1B50
1001
ACAD
1000
AcDbSavedByObjectVersion
1070
     0
  0
ACAD_PROXY_OBJECT
  5
5644
102
{ACAD_REACTORS
330
563D
102
}
330
563D
100
AcDbProxyObject
 90
      499
 91
      504
 93
      476
310
41921A5919195B90640502408333333333333E33F0000000000000F901079024090700405020000000000001110200405405064090740C02480A0340
1001
ACAD
1000
AcDbSavedByObjectVersion
1070
     0
  0
ACAD_PROXY_OBJECT
  5
564E
102
{ACAD_REACTORS
330
563D
102
}
330
563D
100
AcDbProxyObject
 90
      499
 91
      504
 93
      428
310
42529A5D1D195C93D999914409028333333333333E33F0000000000000F9010790141107004050150A41D405064090741402480A0350
1001
ACAD
1000
AcDbSavedByObjectVersion
1070
     0
  0
ACAD_PROXY_OBJECT
  5
564B
102
{ACAD_REACTORS
330
563D
102
}
330
563D
100
AcDbProxyObject
 90
      499
 91
      504
 93
      444
310
42D31A5B995C185D1D195C9B90E409028333333333333E33F0000000000000F9010790141107004050750841D405064090741402483A0350
1001
ACAD
1000
AcDbSavedByObjectVersion
1070
     0
  0
ACAD_PROXY_OBJECT
  5
5B1B
102
{ACAD_REACTORS
330
563D
102
}
330
563D
100
AcDbProxyObject
 90
      499
 91
      504
 93
      412
310
90A409038333333333333E33F0000000000000F901074090290700405010000000000201990108421405064090741402480A1B40
1001
ACAD
1000
AcDbSavedByObjectVersion
1070
     0
  0
ACAD_PROXY_OBJECT
  5
564F
102
{ACAD_REACTORS
330
563D
102
}
330
563D
100
AcDbProxyObject
 90
      499
 91
      504
 93
      444
310
42D3DD995C9A185B99D3D999915409028333333333333E33F0000000000000F9010790141107004050150941D405064090741402480A0350
1001
ACAD
1000
AcDbSavedByObjectVersion
1070
     0
  0
ACAD_PROXY_OBJECT
  5
5646
102
{ACAD_REACTORS
330
563D
102
}
330
563D
100
AcDbProxyObject
 90
      499
 91
      504
 93
      428
310
425499585B1A5CDD1A58D08409038333333333333E33F0000000000000F9010740A907004050150800405405064090740C02480A1B40
1001
ACAD
1000
AcDbSavedByObjectVersion
1070
     0
  0
ACAD_PROXY_OBJECT
  5
5655
102
{ACAD_REACTORS
330
563D
102
}
330
563D
100
AcDbProxyObject
 90
      499
 91
      504
 93
      420
310
4194DA1859195911B40902404333333333333E33F0000000000000F9010740A41107004050150800405405064090840C02480A0B40
1001
ACAD
1000
AcDbSavedByObjectVersion
1070
     0
  0
ACAD_PROXY_OBJECT
  5
5654
102
{ACAD_REACTORS
330
563D
102
}
330
563D
100
AcDbProxyObject
 90
      499
 91
      504
 93
      516
310
4454DA18591959081DDA5D1A08195919D95CD1A40902404333333333333E33F0000000000000F901074090142907004050250800405405064090740C02480A0B40
1001
ACAD
1000
AcDbSavedByObjectVersion
1070
     0
  0
ACAD_PROXY_OBJECT
  5
5651
102
{ACAD_REACTORS
330
563D
102
}
330
563D
100
AcDbProxyObject
 90
      499
 91
      504
 93
      532
310
4394DA1859195CC81BD98811DC985E5174090240C333333333333E33F0000000000000F901079024090741D01000000000000111010841D405064090740C02480A0340
1001
ACAD
1000
AcDbSavedByObjectVersion
1070
     0
  0
ACAD_PROXY_OBJECT
  5
5652
102
{ACAD_REACTORS
330
563D
102
}
330
563D
100
AcDbProxyObject
 90
      499
 91
      504
 93
      476
310
41D4DAD95D18DA1E51840502408333333333333E33F0000000000000F901079024090741D01000000000000111010B41D405064090741802480A0340
1001
ACAD
1000
AcDbSavedByObjectVersion
1070
     0
  0
ACAD_PROXY_OBJECT
  5
564A
102
{ACAD_REACTORS
330
563D
102
}
330
563D
100
AcDbProxyObject
 90
      499
 91
      504
 93
      412
310
41D51A1A58DAD95B90D409028333333333333E33F0000000000000F9010790141107004050150C41D405064090741402480A0350
1001
ACAD
1000
AcDbSavedByObjectVersion
1070
     0
  0
ACAD_PROXY_OBJECT
  5
5643
102
{ACAD_REACTORS
330
563D
102
}
330
563D
100
AcDbProxyObject
 90
      499
 91
      504
 93
      420
310
4255DA5C99599C985B595059028333333333333E33F0000000000000F90107901411070040501600405405064090740C02480A0340
1001
ACAD
1000
AcDbSavedByObjectVersion
1070
     0
  0
ACAD_PROXY_OBJECT
  5
5653
102
{ACAD_REACTORS
330
563D
102
}
330
563D
100
AcDbProxyObject
 90
      499
 91
      504
 93
      404
310
41560B54985E51940902404000000000000E03F0000000000000F9010740501907004050150841D405064090740C02480A1B40
1001
ACAD
1000
AcDbSavedByObjectVersion
1070
     0
  0
XRECORD
  5
6310
102
{ACAD_REACTORS
330
6306
102
}
330
6306
100
AcDbXrecord
340
0
  0
XRECORD
  5
630F
102
{ACAD_REACTORS
330
6306
102
}
330
6306
100
AcDbXrecord
 90
        0
  0
XRECORD
  5
6329
102
{ACAD_REACTORS
330
6306
102
}
330
6306
100
AcDbXrecord
340
2948
  0
XRECORD
  5
6326
102
{ACAD_REACTORS
330
6306
102
}
330
6306
100
AcDbXrecord
1000
DSTYLE
1002
{
1070
   171
 70
     2
1070
   143
 40
0.0394
1070
   274
 70
     2
1070
    41
 40
6.0
1070
   342
340
2AF4
1070
   271
 70
     1
1070
   278
 70
    46
1070
   341
340
2AF4
1070
   272
 70
     1
1070
    48
 40
0.1
1070
   283
 70
     1
1070
    47
 40
0.1
1070
   145
 40
1.0
1070
   340
340
10
1070
   140
 40
8.0
1070
   284
 70
     0
1002
}
  0
XRECORD
  5
6311
102
{ACAD_REACTORS
330
6306
102
}
330
6306
100
AcDbXrecord
  1
{23698909-1D67-4744-B0E2-8DE11E3ED422}
  0
XRECORD
  5
6309
102
{ACAD_REACTORS
330
6306
102
}
330
6306
100
AcDbXrecord
  1

  0
XRECORD
  5
630E
102
{ACAD_REACTORS
330
6306
102
}
330
6306
100
AcDbXrecord
 90
        0
  0
XRECORD
  5
630B
102
{ACAD_REACTORS
330
6306
102
}
330
6306
100
AcDbXrecord
340
2816
  0
XRECORD
  5
630D
102
{ACAD_REACTORS
330
6306
102
}
330
6306
100
AcDbXrecord
 90
    10781
  0
XRECORD
  5
632A
102
{ACAD_REACTORS
330
6306
102
}
330
6306
100
AcDbXrecord
340
2947
  0
XRECORD
  5
630C
102
{ACAD_REACTORS
330
6306
102
}
330
6306
100
AcDbXrecord
340
2817
  0
XRECORD
  5
6313
102
{ACAD_REACTORS
330
6306
102
}
330
6306
100
AcDbXrecord
 40
0.25
  0
XRECORD
  5
6316
102
{ACAD_REACTORS
330
6306
102
}
330
6306
100
AcDbXrecord
340
0
  0
XRECORD
  5
631C
102
{ACAD_REACTORS
330
6306
102
}
330
6306
100
AcDbXrecord
 10
0.0
 20
0.0
 30
0.0
  0
XRECORD
  5
6318
102
{ACAD_REACTORS
330
6306
102
}
330
6306
100
AcDbXrecord
 10
0.0
 20
0.0
 30
0.0
  0
XRECORD
  5
631B
102
{ACAD_REACTORS
330
6306
102
}
330
6306
100
AcDbXrecord
 10
0.0
 20
0.0
 30
0.0
  0
XRECORD
  5
6319
102
{ACAD_REACTORS
330
6306
102
}
330
6306
100
AcDbXrecord
 10
0.0
 20
0.0
 30
0.0
  0
XRECORD
  5
631A
102
{ACAD_REACTORS
330
6306
102
}
330
6306
100
AcDbXrecord
 10
0.0
 20
0.0
 30
0.0
  0
XRECORD
  5
6317
102
{ACAD_REACTORS
330
6306
102
}
330
6306
100
AcDbXrecord
 10
0.0
 20
0.0
 30
0.0
  0
XRECORD
  5
6314
102
{ACAD_REACTORS
330
6306
102
}
330
6306
100
AcDbXrecord
340
0
  0
XRECORD
  5
6315
102
{ACAD_REACTORS
330
6306
102
}
330
6306
100
AcDbXrecord
 70
     0
  0
XRECORD
  5
630A
102
{ACAD_REACTORS
330
6306
102
}
330
6306
100
AcDbXrecord
  1

  0
XRECORD
  5
6307
102
{ACAD_REACTORS
330
6306
102
}
330
6306
100
AcDbXrecord
 90
        1
  0
XRECORD
  5
6308
102
{ACAD_REACTORS
330
6306
102
}
330
6306
100
AcDbXrecord
 90
       70
  0
XRECORD
  5
631F
102
{ACAD_REACTORS
330
6306
102
}
330
6306
100
AcDbXrecord
340
0
  0
XRECORD
  5
6325
102
{ACAD_REACTORS
330
6306
102
}
330
6306
100
AcDbXrecord
 10
0.0
 20
0.0
 30
0.0
  0
XRECORD
  5
6321
102
{ACAD_REACTORS
330
6306
102
}
330
6306
100
AcDbXrecord
 10
0.0
 20
0.0
 30
0.0
  0
XRECORD
  5
6324
102
{ACAD_REACTORS
330
6306
102
}
330
6306
100
AcDbXrecord
 10
0.0
 20
0.0
 30
0.0
  0
XRECORD
  5
6322
102
{ACAD_REACTORS
330
6306
102
}
330
6306
100
AcDbXrecord
 10
0.0
 20
0.0
 30
0.0
  0
XRECORD
  5
6323
102
{ACAD_REACTORS
330
6306
102
}
330
6306
100
AcDbXrecord
 10
0.0
 20
0.0
 30
0.0
  0
XRECORD
  5
6320
102
{ACAD_REACTORS
330
6306
102
}
330
6306
100
AcDbXrecord
 10
0.0
 20
0.0
 30
0.0
  0
XRECORD
  5
631D
102
{ACAD_REACTORS
330
6306
102
}
330
6306
100
AcDbXrecord
340
0
  0
XRECORD
  5
631E
102
{ACAD_REACTORS
330
6306
102
}
330
6306
100
AcDbXrecord
 70
     0
  0
XRECORD
  5
6312
102
{ACAD_REACTORS
330
6306
102
}
330
6306
100
AcDbXrecord
  1
{FE54E3D7-1113-4C0F-A14E-9F1C24AE879A}
  0
DICTIONARYVAR
  5
57F1
102
{ACAD_REACTORS
330
57F0
102
}
330
57F0
100
DictionaryVariables
280
     0
  1
1:1
  0
DICTIONARYVAR
  5
57F3
102
{ACAD_REACTORS
330
57F0
102
}
330
57F0
100
DictionaryVariables
280
     0
  1
Standard
  0
DICTIONARYVAR
  5
57F2
102
{ACAD_REACTORS
330
57F0
102
}
330
57F0
100
DictionaryVariables
280
     0
  1
Standard
  0
DICTIONARYVAR
  5
6327
102
{ACAD_REACTORS
330
57F0
102
}
330
57F0
100
DictionaryVariables
280
     0
  1
1
  0
DICTIONARYVAR
  5
6328
102
{ACAD_REACTORS
330
57F0
102
}
330
57F0
100
DictionaryVariables
280
     0
  1
0
  0
DICTIONARYVAR
  5
57F4
102
{ACAD_REACTORS
330
57F0
102
}
330
57F0
100
DictionaryVariables
280
     0
  1
0
  0
DICTIONARYVAR
  5
57F5
102
{ACAD_REACTORS
330
57F0
102
}
330
57F0
100
DictionaryVariables
280
     0
  1
0
  0
DICTIONARY
  5
5A31
102
{ACAD_REACTORS
330
5A30
102
}
330
5A30
100
AcDbDictionary
  0
DICTIONARY
  5
5A2E
102
{ACAD_REACTORS
330
5A2D
102
}
330
5A2D
100
AcDbDictionary
  0
DICTIONARY
  5
5684
102
{ACAD_REACTORS
330
5683
102
}
330
5683
100
AcDbDictionary
  0
DICTIONARY
  5
5703
102
{ACAD_REACTORS
330
5702
102
}
330
5702
100
AcDbDictionary
  0
DICTIONARY
  5
571C
102
{ACAD_REACTORS
330
571B
102
}
330
571B
100
AcDbDictionary
  0
DICTIONARY
  5
592E
102
{ACAD_REACTORS
330
592D
102
}
330
592D
100
AcDbDictionary
  0
DICTIONARY
  5
5932
102
{ACAD_REACTORS
330
5931
102
}
330
5931
100
AcDbDictionary
  0
DICTIONARY
  5
5936
102
{ACAD_REACTORS
330
5935
102
}
330
5935
100
AcDbDictionary
  0
DICTIONARY
  5
593A
102
{ACAD_REACTORS
330
5939
102
}
330
5939
100
AcDbDictionary
  0
DICTIONARY
  5
593E
102
{ACAD_REACTORS
330
593D
102
}
330
593D
100
AcDbDictionary
  0
DICTIONARY
  5
5942
102
{ACAD_REACTORS
330
5941
102
}
330
5941
100
AcDbDictionary
  0
DICTIONARY
  5
5946
102
{ACAD_REACTORS
330
5945
102
}
330
5945
100
AcDbDictionary
  0
DICTIONARY
  5
594A
102
{ACAD_REACTORS
330
5949
102
}
330
5949
100
AcDbDictionary
  0
DICTIONARY
  5
57EF
102
{ACAD_REACTORS
330
57EE
102
}
330
57EE
100
AcDbDictionary
  0
DICTIONARY
  5
5C1B
102
{ACAD_REACTORS
330
5C1A
102
}
330
5C1A
100
AcDbDictionary
  0
DICTIONARY
  5
5DC9
102
{ACAD_REACTORS
330
5DC8
102
}
330
5DC8
100
AcDbDictionary
  0
DICTIONARY
  5
5E8C
102
{ACAD_REACTORS
330
5E8B
102
}
330
5E8B
100
AcDbDictionary
  0
DICTIONARY
  5
61EB
102
{ACAD_REACTORS
330
61EA
102
}
330
61EA
100
AcDbDictionary
  0
DICTIONARY
  5
6330
330
5679
100
AcDbDictionary
280
     1
  3
ACAD_XREC_ROUNDTRIP
360
6331
  0
DICTIONARY
  5
632E
330
5678
100
AcDbDictionary
280
     1
  3
ACAD_XREC_ROUNDTRIP
360
632F
  0
DICTIONARY
  5
6332
330
567A
100
AcDbDictionary
280
     1
  3
ACAD_XREC_ROUNDTRIP
360
6333
  0
XRECORD
  5
6331
102
{ACAD_REACTORS
330
6330
102
}
330
6330
100
AcDbXrecord
102
MATERIAL
148
0.0
149
0.0
149
0.0
 93
        0
 94
      127
282
     0
 72
     1
 77
     1
171
     1
175
     1
179
     1
273
     0
  0
XRECORD
  5
632F
102
{ACAD_REACTORS
330
632E
102
}
330
632E
100
AcDbXrecord
102
MATERIAL
148
0.0
149
0.0
149
0.0
 93
        0
 94
      127
282
     0
 72
     1
 77
     1
171
     1
175
     1
179
     1
273
     0
  0
XRECORD
  5
6333
102
{ACAD_REACTORS
330
6332
102
}
330
6332
100
AcDbXrecord
102
MATERIAL
148
0.0
149
0.0
149
0.0
 93
        0
 94
      127
282
     0
 72
     1
 77
     1
171
     1
175
     1
179
     1
273
     0
  0
ENDSEC
  0
EOF
