  0
SECTION
  2
HEADER
  9
$ACADVER
  1
AC1014
  9
$ACADMAINTVER
 70
     9
  9
$DWGCODEPAGE
  3
ANSI_932
  9
$INSBASE
 10
0.0
 20
0.0
 30
0.0
  9
$EXTMIN
 10
-137.762011493112
 20
106.383110779903
 30
0.0
  9
$EXTMAX
 10
644.42910861893
 20
559.930807801608
 30
0.0
  9
$LIMMIN
 10
-360.747566795242
 20
4.457354754526
  9
$LIMMAX
 10
-162.153696144267
 20
287.675440264018
  9
$ORTHOMODE
 70
     0
  9
$REGENMODE
 70
     1
  9
$FILLMODE
 70
     1
  9
$QTEXTMODE
 70
     0
  9
$MIRRTEXT
 70
     1
  9
$DRAGMODE
 70
     2
  9
$LTSCALE
 40
1.0
  9
$OSMODE
 70
   935
  9
$ATTMODE
 70
     1
  9
$TEXTSIZE
 40
4.0
  9
$TRACEWID
 40
1.0
  9
$TEXTSTYLE
  7
STANDARD
  9
$CLAYER
  8
隠れ線
  9
$CELTYPE
  6
BYLAYER
  9
$CECOLOR
 62
   256
  9
$CELTSCALE
 40
10.0
  9
$DELOBJ
 70
     1
  9
$DISPSILH
 70
     0
  9
$DIMSCALE
 40
1.0
  9
$DIMASZ
 40
6.0
  9
$DIMEXO
 40
0.625
  9
$DIMDLI
 40
3.75
  9
$DIMRND
 40
0.0
  9
$DIMDLE
 40
0.0
  9
$DIMEXE
 40
1.25
  9
$DIMTP
 40
0.1
  9
$DIMTM
 40
0.1
  9
$DIMTXT
 40
8.0
  9
$DIMCEN
 40
2.5
  9
$DIMTSZ
 40
0.0
  9
$DIMTOL
 70
     0
  9
$DIMLIM
 70
     0
  9
$DIMTIH
 70
     0
  9
$DIMTOH
 70
     0
  9
$DIMSE1
 70
     0
  9
$DIMSE2
 70
     0
  9
$DIMTAD
 70
     1
  9
$DIMZIN
 70
     8
  9
$DIMBLK
  1
OPEN30
  9
$DIMASO
 70
     1
  9
$DIMSHO
 70
     1
  9
$DIMPOST
  1

  9
$DIMAPOST
  1

  9
$DIMALT
 70
     0
  9
$DIMALTD
 70
     2
  9
$DIMALTF
 40
0.0394
  9
$DIMLFAC
 40
1.0
  9
$DIMTOFL
 70
     1
  9
$DIMTVP
 40
1.0
  9
$DIMTIX
 70
     0
  9
$DIMSOXD
 70
     0
  9
$DIMSAH
 70
     0
  9
$DIMBLK1
  1

  9
$DIMBLK2
  1

  9
$DIMSTYLE
  2
ISO-25
  9
$DIMCLRD
 70
     0
  9
$DIMCLRE
 70
     0
  9
$DIMCLRT
 70
     0
  9
$DIMTFAC
 40
1.0
  9
$DIMGAP
 40
0.625
  9
$DIMJUST
 70
     0
  9
$DIMSD1
 70
     0
  9
$DIMSD2
 70
     0
  9
$DIMTOLJ
 70
     1
  9
$DIMTZIN
 70
     0
  9
$DIMALTZ
 70
     0
  9
$DIMALTTZ
 70
     0
  9
$DIMFIT
 70
     3
  9
$DIMUPT
 70
     0
  9
$DIMUNIT
 70
     2
  9
$DIMDEC
 70
     1
  9
$DIMTDEC
 70
     1
  9
$DIMALTU
 70
     2
  9
$DIMALTTD
 70
     2
  9
$DIMTXSTY
  7
STANDARD
  9
$DIMAUNIT
 70
     0
  9
$LUNITS
 70
     2
  9
$LUPREC
 70
     4
  9
$SKETCHINC
 40
1.0
  9
$FILLETRAD
 40
11.0
  9
$AUNITS
 70
     0
  9
$AUPREC
 70
     0
  9
$MENU
  1
.
  9
$ELEVATION
 40
0.0
  9
$PELEVATION
 40
0.0
  9
$THICKNESS
 40
0.0
  9
$LIMCHECK
 70
     0
  9
$CHAMFERA
 40
0.5
  9
$CHAMFERB
 40
0.5
  9
$CHAMFERC
 40
20.0
  9
$CHAMFERD
 40
0.0
  9
$SKPOLY
 70
     0
  9
$TDCREATE
 40
2450576.597302431
  9
$TDUPDATE
 40
2457661.614722755
  9
$TDINDWG
 40
1.5920032755
  9
$TDUSRTIMER
 40
1.5920032755
  9
$USRTIMER
 70
     1
  9
$ANGBASE
 50
0.0
  9
$ANGDIR
 70
     0
  9
$PDMODE
 70
     0
  9
$PDSIZE
 40
0.0
  9
$PLINEWID
 40
0.0
  9
$COORDS
 70
     1
  9
$SPLFRAME
 70
     0
  9
$SPLINETYPE
 70
     6
  9
$SPLINESEGS
 70
     8
  9
$ATTDIA
 70
     0
  9
$ATTREQ
 70
     1
  9
$HANDLING
 70
     1
  9
$HANDSEED
  5
5E7F
  9
$SURFTAB1
 70
     6
  9
$SURFTAB2
 70
     6
  9
$SURFTYPE
 70
     6
  9
$SURFU
 70
     6
  9
$SURFV
 70
     6
  9
$UCSNAME
  2

  9
$UCSORG
 10
0.0
 20
0.0
 30
0.0
  9
$UCSXDIR
 10
1.0
 20
0.0
 30
0.0
  9
$UCSYDIR
 10
0.0
 20
1.0
 30
0.0
  9
$PUCSNAME
  2

  9
$PUCSORG
 10
0.0
 20
0.0
 30
0.0
  9
$PUCSXDIR
 10
1.0
 20
0.0
 30
0.0
  9
$PUCSYDIR
 10
0.0
 20
1.0
 30
0.0
  9
$USERI1
 70
     0
  9
$USERI2
 70
     0
  9
$USERI3
 70
     0
  9
$USERI4
 70
     0
  9
$USERI5
 70
     0
  9
$USERR1
 40
0.0
  9
$USERR2
 40
0.0
  9
$USERR3
 40
0.0
  9
$USERR4
 40
0.0
  9
$USERR5
 40
0.0
  9
$WORLDVIEW
 70
     1
  9
$SHADEDGE
 70
     3
  9
$SHADEDIF
 70
    70
  9
$TILEMODE
 70
     0
  9
$MAXACTVP
 70
    16
  9
$PINSBASE
 10
0.0
 20
0.0
 30
0.0
  9
$PLIMCHECK
 70
     0
  9
$PEXTMIN
 10
4.746305129083
 20
1.396645458131
 30
0.0
  9
$PEXTMAX
 10
404.746305129083
 20
281.396645458131
 30
0.0
  9
$PLIMMIN
 10
-7.007122192383
 20
-7.007118782997
  9
$PLIMMAX
 10
417.718108215332
 20
293.315290427208
  9
$UNITMODE
 70
     0
  9
$VISRETAIN
 70
     0
  9
$PLINEGEN
 70
     0
  9
$PSLTSCALE
 70
     1
  9
$TREEDEPTH
 70
  3020
  9
$PICKSTYLE
 70
     1
  9
$CMLSTYLE
  2
STANDARD
  9
$CMLJUST
 70
     0
  9
$CMLSCALE
 40
1.0
  9
$PROXYGRAPHICS
 70
     1
  9
$MEASUREMENT
 70
     1
  0
ENDSEC
  0
SECTION
  2
CLASSES
  0
CLASS
  1
ACDBDICTIONARYWDFLT
  2
AcDbDictionaryWithDefault
  3
ObjectDBX Classes
 90
        0
280
     0
281
     0
  0
CLASS
  1
ACDBPLACEHOLDER
  2
AcDbPlaceHolder
  3
ObjectDBX Classes
 90
        0
280
     0
281
     0
  0
CLASS
  1
LAYOUT
  2
AcDbLayout
  3
ObjectDBX Classes
 90
        0
280
     0
281
     0
  0
CLASS
  1
SORTENTSTABLE
  2
AcDbSortentsTable
  3
ObjectDBX Classes
 90
        0
280
     0
281
     0
  0
CLASS
  1
VISUALSTYLE
  2
AcDbVisualStyle
  3
ObjectDBX Classes
 90
     4095
280
     0
281
     0
  0
CLASS
  1
SCALE
  2
AcDbScale
  3
ObjectDBX Classes
 90
     1153
280
     0
281
     0
  0
CLASS
  1
MATERIAL
  2
AcDbMaterial
  3
ObjectDBX Classes
 90
     1153
280
     0
281
     0
  0
CLASS
  1
TABLESTYLE
  2
AcDbTableStyle
  3
ObjectDBX Classes
 90
     4095
280
     0
281
     0
  0
CLASS
  1
MLEADERSTYLE
  2
AcDbMLeaderStyle
  3
ACDB_MLEADERSTYLE_CLASS
 90
     4095
280
     0
281
     0
  0
CLASS
  1
SUN
  2
AcDbSun
  3
SCENEOE
 90
     1153
280
     0
281
     0
  0
CLASS
  1
DICTIONARYVAR
  2
AcDbDictionaryVar
  3
ObjectDBX Classes
 90
        0
280
     0
281
     0
  0
CLASS
  1
CELLSTYLEMAP
  2
AcDbCellStyleMap
  3
ObjectDBX Classes
 90
     1152
280
     0
281
     0
  0
CLASS
  1
XRECORD
  2
AcDbXrecord
  3
ObjectDBX Classes
 90
        0
280
     0
281
     0
  0
CLASS
  1
LWPOLYLINE
  2
AcDbPolyline
  3
ObjectDBX Classes
 90
        0
280
     0
281
     1
  0
CLASS
  1
HATCH
  2
AcDbHatch
  3
ObjectDBX Classes
 90
        0
280
     0
281
     1
  0
ENDSEC
  0
SECTION
  2
TABLES
  0
TABLE
  2
VPORT
  5
8
102
{ACAD_XDICTIONARY
360
5E77
102
}
330
0
100
AcDbSymbolTable
 70
     7
  0
VPORT
  5
5562
330
8
100
AcDbSymbolTableRecord
100
AcDbViewportTableRecord
  2
*ACTIVE
 70
     0
 10
0.0
 20
0.0
 11
1.0
 21
1.0
 12
253.041881896242
 22
333.156959290756
 13
0.0
 23
0.0
 14
1.0
 24
1.0
 15
0.0
 25
0.0
 16
0.0
 26
0.0
 36
1.0
 17
0.0
 27
0.0
 37
0.0
 40
462.618650962139
 41
1.759407069555
 42
50.0
 43
0.0
 44
0.0
 50
0.0
 51
0.0
 71
    16
 72
   100
 73
     1
 74
     0
 75
     0
 76
     0
 77
     0
 78
     0
  0
ENDTAB
  0
TABLE
  2
LTYPE
  5
5
330
0
100
AcDbSymbolTable
 70
     6
  0
LTYPE
  5
14
330
5
100
AcDbSymbolTableRecord
100
AcDbLinetypeTableRecord
  2
BYBLOCK
 70
     0
  3

 72
    65
 73
     0
 40
0.0
  0
LTYPE
  5
15
330
5
100
AcDbSymbolTableRecord
100
AcDbLinetypeTableRecord
  2
BYLAYER
 70
     0
  3

 72
    65
 73
     0
 40
0.0
  0
LTYPE
  5
16
330
5
100
AcDbSymbolTableRecord
100
AcDbLinetypeTableRecord
  2
CONTINUOUS
 70
     0
  3
Solid line
 72
    65
 73
     0
 40
0.0
  0
LTYPE
  5
1EC
330
5
100
AcDbSymbolTableRecord
100
AcDbLinetypeTableRecord
  2
CENTER
 70
     0
  3
____ _ ____ _ ____ _ ____ _ ____ _ ____ _ ____ 
 72
    65
 73
     4
 40
2.0
 49
1.25
 74
     0
 49
-0.25
 74
     0
 49
0.25
 74
     0
 49
-0.25
 74
     0
  0
LTYPE
  5
1ED
330
5
100
AcDbSymbolTableRecord
100
AcDbLinetypeTableRecord
  2
DASHED
 70
     0
  3
__ __ __ __ __ __ __ __ __ __ __ __ __ __ __ __
 72
    65
 73
     2
 40
0.75
 49
0.5
 74
     0
 49
-0.25
 74
     0
  0
LTYPE
  5
2B1F
330
5
100
AcDbSymbolTableRecord
100
AcDbLinetypeTableRecord
  2
DASHDOT
 70
     0
  3
一点鎖線
 72
    65
 73
     4
 40
25.6
 49
20.0
 74
     0
 49
-2.0
 74
     0
 49
1.6
 74
     0
 49
-2.0
 74
     0
  0
LTYPE
  5
31A1
330
5
100
AcDbSymbolTableRecord
100
AcDbLinetypeTableRecord
  2
CENTER2
 70
     0
  3
Center (.5x) ___ _ ___ _ ___ _ ___ _ ___ _ ___
 72
    65
 73
     4
 40
28.575
 49
19.05
 74
     0
 49
-3.175
 74
     0
 49
3.175
 74
     0
 49
-3.175
 74
     0
  0
LTYPE
  5
409E
330
5
100
AcDbSymbolTableRecord
100
AcDbLinetypeTableRecord
  2
DASHED2
 70
     0
  3
Dashed (.5x) _ _ _ _ _ _ _ _ _ _ _ _ _ _ _ _ _
 72
    65
 73
     2
 40
9.525
 49
6.35
 74
     0
 49
-3.175
 74
     0
  0
ENDTAB
  0
TABLE
  2
LAYER
  5
2
102
{ACAD_XDICTIONARY
360
29EA
102
}
330
0
100
AcDbSymbolTable
 70
    12
  0
LAYER
  5
F
330
2
100
AcDbSymbolTableRecord
100
AcDbLayerTableRecord
  2
0
 70
     0
 62
     7
  6
CONTINUOUS
  0
LAYER
  5
61
330
2
100
AcDbSymbolTableRecord
100
AcDbLayerTableRecord
  2
図枠太線
 70
     0
 62
   251
  6
CONTINUOUS
  0
LAYER
  5
62
330
2
100
AcDbSymbolTableRecord
100
AcDbLayerTableRecord
  2
図枠細線
 70
     0
 62
   252
  6
CONTINUOUS
  0
LAYER
  5
63
330
2
100
AcDbSymbolTableRecord
100
AcDbLayerTableRecord
  2
図枠ロゴマーク
 70
     0
 62
   253
  6
CONTINUOUS
  0
LAYER
  5
1EF
330
2
100
AcDbSymbolTableRecord
100
AcDbLayerTableRecord
  2
外形線
 70
     0
 62
     7
  6
CONTINUOUS
  0
LAYER
  5
1F0
330
2
100
AcDbSymbolTableRecord
100
AcDbLayerTableRecord
  2
寸法線
 70
     0
 62
     1
  6
CONTINUOUS
  0
LAYER
  5
1F1
330
2
100
AcDbSymbolTableRecord
100
AcDbLayerTableRecord
  2
中心線
 70
     0
 62
     4
  6
CENTER
  0
LAYER
  5
1F4
330
2
100
AcDbSymbolTableRecord
100
AcDbLayerTableRecord
  2
DEFPOINTS
 70
     0
 62
     7
  6
CONTINUOUS
  0
LAYER
  5
2AA2
330
2
100
AcDbSymbolTableRecord
100
AcDbLayerTableRecord
  2
下書線
 70
     0
 62
     2
  6
CONTINUOUS
  0
LAYER
  5
2AA3
330
2
100
AcDbSymbolTableRecord
100
AcDbLayerTableRecord
  2
隠れ線
 70
     0
 62
     3
  6
DASHED
  0
LAYER
  5
2AA4
330
2
100
AcDbSymbolTableRecord
100
AcDbLayerTableRecord
  2
細線
 70
     0
 62
     6
  6
CONTINUOUS
  0
LAYER
  5
2AA5
330
2
100
AcDbSymbolTableRecord
100
AcDbLayerTableRecord
  2
太線
 70
     0
 62
   190
  6
CONTINUOUS
  0
ENDTAB
  0
TABLE
  2
STYLE
  5
3
330
0
100
AcDbSymbolTable
 70
     2
  0
STYLE
  5
10
330
3
100
AcDbSymbolTableRecord
100
AcDbTextStyleTableRecord
  2
STANDARD
 70
     0
 40
0.0
 41
1.0
 50
0.0
 71
     0
 42
4.0
  3
ISOCP
  4
bigfont.shx
  0
STYLE
  5
64
330
3
100
AcDbSymbolTableRecord
100
AcDbTextStyleTableRecord
  2
EXCADSTD
 70
     0
 40
0.0
 41
1.0
 50
0.0
 71
     0
 42
0.2
  3
monotxt
  4
bigfont
  0
ENDTAB
  0
TABLE
  2
VIEW
  5
6
330
0
100
AcDbSymbolTable
 70
     0
  0
ENDTAB
  0
TABLE
  2
UCS
  5
7
330
0
100
AcDbSymbolTable
 70
     0
  0
ENDTAB
  0
TABLE
  2
APPID
  5
9
330
0
100
AcDbSymbolTable
 70
     6
  0
APPID
  5
11
330
9
100
AcDbSymbolTableRecord
100
AcDbRegAppTableRecord
  2
ACAD
 70
     0
  0
APPID
  5
3507
330
9
100
AcDbSymbolTableRecord
100
AcDbRegAppTableRecord
  2
ACAD_DIMASSOC_CALC_DIMLFAC
 70
     0
  0
APPID
  5
3508
330
9
100
AcDbSymbolTableRecord
100
AcDbRegAppTableRecord
  2
ACAD_DIMASSOC_DIMLFAC
 70
     0
  0
APPID
  5
3509
330
9
100
AcDbSymbolTableRecord
100
AcDbRegAppTableRecord
  2
ACAD_DIMASSOC_OVERRIDDEN_D
 70
     0
  0
APPID
  5
55A7
330
9
100
AcDbSymbolTableRecord
100
AcDbRegAppTableRecord
  2
ACADANNOTATIVE
 70
     0
  0
APPID
  5
5823
330
9
100
AcDbSymbolTableRecord
100
AcDbRegAppTableRecord
  2
ACAD_MLEADERVER
 70
     0
  0
ENDTAB
  0
TABLE
  2
DIMSTYLE
  5
A
330
0
100
AcDbSymbolTable
 70
     2
  0
DIMSTYLE
105
1D
330
A
100
AcDbSymbolTableRecord
100
AcDbDimStyleTableRecord
  2
STANDARD
 70
     0
  3

  4

  5

  6

  7

 40
1.0
 41
0.18
 42
0.0625
 43
0.38
 44
0.18
 45
0.0
 46
0.0
 47
0.0
 48
0.0
140
0.18
141
0.09
142
0.0
143
25.4
144
1.0
145
0.0
146
1.0
147
0.09
 71
     0
 72
     0
 73
     1
 74
     1
 75
     0
 76
     0
 77
     0
 78
     0
170
     0
171
     2
172
     0
173
     0
174
     0
175
     0
176
     0
177
     0
178
     0
270
     2
271
     4
272
     4
273
     2
274
     2
340
10
275
     0
280
     0
281
     0
282
     0
283
     1
284
     0
285
     0
286
     0
287
     3
288
     0
  0
DIMSTYLE
105
24
102
{ACAD_REACTORS
330
40F3
330
441B
330
4653
330
4669
330
467F
330
4E38
330
4E3A
330
4E3D
330
4E3F
330
4E40
330
4E42
330
5339
330
534C
330
53BC
102
}
330
A
100
AcDbSymbolTableRecord
100
AcDbDimStyleTableRecord
  2
ISO-25
 70
     0
  3

  4

  5

  6

  7

 40
1.0
 41
2.5
 42
0.625
 43
3.75
 44
1.25
 45
0.0
 46
0.0
 47
0.0
 48
0.0
140
2.5
141
2.5
142
0.0
143
0.0394
144
1.0
145
1.0
146
1.0
147
0.625
 71
     0
 72
     0
 73
     1
 74
     0
 75
     0
 76
     0
 77
     1
 78
     8
170
     0
171
     2
172
     1
173
     0
174
     0
175
     0
176
     0
177
     0
178
     0
270
     2
271
     4
272
     4
273
     2
274
     2
340
10
275
     0
280
     0
281
     0
282
     0
283
     1
284
     0
285
     0
286
     0
287
     3
288
     0
  0
ENDTAB
  0
TABLE
  2
BLOCK_RECORD
  5
1
330
0
100
AcDbSymbolTable
 70
    25
  0
BLOCK_RECORD
  5
1A
330
1
100
AcDbSymbolTableRecord
100
AcDbBlockTableRecord
  2
*MODEL_SPACE
  0
BLOCK_RECORD
  5
28FB
330
1
100
AcDbSymbolTableRecord
100
AcDbBlockTableRecord
  2
*PAPER_SPACE
  0
BLOCK_RECORD
  5
65
330
1
100
AcDbSymbolTableRecord
100
AcDbBlockTableRecord
  2
A$C3392
  0
BLOCK_RECORD
  5
29BF
330
1
100
AcDbSymbolTableRecord
100
AcDbBlockTableRecord
  2
A4横用_タイトル
1001
ACAD
1000
DesignCenter Data
1002
{
1070
     1
1070
     4
1002
}
  0
BLOCK_RECORD
  5
29F4
330
1
100
AcDbSymbolTableRecord
100
AcDbBlockTableRecord
  2
A4縦用_タイトル
1001
ACAD
1000
DesignCenter Data
1002
{
1070
     1
1070
     4
1002
}
  0
BLOCK_RECORD
  5
2A32
330
1
100
AcDbSymbolTableRecord
100
AcDbBlockTableRecord
  2
A3横用_タイトル
1001
ACAD
1000
DesignCenter Data
1002
{
1070
     1
1070
     4
1002
}
  0
BLOCK_RECORD
  5
2A6C
330
1
100
AcDbSymbolTableRecord
100
AcDbBlockTableRecord
  2
A3縦用_タイトル
1001
ACAD
1000
DesignCenter Data
1002
{
1070
     1
1070
     4
1002
}
  0
BLOCK_RECORD
  5
2AF4
330
1
100
AcDbSymbolTableRecord
100
AcDbBlockTableRecord
  2
_OPEN30
  0
BLOCK_RECORD
  5
40F4
330
1
100
AcDbSymbolTableRecord
100
AcDbBlockTableRecord
  2
*D6
  0
BLOCK_RECORD
  5
4212
330
1
100
AcDbSymbolTableRecord
100
AcDbBlockTableRecord
  2
_DOTSMALL
  0
BLOCK_RECORD
  5
4216
330
1
100
AcDbSymbolTableRecord
100
AcDbBlockTableRecord
  2
_DOT
  0
BLOCK_RECORD
  5
441C
330
1
100
AcDbSymbolTableRecord
100
AcDbBlockTableRecord
  2
*D9
  0
BLOCK_RECORD
  5
4501
330
1
100
AcDbSymbolTableRecord
100
AcDbBlockTableRecord
  2
静電容量センサ
  0
BLOCK_RECORD
  5
4654
330
1
100
AcDbSymbolTableRecord
100
AcDbBlockTableRecord
  2
*D11
  0
BLOCK_RECORD
  5
466A
330
1
100
AcDbSymbolTableRecord
100
AcDbBlockTableRecord
  2
*D12
  0
BLOCK_RECORD
  5
4680
330
1
100
AcDbSymbolTableRecord
100
AcDbBlockTableRecord
  2
*D13
  0
BLOCK_RECORD
  5
4E9A
330
1
100
AcDbSymbolTableRecord
100
AcDbBlockTableRecord
  2
*D14
  0
BLOCK_RECORD
  5
4EA7
330
1
100
AcDbSymbolTableRecord
100
AcDbBlockTableRecord
  2
*D15
  0
BLOCK_RECORD
  5
4EB4
330
1
100
AcDbSymbolTableRecord
100
AcDbBlockTableRecord
  2
*D16
  0
BLOCK_RECORD
  5
4EC0
330
1
100
AcDbSymbolTableRecord
100
AcDbBlockTableRecord
  2
*D17
  0
BLOCK_RECORD
  5
4ECC
330
1
100
AcDbSymbolTableRecord
100
AcDbBlockTableRecord
  2
*D18
  0
BLOCK_RECORD
  5
4EE4
330
1
100
AcDbSymbolTableRecord
100
AcDbBlockTableRecord
  2
*D19
  0
BLOCK_RECORD
  5
533A
330
1
100
AcDbSymbolTableRecord
100
AcDbBlockTableRecord
  2
*D21
  0
BLOCK_RECORD
  5
534D
330
1
100
AcDbSymbolTableRecord
100
AcDbBlockTableRecord
  2
*D22
  0
BLOCK_RECORD
  5
53BD
330
1
100
AcDbSymbolTableRecord
100
AcDbBlockTableRecord
  2
*D23
  0
BLOCK_RECORD
  5
5400
330
1
100
AcDbSymbolTableRecord
100
AcDbBlockTableRecord
  2
エル2
  0
ENDTAB
  0
ENDSEC
  0
SECTION
  2
BLOCKS
  0
BLOCK
  5
1B
330
1A
100
AcDbEntity
  8
0
100
AcDbBlockBegin
  2
*MODEL_SPACE
 70
     0
 10
0.0
 20
0.0
 30
0.0
  3
*MODEL_SPACE
  1

  0
ENDBLK
  5
1C
330
1A
100
AcDbEntity
  8
0
100
AcDbBlockEnd
  0
BLOCK
  5
28FD
330
28FB
100
AcDbEntity
 67
     1
  8
0
 48
10.0
100
AcDbBlockBegin
  2
*PAPER_SPACE
 70
     0
 10
0.0
 20
0.0
 30
0.0
  3
*PAPER_SPACE
  1

  0
ENDBLK
  5
28FE
330
28FB
100
AcDbEntity
 67
     1
  8
0
 48
10.0
100
AcDbBlockEnd
  0
BLOCK
  5
93
330
65
100
AcDbEntity
  8
0
100
AcDbBlockBegin
  2
A$C3392
 70
     0
 10
0.0
 20
0.0
 30
0.0
  3
A$C3392
  1

  0
LINE
  5
66
330
65
100
AcDbEntity
  8
図枠太線
  6
CONTINUOUS
100
AcDbLine
 10
211.858584505185
 20
30.927375675439
 30
0.0
 11
211.858584505185
 21
0.927375675439
 31
0.0
  0
LINE
  5
67
330
65
100
AcDbEntity
  8
図枠細線
  6
CONTINUOUS
100
AcDbLine
 10
231.858592505185
 20
15.927377675439
 30
0.0
 11
287.858592505185
 21
15.927375675439
 31
0.0
  0
LINE
  5
68
330
65
100
AcDbEntity
  8
図枠細線
  6
CONTINUOUS
100
AcDbLine
 10
211.858592505185
 20
15.927377675439
 30
0.0
 11
231.858592505185
 21
15.927377675439
 31
0.0
  0
LINE
  5
69
330
65
100
AcDbEntity
  8
図枠太線
  6
CONTINUOUS
 62
   251
100
AcDbLine
 10
1.858584505185
 20
0.927375675439
 30
0.0
 11
1.858584505185
 21
275.927375675439
 31
0.0
  0
TEXT
  5
6A
330
65
100
AcDbEntity
  8
図枠細線
  6
CONTINUOUS
 62
   252
100
AcDbText
 10
351.358592505185
 20
28.427377675439
 30
0.0
 40
2.0
  1
ＴＩＴＬＥ
 41
0.903614457831
  7
EXCADSTD
 72
     5
 11
361.358592505185
 21
28.427377675439
 31
0.0
100
AcDbText
  0
TEXT
  5
6B
330
65
100
AcDbEntity
  8
図枠細線
  6
CONTINUOUS
 62
   252
100
AcDbText
 10
345.358592505185
 20
28.427377675439
 30
0.0
 40
2.0
  1
名称
 41
1.171875
  7
EXCADSTD
 72
     5
 11
350.358592505185
 21
28.427377675439
 31
0.0
100
AcDbText
  0
TEXT
  5
6C
330
65
100
AcDbEntity
  8
図枠細線
  6
CONTINUOUS
 62
   252
100
AcDbText
 10
274.358592505185
 20
25.927377675439
 30
0.0
 40
2.0
  1
ＤＲＡＷＮ
 41
0.882352941176
  7
EXCADSTD
 72
     5
 11
284.358592505185
 21
25.927377675439
 31
0.0
100
AcDbText
  0
TEXT
  5
6D
330
65
100
AcDbEntity
  8
図枠細線
  6
CONTINUOUS
 62
   252
100
AcDbText
 10
260.358592505185
 20
25.927377675439
 30
0.0
 40
2.0
  1
ＤＥＳＩＧＮＥＤ
 41
0.713043472041
  7
EXCADSTD
 72
     5
 11
273.478592390744
 21
25.927377675439
 31
0.0
100
AcDbText
  0
TEXT
  5
6E
330
65
100
AcDbEntity
  8
図枠細線
  6
CONTINUOUS
 62
   252
100
AcDbText
 10
246.358592505185
 20
25.927377675439
 30
0.0
 40
2.0
  1
ＣＨＥＣＫＥＤ
 41
0.831249989569
  7
EXCADSTD
 72
     5
 11
259.658592338292
 21
25.927377675439
 31
0.0
100
AcDbText
  0
TEXT
  5
6F
330
65
100
AcDbEntity
  8
図枠細線
  6
CONTINUOUS
 62
   252
100
AcDbText
 10
274.358592505185
 20
28.427377675439
 30
0.0
 40
2.0
  1
製図
 41
1.209677419355
  7
EXCADSTD
 72
     5
 11
279.358592505185
 21
28.427377675439
 31
0.0
100
AcDbText
  0
TEXT
  5
70
330
65
100
AcDbEntity
  8
図枠細線
  6
CONTINUOUS
 62
   252
100
AcDbText
 10
260.358592505185
 20
28.427377675439
 30
0.0
 40
2.0
  1
設計
 41
1.171875
  7
EXCADSTD
 72
     5
 11
265.358592505185
 21
28.427377675439
 31
0.0
100
AcDbText
  0
TEXT
  5
71
330
65
100
AcDbEntity
  8
図枠細線
  6
CONTINUOUS
 62
   252
100
AcDbText
 10
246.358592505185
 20
28.427377675439
 30
0.0
 40
2.0
  1
検図
 41
1.209677419355
  7
EXCADSTD
 72
     5
 11
251.358592505185
 21
28.427377675439
 31
0.0
100
AcDbText
  0
TEXT
  5
72
330
65
100
AcDbEntity
  8
図枠細線
  6
CONTINUOUS
 62
   252
100
AcDbText
 10
232.358592505185
 20
25.927377675439
 30
0.0
 40
2.0
  1
ＡＰＰＲＯＶＥＤ
 41
0.695652184279
  7
EXCADSTD
 72
     5
 11
245.15859269592
 21
25.927377675439
 31
0.0
100
AcDbText
  0
TEXT
  5
73
330
65
100
AcDbEntity
  8
図枠細線
  6
CONTINUOUS
 62
   252
100
AcDbText
 10
232.358592505185
 20
28.427377675439
 30
0.0
 40
2.0
  1
承認
 41
1.171875
  7
EXCADSTD
 72
     5
 11
237.358592505185
 21
28.427377675439
 31
0.0
100
AcDbText
  0
TEXT
  5
74
330
65
100
AcDbEntity
  8
図枠細線
  6
CONTINUOUS
 62
   252
100
AcDbText
 10
290.069888505185
 20
2.574868675439
 30
0.0
 40
3.5
  1
ＴＯＷＡ　ＳＥＩＤＥＮ　ＩＮＤＵＳＴＲＩＡＬ　ＣＯ．，ＬＴＤ．
 41
0.414568012377
  7
EXCADSTD
 72
     5
 11
342.692388209546
 21
2.574868675439
 31
0.0
100
AcDbText
  0
TEXT
  5
75
330
65
100
AcDbEntity
  8
図枠ロゴマーク
  6
CONTINUOUS
 62
   253
100
AcDbText
 10
290.107348505185
 20
7.519769675439
 30
0.0
 40
7.0
  1
東和制電工業株式会社
 41
0.639204545455
  7
EXCADSTD
 72
     5
 11
342.607348505185
 21
7.519769675439
 31
0.0
100
AcDbText
  0
TEXT
  5
76
330
65
100
AcDbEntity
  8
図枠細線
  6
CONTINUOUS
 62
   252
100
AcDbText
 10
232.499705505185
 20
5.759088675439
 30
0.0
 40
2.0
  1
ＰＲＯＪＥＣＴＩＯＮ
 41
0.754285710199
  7
EXCADSTD
 72
     5
 11
250.099705409817
 21
5.759088675439
 31
0.0
100
AcDbText
  0
TEXT
  5
77
330
65
100
AcDbEntity
  8
図枠細線
  6
CONTINUOUS
 62
   252
100
AcDbText
 10
232.574629505185
 20
8.681077675439
 30
0.0
 40
2.0
  1
ＴＨＩＲＤ　ＡＮＧＬＥ
 41
0.691099486738
  7
EXCADSTD
 72
     5
 11
250.174629767445
 21
8.681077675439
 31
0.0
100
AcDbText
  0
TEXT
  5
78
330
65
100
AcDbEntity
  8
図枠細線
  6
CONTINUOUS
 62
   252
100
AcDbText
 10
256.823999505185
 20
13.427377675439
 30
0.0
 40
2.0
  1
ＳＣＡＬＥ
 41
0.903614457831
  7
EXCADSTD
 72
     5
 11
266.823999505185
 21
13.427377675439
 31
0.0
100
AcDbText
  0
TEXT
  5
79
330
65
100
AcDbEntity
  8
図枠細線
  6
CONTINUOUS
 62
   252
100
AcDbText
 10
274.858592505185
 20
13.427377675439
 30
0.0
 40
2.0
  1
ＤＡＴＥ
 41
0.923076923077
  7
EXCADSTD
 72
     5
 11
282.858592505185
 21
13.427377675439
 31
0.0
100
AcDbText
  0
TEXT
  5
7A
330
65
100
AcDbEntity
  8
図枠細線
  6
CONTINUOUS
 62
   252
100
AcDbText
 10
356.358592505185
 20
13.427377675439
 30
0.0
 40
2.0
  1
ＤＲＧ．ＮＯ．
 41
0.9375
  7
EXCADSTD
 72
     5
 11
370.358592505185
 21
13.427377675439
 31
0.0
100
AcDbText
  0
TEXT
  5
7B
330
65
100
AcDbEntity
  8
図枠細線
  6
CONTINUOUS
 62
   252
100
AcDbText
 10
345.358592505185
 20
13.427377675439
 30
0.0
 40
2.0
  1
図面番号
 41
1.102941176471
  7
EXCADSTD
 72
     5
 11
355.358592505185
 21
13.427377675439
 31
0.0
100
AcDbText
  0
TEXT
  5
7C
330
65
100
AcDbEntity
  8
図枠細線
  6
CONTINUOUS
 62
   252
100
AcDbText
 10
269.358592505185
 20
13.427377675439
 30
0.0
 40
2.0
  1
日付
 41
1.171875
  7
EXCADSTD
 72
     5
 11
274.358592505185
 21
13.427377675439
 31
0.0
100
AcDbText
  0
TEXT
  5
7D
330
65
100
AcDbEntity
  8
図枠細線
  6
CONTINUOUS
 62
   252
100
AcDbText
 10
251.451512505185
 20
13.427377675439
 30
0.0
 40
2.0
  1
尺度
 41
1.171875
  7
EXCADSTD
 72
     5
 11
256.451512505185
 21
13.427377675439
 31
0.0
100
AcDbText
  0
TEXT
  5
7E
330
65
100
AcDbEntity
  8
図枠細線
  6
CONTINUOUS
 62
   252
100
AcDbText
 10
232.358592505185
 20
13.427377675439
 30
0.0
 40
2.0
  1
第三角法
 41
1.102941176471
  7
EXCADSTD
 72
     5
 11
242.358592505185
 21
13.427377675439
 31
0.0
100
AcDbText
  0
TEXT
  5
7F
330
65
100
AcDbEntity
  8
図枠細線
  6
CONTINUOUS
 62
   252
100
AcDbText
 10
212.358592505185
 20
28.427377675439
 30
0.0
 40
2.0
  1
ＮＯＴＥ
 41
0.923076923077
  7
EXCADSTD
 72
     5
 11
220.358592505185
 21
28.427377675439
 31
0.0
100
AcDbText
  0
LINE
  5
80
330
65
100
AcDbEntity
  8
図枠細線
  6
CONTINUOUS
 62
   252
100
AcDbLine
 10
287.858592505185
 20
23.427375675439
 30
0.0
 11
344.858592505185
 21
23.427375675439
 31
0.0
  0
LINE
  5
81
330
65
100
AcDbEntity
  8
図枠太線
  6
CONTINUOUS
 62
   251
100
AcDbLine
 10
287.858584505185
 20
15.927375675439
 30
0.0
 11
344.858592505185
 21
15.927375675439
 31
0.0
  0
LINE
  5
82
330
65
100
AcDbEntity
  8
図枠細線
  6
CONTINUOUS
 62
   252
100
AcDbLine
 10
344.858592505185
 20
15.927375675439
 30
0.0
 11
401.858584505185
 21
15.927375675439
 31
0.0
  0
LINE
  5
83
330
65
100
AcDbEntity
  8
図枠太線
  6
CONTINUOUS
 62
   251
100
AcDbLine
 10
344.858592505185
 20
0.927377675439
 30
0.0
 11
344.858592505185
 21
30.927375675439
 31
0.0
  0
LINE
  5
84
330
65
100
AcDbEntity
  8
図枠太線
  6
CONTINUOUS
 62
   251
100
AcDbLine
 10
287.858592505185
 20
0.927377675439
 30
0.0
 11
287.858592505185
 21
30.927375675439
 31
0.0
  0
LINE
  5
85
330
65
100
AcDbEntity
  8
図枠細線
  6
CONTINUOUS
 62
   252
100
AcDbLine
 10
268.858592505185
 20
0.927377675439
 30
0.0
 11
268.858592505185
 21
15.927375675439
 31
0.0
  0
LINE
  5
86
330
65
100
AcDbEntity
  8
図枠細線
  6
CONTINUOUS
 62
   252
100
AcDbLine
 10
250.858592505185
 20
0.927377675439
 30
0.0
 11
250.858592505185
 21
15.927375675439
 31
0.0
  0
LINE
  5
87
330
65
100
AcDbEntity
  8
図枠細線
  6
CONTINUOUS
 62
   252
100
AcDbLine
 10
273.858592505185
 20
30.927375675439
 30
0.0
 11
273.858592505185
 21
15.927375675439
 31
0.0
  0
LINE
  5
88
330
65
100
AcDbEntity
  8
図枠細線
  6
CONTINUOUS
 62
   252
100
AcDbLine
 10
259.858592505185
 20
30.927375675439
 30
0.0
 11
259.858592505185
 21
15.927375675439
 31
0.0
  0
LINE
  5
89
330
65
100
AcDbEntity
  8
図枠細線
  6
CONTINUOUS
 62
   252
100
AcDbLine
 10
245.858592505185
 20
30.927375675439
 30
0.0
 11
245.858592505185
 21
15.927375675439
 31
0.0
  0
LINE
  5
8A
330
65
100
AcDbEntity
  8
図枠太線
  6
CONTINUOUS
 62
   251
100
AcDbLine
 10
231.858592505185
 20
0.927377675439
 30
0.0
 11
231.858592505185
 21
30.927375675439
 31
0.0
  0
LINE
  5
8B
330
65
100
AcDbEntity
  8
図枠細線
  6
CONTINUOUS
 62
   252
100
AcDbLine
 10
211.858592505185
 20
25.927375675439
 30
0.0
 11
231.858592505185
 21
25.927375675439
 31
0.0
  0
LINE
  5
8C
330
65
100
AcDbEntity
  8
図枠細線
  6
CONTINUOUS
 62
   252
100
AcDbLine
 10
211.858592505185
 20
20.927375675439
 30
0.0
 11
231.858592505185
 21
20.927375675439
 31
0.0
  0
LINE
  5
8D
330
65
100
AcDbEntity
  8
図枠細線
  6
CONTINUOUS
 62
   252
100
AcDbLine
 10
211.858592505185
 20
10.927375675439
 30
0.0
 11
231.858592505185
 21
10.927375675439
 31
0.0
  0
LINE
  5
8E
330
65
100
AcDbEntity
  8
図枠細線
  6
CONTINUOUS
 62
   252
100
AcDbLine
 10
211.858592505185
 20
5.927377675439
 30
0.0
 11
231.858592505185
 21
5.927377675439
 31
0.0
  0
LINE
  5
8F
330
65
100
AcDbEntity
  8
図枠太線
  6
CONTINUOUS
 62
   251
100
AcDbLine
 10
211.858592505185
 20
30.927375675439
 30
0.0
 11
401.858584505185
 21
30.927375675439
 31
0.0
  0
LINE
  5
90
330
65
100
AcDbEntity
  8
図枠太線
  6
CONTINUOUS
 62
   251
100
AcDbLine
 10
1.858584505185
 20
275.927375675439
 30
0.0
 11
401.858584505185
 21
275.927375675439
 31
0.0
  0
LINE
  5
91
330
65
100
AcDbEntity
  8
図枠太線
  6
CONTINUOUS
 62
   251
100
AcDbLine
 10
401.858584505185
 20
0.927375675439
 30
0.0
 11
401.858584505185
 21
275.927375675439
 31
0.0
  0
LINE
  5
92
330
65
100
AcDbEntity
  8
図枠太線
  6
CONTINUOUS
 62
   251
100
AcDbLine
 10
1.858584505185
 20
0.927375675439
 30
0.0
 11
401.858584505185
 21
0.927375675439
 31
0.0
  0
ENDBLK
  5
94
330
65
100
AcDbEntity
  8
0
100
AcDbBlockEnd
  0
BLOCK
  5
29C0
330
29BF
100
AcDbEntity
  8
0
100
AcDbBlockBegin
  2
A4横用_タイトル
 70
     0
 10
0.0
 20
0.0
 30
0.0
  3
A4横用_タイトル
  1

  0
LINE
  5
29C1
330
29BF
100
AcDbEntity
  8
図枠細線
  6
CONTINUOUS
100
AcDbLine
 10
75.061011071051
 20
16.806607253358
 30
0.0
 11
144.061011071051
 21
16.806604789072
 31
0.0
  0
LINE
  5
29C2
330
29BF
100
AcDbEntity
  8
図枠細線
  6
CONTINUOUS
 62
   252
100
AcDbLine
 10
4.061011071051
 20
11.806606253358
 30
0.0
 11
75.061011071051
 21
11.806606253358
 31
0.0
  0
LINE
  5
29C3
330
29BF
100
AcDbEntity
  8
図枠細線
  6
CONTINUOUS
 62
   252
100
AcDbLine
 10
4.061011071051
 20
21.806606253358
 30
0.0
 11
75.061011071051
 21
21.806606253358
 31
0.0
  0
LINE
  5
29C4
330
29BF
100
AcDbEntity
  8
図枠細線
  6
CONTINUOUS
 62
   252
100
AcDbLine
 10
4.061011071051
 20
26.806606253358
 30
0.0
 11
75.061011071051
 21
26.806606253358
 31
0.0
  0
LINE
  5
29C5
330
29BF
100
AcDbEntity
  8
図枠細線
  6
CONTINUOUS
100
AcDbLine
 10
4.061011071051
 20
16.806608253358
 30
0.0
 11
75.061011071051
 21
16.806608253358
 31
0.0
  0
TEXT
  5
29C6
330
29BF
100
AcDbEntity
  8
図枠細線
  6
CONTINUOUS
 62
   252
100
AcDbText
 10
76.405475827713
 20
9.560308253358
 30
0.0
 40
2.0
  1
ＴＨＩＲＤ　ＡＮＧＬＥ
 41
0.691099486738
  7
EXCADSTD
 72
     5
 11
94.005476089973
 21
9.560308253358
 31
0.0
100
AcDbText
  0
TEXT
  5
29C7
330
29BF
100
AcDbEntity
  8
図枠細線
  6
CONTINUOUS
 62
   252
100
AcDbText
 10
76.705775880921
 20
14.306608253358
 30
0.0
 40
2.0
  1
第三角法
 41
1.102941176471
  7
EXCADSTD
 72
     5
 11
86.705775880921
 21
14.306608253358
 31
0.0
100
AcDbText
  0
TEXT
  5
29C8
330
29BF
100
AcDbEntity
  8
図枠細線
  6
CONTINUOUS
 62
   252
100
AcDbText
 10
76.705775880921
 20
26.806608253358
 30
0.0
 40
2.0
  1
ＡＰＰＲＯＶＥＤ
 41
0.695652184279
  7
EXCADSTD
 72
     5
 11
89.505776071656
 21
26.806608253358
 31
0.0
100
AcDbText
  0
TEXT
  5
29C9
330
29BF
100
AcDbEntity
  8
図枠細線
  6
CONTINUOUS
 62
   252
100
AcDbText
 10
76.705775880921
 20
29.306608253358
 30
0.0
 40
2.0
  1
承認
 41
1.171875
  7
EXCADSTD
 72
     5
 11
81.705775880921
 21
29.306608253358
 31
0.0
100
AcDbText
  0
LINE
  5
29CA
330
29BF
100
AcDbEntity
  8
図枠細線
  6
CONTINUOUS
 62
   252
100
AcDbLine
 10
98.061011071051
 20
31.806606253358
 30
0.0
 11
98.061011071051
 21
16.806606253358
 31
0.0
  0
TEXT
  5
29CB
330
29BF
100
AcDbEntity
  8
図枠細線
  6
CONTINUOUS
 62
   252
100
AcDbText
 10
104.216531119804
 20
14.306608253358
 30
0.0
 40
2.0
  1
ＳＣＡＬＥ
 41
0.903614457831
  7
EXCADSTD
 72
     5
 11
114.216531119804
 21
14.306608253358
 31
0.0
100
AcDbText
  0
TEXT
  5
29CC
330
29BF
100
AcDbEntity
  8
図枠細線
  6
CONTINUOUS
 62
   252
100
AcDbText
 10
98.844044119804
 20
14.306608253358
 30
0.0
 40
2.0
  1
尺度
 41
1.171875
  7
EXCADSTD
 72
     5
 11
103.844044119804
 21
14.306608253358
 31
0.0
100
AcDbText
  0
TEXT
  5
29CD
330
29BF
100
AcDbEntity
  8
図枠細線
  6
CONTINUOUS
 62
   252
100
AcDbText
 10
98.968727707497
 20
26.806608253358
 30
0.0
 40
2.0
  1
ＣＨＥＣＫＥＤ
 41
0.831249989569
  7
EXCADSTD
 72
     5
 11
112.268727540604
 21
26.806608253358
 31
0.0
100
AcDbText
  0
TEXT
  5
29CE
330
29BF
100
AcDbEntity
  8
図枠細線
  6
CONTINUOUS
 62
   252
100
AcDbText
 10
98.968727707497
 20
29.306608253358
 30
0.0
 40
2.0
  1
検図
 41
1.209677419355
  7
EXCADSTD
 72
     5
 11
103.968727707497
 21
29.306608253358
 31
0.0
100
AcDbText
  0
LINE
  5
29CF
330
29BF
100
AcDbEntity
  8
図枠細線
  6
CONTINUOUS
 62
   252
100
AcDbLine
 10
121.061011071051
 20
31.806606253358
 30
0.0
 11
121.061011071051
 21
16.806606253358
 31
0.0
  0
TEXT
  5
29D0
330
29BF
100
AcDbEntity
  8
図枠細線
  6
CONTINUOUS
 62
   252
100
AcDbText
 10
128.001465247253
 20
14.306608253358
 30
0.0
 40
2.0
  1
ＤＡＴＥ
 41
0.923076923077
  7
EXCADSTD
 72
     5
 11
136.001465247253
 21
14.306608253358
 31
0.0
100
AcDbText
  0
TEXT
  5
29D1
330
29BF
100
AcDbEntity
  8
図枠細線
  6
CONTINUOUS
 62
   252
100
AcDbText
 10
122.066415498841
 20
14.306608253358
 30
0.0
 40
2.0
  1
日付
 41
1.171875
  7
EXCADSTD
 72
     5
 11
127.066415498841
 21
14.306608253358
 31
0.0
100
AcDbText
  0
TEXT
  5
29D2
330
29BF
100
AcDbEntity
  8
図枠細線
  6
CONTINUOUS
 62
   252
100
AcDbText
 10
121.59429406571
 20
29.306608253358
 30
0.0
 40
2.0
  1
製図
 41
1.209677419355
  7
EXCADSTD
 72
     5
 11
126.59429406571
 21
29.306608253358
 31
0.0
100
AcDbText
  0
TEXT
  5
29D3
330
29BF
100
AcDbEntity
  8
図枠細線
  6
CONTINUOUS
 62
   252
100
AcDbText
 10
121.59429406571
 20
26.806608253358
 30
0.0
 40
2.0
  1
ＤＲＡＷＮ
 41
0.882352941176
  7
EXCADSTD
 72
     5
 11
131.59429406571
 21
26.806608253358
 31
0.0
100
AcDbText
  0
TEXT
  5
29D4
330
29BF
100
AcDbEntity
  8
図枠細線
  6
CONTINUOUS
 62
   252
100
AcDbText
 10
226.591229661348
 20
14.306608253358
 30
0.0
 40
2.0
  1
ＤＲＧ．ＮＯ．
 41
0.9375
  7
EXCADSTD
 72
     5
 11
240.591229661348
 21
14.306608253358
 31
0.0
100
AcDbText
  0
LINE
  5
29D5
330
29BF
100
AcDbEntity
  8
図枠太線
  6
CONTINUOUS
 62
   251
100
AcDbLine
 10
144.061003071051
 20
16.806606253358
 30
0.0
 11
214.061011071051
 21
16.806606253358
 31
0.0
  0
LINE
  5
29D6
330
29BF
100
AcDbEntity
  8
図枠細線
  6
CONTINUOUS
 62
   252
100
AcDbLine
 10
144.061011071051
 20
24.306606253358
 30
0.0
 11
214.061011071051
 21
24.306606253358
 31
0.0
  0
TEXT
  5
29D7
330
29BF
100
AcDbEntity
  8
図枠ロゴマーク
  6
CONTINUOUS
 62
   253
100
AcDbText
 10
146.433776781596
 20
8.399000253358
 30
0.0
 40
7.0
  1
東和制電工業株式会社
 41
0.80361088462
  7
EXCADSTD
 72
     5
 11
212.437017438349
 21
8.399000253358
 31
0.0
100
AcDbText
  0
TEXT
  5
29D8
330
29BF
100
AcDbEntity
  8
図枠細線
  6
CONTINUOUS
 62
   252
100
AcDbText
 10
215.156179912936
 20
14.306608253358
 30
0.0
 40
2.0
  1
図面番号
 41
1.102941176471
  7
EXCADSTD
 72
     5
 11
225.156179912936
 21
14.306608253358
 31
0.0
100
AcDbText
  0
TEXT
  5
29D9
330
29BF
100
AcDbEntity
  8
図枠細線
  6
CONTINUOUS
 62
   252
100
AcDbText
 10
221.591229661348
 20
29.306608253358
 30
0.0
 40
2.0
  1
ＴＩＴＬＥ
 41
0.903614457831
  7
EXCADSTD
 72
     5
 11
231.591229661348
 21
29.306608253358
 31
0.0
100
AcDbText
  0
TEXT
  5
29DA
330
29BF
100
AcDbEntity
  8
図枠細線
  6
CONTINUOUS
 62
   252
100
AcDbText
 10
215.156179912936
 20
29.306608253358
 30
0.0
 40
2.0
  1
名称
 41
1.171875
  7
EXCADSTD
 72
     5
 11
220.156179912936
 21
29.306608253358
 31
0.0
100
AcDbText
  0
LINE
  5
29DB
330
29BF
100
AcDbEntity
  8
図枠太線
  6
CONTINUOUS
 62
   251
100
AcDbLine
 10
4.061011071051
 20
1.806608253358
 30
0.0
 11
284.061011071051
 21
1.806608253358
 31
0.0
  0
LINE
  5
29DC
330
29BF
100
AcDbEntity
  8
図枠細線
  6
CONTINUOUS
 62
   252
100
AcDbLine
 10
4.061011071051
 20
6.806608253358
 30
0.0
 11
75.061011071051
 21
6.806608253358
 31
0.0
  0
LINE
  5
29DD
330
29BF
100
AcDbEntity
  8
図枠太線
  6
CONTINUOUS
 62
   251
100
AcDbLine
 10
75.061011071051
 20
1.806608253358
 30
0.0
 11
75.061011071051
 21
31.806606253358
 31
0.0
  0
TEXT
  5
29DE
330
29BF
100
AcDbEntity
  8
図枠細線
  6
CONTINUOUS
 62
   252
100
AcDbText
 10
76.330551827713
 20
6.638319253358
 30
0.0
 40
2.0
  1
ＰＲＯＪＥＣＴＩＯＮ
 41
0.754285710199
  7
EXCADSTD
 72
     5
 11
93.930551732346
 21
6.638319253358
 31
0.0
100
AcDbText
  0
LINE
  5
29DF
330
29BF
100
AcDbEntity
  8
図枠細線
  6
CONTINUOUS
 62
   252
100
AcDbLine
 10
98.061011071051
 20
1.806606931929
 30
0.0
 11
98.061011071051
 21
16.806604931929
 31
0.0
  0
LINE
  5
29E0
330
29BF
100
AcDbEntity
  8
図枠細線
  6
CONTINUOUS
 62
   252
100
AcDbLine
 10
121.061011071051
 20
1.806607574787
 30
0.0
 11
121.061011071051
 21
16.806605574787
 31
0.0
  0
LINE
  5
29E1
330
29BF
100
AcDbEntity
  8
図枠太線
  6
CONTINUOUS
 62
   251
100
AcDbLine
 10
284.061011071051
 20
1.806608253358
 30
0.0
 11
284.061011071051
 21
31.806606253358
 31
0.0
  0
LINE
  5
29E2
330
29BF
100
AcDbEntity
  8
図枠細線
  6
CONTINUOUS
 62
   252
100
AcDbLine
 10
214.061011071051
 20
16.806606253358
 30
0.0
 11
284.061011071051
 21
16.806606253358
 31
0.0
  0
TEXT
  5
29E3
330
29BF
100
AcDbEntity
  8
図枠細線
  6
CONTINUOUS
 62
   252
100
AcDbText
 10
146.199593676182
 20
3.454099253358
 30
0.0
 40
3.5
  1
ＴＯＷＡ　ＳＥＩＤＥＮ　ＩＮＤＵＳＴＲＩＡＬ　ＣＯ．，ＬＴＤ．
 41
0.528937826907
  7
EXCADSTD
 72
     5
 11
213.339435171588
 21
3.454099253358
 31
0.0
100
AcDbText
  0
LINE
  5
29E4
330
29BF
100
AcDbEntity
  8
図枠太線
  6
CONTINUOUS
 62
   251
100
AcDbLine
 10
144.061011071051
 20
1.806608253358
 30
0.0
 11
144.061011071051
 21
31.806606253358
 31
0.0
  0
LINE
  5
29E5
330
29BF
100
AcDbEntity
  8
図枠太線
  6
CONTINUOUS
 62
   251
100
AcDbLine
 10
214.061011071051
 20
1.806608253358
 30
0.0
 11
214.061011071051
 21
31.806606253358
 31
0.0
  0
MTEXT
  5
29E6
330
29BF
100
AcDbEntity
  8
図枠太線
100
AcDbMText
 10
5.064337346478
 20
31.010982137407
 30
0.0
 40
2.5
 41
8.67856098472
 71
     1
 72
     5
  1
{\Fmonotxt.shx,bigfont.shx|c128;図暦}
  0
LINE
  5
29E7
330
29BF
100
AcDbEntity
  8
図枠太線
  6
CONTINUOUS
 62
   251
100
AcDbLine
 10
4.061011071051
 20
1.806608253358
 30
0.0
 11
4.061011071051
 21
31.806606253358
 31
0.0
  0
TEXT
  5
29E8
330
29BF
100
AcDbEntity
  8
図枠細線
 48
10.0
100
AcDbText
 10
12.260817420402
 20
28.625419626495
 30
0.0
 40
2.0
  1
CHANGE NOTICE
100
AcDbText
  0
ENDBLK
  5
29E9
330
29BF
100
AcDbEntity
  8
0
100
AcDbBlockEnd
  0
BLOCK
  5
29F5
330
29F4
100
AcDbEntity
  8
0
100
AcDbBlockBegin
  2
A4縦用_タイトル
 70
     0
 10
0.0
 20
0.0
 30
0.0
  3
A4縦用_タイトル
  1

  0
LINE
  5
29F6
330
29F4
100
AcDbEntity
  8
図枠太線
  6
CONTINUOUS
 62
   251
100
AcDbLine
 10
2.368253864267
 20
4.525433224584
 30
0.0
 11
192.368245864267
 21
4.525433224584
 31
0.0
  0
LINE
  5
29F7
330
29F4
100
AcDbEntity
  8
図枠太線
  6
CONTINUOUS
 62
   251
100
AcDbLine
 10
78.368245864267
 20
19.525431224584
 30
0.0
 11
135.368253864267
 21
19.525431224584
 31
0.0
  0
LINE
  5
29F8
330
29F4
100
AcDbEntity
  8
図枠細線
  6
CONTINUOUS
 62
   252
100
AcDbLine
 10
78.368253864267
 20
27.025431224584
 30
0.0
 11
135.368253864267
 21
27.025431224584
 31
0.0
  0
TEXT
  5
29F9
330
29F4
100
AcDbEntity
  8
図枠ロゴマーク
  6
CONTINUOUS
 62
   253
100
AcDbText
 10
80.617009864267
 20
11.117825224584
 30
0.0
 40
7.0
  1
東和制電工業株式会社
 41
0.639204545455
  7
EXCADSTD
 72
     5
 11
133.117009864267
 21
11.117825224584
 31
0.0
100
AcDbText
  0
TEXT
  5
29FA
330
29F4
100
AcDbEntity
  8
図枠細線
  6
CONTINUOUS
 62
   252
100
AcDbText
 10
80.579549864267
 20
6.172924224584
 30
0.0
 40
3.5
  1
ＴＯＷＡ　ＳＥＩＤＥＮ　ＩＮＤＵＳＴＲＩＡＬ　ＣＯ．，ＬＴＤ．
 41
0.414568012377
  7
EXCADSTD
 72
     5
 11
133.202049568628
 21
6.172924224584
 31
0.0
100
AcDbText
  0
LINE
  5
29FB
330
29F4
100
AcDbEntity
  8
図枠太線
  6
CONTINUOUS
 62
   251
100
AcDbLine
 10
2.368253864267
 20
4.525433224584
 30
0.0
 11
2.368253864267
 21
34.525431224584
 31
0.0
  0
TEXT
  5
29FC
330
29F4
100
AcDbEntity
  8
図枠細線
  6
CONTINUOUS
 62
   252
100
AcDbText
 10
22.504308136501
 20
12.279133224584
 30
0.0
 40
2.0
  1
ＴＨＩＲＤ　ＡＮＧＬＥ
 41
0.691099486738
  7
EXCADSTD
 72
     5
 11
40.104308398762
 21
12.279133224584
 31
0.0
100
AcDbText
  0
TEXT
  5
29FD
330
29F4
100
AcDbEntity
  8
図枠細線
  6
CONTINUOUS
 62
   252
100
AcDbText
 10
22.429384136501
 20
9.357144224584
 30
0.0
 40
2.0
  1
ＰＲＯＪＥＣＴＩＯＮ
 41
0.754285710199
  7
EXCADSTD
 72
     5
 11
40.029384041134
 21
9.357144224584
 31
0.0
100
AcDbText
  0
LINE
  5
29FE
330
29F4
100
AcDbEntity
  8
図枠細線
  6
CONTINUOUS
100
AcDbLine
 10
22.368253864267
 20
19.525433224584
 30
0.0
 11
78.368253864267
 21
19.525431224584
 31
0.0
  0
TEXT
  5
29FF
330
29F4
100
AcDbEntity
  8
図枠細線
  6
CONTINUOUS
 62
   252
100
AcDbText
 10
22.868253864267
 20
17.025433224584
 30
0.0
 40
2.0
  1
第三角法
 41
1.102941176471
  7
EXCADSTD
 72
     5
 11
32.868253864267
 21
17.025433224584
 31
0.0
100
AcDbText
  0
TEXT
  5
2A00
330
29F4
100
AcDbEntity
  8
図枠細線
  6
CONTINUOUS
 62
   252
100
AcDbText
 10
22.868253864267
 20
29.525433224584
 30
0.0
 40
2.0
  1
ＡＰＰＲＯＶＥＤ
 41
0.695652184279
  7
EXCADSTD
 72
     5
 11
35.668254055002
 21
29.525433224584
 31
0.0
100
AcDbText
  0
LINE
  5
2A01
330
29F4
100
AcDbEntity
  8
図枠細線
  6
CONTINUOUS
 62
   252
100
AcDbLine
 10
2.368253864267
 20
9.525433224584
 30
0.0
 11
22.368253864267
 21
9.525433224584
 31
0.0
  0
LINE
  5
2A02
330
29F4
100
AcDbEntity
  8
図枠細線
  6
CONTINUOUS
 62
   252
100
AcDbLine
 10
2.368253864267
 20
14.525431224584
 30
0.0
 11
22.368253864267
 21
14.525431224584
 31
0.0
  0
LINE
  5
2A03
330
29F4
100
AcDbEntity
  8
図枠細線
  6
CONTINUOUS
 62
   252
100
AcDbLine
 10
2.368253864267
 20
24.525431224584
 30
0.0
 11
22.368253864267
 21
24.525431224584
 31
0.0
  0
LINE
  5
2A04
330
29F4
100
AcDbEntity
  8
図枠細線
  6
CONTINUOUS
 62
   252
100
AcDbLine
 10
2.368253864267
 20
29.525431224584
 30
0.0
 11
22.368253864267
 21
29.525431224584
 31
0.0
  0
LINE
  5
2A05
330
29F4
100
AcDbEntity
  8
図枠細線
  6
CONTINUOUS
100
AcDbLine
 10
2.368253864267
 20
19.525433224584
 30
0.0
 11
22.368253864267
 21
19.525433224584
 31
0.0
  0
TEXT
  5
2A06
330
29F4
100
AcDbEntity
  8
図枠細線
  6
CONTINUOUS
 62
   252
100
AcDbText
 10
2.868253864267
 20
32.025433224584
 30
0.0
 40
2.0
  1
ＮＯＴＥ
 41
0.923076923077
  7
EXCADSTD
 72
     5
 11
10.868253864267
 21
32.025433224584
 31
0.0
100
AcDbText
  0
LINE
  5
2A07
330
29F4
100
AcDbEntity
  8
図枠太線
  6
CONTINUOUS
 62
   251
100
AcDbLine
 10
22.368253864267
 20
4.525433224584
 30
0.0
 11
22.368253864267
 21
34.525431224584
 31
0.0
  0
TEXT
  5
2A08
330
29F4
100
AcDbEntity
  8
図枠細線
  6
CONTINUOUS
 62
   252
100
AcDbText
 10
22.868253864267
 20
32.025433224584
 30
0.0
 40
2.0
  1
承認
 41
1.171875
  7
EXCADSTD
 72
     5
 11
27.868253864267
 21
32.025433224584
 31
0.0
100
AcDbText
  0
TEXT
  5
2A09
330
29F4
100
AcDbEntity
  8
図枠細線
  6
CONTINUOUS
 62
   252
100
AcDbText
 10
60.711709035982
 20
32.025433224584
 30
0.0
 40
2.0
  1
製図
 41
1.209677419355
  7
EXCADSTD
 72
     5
 11
65.711709035982
 21
32.025433224584
 31
0.0
100
AcDbText
  0
TEXT
  5
2A0A
330
29F4
100
AcDbEntity
  8
図枠細線
  6
CONTINUOUS
 62
   252
100
AcDbText
 10
60.711709035982
 20
29.525433224584
 30
0.0
 40
2.0
  1
ＤＲＡＷＮ
 41
0.882352941176
  7
EXCADSTD
 72
     5
 11
70.711709035982
 21
29.525433224584
 31
0.0
100
AcDbText
  0
TEXT
  5
2A0B
330
29F4
100
AcDbEntity
  8
図枠細線
  6
CONTINUOUS
 62
   252
100
AcDbText
 10
60.834891743877
 20
17.025433224584
 30
0.0
 40
2.0
  1
日付
 41
1.171875
  7
EXCADSTD
 72
     5
 11
65.834891743877
 21
17.025433224584
 31
0.0
100
AcDbText
  0
TEXT
  5
2A0C
330
29F4
100
AcDbEntity
  8
図枠細線
  6
CONTINUOUS
 62
   252
100
AcDbText
 10
47.333660864267
 20
17.025433224584
 30
0.0
 40
2.0
  1
ＳＣＡＬＥ
 41
0.903614457831
  7
EXCADSTD
 72
     5
 11
57.333660864267
 21
17.025433224584
 31
0.0
100
AcDbText
  0
TEXT
  5
2A0D
330
29F4
100
AcDbEntity
  8
図枠細線
  6
CONTINUOUS
 62
   252
100
AcDbText
 10
42.281425990082
 20
29.525433224584
 30
0.0
 40
2.0
  1
ＣＨＥＣＫＥＤ
 41
0.831249989569
  7
EXCADSTD
 72
     5
 11
55.581425823189
 21
29.525433224584
 31
0.0
100
AcDbText
  0
LINE
  5
2A0E
330
29F4
100
AcDbEntity
  8
図枠細線
  6
CONTINUOUS
 62
   252
100
AcDbLine
 10
40.968253864267
 20
34.525431224584
 30
0.0
 11
40.968253864267
 21
19.525431224584
 31
0.0
  0
LINE
  5
2A0F
330
29F4
100
AcDbEntity
  8
図枠細線
  6
CONTINUOUS
 62
   252
100
AcDbLine
 10
40.968253864267
 20
4.525433224584
 30
0.0
 11
40.968253864267
 21
19.525431224584
 31
0.0
  0
TEXT
  5
2A10
330
29F4
100
AcDbEntity
  8
図枠細線
  6
CONTINUOUS
 62
   252
100
AcDbText
 10
41.961173864267
 20
17.025433224584
 30
0.0
 40
2.0
  1
尺度
 41
1.171875
  7
EXCADSTD
 72
     5
 11
46.961173864267
 21
17.025433224584
 31
0.0
100
AcDbText
  0
TEXT
  5
2A11
330
29F4
100
AcDbEntity
  8
図枠細線
  6
CONTINUOUS
 62
   252
100
AcDbText
 10
42.281425990082
 20
32.025433224584
 30
0.0
 40
2.0
  1
検図
 41
1.209677419355
  7
EXCADSTD
 72
     5
 11
47.281425990082
 21
32.025433224584
 31
0.0
100
AcDbText
  0
LINE
  5
2A12
330
29F4
100
AcDbEntity
  8
図枠細線
  6
CONTINUOUS
 62
   252
100
AcDbLine
 10
59.768253864267
 20
34.525431224584
 30
0.0
 11
59.768253864267
 21
19.525431224584
 31
0.0
  0
LINE
  5
2A13
330
29F4
100
AcDbEntity
  8
図枠細線
  6
CONTINUOUS
 62
   252
100
AcDbLine
 10
59.768253864267
 20
4.525433224584
 30
0.0
 11
59.768253864267
 21
19.525431224584
 31
0.0
  0
LINE
  5
2A14
330
29F4
100
AcDbEntity
  8
図枠太線
  6
CONTINUOUS
 62
   251
100
AcDbLine
 10
78.368253864267
 20
4.525433224584
 30
0.0
 11
78.368253864267
 21
34.525431224584
 31
0.0
  0
TEXT
  5
2A15
330
29F4
100
AcDbEntity
  8
図枠細線
  6
CONTINUOUS
 62
   252
100
AcDbText
 10
66.334891743877
 20
17.025433224584
 30
0.0
 40
2.0
  1
ＤＡＴＥ
 41
0.923076923077
  7
EXCADSTD
 72
     5
 11
74.334891743877
 21
17.025433224584
 31
0.0
100
AcDbText
  0
LINE
  5
2A16
330
29F4
100
AcDbEntity
  8
図枠細線
  6
CONTINUOUS
 62
   252
100
AcDbLine
 10
135.368253864267
 20
19.525431224584
 30
0.0
 11
192.368245864267
 21
19.525431224584
 31
0.0
  0
TEXT
  5
2A17
330
29F4
100
AcDbEntity
  8
図枠細線
  6
CONTINUOUS
 62
   252
100
AcDbText
 10
141.868253864267
 20
32.025433224584
 30
0.0
 40
2.0
  1
ＴＩＴＬＥ
 41
0.903614457831
  7
EXCADSTD
 72
     5
 11
151.868253864267
 21
32.025433224584
 31
0.0
100
AcDbText
  0
LINE
  5
2A18
330
29F4
100
AcDbEntity
  8
図枠太線
  6
CONTINUOUS
 62
   251
100
AcDbLine
 10
135.368253864267
 20
4.525433224584
 30
0.0
 11
135.368253864267
 21
34.525431224584
 31
0.0
  0
TEXT
  5
2A19
330
29F4
100
AcDbEntity
  8
図枠細線
  6
CONTINUOUS
 62
   252
100
AcDbText
 10
135.868253864267
 20
17.025433224584
 30
0.0
 40
2.0
  1
図面番号
 41
1.102941176471
  7
EXCADSTD
 72
     5
 11
145.868253864267
 21
17.025433224584
 31
0.0
100
AcDbText
  0
TEXT
  5
2A1A
330
29F4
100
AcDbEntity
  8
図枠細線
  6
CONTINUOUS
 62
   252
100
AcDbText
 10
135.868253864267
 20
32.025433224584
 30
0.0
 40
2.0
  1
名称
 41
1.171875
  7
EXCADSTD
 72
     5
 11
140.868253864267
 21
32.025433224584
 31
0.0
100
AcDbText
  0
TEXT
  5
2A1B
330
29F4
100
AcDbEntity
  8
図枠細線
  6
CONTINUOUS
 62
   252
100
AcDbText
 10
146.868253864267
 20
17.025433224584
 30
0.0
 40
2.0
  1
ＤＲＧ．ＮＯ．
 41
0.9375
  7
EXCADSTD
 72
     5
 11
160.868253864267
 21
17.025433224584
 31
0.0
100
AcDbText
  0
LINE
  5
2A1C
330
29F4
100
AcDbEntity
  8
図枠太線
  6
CONTINUOUS
 62
   251
100
AcDbLine
 10
192.368245864267
 20
4.525433224584
 30
0.0
 11
192.368245864267
 21
34.525431224584
 31
0.0
  0
ENDBLK
  5
2A1D
330
29F4
100
AcDbEntity
  8
0
100
AcDbBlockEnd
  0
BLOCK
  5
2A33
330
2A32
100
AcDbEntity
  8
0
100
AcDbBlockBegin
  2
A3横用_タイトル
 70
     0
 10
0.0
 20
0.0
 30
0.0
  3
A3横用_タイトル
  1

  0
LINE
  5
2A34
330
2A32
100
AcDbEntity
  8
図枠細線
  6
CONTINUOUS
 62
   252
100
AcDbLine
 10
205.098414535793
 20
33.525959753527
 30
0.0
 11
305.098414535793
 21
33.525959753527
 31
0.0
  0
LINE
  5
2A35
330
2A32
100
AcDbEntity
  8
図枠太線
  6
CONTINUOUS
 62
   251
100
AcDbLine
 10
205.098414535793
 20
23.525959753527
 30
0.0
 11
305.098414535793
 21
23.525959753527
 31
0.0
  0
LINE
  5
2A36
330
2A32
100
AcDbEntity
  8
図枠細線
  6
CONTINUOUS
100
AcDbLine
 10
5.098414535793
 20
23.525959753527
 30
0.0
 11
105.098414535793
 21
23.525959753527
 31
0.0
  0
LINE
  5
2A37
330
2A32
100
AcDbEntity
  8
図枠細線
  6
CONTINUOUS
 62
   252
100
AcDbLine
 10
5.098414535793
 20
36.725957753527
 30
0.0
 11
105.098414535793
 21
36.725957753527
 31
0.0
  0
LINE
  5
2A38
330
2A32
100
AcDbEntity
  8
図枠細線
  6
CONTINUOUS
 62
   252
100
AcDbLine
 10
5.098414535793
 20
30.125957753527
 30
0.0
 11
105.098414535793
 21
30.125957753527
 31
0.0
  0
LINE
  5
2A39
330
2A32
100
AcDbEntity
  8
図枠細線
  6
CONTINUOUS
 62
   252
100
AcDbLine
 10
5.098414535793
 20
16.725959753527
 30
0.0
 11
105.098414535793
 21
16.725959753527
 31
0.0
  0
LINE
  5
2A3A
330
2A32
100
AcDbEntity
  8
図枠細線
  6
CONTINUOUS
 62
   252
100
AcDbLine
 10
5.098414535793
 20
10.125959753527
 30
0.0
 11
105.098414535793
 21
10.125959753527
 31
0.0
  0
LINE
  5
2A3B
330
2A32
100
AcDbEntity
  8
図枠細線
  6
CONTINUOUS
100
AcDbLine
 10
105.098414535793
 20
23.525961753527
 30
0.0
 11
205.098414535793
 21
23.525959753527
 31
0.0
  0
LINE
  5
2A3C
330
2A32
100
AcDbEntity
  8
図枠細線
  6
CONTINUOUS
 62
   252
100
AcDbLine
 10
138.398414535793
 20
43.525959753527
 30
0.0
 11
138.398414535793
 21
18.525957753527
 31
0.0
  0
LINE
  5
2A3D
330
2A32
100
AcDbEntity
  8
図枠細線
  6
CONTINUOUS
 62
   252
100
AcDbLine
 10
171.698414535793
 20
43.525959753527
 30
0.0
 11
171.698414535793
 21
18.525957753527
 31
0.0
  0
LINE
  5
2A3E
330
2A32
100
AcDbEntity
  8
図枠細線
  6
CONTINUOUS
 62
   252
100
AcDbLine
 10
305.098414535793
 20
23.525959753527
 30
0.0
 11
405.098414535793
 21
23.525959753527
 31
0.0
  0
TEXT
  5
2A3F
330
2A32
100
AcDbEntity
  8
図枠ロゴマーク
  6
CONTINUOUS
 62
   253
100
AcDbText
 10
206.102509212755
 20
13.294257570546
 30
0.0
 40
7.0
  1
東和制電工業株式会社
 50
0.016555220185
 41
1.186384129432
  7
EXCADSTD
 72
     5
 11
303.544188309143
 21
13.322412672217
 31
0.0
100
AcDbText
  0
MTEXT
  5
2A40
330
2A32
100
AcDbEntity
  8
図枠細線
100
AcDbMText
 10
6.356764112375
 20
41.976594175478
 30
0.0
 40
2.5
 41
49.938282706292
 71
     1
 72
     5
  1
{\Fmonotxt.shx,bigfont.shx|c128;図暦　CHANGE　NOTICE}
  0
MTEXT
  5
2A41
330
2A32
100
AcDbEntity
  8
図枠細線
 48
10.0
100
AcDbMText
 10
306.544114926828
 20
41.701835800934
 30
0.0
 40
2.5
 41
28.002809618823
 71
     1
 72
     5
  1
{\Fmonotxt.shx,bigfont.shx|c128;名称　TITLE}
  0
MTEXT
  5
2A42
330
2A32
100
AcDbEntity
  8
図枠細線
 48
10.0
100
AcDbMText
 10
307.329617114284
 20
21.606206797226
 30
0.0
 40
2.5
 41
24.385612216707
 71
     1
 72
     5
  1
{\Fmonotxt.shx,bigfont.shx|c128;図面番号\PDRG.　No.}
  0
MTEXT
  5
2A43
330
2A32
100
AcDbEntity
  8
図枠細線
 48
10.0
100
AcDbMText
 10
173.726349404609
 20
21.73680662198
 30
0.0
 40
2.5
 41
25.735090160813
 71
     1
 72
     5
  1
{\Fmonotxt.shx,bigfont.shx|c128;日付 DATE}
  0
MTEXT
  5
2A44
330
2A32
100
AcDbEntity
  8
図枠細線
 48
10.0
100
AcDbMText
 10
173.48708833982
 20
41.621592044998
 30
0.0
 40
2.5
 41
24.983741184205
 71
     1
 72
     5
  1
{\Fmonotxt.shx,bigfont.shx|c128;製図　DRAWN}
  0
MTEXT
  5
2A45
330
2A32
100
AcDbEntity
  8
図枠細線
 48
10.0
100
AcDbMText
 10
139.28009927741
 20
21.866713069868
 30
0.0
 40
2.5
 41
22.629632913243
 71
     1
 72
     5
  1
{\Fmonotxt.shx,bigfont.shx|c128;尺度　SCALE}
  0
MTEXT
  5
2A46
330
2A32
100
AcDbEntity
  8
図枠細線
 48
10.0
100
AcDbMText
 10
139.910091179835
 20
41.311840415554
 30
0.0
 40
2.5
 41
28.998753428368
 71
     1
 72
     5
  1
{\Fmonotxt.shx,bigfont.shx|c128;検図  CHECKED}
  0
MTEXT
  5
2A47
330
2A32
100
AcDbEntity
  8
図枠細線
 48
10.0
100
AcDbMText
 10
114.253294667728
 20
21.916124850174
 30
0.0
 40
3.0
 41
19.692400475383
 71
     1
 72
     5
  1
{\Fmonotxt.shx,bigfont.shx|c128;第三角法}
  0
MTEXT
  5
2A48
330
2A32
100
AcDbEntity
  8
図枠細線
 48
10.0
100
AcDbMText
 10
108.986959929915
 20
15.282880185837
 30
0.0
 40
2.5
 41
27.954882823547
 71
     1
 72
     5
  1
{\Fmonotxt.shx,bigfont.shx|c128;THIRD ANGLE\PPROJECTION}
  0
MTEXT
  5
2A49
330
2A32
100
AcDbEntity
  8
図枠細線
 48
10.0
100
AcDbMText
 10
106.319432640184
 20
41.511437145487
 30
0.0
 40
2.5
 41
28.233595265074
 71
     1
 72
     5
  1
{\Fmonotxt.shx,bigfont.shx|c128;承認 APPROVED}
  0
LINE
  5
2A4A
330
2A32
100
AcDbEntity
  8
図枠太線
  6
CONTINUOUS
 62
   251
100
AcDbLine
 10
5.098414535793
 20
3.525959753527
 30
0.0
 11
405.098414535793
 21
3.525959753527
 31
0.0
  0
LINE
  5
2A4B
330
2A32
100
AcDbEntity
  8
図枠太線
 48
10.0
100
AcDbLine
 10
5.098414535793
 20
3.525959753527
 30
0.0
 11
5.098414535793
 21
43.525959753527
 31
0.0
  0
LINE
  5
2A4C
330
2A32
100
AcDbEntity
  8
図枠太線
  6
CONTINUOUS
 62
   251
100
AcDbLine
 10
105.098414535793
 20
3.525959753527
 30
0.0
 11
105.098414535793
 21
43.525959753527
 31
0.0
  0
LINE
  5
2A4D
330
2A32
100
AcDbEntity
  8
図枠細線
  6
CONTINUOUS
 62
   252
100
AcDbLine
 10
138.398414535793
 20
3.525959753527
 30
0.0
 11
138.398414535793
 21
18.525957753527
 31
0.0
  0
LINE
  5
2A4E
330
2A32
100
AcDbEntity
  8
図枠細線
  6
CONTINUOUS
 62
   252
100
AcDbLine
 10
171.698414535793
 20
3.525959753527
 30
0.0
 11
171.698414535793
 21
18.525957753527
 31
0.0
  0
LINE
  5
2A4F
330
2A32
100
AcDbEntity
  8
図枠太線
  6
CONTINUOUS
 62
   251
100
AcDbLine
 10
205.098414535793
 20
3.525959753527
 30
0.0
 11
205.098414535793
 21
43.525959753527
 31
0.0
  0
LINE
  5
2A50
330
2A32
100
AcDbEntity
  8
図枠太線
 48
10.0
100
AcDbLine
 10
405.098414535793
 20
43.525959753527
 30
0.0
 11
405.098414535793
 21
3.525959753527
 31
0.0
  0
TEXT
  5
2A51
330
2A32
100
AcDbEntity
  8
図枠細線
  6
CONTINUOUS
 62
   252
100
AcDbText
 10
208.519754474572
 20
6.482358407285
 30
0.0
 40
3.5
  1
ＴＯＷＡ　ＳＥＩＤＥＮ　ＩＮＤＵＳＴＲＩＡＬ　ＣＯ．，ＬＴＤ．
 41
0.746656297509
  7
EXCADSTD
 72
     5
 11
303.295327171727
 21
6.482358407285
 31
0.0
100
AcDbText
  0
LINE
  5
2A52
330
2A32
100
AcDbEntity
  8
図枠太線
  6
CONTINUOUS
 62
   251
100
AcDbLine
 10
305.098414535793
 20
3.525959753527
 30
0.0
 11
305.098414535793
 21
43.525959753527
 31
0.0
  0
ENDBLK
  5
2A53
330
2A32
100
AcDbEntity
  8
0
100
AcDbBlockEnd
  0
BLOCK
  5
2A6D
330
2A6C
100
AcDbEntity
  8
0
100
AcDbBlockBegin
  2
A3縦用_タイトル
 70
     0
 10
0.0
 20
0.0
 30
0.0
  3
A3縦用_タイトル
  1

  0
MTEXT
  5
2A6E
330
2A6C
100
AcDbEntity
  8
図枠細線
100
AcDbMText
 10
5.040804501593
 20
31.626098649005
 30
0.0
 40
2.5
 41
49.938282706292
 71
     1
 72
     5
  1
{\Fmonotxt.shx,bigfont.shx|c128;図暦　CHANGE　NOTICE}
  0
LINE
  5
2A6F
330
2A6C
100
AcDbEntity
  8
図枠太線
  6
CONTINUOUS
 62
   251
100
AcDbLine
 10
283.577871882961
 20
2.820844689254
 30
0.0
 11
283.577871882961
 21
32.820842689254
 31
0.0
  0
MTEXT
  5
2A70
330
2A6C
100
AcDbEntity
  8
図枠細線
 48
10.0
100
AcDbMText
 10
214.912458947454
 20
31.621488632308
 30
0.0
 40
2.5
 41
28.002809618823
 71
     1
 72
     5
  1
{\Fmonotxt.shx,bigfont.shx|c128;名称　TITLE}
  0
MTEXT
  5
2A71
330
2A6C
100
AcDbEntity
  8
図枠細線
 48
10.0
100
AcDbMText
 10
214.740030458938
 20
16.310225796722
 30
0.0
 40
2.5
 41
24.385612216707
 71
     1
 72
     5
  1
{\Fmonotxt.shx,bigfont.shx|c128;図面番号\PDRG.　No.}
  0
LINE
  5
2A72
330
2A6C
100
AcDbEntity
  8
図枠太線
  6
CONTINUOUS
 62
   251
100
AcDbLine
 10
213.577871882961
 20
2.820844689254
 30
0.0
 11
213.577871882961
 21
32.820842689254
 31
0.0
  0
LINE
  5
2A73
330
2A6C
100
AcDbEntity
  8
図枠太線
  6
CONTINUOUS
 62
   251
100
AcDbLine
 10
143.577871882961
 20
2.820844689254
 30
0.0
 11
143.577871882961
 21
32.820842689254
 31
0.0
  0
TEXT
  5
2A74
330
2A6C
100
AcDbEntity
  8
図枠細線
  6
CONTINUOUS
 62
   252
100
AcDbText
 10
145.716454488093
 20
4.468335689254
 30
0.0
 40
3.5
  1
ＴＯＷＡ　ＳＥＩＤＥＮ　ＩＮＤＵＳＴＲＩＡＬ　ＣＯ．，ＬＴＤ．
 41
0.528937826907
  7
EXCADSTD
 72
     5
 11
212.856295983498
 21
4.468335689254
 31
0.0
100
AcDbText
  0
TEXT
  5
2A75
330
2A6C
100
AcDbEntity
  8
図枠ロゴマーク
  6
CONTINUOUS
 62
   253
100
AcDbText
 10
145.950637593507
 20
9.413236689254
 30
0.0
 40
7.0
  1
東和制電工業株式会社
 41
0.80361088462
  7
EXCADSTD
 72
     5
 11
211.953878250259
 21
9.413236689254
 31
0.0
100
AcDbText
  0
LINE
  5
2A76
330
2A6C
100
AcDbEntity
  8
図枠細線
  6
CONTINUOUS
 62
   252
100
AcDbLine
 10
143.577871882961
 20
25.320842689254
 30
0.0
 11
213.577871882961
 21
25.320842689254
 31
0.0
  0
LINE
  5
2A77
330
2A6C
100
AcDbEntity
  8
図枠太線
  6
CONTINUOUS
 62
   251
100
AcDbLine
 10
143.577863882961
 20
17.820842689254
 30
0.0
 11
213.577871882961
 21
17.820842689254
 31
0.0
  0
LINE
  5
2A78
330
2A6C
100
AcDbEntity
  8
図枠細線
  6
CONTINUOUS
 62
   252
100
AcDbLine
 10
213.577871882961
 20
17.820842689254
 30
0.0
 11
283.577871882961
 21
17.820842689254
 31
0.0
  0
LINE
  5
2A79
330
2A6C
100
AcDbEntity
  8
図枠細線
  6
CONTINUOUS
 62
   252
100
AcDbLine
 10
120.577871882961
 20
32.820842689254
 30
0.0
 11
120.577871882961
 21
17.820842689254
 31
0.0
  0
MTEXT
  5
2A7A
330
2A6C
100
AcDbEntity
  8
図枠細線
 48
10.0
100
AcDbMText
 10
121.100885670352
 20
16.33785922638
 30
0.0
 40
2.0
 41
17.705978285068
 71
     1
 72
     5
  1
{\Fmonotxt.shx,bigfont.shx|c128;日付 DATE}
  0
MTEXT
  5
2A7B
330
2A6C
100
AcDbEntity
  8
図枠細線
 48
10.0
100
AcDbMText
 10
121.254842273491
 20
31.208993514037
 30
0.0
 40
2.0
 41
18.363799568758
 71
     1
 72
     5
  1
{\Fmonotxt.shx,bigfont.shx|c128;製図　DRAWN}
  0
LINE
  5
2A7C
330
2A6C
100
AcDbEntity
  8
図枠細線
  6
CONTINUOUS
 62
   252
100
AcDbLine
 10
97.577871882961
 20
32.820842689254
 30
0.0
 11
97.577871882961
 21
17.820842689254
 31
0.0
  0
MTEXT
  5
2A7D
330
2A6C
100
AcDbEntity
  8
図枠細線
 48
10.0
100
AcDbMText
 10
98.239734796872
 20
16.467764839281
 30
0.0
 40
2.0
 41
17.757791689903
 71
     1
 72
     5
  1
{\Fmonotxt.shx,bigfont.shx|c128;尺度　SCALE}
  0
MTEXT
  5
2A7E
330
2A6C
100
AcDbEntity
  8
図枠細線
 48
10.0
100
AcDbMText
 10
97.864744625154
 20
31.298433377664
 30
0.0
 40
2.0
 41
23.162655920976
 71
     1
 72
     5
  1
{\Fmonotxt.shx,bigfont.shx|c128;検図  CHECKED}
  0
LINE
  5
2A7F
330
2A6C
100
AcDbEntity
  8
図枠細線
  6
CONTINUOUS
 62
   252
100
AcDbLine
 10
97.577871882961
 20
2.820843367826
 30
0.0
 11
97.577871882961
 21
17.820841367826
 31
0.0
  0
LINE
  5
2A80
330
2A6C
100
AcDbEntity
  8
図枠細線
  6
CONTINUOUS
 62
   252
100
AcDbLine
 10
120.577871882961
 20
2.820844010683
 30
0.0
 11
120.577871882961
 21
17.820842010683
 31
0.0
  0
MTEXT
  5
2A81
330
2A6C
100
AcDbEntity
  8
図枠細線
 48
10.0
100
AcDbMText
 10
81.402399084102
 20
16.316484117426
 30
0.0
 40
2.0
 41
12.920322819369
 71
     1
 72
     5
  1
{\Fmonotxt.shx,bigfont.shx|c128;第三角法}
  0
MTEXT
  5
2A82
330
2A6C
100
AcDbEntity
  8
図枠細線
 48
10.0
100
AcDbMText
 10
75.736576535096
 20
11.080410931319
 30
0.0
 40
2.0
 41
21.072870671471
 71
     1
 72
     5
  1
{\Fmonotxt.shx,bigfont.shx|c128;THIRD ANGLE\PPROJECTION}
  0
LINE
  5
2A83
330
2A6C
100
AcDbEntity
  8
図枠太線
  6
CONTINUOUS
 62
   251
100
AcDbLine
 10
74.577871882961
 20
2.820844689254
 30
0.0
 11
74.577871882961
 21
32.820842689254
 31
0.0
  0
MTEXT
  5
2A84
330
2A6C
100
AcDbEntity
  8
図枠細線
 48
10.0
100
AcDbMText
 10
75.060214781573
 20
31.298434778555
 30
0.0
 40
2.0
 41
22.240928805967
 71
     1
 72
     5
  1
{\Fmonotxt.shx,bigfont.shx|c128;承認 APPROVED}
  0
LINE
  5
2A85
330
2A6C
100
AcDbEntity
  8
図枠細線
  6
CONTINUOUS
100
AcDbLine
 10
3.577871882961
 20
17.820844689254
 30
0.0
 11
74.577871882961
 21
17.820844689254
 31
0.0
  0
LINE
  5
2A86
330
2A6C
100
AcDbEntity
  8
図枠細線
  6
CONTINUOUS
 62
   252
100
AcDbLine
 10
3.577871882961
 20
27.820842689254
 30
0.0
 11
74.577871882961
 21
27.820842689254
 31
0.0
  0
LINE
  5
2A87
330
2A6C
100
AcDbEntity
  8
図枠細線
  6
CONTINUOUS
 62
   252
100
AcDbLine
 10
3.577871882961
 20
22.820842689254
 30
0.0
 11
74.577871882961
 21
22.820842689254
 31
0.0
  0
LINE
  5
2A88
330
2A6C
100
AcDbEntity
  8
図枠細線
  6
CONTINUOUS
 62
   252
100
AcDbLine
 10
3.577871882961
 20
12.820842689254
 30
0.0
 11
74.577871882961
 21
12.820842689254
 31
0.0
  0
LINE
  5
2A89
330
2A6C
100
AcDbEntity
  8
図枠細線
  6
CONTINUOUS
 62
   252
100
AcDbLine
 10
3.577871882961
 20
7.820844689254
 30
0.0
 11
74.577871882961
 21
7.820844689254
 31
0.0
  0
LINE
  5
2A8A
330
2A6C
100
AcDbEntity
  8
図枠細線
  6
CONTINUOUS
100
AcDbLine
 10
74.577871882961
 20
17.820843689254
 30
0.0
 11
143.577871882961
 21
17.820841224969
 31
0.0
  0
LINE
  5
2A8B
330
2A6C
100
AcDbEntity
  8
図枠太線
  6
CONTINUOUS
 62
   251
100
AcDbLine
 10
3.577871882961
 20
2.820844689254
 30
0.0
 11
283.577871882961
 21
2.820844689254
 31
0.0
  0
LINE
  5
2A8C
330
2A6C
100
AcDbEntity
  8
図枠太線
  6
CONTINUOUS
 62
   251
100
AcDbLine
 10
3.577871882961
 20
2.820844689254
 30
0.0
 11
3.577871882961
 21
32.820842689254
 31
0.0
  0
ENDBLK
  5
2A8D
330
2A6C
100
AcDbEntity
  8
0
100
AcDbBlockEnd
  0
BLOCK
  5
2AF8
330
2AF4
100
AcDbEntity
  8
0
 48
10.0
100
AcDbBlockBegin
  2
_OPEN30
 70
     0
 10
0.0
 20
0.0
 30
0.0
  3
_OPEN30
  1

  0
LINE
  5
2AF5
330
2AF4
100
AcDbEntity
  8
0
  6
BYBLOCK
 62
     0
100
AcDbLine
 10
-1.0
 20
0.26794919
 30
0.0
 11
0.0
 21
0.0
 31
0.0
  0
LINE
  5
2AF6
330
2AF4
100
AcDbEntity
  8
0
  6
BYBLOCK
 62
     0
100
AcDbLine
 10
0.0
 20
0.0
 30
0.0
 11
-1.0
 21
-0.26794919
 31
0.0
  0
LINE
  5
2AF7
330
2AF4
100
AcDbEntity
  8
0
  6
BYBLOCK
 62
     0
100
AcDbLine
 10
0.0
 20
0.0
 30
0.0
 11
-1.0
 21
0.0
 31
0.0
  0
ENDBLK
  5
2AF9
330
2AF4
100
AcDbEntity
  8
0
 48
10.0
100
AcDbBlockEnd
  0
BLOCK
  5
40FE
330
40F4
100
AcDbEntity
  8
0
 48
10.0
100
AcDbBlockBegin
  2
*D6
 70
     1
 10
0.0
 20
0.0
 30
0.0
  3
*D6
  1

  0
LINE
  5
54BC
330
40F4
100
AcDbEntity
  8
寸法線
 62
     0
 48
10.0
100
AcDbLine
 10
302.638407366861
 20
337.375
 30
0.0
 11
302.638407366861
 21
317.288623667948
 31
0.0
  0
LINE
  5
54BD
330
40F4
100
AcDbEntity
  8
寸法線
 62
     0
 48
10.0
100
AcDbLine
 10
327.638468256273
 20
395.324677306075
 30
0.0
 11
327.638468256273
 21
317.288623667948
 31
0.0
  0
LINE
  5
54BE
330
40F4
100
AcDbEntity
  8
寸法線
 62
     0
 48
10.0
100
AcDbLine
 10
308.638407366861
 20
318.538623667948
 30
0.0
 11
321.638468256273
 21
318.538623667948
 31
0.0
  0
INSERT
  5
54BF
330
40F4
100
AcDbEntity
  8
寸法線
 62
     0
 48
10.0
100
AcDbBlockReference
  2
_OPEN30
 10
302.638407366861
 20
318.538623667948
 30
0.0
 41
6.0
 42
6.0
 43
6.0
 50
180.0
  0
INSERT
  5
54C0
330
40F4
100
AcDbEntity
  8
寸法線
 62
     0
 48
10.0
100
AcDbBlockReference
  2
_OPEN30
 10
327.638468256273
 20
318.538623667948
 30
0.0
 41
6.0
 42
6.0
 43
6.0
  0
MTEXT
  5
54C1
330
40F4
100
AcDbEntity
  8
寸法線
 62
     0
 48
10.0
100
AcDbMText
 10
315.138437811567
 20
323.164411069523
 30
0.0
 40
8.0
 41
0.0
 71
     5
 72
     1
  1
\A1;25
  0
POINT
  5
54C2
330
40F4
100
AcDbEntity
  8
DEFPOINTS
 62
     0
 48
10.0
100
AcDbPoint
 10
302.638407366861
 20
338.0
 30
0.0
  0
POINT
  5
54C3
330
40F4
100
AcDbEntity
  8
DEFPOINTS
 62
     0
 48
10.0
100
AcDbPoint
 10
327.638468256273
 20
395.949677306075
 30
0.0
  0
POINT
  5
54C4
330
40F4
100
AcDbEntity
  8
DEFPOINTS
 62
     0
 48
10.0
100
AcDbPoint
 10
327.638468256273
 20
318.538623667948
 30
0.0
  0
ENDBLK
  5
40FF
330
40F4
100
AcDbEntity
  8
0
 48
10.0
100
AcDbBlockEnd
  0
BLOCK
  5
4214
330
4212
100
AcDbEntity
  8
0
 48
10.0
100
AcDbBlockBegin
  2
_DOTSMALL
 70
     0
 10
0.0
 20
0.0
 30
0.0
  3
_DOTSMALL
  1

  0
LWPOLYLINE
  5
4213
330
4212
100
AcDbEntity
  8
0
  6
BYBLOCK
 62
     0
100
AcDbPolyline
 90
        2
 70
     1
 43
0.5
 10
-0.0625
 20
0.0
 42
1.0
 10
0.0625
 20
0.0
 42
1.0
  0
ENDBLK
  5
4215
330
4212
100
AcDbEntity
  8
0
 48
10.0
100
AcDbBlockEnd
  0
BLOCK
  5
4219
330
4216
100
AcDbEntity
  8
0
 48
10.0
100
AcDbBlockBegin
  2
_DOT
 70
     0
 10
0.0
 20
0.0
 30
0.0
  3
_DOT
  1

  0
LWPOLYLINE
  5
4217
330
4216
100
AcDbEntity
  8
0
  6
BYBLOCK
 62
     0
100
AcDbPolyline
 90
        2
 70
     1
 43
0.5
 10
-0.25
 20
0.0
 42
1.0
 10
0.25
 20
0.0
 42
1.0
  0
LINE
  5
4218
330
4216
100
AcDbEntity
  8
0
  6
BYBLOCK
 62
     0
100
AcDbLine
 10
-0.5
 20
0.0
 30
0.0
 11
-1.0
 21
0.0
 31
0.0
  0
ENDBLK
  5
421A
330
4216
100
AcDbEntity
  8
0
 48
10.0
100
AcDbBlockEnd
  0
BLOCK
  5
4426
330
441C
100
AcDbEntity
  8
0
 48
10.0
100
AcDbBlockBegin
  2
*D9
 70
     1
 10
0.0
 20
0.0
 30
0.0
  3
*D9
  1

  0
LINE
  5
491D
330
441C
100
AcDbEntity
  8
寸法線
 62
     0
 48
10.0
100
AcDbLine
 10
453.890057215756
 20
357.0
 30
0.0
 11
495.564661562565
 21
357.0
 31
0.0
  0
LINE
  5
491E
330
441C
100
AcDbEntity
  8
寸法線
 62
     0
 48
10.0
100
AcDbLine
 10
454.07254308409
 20
473.0
 30
0.0
 11
495.564661562565
 21
473.0
 31
0.0
  0
LINE
  5
491F
330
441C
100
AcDbEntity
  8
寸法線
 62
     0
 48
10.0
100
AcDbLine
 10
494.314661562565
 20
363.0
 30
0.0
 11
494.314661562565
 21
467.0
 31
0.0
  0
INSERT
  5
4920
330
441C
100
AcDbEntity
  8
寸法線
 62
     0
100
AcDbBlockReference
  2
_OPEN30
 10
494.314661562565
 20
357.0
 30
0.0
 41
6.0
 42
6.0
 43
6.0
 50
270.0
  0
INSERT
  5
4921
330
441C
100
AcDbEntity
  8
寸法線
 62
     0
100
AcDbBlockReference
  2
_OPEN30
 10
494.314661562565
 20
473.0
 30
0.0
 41
6.0
 42
6.0
 43
6.0
 50
90.0
  0
MTEXT
  5
4922
330
441C
100
AcDbEntity
  8
寸法線
 62
     0
 48
10.0
100
AcDbMText
 10
489.689661562565
 20
415.0
 30
0.0
 40
8.0
 41
0.0
 71
     5
 72
     1
  1
\A1;φ116
 11
0.0
 21
1.0
 31
0.0
  0
POINT
  5
4923
330
441C
100
AcDbEntity
  8
DEFPOINTS
 62
     0
100
AcDbPoint
 10
453.265057215756
 20
357.0
 30
0.0
  0
POINT
  5
4924
330
441C
100
AcDbEntity
  8
DEFPOINTS
 62
     0
100
AcDbPoint
 10
453.44754308409
 20
473.0
 30
0.0
  0
POINT
  5
4925
330
441C
100
AcDbEntity
  8
DEFPOINTS
 62
     0
100
AcDbPoint
 10
494.314661562565
 20
473.0
 30
0.0
  0
ENDBLK
  5
4427
330
441C
100
AcDbEntity
  8
0
 48
10.0
100
AcDbBlockEnd
  0
BLOCK
  5
4502
330
4501
100
AcDbEntity
  8
0
 48
10.0
100
AcDbBlockBegin
  2
静電容量センサ
 70
     0
 10
0.0
 20
0.0
 30
0.0
  3
静電容量センサ
  1

  0
ARC
  5
4503
330
4501
100
AcDbEntity
  8
外形線
 48
10.0
100
AcDbCircle
 10
1021.898525663106
 20
1073.412780408912
 30
0.0
 40
1.0
100
AcDbArc
 50
180.0
 51
268.999999999998
  0
ARC
  5
4504
330
4501
100
AcDbEntity
  8
外形線
 48
10.0
100
AcDbCircle
 10
1021.898525663106
 20
1115.960781516243
 30
0.0
 40
1.0
100
AcDbArc
 50
91.000000000002
 51
180.0
  0
LINE
  5
4505
330
4501
100
AcDbEntity
  8
外形線
 48
10.0
100
AcDbLine
 10
1020.898525663106
 20
1115.960781516243
 30
0.0
 11
1020.898525663106
 21
1073.412780408912
 31
0.0
  0
LINE
  5
4506
330
4501
100
AcDbEntity
  8
外形線
 48
10.0
100
AcDbLine
 10
1035.026308504175
 20
1117.944859066978
 30
0.0
 11
1041.278741748243
 21
1143.02199911049
 31
0.0
  0
ARC
  5
4507
330
4501
100
AcDbEntity
  8
外形線
 48
10.0
100
AcDbCircle
 10
1046.130220379623
 20
1141.812389632491
 30
0.0
 40
5.0
100
AcDbArc
 50
91.3
 51
166.000000000004
  0
ARC
  5
4508
330
4501
100
AcDbEntity
  8
外形線
 48
10.0
100
AcDbCircle
 10
1034.056012777899
 20
1118.186780962578
 30
0.0
 40
1.0
100
AcDbArc
 50
270.0
 51
346.000000000004
  0
ARC
  5
4509
330
4501
100
AcDbEntity
  8
外形線
 48
10.0
100
AcDbCircle
 10
1034.056012777899
 20
1118.186780962578
 30
0.0
 40
1.0
100
AcDbArc
 50
270.0
 51
346.000000000004
  0
LINE
  5
450A
330
4501
100
AcDbEntity
  8
外形線
 48
10.0
100
AcDbLine
 10
1021.881073256669
 20
1116.960629211399
 30
0.0
 11
1034.056012777899
 21
1117.186780962578
 31
0.0
  0
ARC
  5
450B
330
4501
100
AcDbEntity
  8
外形線
 48
10.0
100
AcDbCircle
 10
1122.899564892808
 20
1151.93622955513
 30
0.0
 40
0.5
100
AcDbArc
 50
359.999254274584
 51
88.999999999998
  0
ARC
  5
450C
330
4501
100
AcDbEntity
  8
細線
 48
10.0
100
AcDbCircle
 10
1123.898525663106
 20
1107.819822714047
 30
0.0
 40
0.5
100
AcDbArc
 50
180.0
 51
264.089361084595
  0
ARC
  5
450D
330
4501
100
AcDbEntity
  8
外形線
 48
10.0
100
AcDbCircle
 10
1123.898525663106
 20
1100.44543233102
 30
0.0
 40
0.5
100
AcDbArc
 50
91.000000000002
 51
180.0
  0
ARC
  5
450E
330
4501
100
AcDbEntity
  8
細線
 48
10.0
100
AcDbCircle
 10
1123.898525663106
 20
1108.078641759149
 30
0.0
 40
0.5
100
AcDbArc
 50
180.0
 51
264.089361084595
  0
ARC
  5
450F
330
4501
100
AcDbEntity
  8
細線
 48
10.0
100
AcDbCircle
 10
1123.898525663106
 20
1129.71320712675
 30
0.0
 40
0.5
100
AcDbArc
 50
180.0
 51
254.206830951738
  0
ARC
  5
4510
330
4501
100
AcDbEntity
  8
細線
 48
10.0
100
AcDbCircle
 10
1123.898525663106
 20
1130.420313907937
 30
0.0
 40
0.5
100
AcDbArc
 50
180.0
 51
254.206830951738
  0
ARC
  5
4511
330
4501
100
AcDbEntity
  8
細線
 48
10.0
100
AcDbCircle
 10
1123.898525663106
 20
1142.359984147006
 30
0.0
 40
0.5
100
AcDbArc
 50
180.0
 51
248.874947125989
  0
ARC
  5
4512
330
4501
100
AcDbEntity
  8
細線
 48
10.0
100
AcDbCircle
 10
1123.898525663106
 20
1143.325909973296
 30
0.0
 40
0.5
100
AcDbArc
 50
180.0
 51
248.874947125989
  0
ARC
  5
4513
330
4501
100
AcDbEntity
  8
外形線
 48
10.0
100
AcDbCircle
 10
1123.898413585187
 20
1144.632076415673
 30
0.0
 40
0.5
100
AcDbArc
 50
180.019033969455
 51
248.025023881972
  0
LINE
  5
4514
330
4501
100
AcDbEntity
  8
外形線
 48
10.0
100
AcDbLine
 10
1123.398525663106
 20
1143.325909973296
 30
0.0
 11
1123.398525663106
 21
1144.294618045039
 31
0.0
  0
LINE
  5
4515
330
4501
100
AcDbEntity
  8
外形線
 48
10.0
100
AcDbLine
 10
1123.398525663106
 20
1142.359984147006
 30
0.0
 11
1123.398525663106
 21
1142.98307227703
 31
0.0
  0
LINE
  5
4516
330
4501
100
AcDbEntity
  8
外形線
 48
10.0
100
AcDbLine
 10
1123.398525663106
 20
1130.420313907937
 30
0.0
 11
1123.398525663106
 21
1142.017146450741
 31
0.0
  0
LINE
  5
4517
330
4501
100
AcDbEntity
  8
外形線
 48
10.0
100
AcDbLine
 10
1123.398525663106
 20
1129.71320712675
 30
0.0
 11
1123.398525663106
 21
1130.042120021904
 31
0.0
  0
LINE
  5
4518
330
4501
100
AcDbEntity
  8
外形線
 48
10.0
100
AcDbLine
 10
1123.398525663106
 20
1108.078641759149
 30
0.0
 11
1123.398525663106
 21
1130.420313907937
 31
0.0
  0
LINE
  5
4519
330
4501
100
AcDbEntity
  8
外形線
 48
10.0
100
AcDbLine
 10
1123.398525663106
 20
1107.819822714047
 30
0.0
 11
1123.398525663106
 21
1108.700149198143
 31
0.0
  0
LINE
  5
451A
330
4501
100
AcDbEntity
  8
外形線
 48
10.0
100
AcDbLine
 10
1123.398525663106
 20
1100.44543233102
 30
0.0
 11
1123.398525663106
 21
1108.078641759149
 31
0.0
  0
ARC
  5
451B
330
4501
100
AcDbEntity
  8
外形線
 48
10.0
100
AcDbCircle
 10
1123.898525663106
 20
1088.928129594135
 30
0.0
 40
0.5
100
AcDbArc
 50
180.0
 51
268.999999999998
  0
LINE
  5
451C
330
4501
100
AcDbEntity
  8
外形線
 48
10.0
100
AcDbLine
 10
1123.398525663106
 20
1088.928129594135
 30
0.0
 11
1123.398525663106
 21
1100.44543233102
 31
0.0
  0
ARC
  5
451D
330
4501
100
AcDbEntity
  8
外形線
 48
10.0
100
AcDbCircle
 10
1135.396646406818
 20
1087.727276821958
 30
0.0
 40
0.5
100
AcDbArc
 50
0.002863323129
 51
88.999999999998
  0
ARC
  5
451E
330
4501
100
AcDbEntity
  8
外形線
 48
10.0
100
AcDbCircle
 10
1135.396646406818
 20
1101.646285103198
 30
0.0
 40
0.5
100
AcDbArc
 50
271.000000000002
 51
359.997136676878
  0
ARC
  5
451F
330
4501
100
AcDbEntity
  8
細線
 48
10.0
100
AcDbCircle
 10
1135.398359871226
 20
1105.882746614783
 30
0.0
 40
0.5
100
AcDbArc
 50
359.978936747976
 51
84.089361084595
  0
ARC
  5
4520
330
4501
100
AcDbEntity
  8
細線
 48
10.0
100
AcDbCircle
 10
1135.396845195015
 20
1105.6240843805
 30
0.0
 40
0.5
100
AcDbArc
 50
359.997136676878
 51
84.089361084595
  0
ARC
  5
4521
330
4501
100
AcDbEntity
  8
細線
 48
10.0
100
AcDbCircle
 10
1135.398405428356
 20
1136.84472607817
 30
0.0
 40
0.5
100
AcDbArc
 50
359.997136676878
 51
68.874947125989
  0
ARC
  5
4522
330
4501
100
AcDbEntity
  8
細線
 48
10.0
100
AcDbCircle
 10
1135.398453699003
 20
1137.810633254114
 30
0.0
 40
0.5
100
AcDbArc
 50
359.997136676878
 51
68.874947125989
  0
ARC
  5
4523
330
4501
100
AcDbEntity
  8
外形線
 48
10.0
100
AcDbCircle
 10
1135.398508800797
 20
1138.913233296621
 30
0.0
 40
0.5
100
AcDbArc
 50
359.997136676878
 51
68.025023881972
  0
LINE
  5
4524
330
4501
100
AcDbEntity
  8
外形線
 48
10.0
100
AcDbLine
 10
1135.405372610037
 20
1101.146361255619
 30
0.0
 11
1123.889799459887
 21
1100.945356178598
 31
0.0
  0
LINE
  5
4525
330
4501
100
AcDbEntity
  8
外形線
 48
10.0
100
AcDbLine
 10
1135.405372610037
 20
1088.227200669536
 30
0.0
 11
1123.889799459887
 21
1088.428205746557
 31
0.0
  0
LINE
  5
4526
330
4501
100
AcDbEntity
  8
外形線
 48
10.0
100
AcDbLine
 10
1123.711312779708
 20
1144.168402728055
 30
0.0
 11
1135.585609606275
 21
1139.376906984239
 31
0.0
  0
LINE
  5
4527
330
4501
100
AcDbEntity
  8
細線
 48
10.0
100
AcDbLine
 10
1135.448333812772
 20
1106.121426237015
 30
0.0
 11
1123.847037045349
 21
1107.322480857532
 31
0.0
  0
LINE
  5
4528
330
4501
100
AcDbEntity
  8
細線
 48
10.0
100
AcDbLine
 10
1135.449848488983
 20
1106.380088471297
 30
0.0
 11
1123.847037045349
 21
1107.581299902634
 31
0.0
  0
LINE
  5
4529
330
4501
100
AcDbEntity
  8
細線
 48
10.0
100
AcDbLine
 10
1135.533952658586
 20
1126.609702933466
 30
0.0
 11
1123.762442899618
 21
1129.939188683612
 31
0.0
  0
LINE
  5
452A
330
4501
100
AcDbEntity
  8
細線
 48
10.0
100
AcDbLine
 10
1135.578607784566
 20
1137.311124095764
 30
0.0
 11
1123.718323306896
 21
1141.893586129411
 31
0.0
  0
LINE
  5
452B
330
4501
100
AcDbEntity
  8
細線
 48
10.0
100
AcDbLine
 10
1135.578656055213
 20
1138.277031271709
 30
0.0
 11
1123.718323306896
 21
1142.859511955701
 31
0.0
  0
LINE
  5
452C
330
4501
100
AcDbEntity
  8
外形線
 48
10.0
100
AcDbLine
 10
1108.899561566736
 20
1152.686780962578
 30
0.0
 11
1122.908291096026
 21
1152.436153402709
 31
0.0
  0
LINE
  5
452D
330
4501
100
AcDbEntity
  8
外形線
 48
10.0
100
AcDbLine
 10
1108.899561566736
 20
1152.686780962578
 30
0.0
 11
1108.399561566736
 21
1152.180676686204
 31
0.0
  0
LINE
  5
452E
330
4501
100
AcDbEntity
  8
外形線
 48
10.0
100
AcDbLine
 10
1108.399561566736
 20
1151.192885238951
 30
0.0
 11
1108.399561566736
 21
1150.692885238951
 31
0.0
  0
ARC
  5
452F
330
4501
100
AcDbEntity
  8
外形線
 48
10.0
100
AcDbCircle
 10
1098.998525663106
 20
1152.414559409545
 30
0.0
 40
4.4
100
AcDbArc
 50
271.3
 51
0.0
  0
LINE
  5
4530
330
4501
100
AcDbEntity
  8
外形線
 48
10.0
100
AcDbLine
 10
1046.016783711759
 20
1146.811102679105
 30
0.0
 11
1099.098349930826
 21
1148.015691928525
 31
0.0
  0
LINE
  5
4531
330
4501
100
AcDbEntity
  8
外形線
 48
10.0
100
AcDbLine
 10
1103.398525663105
 20
1152.686780962578
 30
0.0
 11
1103.398525663105
 21
1152.414559409545
 31
0.0
  0
LINE
  5
4532
330
4501
100
AcDbEntity
  8
外形線
 48
10.0
100
AcDbLine
 10
1106.398525663105
 20
1152.686780962578
 30
0.0
 11
1103.398525663105
 21
1152.686780962578
 31
0.0
  0
ARC
  5
4533
330
4501
100
AcDbEntity
  8
外形線
 48
10.0
100
AcDbCircle
 10
1107.898525663105
 20
1150.161780962577
 30
0.0
 40
1.500000000000156
100
AcDbArc
 50
70.528779365514
 51
179.999999999993
  0
LINE
  5
4534
330
4501
100
AcDbEntity
  8
細線
 48
10.0
100
AcDbLine
 10
1108.899561566736
 20
1152.686780962578
 30
0.0
 11
1108.899561566736
 21
1036.686780962578
 31
0.0
  0
LINE
  5
4535
330
4501
100
AcDbEntity
  8
細線
 48
10.0
100
AcDbLine
 10
1108.899561566736
 20
1152.680676686204
 30
0.0
 11
1108.899561566736
 21
1036.692885238951
 31
0.0
  0
LINE
  5
4536
330
4501
100
AcDbEntity
  8
外形線
 48
10.0
100
AcDbLine
 10
1123.398525663106
 20
1072.956444458874
 30
0.0
 11
1123.398525663106
 21
1059.660354798405
 31
0.0
  0
ARC
  5
4537
330
4501
100
AcDbEntity
  8
細線
 48
10.0
100
AcDbCircle
 10
1123.898525663106
 20
1047.013577778149
 30
0.0
 40
0.5
100
AcDbArc
 50
111.125052874011
 51
180.0
  0
ARC
  5
4538
330
4501
100
AcDbEntity
  8
細線
 48
10.0
100
AcDbCircle
 10
1123.898066965619
 20
1046.04747472476
 30
0.0
 40
0.5
100
AcDbArc
 50
111.125052874011
 51
179.923306313171
  0
ARC
  5
4539
330
4501
100
AcDbEntity
  8
細線
 48
10.0
100
AcDbCircle
 10
1123.898525663106
 20
1059.660354798405
 30
0.0
 40
0.5
100
AcDbArc
 50
105.793169048262
 51
180.0
  0
ARC
  5
453A
330
4501
100
AcDbEntity
  8
細線
 48
10.0
100
AcDbCircle
 10
1123.898525663106
 20
1058.953248017218
 30
0.0
 40
0.5
100
AcDbArc
 50
105.793169048262
 51
180.0
  0
ARC
  5
453B
330
4501
100
AcDbEntity
  8
細線
 48
10.0
100
AcDbCircle
 10
1123.898525663106
 20
1081.294920166006
 30
0.0
 40
0.5
100
AcDbArc
 50
95.910638915405
 51
180.0
  0
ARC
  5
453C
330
4501
100
AcDbEntity
  8
細線
 48
10.0
100
AcDbCircle
 10
1123.898525663106
 20
1081.553739211108
 30
0.0
 40
0.5
100
AcDbArc
 50
95.910638915405
 51
180.0
  0
LINE
  5
453D
330
4501
100
AcDbEntity
  8
外形線
 48
10.0
100
AcDbLine
 10
1123.398525663106
 20
1081.294920166006
 30
0.0
 11
1123.398525663106
 21
1088.928129594135
 31
0.0
  0
LINE
  5
453E
330
4501
100
AcDbEntity
  8
外形線
 48
10.0
100
AcDbLine
 10
1123.398525663106
 20
1081.745828707453
 30
0.0
 11
1123.398525663106
 21
1082.004647752555
 31
0.0
  0
LINE
  5
453F
330
4501
100
AcDbEntity
  8
外形線
 48
10.0
100
AcDbLine
 10
1123.398525663106
 20
1072.956444458874
 30
0.0
 11
1123.398525663106
 21
1081.294920166006
 31
0.0
  0
LINE
  5
4540
330
4501
100
AcDbEntity
  8
外形線
 48
10.0
100
AcDbLine
 10
1123.398525663106
 20
1058.953248017218
 30
0.0
 11
1123.398525663106
 21
1059.660354798405
 31
0.0
  0
LINE
  5
4541
330
4501
100
AcDbEntity
  8
外形線
 48
10.0
100
AcDbLine
 10
1123.398525663106
 20
1047.013577778149
 30
0.0
 11
1123.398525663106
 21
1058.953248017218
 31
0.0
  0
LINE
  5
4542
330
4501
100
AcDbEntity
  8
外形線
 48
10.0
100
AcDbLine
 10
1123.398067413553
 20
1046.048144003235
 30
0.0
 11
1123.398525663106
 21
1047.013577778149
 31
0.0
  0
LINE
  5
4543
330
4501
100
AcDbEntity
  8
外形線
 48
10.0
100
AcDbLine
 10
1123.396317242873
 20
1044.740639597053
 30
0.0
 11
1123.398067413553
 21
1046.048144003235
 31
0.0
  0
ARC
  5
4544
330
4501
100
AcDbEntity
  8
外形線
 48
10.0
100
AcDbCircle
 10
1123.896317242873
 20
1044.740639597053
 30
0.0
 40
0.5
100
AcDbArc
 50
111.974976118028
 51
180.0
  0
ARC
  5
4545
330
4501
100
AcDbEntity
  8
細線
 48
10.0
100
AcDbCircle
 10
1135.398494161258
 20
1063.952267566336
 30
0.0
 40
0.5
100
AcDbArc
 50
285.793169048262
 51
0.004772330144
  0
ARC
  5
4546
330
4501
100
AcDbEntity
  8
細線
 48
10.0
100
AcDbCircle
 10
1135.398525663106
 20
1063.245169695216
 30
0.0
 40
0.5
100
AcDbArc
 50
285.793169048262
 51
0.0
  0
ARC
  5
4547
330
4501
100
AcDbEntity
  8
細線
 48
10.0
100
AcDbCircle
 10
1135.398525663106
 20
1052.528882302126
 30
0.0
 40
0.5
100
AcDbArc
 50
291.125052874011
 51
0.0
  0
ARC
  5
4548
330
4501
100
AcDbEntity
  8
細線
 48
10.0
100
AcDbCircle
 10
1135.398525663106
 20
1051.562956475835
 30
0.0
 40
0.5
100
AcDbArc
 50
291.125052874011
 51
0.0
  0
ARC
  5
4549
330
4501
100
AcDbEntity
  8
外形線
 48
10.0
100
AcDbCircle
 10
1135.398525663106
 20
1050.460335432784
 30
0.0
 40
0.5
100
AcDbArc
 50
291.974976118028
 51
0.0
  0
LINE
  5
454A
330
4501
100
AcDbEntity
  8
外形線
 48
10.0
100
AcDbLine
 10
1135.898525663106
 20
1051.562956475835
 30
0.0
 11
1135.898525663106
 21
1050.460335432784
 31
0.0
  0
LINE
  5
454B
330
4501
100
AcDbEntity
  8
外形線
 48
10.0
100
AcDbLine
 10
1135.898525663106
 20
1052.528882302126
 30
0.0
 11
1135.898525663106
 21
1051.562956475835
 31
0.0
  0
LINE
  5
454C
330
4501
100
AcDbEntity
  8
外形線
 48
10.0
100
AcDbLine
 10
1135.898525663106
 20
1063.245169695216
 30
0.0
 11
1135.898525663106
 21
1052.528882302126
 31
0.0
  0
LINE
  5
454D
330
4501
100
AcDbEntity
  8
外形線
 48
10.0
100
AcDbLine
 10
1135.898494159523
 20
1063.952309212773
 30
0.0
 11
1135.898525663106
 21
1063.245169695216
 31
0.0
  0
LINE
  5
454E
330
4501
100
AcDbEntity
  8
外形線
 48
10.0
100
AcDbLine
 10
1135.896845194391
 20
1083.749502531863
 30
0.0
 11
1135.898494159523
 21
1063.952309212773
 31
0.0
  0
ARC
  5
454F
330
4501
100
AcDbEntity
  8
細線
 48
10.0
100
AcDbCircle
 10
1135.396794220963
 20
1083.49065322233
 30
0.0
 40
0.5
100
AcDbArc
 50
275.910638915405
 51
0.00199902817
  0
ARC
  5
4550
330
4501
100
AcDbEntity
  8
細線
 48
10.0
100
AcDbCircle
 10
1135.396845195015
 20
1083.749477544655
 30
0.0
 40
0.5
100
AcDbArc
 50
275.910638915405
 51
0.002863323129
  0
ARC
  5
4551
330
4501
100
AcDbEntity
  8
外形線
 48
10.0
100
AcDbCircle
 10
1122.897486448612
 20
1037.437296090646
 30
0.0
 40
0.5
100
AcDbArc
 50
271.000000000002
 51
359.984453673186
  0
LINE
  5
4552
330
4501
100
AcDbEntity
  8
外形線
 48
10.0
100
AcDbLine
 10
1135.896646406194
 20
1087.727301809166
 30
0.0
 11
1135.896794220659
 21
1083.490670667142
 31
0.0
  0
LINE
  5
4553
330
4501
100
AcDbEntity
  8
外形線
 48
10.0
100
AcDbLine
 10
1123.709216437395
 20
1045.204313284671
 30
0.0
 11
1135.585626468584
 21
1049.996661745166
 31
0.0
  0
LINE
  5
4554
330
4501
100
AcDbEntity
  8
細線
 48
10.0
100
AcDbLine
 10
1135.578728019316
 20
1052.062484284531
 30
0.0
 11
1123.718323306896
 21
1047.479975795744
 31
0.0
  0
LINE
  5
4555
330
4501
100
AcDbEntity
  8
細線
 48
10.0
100
AcDbLine
 10
1135.578728019316
 20
1051.09655845824
 30
0.0
 11
1123.717864609409
 21
1046.513872742355
 31
0.0
  0
LINE
  5
4556
330
4501
100
AcDbEntity
  8
細線
 48
10.0
100
AcDbLine
 10
1135.534608426593
 20
1062.764044470891
 30
0.0
 11
1123.762442899618
 21
1059.434373241543
 31
0.0
  0
LINE
  5
4557
330
4501
100
AcDbEntity
  8
細線
 48
10.0
100
AcDbLine
 10
1135.534576924746
 20
1063.471142342011
 30
0.0
 11
1123.762442899618
 21
1060.141480022729
 31
0.0
  0
LINE
  5
4558
330
4501
100
AcDbEntity
  8
細線
 48
10.0
100
AcDbLine
 10
1135.44828283872
 20
1082.993311365815
 30
0.0
 11
1123.847037045349
 21
1081.792262022521
 31
0.0
  0
LINE
  5
4559
330
4501
100
AcDbEntity
  8
細線
 48
10.0
100
AcDbLine
 10
1135.448333812772
 20
1083.25213568814
 30
0.0
 11
1123.847037045349
 21
1082.051081067623
 31
0.0
  0
LINE
  5
455A
330
4501
100
AcDbEntity
  8
外形線
 48
10.0
100
AcDbLine
 10
1123.399470041665
 20
1044.747733739171
 30
0.0
 11
1123.397486430207
 21
1037.437160423353
 31
0.0
  0
LINE
  5
455B
330
4501
100
AcDbEntity
  8
外形線
 48
10.0
100
AcDbLine
 10
1123.399564892765
 20
1151.936223047449
 30
0.0
 11
1123.397486430207
 21
1037.437160423353
 31
0.0
  0
LINE
  5
455C
330
4501
100
AcDbEntity
  8
外形線
 48
10.0
100
AcDbLine
 10
1108.399561566736
 20
1152.180676686204
 30
0.0
 11
1108.399561566736
 21
1037.192885238951
 31
0.0
  0
LINE
  5
455D
330
4501
100
AcDbEntity
  8
外形線
 48
10.0
100
AcDbLine
 10
1108.899561566736
 20
1036.686780962578
 30
0.0
 11
1122.906212651831
 21
1036.937372243068
 31
0.0
  0
LINE
  5
455E
330
4501
100
AcDbEntity
  8
外形線
 48
10.0
100
AcDbLine
 10
1108.899561566736
 20
1036.686780962578
 30
0.0
 11
1108.399561566736
 21
1037.192885238951
 31
0.0
  0
LINE
  5
455F
330
4501
100
AcDbEntity
  8
外形線
 48
10.0
100
AcDbLine
 10
1108.399561566736
 20
1038.192885238951
 30
0.0
 11
1108.399561566736
 21
1038.692885238951
 31
0.0
  0
LINE
  5
4560
330
4501
100
AcDbEntity
  8
外形線
 48
10.0
100
AcDbLine
 10
1035.022931603883
 20
1071.442246865485
 30
0.0
 11
1041.278741748243
 21
1046.351562814666
 31
0.0
  0
ARC
  5
4561
330
4501
100
AcDbEntity
  8
外形線
 48
10.0
100
AcDbCircle
 10
1046.130220379623
 20
1047.561172292664
 30
0.0
 40
5.0
100
AcDbArc
 50
193.999999999996
 51
268.7
  0
ARC
  5
4562
330
4501
100
AcDbEntity
  8
外形線
 48
10.0
100
AcDbCircle
 10
1034.052635877606
 20
1071.200324969886
 30
0.0
 40
1.0
100
AcDbArc
 50
13.999999999996
 51
89.000000000011
  0
ARC
  5
4563
330
4501
100
AcDbEntity
  8
外形線
 48
10.0
100
AcDbCircle
 10
1069.398525663106
 20
1041.031595836918
 30
0.0
 40
1.0
100
AcDbArc
 50
0.0
 51
88.7
  0
ARC
  5
4564
330
4501
100
AcDbEntity
  8
外形線
 48
10.0
100
AcDbCircle
 10
1071.398525663106
 20
1031.186780962577
 30
0.0
 40
1.0
100
AcDbArc
 50
180.0
 51
270.0
  0
ARC
  5
4565
330
4501
100
AcDbEntity
  8
外形線
 48
10.0
100
AcDbCircle
 10
1105.398525663105
 20
1031.186780962577
 30
0.0
 40
1.0
100
AcDbArc
 50
270.0
 51
0.0
  0
LINE
  5
4566
330
4501
100
AcDbEntity
  8
外形線
 48
10.0
100
AcDbLine
 10
1070.398525663106
 20
1031.186780962577
 30
0.0
 11
1070.398525663106
 21
1041.031595836918
 31
0.0
  0
LINE
  5
4567
330
4501
100
AcDbEntity
  8
外形線
 48
10.0
100
AcDbLine
 10
1046.016783711759
 20
1042.56245924605
 30
0.0
 11
1099.098349930826
 21
1041.35786999663
 31
0.0
  0
LINE
  5
4568
330
4501
100
AcDbEntity
  8
外形線
 48
10.0
100
AcDbLine
 10
1021.881073256668
 20
1072.412932713756
 30
0.0
 11
1034.070088284044
 21
1072.200172665042
 31
0.0
  0
LINE
  5
4569
330
4501
100
AcDbEntity
  8
外形線
 48
10.0
100
AcDbLine
 10
1106.398525663105
 20
1040.711780962577
 30
0.0
 11
1106.398525663105
 21
1031.186780962577
 31
0.0
  0
LINE
  5
456A
330
4501
100
AcDbEntity
  8
外形線
 48
10.0
100
AcDbLine
 10
1106.398525663105
 20
1040.711780962577
 30
0.0
 11
1106.398525663105
 21
1152.686780962578
 31
0.0
  0
LINE
  5
456B
330
4501
100
AcDbEntity
  8
外形線
 48
10.0
100
AcDbLine
 10
1105.398525663105
 20
1030.186780962577
 30
0.0
 11
1071.398525663106
 21
1030.186780962577
 31
0.0
  0
LINE
  5
456C
330
4501
100
AcDbEntity
  8
外形線
 48
10.0
100
AcDbLine
 10
1103.398525663106
 20
1036.95900251561
 30
0.0
 11
1103.398525663105
 21
1036.692885238951
 31
0.0
  0
LINE
  5
456D
330
4501
100
AcDbEntity
  8
外形線
 48
10.0
100
AcDbLine
 10
1106.398525663105
 20
1036.692885238951
 30
0.0
 11
1103.398525663105
 21
1036.692885238951
 31
0.0
  0
ARC
  5
456E
330
4501
100
AcDbEntity
  8
外形線
 48
10.0
100
AcDbCircle
 10
1107.898525663105
 20
1039.211780962577
 30
0.0
 40
1.499999999999659
100
AcDbArc
 50
179.99999999998
 51
289.471220634515
  0
ARC
  5
456F
330
4501
100
AcDbEntity
  8
外形線
 48
10.0
100
AcDbCircle
 10
1098.998525663106
 20
1036.95900251561
 30
0.0
 40
4.4
100
AcDbArc
 50
0.0
 51
88.7
  0
LINE
  5
4570
330
4501
100
AcDbEntity
  8
細線
 48
10.0
100
AcDbLine
 10
1103.398525663105
 20
1152.686780962578
 30
0.0
 11
1103.398525663106
 21
1036.95900251561
 31
0.0
  0
LINE
  5
4571
330
4501
100
AcDbEntity
  8
細線
 48
10.0
100
AcDbLine
 10
1034.837298404406
 20
1072.186780962578
 30
0.0
 11
1034.840933619068
 21
1117.201361012233
 31
0.0
  0
LINE
  5
4572
330
4501
100
AcDbEntity
  8
細線
 48
10.0
100
AcDbLine
 10
1042.201886517784
 20
1144.905639229587
 30
0.0
 11
1042.201886517784
 21
1044.467922695569
 31
0.0
  0
LINE
  5
4573
330
4501
100
AcDbEntity
  8
外形線
 48
10.0
100
AcDbLine
 10
1135.898508800172
 20
1138.913208309413
 30
0.0
 11
1135.896646406194
 21
1101.646260115989
 31
0.0
  0
ARC
  5
4574
330
4501
100
AcDbEntity
  8
細線
 48
10.0
100
AcDbCircle
 10
1135.397834558349
 20
1125.421480922695
 30
0.0
 40
0.5
100
AcDbArc
 50
359.997136676878
 51
74.206830951738
  0
ARC
  5
4575
330
4501
100
AcDbEntity
  8
細線
 48
10.0
100
AcDbCircle
 10
1135.397869895098
 20
1126.128577709141
 30
0.0
 40
0.5
100
AcDbArc
 50
359.997136676878
 51
74.206830951738
  0
LINE
  5
4576
330
4501
100
AcDbEntity
  8
細線
 48
10.0
100
AcDbLine
 10
1135.533917321837
 20
1125.90260614702
 30
0.0
 11
1123.762442899618
 21
1129.232081902426
 31
0.0
  0
LINE
  5
4577
330
4501
100
AcDbEntity
  8
中心線
 48
10.0
100
AcDbLine
 10
1088.398525663106
 20
1052.03299312045
 30
0.0
 11
1088.398525663106
 21
1013.722487401784
 31
0.0
  0
ENDBLK
  5
4578
330
4501
100
AcDbEntity
  8
0
 48
10.0
100
AcDbBlockEnd
  0
BLOCK
  5
465E
330
4654
100
AcDbEntity
  8
0
 48
10.0
100
AcDbBlockBegin
  2
*D11
 70
     1
 10
0.0
 20
0.0
 30
0.0
  3
*D11
  1

  0
LINE
  5
468C
330
4654
100
AcDbEntity
  8
寸法線
 62
     0
 48
10.0
100
AcDbLine
 10
436.138468256273
 20
350.875
 30
0.0
 11
436.138468256273
 21
317.288623667948
 31
0.0
  0
LINE
  5
468D
330
4654
100
AcDbEntity
  8
寸法線
 62
     0
 48
10.0
100
AcDbLine
 10
465.638468256273
 20
370.148554470206
 30
0.0
 11
465.638468256273
 21
317.288623667948
 31
0.0
  0
LINE
  5
468E
330
4654
100
AcDbEntity
  8
寸法線
 62
     0
 48
10.0
100
AcDbLine
 10
442.138468256273
 20
318.538623667948
 30
0.0
 11
459.638468256273
 21
318.538623667948
 31
0.0
  0
INSERT
  5
468F
330
4654
100
AcDbEntity
  8
寸法線
 62
     0
 48
10.0
100
AcDbBlockReference
  2
_OPEN30
 10
436.138468256273
 20
318.538623667948
 30
0.0
 41
6.0
 42
6.0
 43
6.0
 50
180.0
  0
INSERT
  5
4690
330
4654
100
AcDbEntity
  8
寸法線
 62
     0
 48
10.0
100
AcDbBlockReference
  2
_OPEN30
 10
465.638468256273
 20
318.538623667948
 30
0.0
 41
6.0
 42
6.0
 43
6.0
  0
MTEXT
  5
4691
330
4654
100
AcDbEntity
  8
寸法線
 62
     0
 48
10.0
100
AcDbMText
 10
450.888468256273
 20
323.163623667948
 30
0.0
 40
8.0
 41
0.0
 71
     5
 72
     1
  1
\A1;30
  0
POINT
  5
4692
330
4654
100
AcDbEntity
  8
DEFPOINTS
 62
     0
 48
10.0
100
AcDbPoint
 10
436.138468256273
 20
351.5
 30
0.0
  0
POINT
  5
4693
330
4654
100
AcDbEntity
  8
DEFPOINTS
 62
     0
 48
10.0
100
AcDbPoint
 10
465.638468256273
 20
370.773554470206
 30
0.0
  0
POINT
  5
4694
330
4654
100
AcDbEntity
  8
DEFPOINTS
 62
     0
 48
10.0
100
AcDbPoint
 10
465.638468256273
 20
318.538623667948
 30
0.0
  0
ENDBLK
  5
465F
330
4654
100
AcDbEntity
  8
0
 48
10.0
100
AcDbBlockEnd
  0
BLOCK
  5
4674
330
466A
100
AcDbEntity
  8
0
 48
10.0
100
AcDbBlockBegin
  2
*D12
 70
     1
 10
0.0
 20
0.0
 30
0.0
  3
*D12
  1

  0
LINE
  5
4695
330
466A
100
AcDbEntity
  8
寸法線
 62
     0
 48
10.0
100
AcDbLine
 10
347.638468256273
 20
395.325367076869
 30
0.0
 11
347.638468256273
 21
317.288623667948
 31
0.0
  0
LINE
  5
4696
330
466A
100
AcDbEntity
  8
寸法線
 62
     0
 48
10.0
100
AcDbLine
 10
436.138468256273
 20
350.875
 30
0.0
 11
436.138468256273
 21
317.288623667948
 31
0.0
  0
LINE
  5
4697
330
466A
100
AcDbEntity
  8
寸法線
 62
     0
 48
10.0
100
AcDbLine
 10
353.638468256273
 20
318.538623667948
 30
0.0
 11
430.138468256273
 21
318.538623667948
 31
0.0
  0
INSERT
  5
4698
330
466A
100
AcDbEntity
  8
寸法線
 62
     0
 48
10.0
100
AcDbBlockReference
  2
_OPEN30
 10
347.638468256273
 20
318.538623667948
 30
0.0
 41
6.0
 42
6.0
 43
6.0
 50
180.0
  0
INSERT
  5
4699
330
466A
100
AcDbEntity
  8
寸法線
 62
     0
 48
10.0
100
AcDbBlockReference
  2
_OPEN30
 10
436.138468256273
 20
318.538623667948
 30
0.0
 41
6.0
 42
6.0
 43
6.0
  0
MTEXT
  5
469A
330
466A
100
AcDbEntity
  8
寸法線
 62
     0
 48
10.0
100
AcDbMText
 10
391.888468256273
 20
323.163623667948
 30
0.0
 40
8.0
 41
0.0
 71
     5
 72
     1
  1
\A1;88
  0
POINT
  5
469B
330
466A
100
AcDbEntity
  8
DEFPOINTS
 62
     0
 48
10.0
100
AcDbPoint
 10
347.638468256273
 20
395.950367076869
 30
0.0
  0
POINT
  5
469C
330
466A
100
AcDbEntity
  8
DEFPOINTS
 62
     0
 48
10.0
100
AcDbPoint
 10
436.138468256273
 20
351.5
 30
0.0
  0
POINT
  5
469D
330
466A
100
AcDbEntity
  8
DEFPOINTS
 62
     0
 48
10.0
100
AcDbPoint
 10
436.138468256273
 20
318.538623667948
 30
0.0
  0
ENDBLK
  5
4675
330
466A
100
AcDbEntity
  8
0
 48
10.0
100
AcDbBlockEnd
  0
BLOCK
  5
468A
330
4680
100
AcDbEntity
  8
0
 48
10.0
100
AcDbBlockBegin
  2
*D13
 70
     1
 10
0.0
 20
0.0
 30
0.0
  3
*D13
  1

  0
LINE
  5
48B7
330
4680
100
AcDbEntity
  8
寸法線
 62
     0
 48
10.0
100
AcDbLine
 10
327.638468256273
 20
395.324677306075
 30
0.0
 11
327.638468256273
 21
317.288623667948
 31
0.0
  0
LINE
  5
48B8
330
4680
100
AcDbEntity
  8
寸法線
 62
     0
 48
10.0
100
AcDbLine
 10
347.638468256273
 20
395.325367076869
 30
0.0
 11
347.638468256273
 21
317.288623667948
 31
0.0
  0
LINE
  5
48B9
330
4680
100
AcDbEntity
  8
寸法線
 62
     0
 48
10.0
100
AcDbLine
 10
333.638468256273
 20
318.538623667948
 30
0.0
 11
341.638468256273
 21
318.538623667948
 31
0.0
  0
INSERT
  5
48BA
330
4680
100
AcDbEntity
  8
寸法線
 62
     0
 48
10.0
100
AcDbBlockReference
  2
_OPEN30
 10
327.638468256273
 20
318.538623667948
 30
0.0
 41
6.0
 42
6.0
 43
6.0
 50
180.0
  0
INSERT
  5
48BB
330
4680
100
AcDbEntity
  8
寸法線
 62
     0
 48
10.0
100
AcDbBlockReference
  2
_OPEN30
 10
347.638468256273
 20
318.538623667948
 30
0.0
 41
6.0
 42
6.0
 43
6.0
  0
MTEXT
  5
48BC
330
4680
100
AcDbEntity
  8
寸法線
 62
     0
 48
10.0
100
AcDbMText
 10
337.638468256273
 20
323.164411069523
 30
0.0
 40
8.0
 41
0.0
 71
     5
 72
     1
  1
\A1;20
  0
POINT
  5
48BD
330
4680
100
AcDbEntity
  8
DEFPOINTS
 62
     0
 48
10.0
100
AcDbPoint
 10
327.638468256273
 20
395.949677306075
 30
0.0
  0
POINT
  5
48BE
330
4680
100
AcDbEntity
  8
DEFPOINTS
 62
     0
 48
10.0
100
AcDbPoint
 10
347.638468256273
 20
395.950367076869
 30
0.0
  0
POINT
  5
48BF
330
4680
100
AcDbEntity
  8
DEFPOINTS
 62
     0
 48
10.0
100
AcDbPoint
 10
347.638468256273
 20
318.538623667948
 30
0.0
  0
ENDBLK
  5
468B
330
4680
100
AcDbEntity
  8
0
 48
10.0
100
AcDbBlockEnd
  0
BLOCK
  5
4EA5
330
4E9A
100
AcDbEntity
  8
0
 48
10.0
100
AcDbBlockBegin
  2
*D14
 70
     1
 10
0.0
 20
0.0
 30
0.0
  3
*D14
  1

  0
LINE
  5
548E
330
4E9A
100
AcDbEntity
  8
寸法線
 62
     0
 48
10.0
100
AcDbLine
 10
29.240881909347
 20
425.914658855225
 30
0.0
 11
-7.167167370782
 21
425.914658855225
 31
0.0
  0
LINE
  5
548F
330
4E9A
100
AcDbEntity
  8
寸法線
 62
     0
 48
10.0
100
AcDbLine
 10
29.42358618138
 20
403.914658855225
 30
0.0
 11
-7.167167370782
 21
403.914658855225
 31
0.0
  0
LINE
  5
5490
330
4E9A
100
AcDbEntity
  8
寸法線
 62
     0
 48
10.0
100
AcDbLine
 10
-5.917167370782
 20
409.914658855225
 30
0.0
 11
-5.917167370782
 21
419.914658855225
 31
0.0
  0
LINE
  5
5491
330
4E9A
100
AcDbEntity
  8
寸法線
 62
     0
 48
10.0
100
AcDbLine
 10
-5.917167370782
 20
425.914658855225
 30
0.0
 11
-5.917167370782
 21
451.64513129617
 31
0.0
  0
INSERT
  5
5492
330
4E9A
100
AcDbEntity
  8
寸法線
 62
     0
 48
10.0
100
AcDbBlockReference
  2
_OPEN30
 10
-5.917167370782
 20
403.914658855225
 30
0.0
 41
6.0
 42
6.0
 43
6.0
 50
270.0
  0
INSERT
  5
5493
330
4E9A
100
AcDbEntity
  8
寸法線
 62
     0
 48
10.0
100
AcDbBlockReference
  2
_OPEN30
 10
-5.917167370782
 20
425.914658855225
 30
0.0
 41
6.0
 42
6.0
 43
6.0
 50
90.0
  0
MTEXT
  5
5494
330
4E9A
100
AcDbEntity
  8
寸法線
 62
     0
 48
10.0
100
AcDbMText
 10
-10.542954772357
 20
441.779895075697
 30
0.0
 40
8.0
 41
0.0
 71
     5
 72
     1
  1
\A1;φ22
 11
6.123031769111886E-17
 21
1.0
 31
0.0
  0
POINT
  5
5495
330
4E9A
100
AcDbEntity
  8
DEFPOINTS
 62
     0
 48
10.0
100
AcDbPoint
 10
29.865881909347
 20
425.914658855225
 30
0.0
  0
POINT
  5
5496
330
4E9A
100
AcDbEntity
  8
DEFPOINTS
 62
     0
 48
10.0
100
AcDbPoint
 10
30.04858618138
 20
403.914658855225
 30
0.0
  0
POINT
  5
5497
330
4E9A
100
AcDbEntity
  8
DEFPOINTS
 62
     0
 48
10.0
100
AcDbPoint
 10
-5.917167370782
 20
403.914658855225
 30
0.0
  0
ENDBLK
  5
4EA6
330
4E9A
100
AcDbEntity
  8
0
 48
10.0
100
AcDbBlockEnd
  0
BLOCK
  5
4EB2
330
4EA7
100
AcDbEntity
  8
0
 48
10.0
100
AcDbBlockBegin
  2
*D15
 70
     1
 10
0.0
 20
0.0
 30
0.0
  3
*D15
  1

  0
LINE
  5
5484
330
4EA7
100
AcDbEntity
  8
寸法線
 62
     0
 48
10.0
100
AcDbLine
 10
27.68926056517
 20
423.414658855225
 30
0.0
 11
8.832832629218
 21
423.414658855225
 31
0.0
  0
LINE
  5
5485
330
4EA7
100
AcDbEntity
  8
寸法線
 62
     0
 48
10.0
100
AcDbLine
 10
27.331974707577
 20
406.414658855225
 30
0.0
 11
8.832832629218
 21
406.414658855225
 31
0.0
  0
LINE
  5
5486
330
4EA7
100
AcDbEntity
  8
寸法線
 62
     0
 48
10.0
100
AcDbLine
 10
10.082832629218
 20
423.414658855225
 30
0.0
 11
10.082832629218
 21
446.797992188558
 31
0.0
  0
LINE
  5
5487
330
4EA7
100
AcDbEntity
  8
寸法線
 62
     0
 48
10.0
100
AcDbLine
 10
10.082832629218
 20
417.414658855225
 30
0.0
 11
10.082832629218
 21
412.414658855225
 31
0.0
  0
INSERT
  5
5488
330
4EA7
100
AcDbEntity
  8
寸法線
 62
     0
100
AcDbBlockReference
  2
_OPEN30
 10
10.082832629218
 20
423.414658855225
 30
0.0
 41
6.0
 42
6.0
 43
6.0
 50
90.0
  0
INSERT
  5
5489
330
4EA7
100
AcDbEntity
  8
寸法線
 62
     0
100
AcDbBlockReference
  2
_OPEN30
 10
10.082832629218
 20
406.414658855225
 30
0.0
 41
6.0
 42
6.0
 43
6.0
 50
270.0
  0
MTEXT
  5
548A
330
4EA7
100
AcDbEntity
  8
寸法線
 62
     0
 48
10.0
100
AcDbMText
 10
5.457832629218
 20
438.239658855225
 30
0.0
 40
8.0
 41
0.0
 71
     5
 72
     1
  1
\A1;φ17
 11
0.0
 21
1.0
 31
0.0
  0
POINT
  5
548B
330
4EA7
100
AcDbEntity
  8
DEFPOINTS
 62
     0
100
AcDbPoint
 10
28.31426056517
 20
423.414658855225
 30
0.0
  0
POINT
  5
548C
330
4EA7
100
AcDbEntity
  8
DEFPOINTS
 62
     0
100
AcDbPoint
 10
27.956974707577
 20
406.414658855225
 30
0.0
  0
POINT
  5
548D
330
4EA7
100
AcDbEntity
  8
DEFPOINTS
 62
     0
100
AcDbPoint
 10
10.082832629218
 20
406.414658855225
 30
0.0
  0
ENDBLK
  5
4EB3
330
4EA7
100
AcDbEntity
  8
0
 48
10.0
100
AcDbBlockEnd
  0
BLOCK
  5
4EBE
330
4EB4
100
AcDbEntity
  8
0
 48
10.0
100
AcDbBlockBegin
  2
*D16
 70
     1
 10
0.0
 20
0.0
 30
0.0
  3
*D16
  1

  0
LINE
  5
52CB
330
4EB4
100
AcDbEntity
  8
寸法線
 62
     0
 48
10.0
100
AcDbLine
 10
308.638407366861
 20
387.886035039875
 30
0.0
 11
314.638407366861
 21
387.886035039875
 31
0.0
  0
LINE
  5
52CC
330
4EB4
100
AcDbEntity
  8
寸法線
 62
     0
 48
10.0
100
AcDbLine
 10
293.638407366861
 20
387.886035039875
 30
0.0
 11
282.857036516962
 21
387.886035039875
 31
0.0
  0
LINE
  5
52CD
330
4EB4
100
AcDbEntity
  8
寸法線
 62
     0
 48
10.0
100
AcDbLine
 10
302.638407366861
 20
387.886035039875
 30
0.0
 11
299.638407366861
 21
387.886035039875
 31
0.0
  0
INSERT
  5
52CE
330
4EB4
100
AcDbEntity
  8
寸法線
 62
     0
 48
10.0
100
AcDbBlockReference
  2
_OPEN30
 10
302.638407366861
 20
387.886035039875
 30
0.0
 41
6.0
 42
6.0
 43
6.0
 50
180.0
  0
INSERT
  5
52CF
330
4EB4
100
AcDbEntity
  8
寸法線
 62
     0
 48
10.0
100
AcDbBlockReference
  2
_OPEN30
 10
299.638407366861
 20
387.886035039875
 30
0.0
 41
6.0
 42
6.0
 43
6.0
  0
MTEXT
  5
52D0
330
4EB4
100
AcDbEntity
  8
寸法線
 62
     0
 48
10.0
100
AcDbMText
 10
285.247721941911
 20
392.511035039875
 30
0.0
 40
8.0
 41
0.0
 71
     5
 72
     1
  1
\A1;3
  0
POINT
  5
52D1
330
4EB4
100
AcDbEntity
  8
DEFPOINTS
 62
     0
 48
10.0
100
AcDbPoint
 10
299.638407366861
 20
364.924658855353
 30
0.0
  0
POINT
  5
52D2
330
4EB4
100
AcDbEntity
  8
DEFPOINTS
 62
     0
 48
10.0
100
AcDbPoint
 10
302.638407366861
 20
364.924658855353
 30
0.0
  0
POINT
  5
52D3
330
4EB4
100
AcDbEntity
  8
DEFPOINTS
 62
     0
 48
10.0
100
AcDbPoint
 10
302.638407366861
 20
387.886035039875
 30
0.0
  0
ENDBLK
  5
4EBF
330
4EB4
100
AcDbEntity
  8
0
 48
10.0
100
AcDbBlockEnd
  0
BLOCK
  5
4ECA
330
4EC0
100
AcDbEntity
  8
0
 48
10.0
100
AcDbBlockBegin
  2
*D17
 70
     1
 10
0.0
 20
0.0
 30
0.0
  3
*D17
  1

  0
LINE
  5
54B3
330
4EC0
100
AcDbEntity
  8
寸法線
 62
     0
 48
10.0
100
AcDbLine
 10
42.721300885491
 20
317.913623667948
 30
0.0
 11
42.721300885491
 21
297.288623667948
 31
0.0
  0
LINE
  5
54B4
330
4EC0
100
AcDbEntity
  8
寸法線
 62
     0
 48
10.0
100
AcDbLine
 10
302.638407366861
 20
337.375
 30
0.0
 11
302.638407366861
 21
297.288623667948
 31
0.0
  0
LINE
  5
54B5
330
4EC0
100
AcDbEntity
  8
寸法線
 62
     0
 48
10.0
100
AcDbLine
 10
48.721300885491
 20
298.538623667948
 30
0.0
 11
296.638407366861
 21
298.538623667948
 31
0.0
  0
INSERT
  5
54B6
330
4EC0
100
AcDbEntity
  8
寸法線
 62
     0
 48
10.0
100
AcDbBlockReference
  2
_OPEN30
 10
42.721300885491
 20
298.538623667948
 30
0.0
 41
6.0
 42
6.0
 43
6.0
 50
180.0
  0
INSERT
  5
54B7
330
4EC0
100
AcDbEntity
  8
寸法線
 62
     0
 48
10.0
100
AcDbBlockReference
  2
_OPEN30
 10
302.638407366861
 20
298.538623667948
 30
0.0
 41
6.0
 42
6.0
 43
6.0
  0
MTEXT
  5
54B8
330
4EC0
100
AcDbEntity
  8
寸法線
 62
     0
 48
10.0
100
AcDbMText
 10
172.679854126176
 20
303.163623667948
 30
0.0
 40
8.0
 41
0.0
 71
     5
 72
     1
  1
\A1;　
  0
POINT
  5
54B9
330
4EC0
100
AcDbEntity
  8
DEFPOINTS
 62
     0
 48
10.0
100
AcDbPoint
 10
42.721300885491
 20
318.538623667948
 30
0.0
  0
POINT
  5
54BA
330
4EC0
100
AcDbEntity
  8
DEFPOINTS
 62
     0
 48
10.0
100
AcDbPoint
 10
302.638407366861
 20
338.0
 30
0.0
  0
POINT
  5
54BB
330
4EC0
100
AcDbEntity
  8
DEFPOINTS
 62
     0
 48
10.0
100
AcDbPoint
 10
302.638407366861
 20
298.538623667948
 30
0.0
  0
ENDBLK
  5
4ECB
330
4EC0
100
AcDbEntity
  8
0
 48
10.0
100
AcDbBlockEnd
  0
BLOCK
  5
4ED6
330
4ECC
100
AcDbEntity
  8
0
 48
10.0
100
AcDbBlockBegin
  2
*D18
 70
     1
 10
0.0
 20
0.0
 30
0.0
  3
*D18
  1

  0
LINE
  5
547B
330
4ECC
100
AcDbEntity
  8
寸法線
 62
     0
 48
10.0
100
AcDbLine
 10
42.721300885491
 20
406.789658855225
 30
0.0
 11
42.721300885491
 21
317.288623667948
 31
0.0
  0
LINE
  5
547C
330
4ECC
100
AcDbEntity
  8
寸法線
 62
     0
 48
10.0
100
AcDbLine
 10
142.721300885491
 20
405.789658855225
 30
0.0
 11
142.721300885491
 21
317.288623667948
 31
0.0
  0
LINE
  5
547D
330
4ECC
100
AcDbEntity
  8
寸法線
 62
     0
 48
10.0
100
AcDbLine
 10
48.721300885491
 20
318.538623667948
 30
0.0
 11
136.721300885491
 21
318.538623667948
 31
0.0
  0
INSERT
  5
547E
330
4ECC
100
AcDbEntity
  8
寸法線
 62
     0
 48
10.0
100
AcDbBlockReference
  2
_OPEN30
 10
42.721300885491
 20
318.538623667948
 30
0.0
 41
6.0
 42
6.0
 43
6.0
 50
180.0
  0
INSERT
  5
547F
330
4ECC
100
AcDbEntity
  8
寸法線
 62
     0
 48
10.0
100
AcDbBlockReference
  2
_OPEN30
 10
142.721300885491
 20
318.538623667948
 30
0.0
 41
6.0
 42
6.0
 43
6.0
  0
MTEXT
  5
5480
330
4ECC
100
AcDbEntity
  8
寸法線
 62
     0
 48
10.0
100
AcDbMText
 10
92.721300885491
 20
321.163623667948
 30
0.0
 40
4.0
 41
0.0
 71
     5
 72
     1
  1
\A1;1
  0
POINT
  5
5481
330
4ECC
100
AcDbEntity
  8
DEFPOINTS
 62
     0
 48
10.0
100
AcDbPoint
 10
42.721300885491
 20
407.414658855225
 30
0.0
  0
POINT
  5
5482
330
4ECC
100
AcDbEntity
  8
DEFPOINTS
 62
     0
 48
10.0
100
AcDbPoint
 10
142.721300885491
 20
406.414658855225
 30
0.0
  0
POINT
  5
5483
330
4ECC
100
AcDbEntity
  8
DEFPOINTS
 62
     0
 48
10.0
100
AcDbPoint
 10
142.721300885491
 20
318.538623667948
 30
0.0
  0
ENDBLK
  5
4ED7
330
4ECC
100
AcDbEntity
  8
0
 48
10.0
100
AcDbBlockEnd
  0
BLOCK
  5
4EEE
330
4EE4
100
AcDbEntity
  8
0
 48
10.0
100
AcDbBlockBegin
  2
*D19
 70
     1
 10
0.0
 20
0.0
 30
0.0
  3
*D19
  1

  0
LINE
  5
5498
330
4EE4
100
AcDbEntity
  8
寸法線
 62
     0
 48
10.0
100
AcDbLine
 10
192.721300885491
 20
405.789658855225
 30
0.0
 11
192.721300885491
 21
317.288623667948
 31
0.0
  0
LINE
  5
5499
330
4EE4
100
AcDbEntity
  8
寸法線
 62
     0
 48
10.0
100
AcDbLine
 10
302.638407366861
 20
337.289658855224
 30
0.0
 11
302.638407366861
 21
317.288623667948
 31
0.0
  0
LINE
  5
549A
330
4EE4
100
AcDbEntity
  8
寸法線
 62
     0
 48
10.0
100
AcDbLine
 10
198.721300885491
 20
318.538623667948
 30
0.0
 11
296.638407366861
 21
318.538623667948
 31
0.0
  0
INSERT
  5
549B
330
4EE4
100
AcDbEntity
  8
寸法線
 62
     0
 48
10.0
100
AcDbBlockReference
  2
_OPEN30
 10
192.721300885491
 20
318.538623667948
 30
0.0
 41
6.0
 42
6.0
 43
6.0
 50
180.0
  0
INSERT
  5
549C
330
4EE4
100
AcDbEntity
  8
寸法線
 62
     0
 48
10.0
100
AcDbBlockReference
  2
_OPEN30
 10
302.638407366861
 20
318.538623667948
 30
0.0
 41
6.0
 42
6.0
 43
6.0
  0
MTEXT
  5
549D
330
4EE4
100
AcDbEntity
  8
寸法線
 62
     0
 48
10.0
100
AcDbMText
 10
247.679854126176
 20
321.163623667948
 30
0.0
 40
4.0
 41
0.0
 71
     5
 72
     1
  1
\A1;3
  0
POINT
  5
549E
330
4EE4
100
AcDbEntity
  8
DEFPOINTS
 62
     0
 48
10.0
100
AcDbPoint
 10
192.721300885491
 20
406.414658855225
 30
0.0
  0
POINT
  5
549F
330
4EE4
100
AcDbEntity
  8
DEFPOINTS
 62
     0
 48
10.0
100
AcDbPoint
 10
302.638407366861
 20
337.914658855224
 30
0.0
  0
POINT
  5
54A0
330
4EE4
100
AcDbEntity
  8
DEFPOINTS
 62
     0
 48
10.0
100
AcDbPoint
 10
302.638407366861
 20
318.538623667948
 30
0.0
  0
ENDBLK
  5
4EEF
330
4EE4
100
AcDbEntity
  8
0
 48
10.0
100
AcDbBlockEnd
  0
BLOCK
  5
5344
330
533A
100
AcDbEntity
  8
0
 48
10.0
100
AcDbBlockBegin
  2
*D21
 70
     1
 10
0.0
 20
0.0
 30
0.0
  3
*D21
  1

  0
LINE
  5
533B
330
533A
100
AcDbEntity
  8
寸法線
 62
     0
 48
10.0
100
AcDbLine
 10
302.638407366861
 20
317.913623667948
 30
0.0
 11
302.638407366861
 21
297.288623667948
 31
0.0
  0
LINE
  5
533C
330
533A
100
AcDbEntity
  8
寸法線
 62
     0
 48
10.0
100
AcDbLine
 10
465.638468256273
 20
370.148554470206
 30
0.0
 11
465.638468256273
 21
297.288623667948
 31
0.0
  0
LINE
  5
533D
330
533A
100
AcDbEntity
  8
寸法線
 62
     0
 48
10.0
100
AcDbLine
 10
308.638407366861
 20
298.538623667948
 30
0.0
 11
459.638468256273
 21
298.538623667948
 31
0.0
  0
INSERT
  5
533E
330
533A
100
AcDbEntity
  8
寸法線
 62
     0
100
AcDbBlockReference
  2
_OPEN30
 10
302.638407366861
 20
298.538623667948
 30
0.0
 41
6.0
 42
6.0
 43
6.0
 50
180.0
  0
INSERT
  5
533F
330
533A
100
AcDbEntity
  8
寸法線
 62
     0
100
AcDbBlockReference
  2
_OPEN30
 10
465.638468256273
 20
298.538623667948
 30
0.0
 41
6.0
 42
6.0
 43
6.0
  0
MTEXT
  5
5340
330
533A
100
AcDbEntity
  8
寸法線
 62
     0
 48
10.0
100
AcDbMText
 10
384.138437811567
 20
303.163623667948
 30
0.0
 40
8.0
 41
0.0
 71
     5
 72
     1
  1
\A1;163
  0
POINT
  5
5341
330
533A
100
AcDbEntity
  8
DEFPOINTS
 62
     0
100
AcDbPoint
 10
302.638407366861
 20
318.538623667948
 30
0.0
  0
POINT
  5
5342
330
533A
100
AcDbEntity
  8
DEFPOINTS
 62
     0
100
AcDbPoint
 10
465.638468256273
 20
370.773554470206
 30
0.0
  0
POINT
  5
5343
330
533A
100
AcDbEntity
  8
DEFPOINTS
 62
     0
100
AcDbPoint
 10
465.638468256273
 20
298.538623667948
 30
0.0
  0
ENDBLK
  5
5345
330
533A
100
AcDbEntity
  8
0
 48
10.0
100
AcDbBlockEnd
  0
BLOCK
  5
5357
330
534D
100
AcDbEntity
  8
0
 48
10.0
100
AcDbBlockBegin
  2
*D22
 70
     1
 10
0.0
 20
0.0
 30
0.0
  3
*D22
  1

  0
LINE
  5
5472
330
534D
100
AcDbEntity
  8
寸法線
 62
     0
 48
10.0
100
AcDbLine
 10
142.721300885491
 20
403.289658855225
 30
0.0
 11
142.721300885491
 21
317.288623667948
 31
0.0
  0
LINE
  5
5473
330
534D
100
AcDbEntity
  8
寸法線
 62
     0
 48
10.0
100
AcDbLine
 10
192.721300885491
 20
403.289658855225
 30
0.0
 11
192.721300885491
 21
317.288623667948
 31
0.0
  0
LINE
  5
5474
330
534D
100
AcDbEntity
  8
寸法線
 62
     0
 48
10.0
100
AcDbLine
 10
148.721300885491
 20
318.538623667948
 30
0.0
 11
186.721300885491
 21
318.538623667948
 31
0.0
  0
INSERT
  5
5475
330
534D
100
AcDbEntity
  8
寸法線
 62
     0
 48
10.0
100
AcDbBlockReference
  2
_OPEN30
 10
142.721300885491
 20
318.538623667948
 30
0.0
 41
6.0
 42
6.0
 43
6.0
 50
180.0
  0
INSERT
  5
5476
330
534D
100
AcDbEntity
  8
寸法線
 62
     0
 48
10.0
100
AcDbBlockReference
  2
_OPEN30
 10
192.721300885491
 20
318.538623667948
 30
0.0
 41
6.0
 42
6.0
 43
6.0
  0
MTEXT
  5
5477
330
534D
100
AcDbEntity
  8
寸法線
 62
     0
 48
10.0
100
AcDbMText
 10
167.721300885491
 20
321.164017368736
 30
0.0
 40
4.0
 41
0.0
 71
     5
 72
     1
  1
\A1;2
  0
POINT
  5
5478
330
534D
100
AcDbEntity
  8
DEFPOINTS
 62
     0
 48
10.0
100
AcDbPoint
 10
142.721300885491
 20
403.914658855225
 30
0.0
  0
POINT
  5
5479
330
534D
100
AcDbEntity
  8
DEFPOINTS
 62
     0
 48
10.0
100
AcDbPoint
 10
192.721300885491
 20
403.914658855225
 30
0.0
  0
POINT
  5
547A
330
534D
100
AcDbEntity
  8
DEFPOINTS
 62
     0
 48
10.0
100
AcDbPoint
 10
192.721300885491
 20
318.538623667948
 30
0.0
  0
ENDBLK
  5
5358
330
534D
100
AcDbEntity
  8
0
 48
10.0
100
AcDbBlockEnd
  0
BLOCK
  5
53C7
330
53BD
100
AcDbEntity
  8
0
 48
10.0
100
AcDbBlockBegin
  2
*D23
 70
     1
 10
0.0
 20
0.0
 30
0.0
  3
*D23
  1

  0
LINE
  5
53D2
330
53BD
100
AcDbEntity
  8
寸法線
 62
     0
 48
10.0
100
AcDbLine
 10
299.013407366861
 20
472.5
 30
0.0
 11
279.741194313548
 21
472.5
 31
0.0
  0
LINE
  5
53D3
330
53BD
100
AcDbEntity
  8
寸法線
 62
     0
 48
10.0
100
AcDbLine
 10
299.013407366861
 20
357.5
 30
0.0
 11
279.741194313548
 21
357.5
 31
0.0
  0
LINE
  5
53D4
330
53BD
100
AcDbEntity
  8
寸法線
 62
     0
 48
10.0
100
AcDbLine
 10
280.991194313548
 20
466.5
 30
0.0
 11
280.991194313548
 21
363.5
 31
0.0
  0
MTEXT
  5
53D5
330
53BD
100
AcDbEntity
  8
寸法線
 62
     0
 48
10.0
100
AcDbMText
 10
275.136296067375
 20
439.718864803351
 30
0.0
 40
8.0
 41
0.0
 71
     5
 72
     1
  1
\A1;%%C115
 11
6.123031769111886E-17
 21
1.0
 31
0.0
  0
INSERT
  5
53D6
330
53BD
100
AcDbEntity
  8
寸法線
 62
     0
 48
10.0
100
AcDbBlockReference
  2
_OPEN30
 10
280.991194313548
 20
472.5
 30
0.0
 41
6.0
 42
6.0
 43
6.0
 50
90.0
  0
INSERT
  5
53D7
330
53BD
100
AcDbEntity
  8
寸法線
 62
     0
 48
10.0
100
AcDbBlockReference
  2
_OPEN30
 10
280.991194313548
 20
357.5
 30
0.0
 41
6.0
 42
6.0
 43
6.0
 50
270.0
  0
POINT
  5
53D8
330
53BD
100
AcDbEntity
  8
DEFPOINTS
 62
     0
 48
10.0
100
AcDbPoint
 10
299.638407366861
 20
472.5
 30
0.0
  0
POINT
  5
53D9
330
53BD
100
AcDbEntity
  8
DEFPOINTS
 62
     0
 48
10.0
100
AcDbPoint
 10
299.638407366861
 20
357.5
 30
0.0
  0
POINT
  5
53DA
330
53BD
100
AcDbEntity
  8
DEFPOINTS
 62
     0
 48
10.0
100
AcDbPoint
 10
280.991194313548
 20
357.5
 30
0.0
  0
ENDBLK
  5
53C8
330
53BD
100
AcDbEntity
  8
0
 48
10.0
100
AcDbBlockEnd
  0
BLOCK
  5
5401
330
5400
100
AcDbEntity
  8
0
 48
10.0
100
AcDbBlockBegin
  2
エル2
 70
     0
 10
0.0
 20
0.0
 30
0.0
  3
エル2
  1

  0
SPLINE
  5
5402
330
5400
100
AcDbEntity
  8
寸法線
 48
10.0
100
AcDbSpline
210
0.0
220
0.0
230
1.0
 70
  1064
 71
     3
 72
    13
 73
     9
 74
     7
 42
0.000000001
 43
0.0000000001
 44
0.0000000001
 40
0.0
 40
0.0
 40
0.0
 40
0.0
 40
1.733053107167099
 40
4.534898454324925
 40
6.793163002857423
 40
8.354986571146187
 40
9.185484699869415
 40
9.787764058431359
 40
9.787764058431359
 40
9.787764058431359
 40
9.787764058431359
 10
0.3404176863031978
 20
-0.0801601613338576
 30
0.0
 10
0.855794411263654
 20
0.157912936400826
 30
0.0
 10
2.204386155944025
 20
0.7808813373508533
 30
0.0
 10
2.529358956725083
 20
5.12979989628467
 30
0.0
 10
0.6070464993675231
 20
2.001902917601772
 30
0.0
 10
0.6912230258019734
 20
0.4140194271594778
 30
0.0
 10
1.704003608216778
 20
-0.2080419689248963
 30
0.0
 10
2.151973019543756
 20
0.0160478349734519
 30
0.0
 10
2.340280507694345
 20
0.110245757923721
 30
0.0
 11
0.3404176863031978
 21
-0.0801601613338576
 31
0.0
 11
1.721275265169794
 21
0.967076879239201
 31
0.0
 11
2.03077788643197
 21
3.751775332720619
 31
0.0
 11
0.8165758350102692
 21
1.847708067763307
 31
0.0
 11
1.030847060394152
 21
0.3006525741126325
 31
0.0
 11
1.768890963108987
 21
-0.0801601613338576
 31
0.0
 11
2.340280507694345
 21
0.110245757923721
 31
0.0
  0
ENDBLK
  5
5403
330
5400
100
AcDbEntity
  8
0
 48
10.0
100
AcDbBlockEnd
  0
ENDSEC
  0
SECTION
  2
ENTITIES
  0
LINE
  5
2E01
330
1A
100
AcDbEntity
  8
下書線
100
AcDbLine
 10
592.819108401318
 20
517.095203815478
 30
0.0
 11
-104.580891598682
 21
517.095203815478
 31
0.0
  0
LWPOLYLINE
  5
31A0
330
1A
100
AcDbEntity
  8
外形線
100
AcDbPolyline
 90
        4
 70
     1
 43
0.0
 10
347.638468256273
 20
395.950367076869
 10
350.638468256273
 20
395.950367076869
 10
350.638468256273
 20
433.950367076869
 10
347.638468256273
 20
433.950367076869
  0
MTEXT
  5
376D
330
1A
100
AcDbEntity
  8
寸法線
 48
10.0
100
AcDbMText
 10
477.90245078689
 20
319.317951790631
 30
0.0
 40
8.0
 41
0.0
 71
     7
 72
     1
  1
導線取出口\PG 1/2"
  0
MTEXT
  5
3FA2
330
1A
100
AcDbEntity
  8
寸法線
 48
10.0
100
AcDbMText
 10
373.671343860135
 20
517.095203815478
 30
0.0
 40
8.0
 41
0.0
 71
     7
 72
     1
  1
アルミ\Pダイカスト
  0
MTEXT
  5
3FA4
330
1A
100
AcDbEntity
  8
寸法線
 48
10.0
100
AcDbMText
 10
436.679812154396
 20
517.095203815478
 30
0.0
 40
8.0
 41
0.0
 71
     7
 72
     1
  1
Oリング
  0
MTEXT
  5
3FA6
330
1A
100
AcDbEntity
  8
寸法線
 48
10.0
100
AcDbMText
 10
482.014575101968
 20
517.095203815478
 30
0.0
 40
8.0
 41
0.0
 71
     7
 72
     1
  1
アルミ\Pダイカスト
  0
MTEXT
  5
3FAE
330
1A
100
AcDbEntity
  8
寸法線
 48
10.0
100
AcDbMText
 10
311.473092967809
 20
517.095203815478
 30
0.0
 40
8.0
 41
0.0
 71
     7
 72
     1
  1
フランジ\PSUS304
  0
MTEXT
  5
3FB2
330
1A
100
AcDbEntity
  8
寸法線
 48
10.0
100
AcDbMText
 10
224.665802190737
 20
517.095203815478
 30
0.0
 40
8.0
 41
0.0
 71
     9
 72
     1
  1
電極部被覆\Pテフロンチューブ
  0
LINE
  5
40E4
330
1A
100
AcDbEntity
  8
外形線
 48
10.0
100
AcDbLine
 10
316.638407366861
 20
432.451056846624
 30
0.0
 11
327.638468256273
 21
432.451056846624
 31
0.0
  0
LINE
  5
40E5
330
1A
100
AcDbEntity
  8
外形線
 48
10.0
100
AcDbLine
 10
316.638407366861
 20
397.451056846624
 30
0.0
 11
327.638468256273
 21
397.451056846624
 31
0.0
  0
DIMENSION
  5
40F3
330
1A
100
AcDbEntity
  8
寸法線
 48
10.0
100
AcDbDimension
  2
*D6
 10
327.638468256273
 20
318.538623667948
 30
0.0
 11
315.138437811567
 21
323.164411069523
 31
0.0
 70
    32
  3
ISO-25
100
AcDbAlignedDimension
 13
302.638407366861
 23
338.0
 33
0.0
 14
327.638468256273
 24
395.949677306075
 34
0.0
100
AcDbRotatedDimension
1001
ACAD
1000
DSTYLE
1002
{
1070
     5
1000
OPEN30
1070
    41
1040
6.0
1070
    47
1040
0.1
1070
    48
1040
0.1
1070
    73
1070
     0
1070
   140
1040
8.0
1070
   271
1070
     1
1070
   272
1070
     1
1070
   341
1005
2AF4
1002
}
  0
MTEXT
  5
41D6
330
1A
100
AcDbEntity
  8
寸法線
 48
10.0
100
AcDbMText
 10
273.556741663765
 20
345.634211605368
 30
0.0
 40
8.0
 41
0.0
 71
     9
 72
     1
  1
テフロンチューブ\Pに固定
  0
LINE
  5
41F7
330
1A
100
AcDbEntity
  8
中心線
 48
10.0
100
AcDbLine
 10
17.983162032784
 20
415.0
 30
0.0
 11
465.92577944926
 21
415.0
 31
0.0
  0
MTEXT
  5
4211
330
1A
100
AcDbEntity
  8
寸法線
 48
10.0
100
AcDbMText
 10
247.391540596588
 20
517.095203815478
 30
0.0
 40
8.0
 41
0.0
 71
     7
 72
     1
  1
\A1;接地電極\PSUS304
  0
MTEXT
  5
4225
330
1A
100
AcDbEntity
  8
寸法線
 48
10.0
100
AcDbMText
 10
47.985845413525
 20
517.095203815478
 30
0.0
 40
8.0
 41
0.0
 71
     9
 72
     1
  1
\A1;検知電極\PSUS304
  0
MTEXT
  5
4227
330
1A
100
AcDbEntity
  8
寸法線
 48
10.0
100
AcDbMText
 10
130.894577201465
 20
517.095203815478
 30
0.0
 40
8.0
 41
0.0
 71
     9
 72
     1
  1
\A1;絶縁体\Pポリアセタール
  0
MTEXT
  5
422D
330
1A
100
AcDbEntity
  8
寸法線
 48
10.0
100
AcDbMText
 10
-33.310071078266
 20
114.64977744657
 30
0.0
 40
8.0
 41
272.222222222222
 71
     1
 72
     5
  1
注）テフロンチューブは覆のみで固定はしていません。
1001
ACAD
1000
MTEXTBEGIN
1070
    44
1040
1.05
1000
MTEXTEND
  0
DIMENSION
  5
441B
330
1A
100
AcDbEntity
  8
寸法線
 48
10.0
100
AcDbDimension
  2
*D9
 10
494.314661562565
 20
473.0
 30
0.0
 11
494.314661562565
 21
415.0
 31
0.0
 70
   160
  1
φ<>
  3
ISO-25
100
AcDbAlignedDimension
 13
453.265057215756
 23
357.0
 33
0.0
 14
453.44754308409
 24
473.0
 34
0.0
 50
90.0
100
AcDbRotatedDimension
1001
ACAD
1000
DSTYLE
1002
{
1070
     5
1000
OPEN30
1070
    41
1040
6.0
1070
    47
1040
0.1
1070
    48
1040
0.1
1070
    73
1070
     0
1070
   140
1040
8.0
1070
   271
1070
     1
1070
   272
1070
     1
1070
   341
1005
2AF4
1002
}
  0
DIMENSION
  5
4653
330
1A
100
AcDbEntity
  8
寸法線
 48
10.0
100
AcDbDimension
  2
*D11
 10
465.638468256273
 20
318.538623667948
 30
0.0
 11
450.888468256273
 21
323.163623667948
 31
0.0
 70
    32
  1
30
  3
ISO-25
100
AcDbAlignedDimension
 13
436.138468256273
 23
351.5
 33
0.0
 14
465.638468256273
 24
370.773554470206
 34
0.0
100
AcDbRotatedDimension
1001
ACAD
1000
DSTYLE
1002
{
1070
     5
1000
OPEN30
1070
    41
1040
6.0
1070
    47
1040
0.1
1070
    48
1040
0.1
1070
    73
1070
     0
1070
   140
1040
8.0
1070
   271
1070
     1
1070
   272
1070
     1
1070
   341
1005
2AF4
1002
}
  0
DIMENSION
  5
4669
330
1A
100
AcDbEntity
  8
寸法線
 48
10.0
100
AcDbDimension
  2
*D12
 10
436.138468256273
 20
318.538623667948
 30
0.0
 11
391.888468256273
 21
323.163623667948
 31
0.0
 70
    32
  1
88
  3
ISO-25
100
AcDbAlignedDimension
 13
347.638468256273
 23
395.950367076869
 33
0.0
 14
436.138468256273
 24
351.5
 34
0.0
100
AcDbRotatedDimension
1001
ACAD
1000
DSTYLE
1002
{
1070
     5
1000
OPEN30
1070
    41
1040
6.0
1070
    47
1040
0.1
1070
    48
1040
0.1
1070
    73
1070
     0
1070
   140
1040
8.0
1070
   271
1070
     1
1070
   272
1070
     1
1070
   341
1005
2AF4
1002
}
  0
DIMENSION
  5
467F
330
1A
100
AcDbEntity
  8
寸法線
 48
10.0
100
AcDbDimension
  2
*D13
 10
347.638468256273
 20
318.538623667948
 30
0.0
 11
337.638468256273
 21
323.164411069523
 31
0.0
 70
    32
  3
ISO-25
100
AcDbAlignedDimension
 13
327.638468256273
 23
395.949677306075
 33
0.0
 14
347.638468256273
 24
395.950367076869
 34
0.0
100
AcDbRotatedDimension
1001
ACAD
1000
DSTYLE
1002
{
1070
     5
1000
OPEN30
1070
    41
1040
6.0
1070
    47
1040
0.1
1070
    48
1040
0.1
1070
    73
1070
     0
1070
   140
1040
8.0
1070
   271
1070
     1
1070
   272
1070
     1
1070
   341
1005
2AF4
1002
}
  0
LINE
  5
4AFD
330
1A
100
AcDbEntity
  8
外形線
 48
10.0
100
AcDbLine
 10
329.335479808337
 20
436.889677306075
 30
0.0
 11
345.941456704209
 21
436.889677306075
 31
0.0
  0
LINE
  5
4AFE
330
1A
100
AcDbEntity
  8
外形線
 48
10.0
100
AcDbLine
 10
327.638468256273
 20
433.950367076869
 30
0.0
 11
329.335479808337
 21
436.889677306075
 31
0.0
  0
ARC
  5
4AFF
330
1A
100
AcDbEntity
  8
細線
 48
10.0
100
AcDbCircle
 10
311.499073778505
 20
392.507697214644
 30
0.0
 40
36.303
100
AcDbArc
 50
5.441624729913
 51
18.423300686138
  0
ARC
  5
4B00
330
1A
100
AcDbEntity
  8
細線
 48
10.0
100
AcDbCircle
 10
363.777862734041
 20
392.507697214643
 30
0.0
 40
36.303
100
AcDbArc
 50
161.576699313862
 51
174.558375270087
  0
ARC
  5
4B01
330
1A
100
AcDbEntity
  8
細線
 48
10.0
100
AcDbCircle
 10
311.499073778505
 20
437.393036939095
 30
0.0
 40
36.303
100
AcDbArc
 50
341.576699313862
 51
354.558375270087
  0
ARC
  5
4B02
330
1A
100
AcDbEntity
  8
細線
 48
10.0
100
AcDbCircle
 10
363.777862734041
 20
437.393036939095
 30
0.0
 40
36.303
100
AcDbArc
 50
185.441624729913
 51
198.423300686138
  0
ARC
  5
4B03
330
1A
100
AcDbEntity
  8
細線
 48
10.0
100
AcDbCircle
 10
311.335479808338
 20
414.950367076869
 30
0.0
 40
36.30298844793518
100
AcDbArc
 50
342.412046226005
 51
17.587953773995
  0
ARC
  5
4B04
330
1A
100
AcDbEntity
  8
細線
 48
10.0
100
AcDbCircle
 10
363.941456704208
 20
414.950367076869
 30
0.0
 40
36.30298844793501
100
AcDbArc
 50
162.412046226005
 51
197.587953773995
  0
LINE
  5
4B05
330
1A
100
AcDbEntity
  8
細線
 48
10.0
100
AcDbLine
 10
329.335479808337
 20
403.980711962266
 30
0.0
 11
345.941456704209
 21
403.980711962266
 31
0.0
  0
LINE
  5
4B06
330
1A
100
AcDbEntity
  8
細線
 48
10.0
100
AcDbLine
 10
329.335479808337
 20
425.920022191472
 30
0.0
 11
345.941456704209
 21
425.920022191472
 31
0.0
  0
LINE
  5
4B07
330
1A
100
AcDbEntity
  8
外形線
 48
10.0
100
AcDbLine
 10
347.638468256273
 20
433.950367076869
 30
0.0
 11
347.638468256273
 21
395.950367076869
 31
0.0
  0
LINE
  5
4B08
330
1A
100
AcDbEntity
  8
外形線
 48
10.0
100
AcDbLine
 10
329.335479808337
 20
393.011056847663
 30
0.0
 11
327.638468256273
 21
395.950367076869
 31
0.0
  0
LINE
  5
4B09
330
1A
100
AcDbEntity
  8
外形線
 48
10.0
100
AcDbLine
 10
345.941456704209
 20
393.011056847663
 30
0.0
 11
329.335479808337
 21
393.011056847663
 31
0.0
  0
LINE
  5
4B0A
330
1A
100
AcDbEntity
  8
外形線
 48
10.0
100
AcDbLine
 10
347.638468256273
 20
395.950367076869
 30
0.0
 11
345.941456704209
 21
393.011056847663
 31
0.0
  0
LINE
  5
4B0B
330
1A
100
AcDbEntity
  8
外形線
 48
10.0
100
AcDbLine
 10
345.941456704209
 20
436.889677306075
 30
0.0
 11
347.638468256273
 21
433.950367076869
 31
0.0
  0
LINE
  5
4B0C
330
1A
100
AcDbEntity
  8
外形線
 48
10.0
100
AcDbLine
 10
327.638468256273
 20
433.950367076869
 30
0.0
 11
327.638468256273
 21
395.950367076869
 31
0.0
  0
LINE
  5
4B10
330
1A
100
AcDbEntity
  8
中心線
 48
10.0
100
AcDbLine
 10
297.138407366861
 20
480.0
 30
0.0
 11
322.138407366861
 21
480.0
 31
0.0
  0
LINE
  5
4B11
330
1A
100
AcDbEntity
  8
中心線
 48
10.0
100
AcDbLine
 10
297.138407366861
 20
350.0
 30
0.0
 11
322.138407366861
 21
350.0
 31
0.0
  0
LINE
  5
4BA8
330
1A
100
AcDbEntity
  8
隠れ線
 48
10.0
100
AcDbLine
 10
302.638407366861
 20
406.453282670702
 30
0.0
 11
302.638407366861
 21
423.453282670702
 31
0.0
  0
MTEXT
  5
4BE4
330
1A
100
AcDbEntity
  8
寸法線
 48
10.0
100
AcDbMText
 10
497.434737785087
 20
551.922474468275
 30
0.0
 40
8.0
 41
0.0
 71
     7
 72
     1
  1
塗装色：10YR7.5/14
  0
SPLINE
  5
4D82
330
1A
100
AcDbEntity
  8
寸法線
 48
10.0
100
AcDbSpline
210
0.0
220
0.0
230
1.0
 70
  1064
 71
     3
 72
    13
 73
     9
 74
     7
 42
0.000000001
 43
0.0000000001
 44
0.0000000001
 40
0.0
 40
0.0
 40
0.0
 40
0.0
 40
3.223685095176967
 40
8.435450993908116
 40
12.63609189519624
 40
15.54126966359041
 40
17.08609505184049
 40
18.20640635868945
 40
18.20640635868945
 40
18.20640635868945
 40
18.20640635868945
 10
87.57862437030906
 20
319.0760714886558
 30
0.0
 10
88.53728643310752
 20
319.5189157924777
 30
0.0
 10
91.0458276248493
 20
320.6777111811498
 30
0.0
 10
91.65031572154035
 20
328.7672174291667
 30
0.0
 10
88.07458570413439
 20
322.9489566801283
 30
0.0
 10
88.2311640643174
 20
319.9953043541571
 30
0.0
 10
90.11505651672582
 20
318.8381961025117
 30
0.0
 10
90.94833295148581
 20
319.2550298151204
 30
0.0
 10
91.29860729700403
 20
319.4302491658464
 30
0.0
 11
87.57862437030906
 21
319.0760714886558
 31
0.0
 11
90.14718385480796
 21
321.024057055198
 31
0.0
 11
90.72289557590585
 21
326.2039276903942
 31
0.0
 11
88.46433521239834
 21
322.6621359028991
 31
0.0
 11
88.86290520009146
 21
319.7844285114359
 31
0.0
 11
90.23575472151038
 21
319.0760714886558
 31
0.0
 11
91.29860729700403
 21
319.4302491658464
 31
0.0
  0
SPLINE
  5
4D83
330
1A
100
AcDbEntity
  8
寸法線
 48
10.0
100
AcDbSpline
210
0.0
220
0.0
230
1.0
 70
  1064
 71
     3
 72
    13
 73
     9
 74
     7
 42
0.000000001
 43
0.0000000001
 44
0.0000000001
 40
0.0
 40
0.0
 40
0.0
 40
0.0
 40
3.223685095176967
 40
8.435450993908116
 40
12.63609189519624
 40
15.54126966359041
 40
17.08609505184049
 40
18.20640635868945
 40
18.20640635868945
 40
18.20640635868945
 40
18.20640635868945
 10
166.300810952201
 20
299.3184665318824
 30
0.0
 10
167.2594730149995
 20
299.7613108357044
 30
0.0
 10
169.7680142067412
 20
300.9201062243764
 30
0.0
 10
170.3725023034323
 20
309.0096124723933
 30
0.0
 10
166.7967722860263
 20
303.191351723355
 30
0.0
 10
166.9533506462093
 20
300.2376993973837
 30
0.0
 10
168.8372430986178
 20
299.0805911457384
 30
0.0
 10
169.6705195333778
 20
299.4974248583471
 30
0.0
 10
170.020793878896
 20
299.672644209073
 30
0.0
 11
166.300810952201
 21
299.3184665318824
 31
0.0
 11
168.8693704366999
 21
301.2664520984247
 31
0.0
 11
169.4450821577978
 21
306.4463227336208
 31
0.0
 11
167.1865217942903
 21
302.9045309461258
 31
0.0
 11
167.5850917819834
 21
300.0268235546625
 31
0.0
 11
168.9579413034023
 21
299.3184665318824
 31
0.0
 11
170.020793878896
 21
299.672644209073
 31
0.0
  0
SPLINE
  5
4D84
330
1A
100
AcDbEntity
  8
寸法線
 48
10.0
100
AcDbSpline
210
0.0
220
0.0
230
1.0
 70
  1064
 71
     3
 72
    13
 73
     9
 74
     7
 42
0.000000001
 43
0.0000000001
 44
0.0000000001
 40
0.0
 40
0.0
 40
0.0
 40
0.0
 40
3.223685095176967
 40
8.435450993908116
 40
12.63609189519627
 40
15.54126966359045
 40
17.08609505184048
 40
18.20640635868949
 40
18.20640635868949
 40
18.20640635868949
 40
18.20640635868949
 10
241.962342074161
 20
319.161599586284
 30
0.0
 10
242.9210041369595
 20
319.6044438901059
 30
0.0
 10
245.4295453287013
 20
320.7632392787779
 30
0.0
 10
246.0340334253924
 20
328.8527455267949
 30
0.0
 10
242.4583034079862
 20
323.0344847777565
 30
0.0
 10
242.6148817681694
 20
320.0808324517852
 30
0.0
 10
244.4987742205778
 20
318.9237242001399
 30
0.0
 10
245.3320506553377
 20
319.3405579127485
 30
0.0
 10
245.682325000856
 20
319.5157772634745
 30
0.0
 11
241.962342074161
 21
319.161599586284
 31
0.0
 11
244.5309015586599
 21
321.1095851528262
 31
0.0
 11
245.1066132797578
 21
326.2894557880223
 31
0.0
 11
242.8480529162503
 21
322.7476640005273
 31
0.0
 11
243.2466229039434
 21
319.869956609064
 31
0.0
 11
244.6194724253623
 21
319.161599586284
 31
0.0
 11
245.682325000856
 21
319.5157772634745
 31
0.0
  0
LWPOLYLINE
  5
4D97
330
1A
100
AcDbEntity
  8
外形線
 48
10.0
100
AcDbPolyline
 90
        2
 70
     0
 43
0.0
 10
104.236813056175
 20
403.914658855225
 10
160.996974730737
 20
403.914658855225
  0
LWPOLYLINE
  5
4D98
330
1A
100
AcDbEntity
  8
隠れ線
 48
10.0
100
AcDbPolyline
 90
        4
 70
     0
 43
0.0
 10
105.694064065402
 20
406.414658855225
 10
142.721300885491
 20
406.414658855225
 10
142.721300885491
 20
423.414658855225
 10
102.779562046947
 20
423.414658855225
  0
LWPOLYLINE
  5
4D99
330
1A
100
AcDbEntity
  8
外形線
 48
10.0
100
AcDbPolyline
 90
        6
 70
     0
 43
0.0
 10
87.205563056174
 20
425.914658855225
 10
33.721300885491
 20
425.914658855225
 42
0.414213562373
 10
22.721300885491
 20
414.914658855225
 10
22.721300885491
 20
414.914658855225
 42
0.414213562373
 10
33.721300885491
 20
403.914658855225
 10
87.205563056174
 20
403.914658855225
  0
ARC
  5
4D9A
330
1A
100
AcDbEntity
  8
細線
 48
10.0
100
AcDbCircle
 10
80.643063056174
 20
420.414658855225
 30
0.0
 40
8.562500000000037
100
AcDbArc
 50
20.714274763078
 51
39.966213043799
  0
LINE
  5
4D9B
330
1A
100
AcDbEntity
  8
細線
 48
10.0
100
AcDbLine
 10
92.221188056175
 20
423.443282670574
 30
0.0
 11
85.759077849852
 21
423.443282670574
 31
0.0
  0
LINE
  5
4D9C
330
1A
100
AcDbEntity
  8
細線
 48
10.0
100
AcDbLine
 10
99.221188056175
 20
423.443282670574
 30
0.0
 11
102.790327849852
 21
423.443282670575
 31
0.0
  0
ARC
  5
4D9D
330
1A
100
AcDbEntity
  8
細線
 48
10.0
100
AcDbCircle
 10
110.799313056175
 20
409.414658855225
 30
0.0
 40
8.562500000000037
100
AcDbArc
 50
200.305277337843
 51
219.966213043799
  0
LINE
  5
4D9E
330
1A
100
AcDbEntity
  8
細線
 48
10.0
100
AcDbLine
 10
99.255507034365
 20
406.414658855225
 30
0.0
 11
105.704713408542
 21
406.443282670574
 31
0.0
  0
LINE
  5
4D9F
330
1A
100
AcDbEntity
  8
細線
 48
10.0
100
AcDbLine
 10
92.221188056175
 20
406.443282670574
 30
0.0
 11
88.673463408541
 21
406.443282670574
 31
0.0
  0
ARC
  5
4DA0
330
1A
100
AcDbEntity
  8
細線
 48
10.0
100
AcDbCircle
 10
80.643063056174
 20
409.414658855225
 30
0.0
 40
8.562500000000037
100
AcDbArc
 50
320.033786956201
 51
39.966213043799
  0
ARC
  5
4DA1
330
1A
100
AcDbEntity
  8
細線
 48
10.0
100
AcDbCircle
 10
97.674313056175
 20
409.414658855225
 30
0.0
 40
8.562500000000037
100
AcDbArc
 50
320.033786956201
 51
39.966213043799
  0
ARC
  5
4DA2
330
1A
100
AcDbEntity
  8
細線
 48
10.0
100
AcDbCircle
 10
88.705563056175
 20
410.693282670574
 30
0.0
 40
5.515625000000036
100
AcDbArc
 50
309.597752709046
 51
50.402247290954
  0
ARC
  5
4DA3
330
1A
100
AcDbEntity
  8
細線
 48
10.0
100
AcDbCircle
 10
95.705563056175
 20
410.693282670574
 30
0.0
 40
5.515625000000036
100
AcDbArc
 50
309.597752709046
 51
50.402247290954
  0
ARC
  5
4DA4
330
1A
100
AcDbEntity
  8
細線
 48
10.0
100
AcDbCircle
 10
102.771132034366
 20
410.664658855225
 30
0.0
 40
5.515625000000036
100
AcDbArc
 50
129.597752709046
 51
230.402247290953
  0
ARC
  5
4DA5
330
1A
100
AcDbEntity
  8
細線
 48
10.0
100
AcDbCircle
 10
95.736813056175
 20
419.193282670574
 30
0.0
 40
5.515625000000036
100
AcDbArc
 50
129.597752709046
 51
230.402247290953
  0
ARC
  5
4DA6
330
1A
100
AcDbEntity
  8
細線
 48
10.0
100
AcDbCircle
 10
88.705563056175
 20
419.193282670574
 30
0.0
 40
5.515625000000036
100
AcDbArc
 50
309.597752709046
 51
50.402247290954
  0
ARC
  5
4DA7
330
1A
100
AcDbEntity
  8
細線
 48
10.0
100
AcDbCircle
 10
93.768063056175
 20
420.414658855225
 30
0.0
 40
8.562500000000037
100
AcDbArc
 50
140.033786956201
 51
219.966213043799
  0
ARC
  5
4DA8
330
1A
100
AcDbEntity
  8
細線
 48
10.0
100
AcDbCircle
 10
102.736813056175
 20
419.193282670574
 30
0.0
 40
5.515625000000036
100
AcDbArc
 50
129.597752709046
 51
230.402247290953
  0
ARC
  5
4DA9
330
1A
100
AcDbEntity
  8
細線
 48
10.0
100
AcDbCircle
 10
110.799313056175
 20
420.414658855225
 30
0.0
 40
8.562500000000037
100
AcDbArc
 50
140.033786956201
 51
219.966213043799
  0
LWPOLYLINE
  5
4DAA
330
1A
100
AcDbEntity
  8
隠れ線
 48
10.0
100
AcDbPolyline
 90
        6
 70
     0
 43
0.0
 10
245.983327114977
 20
406.414658855225
 10
193.221300885491
 20
406.414658855225
 10
192.721300885491
 20
406.914658855225
 10
192.721300885491
 20
422.914658855225
 10
193.221300885491
 20
423.414658855225
 10
243.504391473194
 20
423.414658855225
  0
LWPOLYLINE
  5
4DAB
330
1A
100
AcDbEntity
  8
外形線
 48
10.0
100
AcDbPolyline
 90
        4
 70
     0
 43
0.0
 10
261.777784062586
 20
403.914658855225
 10
299.638407366861
 20
403.914658855225
 10
299.638407366861
 20
425.914658855225
 10
261.777784062585
 20
425.914658855225
  0
ARC
  5
4DAC
330
1A
100
AcDbEntity
  8
細線
 48
10.0
100
AcDbCircle
 10
268.340284062586
 20
409.414658855225
 30
0.0
 40
8.562500000000037
100
AcDbArc
 50
200.305277337843
 51
219.966213043799
  0
LINE
  5
4DAD
330
1A
100
AcDbEntity
  8
細線
 48
10.0
100
AcDbLine
 10
249.762159062586
 20
406.443282670574
 30
0.0
 11
246.214434414952
 21
406.443282670574
 31
0.0
  0
LINE
  5
4DAE
330
1A
100
AcDbEntity
  8
細線
 48
10.0
100
AcDbLine
 10
256.796478040776
 20
406.414658855225
 30
0.0
 11
263.245684414953
 21
406.443282670574
 31
0.0
  0
ARC
  5
4DAF
330
1A
100
AcDbEntity
  8
細線
 48
10.0
100
AcDbCircle
 10
260.312103040776
 20
410.664658855225
 30
0.0
 40
5.515625000000036
100
AcDbArc
 50
129.597752709047
 51
230.402247290953
  0
ARC
  5
4DB0
330
1A
100
AcDbEntity
  8
細線
 48
10.0
100
AcDbCircle
 10
253.246534062585
 20
410.693282670574
 30
0.0
 40
5.515625000000036
100
AcDbArc
 50
309.597752709047
 51
50.402247290953
  0
ARC
  5
4DB1
330
1A
100
AcDbEntity
  8
細線
 48
10.0
100
AcDbCircle
 10
246.246534062585
 20
410.693282670574
 30
0.0
 40
5.515625000000036
100
AcDbArc
 50
309.597752709047
 51
50.402247290953
  0
ARC
  5
4DB2
330
1A
100
AcDbEntity
  8
細線
 48
10.0
100
AcDbCircle
 10
255.215284062586
 20
409.414658855225
 30
0.0
 40
8.562500000000037
100
AcDbArc
 50
320.033786956201
 51
39.966213043799
  0
ARC
  5
4DB3
330
1A
100
AcDbEntity
  8
細線
 48
10.0
100
AcDbCircle
 10
238.184034062585
 20
409.414658855225
 30
0.0
 40
8.562500000000037
100
AcDbArc
 50
320.033786956201
 51
39.966213043799
  0
LINE
  5
4DB4
330
1A
100
AcDbEntity
  8
細線
 48
10.0
100
AcDbLine
 10
256.762159062586
 20
423.443282670574
 30
0.0
 11
260.331298856263
 21
423.443282670575
 31
0.0
  0
LINE
  5
4DB5
330
1A
100
AcDbEntity
  8
細線
 48
10.0
100
AcDbLine
 10
249.762159062586
 20
423.443282670574
 30
0.0
 11
243.300048856263
 21
423.443282670574
 31
0.0
  0
ARC
  5
4DB6
330
1A
100
AcDbEntity
  8
細線
 48
10.0
100
AcDbCircle
 10
238.184034062585
 20
420.414658855225
 30
0.0
 40
8.562500000000037
100
AcDbArc
 50
20.714274763078
 51
39.966213043799
  0
ARC
  5
4DB7
330
1A
100
AcDbEntity
  8
細線
 48
10.0
100
AcDbCircle
 10
268.340284062586
 20
420.414658855225
 30
0.0
 40
8.562500000000037
100
AcDbArc
 50
140.033786956201
 51
219.966213043799
  0
ARC
  5
4DB8
330
1A
100
AcDbEntity
  8
細線
 48
10.0
100
AcDbCircle
 10
260.277784062586
 20
419.193282670574
 30
0.0
 40
5.515625000000036
100
AcDbArc
 50
129.597752709047
 51
230.402247290953
  0
ARC
  5
4DB9
330
1A
100
AcDbEntity
  8
細線
 48
10.0
100
AcDbCircle
 10
251.309034062585
 20
420.414658855225
 30
0.0
 40
8.562500000000037
100
AcDbArc
 50
140.033786956201
 51
219.966213043799
  0
ARC
  5
4DBA
330
1A
100
AcDbEntity
  8
細線
 48
10.0
100
AcDbCircle
 10
246.246534062585
 20
419.193282670574
 30
0.0
 40
5.515625000000036
100
AcDbArc
 50
309.597752709047
 51
50.402247290953
  0
ARC
  5
4DBB
330
1A
100
AcDbEntity
  8
細線
 48
10.0
100
AcDbCircle
 10
253.277784062586
 20
419.193282670574
 30
0.0
 40
5.515625000000036
100
AcDbArc
 50
129.597752709047
 51
230.402247290953
  0
DIMENSION
  5
4E38
330
1A
100
AcDbEntity
  8
寸法線
 48
10.0
100
AcDbDimension
  2
*D14
 10
-5.917167370782
 20
403.914658855225
 30
0.0
 11
-5.917167370782
 21
441.779895075697
 31
0.0
 70
   160
  1
φ<>
  3
ISO-25
100
AcDbAlignedDimension
 13
29.865881909347
 23
425.914658855225
 33
0.0
 14
30.04858618138
 24
403.914658855225
 34
0.0
 50
90.0
100
AcDbRotatedDimension
1001
ACAD
1000
DSTYLE
1002
{
1070
     5
1000
OPEN30
1070
    41
1040
6.0
1070
    47
1040
0.1
1070
    48
1040
0.1
1070
    73
1070
     0
1070
   140
1040
8.0
1070
   271
1070
     1
1070
   272
1070
     1
1070
   341
1005
2AF4
1002
}
  0
DIMENSION
  5
4E3A
330
1A
100
AcDbEntity
  8
寸法線
 48
10.0
100
AcDbDimension
  2
*D15
 10
10.082832629218
 20
406.414658855225
 30
0.0
 11
10.082832629218
 21
438.239658855225
 31
0.0
 70
   160
  1
φ<>
  3
ISO-25
100
AcDbAlignedDimension
 13
28.31426056517
 23
423.414658855225
 33
0.0
 14
27.956974707577
 24
406.414658855225
 34
0.0
 50
90.0
100
AcDbRotatedDimension
1001
ACAD
1000
DSTYLE
1002
{
1070
     5
1000
OPEN30
1070
    41
1040
6.0
1070
    47
1040
0.1
1070
    48
1040
0.1
1070
    73
1070
     0
1070
   140
1040
8.0
1070
   271
1070
     1
1070
   272
1070
     1
1070
   341
1005
2AF4
1002
}
  0
DIMENSION
  5
4E3D
330
1A
100
AcDbEntity
  8
寸法線
 48
10.0
100
AcDbDimension
  2
*D16
 10
302.638407366861
 20
387.886035039875
 30
0.0
 11
285.247721941911
 21
387.886035039875
 31
0.0
 70
   160
  3
ISO-25
100
AcDbAlignedDimension
 13
299.638407366861
 23
364.924658855353
 33
0.0
 14
302.638407366861
 24
364.924658855353
 34
0.0
100
AcDbRotatedDimension
1001
ACAD
1000
DSTYLE
1002
{
1070
     5
1000
OPEN30
1070
    76
1070
     1
1070
    75
1070
     1
1070
    41
1040
6.0
1070
    47
1040
0.1
1070
    48
1040
0.1
1070
    73
1070
     0
1070
   140
1040
8.0
1070
   271
1070
     1
1070
   272
1070
     1
1070
   341
1005
2AF4
1002
}
  0
DIMENSION
  5
4E3F
330
1A
100
AcDbEntity
  8
寸法線
 48
10.0
100
AcDbDimension
  2
*D17
 10
302.638407366861
 20
298.538623667948
 30
0.0
 11
172.679854126176
 21
303.163623667948
 31
0.0
 70
    32
  1
　
  3
ISO-25
100
AcDbAlignedDimension
 13
42.721300885491
 23
318.538623667948
 33
0.0
 14
302.638407366861
 24
338.0
 34
0.0
100
AcDbRotatedDimension
1001
ACAD
1000
DSTYLE
1002
{
1070
     5
1000
OPEN30
1070
    41
1040
6.0
1070
    47
1040
0.1
1070
    48
1040
0.1
1070
    73
1070
     0
1070
   140
1040
8.0
1070
   271
1070
     1
1070
   272
1070
     1
1070
   341
1005
2AF4
1002
}
  0
DIMENSION
  5
4E40
330
1A
100
AcDbEntity
  8
寸法線
 48
10.0
100
AcDbDimension
  2
*D18
 10
142.721300885491
 20
318.538623667948
 30
0.0
 11
92.721300885491
 21
321.163623667948
 31
0.0
 70
    32
  1
1
  3
ISO-25
100
AcDbAlignedDimension
 13
42.721300885491
 23
407.414658855225
 33
0.0
 14
142.721300885491
 24
406.414658855225
 34
0.0
100
AcDbRotatedDimension
1001
ACAD
1000
DSTYLE
1002
{
1070
     5
1000
OPEN30
1070
    41
1040
6.0
1070
    47
1040
0.1
1070
    48
1040
0.1
1070
    73
1070
     0
1070
   140
1040
4.0
1070
   271
1070
     1
1070
   272
1070
     1
1070
   341
1005
2AF4
1002
}
  0
DIMENSION
  5
4E42
330
1A
100
AcDbEntity
  8
寸法線
 48
10.0
100
AcDbDimension
  2
*D19
 10
302.638407366861
 20
318.538623667948
 30
0.0
 11
247.679854126176
 21
321.163623667948
 31
0.0
 70
    32
  1
3
  3
ISO-25
100
AcDbAlignedDimension
 13
192.721300885491
 23
406.414658855225
 33
0.0
 14
302.638407366861
 24
337.914658855224
 34
0.0
100
AcDbRotatedDimension
1001
ACAD
1000
DSTYLE
1002
{
1070
     5
1000
OPEN30
1070
    41
1040
6.0
1070
    47
1040
0.1
1070
    48
1040
0.1
1070
    73
1070
     0
1070
   140
1040
4.0
1070
   271
1070
     1
1070
   272
1070
     1
1070
   341
1005
2AF4
1002
}
  0
LWPOLYLINE
  5
4E44
330
1A
100
AcDbEntity
  8
隠れ線
 48
10.0
100
AcDbPolyline
 90
        6
 70
     0
 43
0.0
 10
85.748312046947
 20
423.414658855225
 10
43.721300885491
 20
423.414658855225
 10
42.721300885491
 20
422.414658855225
 10
42.721300885491
 20
407.414658855225
 10
43.721300885491
 20
406.414658855225
 10
88.662814065402
 20
406.414658855225
  0
LWPOLYLINE
  5
4E45
330
1A
100
AcDbEntity
  8
隠れ線
 48
10.0
100
AcDbPolyline
 90
        4
 70
     0
 43
0.0
 10
260.320533053358
 20
423.414658855225
 10
302.638407366861
 20
423.414658855225
 10
302.638407366861
 20
406.414658855225
 10
263.235035071813
 20
406.414658855225
  0
LWPOLYLINE
  5
4E47
330
1A
100
AcDbEntity
  8
外形線
 48
10.0
100
AcDbPolyline
 90
        2
 70
     0
 43
0.0
 10
244.746534062585
 20
425.914658855225
 10
178.010520498683
 20
425.914658855225
  0
LINE
  5
5130
330
1A
100
AcDbEntity
  8
寸法線
100
AcDbLine
 10
13.01239048468
 20
168.555239583842
 30
0.0
 11
161.21239048468
 21
168.555239583842
 31
0.0
  0
LINE
  5
5131
330
1A
100
AcDbEntity
  8
寸法線
100
AcDbLine
 10
13.01239048468
 20
181.899139699272
 30
0.0
 11
161.21239048468
 21
181.899139699272
 31
0.0
  0
LINE
  5
5132
330
1A
100
AcDbEntity
  8
寸法線
100
AcDbLine
 10
13.01239048468
 20
195.243039814701
 30
0.0
 11
161.21239048468
 21
195.243039814701
 31
0.0
  0
LINE
  5
5133
330
1A
100
AcDbEntity
  8
寸法線
100
AcDbLine
 10
13.01239048468
 20
208.58693993013
 30
0.0
 11
161.21239048468
 21
208.58693993013
 31
0.0
  0
LINE
  5
5134
330
1A
100
AcDbEntity
  8
寸法線
100
AcDbLine
 10
13.01239048468
 20
221.930840045559
 30
0.0
 11
161.21239048468
 21
221.930840045559
 31
0.0
  0
LINE
  5
5135
330
1A
100
AcDbEntity
  8
寸法線
100
AcDbLine
 10
13.01239048468
 20
235.274740160989
 30
0.0
 11
161.21239048468
 21
235.274740160989
 31
0.0
  0
LINE
  5
5136
330
1A
100
AcDbEntity
  8
寸法線
 48
10.0
100
AcDbLine
 10
161.21239048468
 20
248.618640276418
 30
0.0
 11
161.21239048468
 21
168.555239583842
 31
0.0
  0
LINE
  5
5137
330
1A
100
AcDbEntity
  8
寸法線
 48
10.0
100
AcDbLine
 10
80.915086869239
 20
248.618640276418
 30
0.0
 11
80.915086869239
 21
168.555239583842
 31
0.0
  0
LINE
  5
5138
330
1A
100
AcDbEntity
  8
寸法線
 48
10.0
100
AcDbLine
 10
13.01239048468
 20
248.618640276418
 30
0.0
 11
13.01239048468
 21
168.555239583842
 31
0.0
  0
LINE
  5
5139
330
1A
100
AcDbEntity
  8
寸法線
100
AcDbLine
 10
13.01239048468
 20
248.618640276418
 30
0.0
 11
161.21239048468
 21
248.618640276418
 31
0.0
  0
MTEXT
  5
5167
102
{ACAD_XDICTIONARY
360
55A8
102
}
330
1A
100
AcDbEntity
  8
寸法線
 48
10.0
100
AcDbMText
 10
121.06373867696
 20
246.294395768833
 30
0.0
 40
8.0
 41
80.297303615441
 71
     2
 72
     5
  1
JIS5K 呼び65\PSUS304\Pφ155\Pφ130\P4-φ15\P14
1001
ACADANNOTATIVE
1000
AnnotativeData
1002
{
1070
     1
1070
     0
1002
}
  0
MTEXT
  5
5168
330
1A
100
AcDbEntity
  8
寸法線
 48
10.0
100
AcDbMText
 10
19.67506407945
 20
245.557396122252
 30
0.0
 40
8.0
 41
60.717249709215
 71
     1
 72
     5
  1
フ ラ ン ジ\P材　　　　質\Pフランジ外径\P取付穴中心径\P取　 付 　穴\P厚　　　　み
  0
ARC
  5
52E9
330
1A
100
AcDbEntity
  8
細線
 48
10.0
100
AcDbCircle
 10
184.590724730737
 20
420.414658855225
 30
0.0
 40
8.562500000000037
100
AcDbArc
 50
140.033786956201
 51
219.966213043799
  0
ARC
  5
52EA
330
1A
100
AcDbEntity
  8
細線
 48
10.0
100
AcDbCircle
 10
176.563900295329
 20
419.210071171559
 30
0.0
 40
5.551325950815908
100
AcDbArc
 50
130.764267381836
 51
230.228971261847
  0
ARC
  5
52EB
330
1A
100
AcDbEntity
  8
細線
 48
10.0
100
AcDbCircle
 10
167.559474730737
 20
420.414658855225
 30
0.0
 40
8.562500000000037
100
AcDbArc
 50
140.033786956201
 51
219.966213043799
  0
ARC
  5
52EC
330
1A
100
AcDbEntity
  8
細線
 48
10.0
100
AcDbCircle
 10
162.496974730737
 20
419.193282670574
 30
0.0
 40
5.515625000000036
100
AcDbArc
 50
309.597752709046
 51
50.402247290954
  0
ARC
  5
52ED
330
1A
100
AcDbEntity
  8
細線
 48
10.0
100
AcDbCircle
 10
169.528224730737
 20
419.193282670574
 30
0.0
 40
5.515625000000036
100
AcDbArc
 50
129.597752709046
 51
230.402247290953
  0
ARC
  5
52EE
330
1A
100
AcDbEntity
  8
細線
 48
10.0
100
AcDbCircle
 10
176.562543708928
 20
410.664658855225
 30
0.0
 40
5.515625000000036
100
AcDbArc
 50
129.597752709046
 51
230.40224729095
  0
ARC
  5
52EF
330
1A
100
AcDbEntity
  8
細線
 48
10.0
100
AcDbCircle
 10
169.531293708928
 20
410.664658855225
 30
0.0
 40
5.515625000000036
100
AcDbArc
 50
309.597752709046
 51
50.402247290954
  0
ARC
  5
52F0
330
1A
100
AcDbEntity
  8
細線
 48
10.0
100
AcDbCircle
 10
162.496974730737
 20
410.693282670574
 30
0.0
 40
5.515625000000036
100
AcDbArc
 50
309.597752709046
 51
50.402247290954
  0
ARC
  5
52F1
330
1A
100
AcDbEntity
  8
細線
 48
10.0
100
AcDbCircle
 10
171.465724730737
 20
409.414658855225
 30
0.0
 40
8.562500000000037
100
AcDbArc
 50
320.033786956201
 51
39.966213043799
  0
ARC
  5
52F2
330
1A
100
AcDbEntity
  8
細線
 48
10.0
100
AcDbCircle
 10
154.434474730737
 20
409.414658855225
 30
0.0
 40
8.562500000000037
100
AcDbArc
 50
320.033786956201
 51
39.966213043799
  0
LINE
  5
52F3
330
1A
100
AcDbEntity
  8
細線
 48
10.0
100
AcDbLine
 10
166.012599730737
 20
406.443282670574
 30
0.0
 11
162.464875083104
 21
406.443282670574
 31
0.0
  0
ARC
  5
52F5
330
1A
100
AcDbEntity
  8
細線
 48
10.0
100
AcDbCircle
 10
184.590724730737
 20
409.414658855225
 30
0.0
 40
8.562500000000037
100
AcDbArc
 50
200.509639531999
 51
219.966213043799
  0
LINE
  5
52F7
330
1A
100
AcDbEntity
  8
細線
 48
10.0
100
AcDbLine
 10
166.012599730737
 20
423.443282670574
 30
0.0
 11
159.550489524414
 21
423.443282670574
 31
0.0
  0
ARC
  5
52F8
330
1A
100
AcDbEntity
  8
細線
 48
10.0
100
AcDbCircle
 10
154.434474730737
 20
420.414658855225
 30
0.0
 40
8.562500000000037
100
AcDbArc
 50
20.714274763078
 51
39.966213043799
  0
LINE
  5
52FA
330
1A
100
AcDbEntity
  8
隠れ線
 48
10.0
100
AcDbLine
 10
192.721300885491
 20
423.414658855225
 30
0.0
 11
192.721300885491
 21
406.414658855225
 31
0.0
  0
LINE
  5
52FC
330
1A
100
AcDbEntity
  8
隠れ線
 48
10.0
100
AcDbLine
 10
143.221300885491
 20
406.414658855225
 30
0.0
 11
142.721300885491
 21
406.914658855225
 31
0.0
  0
LINE
  5
52FD
330
1A
100
AcDbEntity
  8
隠れ線
 48
10.0
100
AcDbLine
 10
142.721300885491
 20
406.914658855225
 30
0.0
 11
142.721300885491
 21
422.914658855225
 31
0.0
  0
LINE
  5
52FE
330
1A
100
AcDbEntity
  8
隠れ線
 48
10.0
100
AcDbLine
 10
142.721300885491
 20
422.914658855225
 30
0.0
 11
143.221300885491
 21
423.414658855225
 31
0.0
  0
LWPOLYLINE
  5
52FF
330
1A
100
AcDbEntity
  8
外形線
 48
10.0
100
AcDbPolyline
 90
        2
 70
     0
 43
0.0
 10
160.996974730737
 20
425.914658855225
 10
104.236813056174
 20
425.914658855225
  0
LWPOLYLINE
  5
5300
330
1A
100
AcDbEntity
  8
外形線
 48
10.0
100
AcDbPolyline
 90
        2
 70
     0
 43
0.0
 10
178.010520498683
 20
403.914658855225
 10
244.746534062585
 20
403.914658855225
  0
LINE
  5
5301
330
1A
100
AcDbEntity
  8
隠れ線
 48
10.0
100
AcDbLine
 10
192.721300885491
 20
423.414658855225
 30
0.0
 11
176.57097372151
 21
423.414658855225
 31
0.0
  0
LINE
  5
5302
330
1A
100
AcDbEntity
  8
隠れ線
 48
10.0
100
AcDbLine
 10
192.721300885491
 20
406.414658855225
 30
0.0
 11
179.485475739964
 21
406.414658855225
 31
0.0
  0
LINE
  5
5303
330
1A
100
AcDbEntity
  8
細線
 48
10.0
100
AcDbLine
 10
172.939171033361
 20
423.414658855225
 30
0.0
 11
176.57097372151
 21
423.414658855225
 31
0.0
  0
LINE
  5
5304
330
1A
100
AcDbEntity
  8
細線
 48
10.0
100
AcDbLine
 10
173.046918708928
 20
406.414658855225
 30
0.0
 11
179.485475739964
 21
406.414658855225
 31
0.0
  0
LINE
  5
5305
330
1A
100
AcDbEntity
  8
隠れ線
 48
10.0
100
AcDbLine
 10
143.221300885491
 20
423.414658855225
 30
0.0
 11
159.53972372151
 21
423.414658855225
 31
0.0
  0
LINE
  5
5306
330
1A
100
AcDbEntity
  8
隠れ線
 48
10.0
100
AcDbLine
 10
143.221300885491
 20
406.414658855225
 30
0.0
 11
162.454225739964
 21
406.414658855225
 31
0.0
  0
DIMENSION
  5
5339
330
1A
100
AcDbEntity
  8
寸法線
 48
10.0
100
AcDbDimension
  2
*D21
 10
465.638468256273
 20
298.538623667948
 30
0.0
 11
384.138437811567
 21
303.163623667948
 31
0.0
 70
    32
  3
ISO-25
100
AcDbAlignedDimension
 13
302.638407366861
 23
318.538623667948
 33
0.0
 14
465.638468256273
 24
370.773554470206
 34
0.0
100
AcDbRotatedDimension
1001
ACAD
1000
DSTYLE
1002
{
1070
     5
1000
OPEN30
1070
    41
1040
6.0
1070
    47
1040
0.1
1070
    48
1040
0.1
1070
    73
1070
     0
1070
   140
1040
8.0
1070
   271
1070
     1
1070
   272
1070
     1
1070
   341
1005
2AF4
1002
}
  0
LINE
  5
5346
330
1A
100
AcDbEntity
  8
寸法線
 48
10.0
100
AcDbLine
 10
142.721300885491
 20
405.789658855225
 30
0.0
 11
142.721300885491
 21
317.288623667948
 31
0.0
  0
LINE
  5
5347
330
1A
100
AcDbEntity
  8
寸法線
 48
10.0
100
AcDbLine
 10
192.721300885491
 20
405.789658855225
 30
0.0
 11
192.721300885491
 21
317.288623667948
 31
0.0
  0
DIMENSION
  5
534C
330
1A
100
AcDbEntity
  8
寸法線
 48
10.0
100
AcDbDimension
  2
*D22
 10
192.721300885491
 20
318.538623667948
 30
0.0
 11
167.721300885491
 21
321.164017368736
 31
0.0
 70
    32
  1
2
  3
ISO-25
100
AcDbAlignedDimension
 13
142.721300885491
 23
403.914658855225
 33
0.0
 14
192.721300885491
 24
403.914658855225
 34
0.0
100
AcDbRotatedDimension
1001
ACAD
1000
DSTYLE
1002
{
1070
     5
1000
OPEN30
1070
    41
1040
6.0
1070
    47
1040
0.1
1070
    48
1040
0.1
1070
    73
1070
     0
1070
   140
1040
4.0
1070
   271
1070
     1
1070
   272
1070
     1
1070
   341
1005
2AF4
1002
}
  0
SPLINE
  5
5362
330
1A
100
AcDbEntity
  8
寸法線
 48
10.0
100
AcDbSpline
210
0.0
220
0.0
230
1.0
 70
  1064
 71
     3
 72
    13
 73
     9
 74
     7
 42
0.000000001
 43
0.0000000001
 44
0.0000000001
 40
0.0
 40
0.0
 40
0.0
 40
0.0
 40
3.223685095176967
 40
8.435450993908116
 40
12.63609189519624
 40
15.54126966359041
 40
17.08609505184049
 40
18.20640635868945
 40
18.20640635868945
 40
18.20640635868945
 40
18.20640635868945
 10
161.8105486587214
 20
319.0760714886558
 30
0.0
 10
162.7692107215198
 20
319.5189157924777
 30
0.0
 10
165.2777519132616
 20
320.6777111811498
 30
0.0
 10
165.8822400099527
 20
328.7672174291667
 30
0.0
 10
162.3065099925467
 20
322.9489566801283
 30
0.0
 10
162.4630883527297
 20
319.9953043541571
 30
0.0
 10
164.3469808051381
 20
318.8381961025117
 30
0.0
 10
165.1802572398981
 20
319.2550298151204
 30
0.0
 10
165.5305315854163
 20
319.4302491658464
 30
0.0
 11
161.8105486587214
 21
319.0760714886558
 31
0.0
 11
164.3791081432203
 21
321.024057055198
 31
0.0
 11
164.9548198643182
 21
326.2039276903942
 31
0.0
 11
162.6962595008106
 21
322.6621359028991
 31
0.0
 11
163.0948294885038
 21
319.7844285114359
 31
0.0
 11
164.4676790099227
 21
319.0760714886558
 31
0.0
 11
165.5305315854163
 21
319.4302491658464
 31
0.0
  0
LINE
  5
5391
330
1A
100
AcDbEntity
  8
外形線
 48
10.0
100
AcDbLine
 10
303.138407366861
 20
337.5
 30
0.0
 11
316.138407366861
 21
337.5
 31
0.0
  0
LINE
  5
5392
330
1A
100
AcDbEntity
  8
外形線
 48
10.0
100
AcDbLine
 10
316.138407366861
 20
337.5
 30
0.0
 11
316.638407366861
 21
338.0
 31
0.0
  0
LINE
  5
5393
330
1A
100
AcDbEntity
  8
外形線
 48
10.0
100
AcDbLine
 10
316.638407366861
 20
338.0
 30
0.0
 11
316.638407366861
 21
492.0
 31
0.0
  0
LINE
  5
5394
330
1A
100
AcDbEntity
  8
外形線
 48
10.0
100
AcDbLine
 10
316.638407366861
 20
492.0
 30
0.0
 11
316.138407366861
 21
492.5
 31
0.0
  0
LINE
  5
5395
330
1A
100
AcDbEntity
  8
外形線
 48
10.0
100
AcDbLine
 10
316.138407366861
 20
492.5
 30
0.0
 11
303.138407366861
 21
492.5
 31
0.0
  0
LINE
  5
5396
330
1A
100
AcDbEntity
  8
外形線
 48
10.0
100
AcDbLine
 10
303.138407366861
 20
492.5
 30
0.0
 11
302.638407366861
 21
492.0
 31
0.0
  0
LINE
  5
5397
330
1A
100
AcDbEntity
  8
外形線
 48
10.0
100
AcDbLine
 10
302.638407366861
 20
492.0
 30
0.0
 11
302.638407366861
 21
338.0
 31
0.0
  0
LINE
  5
5398
330
1A
100
AcDbEntity
  8
外形線
 48
10.0
100
AcDbLine
 10
302.638407366861
 20
338.0
 30
0.0
 11
303.138407366861
 21
337.5
 31
0.0
  0
LINE
  5
53B8
330
1A
100
AcDbEntity
  8
外形線
 48
10.0
100
AcDbLine
 10
302.638407366861
 20
364.953282670702
 30
0.0
 11
302.638407366861
 21
464.953282670702
 31
0.0
  0
LINE
  5
53B9
330
1A
100
AcDbEntity
  8
外形線
 48
10.0
100
AcDbLine
 10
302.638407366861
 20
472.5
 30
0.0
 11
299.638407366861
 21
472.5
 31
0.0
  0
LINE
  5
53BA
330
1A
100
AcDbEntity
  8
外形線
 48
10.0
100
AcDbLine
 10
299.638407366861
 20
472.5
 30
0.0
 11
299.638407366861
 21
357.5
 31
0.0
  0
LINE
  5
53BB
330
1A
100
AcDbEntity
  8
外形線
 48
10.0
100
AcDbLine
 10
302.638407366861
 20
357.5
 30
0.0
 11
299.638407366861
 21
357.5
 31
0.0
  0
DIMENSION
  5
53BC
330
1A
100
AcDbEntity
  8
寸法線
 48
10.0
100
AcDbDimension
  2
*D23
 10
280.991194313548
 20
357.5
 30
0.0
 11
275.136296067375
 21
439.718864803351
 31
0.0
 70
   160
  1
%%C115
  3
ISO-25
100
AcDbAlignedDimension
 13
299.638407366861
 23
472.5
 33
0.0
 14
299.638407366861
 24
357.5
 34
0.0
 50
90.0
100
AcDbRotatedDimension
1001
ACAD
1000
DSTYLE
1002
{
1070
   287
1070
     5
1070
     5
1000
OPEN30
1070
    41
1040
6.0
1070
    47
1040
0.1
1070
    48
1040
0.1
1070
    73
1070
     0
1070
   140
1040
8.0
1070
   271
1070
     1
1070
   272
1070
     1
1070
   279
1070
     2
1070
   341
1005
2AF4
1002
}
  0
LEADER
  5
54CE
330
1A
100
AcDbEntity
  8
寸法線
 48
10.0
100
AcDbLeader
  3
ISO-25
 76
     3
 10
151.178973570139
 20
418.308377834
 30
0.0
 10
130.337299116218
 20
516.532185303031
 30
0.0
 10
122.169617018061
 20
516.532185303031
 30
0.0
1001
ACAD
1000
DSTYLE
1002
{
1070
     5
1000
DOTSMALL
1070
   147
1040
0.625
1070
    77
1070
     0
1070
    41
1040
6.0
1070
    47
1040
0.1
1070
    48
1040
0.1
1070
    73
1070
     0
1070
   140
1040
8.0
1070
   271
1070
     1
1070
   272
1070
     1
1070
   341
1005
4212
1070
   342
1005
2AF4
1002
}
  0
LEADER
  5
54CF
330
1A
100
AcDbEntity
  8
寸法線
 48
10.0
100
AcDbLeader
  3
ISO-25
 76
     3
 10
59.081309983397
 20
418.589821957571
 30
0.0
 10
47.815541868875
 20
516.813629426602
 30
0.0
 10
39.929503758452
 20
516.813629426602
 30
0.0
1001
ACAD
1000
DSTYLE
1002
{
1070
     5
1000
DOTSMALL
1070
   147
1040
0.625
1070
    77
1070
     0
1070
    41
1040
6.0
1070
    47
1040
0.1
1070
    48
1040
0.1
1070
    73
1070
     0
1070
   140
1040
8.0
1070
   271
1070
     1
1070
   272
1070
     1
1070
   341
1005
4212
1070
   342
1005
2AF4
1002
}
  0
LEADER
  5
54D0
330
1A
100
AcDbEntity
  8
寸法線
 48
10.0
100
AcDbLeader
  3
ISO-25
 76
     3
 10
223.884031227698
 20
425.901277714529
 30
0.0
 10
223.884031227698
 20
516.807552167548
 30
0.0
 10
213.744839064115
 20
516.807552167548
 30
0.0
1001
ACAD
1000
DSTYLE
1002
{
1070
     5
1000
OPEN30
1070
   147
1040
0.625
1070
    77
1070
     0
1070
    41
1040
6.0
1070
    47
1040
0.1
1070
    48
1040
0.1
1070
    73
1070
     0
1070
   140
1040
8.0
1070
   271
1070
     1
1070
   272
1070
     1
1070
   341
1005
2AF4
1070
   342
1005
2AF4
1002
}
  0
LEADER
  5
54D1
330
1A
100
AcDbEntity
  8
寸法線
 48
10.0
100
AcDbLeader
  3
ISO-25
 76
     3
 10
235.431445481239
 20
418.865187808028
 30
0.0
 10
245.00734751807
 20
516.807552167548
 30
0.0
 10
254.301607718449
 20
516.807552167548
 30
0.0
1001
ACAD
1000
DSTYLE
1002
{
1070
     5
1000
DOTSMALL
1070
   147
1040
0.625
1070
    77
1070
     0
1070
    41
1040
6.0
1070
    47
1040
0.1
1070
    48
1040
0.1
1070
    73
1070
     0
1070
   140
1040
8.0
1070
   271
1070
     1
1070
   272
1070
     1
1070
   341
1005
4212
1070
   342
1005
2AF4
1002
}
  0
LEADER
  5
54D2
330
1A
100
AcDbEntity
  8
寸法線
 48
10.0
100
AcDbLeader
  3
ISO-25
 76
     3
 10
311.539346541291
 20
492.31360522674
 30
0.0
 10
311.539346541291
 20
516.236309083537
 30
0.0
 10
321.39689471714
 20
516.236309083537
 30
0.0
1001
ACAD
1000
DSTYLE
1002
{
1070
     5
1000
OPEN30
1070
   147
1040
0.625
1070
    77
1070
     0
1070
    41
1040
6.0
1070
    47
1040
0.1
1070
    48
1040
0.1
1070
    73
1070
     0
1070
   140
1040
8.0
1070
   271
1070
     1
1070
   272
1070
     1
1070
   341
1005
2AF4
1070
   342
1005
2AF4
1002
}
  0
LEADER
  5
54D3
330
1A
100
AcDbEntity
  8
寸法線
 48
10.0
100
AcDbLeader
  3
ISO-25
 76
     3
 10
437.082467623686
 20
472.124386829881
 30
0.0
 10
437.082467623686
 20
516.798090991679
 30
0.0
 10
445.110090358257
 20
516.798090991679
 30
0.0
1001
ACAD
1000
DSTYLE
1002
{
1070
     5
1000
OPEN30
1070
   147
1040
0.625
1070
    77
1070
     0
1070
    41
1040
6.0
1070
    47
1040
0.1
1070
    48
1040
0.1
1070
    73
1070
     0
1070
   140
1040
8.0
1070
   271
1070
     1
1070
   272
1070
     1
1070
   341
1005
2AF4
1070
   342
1005
2AF4
1002
}
  0
LEADER
  5
54D4
330
1A
100
AcDbEntity
  8
寸法線
 48
10.0
100
AcDbLeader
  3
ISO-25
 76
     3
 10
384.764511596086
 20
467.421891388097
 30
0.0
 10
374.245557519665
 20
516.798090991679
 30
0.0
 10
382.82680896325
 20
516.798090991679
 30
0.0
1001
ACAD
1000
DSTYLE
1002
{
1070
     5
1000
OPEN30
1070
   147
1040
0.625
1070
    77
1070
     0
1070
    41
1040
6.0
1070
    47
1040
0.1
1070
    48
1040
0.1
1070
    73
1070
     0
1070
   140
1040
8.0
1070
   271
1070
     1
1070
   272
1070
     1
1070
   341
1005
2AF4
1070
   342
1005
2AF4
1002
}
  0
LEADER
  5
54D5
330
1A
100
AcDbEntity
  8
寸法線
 48
10.0
100
AcDbLeader
  3
ISO-25
 76
     3
 10
459.936924532105
 20
461.889729919285
 30
0.0
 10
482.082090102978
 20
516.798277578642
 30
0.0
 10
490.663343697847
 20
516.798277578642
 30
0.0
1001
ACAD
1000
DSTYLE
1002
{
1070
     5
1000
OPEN30
1070
   147
1040
0.625
1070
    77
1070
     0
1070
    41
1040
6.0
1070
    47
1040
0.1
1070
    48
1040
0.1
1070
    73
1070
     0
1070
   140
1040
8.0
1070
   271
1070
     1
1070
   272
1070
     1
1070
   341
1005
2AF4
1070
   342
1005
2AF4
1002
}
  0
LEADER
  5
54D6
330
1A
100
AcDbEntity
  8
寸法線
 48
10.0
100
AcDbLeader
  3
ISO-25
 76
     3
 10
299.234740454243
 20
376.449800412187
 30
0.0
 10
273.747847316222
 20
344.260147216709
 30
0.0
 10
261.71236904492
 20
344.260147216709
 30
0.0
1001
ACAD
1000
DSTYLE
1002
{
1070
     5
1000
OPEN30
1070
   147
1040
0.625
1070
    77
1070
     0
1070
    41
1040
6.0
1070
    47
1040
0.1
1070
    48
1040
0.1
1070
    73
1070
     0
1070
   140
1040
8.0
1070
   271
1070
     1
1070
   272
1070
     1
1070
   341
1005
2AF4
1070
   342
1005
2AF4
1002
}
  0
LEADER
  5
551D
330
1A
100
AcDbEntity
  8
寸法線
 48
10.0
100
AcDbLeader
  3
ISO-25
 76
     3
 10
418.52939396957
 20
349.849618976091
 30
0.0
 10
476.2879330215
 20
318.457338206429
 30
0.0
 10
484.935523354766
 20
318.457338206429
 30
0.0
213
-33.29929532526251
223
0.0
233
0.0
1001
ACAD
1000
DSTYLE
1002
{
1070
     5
1000
OPEN30
1070
   147
1040
0.625
1070
    77
1070
     0
1070
    41
1040
6.0
1070
    47
1040
0.1
1070
    48
1040
0.1
1070
    73
1070
     0
1070
   140
1040
8.0
1070
   271
1070
     1
1070
   272
1070
     1
1070
   341
1005
2AF4
1070
   342
1005
2AF4
1002
}
  0
LINE
  5
5619
330
1A
100
AcDbEntity
  8
寸法線
100
AcDbLine
 10
170.808406108597
 20
170.42780044146
 30
0.0
 11
644.42910861893
 21
170.42780044146
 31
0.0
  0
LINE
  5
561A
330
1A
100
AcDbEntity
  8
寸法線
100
AcDbLine
 10
198.168380458597
 20
159.267805119482
 30
0.0
 11
198.168380458597
 21
260.577617695308
 31
0.0
  0
LINE
  5
561B
330
1A
100
AcDbEntity
  8
寸法線
100
AcDbLine
 10
170.808406108597
 20
248.547767695308
 30
0.0
 11
644.42910861893
 21
248.547767695308
 31
0.0
  0
LINE
  5
561C
330
1A
100
AcDbEntity
  8
寸法線
100
AcDbLine
 10
170.808406108597
 20
260.577617695308
 30
0.0
 11
644.42910861893
 21
260.577617695308
 31
0.0
  0
LINE
  5
561D
330
1A
100
AcDbEntity
  8
寸法線
100
AcDbLine
 10
170.808406108597
 20
159.267805119482
 30
0.0
 11
170.808406108597
 21
260.577617695308
 31
0.0
  0
LINE
  5
561E
330
1A
100
AcDbEntity
  8
寸法線
100
AcDbLine
 10
379.383606220487
 20
159.267805119482
 30
0.0
 11
379.383606220487
 21
260.577617695308
 31
0.0
  0
LINE
  5
561F
330
1A
100
AcDbEntity
  8
寸法線
100
AcDbLine
 10
170.808406108597
 20
226.227777051352
 30
0.0
 11
644.42910861893
 21
226.227777051352
 31
0.0
  0
LINE
  5
5620
330
1A
100
AcDbEntity
  8
寸法線
100
AcDbLine
 10
170.808406108597
 20
215.067781729374
 30
0.0
 11
644.42910861893
 21
215.067781729374
 31
0.0
  0
LINE
  5
5621
330
1A
100
AcDbEntity
  8
寸法線
100
AcDbLine
 10
170.808406108597
 20
203.907786407396
 30
0.0
 11
644.42910861893
 21
203.907786407396
 31
0.0
  0
LINE
  5
5622
330
1A
100
AcDbEntity
  8
寸法線
100
AcDbLine
 10
170.808406108597
 20
192.747791085417
 30
0.0
 11
644.42910861893
 21
192.747791085417
 31
0.0
  0
LINE
  5
5623
330
1A
100
AcDbEntity
  8
寸法線
100
AcDbLine
 10
170.808406108597
 20
181.587795763439
 30
0.0
 11
644.42910861893
 21
181.587795763439
 31
0.0
  0
LINE
  5
5624
330
1A
100
AcDbEntity
  8
寸法線
100
AcDbLine
 10
406.535258592954
 20
159.267805119482
 30
0.0
 11
406.535258592954
 21
260.577617695308
 31
0.0
  0
LINE
  5
5625
330
1A
100
AcDbEntity
  8
寸法線
100
AcDbLine
 10
170.808406108597
 20
237.38777237333
 30
0.0
 11
644.42910861893
 21
237.38777237333
 31
0.0
  0
MTEXT
  5
5626
102
{ACAD_XDICTIONARY
360
5627
102
}
330
1A
100
AcDbEntity
  8
寸法線
 48
10.0
100
AcDbMText
 10
229.204451840647
 20
258.135069913466
 30
0.0
 40
6.84
 41
62.0721427641
 71
     2
 72
     5
  1
型式\P\W0.9;TSE-A8FA-025\PTSE-A8FA-030\PTSE-A8FA-035\PTSE-A8FA-040\PTSE-A8FA-045\PTSE-A8FA-050\PTSE-A8FA-055\PTSE-A8FA-060
1001
ACADANNOTATIVE
1000
AnnotativeData
1002
{
1070
     1
1070
     0
1002
}
1001
ACAD
1000
MTEXTBEGIN
1070
    44
1040
0.99
1000
MTEXTEND
  0
LINE
  5
562A
330
1A
100
AcDbEntity
  8
寸法線
 48
10.0
100
AcDbLine
 10
260.240523222697
 20
260.577617695308
 30
0.0
 11
260.240523222697
 21
159.267805119482
 31
0.0
  0
MTEXT
  5
562B
330
1A
100
AcDbEntity
  8
寸法線
 48
10.0
100
AcDbMText
 10
172.968911731201
 20
258.254397806659
 30
0.0
 40
6.84
 41
35.775272727273
 71
     1
 72
     5
  1
御仕様\P \P\P　
  0
SPLINE
  5
562C
330
1A
100
AcDbEntity
  8
寸法線
 48
10.0
100
AcDbSpline
210
0.0
220
0.0
230
1.0
 70
  1064
 71
     3
 72
    13
 73
     9
 74
     7
 42
0.000000001
 43
0.0000000001
 44
0.0000000001
 40
0.0
 40
0.0
 40
0.0
 40
0.0
 40
3.031875832013966
 40
7.933541659770573
 40
11.884244427432
 40
14.61656411860671
 40
16.0694723962559
 40
17.12312518034738
 40
17.12312518034738
 40
17.12312518034738
 40
17.12312518034738
 10
267.7879453925778
 20
251.2741709119569
 30
0.0
 10
268.6895670626398
 20
251.6906659797015
 30
0.0
 10
271.0488500534729
 20
252.7805130427474
 30
0.0
 10
271.6173711084107
 20
260.3886936690073
 30
0.0
 10
268.2543970270405
 20
254.9166194345368
 30
0.0
 10
268.4016589747928
 20
252.1387094219609
 30
0.0
 10
270.1734598262827
 20
251.0504491112883
 30
0.0
 10
270.9571563131745
 20
251.4424812179969
 30
0.0
 10
271.2865893351344
 20
251.6072750173547
 30
0.0
 11
267.7879453925778
 21
251.2741709119569
 31
0.0
 11
270.203675587749
 21
253.1062513372898
 31
0.0
 11
270.7451324614415
 21
257.9779196696918
 31
0.0
 11
268.6209564395627
 21
254.6468644935527
 31
0.0
 11
268.9958115129882
 21
251.9403806918816
 31
0.0
 11
270.2869764878826
 21
251.2741709119569
 31
0.0
 11
271.2865893351344
 21
251.6072750173547
 31
0.0
  0
SPLINE
  5
562D
330
1A
100
AcDbEntity
  8
寸法線
 48
10.0
100
AcDbSpline
210
0.0
220
0.0
230
1.0
 70
  1064
 71
     3
 72
    13
 73
     9
 74
     7
 42
0.000000001
 43
0.0000000001
 44
0.0000000001
 40
0.0
 40
0.0
 40
0.0
 40
0.0
 40
3.031875832013966
 40
7.933541659770579
 40
11.88424442743204
 40
14.61656411860675
 40
16.06947239625599
 40
17.12312518034746
 40
17.12312518034746
 40
17.12312518034746
 40
17.12312518034746
 10
290.3812195963902
 20
251.2741709119569
 30
0.0
 10
291.2828412664522
 20
251.6906659797015
 30
0.0
 10
293.6421242572853
 20
252.7805130427475
 30
0.0
 10
294.2106453122233
 20
260.3886936690073
 30
0.0
 10
290.8476712308531
 20
254.916619434537
 30
0.0
 10
290.9949331786049
 20
252.1387094219608
 30
0.0
 10
292.7667340300952
 20
251.0504491112883
 30
0.0
 10
293.550430516987
 20
251.4424812179968
 30
0.0
 10
293.8798635389469
 20
251.6072750173547
 30
0.0
 11
290.3812195963902
 21
251.2741709119569
 31
0.0
 11
292.7969497915615
 21
253.1062513372898
 31
0.0
 11
293.338406665254
 21
257.9779196696918
 31
0.0
 11
291.2142306433752
 21
254.6468644935527
 31
0.0
 11
291.5890857168006
 21
251.9403806918816
 31
0.0
 11
292.8802506916951
 21
251.2741709119569
 31
0.0
 11
293.8798635389469
 21
251.6072750173547
 31
0.0
  0
LINE
  5
5632
330
1A
100
AcDbEntity
  8
寸法線
 48
10.0
100
AcDbLine
 10
281.989642783774
 20
260.577617695308
 30
0.0
 11
281.989642783774
 21
159.267805119482
 31
0.0
  0
LINE
  5
5633
330
1A
100
AcDbEntity
  8
寸法線
 48
10.0
100
AcDbLine
 10
304.091884509246
 20
260.577617695308
 30
0.0
 11
304.091884509246
 21
159.267805119482
 31
0.0
  0
LINE
  5
5634
330
1A
100
AcDbEntity
  8
寸法線
 48
10.0
100
AcDbLine
 10
324.325105635015
 20
260.577617695308
 30
0.0
 11
324.325105635015
 21
159.267805119482
 31
0.0
  0
LINE
  5
5635
330
1A
100
AcDbEntity
  8
寸法線
 48
10.0
100
AcDbLine
 10
346.427347360487
 20
260.577617695308
 30
0.0
 11
346.427347360487
 21
159.267805119482
 31
0.0
  0
TEXT
  5
5636
330
1A
100
AcDbEntity
  8
寸法線
 48
10.0
100
AcDbText
 10
295.902834218239
 20
251.346271129096
 30
0.0
 40
4.446
  1
1
100
AcDbText
  0
SPLINE
  5
5637
330
1A
100
AcDbEntity
  8
寸法線
 48
10.0
100
AcDbSpline
210
0.0
220
0.0
230
1.0
 70
  1064
 71
     3
 72
    13
 73
     9
 74
     7
 42
0.000000001
 43
0.0000000001
 44
0.0000000001
 40
0.0
 40
0.0
 40
0.0
 40
0.0
 40
3.031875832013966
 40
7.933541659770579
 40
11.88424442743201
 40
14.61656411860671
 40
16.06947239625595
 40
17.12312518034743
 40
17.12312518034743
 40
17.12312518034743
 40
17.12312518034743
 10
310.6144407221584
 20
251.2741709119569
 30
0.0
 10
311.5160623922204
 20
251.6906659797015
 30
0.0
 10
313.8753453830536
 20
252.7805130427475
 30
0.0
 10
314.4438664379915
 20
260.3886936690073
 30
0.0
 10
311.080892356621
 20
254.9166194345367
 30
0.0
 10
311.2281543043733
 20
252.138709421961
 30
0.0
 10
312.9999551558634
 20
251.0504491112883
 30
0.0
 10
313.7836516427552
 20
251.4424812179968
 30
0.0
 10
314.1130846647151
 20
251.6072750173547
 30
0.0
 11
310.6144407221584
 21
251.2741709119569
 31
0.0
 11
313.0301709173297
 21
253.1062513372898
 31
0.0
 11
313.5716277910222
 21
257.9779196696918
 31
0.0
 11
311.4474517691434
 21
254.6468644935527
 31
0.0
 11
311.8223068425688
 21
251.9403806918816
 31
0.0
 11
313.1134718174633
 21
251.2741709119569
 31
0.0
 11
314.1130846647151
 21
251.6072750173547
 31
0.0
  0
TEXT
  5
5638
330
1A
100
AcDbEntity
  8
寸法線
 48
10.0
100
AcDbText
 10
316.136055344007
 20
251.346271129096
 30
0.0
 40
4.446
  1
2
100
AcDbText
  0
TEXT
  5
5639
330
1A
100
AcDbEntity
  8
寸法線
 48
10.0
100
AcDbText
 10
338.23829706948
 20
251.346271129096
 30
0.0
 40
4.446
  1
3
100
AcDbText
  0
SPLINE
  5
563A
330
1A
100
AcDbEntity
  8
寸法線
 48
10.0
100
AcDbSpline
210
0.0
220
0.0
230
1.0
 70
  1064
 71
     3
 72
    13
 73
     9
 74
     7
 42
0.000000001
 43
0.0000000001
 44
0.0000000001
 40
0.0
 40
0.0
 40
0.0
 40
0.0
 40
3.031875832013966
 40
7.933541659770579
 40
11.88424442743201
 40
14.61656411860671
 40
16.06947239625595
 40
17.12312518034743
 40
17.12312518034743
 40
17.12312518034743
 40
17.12312518034743
 10
332.7166824476311
 20
251.2741709119569
 30
0.0
 10
333.6183041176931
 20
251.6906659797015
 30
0.0
 10
335.9775871085263
 20
252.7805130427475
 30
0.0
 10
336.5461081634641
 20
260.3886936690073
 30
0.0
 10
333.1831340820937
 20
254.9166194345367
 30
0.0
 10
333.330396029846
 20
252.138709421961
 30
0.0
 10
335.102196881336
 20
251.0504491112883
 30
0.0
 10
335.8858933682278
 20
251.4424812179968
 30
0.0
 10
336.2153263901877
 20
251.6072750173547
 30
0.0
 11
332.7166824476311
 21
251.2741709119569
 31
0.0
 11
335.1324126428023
 21
253.1062513372898
 31
0.0
 11
335.6738695164948
 21
257.9779196696918
 31
0.0
 11
333.5496934946161
 21
254.6468644935527
 31
0.0
 11
333.9245485680414
 21
251.9403806918816
 31
0.0
 11
335.2157135429359
 21
251.2741709119569
 31
0.0
 11
336.2153263901877
 21
251.6072750173547
 31
0.0
  0
MTEXT
  5
563B
330
1A
100
AcDbEntity
  8
寸法線
 48
10.0
100
AcDbMText
 10
355.13015530039
 20
257.826383597696
 30
0.0
 40
6.84
 41
16.520176873206
 71
     1
 72
     5
  1
記事
  0
MTEXT
  5
563C
330
1A
100
AcDbEntity
  8
寸法線
 48
10.0
100
AcDbMText
 10
385.64222539618
 20
257.826383597696
 30
0.0
 40
6.84
 41
23.338909090909
 71
     1
 72
     5
  1
台数\P\P 
  0
LINE
  5
563D
330
1A
100
AcDbEntity
  8
寸法線
100
AcDbLine
 10
408.702256134572
 20
159.267805119482
 30
0.0
 11
408.702256134572
 21
260.577617695308
 31
0.0
  0
MTEXT
  5
563E
330
1A
100
AcDbEntity
  8
寸法線
 48
10.0
100
AcDbMText
 10
410.862761757177
 20
257.826383597696
 30
0.0
 40
6.84
 41
23.361300795726
 71
     1
 72
     5
  1
御仕様
  0
MTEXT
  5
563F
102
{ACAD_XDICTIONARY
360
5640
102
}
330
1A
100
AcDbEntity
  8
寸法線
 48
10.0
100
AcDbMText
 10
466.329902462615
 20
258.135069913466
 30
0.0
 40
6.84
 41
60.535343956085
 71
     2
 72
     5
  1
型式\P\W0.9;TSE-A8FA-065\PTSE-A8FA-070\PTSE-A8FA-075\PTSE-A8FA-080\PTSE-A8FA-085\PTSE-A8FA-090\PTSE-A8FA-095\PTSE-A8FA-100
1001
ACADANNOTATIVE
1000
AnnotativeData
1002
{
1070
     1
1070
     0
1002
}
1001
ACAD
1000
MTEXTBEGIN
1070
    44
1040
0.99
1000
MTEXTEND
  0
SPLINE
  5
5643
330
1A
100
AcDbEntity
  8
寸法線
 48
10.0
100
AcDbSpline
210
0.0
220
0.0
230
1.0
 70
  1064
 71
     3
 72
    13
 73
     9
 74
     7
 42
0.000000001
 43
0.0000000001
 44
0.0000000001
 40
0.0
 40
0.0
 40
0.0
 40
0.0
 40
3.031875832013966
 40
7.933541659770573
 40
11.88424442743203
 40
14.61656411860673
 40
16.06947239625597
 40
17.12312518034745
 40
17.12312518034745
 40
17.12312518034745
 40
17.12312518034745
 10
505.6817954185537
 20
251.2741709119569
 30
0.0
 10
506.5834170886158
 20
251.6906659797015
 30
0.0
 10
508.9427000794489
 20
252.7805130427474
 30
0.0
 10
509.5112211343865
 20
260.3886936690072
 30
0.0
 10
506.1482470530165
 20
254.9166194345369
 30
0.0
 10
506.2955090007687
 20
252.138709421961
 30
0.0
 10
508.0673098522585
 20
251.0504491112883
 30
0.0
 10
508.8510063391504
 20
251.4424812179968
 30
0.0
 10
509.1804393611103
 20
251.6072750173547
 30
0.0
 11
505.6817954185537
 21
251.2741709119569
 31
0.0
 11
508.097525613725
 21
253.1062513372898
 31
0.0
 11
508.6389824874175
 21
257.9779196696918
 31
0.0
 11
506.5148064655386
 21
254.6468644935527
 31
0.0
 11
506.889661538964
 21
251.9403806918816
 31
0.0
 11
508.1808265138585
 21
251.2741709119569
 31
0.0
 11
509.1804393611103
 21
251.6072750173547
 31
0.0
  0
SPLINE
  5
5644
330
1A
100
AcDbEntity
  8
寸法線
 48
10.0
100
AcDbSpline
210
0.0
220
0.0
230
1.0
 70
  1064
 71
     3
 72
    13
 73
     9
 74
     7
 42
0.000000001
 43
0.0000000001
 44
0.0000000001
 40
0.0
 40
0.0
 40
0.0
 40
0.0
 40
3.031875832013966
 40
7.933541659770586
 40
11.88424442743205
 40
14.61656411860676
 40
16.0694723962559
 40
17.12312518034727
 40
17.12312518034727
 40
17.12312518034727
 40
17.12312518034727
 10
526.4060490226616
 20
251.2741709119569
 30
0.0
 10
527.3076706927235
 20
251.6906659797014
 30
0.0
 10
529.6669536835567
 20
252.7805130427475
 30
0.0
 10
530.2354747384948
 20
260.3886936690072
 30
0.0
 10
526.8725006571242
 20
254.9166194345368
 30
0.0
 10
527.0197626048767
 20
252.138709421961
 30
0.0
 10
528.7915634563665
 20
251.0504491112883
 30
0.0
 10
529.5752599432583
 20
251.4424812179968
 30
0.0
 10
529.9046929652181
 20
251.6072750173547
 30
0.0
 11
526.4060490226616
 21
251.2741709119569
 31
0.0
 11
528.8217792178328
 21
253.1062513372898
 31
0.0
 11
529.3632360915254
 21
257.9779196696918
 31
0.0
 11
527.2390600696466
 21
254.6468644935527
 31
0.0
 11
527.6139151430721
 21
251.9403806918816
 31
0.0
 11
528.9050801179665
 21
251.2741709119569
 31
0.0
 11
529.9046929652181
 21
251.6072750173547
 31
0.0
  0
TEXT
  5
5645
330
1A
100
AcDbEntity
  8
寸法線
 48
10.0
100
AcDbText
 10
531.927663644511
 20
251.346271129096
 30
0.0
 40
4.446
  1
1
100
AcDbText
  0
SPLINE
  5
5646
330
1A
100
AcDbEntity
  8
寸法線
 48
10.0
100
AcDbSpline
210
0.0
220
0.0
230
1.0
 70
  1064
 71
     3
 72
    13
 73
     9
 74
     7
 42
0.000000001
 43
0.0000000001
 44
0.0000000001
 40
0.0
 40
0.0
 40
0.0
 40
0.0
 40
3.031875832013966
 40
7.933541659770561
 40
11.88424442743196
 40
14.61656411860669
 40
16.06947239625583
 40
17.1231251803472
 40
17.1231251803472
 40
17.1231251803472
 40
17.1231251803472
 10
548.5082907481343
 20
251.2741709119569
 30
0.0
 10
549.4099124181962
 20
251.6906659797014
 30
0.0
 10
551.7691954090294
 20
252.7805130427473
 30
0.0
 10
552.3377164639671
 20
260.3886936690073
 30
0.0
 10
548.9747423825968
 20
254.9166194345368
 30
0.0
 10
549.1220043303492
 20
252.1387094219609
 30
0.0
 10
550.8938051818392
 20
251.0504491112883
 30
0.0
 10
551.6775016687311
 20
251.4424812179969
 30
0.0
 10
552.0069346906909
 20
251.6072750173547
 30
0.0
 11
548.5082907481343
 21
251.2741709119569
 31
0.0
 11
550.9240209433055
 21
253.1062513372898
 31
0.0
 11
551.4654778169979
 21
257.9779196696918
 31
0.0
 11
549.3413017951192
 21
254.6468644935527
 31
0.0
 11
549.7161568685448
 21
251.9403806918816
 31
0.0
 11
551.0073218434392
 21
251.2741709119569
 31
0.0
 11
552.0069346906909
 21
251.6072750173547
 31
0.0
  0
TEXT
  5
5647
330
1A
100
AcDbEntity
  8
寸法線
 48
10.0
100
AcDbText
 10
554.029905369983
 20
251.346271129096
 30
0.0
 40
4.446
  1
2
100
AcDbText
  0
SPLINE
  5
5648
330
1A
100
AcDbEntity
  8
寸法線
 48
10.0
100
AcDbSpline
210
0.0
220
0.0
230
1.0
 70
  1064
 71
     3
 72
    13
 73
     9
 74
     7
 42
0.000000001
 43
0.0000000001
 44
0.0000000001
 40
0.0
 40
0.0
 40
0.0
 40
0.0
 40
3.031875832013966
 40
7.933541659770586
 40
11.88424442743199
 40
14.61656411860667
 40
16.06947239625581
 40
17.12312518034739
 40
17.12312518034739
 40
17.12312518034739
 40
17.12312518034739
 10
570.6105324736069
 20
251.2741709119569
 30
0.0
 10
571.5121541436688
 20
251.6906659797014
 30
0.0
 10
573.871437134502
 20
252.7805130427474
 30
0.0
 10
574.43995818944
 20
260.3886936690074
 30
0.0
 10
571.0769841080698
 20
254.9166194345368
 30
0.0
 10
571.2242460558216
 20
252.1387094219609
 30
0.0
 10
572.9960469073119
 20
251.0504491112882
 30
0.0
 10
573.7797433942037
 20
251.4424812179969
 30
0.0
 10
574.1091764161636
 20
251.6072750173547
 30
0.0
 11
570.6105324736069
 21
251.2741709119569
 31
0.0
 11
573.0262626687781
 21
253.1062513372898
 31
0.0
 11
573.5677195424707
 21
257.9779196696918
 31
0.0
 11
571.443543520592
 21
254.6468644935527
 31
0.0
 11
571.8183985940173
 21
251.9403806918816
 31
0.0
 11
573.1095635689117
 21
251.2741709119569
 31
0.0
 11
574.1091764161636
 21
251.6072750173547
 31
0.0
  0
TEXT
  5
5649
330
1A
100
AcDbEntity
  8
寸法線
 48
10.0
100
AcDbText
 10
576.132147095456
 20
251.346271129096
 30
0.0
 40
4.446
  1
3
100
AcDbText
  0
MTEXT
  5
564A
330
1A
100
AcDbEntity
  8
寸法線
 48
10.0
100
AcDbMText
 10
593.024005326366
 20
257.826383597696
 30
0.0
 40
6.84
 41
16.520176873206
 71
     1
 72
     5
  1
記事
  0
MTEXT
  5
564B
330
1A
100
AcDbEntity
  8
寸法線
 48
10.0
100
AcDbMText
 10
623.536075422156
 20
257.826383597696
 30
0.0
 40
6.84
 41
16.520176873206
 71
     1
 72
     5
  1
台数
  0
LINE
  5
5650
330
1A
100
AcDbEntity
  8
寸法線
100
AcDbLine
 10
436.062230484572
 20
159.267805119482
 30
0.0
 11
436.062230484572
 21
260.577617695308
 31
0.0
  0
LINE
  5
5651
330
1A
100
AcDbEntity
  8
寸法線
 48
10.0
100
AcDbLine
 10
496.597574440657
 20
260.577617695308
 30
0.0
 11
496.597574440657
 21
159.267805119482
 31
0.0
  0
LINE
  5
5652
330
1A
100
AcDbEntity
  8
寸法線
 48
10.0
100
AcDbLine
 10
519.571989376465
 20
260.577617695308
 30
0.0
 11
519.571989376465
 21
159.267805119482
 31
0.0
  0
LINE
  5
5653
330
1A
100
AcDbEntity
  8
寸法線
 48
10.0
100
AcDbLine
 10
541.899645129575
 20
260.577617695308
 30
0.0
 11
541.899645129575
 21
159.267805119482
 31
0.0
  0
LINE
  5
5654
330
1A
100
AcDbEntity
  8
寸法線
 48
10.0
100
AcDbLine
 10
562.21895566099
 20
260.577617695308
 30
0.0
 11
562.21895566099
 21
159.267805119482
 31
0.0
  0
LINE
  5
5655
330
1A
100
AcDbEntity
  8
寸法線
 48
10.0
100
AcDbLine
 10
584.321197386463
 20
260.577617695308
 30
0.0
 11
584.321197386463
 21
159.267805119482
 31
0.0
  0
LINE
  5
5656
330
1A
100
AcDbEntity
  8
寸法線
100
AcDbLine
 10
617.277456246463
 20
159.267805119482
 30
0.0
 11
617.277456246463
 21
260.577617695308
 31
0.0
  0
LINE
  5
5657
330
1A
100
AcDbEntity
  8
寸法線
100
AcDbLine
 10
644.42910861893
 20
159.267805119482
 30
0.0
 11
644.42910861893
 21
260.577617695308
 31
0.0
  0
TEXT
  5
5658
330
1A
100
AcDbEntity
  8
寸法線
 48
10.0
100
AcDbText
 10
506.528180988926
 20
148.042234709291
 30
0.0
 40
6.84
  1
○印が今回の貴社の御仕様です。
100
AcDbText
  0
LINE
  5
565A
330
1A
100
AcDbEntity
  8
寸法線
100
AcDbLine
 10
170.808406108597
 20
159.267805119482
 30
0.0
 11
644.42910861893
 21
159.267805119482
 31
0.0
  0
ARC
  5
5662
330
1A
100
AcDbEntity
  8
隠れ線
 48
10.0
100
AcDbCircle
 10
33.721300885491
 20
415.0
 30
0.0
 40
8.4146588552249
100
AcDbArc
 50
90.0
 51
270.0
  0
LINE
  5
5663
330
1A
100
AcDbEntity
  8
隠れ線
 48
10.0
100
AcDbLine
 10
43.721300885491
 20
423.414658855225
 30
0.0
 11
33.721300885491
 21
423.414658855225
 31
0.0
  0
LINE
  5
5664
330
1A
100
AcDbEntity
  8
隠れ線
 48
10.0
100
AcDbLine
 10
43.721300885491
 20
406.414658855225
 30
0.0
 11
33.721300885491
 21
406.585341144775
 31
0.0
  0
ARC
  5
566D
330
1A
100
AcDbEntity
  8
外形線
 48
10.0
100
AcDbCircle
 10
351.638468256273
 20
393.725999446335
 30
0.0
 40
1.0
100
AcDbArc
 50
180.0
 51
268.999999999998
  0
ARC
  5
566E
330
1A
100
AcDbEntity
  8
外形線
 48
10.0
100
AcDbCircle
 10
351.638468256273
 20
436.274000553665
 30
0.0
 40
1.0
100
AcDbArc
 50
91.000000000002
 51
180.0
  0
LINE
  5
566F
330
1A
100
AcDbEntity
  8
外形線
 48
10.0
100
AcDbLine
 10
350.638468256273
 20
436.274000553665
 30
0.0
 11
350.638468256273
 21
393.725999446335
 31
0.0
  0
LINE
  5
5670
330
1A
100
AcDbEntity
  8
外形線
 48
10.0
100
AcDbLine
 10
364.766251097342
 20
438.2580781044
 30
0.0
 11
371.01868434141
 21
463.335218147912
 31
0.0
  0
ARC
  5
5671
330
1A
100
AcDbEntity
  8
外形線
 48
10.0
100
AcDbCircle
 10
375.87016297279
 20
462.125608669914
 30
0.0
 40
5.0
100
AcDbArc
 50
91.3
 51
166.000000000005
  0
ARC
  5
5672
330
1A
100
AcDbEntity
  8
外形線
 48
10.0
100
AcDbCircle
 10
363.795955371066
 20
438.5
 30
0.0
 40
1.0
100
AcDbArc
 50
270.0
 51
346.000000000009
  0
ARC
  5
5673
330
1A
100
AcDbEntity
  8
外形線
 48
10.0
100
AcDbCircle
 10
363.795955371066
 20
438.5
 30
0.0
 40
1.0
100
AcDbArc
 50
270.0
 51
346.000000000009
  0
LINE
  5
5674
330
1A
100
AcDbEntity
  8
外形線
 48
10.0
100
AcDbLine
 10
351.621015849836
 20
437.273848248822
 30
0.0
 11
363.795955371066
 21
437.5
 31
0.0
  0
ARC
  5
5675
330
1A
100
AcDbEntity
  8
外形線
 48
10.0
100
AcDbCircle
 10
452.639507485975
 20
472.249448592553
 30
0.0
 40
0.5
100
AcDbArc
 50
359.999254274577
 51
88.999999999998
  0
ARC
  5
5676
330
1A
100
AcDbEntity
  8
細線
 48
10.0
100
AcDbCircle
 10
453.638468256273
 20
428.133041751469
 30
0.0
 40
0.5
100
AcDbArc
 50
180.0
 51
264.089361084594
  0
ARC
  5
5677
330
1A
100
AcDbEntity
  8
外形線
 48
10.0
100
AcDbCircle
 10
453.638468256273
 20
420.758651368442
 30
0.0
 40
0.5
100
AcDbArc
 50
91.000000000002
 51
180.0
  0
ARC
  5
5678
330
1A
100
AcDbEntity
  8
細線
 48
10.0
100
AcDbCircle
 10
453.638468256273
 20
428.391860796571
 30
0.0
 40
0.5
100
AcDbArc
 50
180.0
 51
264.089361084594
  0
ARC
  5
5679
330
1A
100
AcDbEntity
  8
細線
 48
10.0
100
AcDbCircle
 10
453.638468256273
 20
450.026426164173
 30
0.0
 40
0.5
100
AcDbArc
 50
180.0
 51
254.206830951723
  0
ARC
  5
567A
330
1A
100
AcDbEntity
  8
細線
 48
10.0
100
AcDbCircle
 10
453.638468256273
 20
450.733532945359
 30
0.0
 40
0.5
100
AcDbArc
 50
180.0
 51
254.206830951723
  0
ARC
  5
567B
330
1A
100
AcDbEntity
  8
細線
 48
10.0
100
AcDbCircle
 10
453.638468256273
 20
462.673203184429
 30
0.0
 40
0.5
100
AcDbArc
 50
180.0
 51
248.874947125992
  0
ARC
  5
567C
330
1A
100
AcDbEntity
  8
細線
 48
10.0
100
AcDbCircle
 10
453.638468256273
 20
463.639129010718
 30
0.0
 40
0.5
100
AcDbArc
 50
180.0
 51
248.874947125992
  0
ARC
  5
567D
330
1A
100
AcDbEntity
  8
外形線
 48
10.0
100
AcDbCircle
 10
453.638356178354
 20
464.945295453096
 30
0.0
 40
0.5
100
AcDbArc
 50
180.019033969441
 51
248.025023881981
  0
LINE
  5
567E
330
1A
100
AcDbEntity
  8
外形線
 48
10.0
100
AcDbLine
 10
453.138468256273
 20
463.639129010718
 30
0.0
 11
453.138468256273
 21
464.607837082461
 31
0.0
  0
LINE
  5
567F
330
1A
100
AcDbEntity
  8
外形線
 48
10.0
100
AcDbLine
 10
453.138468256273
 20
462.673203184429
 30
0.0
 11
453.138468256273
 21
463.296291314452
 31
0.0
  0
LINE
  5
5680
330
1A
100
AcDbEntity
  8
外形線
 48
10.0
100
AcDbLine
 10
453.138468256273
 20
450.733532945359
 30
0.0
 11
453.138468256273
 21
462.330365488163
 31
0.0
  0
LINE
  5
5681
330
1A
100
AcDbEntity
  8
外形線
 48
10.0
100
AcDbLine
 10
453.138468256273
 20
450.026426164173
 30
0.0
 11
453.138468256273
 21
450.355339059326
 31
0.0
  0
LINE
  5
5682
330
1A
100
AcDbEntity
  8
外形線
 48
10.0
100
AcDbLine
 10
453.138468256273
 20
428.391860796571
 30
0.0
 11
453.138468256273
 21
450.733532945359
 31
0.0
  0
LINE
  5
5683
330
1A
100
AcDbEntity
  8
外形線
 48
10.0
100
AcDbLine
 10
453.138468256273
 20
428.133041751469
 30
0.0
 11
453.138468256273
 21
429.013368235566
 31
0.0
  0
LINE
  5
5684
330
1A
100
AcDbEntity
  8
外形線
 48
10.0
100
AcDbLine
 10
453.138468256273
 20
420.758651368442
 30
0.0
 11
453.138468256273
 21
428.391860796571
 31
0.0
  0
ARC
  5
5685
330
1A
100
AcDbEntity
  8
外形線
 48
10.0
100
AcDbCircle
 10
453.638468256273
 20
409.241348631558
 30
0.0
 40
0.5
100
AcDbArc
 50
180.0
 51
268.999999999998
  0
LINE
  5
5686
330
1A
100
AcDbEntity
  8
外形線
 48
10.0
100
AcDbLine
 10
453.138468256273
 20
409.241348631558
 30
0.0
 11
453.138468256273
 21
420.758651368442
 31
0.0
  0
ARC
  5
5687
330
1A
100
AcDbEntity
  8
外形線
 48
10.0
100
AcDbCircle
 10
465.136588999986
 20
408.04049585938
 30
0.0
 40
0.5
100
AcDbArc
 50
0.002863323122
 51
88.999999999998
  0
ARC
  5
5688
330
1A
100
AcDbEntity
  8
外形線
 48
10.0
100
AcDbCircle
 10
465.136588999986
 20
421.95950414062
 30
0.0
 40
0.5
100
AcDbArc
 50
271.000000000002
 51
359.997136676878
  0
ARC
  5
5689
330
1A
100
AcDbEntity
  8
細線
 48
10.0
100
AcDbCircle
 10
465.138302464393
 20
426.195965652205
 30
0.0
 40
0.5
100
AcDbArc
 50
359.97893674797
 51
84.089361084594
  0
ARC
  5
568A
330
1A
100
AcDbEntity
  8
細線
 48
10.0
100
AcDbCircle
 10
465.136787788182
 20
425.937303417922
 30
0.0
 40
0.5
100
AcDbArc
 50
359.997136676878
 51
84.089361084594
  0
ARC
  5
568B
330
1A
100
AcDbEntity
  8
細線
 48
10.0
100
AcDbCircle
 10
465.138348021523
 20
457.157945115592
 30
0.0
 40
0.5
100
AcDbArc
 50
359.997136676878
 51
68.874947125992
  0
ARC
  5
568C
330
1A
100
AcDbEntity
  8
細線
 48
10.0
100
AcDbCircle
 10
465.13839629217
 20
458.123852291537
 30
0.0
 40
0.5
100
AcDbArc
 50
359.997136676878
 51
68.874947125992
  0
ARC
  5
568D
330
1A
100
AcDbEntity
  8
外形線
 48
10.0
100
AcDbCircle
 10
465.138451393964
 20
459.226452334043
 30
0.0
 40
0.5
100
AcDbArc
 50
359.997136676878
 51
68.025023881981
  0
LINE
  5
568E
330
1A
100
AcDbEntity
  8
外形線
 48
10.0
100
AcDbLine
 10
465.145315203205
 20
421.459580293042
 30
0.0
 11
453.629742053054
 21
421.25857521602
 31
0.0
  0
LINE
  5
568F
330
1A
100
AcDbEntity
  8
外形線
 48
10.0
100
AcDbLine
 10
465.145315203205
 20
408.540419706958
 30
0.0
 11
453.629742053054
 21
408.741424783979
 31
0.0
  0
LINE
  5
5690
330
1A
100
AcDbEntity
  8
外形線
 48
10.0
100
AcDbLine
 10
453.451255372875
 20
464.481621765478
 30
0.0
 11
465.325552199442
 21
459.690126021661
 31
0.0
  0
LINE
  5
5691
330
1A
100
AcDbEntity
  8
細線
 48
10.0
100
AcDbLine
 10
465.188276405939
 20
426.434645274437
 30
0.0
 11
453.586979638516
 21
427.635699894955
 31
0.0
  0
LINE
  5
5692
330
1A
100
AcDbEntity
  8
細線
 48
10.0
100
AcDbLine
 10
465.18979108215
 20
426.69330750872
 30
0.0
 11
453.586979638516
 21
427.894518940057
 31
0.0
  0
LINE
  5
5693
330
1A
100
AcDbEntity
  8
細線
 48
10.0
100
AcDbLine
 10
465.273895251753
 20
446.922921970888
 30
0.0
 11
453.502385492785
 21
450.252407721035
 31
0.0
  0
LINE
  5
5694
330
1A
100
AcDbEntity
  8
細線
 48
10.0
100
AcDbLine
 10
465.318550377733
 20
457.624343133187
 30
0.0
 11
453.458265900063
 21
462.206805166834
 31
0.0
  0
LINE
  5
5695
330
1A
100
AcDbEntity
  8
細線
 48
10.0
100
AcDbLine
 10
465.31859864838
 20
458.590250309132
 30
0.0
 11
453.458265900063
 21
463.172730993123
 31
0.0
  0
LINE
  5
5696
330
1A
100
AcDbEntity
  8
外形線
 48
10.0
100
AcDbLine
 10
438.639504159904
 20
473.0
 30
0.0
 11
452.648233689193
 21
472.749372440131
 31
0.0
  0
LINE
  5
5697
330
1A
100
AcDbEntity
  8
外形線
 48
10.0
100
AcDbLine
 10
438.639504159904
 20
473.0
 30
0.0
 11
438.139504159904
 21
472.493895723627
 31
0.0
  0
LINE
  5
5698
330
1A
100
AcDbEntity
  8
外形線
 48
10.0
100
AcDbLine
 10
438.139504159904
 20
471.506104276373
 30
0.0
 11
438.139504159904
 21
471.006104276373
 31
0.0
  0
ARC
  5
5699
330
1A
100
AcDbEntity
  8
外形線
 48
10.0
100
AcDbCircle
 10
428.738468256273
 20
472.727778446967
 30
0.0
 40
4.4
100
AcDbArc
 50
271.299999999999
 51
0.0
  0
LINE
  5
569A
330
1A
100
AcDbEntity
  8
外形線
 48
10.0
100
AcDbLine
 10
375.756726304926
 20
467.124321716527
 30
0.0
 11
428.838292523993
 21
468.328910965947
 31
0.0
  0
LINE
  5
569B
330
1A
100
AcDbEntity
  8
外形線
 48
10.0
100
AcDbLine
 10
433.138468256273
 20
473.0
 30
0.0
 11
433.138468256273
 21
472.727778446967
 31
0.0
  0
LINE
  5
569C
330
1A
100
AcDbEntity
  8
外形線
 48
10.0
100
AcDbLine
 10
436.138468256273
 20
473.0
 30
0.0
 11
433.138468256273
 21
473.0
 31
0.0
  0
ARC
  5
569D
330
1A
100
AcDbEntity
  8
外形線
 48
10.0
100
AcDbCircle
 10
437.638468256273
 20
470.475
 30
0.0
 40
1.500000000000156
100
AcDbArc
 50
70.528779365512
 51
179.999999999991
  0
LINE
  5
569E
330
1A
100
AcDbEntity
  8
細線
 48
10.0
100
AcDbLine
 10
438.639504159904
 20
473.0
 30
0.0
 11
438.639504159904
 21
357.0
 31
0.0
  0
LINE
  5
569F
330
1A
100
AcDbEntity
  8
細線
 48
10.0
100
AcDbLine
 10
438.639504159904
 20
472.993895723627
 30
0.0
 11
438.639504159904
 21
357.006104276373
 31
0.0
  0
LINE
  5
56A0
330
1A
100
AcDbEntity
  8
外形線
 48
10.0
100
AcDbLine
 10
453.138468256273
 20
393.269663496297
 30
0.0
 11
453.138468256273
 21
379.973573835827
 31
0.0
  0
ARC
  5
56A1
330
1A
100
AcDbEntity
  8
細線
 48
10.0
100
AcDbCircle
 10
453.638468256273
 20
367.326796815571
 30
0.0
 40
0.5
100
AcDbArc
 50
111.125052874008
 51
180.0
  0
ARC
  5
56A2
330
1A
100
AcDbEntity
  8
細線
 48
10.0
100
AcDbCircle
 10
453.638009558786
 20
366.360693762182
 30
0.0
 40
0.5
100
AcDbArc
 50
111.125052874008
 51
179.923306313171
  0
ARC
  5
56A3
330
1A
100
AcDbEntity
  8
細線
 48
10.0
100
AcDbCircle
 10
453.638468256273
 20
379.973573835827
 30
0.0
 40
0.5
100
AcDbArc
 50
105.793169048277
 51
180.0
  0
ARC
  5
56A4
330
1A
100
AcDbEntity
  8
細線
 48
10.0
100
AcDbCircle
 10
453.638468256273
 20
379.266467054641
 30
0.0
 40
0.5
100
AcDbArc
 50
105.793169048277
 51
180.0
  0
ARC
  5
56A5
330
1A
100
AcDbEntity
  8
細線
 48
10.0
100
AcDbCircle
 10
453.638468256273
 20
401.608139203428
 30
0.0
 40
0.5
100
AcDbArc
 50
95.910638915406
 51
180.0
  0
ARC
  5
56A6
330
1A
100
AcDbEntity
  8
細線
 48
10.0
100
AcDbCircle
 10
453.638468256273
 20
401.866958248531
 30
0.0
 40
0.5
100
AcDbArc
 50
95.910638915406
 51
180.0
  0
LINE
  5
56A7
330
1A
100
AcDbEntity
  8
外形線
 48
10.0
100
AcDbLine
 10
453.138468256273
 20
401.608139203428
 30
0.0
 11
453.138468256273
 21
409.241348631558
 31
0.0
  0
LINE
  5
56A8
330
1A
100
AcDbEntity
  8
外形線
 48
10.0
100
AcDbLine
 10
453.138468256273
 20
402.059047744875
 30
0.0
 11
453.138468256273
 21
402.317866789978
 31
0.0
  0
LINE
  5
56A9
330
1A
100
AcDbEntity
  8
外形線
 48
10.0
100
AcDbLine
 10
453.138468256273
 20
393.269663496297
 30
0.0
 11
453.138468256273
 21
401.608139203428
 31
0.0
  0
LINE
  5
56AA
330
1A
100
AcDbEntity
  8
外形線
 48
10.0
100
AcDbLine
 10
453.138468256273
 20
379.266467054641
 30
0.0
 11
453.138468256273
 21
379.973573835827
 31
0.0
  0
LINE
  5
56AB
330
1A
100
AcDbEntity
  8
外形線
 48
10.0
100
AcDbLine
 10
453.138468256273
 20
367.326796815571
 30
0.0
 11
453.138468256273
 21
379.266467054641
 31
0.0
  0
LINE
  5
56AC
330
1A
100
AcDbEntity
  8
外形線
 48
10.0
100
AcDbLine
 10
453.13801000672
 20
366.361363040658
 30
0.0
 11
453.138468256273
 21
367.326796815571
 31
0.0
  0
LINE
  5
56AD
330
1A
100
AcDbEntity
  8
外形線
 48
10.0
100
AcDbLine
 10
453.136259836041
 20
365.053858634475
 30
0.0
 11
453.13801000672
 21
366.361363040658
 31
0.0
  0
ARC
  5
56AE
330
1A
100
AcDbEntity
  8
外形線
 48
10.0
100
AcDbCircle
 10
453.636259836041
 20
365.053858634475
 30
0.0
 40
0.5
100
AcDbArc
 50
111.974976118019
 51
180.0
  0
ARC
  5
56AF
330
1A
100
AcDbEntity
  8
細線
 48
10.0
100
AcDbCircle
 10
465.138436754425
 20
384.265486603758
 30
0.0
 40
0.5
100
AcDbArc
 50
285.793169048277
 51
0.004772330151
  0
ARC
  5
56B0
330
1A
100
AcDbEntity
  8
細線
 48
10.0
100
AcDbCircle
 10
465.138468256273
 20
383.558388732638
 30
0.0
 40
0.5
100
AcDbArc
 50
285.793169048277
 51
0.0
  0
ARC
  5
56B1
330
1A
100
AcDbEntity
  8
細線
 48
10.0
100
AcDbCircle
 10
465.138468256273
 20
372.842101339548
 30
0.0
 40
0.5
100
AcDbArc
 50
291.125052874008
 51
0.0
  0
ARC
  5
56B2
330
1A
100
AcDbEntity
  8
細線
 48
10.0
100
AcDbCircle
 10
465.138468256273
 20
371.876175513257
 30
0.0
 40
0.5
100
AcDbArc
 50
291.125052874008
 51
0.0
  0
ARC
  5
56B3
330
1A
100
AcDbEntity
  8
外形線
 48
10.0
100
AcDbCircle
 10
465.138468256273
 20
370.773554470206
 30
0.0
 40
0.5
100
AcDbArc
 50
291.974976118019
 51
0.0
  0
LINE
  5
56B4
330
1A
100
AcDbEntity
  8
外形線
 48
10.0
100
AcDbLine
 10
465.638468256273
 20
371.876175513257
 30
0.0
 11
465.638468256273
 21
370.773554470206
 31
0.0
  0
LINE
  5
56B5
330
1A
100
AcDbEntity
  8
外形線
 48
10.0
100
AcDbLine
 10
465.638468256273
 20
372.842101339548
 30
0.0
 11
465.638468256273
 21
371.876175513257
 31
0.0
  0
LINE
  5
56B6
330
1A
100
AcDbEntity
  8
外形線
 48
10.0
100
AcDbLine
 10
465.638468256273
 20
383.558388732638
 30
0.0
 11
465.638468256273
 21
372.842101339548
 31
0.0
  0
LINE
  5
56B7
330
1A
100
AcDbEntity
  8
外形線
 48
10.0
100
AcDbLine
 10
465.63843675269
 20
384.265528250195
 30
0.0
 11
465.638468256273
 21
383.558388732638
 31
0.0
  0
LINE
  5
56B8
330
1A
100
AcDbEntity
  8
外形線
 48
10.0
100
AcDbLine
 10
465.636787787558
 20
404.062721569286
 30
0.0
 11
465.63843675269
 21
384.265528250195
 31
0.0
  0
ARC
  5
56B9
330
1A
100
AcDbEntity
  8
細線
 48
10.0
100
AcDbCircle
 10
465.136736814131
 20
403.803872259753
 30
0.0
 40
0.5
100
AcDbArc
 50
275.910638915406
 51
0.001999028164
  0
ARC
  5
56BA
330
1A
100
AcDbEntity
  8
細線
 48
10.0
100
AcDbCircle
 10
465.136787788182
 20
404.062696582078
 30
0.0
 40
0.5
100
AcDbArc
 50
275.910638915406
 51
0.002863323122
  0
ARC
  5
56BB
330
1A
100
AcDbEntity
  8
外形線
 48
10.0
100
AcDbCircle
 10
452.637429041779
 20
357.750515128068
 30
0.0
 40
0.5
100
AcDbArc
 50
271.000000000002
 51
359.984453673186
  0
LINE
  5
56BC
330
1A
100
AcDbEntity
  8
外形線
 48
10.0
100
AcDbLine
 10
465.636588999361
 20
408.040520846588
 30
0.0
 11
465.636736813826
 21
403.803889704564
 31
0.0
  0
LINE
  5
56BD
330
1A
100
AcDbEntity
  8
外形線
 48
10.0
100
AcDbLine
 10
453.449159030562
 20
365.517532322093
 30
0.0
 11
465.325569061751
 21
370.309880782588
 31
0.0
  0
LINE
  5
56BE
330
1A
100
AcDbEntity
  8
細線
 48
10.0
100
AcDbLine
 10
465.318670612483
 20
372.375703321953
 30
0.0
 11
453.458265900063
 21
367.793194833166
 31
0.0
  0
LINE
  5
56BF
330
1A
100
AcDbEntity
  8
細線
 48
10.0
100
AcDbLine
 10
465.318670612483
 20
371.409777495662
 30
0.0
 11
453.457807202576
 21
366.827091779777
 31
0.0
  0
LINE
  5
56C0
330
1A
100
AcDbEntity
  8
細線
 48
10.0
100
AcDbLine
 10
465.274551019761
 20
383.077263508314
 30
0.0
 11
453.502385492785
 21
379.747592278965
 31
0.0
  0
LINE
  5
56C1
330
1A
100
AcDbEntity
  8
細線
 48
10.0
100
AcDbLine
 10
465.274519517913
 20
383.784361379433
 30
0.0
 11
453.502385492785
 21
380.454699060152
 31
0.0
  0
LINE
  5
56C2
330
1A
100
AcDbEntity
  8
細線
 48
10.0
100
AcDbLine
 10
465.188225431888
 20
403.306530403238
 30
0.0
 11
453.586979638516
 21
402.105481059943
 31
0.0
  0
LINE
  5
56C3
330
1A
100
AcDbEntity
  8
細線
 48
10.0
100
AcDbLine
 10
465.188276405939
 20
403.565354725563
 30
0.0
 11
453.586979638516
 21
402.364300105045
 31
0.0
  0
LINE
  5
56C4
330
1A
100
AcDbEntity
  8
外形線
 48
10.0
100
AcDbLine
 10
453.139412634832
 20
365.060952776593
 30
0.0
 11
453.137429023374
 21
357.750379460775
 31
0.0
  0
LINE
  5
56C5
330
1A
100
AcDbEntity
  8
外形線
 48
10.0
100
AcDbLine
 10
453.139507485933
 20
472.249442084871
 30
0.0
 11
453.137429023374
 21
357.750379460775
 31
0.0
  0
LINE
  5
56C6
330
1A
100
AcDbEntity
  8
外形線
 48
10.0
100
AcDbLine
 10
438.139504159904
 20
472.493895723627
 30
0.0
 11
438.139504159904
 21
357.506104276373
 31
0.0
  0
LINE
  5
56C7
330
1A
100
AcDbEntity
  8
外形線
 48
10.0
100
AcDbLine
 10
438.639504159904
 20
357.0
 30
0.0
 11
452.646155244998
 21
357.25059128049
 31
0.0
  0
LINE
  5
56C8
330
1A
100
AcDbEntity
  8
外形線
 48
10.0
100
AcDbLine
 10
438.639504159904
 20
357.0
 30
0.0
 11
438.139504159904
 21
357.506104276373
 31
0.0
  0
LINE
  5
56C9
330
1A
100
AcDbEntity
  8
外形線
 48
10.0
100
AcDbLine
 10
438.139504159904
 20
358.506104276373
 30
0.0
 11
438.139504159904
 21
359.006104276373
 31
0.0
  0
LINE
  5
56CA
330
1A
100
AcDbEntity
  8
外形線
 48
10.0
100
AcDbLine
 10
364.76287419705
 20
391.755465902908
 30
0.0
 11
371.01868434141
 21
366.664781852088
 31
0.0
  0
ARC
  5
56CB
330
1A
100
AcDbEntity
  8
外形線
 48
10.0
100
AcDbCircle
 10
375.87016297279
 20
367.874391330086
 30
0.0
 40
5.0
100
AcDbArc
 50
193.999999999995
 51
268.7
  0
ARC
  5
56CC
330
1A
100
AcDbEntity
  8
外形線
 48
10.0
100
AcDbCircle
 10
363.792578470774
 20
391.513544007308
 30
0.0
 40
1.0
100
AcDbArc
 50
13.999999999991
 51
89.000000000011
  0
ARC
  5
56CD
330
1A
100
AcDbEntity
  8
外形線
 48
10.0
100
AcDbCircle
 10
399.138468256273
 20
361.34481487434
 30
0.0
 40
1.0
100
AcDbArc
 50
0.0
 51
88.7
  0
ARC
  5
56CE
330
1A
100
AcDbEntity
  8
外形線
 48
10.0
100
AcDbCircle
 10
401.138468256273
 20
351.5
 30
0.0
 40
1.0
100
AcDbArc
 50
180.0
 51
270.0
  0
ARC
  5
56CF
330
1A
100
AcDbEntity
  8
外形線
 48
10.0
100
AcDbCircle
 10
435.138468256273
 20
351.5
 30
0.0
 40
1.0
100
AcDbArc
 50
270.0
 51
0.0
  0
LINE
  5
56D0
330
1A
100
AcDbEntity
  8
外形線
 48
10.0
100
AcDbLine
 10
400.138468256273
 20
351.5
 30
0.0
 11
400.138468256273
 21
361.34481487434
 31
0.0
  0
LINE
  5
56D1
330
1A
100
AcDbEntity
  8
外形線
 48
10.0
100
AcDbLine
 10
375.756726304926
 20
362.875678283473
 30
0.0
 11
428.838292523993
 21
361.671089034053
 31
0.0
  0
LINE
  5
56D2
330
1A
100
AcDbEntity
  8
外形線
 48
10.0
100
AcDbLine
 10
351.621015849835
 20
392.726151751178
 30
0.0
 11
363.810030877211
 21
392.513391702465
 31
0.0
  0
LINE
  5
56D3
330
1A
100
AcDbEntity
  8
外形線
 48
10.0
100
AcDbLine
 10
436.138468256273
 20
361.025
 30
0.0
 11
436.138468256273
 21
351.5
 31
0.0
  0
LINE
  5
56D4
330
1A
100
AcDbEntity
  8
外形線
 48
10.0
100
AcDbLine
 10
436.138468256273
 20
361.025
 30
0.0
 11
436.138468256273
 21
473.0
 31
0.0
  0
LINE
  5
56D5
330
1A
100
AcDbEntity
  8
外形線
 48
10.0
100
AcDbLine
 10
435.138468256273
 20
350.5
 30
0.0
 11
401.138468256273
 21
350.5
 31
0.0
  0
LINE
  5
56D6
330
1A
100
AcDbEntity
  8
外形線
 48
10.0
100
AcDbLine
 10
433.138468256273
 20
357.272221553033
 30
0.0
 11
433.138468256273
 21
357.006104276373
 31
0.0
  0
LINE
  5
56D7
330
1A
100
AcDbEntity
  8
外形線
 48
10.0
100
AcDbLine
 10
436.138468256273
 20
357.006104276373
 30
0.0
 11
433.138468256273
 21
357.006104276373
 31
0.0
  0
ARC
  5
56D8
330
1A
100
AcDbEntity
  8
外形線
 48
10.0
100
AcDbCircle
 10
437.638468256273
 20
359.524999999999
 30
0.0
 40
1.499999999999659
100
AcDbArc
 50
179.999999999983
 51
289.471220634513
  0
ARC
  5
56D9
330
1A
100
AcDbEntity
  8
外形線
 48
10.0
100
AcDbCircle
 10
428.738468256273
 20
357.272221553033
 30
0.0
 40
4.4
100
AcDbArc
 50
0.0
 51
88.700000000001
  0
LINE
  5
56DA
330
1A
100
AcDbEntity
  8
細線
 48
10.0
100
AcDbLine
 10
433.138468256273
 20
473.0
 30
0.0
 11
433.138468256273
 21
357.272221553033
 31
0.0
  0
LINE
  5
56DB
330
1A
100
AcDbEntity
  8
細線
 48
10.0
100
AcDbLine
 10
364.577240997573
 20
392.5
 30
0.0
 11
364.580876212235
 21
437.514580049655
 31
0.0
  0
LINE
  5
56DC
330
1A
100
AcDbEntity
  8
細線
 48
10.0
100
AcDbLine
 10
371.941829110952
 20
465.218858267009
 30
0.0
 11
371.941829110952
 21
364.781141732991
 31
0.0
  0
LINE
  5
56DD
330
1A
100
AcDbEntity
  8
外形線
 48
10.0
100
AcDbLine
 10
465.63845139334
 20
459.226427346835
 30
0.0
 11
465.636588999361
 21
421.959479153412
 31
0.0
  0
ARC
  5
56DE
330
1A
100
AcDbEntity
  8
細線
 48
10.0
100
AcDbCircle
 10
465.137777151516
 20
445.734699960118
 30
0.0
 40
0.5
100
AcDbArc
 50
359.997136676878
 51
74.206830951723
  0
ARC
  5
56DF
330
1A
100
AcDbEntity
  8
細線
 48
10.0
100
AcDbCircle
 10
465.137812488265
 20
446.441796746564
 30
0.0
 40
0.5
100
AcDbArc
 50
359.997136676878
 51
74.206830951723
  0
LINE
  5
56E0
330
1A
100
AcDbEntity
  8
細線
 48
10.0
100
AcDbLine
 10
465.273859915004
 20
446.215825184443
 30
0.0
 11
453.502385492785
 21
449.545300939848
 31
0.0
  0
LINE
  5
56E1
330
1A
100
AcDbEntity
  8
中心線
 48
10.0
100
AcDbLine
 10
418.138468256273
 20
367.653139786887
 30
0.0
 11
418.138468256273
 21
341.488882397396
 31
0.0
  0
MTEXT
  5
57A3
102
{ACAD_XDICTIONARY
360
57A4
102
}
330
1A
100
AcDbEntity
  8
寸法線
 48
10.0
100
AcDbMText
 10
270.614776281561
 20
246.520675800719
 30
0.0
 40
7.04
 41
23.854899029718
 71
     2
 72
     5
  1
250\P300\P350\P400\P450\P500\P550\P600
1001
ACADANNOTATIVE
1000
AnnotativeData
1002
{
1070
     1
1070
     0
1002
}
1001
ACAD
1000
MTEXTBEGIN
1070
    44
1040
0.95
1000
MTEXTEND
  0
MTEXT
  5
57A7
102
{ACAD_XDICTIONARY
360
57A8
102
}
330
1A
100
AcDbEntity
  8
寸法線
 48
10.0
100
AcDbMText
 10
292.881498217581
 20
245.939049909558
 30
0.0
 40
7.04
 41
23.854899029718
 71
     2
 72
     5
  1
100\P100\P100\P100\P100\P100\P150\P150
1001
ACADANNOTATIVE
1000
AnnotativeData
1002
{
1070
     1
1070
     0
1002
}
1001
ACAD
1000
MTEXTBEGIN
1070
    44
1040
0.95
1000
MTEXTEND
  0
MTEXT
  5
57AB
102
{ACAD_XDICTIONARY
360
57AC
102
}
330
1A
100
AcDbEntity
  8
寸法線
 48
10.0
100
AcDbMText
 10
314.629614429266
 20
245.939049909558
 30
0.0
 40
7.04
 41
23.854899029718
 71
     2
 72
     5
  1
50\P50\P50\P50\P50\P50\P50\P50
1001
ACADANNOTATIVE
1000
AnnotativeData
1002
{
1070
     1
1070
     0
1002
}
1001
ACAD
1000
MTEXTBEGIN
1070
    44
1040
0.95
1000
MTEXTEND
  0
MTEXT
  5
57AF
102
{ACAD_XDICTIONARY
360
57B0
102
}
330
1A
100
AcDbEntity
  8
寸法線
 48
10.0
100
AcDbMText
 10
335.313926082456
 20
246.520675800719
 30
0.0
 40
7.04
 41
23.854899029718
 71
     2
 72
     5
  1
100\P150\P200\P250\P300\P350\P350\P400
1001
ACADANNOTATIVE
1000
AnnotativeData
1002
{
1070
     1
1070
     0
1002
}
1001
ACAD
1000
MTEXTBEGIN
1070
    44
1040
0.95
1000
MTEXTEND
  0
MTEXT
  5
57B3
102
{ACAD_XDICTIONARY
360
57B4
102
}
330
1A
100
AcDbEntity
  8
寸法線
 48
10.0
100
AcDbMText
 10
530.889655988301
 20
246.219608329943
 30
0.0
 40
7.04
 41
23.854899029718
 71
     2
 72
     5
  1
150\P150\P150\P150\P150\P150\P150\P150
1001
ACADANNOTATIVE
1000
AnnotativeData
1002
{
1070
     1
1070
     0
1002
}
1001
ACAD
1000
MTEXTBEGIN
1070
    44
1040
0.95
1000
MTEXTEND
  0
MTEXT
  5
57B7
102
{ACAD_XDICTIONARY
360
57B8
102
}
330
1A
100
AcDbEntity
  8
寸法線
 48
10.0
100
AcDbMText
 10
551.174636037103
 20
246.184405113877
 30
0.0
 40
7.04
 41
23.854899029718
 71
     2
 72
     5
  1
50\P50\P50\P50\P50\P50\P50\P50
1001
ACADANNOTATIVE
1000
AnnotativeData
1002
{
1070
     1
1070
     0
1002
}
1001
ACAD
1000
MTEXTBEGIN
1070
    44
1040
0.95
1000
MTEXTEND
  0
MTEXT
  5
57BB
102
{ACAD_XDICTIONARY
360
57BC
102
}
330
1A
100
AcDbEntity
  8
寸法線
 48
10.0
100
AcDbMText
 10
573.170056173643
 20
246.184405113877
 30
0.0
 40
7.04
 41
23.854899029718
 71
     2
 72
     5
  1
450\P500\P550\P600\P650\P700\P750\P800
1001
ACADANNOTATIVE
1000
AnnotativeData
1002
{
1070
     1
1070
     0
1002
}
1001
ACAD
1000
MTEXTBEGIN
1070
    44
1040
0.95
1000
MTEXTEND
  0
MTEXT
  5
57BF
102
{ACAD_XDICTIONARY
360
57C0
102
}
330
1A
100
AcDbEntity
  8
寸法線
 48
10.0
100
AcDbMText
 10
508.477255055975
 20
246.342819586177
 30
0.0
 40
7.04
 41
23.854899029718
 71
     2
 72
     5
  1
650\P700\P750\P800\P850\P900\P950\P1000
1001
ACADANNOTATIVE
1000
AnnotativeData
1002
{
1070
     1
1070
     0
1002
}
1001
ACAD
1000
MTEXTBEGIN
1070
    44
1040
0.95
1000
MTEXTEND
  0
LINE
  5
5BA5
330
1A
100
AcDbEntity
  8
寸法線
100
AcDbLine
 10
-123.400413070494
 20
223.10031885605
 30
0.0
 11
-123.400413070495
 21
241.85031885605
 31
0.0
  0
LINE
  5
5BA6
330
1A
100
AcDbEntity
  8
寸法線
100
AcDbLine
 10
-94.650413070494
 20
223.10031885605
 30
0.0
 11
-123.400413070494
 21
223.10031885605
 31
0.0
  0
CIRCLE
  5
5BA7
330
1A
100
AcDbEntity
  8
寸法線
100
AcDbCircle
 10
-38.400413070494
 20
223.10031885605
 30
0.0
 40
3.75
  0
CIRCLE
  5
5BA8
330
1A
100
AcDbEntity
  8
寸法線
100
AcDbCircle
 10
-38.400413070494
 20
223.10031885605
 30
0.0
 40
2.5
  0
CIRCLE
  5
5BA9
330
1A
100
AcDbEntity
  8
寸法線
100
AcDbCircle
 10
-63.400413070494
 20
223.10031885605
 30
0.0
 40
2.5
  0
CIRCLE
  5
5BAA
330
1A
100
AcDbEntity
  8
寸法線
100
AcDbCircle
 10
-63.400413070494
 20
223.10031885605
 30
0.0
 40
3.75
  0
CIRCLE
  5
5BAB
330
1A
100
AcDbEntity
  8
寸法線
100
AcDbCircle
 10
-88.400413070494
 20
223.10031885605
 30
0.0
 40
2.5
  0
CIRCLE
  5
5BAC
330
1A
100
AcDbEntity
  8
寸法線
100
AcDbCircle
 10
-88.400413070494
 20
223.10031885605
 30
0.0
 40
3.75
  0
LINE
  5
5BAD
330
1A
100
AcDbEntity
  8
寸法線
100
AcDbLine
 10
-28.400413070494
 20
248.10031885605
 30
0.0
 11
-28.400413070494
 21
256.85031885605
 31
0.0
  0
LINE
  5
5BAE
330
1A
100
AcDbEntity
  8
寸法線
100
AcDbLine
 10
-98.400413070494
 20
256.85031885605
 30
0.0
 11
-98.400413070494
 21
248.10031885605
 31
0.0
  0
LINE
  5
5BAF
330
1A
100
AcDbEntity
  8
寸法線
100
AcDbLine
 10
-28.400413070494
 20
248.10031885605
 30
0.0
 11
-98.400413070494
 21
248.10031885605
 31
0.0
  0
LINE
  5
5BB0
330
1A
100
AcDbEntity
  8
寸法線
100
AcDbLine
 10
-32.150413070494
 20
223.10031885605
 30
0.0
 11
-3.400413070494
 21
223.10031885605
 31
0.0
  0
LINE
  5
5BB1
330
1A
100
AcDbEntity
  8
寸法線
100
AcDbLine
 10
-3.400413070494
 20
223.10031885605
 30
0.0
 11
-3.400413070494
 21
241.85031885605
 31
0.0
  0
LINE
  5
5BB2
330
1A
100
AcDbEntity
  8
寸法線
100
AcDbLine
 10
-38.400413070495
 20
248.10031885605
 30
0.0
 11
-38.400413070494
 21
226.85031885605
 31
0.0
  0
LINE
  5
5BB3
330
1A
100
AcDbEntity
  8
寸法線
100
AcDbLine
 10
-63.400413070495
 20
248.10031885605
 30
0.0
 11
-63.400413070494
 21
226.85031885605
 31
0.0
  0
LINE
  5
5BB4
330
1A
100
AcDbEntity
  8
寸法線
100
AcDbLine
 10
-88.400413070494
 20
248.10031885605
 30
0.0
 11
-88.400413070494
 21
226.85031885605
 31
0.0
  0
TEXT
  5
5BB5
330
1A
100
AcDbEntity
  8
寸法線
100
AcDbText
 10
-94.650413070494
 20
207.16281885605
 30
0.0
 40
8.75
  1
B1
100
AcDbText
  0
TEXT
  5
5BB6
330
1A
100
AcDbEntity
  8
寸法線
100
AcDbText
 10
-69.650413070494
 20
207.16281885605
 30
0.0
 40
8.75
  1
NC
100
AcDbText
  0
TEXT
  5
5BB7
330
1A
100
AcDbEntity
  8
寸法線
100
AcDbText
 10
-44.650413070494
 20
207.16281885605
 30
0.0
 40
8.75
  1
B2
100
AcDbText
  0
LINE
  5
5BB8
330
1A
100
AcDbEntity
  8
寸法線
100
AcDbLine
 10
-38.400413070494
 20
205.60031885605
 30
0.0
 11
-38.400413070494
 21
185.60031885605
 31
0.0
  0
LINE
  5
5BB9
330
1A
100
AcDbEntity
  8
寸法線
100
AcDbLine
 10
-43.400413070494
 20
180.60031885605
 30
0.0
 11
-123.400413070494
 21
180.60031885605
 31
0.0
  0
TEXT
  5
5BBA
330
1A
100
AcDbEntity
  8
寸法線
100
AcDbText
 10
-138.345344826445
 20
167.785297857881
 30
0.0
 40
8.75
  1
変換器へ
100
AcDbText
  0
ARC
  5
5BBB
330
1A
100
AcDbEntity
  8
寸法線
100
AcDbCircle
 10
-43.400413070494
 20
185.60031885605
 30
0.0
 40
5.0
100
AcDbArc
 50
270.0
 51
0.0
  0
ARC
  5
5BBC
330
1A
100
AcDbEntity
  8
寸法線
100
AcDbCircle
 10
-68.400413070494
 20
185.60031885605
 30
0.0
 40
5.0
100
AcDbArc
 50
270.0
 51
0.0
  0
LINE
  5
5BBD
330
1A
100
AcDbEntity
  8
寸法線
100
AcDbLine
 10
-63.400413070494
 20
205.60031885605
 30
0.0
 11
-63.400413070494
 21
185.60031885605
 31
0.0
  0
ARC
  5
5BBE
330
1A
100
AcDbEntity
  8
寸法線
100
AcDbCircle
 10
-93.400413070494
 20
185.60031885605
 30
0.0
 40
5.0
100
AcDbArc
 50
270.0
 51
0.0
  0
LINE
  5
5BBF
330
1A
100
AcDbEntity
  8
寸法線
100
AcDbLine
 10
-88.400413070494
 20
205.60031885605
 30
0.0
 11
-88.400413070494
 21
185.60031885605
 31
0.0
  0
TEXT
  5
5BF0
330
1A
100
AcDbEntity
  8
寸法線
100
AcDbText
 10
548.69186622408
 20
317.077050452255
 30
0.0
 40
8.75
  1
ia3nG5
100
AcDbText
  0
TEXT
  5
5BF1
330
1A
100
AcDbEntity
  8
寸法線
100
AcDbText
 10
548.69186622408
 20
304.577050452255
 30
0.0
 40
8.75
  1
労検第T68867号
100
AcDbText
  0
TEXT
  5
5BF2
330
1A
100
AcDbEntity
  8
寸法線
100
AcDbText
 10
548.69186622408
 20
292.077050452255
 30
0.0
 40
8.75
  1
本質安全防爆構造
100
AcDbText
  0
VIEWPORT
  5
2902
330
28FB
100
AcDbEntity
 67
     1
  8
0
 48
10.0
100
AcDbViewport
 10
0.0
 20
0.0
 30
0.0
 40
528.349942987457
 41
300.3
 68
     1
 69
     1
1001
ACAD
1000
MVIEW
1002
{
1070
    16
1010
0.0
1020
0.0
1030
0.0
1010
0.0
1020
0.0
1030
1.0
1040
0.0
1040
300.3
1040
205.756503333333
1040
143.551503333333
1040
50.0
1040
0.0
1040
0.0
1070
    16
1070
   100
1070
     0
1070
     1
1070
     0
1070
     0
1070
     0
1070
     0
1040
0.0
1040
0.0
1040
0.0
1040
10.0
1040
10.0
1040
10.0
1040
10.0
1070
     0
1002
{
1002
}
1002
}
  0
VIEWPORT
  5
2904
330
28FB
100
AcDbEntity
 67
     1
  8
図枠太線
 48
10.0
100
AcDbViewport
 10
204.746305129083
 20
161.396645458131
 30
0.0
 40
400.0
 41
240.0
 68
     2
 69
     2
1001
ACAD
1000
MVIEW
1002
{
1070
    16
1010
0.0
1020
0.0
1030
0.0
1010
0.0
1020
0.0
1030
1.0
1040
0.0
1040
480.0
1040
251.377272636292
1040
333.2900021631
1040
50.0
1040
0.0
1040
0.0
1070
    16
1070
   100
1070
     0
1070
     0
1070
     0
1070
     0
1070
     0
1070
     0
1040
0.0
1040
0.0
1040
0.0
1040
1.0
1040
1.0
1040
0.0
1040
0.0
1070
     0
1002
{
1002
}
1002
}
  0
INSERT
  5
2A59
330
28FB
100
AcDbEntity
 67
     1
  8
図枠太線
100
AcDbBlockReference
  2
A3横用_タイトル
 10
-0.352109406709
 20
-2.129314295396
 30
0.0
  0
MTEXT
  5
2E70
330
28FB
100
AcDbEntity
 67
     1
  8
寸法線
 48
10.0
100
AcDbMText
 10
277.334591286732
 20
49.2717516444
 30
0.0
 40
5.0
 41
59.487124795261
 71
     1
 72
     5
  1
A3縮小図
  0
MTEXT
  5
2E71
102
{ACAD_XDICTIONARY
360
565B
102
}
330
28FB
100
AcDbEntity
 67
     1
  8
寸法線
 48
10.0
100
AcDbMText
 10
371.895692395313
 20
50.249424629171
 30
0.0
 40
5.0
 41
34.444444444444
 71
     1
 72
     5
  1
台数   台
1001
ACADANNOTATIVE
1000
AnnotativeData
1002
{
1070
     1
1070
     0
1002
}
  0
LINE
  5
2E72
330
28FB
100
AcDbEntity
 67
     1
  8
寸法線
 48
10.0
100
AcDbLine
 10
276.400969335687
 20
42.888152558141
 30
0.0
 11
302.035832945504
 21
42.888152558141
 31
0.0
  0
MTEXT
  5
2E85
330
28FB
100
AcDbEntity
 67
     1
  8
寸法線
 48
10.0
100
AcDbMText
 10
149.12611673873
 20
14.255245025413
 30
0.0
 40
5.0
 41
11.452149180996
 71
     1
 72
     5
  1
{\H1.4x;1:2}
  0
MTEXT
  5
5856
330
28FB
100
AcDbEntity
 67
     1
  8
下書線
 48
10.0
100
AcDbMText
 10
112.063924435327
 20
69.651102993959
 30
0.0
 40
10.0
 41
175.933723286424
 71
     1
 72
     1
  1
HP用図面、追記・変更　不可
  0
LWPOLYLINE
  5
5857
330
28FB
100
AcDbEntity
 67
     1
  8
下書線
 48
10.0
100
AcDbPolyline
 90
        4
 70
     1
 43
0.0
 10
104.014669121569
 20
75.400571075215
 10
275.923764751114
 20
75.400571075215
 10
275.923764751114
 20
54.127539174569
 10
104.014669121569
 20
54.127539174569
  0
MTEXT
  5
58EE
102
{ACAD_XDICTIONARY
360
58EF
102
}
330
28FB
100
AcDbEntity
 67
     1
  8
寸法線
 48
10.0
100
AcDbMText
 10
173.844001466027
 20
32.126899520275
 30
0.0
 40
5.0
 41
31.372065131184
 71
     1
 72
     5
  1
takahashi
1001
ACADANNOTATIVE
1000
AnnotativeData
1002
{
1070
     1
1070
     0
1002
}
  0
MTEXT
  5
5A3B
102
{ACAD_XDICTIONARY
360
5A3C
102
}
330
28FB
100
AcDbEntity
 67
     1
  8
寸法線
 48
10.0
100
AcDbMText
 10
310.214176586136
 20
32.963791899491
 30
0.0
 40
6.0
 41
58.239684951579
 71
     1
 72
     5
  1
TSE-A8FA-□
1001
ACADANNOTATIVE
1000
AnnotativeData
1002
{
1070
     1
1070
     0
1002
}
  0
MTEXT
  5
5A6D
330
28FB
100
AcDbEntity
 67
     1
  8
寸法線
 48
10.0
100
AcDbMText
 10
370.673835800578
 20
36.896622040696
 30
0.0
 40
4.0
 41
39.417543602742
 71
     1
 72
     5
  1
{\H1.125x;静電容量式\Pレベルセンサ}
  0
MTEXT
  5
5AA0
102
{ACAD_XDICTIONARY
360
5AA1
102
}
330
28FB
100
AcDbEntity
 67
     1
  8
寸法線
 48
10.0
100
AcDbMText
 10
338.952685188947
 20
15.49393312214
 30
0.0
 40
8.0
 41
33.206594841881
 71
     1
 72
     5
  1
HE-14007
1001
ACADANNOTATIVE
1000
AnnotativeData
1002
{
1070
     1
1070
     0
1002
}
  0
MTEXT
  5
5D39
102
{ACAD_XDICTIONARY
360
5D3A
102
}
330
28FB
100
AcDbEntity
 67
     1
  8
寸法線
 48
10.0
100
AcDbMText
 10
175.252680195869
 20
12.244274901526
 30
0.0
 40
4.5
 41
31.372065131184
 71
     1
 72
     5
  1
2016.09.26
1001
ACADANNOTATIVE
1000
AnnotativeData
1002
{
1070
     1
1070
     0
1002
}
  0
ENDSEC
  0
SECTION
  2
OBJECTS
  0
DICTIONARY
  5
C
330
0
100
AcDbDictionary
  3
ACAD_COLOR
350
2948
  3
ACAD_GROUP
350
D
  3
ACAD_LAYOUT
350
2816
  3
ACAD_MATERIAL
350
2947
  3
ACAD_MLEADERSTYLE
350
55A3
  3
ACAD_MLINESTYLE
350
E
  3
ACAD_PLOTSETTINGS
350
2817
  3
ACAD_SCALELIST
350
557C
  3
ACAD_VISUALSTYLE
350
5563
  3
ACADDIM
350
4319
  3
ACDBHEADERROUNDTRIPXREC
350
5E51
  3
ACDBVARIABLEDICTIONARY
350
5665
  3
DWGPROPS
350
5E76
  0
DICTIONARY
  5
5E77
330
8
100
AcDbDictionary
280
     1
  3
ACAD_XREC_ROUNDTRIP
360
5E78
  0
DICTIONARY
  5
29EA
330
2
100
AcDbDictionary
280
     1
  3
ACAD_LAYERFILTERS
360
2B0C
  3
ACAD_LAYERSTATES
360
29EB
  0
DICTIONARY
  5
55A8
330
5167
100
AcDbDictionary
280
     1
  3
ACDBCONTEXTDATAMANAGER
360
55A9
  0
DICTIONARY
  5
5627
330
5626
100
AcDbDictionary
280
     1
  3
ACDBCONTEXTDATAMANAGER
360
5628
  0
DICTIONARY
  5
5640
330
563F
100
AcDbDictionary
280
     1
  3
ACDBCONTEXTDATAMANAGER
360
5641
  0
DICTIONARY
  5
57A4
330
57A3
100
AcDbDictionary
280
     1
  3
ACDBCONTEXTDATAMANAGER
360
57A5
  0
DICTIONARY
  5
57A8
330
57A7
100
AcDbDictionary
280
     1
  3
ACDBCONTEXTDATAMANAGER
360
57A9
  0
DICTIONARY
  5
57AC
330
57AB
100
AcDbDictionary
280
     1
  3
ACDBCONTEXTDATAMANAGER
360
57AD
  0
DICTIONARY
  5
57B0
330
57AF
100
AcDbDictionary
280
     1
  3
ACDBCONTEXTDATAMANAGER
360
57B1
  0
DICTIONARY
  5
57B4
330
57B3
100
AcDbDictionary
280
     1
  3
ACDBCONTEXTDATAMANAGER
360
57B5
  0
DICTIONARY
  5
57B8
330
57B7
100
AcDbDictionary
280
     1
  3
ACDBCONTEXTDATAMANAGER
360
57B9
  0
DICTIONARY
  5
57BC
330
57BB
100
AcDbDictionary
280
     1
  3
ACDBCONTEXTDATAMANAGER
360
57BD
  0
DICTIONARY
  5
57C0
330
57BF
100
AcDbDictionary
280
     1
  3
ACDBCONTEXTDATAMANAGER
360
57C1
  0
DICTIONARY
  5
565B
330
2E71
100
AcDbDictionary
280
     1
  3
ACDBCONTEXTDATAMANAGER
360
565C
  0
DICTIONARY
  5
58EF
330
58EE
100
AcDbDictionary
280
     1
  3
ACDBCONTEXTDATAMANAGER
360
58F0
  0
DICTIONARY
  5
5A3C
330
5A3B
100
AcDbDictionary
280
     1
  3
ACDBCONTEXTDATAMANAGER
360
5A3D
  0
DICTIONARY
  5
5AA1
330
5AA0
100
AcDbDictionary
280
     1
  3
ACDBCONTEXTDATAMANAGER
360
5AA2
  0
DICTIONARY
  5
5D3A
330
5D39
100
AcDbDictionary
280
     1
  3
ACDBCONTEXTDATAMANAGER
360
5D3B
  0
DICTIONARY
  5
2948
102
{ACAD_REACTORS
330
C
102
}
330
C
100
AcDbDictionary
  0
DICTIONARY
  5
D
102
{ACAD_REACTORS
330
C
102
}
330
C
100
AcDbDictionary
  0
DICTIONARY
  5
2816
102
{ACAD_REACTORS
330
C
102
}
330
C
100
AcDbDictionary
  0
DICTIONARY
  5
2947
102
{ACAD_REACTORS
330
C
102
}
330
C
100
AcDbDictionary
  3
BYBLOCK
350
559F
  3
BYLAYER
350
559E
  3
GLOBAL
350
55A0
  0
DICTIONARY
  5
55A3
102
{ACAD_REACTORS
330
C
102
}
330
C
100
AcDbDictionary
  3
STANDARD
350
55A4
  0
DICTIONARY
  5
E
102
{ACAD_REACTORS
330
C
102
}
330
C
100
AcDbDictionary
  3
STANDARD
350
13
  0
DICTIONARY
  5
2817
102
{ACAD_REACTORS
330
C
102
}
330
C
100
AcDbDictionary
  0
DICTIONARY
  5
557C
102
{ACAD_REACTORS
330
C
102
}
330
C
100
AcDbDictionary
  3
A0
350
557D
  3
A1
350
557E
  3
A2
350
557F
  3
A3
350
5580
  3
A4
350
5581
  3
A5
350
5582
  3
A6
350
5583
  3
A7
350
5584
  3
A8
350
5585
  3
A9
350
5586
  3
B0
350
5587
  3
B1
350
5588
  3
B2
350
5589
  3
B3
350
558A
  3
B4
350
558B
  3
B5
350
558C
  3
B6
350
558D
  3
B7
350
558E
  3
B8
350
558F
  3
B9
350
5590
  3
C0
350
5591
  3
C1
350
5592
  3
C2
350
5593
  3
C3
350
5594
  3
C4
350
5595
  3
C5
350
5596
  3
C6
350
5597
  3
C7
350
5598
  3
C8
350
5599
  3
C9
350
559A
  3
D0
350
559B
  3
D1
350
559C
  3
D2
350
559D
  0
DICTIONARY
  5
5563
102
{ACAD_REACTORS
330
C
102
}
330
C
100
AcDbDictionary
  3
2DWIREFRAME
350
5568
  3
BASIC
350
556B
  3
BRIGHTEN
350
556F
  3
COLORCHANGE
350
5573
  3
CONCEPTUAL
350
556D
  3
DIM
350
556E
  3
EDGECOLOROFF
350
5576
  3
FACEPATTERN
350
5572
  3
FLAT
350
5564
  3
FLATWITHEDGES
350
5565
  3
GOURAUD
350
5566
  3
GOURAUDWITHEDGES
350
5567
  3
HIDDEN
350
556A
  3
JITTEROFF
350
5574
  3
LINEPATTERN
350
5571
  3
MODELING
350
58B2
  3
OVERHANGOFF
350
5575
  3
REALISTIC
350
556C
  3
SHADED
350
557B
  3
SHADED_WITH_EDGES
350
557A
  3
SHADES_OF_GRAY
350
5577
  3
SKETCHY
350
5578
  3
THICKEN
350
5570
  3
WIREFRAME
350
5569
  3
X-RAY
350
5579
  0
XRECORD
  5
4319
102
{ACAD_REACTORS
330
C
102
}
330
C
100
AcDbXrecord
 90
   990106
  3

 60
     0
 61
     0
 62
     4
 63
     4
 64
     0
 65
     0
 66
     0
 67
     3
 68
     1
 69
     0
 70
     0
 71
     0
 72
     0
 40
0.0
170
     2
340
4227
  0
DICTIONARY
  5
5E51
102
{ACAD_REACTORS
330
C
102
}
330
C
100
AcDbDictionary
  3
CEPSNID
350
5E5B
  3
CEPSNTYPE
350
5E5A
  3
COLORDICT
350
5E74
  3
DIMSTYLEDATA
350
5E71
  3
FINGERPRINTGUID
350
5E5C
  3
HYPERLINKBASE
350
5E54
  3
INSUNITS
350
5E59
  3
LAYOUTDICT
350
5E56
  3
LWETCUNION
350
5E58
  3
MATERIALDICT
350
5E75
  3
PLOTSETDICT
350
5E57
  3
PSVPSCALE
350
5E5E
  3
PUCSBASE
350
5E61
  3
PUCSORGBACK
350
5E67
  3
PUCSORGBOTTOM
350
5E63
  3
PUCSORGFRONT
350
5E66
  3
PUCSORGLEFT
350
5E64
  3
PUCSORGRIGHT
350
5E65
  3
PUCSORGTOP
350
5E62
  3
PUCSORTHOREF
350
5E5F
  3
PUCSORTHOVIEW
350
5E60
  3
STYLESHEET
350
5E55
  3
TSTACKALIGN
350
5E52
  3
TSTACKSIZE
350
5E53
  3
UCSBASE
350
5E6A
  3
UCSORGBACK
350
5E70
  3
UCSORGBOTTOM
350
5E6C
  3
UCSORGFRONT
350
5E6F
  3
UCSORGLEFT
350
5E6D
  3
UCSORGRIGHT
350
5E6E
  3
UCSORGTOP
350
5E6B
  3
UCSORTHOREF
350
5E68
  3
UCSORTHOVIEW
350
5E69
  3
VERSIONGUID
350
5E5D
  0
DICTIONARY
  5
5665
102
{ACAD_REACTORS
330
C
102
}
330
C
100
AcDbDictionary
  3
CANNOSCALE
350
5666
  3
CMLEADERSTYLE
350
5668
  3
CTABLESTYLE
350
5667
  3
DIMASSOC
350
5E72
  3
HIDETEXT
350
5E73
  3
MSLTSCALE
350
5669
  3
XCLIPFRAME
350
566A
  0
XRECORD
  5
5E76
102
{ACAD_REACTORS
330
C
102
}
330
C
100
AcDbXrecord
  1
DWGPROPS COOKIE
  2

  3

  4

  6

  7

  8
takahashi
  9

300
=
301
=
302
=
303
=
304
=
305
=
306
=
307
=
308
=
309
=
 40
0.0
 41
2450576.222302431
 42
2457661.239722755
  1

 90
        0
  0
XRECORD
  5
5E78
102
{ACAD_REACTORS
330
5E77
102
}
330
5E77
100
AcDbXrecord
102
VTR_0.000_0.000_1.000_1.000_VISUALSTYLE
340
5568
102
VTR_0.000_0.000_1.000_1.000_GRIDDISPLAY
 70
     3
102
VTR_0.000_0.000_1.000_1.000_GRIDMAJOR
 70
     5
102
VTR_0.000_0.000_1.000_1.000_DEFAULTLIGHTING
280
     1
102
VTR_0.000_0.000_1.000_1.000_DEFAULTLIGHTINGTYPE
 70
     1
102
VTR_0.000_0.000_1.000_1.000_BRIGHTNESS
141
0.0
102
VTR_0.000_0.000_1.000_1.000_CONTRAST
142
0.0
  0
DICTIONARY
  5
2B0C
102
{ACAD_REACTORS
330
29EA
102
}
330
29EA
100
AcDbDictionary
  0
DICTIONARY
  5
29EB
102
{ACAD_REACTORS
330
29EA
102
}
330
29EA
100
AcDbDictionary
  0
DICTIONARY
  5
55A9
102
{ACAD_REACTORS
330
55A8
102
}
330
55A8
100
AcDbDictionary
  3
ACDB_ANNOTATIONSCALES
350
55AA
  0
DICTIONARY
  5
5628
102
{ACAD_REACTORS
330
5627
102
}
330
5627
100
AcDbDictionary
  3
ACDB_ANNOTATIONSCALES
350
5629
  0
DICTIONARY
  5
5641
102
{ACAD_REACTORS
330
5640
102
}
330
5640
100
AcDbDictionary
  3
ACDB_ANNOTATIONSCALES
350
5642
  0
DICTIONARY
  5
57A5
102
{ACAD_REACTORS
330
57A4
102
}
330
57A4
100
AcDbDictionary
  3
ACDB_ANNOTATIONSCALES
350
57A6
  0
DICTIONARY
  5
57A9
102
{ACAD_REACTORS
330
57A8
102
}
330
57A8
100
AcDbDictionary
  3
ACDB_ANNOTATIONSCALES
350
57AA
  0
DICTIONARY
  5
57AD
102
{ACAD_REACTORS
330
57AC
102
}
330
57AC
100
AcDbDictionary
  3
ACDB_ANNOTATIONSCALES
350
57AE
  0
DICTIONARY
  5
57B1
102
{ACAD_REACTORS
330
57B0
102
}
330
57B0
100
AcDbDictionary
  3
ACDB_ANNOTATIONSCALES
350
57B2
  0
DICTIONARY
  5
57B5
102
{ACAD_REACTORS
330
57B4
102
}
330
57B4
100
AcDbDictionary
  3
ACDB_ANNOTATIONSCALES
350
57B6
  0
DICTIONARY
  5
57B9
102
{ACAD_REACTORS
330
57B8
102
}
330
57B8
100
AcDbDictionary
  3
ACDB_ANNOTATIONSCALES
350
57BA
  0
DICTIONARY
  5
57BD
102
{ACAD_REACTORS
330
57BC
102
}
330
57BC
100
AcDbDictionary
  3
ACDB_ANNOTATIONSCALES
350
57BE
  0
DICTIONARY
  5
57C1
102
{ACAD_REACTORS
330
57C0
102
}
330
57C0
100
AcDbDictionary
  3
ACDB_ANNOTATIONSCALES
350
57C2
  0
DICTIONARY
  5
565C
102
{ACAD_REACTORS
330
565B
102
}
330
565B
100
AcDbDictionary
  3
ACDB_ANNOTATIONSCALES
350
565D
  0
DICTIONARY
  5
58F0
102
{ACAD_REACTORS
330
58EF
102
}
330
58EF
100
AcDbDictionary
  3
ACDB_ANNOTATIONSCALES
350
58F1
  0
DICTIONARY
  5
5A3D
102
{ACAD_REACTORS
330
5A3C
102
}
330
5A3C
100
AcDbDictionary
  3
ACDB_ANNOTATIONSCALES
350
5A3E
  0
DICTIONARY
  5
5AA2
102
{ACAD_REACTORS
330
5AA1
102
}
330
5AA1
100
AcDbDictionary
  3
ACDB_ANNOTATIONSCALES
350
5AA3
  0
DICTIONARY
  5
5D3B
102
{ACAD_REACTORS
330
5D3A
102
}
330
5D3A
100
AcDbDictionary
  3
ACDB_ANNOTATIONSCALES
350
5D3C
  0
MATERIAL
  5
559F
102
{ACAD_REACTORS
330
2947
102
}
102
{ACAD_XDICTIONARY
360
5E7B
102
}
330
2947
100
AcDbMaterial
  1
BYBLOCK
  0
MATERIAL
  5
559E
102
{ACAD_REACTORS
330
2947
102
}
102
{ACAD_XDICTIONARY
360
5E79
102
}
330
2947
100
AcDbMaterial
  1
BYLAYER
  0
MATERIAL
  5
55A0
102
{ACAD_REACTORS
330
2947
102
}
102
{ACAD_XDICTIONARY
360
5E7D
102
}
330
2947
100
AcDbMaterial
  1
GLOBAL
  0
ACAD_PROXY_OBJECT
  5
55A4
102
{ACAD_REACTORS
330
55A3
102
}
330
55A3
100
AcDbProxyObject
 90
      499
 91
      508
 93
      610
310
40901902A4063FBFFFFFE0000000000000020400000000000020404214DD185B99185C990000000000000104090141901A00000000000004100000000000000041025764000000000000039000
340
14
340
0
340
10
340
0
 94
        0
1001
ACAD_MLEADERVER
1070
     2
  0
MLINESTYLE
  5
13
102
{ACAD_REACTORS
330
E
102
}
330
E
100
AcDbMlineStyle
  2
STANDARD
 70
     0
  3

 62
     0
 51
90.0
 52
90.0
 71
     2
 49
0.5
 62
   256
  6
BYLAYER
 49
-0.5
 62
   256
  6
BYLAYER
  0
ACAD_PROXY_OBJECT
  5
557D
102
{ACAD_REACTORS
330
557C
102
}
330
557C
100
AcDbProxyObject
 90
      499
 91
      505
 93
       41
310
903313A31580
  0
ACAD_PROXY_OBJECT
  5
557E
102
{ACAD_REACTORS
330
557C
102
}
330
557C
100
AcDbProxyObject
 90
      499
 91
      505
 93
      105
310
903313A324000000000000004000
  0
ACAD_PROXY_OBJECT
  5
557F
102
{ACAD_REACTORS
330
557C
102
}
330
557C
100
AcDbProxyObject
 90
      499
 91
      505
 93
      105
310
903313A344000000000000104000
  0
ACAD_PROXY_OBJECT
  5
5580
102
{ACAD_REACTORS
330
557C
102
}
330
557C
100
AcDbProxyObject
 90
      499
 91
      505
 93
      105
310
903313A354000000000000144000
  0
ACAD_PROXY_OBJECT
  5
5581
102
{ACAD_REACTORS
330
557C
102
}
330
557C
100
AcDbProxyObject
 90
      499
 91
      505
 93
      105
310
903313A384000000000000204000
  0
ACAD_PROXY_OBJECT
  5
5582
102
{ACAD_REACTORS
330
557C
102
}
330
557C
100
AcDbProxyObject
 90
      499
 91
      505
 93
      113
310
904313A31304000000000000244000
  0
ACAD_PROXY_OBJECT
  5
5583
102
{ACAD_REACTORS
330
557C
102
}
330
557C
100
AcDbProxyObject
 90
      499
 91
      505
 93
      113
310
904313A31364000000000000304000
  0
ACAD_PROXY_OBJECT
  5
5584
102
{ACAD_REACTORS
330
557C
102
}
330
557C
100
AcDbProxyObject
 90
      499
 91
      505
 93
      113
310
904313A32304000000000000344000
  0
ACAD_PROXY_OBJECT
  5
5585
102
{ACAD_REACTORS
330
557C
102
}
330
557C
100
AcDbProxyObject
 90
      499
 91
      505
 93
      113
310
904313A333040000000000003E4000
  0
ACAD_PROXY_OBJECT
  5
5586
102
{ACAD_REACTORS
330
557C
102
}
330
557C
100
AcDbProxyObject
 90
      499
 91
      505
 93
      113
310
904313A34304000000000000444000
  0
ACAD_PROXY_OBJECT
  5
5587
102
{ACAD_REACTORS
330
557C
102
}
330
557C
100
AcDbProxyObject
 90
      499
 91
      505
 93
      113
310
904313A35304000000000000494000
  0
ACAD_PROXY_OBJECT
  5
5588
102
{ACAD_REACTORS
330
557C
102
}
330
557C
100
AcDbProxyObject
 90
      499
 91
      505
 93
      121
310
905313A3130304000000000000594000
  0
ACAD_PROXY_OBJECT
  5
5589
102
{ACAD_REACTORS
330
557C
102
}
330
557C
100
AcDbProxyObject
 90
      499
 91
      505
 93
      105
310
903323A310000000000000010100
  0
ACAD_PROXY_OBJECT
  5
558A
102
{ACAD_REACTORS
330
557C
102
}
330
557C
100
AcDbProxyObject
 90
      499
 91
      505
 93
      105
310
903343A310000000000000410100
  0
ACAD_PROXY_OBJECT
  5
558B
102
{ACAD_REACTORS
330
557C
102
}
330
557C
100
AcDbProxyObject
 90
      499
 91
      505
 93
      105
310
903383A310000000000000810100
  0
ACAD_PROXY_OBJECT
  5
558C
102
{ACAD_REACTORS
330
557C
102
}
330
557C
100
AcDbProxyObject
 90
      499
 91
      505
 93
      113
310
90431303A310000000000000910100
  0
ACAD_PROXY_OBJECT
  5
558D
102
{ACAD_REACTORS
330
557C
102
}
330
557C
100
AcDbProxyObject
 90
      499
 91
      505
 93
      121
310
9053130303A310000000000001650100
  0
ACAD_PROXY_OBJECT
  5
558E
102
{ACAD_REACTORS
330
557C
102
}
330
557C
100
AcDbProxyObject
 90
      499
 91
      505
 93
      257
310
90E312F31323822203D2031272D3022000000000000200FC000000000000284000
  0
ACAD_PROXY_OBJECT
  5
558F
102
{ACAD_REACTORS
330
557C
102
}
330
557C
100
AcDbProxyObject
 90
      499
 91
      505
 93
      249
310
90D312F363422203D2031272D3022000000000000240FC000000000000284000
  0
ACAD_PROXY_OBJECT
  5
5590
102
{ACAD_REACTORS
330
557C
102
}
330
557C
100
AcDbProxyObject
 90
      499
 91
      505
 93
      249
310
90D312F333222203D2031272D3022000000000000280FC000000000000284000
  0
ACAD_PROXY_OBJECT
  5
5591
102
{ACAD_REACTORS
330
557C
102
}
330
557C
100
AcDbProxyObject
 90
      499
 91
      505
 93
      249
310
90D312F313622203D2031272D30220000000000002C0FC000000000000284000
  0
ACAD_PROXY_OBJECT
  5
5592
102
{ACAD_REACTORS
330
557C
102
}
330
557C
100
AcDbProxyObject
 90
      499
 91
      505
 93
      249
310
90D332F333222203D2031272D30220000000000002E0FC000000000000284000
  0
ACAD_PROXY_OBJECT
  5
5593
102
{ACAD_REACTORS
330
557C
102
}
330
557C
100
AcDbProxyObject
 90
      499
 91
      505
 93
      241
310
90C312F3822203D2031272D3022000000000000300FC000000000000284000
  0
ACAD_PROXY_OBJECT
  5
5594
102
{ACAD_REACTORS
330
557C
102
}
330
557C
100
AcDbProxyObject
 90
      499
 91
      505
 93
      249
310
90D332F313622203D2031272D3022000000000000320FC000000000000284000
  0
ACAD_PROXY_OBJECT
  5
5595
102
{ACAD_REACTORS
330
557C
102
}
330
557C
100
AcDbProxyObject
 90
      499
 91
      505
 93
      241
310
90C312F3422203D2031272D3022000000000000340FC000000000000284000
  0
ACAD_PROXY_OBJECT
  5
5596
102
{ACAD_REACTORS
330
557C
102
}
330
557C
100
AcDbProxyObject
 90
      499
 91
      505
 93
      241
310
90C332F3822203D2031272D3022000000000000360FC000000000000284000
  0
ACAD_PROXY_OBJECT
  5
5597
102
{ACAD_REACTORS
330
557C
102
}
330
557C
100
AcDbProxyObject
 90
      499
 91
      505
 93
      241
310
90C312F3222203D2031272D3022000000000000380FC000000000000284000
  0
ACAD_PROXY_OBJECT
  5
5598
102
{ACAD_REACTORS
330
557C
102
}
330
557C
100
AcDbProxyObject
 90
      499
 91
      505
 93
      241
310
90C332F3422203D2031272D30220000000000003A0FC000000000000284000
  0
ACAD_PROXY_OBJECT
  5
5599
102
{ACAD_REACTORS
330
557C
102
}
330
557C
100
AcDbProxyObject
 90
      499
 91
      505
 93
      161
310
90A3122203D2031272D30224000000000000284000
  0
ACAD_PROXY_OBJECT
  5
559A
102
{ACAD_REACTORS
330
557C
102
}
330
557C
100
AcDbProxyObject
 90
      499
 91
      505
 93
      257
310
90E312D312F3222203D2031272D30220000000000003E0FC000000000000284000
  0
ACAD_PROXY_OBJECT
  5
559B
102
{ACAD_REACTORS
330
557C
102
}
330
557C
100
AcDbProxyObject
 90
      499
 91
      505
 93
      225
310
90A3322203D2031272D302200000000000002100000000000000284000
  0
ACAD_PROXY_OBJECT
  5
559C
102
{ACAD_REACTORS
330
557C
102
}
330
557C
100
AcDbProxyObject
 90
      499
 91
      505
 93
      225
310
90A3622203D2031272D302200000000000006100000000000000284000
  0
ACAD_PROXY_OBJECT
  5
559D
102
{ACAD_REACTORS
330
557C
102
}
330
557C
100
AcDbProxyObject
 90
      499
 91
      505
 93
      249
310
90D31272D3022203D2031272D30220000000000000A100000000000000284000
  0
ACAD_PROXY_OBJECT
  5
5568
102
{ACAD_REACTORS
330
5563
102
}
330
5563
100
AcDbProxyObject
 90
      499
 91
      504
 93
      436
310
42CC9915DA5C99599C985B595049028333333333333E33F0000000000000F90107901411070040501600405405064090741402480A0340
1001
ACAD
1000
AcDbSavedByObjectVersion
1070
     0
  0
ACAD_PROXY_OBJECT
  5
556B
102
{ACAD_REACTORS
330
5563
102
}
330
5563
100
AcDbProxyObject
 90
      499
 91
      504
 93
      388
310
4150985CDA58D07406404333333333333E33F0000000000000F90107A41107004050150841D405064090741402480A0350
1001
ACAD
1000
AcDbSavedByObjectVersion
1070
     0
  0
ACAD_PROXY_OBJECT
  5
556F
102
{ACAD_REACTORS
330
5563
102
}
330
5563
100
AcDbProxyObject
 90
      499
 91
      504
 93
      428
310
42109C9A59DA1D195B90C409028333333333333E33F0000000000000F9010790141107004050150841D405064090741402480A029950
1001
ACAD
1000
AcDbSavedByObjectVersion
1070
     0
  0
ACAD_PROXY_OBJECT
  5
5573
102
{ACAD_REACTORS
330
5563
102
}
330
5563
100
AcDbProxyObject
 90
      499
 91
      504
 93
      452
310
42D0DBDB1BDC90DA185B99D95104090240C333333333333E33F0000000000000F90108901411070040501508421405064090741402480A0350
1001
ACAD
1000
AcDbSavedByObjectVersion
1070
     0
  0
ACAD_PROXY_OBJECT
  5
556D
102
{ACAD_REACTORS
330
5563
102
}
330
5563
100
AcDbProxyObject
 90
      499
 91
      504
 93
      500
310
4290DBDB98D95C1D1D585B10940D028333333333333E33F0000000000000F90107902409070040501000000000018199010841D405064090740C02480A0340
1001
ACAD
1000
AcDbSavedByObjectVersion
1070
     0
  0
ACAD_PROXY_OBJECT
  5
556E
102
{ACAD_REACTORS
330
5563
102
}
330
5563
100
AcDbProxyObject
 90
      499
 91
      504
 93
      412
310
40D11A5B50B409028333333333333E33F0000000000000F9010790141107004050150841D405064090741402480A02677FFFFFD0
1001
ACAD
1000
AcDbSavedByObjectVersion
1070
     0
  0
ACAD_PROXY_OBJECT
  5
5576
102
{ACAD_REACTORS
330
5563
102
}
330
5563
100
AcDbProxyObject
 90
      499
 91
      504
 93
      452
310
43115919D950DBDB1BDC93D999916409028333333333333E33F0000000000000F9010790141107004050150841D405064090741402480A0350
1001
ACAD
1000
AcDbSavedByObjectVersion
1070
     0
  0
ACAD_PROXY_OBJECT
  5
5572
102
{ACAD_REACTORS
330
5563
102
}
330
5563
100
AcDbProxyObject
 90
      499
 91
      504
 93
      444
310
42D19858D95C185D1D195C9B90F409028333333333333E33F0000000000000F9010790141107004050150841D405064090741402480A0350
1001
ACAD
1000
AcDbSavedByObjectVersion
1070
     0
  0
ACAD_PROXY_OBJECT
  5
5564
102
{ACAD_REACTORS
330
5563
102
}
330
5563
100
AcDbProxyObject
 90
      499
 91
      504
 93
      380
310
41119B185D240901404333333333333E33F0000000000000F9010740A907004050150841D405064090741402480A1B50
1001
ACAD
1000
AcDbSavedByObjectVersion
1070
     0
  0
ACAD_PROXY_OBJECT
  5
5565
102
{ACAD_REACTORS
330
5563
102
}
330
5563
100
AcDbProxyObject
 90
      499
 91
      504
 93
      468
310
43519B185D15DA5D1A115919D95CD0140901404333333333333E33F0000000000000F90107409019070040501600405405064090741402480A1B50
1001
ACAD
1000
AcDbSavedByObjectVersion
1070
     0
  0
ACAD_PROXY_OBJECT
  5
5566
102
{ACAD_REACTORS
330
5563
102
}
330
5563
100
AcDbProxyObject
 90
      499
 91
      504
 93
      404
310
41D1DBDD5C985D5910240902404333333333333E33F0000000000000F9010740A9070040501641D405064090741402480A1B50
1001
ACAD
1000
AcDbSavedByObjectVersion
1070
     0
  0
ACAD_PROXY_OBJECT
  5
5567
102
{ACAD_REACTORS
330
5563
102
}
330
5563
100
AcDbProxyObject
 90
      499
 91
      504
 93
      492
310
4411DBDD5C985D5915DA5D1A115919D95CD0340902404333333333333E33F0000000000000F90107409019070040501600405405064090741402480A1B50
1001
ACAD
1000
AcDbSavedByObjectVersion
1070
     0
  0
ACAD_PROXY_OBJECT
  5
556A
102
{ACAD_REACTORS
330
5563
102
}
330
5563
100
AcDbProxyObject
 90
      499
 91
      504
 93
      476
310
41921A5919195B90640502408333333333333E33F0000000000000F901079024090700405020000000000001110200405405064090740C02480A0340
1001
ACAD
1000
AcDbSavedByObjectVersion
1070
     0
  0
ACAD_PROXY_OBJECT
  5
5574
102
{ACAD_REACTORS
330
5563
102
}
330
5563
100
AcDbProxyObject
 90
      499
 91
      504
 93
      428
310
42529A5D1D195C93D999914409028333333333333E33F0000000000000F9010790141107004050150A41D405064090741402480A0350
1001
ACAD
1000
AcDbSavedByObjectVersion
1070
     0
  0
ACAD_PROXY_OBJECT
  5
5571
102
{ACAD_REACTORS
330
5563
102
}
330
5563
100
AcDbProxyObject
 90
      499
 91
      504
 93
      444
310
42D31A5B995C185D1D195C9B90E409028333333333333E33F0000000000000F9010790141107004050750841D405064090741402483A0350
1001
ACAD
1000
AcDbSavedByObjectVersion
1070
     0
  0
ACAD_PROXY_OBJECT
  5
58B2
102
{ACAD_REACTORS
330
5563
102
}
330
5563
100
AcDbProxyObject
 90
      499
 91
      504
 93
      412
310
90A409038333333333333E33F0000000000000F901074090290700405010000000000201990108421405064090741402480A1B40
1001
ACAD
1000
AcDbSavedByObjectVersion
1070
     0
  0
ACAD_PROXY_OBJECT
  5
5575
102
{ACAD_REACTORS
330
5563
102
}
330
5563
100
AcDbProxyObject
 90
      499
 91
      504
 93
      444
310
42D3DD995C9A185B99D3D999915409028333333333333E33F0000000000000F9010790141107004050150941D405064090741402480A0350
1001
ACAD
1000
AcDbSavedByObjectVersion
1070
     0
  0
ACAD_PROXY_OBJECT
  5
556C
102
{ACAD_REACTORS
330
5563
102
}
330
5563
100
AcDbProxyObject
 90
      499
 91
      504
 93
      428
310
425499585B1A5CDD1A58D08409038333333333333E33F0000000000000F9010740A907004050150800405405064090740C02480A1B40
1001
ACAD
1000
AcDbSavedByObjectVersion
1070
     0
  0
ACAD_PROXY_OBJECT
  5
557B
102
{ACAD_REACTORS
330
5563
102
}
330
5563
100
AcDbProxyObject
 90
      499
 91
      504
 93
      420
310
4194DA1859195911B40902404333333333333E33F0000000000000F9010740A41107004050150800405405064090840C02480A0B40
1001
ACAD
1000
AcDbSavedByObjectVersion
1070
     0
  0
ACAD_PROXY_OBJECT
  5
557A
102
{ACAD_REACTORS
330
5563
102
}
330
5563
100
AcDbProxyObject
 90
      499
 91
      504
 93
      516
310
4454DA18591959081DDA5D1A08195919D95CD1A40902404333333333333E33F0000000000000F901074090142907004050250800405405064090740C02480A0B40
1001
ACAD
1000
AcDbSavedByObjectVersion
1070
     0
  0
ACAD_PROXY_OBJECT
  5
5577
102
{ACAD_REACTORS
330
5563
102
}
330
5563
100
AcDbProxyObject
 90
      499
 91
      504
 93
      532
310
4394DA1859195CC81BD98811DC985E5174090240C333333333333E33F0000000000000F901079024090741D01000000000000111010841D405064090740C02480A0340
1001
ACAD
1000
AcDbSavedByObjectVersion
1070
     0
  0
ACAD_PROXY_OBJECT
  5
5578
102
{ACAD_REACTORS
330
5563
102
}
330
5563
100
AcDbProxyObject
 90
      499
 91
      504
 93
      476
310
41D4DAD95D18DA1E51840502408333333333333E33F0000000000000F901079024090741D01000000000000111010B41D405064090741802480A0340
1001
ACAD
1000
AcDbSavedByObjectVersion
1070
     0
  0
ACAD_PROXY_OBJECT
  5
5570
102
{ACAD_REACTORS
330
5563
102
}
330
5563
100
AcDbProxyObject
 90
      499
 91
      504
 93
      412
310
41D51A1A58DAD95B90D409028333333333333E33F0000000000000F9010790141107004050150C41D405064090741402480A0350
1001
ACAD
1000
AcDbSavedByObjectVersion
1070
     0
  0
ACAD_PROXY_OBJECT
  5
5569
102
{ACAD_REACTORS
330
5563
102
}
330
5563
100
AcDbProxyObject
 90
      499
 91
      504
 93
      420
310
4255DA5C99599C985B595059028333333333333E33F0000000000000F90107901411070040501600405405064090740C02480A0340
1001
ACAD
1000
AcDbSavedByObjectVersion
1070
     0
  0
ACAD_PROXY_OBJECT
  5
5579
102
{ACAD_REACTORS
330
5563
102
}
330
5563
100
AcDbProxyObject
 90
      499
 91
      504
 93
      404
310
41560B54985E51940902404000000000000E03F0000000000000F9010740501907004050150841D405064090740C02480A1B40
1001
ACAD
1000
AcDbSavedByObjectVersion
1070
     0
  0
XRECORD
  5
5E5B
102
{ACAD_REACTORS
330
5E51
102
}
330
5E51
100
AcDbXrecord
340
0
  0
XRECORD
  5
5E5A
102
{ACAD_REACTORS
330
5E51
102
}
330
5E51
100
AcDbXrecord
 90
        0
  0
XRECORD
  5
5E74
102
{ACAD_REACTORS
330
5E51
102
}
330
5E51
100
AcDbXrecord
340
2948
  0
XRECORD
  5
5E71
102
{ACAD_REACTORS
330
5E51
102
}
330
5E51
100
AcDbXrecord
1000
DSTYLE
1002
{
1070
   171
 70
     2
1070
   143
 40
0.0394
1070
   274
 70
     2
1070
    41
 40
6.0
1070
   342
340
2AF4
1070
   271
 70
     1
1070
   278
 70
    46
1070
   341
340
2AF4
1070
   272
 70
     1
1070
    48
 40
0.1
1070
   283
 70
     1
1070
    47
 40
0.1
1070
   145
 40
1.0
1070
   340
340
10
1070
   140
 40
8.0
1070
   284
 70
     0
1002
}
  0
XRECORD
  5
5E5C
102
{ACAD_REACTORS
330
5E51
102
}
330
5E51
100
AcDbXrecord
  1
{23698909-1D67-4744-B0E2-8DE11E3ED422}
  0
XRECORD
  5
5E54
102
{ACAD_REACTORS
330
5E51
102
}
330
5E51
100
AcDbXrecord
  1

  0
XRECORD
  5
5E59
102
{ACAD_REACTORS
330
5E51
102
}
330
5E51
100
AcDbXrecord
 90
        0
  0
XRECORD
  5
5E56
102
{ACAD_REACTORS
330
5E51
102
}
330
5E51
100
AcDbXrecord
340
2816
  0
XRECORD
  5
5E58
102
{ACAD_REACTORS
330
5E51
102
}
330
5E51
100
AcDbXrecord
 90
    10781
  0
XRECORD
  5
5E75
102
{ACAD_REACTORS
330
5E51
102
}
330
5E51
100
AcDbXrecord
340
2947
  0
XRECORD
  5
5E57
102
{ACAD_REACTORS
330
5E51
102
}
330
5E51
100
AcDbXrecord
340
2817
  0
XRECORD
  5
5E5E
102
{ACAD_REACTORS
330
5E51
102
}
330
5E51
100
AcDbXrecord
 40
0.25
  0
XRECORD
  5
5E61
102
{ACAD_REACTORS
330
5E51
102
}
330
5E51
100
AcDbXrecord
340
0
  0
XRECORD
  5
5E67
102
{ACAD_REACTORS
330
5E51
102
}
330
5E51
100
AcDbXrecord
 10
0.0
 20
0.0
 30
0.0
  0
XRECORD
  5
5E63
102
{ACAD_REACTORS
330
5E51
102
}
330
5E51
100
AcDbXrecord
 10
0.0
 20
0.0
 30
0.0
  0
XRECORD
  5
5E66
102
{ACAD_REACTORS
330
5E51
102
}
330
5E51
100
AcDbXrecord
 10
0.0
 20
0.0
 30
0.0
  0
XRECORD
  5
5E64
102
{ACAD_REACTORS
330
5E51
102
}
330
5E51
100
AcDbXrecord
 10
0.0
 20
0.0
 30
0.0
  0
XRECORD
  5
5E65
102
{ACAD_REACTORS
330
5E51
102
}
330
5E51
100
AcDbXrecord
 10
0.0
 20
0.0
 30
0.0
  0
XRECORD
  5
5E62
102
{ACAD_REACTORS
330
5E51
102
}
330
5E51
100
AcDbXrecord
 10
0.0
 20
0.0
 30
0.0
  0
XRECORD
  5
5E5F
102
{ACAD_REACTORS
330
5E51
102
}
330
5E51
100
AcDbXrecord
340
0
  0
XRECORD
  5
5E60
102
{ACAD_REACTORS
330
5E51
102
}
330
5E51
100
AcDbXrecord
 70
     0
  0
XRECORD
  5
5E55
102
{ACAD_REACTORS
330
5E51
102
}
330
5E51
100
AcDbXrecord
  1
TOWA.ctb
  0
XRECORD
  5
5E52
102
{ACAD_REACTORS
330
5E51
102
}
330
5E51
100
AcDbXrecord
 90
        1
  0
XRECORD
  5
5E53
102
{ACAD_REACTORS
330
5E51
102
}
330
5E51
100
AcDbXrecord
 90
       70
  0
XRECORD
  5
5E6A
102
{ACAD_REACTORS
330
5E51
102
}
330
5E51
100
AcDbXrecord
340
0
  0
XRECORD
  5
5E70
102
{ACAD_REACTORS
330
5E51
102
}
330
5E51
100
AcDbXrecord
 10
0.0
 20
0.0
 30
0.0
  0
XRECORD
  5
5E6C
102
{ACAD_REACTORS
330
5E51
102
}
330
5E51
100
AcDbXrecord
 10
0.0
 20
0.0
 30
0.0
  0
XRECORD
  5
5E6F
102
{ACAD_REACTORS
330
5E51
102
}
330
5E51
100
AcDbXrecord
 10
0.0
 20
0.0
 30
0.0
  0
XRECORD
  5
5E6D
102
{ACAD_REACTORS
330
5E51
102
}
330
5E51
100
AcDbXrecord
 10
0.0
 20
0.0
 30
0.0
  0
XRECORD
  5
5E6E
102
{ACAD_REACTORS
330
5E51
102
}
330
5E51
100
AcDbXrecord
 10
0.0
 20
0.0
 30
0.0
  0
XRECORD
  5
5E6B
102
{ACAD_REACTORS
330
5E51
102
}
330
5E51
100
AcDbXrecord
 10
0.0
 20
0.0
 30
0.0
  0
XRECORD
  5
5E68
102
{ACAD_REACTORS
330
5E51
102
}
330
5E51
100
AcDbXrecord
340
0
  0
XRECORD
  5
5E69
102
{ACAD_REACTORS
330
5E51
102
}
330
5E51
100
AcDbXrecord
 70
     0
  0
XRECORD
  5
5E5D
102
{ACAD_REACTORS
330
5E51
102
}
330
5E51
100
AcDbXrecord
  1
{E92464F2-96E2-4CF9-AB4F-2C38B0E78E28}
  0
DICTIONARYVAR
  5
5666
102
{ACAD_REACTORS
330
5665
102
}
330
5665
100
DictionaryVariables
280
     0
  1
1:1
  0
DICTIONARYVAR
  5
5668
102
{ACAD_REACTORS
330
5665
102
}
330
5665
100
DictionaryVariables
280
     0
  1
Standard
  0
DICTIONARYVAR
  5
5667
102
{ACAD_REACTORS
330
5665
102
}
330
5665
100
DictionaryVariables
280
     0
  1
Standard
  0
DICTIONARYVAR
  5
5E72
102
{ACAD_REACTORS
330
5665
102
}
330
5665
100
DictionaryVariables
280
     0
  1
1
  0
DICTIONARYVAR
  5
5E73
102
{ACAD_REACTORS
330
5665
102
}
330
5665
100
DictionaryVariables
280
     0
  1
0
  0
DICTIONARYVAR
  5
5669
102
{ACAD_REACTORS
330
5665
102
}
330
5665
100
DictionaryVariables
280
     0
  1
0
  0
DICTIONARYVAR
  5
566A
102
{ACAD_REACTORS
330
5665
102
}
330
5665
100
DictionaryVariables
280
     0
  1
0
  0
DICTIONARY
  5
55AA
102
{ACAD_REACTORS
330
55A9
102
}
330
55A9
100
AcDbDictionary
  0
DICTIONARY
  5
5629
102
{ACAD_REACTORS
330
5628
102
}
330
5628
100
AcDbDictionary
  0
DICTIONARY
  5
5642
102
{ACAD_REACTORS
330
5641
102
}
330
5641
100
AcDbDictionary
  0
DICTIONARY
  5
57A6
102
{ACAD_REACTORS
330
57A5
102
}
330
57A5
100
AcDbDictionary
  0
DICTIONARY
  5
57AA
102
{ACAD_REACTORS
330
57A9
102
}
330
57A9
100
AcDbDictionary
  0
DICTIONARY
  5
57AE
102
{ACAD_REACTORS
330
57AD
102
}
330
57AD
100
AcDbDictionary
  0
DICTIONARY
  5
57B2
102
{ACAD_REACTORS
330
57B1
102
}
330
57B1
100
AcDbDictionary
  0
DICTIONARY
  5
57B6
102
{ACAD_REACTORS
330
57B5
102
}
330
57B5
100
AcDbDictionary
  0
DICTIONARY
  5
57BA
102
{ACAD_REACTORS
330
57B9
102
}
330
57B9
100
AcDbDictionary
  0
DICTIONARY
  5
57BE
102
{ACAD_REACTORS
330
57BD
102
}
330
57BD
100
AcDbDictionary
  0
DICTIONARY
  5
57C2
102
{ACAD_REACTORS
330
57C1
102
}
330
57C1
100
AcDbDictionary
  0
DICTIONARY
  5
565D
102
{ACAD_REACTORS
330
565C
102
}
330
565C
100
AcDbDictionary
  0
DICTIONARY
  5
58F1
102
{ACAD_REACTORS
330
58F0
102
}
330
58F0
100
AcDbDictionary
  0
DICTIONARY
  5
5A3E
102
{ACAD_REACTORS
330
5A3D
102
}
330
5A3D
100
AcDbDictionary
  0
DICTIONARY
  5
5AA3
102
{ACAD_REACTORS
330
5AA2
102
}
330
5AA2
100
AcDbDictionary
  0
DICTIONARY
  5
5D3C
102
{ACAD_REACTORS
330
5D3B
102
}
330
5D3B
100
AcDbDictionary
  0
DICTIONARY
  5
5E7B
330
559F
100
AcDbDictionary
280
     1
  3
ACAD_XREC_ROUNDTRIP
360
5E7C
  0
DICTIONARY
  5
5E79
330
559E
100
AcDbDictionary
280
     1
  3
ACAD_XREC_ROUNDTRIP
360
5E7A
  0
DICTIONARY
  5
5E7D
330
55A0
100
AcDbDictionary
280
     1
  3
ACAD_XREC_ROUNDTRIP
360
5E7E
  0
XRECORD
  5
5E7C
102
{ACAD_REACTORS
330
5E7B
102
}
330
5E7B
100
AcDbXrecord
102
MATERIAL
148
0.0
149
0.0
149
0.0
 93
        0
 94
      127
282
     0
 72
     1
 77
     1
171
     1
175
     1
179
     1
273
     0
  0
XRECORD
  5
5E7A
102
{ACAD_REACTORS
330
5E79
102
}
330
5E79
100
AcDbXrecord
102
MATERIAL
148
0.0
149
0.0
149
0.0
 93
        0
 94
      127
282
     0
 72
     1
 77
     1
171
     1
175
     1
179
     1
273
     0
  0
XRECORD
  5
5E7E
102
{ACAD_REACTORS
330
5E7D
102
}
330
5E7D
100
AcDbXrecord
102
MATERIAL
148
0.0
149
0.0
149
0.0
 93
        0
 94
      127
282
     0
 72
     1
 77
     1
171
     1
175
     1
179
     1
273
     0
  0
ENDSEC
  0
EOF
