  0
SECTION
  2
HEADER
  9
$ACADVER
  1
AC1014
  9
$ACADMAINTVER
 70
     9
  9
$DWGCODEPAGE
  3
ANSI_932
  9
$INSBASE
 10
0.0
 20
0.0
 30
0.0
  9
$EXTMIN
 10
-37.963382989209
 20
133.968246755607
 30
0.0
  9
$EXTMAX
 10
616.329048890671
 20
521.327455218424
 30
0.0
  9
$LIMMIN
 10
-360.747566795242
 20
4.457354754526
  9
$LIMMAX
 10
-162.153696144267
 20
287.675440264018
  9
$ORTHOMODE
 70
     0
  9
$REGENMODE
 70
     1
  9
$FILLMODE
 70
     1
  9
$QTEXTMODE
 70
     0
  9
$MIRRTEXT
 70
     1
  9
$DRAGMODE
 70
     2
  9
$LTSCALE
 40
1.0
  9
$OSMODE
 70
   935
  9
$ATTMODE
 70
     1
  9
$TEXTSIZE
 40
5.0
  9
$TRACEWID
 40
1.0
  9
$TEXTSTYLE
  7
STANDARD
  9
$CLAYER
  8
寸法線
  9
$CELTYPE
  6
BYLAYER
  9
$CECOLOR
 62
   256
  9
$CELTSCALE
 40
10.0
  9
$DELOBJ
 70
     1
  9
$DISPSILH
 70
     0
  9
$DIMSCALE
 40
1.0
  9
$DIMASZ
 40
6.0
  9
$DIMEXO
 40
0.625
  9
$DIMDLI
 40
3.75
  9
$DIMRND
 40
0.0
  9
$DIMDLE
 40
0.0
  9
$DIMEXE
 40
1.25
  9
$DIMTP
 40
0.1
  9
$DIMTM
 40
0.1
  9
$DIMTXT
 40
8.0
  9
$DIMCEN
 40
2.5
  9
$DIMTSZ
 40
0.0
  9
$DIMTOL
 70
     0
  9
$DIMLIM
 70
     0
  9
$DIMTIH
 70
     0
  9
$DIMTOH
 70
     0
  9
$DIMSE1
 70
     0
  9
$DIMSE2
 70
     0
  9
$DIMTAD
 70
     1
  9
$DIMZIN
 70
     8
  9
$DIMBLK
  1
OPEN30
  9
$DIMASO
 70
     1
  9
$DIMSHO
 70
     1
  9
$DIMPOST
  1

  9
$DIMAPOST
  1

  9
$DIMALT
 70
     0
  9
$DIMALTD
 70
     2
  9
$DIMALTF
 40
0.0394
  9
$DIMLFAC
 40
1.0
  9
$DIMTOFL
 70
     1
  9
$DIMTVP
 40
1.0
  9
$DIMTIX
 70
     0
  9
$DIMSOXD
 70
     0
  9
$DIMSAH
 70
     0
  9
$DIMBLK1
  1

  9
$DIMBLK2
  1

  9
$DIMSTYLE
  2
ISO-25
  9
$DIMCLRD
 70
     0
  9
$DIMCLRE
 70
     0
  9
$DIMCLRT
 70
     0
  9
$DIMTFAC
 40
1.0
  9
$DIMGAP
 40
0.625
  9
$DIMJUST
 70
     0
  9
$DIMSD1
 70
     0
  9
$DIMSD2
 70
     0
  9
$DIMTOLJ
 70
     1
  9
$DIMTZIN
 70
     0
  9
$DIMALTZ
 70
     0
  9
$DIMALTTZ
 70
     0
  9
$DIMFIT
 70
     3
  9
$DIMUPT
 70
     0
  9
$DIMUNIT
 70
     2
  9
$DIMDEC
 70
     1
  9
$DIMTDEC
 70
     1
  9
$DIMALTU
 70
     2
  9
$DIMALTTD
 70
     2
  9
$DIMTXSTY
  7
STANDARD
  9
$DIMAUNIT
 70
     0
  9
$LUNITS
 70
     2
  9
$LUPREC
 70
     4
  9
$SKETCHINC
 40
1.0
  9
$FILLETRAD
 40
1.0
  9
$AUNITS
 70
     0
  9
$AUPREC
 70
     0
  9
$MENU
  1
.
  9
$ELEVATION
 40
0.0
  9
$PELEVATION
 40
0.0
  9
$THICKNESS
 40
0.0
  9
$LIMCHECK
 70
     0
  9
$CHAMFERA
 40
0.5
  9
$CHAMFERB
 40
0.5
  9
$CHAMFERC
 40
20.0
  9
$CHAMFERD
 40
0.0
  9
$SKPOLY
 70
     0
  9
$TDCREATE
 40
2450576.597302431
  9
$TDUPDATE
 40
2457658.776797072
  9
$TDINDWG
 40
1.5473917245
  9
$TDUSRTIMER
 40
1.5473900926
  9
$USRTIMER
 70
     1
  9
$ANGBASE
 50
0.0
  9
$ANGDIR
 70
     0
  9
$PDMODE
 70
     0
  9
$PDSIZE
 40
0.0
  9
$PLINEWID
 40
0.0
  9
$COORDS
 70
     2
  9
$SPLFRAME
 70
     0
  9
$SPLINETYPE
 70
     6
  9
$SPLINESEGS
 70
     8
  9
$ATTDIA
 70
     0
  9
$ATTREQ
 70
     1
  9
$HANDLING
 70
     1
  9
$HANDSEED
  5
5658
  9
$SURFTAB1
 70
     6
  9
$SURFTAB2
 70
     6
  9
$SURFTYPE
 70
     6
  9
$SURFU
 70
     6
  9
$SURFV
 70
     6
  9
$UCSNAME
  2

  9
$UCSORG
 10
0.0
 20
0.0
 30
0.0
  9
$UCSXDIR
 10
1.0
 20
0.0
 30
0.0
  9
$UCSYDIR
 10
0.0
 20
1.0
 30
0.0
  9
$PUCSNAME
  2

  9
$PUCSORG
 10
0.0
 20
0.0
 30
0.0
  9
$PUCSXDIR
 10
1.0
 20
0.0
 30
0.0
  9
$PUCSYDIR
 10
0.0
 20
1.0
 30
0.0
  9
$USERI1
 70
     0
  9
$USERI2
 70
     0
  9
$USERI3
 70
     0
  9
$USERI4
 70
     0
  9
$USERI5
 70
     0
  9
$USERR1
 40
0.0
  9
$USERR2
 40
0.0
  9
$USERR3
 40
0.0
  9
$USERR4
 40
0.0
  9
$USERR5
 40
0.0
  9
$WORLDVIEW
 70
     1
  9
$SHADEDGE
 70
     3
  9
$SHADEDIF
 70
    70
  9
$TILEMODE
 70
     0
  9
$MAXACTVP
 70
    16
  9
$PINSBASE
 10
0.0
 20
0.0
 30
0.0
  9
$PLIMCHECK
 70
     0
  9
$PEXTMIN
 10
2.579940977619
 20
1.396645458131
 30
0.0
  9
$PEXTMAX
 10
402.579940977619
 20
281.396645458131
 30
0.0
  9
$PLIMMIN
 10
-7.007122192383
 20
-7.007118782997
  9
$PLIMMAX
 10
417.718108215332
 20
293.315290427208
  9
$UNITMODE
 70
     0
  9
$VISRETAIN
 70
     0
  9
$PLINEGEN
 70
     0
  9
$PSLTSCALE
 70
     1
  9
$TREEDEPTH
 70
  3020
  9
$PICKSTYLE
 70
     1
  9
$CMLSTYLE
  2
STANDARD
  9
$CMLJUST
 70
     0
  9
$CMLSCALE
 40
1.0
  9
$PROXYGRAPHICS
 70
     1
  9
$MEASUREMENT
 70
     1
  0
ENDSEC
  0
SECTION
  2
CLASSES
  0
CLASS
  1
ACDBDICTIONARYWDFLT
  2
AcDbDictionaryWithDefault
  3
ObjectDBX Classes
 90
        0
280
     0
281
     0
  0
CLASS
  1
ACDBPLACEHOLDER
  2
AcDbPlaceHolder
  3
ObjectDBX Classes
 90
        0
280
     0
281
     0
  0
CLASS
  1
LAYOUT
  2
AcDbLayout
  3
ObjectDBX Classes
 90
        0
280
     0
281
     0
  0
CLASS
  1
SORTENTSTABLE
  2
AcDbSortentsTable
  3
ObjectDBX Classes
 90
        0
280
     0
281
     0
  0
CLASS
  1
DICTIONARYVAR
  2
AcDbDictionaryVar
  3
ObjectDBX Classes
 90
        0
280
     0
281
     0
  0
CLASS
  1
VISUALSTYLE
  2
AcDbVisualStyle
  3
ObjectDBX Classes
 90
     4095
280
     0
281
     0
  0
CLASS
  1
SCALE
  2
AcDbScale
  3
ObjectDBX Classes
 90
     1153
280
     0
281
     0
  0
CLASS
  1
MATERIAL
  2
AcDbMaterial
  3
ObjectDBX Classes
 90
     1153
280
     0
281
     0
  0
CLASS
  1
TABLESTYLE
  2
AcDbTableStyle
  3
ObjectDBX Classes
 90
     4095
280
     0
281
     0
  0
CLASS
  1
MLEADERSTYLE
  2
AcDbMLeaderStyle
  3
ACDB_MLEADERSTYLE_CLASS
 90
     4095
280
     0
281
     0
  0
CLASS
  1
SUN
  2
AcDbSun
  3
SCENEOE
 90
     1153
280
     0
281
     0
  0
CLASS
  1
CELLSTYLEMAP
  2
AcDbCellStyleMap
  3
ObjectDBX Classes
 90
     1152
280
     0
281
     0
  0
CLASS
  1
XRECORD
  2
AcDbXrecord
  3
ObjectDBX Classes
 90
        0
280
     0
281
     0
  0
CLASS
  1
LWPOLYLINE
  2
AcDbPolyline
  3
ObjectDBX Classes
 90
        0
280
     0
281
     1
  0
CLASS
  1
HATCH
  2
AcDbHatch
  3
ObjectDBX Classes
 90
        0
280
     0
281
     1
  0
ENDSEC
  0
SECTION
  2
TABLES
  0
TABLE
  2
VPORT
  5
8
102
{ACAD_XDICTIONARY
360
5650
102
}
330
0
100
AcDbSymbolTable
 70
     1
  0
VPORT
  5
4C2A
330
8
100
AcDbSymbolTableRecord
100
AcDbViewportTableRecord
  2
*ACTIVE
 70
     0
 10
0.0
 20
0.0
 11
1.0
 21
1.0
 12
289.182832950731
 22
327.647850987016
 13
0.0
 23
0.0
 14
1.0
 24
1.0
 15
0.0
 25
0.0
 16
0.0
 26
0.0
 36
1.0
 17
0.0
 27
0.0
 37
0.0
 40
395.106392632074
 41
1.759407069555
 42
50.0
 43
0.0
 44
0.0
 50
0.0
 51
0.0
 71
    16
 72
   100
 73
     1
 74
     0
 75
     0
 76
     0
 77
     0
 78
     0
  0
ENDTAB
  0
TABLE
  2
LTYPE
  5
5
330
0
100
AcDbSymbolTable
 70
     6
  0
LTYPE
  5
14
330
5
100
AcDbSymbolTableRecord
100
AcDbLinetypeTableRecord
  2
BYBLOCK
 70
     0
  3

 72
    65
 73
     0
 40
0.0
  0
LTYPE
  5
15
330
5
100
AcDbSymbolTableRecord
100
AcDbLinetypeTableRecord
  2
BYLAYER
 70
     0
  3

 72
    65
 73
     0
 40
0.0
  0
LTYPE
  5
16
330
5
100
AcDbSymbolTableRecord
100
AcDbLinetypeTableRecord
  2
CONTINUOUS
 70
     0
  3
Solid line
 72
    65
 73
     0
 40
0.0
  0
LTYPE
  5
1EC
330
5
100
AcDbSymbolTableRecord
100
AcDbLinetypeTableRecord
  2
CENTER
 70
     0
  3
____ _ ____ _ ____ _ ____ _ ____ _ ____ _ ____ 
 72
    65
 73
     4
 40
2.0
 49
1.25
 74
     0
 49
-0.25
 74
     0
 49
0.25
 74
     0
 49
-0.25
 74
     0
  0
LTYPE
  5
1ED
330
5
100
AcDbSymbolTableRecord
100
AcDbLinetypeTableRecord
  2
DASHED
 70
     0
  3
__ __ __ __ __ __ __ __ __ __ __ __ __ __ __ __
 72
    65
 73
     2
 40
0.75
 49
0.5
 74
     0
 49
-0.25
 74
     0
  0
LTYPE
  5
2B1F
330
5
100
AcDbSymbolTableRecord
100
AcDbLinetypeTableRecord
  2
DASHDOT
 70
     0
  3
一点鎖線
 72
    65
 73
     4
 40
25.6
 49
20.0
 74
     0
 49
-2.0
 74
     0
 49
1.6
 74
     0
 49
-2.0
 74
     0
  0
LTYPE
  5
31A1
330
5
100
AcDbSymbolTableRecord
100
AcDbLinetypeTableRecord
  2
CENTER2
 70
     0
  3
Center (.5x) ___ _ ___ _ ___ _ ___ _ ___ _ ___
 72
    65
 73
     4
 40
28.575
 49
19.05
 74
     0
 49
-3.175
 74
     0
 49
3.175
 74
     0
 49
-3.175
 74
     0
  0
LTYPE
  5
4002
330
5
100
AcDbSymbolTableRecord
100
AcDbLinetypeTableRecord
  2
DASHED2
 70
     0
  3
Dashed (.5x) _ _ _ _ _ _ _ _ _ _ _ _ _ _ _ _ _
 72
    65
 73
     2
 40
9.525
 49
6.35
 74
     0
 49
-3.175
 74
     0
  0
ENDTAB
  0
TABLE
  2
LAYER
  5
2
102
{ACAD_XDICTIONARY
360
29EA
102
}
330
0
100
AcDbSymbolTable
 70
    12
  0
LAYER
  5
F
330
2
100
AcDbSymbolTableRecord
100
AcDbLayerTableRecord
  2
0
 70
     0
 62
     7
  6
CONTINUOUS
  0
LAYER
  5
61
330
2
100
AcDbSymbolTableRecord
100
AcDbLayerTableRecord
  2
図枠太線
 70
     0
 62
   251
  6
CONTINUOUS
  0
LAYER
  5
62
330
2
100
AcDbSymbolTableRecord
100
AcDbLayerTableRecord
  2
図枠細線
 70
     0
 62
   252
  6
CONTINUOUS
  0
LAYER
  5
63
330
2
100
AcDbSymbolTableRecord
100
AcDbLayerTableRecord
  2
図枠ロゴマーク
 70
     0
 62
   253
  6
CONTINUOUS
  0
LAYER
  5
1EF
330
2
100
AcDbSymbolTableRecord
100
AcDbLayerTableRecord
  2
外形線
 70
     0
 62
     7
  6
CONTINUOUS
  0
LAYER
  5
1F0
330
2
100
AcDbSymbolTableRecord
100
AcDbLayerTableRecord
  2
寸法線
 70
     0
 62
     1
  6
CONTINUOUS
  0
LAYER
  5
1F1
330
2
100
AcDbSymbolTableRecord
100
AcDbLayerTableRecord
  2
中心線
 70
     0
 62
     4
  6
CENTER
  0
LAYER
  5
1F4
330
2
100
AcDbSymbolTableRecord
100
AcDbLayerTableRecord
  2
DEFPOINTS
 70
     0
 62
     7
  6
CONTINUOUS
  0
LAYER
  5
2AA2
330
2
100
AcDbSymbolTableRecord
100
AcDbLayerTableRecord
  2
下書線
 70
     0
 62
     2
  6
CONTINUOUS
  0
LAYER
  5
2AA3
330
2
100
AcDbSymbolTableRecord
100
AcDbLayerTableRecord
  2
隠れ線
 70
     0
 62
     3
  6
DASHED
  0
LAYER
  5
2AA4
330
2
100
AcDbSymbolTableRecord
100
AcDbLayerTableRecord
  2
細線
 70
     0
 62
     6
  6
CONTINUOUS
  0
LAYER
  5
2AA5
330
2
100
AcDbSymbolTableRecord
100
AcDbLayerTableRecord
  2
太線
 70
     0
 62
   190
  6
CONTINUOUS
  0
ENDTAB
  0
TABLE
  2
STYLE
  5
3
330
0
100
AcDbSymbolTable
 70
     2
  0
STYLE
  5
10
330
3
100
AcDbSymbolTableRecord
100
AcDbTextStyleTableRecord
  2
STANDARD
 70
     0
 40
0.0
 41
1.0
 50
0.0
 71
     0
 42
5.0
  3
ISOCP
  4
bigfont.shx
  0
STYLE
  5
64
330
3
100
AcDbSymbolTableRecord
100
AcDbTextStyleTableRecord
  2
EXCADSTD
 70
     0
 40
0.0
 41
1.0
 50
0.0
 71
     0
 42
0.2
  3
monotxt
  4
bigfont
  0
ENDTAB
  0
TABLE
  2
VIEW
  5
6
330
0
100
AcDbSymbolTable
 70
     0
  0
ENDTAB
  0
TABLE
  2
UCS
  5
7
330
0
100
AcDbSymbolTable
 70
     0
  0
ENDTAB
  0
TABLE
  2
APPID
  5
9
330
0
100
AcDbSymbolTable
 70
     6
  0
APPID
  5
11
330
9
100
AcDbSymbolTableRecord
100
AcDbRegAppTableRecord
  2
ACAD
 70
     0
  0
APPID
  5
3507
330
9
100
AcDbSymbolTableRecord
100
AcDbRegAppTableRecord
  2
ACAD_DIMASSOC_CALC_DIMLFAC
 70
     0
  0
APPID
  5
3508
330
9
100
AcDbSymbolTableRecord
100
AcDbRegAppTableRecord
  2
ACAD_DIMASSOC_DIMLFAC
 70
     0
  0
APPID
  5
3509
330
9
100
AcDbSymbolTableRecord
100
AcDbRegAppTableRecord
  2
ACAD_DIMASSOC_OVERRIDDEN_D
 70
     0
  0
APPID
  5
4C7F
330
9
100
AcDbSymbolTableRecord
100
AcDbRegAppTableRecord
  2
ACADANNOTATIVE
 70
     0
  0
APPID
  5
510B
330
9
100
AcDbSymbolTableRecord
100
AcDbRegAppTableRecord
  2
ACAD_MLEADERVER
 70
     0
  0
ENDTAB
  0
TABLE
  2
DIMSTYLE
  5
A
330
0
100
AcDbSymbolTable
 70
     2
  0
DIMSTYLE
105
1D
330
A
100
AcDbSymbolTableRecord
100
AcDbDimStyleTableRecord
  2
STANDARD
 70
     0
  3

  4

  5

  6

  7

 40
1.0
 41
0.18
 42
0.0625
 43
0.38
 44
0.18
 45
0.0
 46
0.0
 47
0.0
 48
0.0
140
0.18
141
0.09
142
0.0
143
25.4
144
1.0
145
0.0
146
1.0
147
0.09
 71
     0
 72
     0
 73
     1
 74
     1
 75
     0
 76
     0
 77
     0
 78
     0
170
     0
171
     2
172
     0
173
     0
174
     0
175
     0
176
     0
177
     0
178
     0
270
     2
271
     4
272
     4
273
     2
274
     2
340
10
275
     0
280
     0
281
     0
282
     0
283
     1
284
     0
285
     0
286
     0
287
     3
288
     0
  0
DIMSTYLE
105
24
102
{ACAD_REACTORS
330
436B
330
4378
330
44EC
330
44F9
330
45ED
330
4F20
330
4F21
330
4F22
330
4F23
330
4F24
330
4F2C
330
5527
102
}
330
A
100
AcDbSymbolTableRecord
100
AcDbDimStyleTableRecord
  2
ISO-25
 70
     0
  3

  4

  5

  6

  7

 40
1.0
 41
2.5
 42
0.625
 43
3.75
 44
1.25
 45
0.0
 46
0.0
 47
0.0
 48
0.0
140
2.5
141
2.5
142
0.0
143
0.0394
144
1.0
145
1.0
146
1.0
147
0.625
 71
     0
 72
     0
 73
     1
 74
     0
 75
     0
 76
     0
 77
     1
 78
     8
170
     0
171
     2
172
     1
173
     0
174
     0
175
     0
176
     0
177
     0
178
     0
270
     2
271
     4
272
     4
273
     2
274
     2
340
10
275
     0
280
     0
281
     0
282
     0
283
     1
284
     0
285
     0
286
     0
287
     3
288
     0
  0
ENDTAB
  0
TABLE
  2
BLOCK_RECORD
  5
1
330
0
100
AcDbSymbolTable
 70
    50
  0
BLOCK_RECORD
  5
1A
102
{ACAD_XDICTIONARY
360
4506
102
}
330
1
100
AcDbSymbolTableRecord
100
AcDbBlockTableRecord
  2
*MODEL_SPACE
  0
BLOCK_RECORD
  5
28FB
330
1
100
AcDbSymbolTableRecord
100
AcDbBlockTableRecord
  2
*PAPER_SPACE
  0
BLOCK_RECORD
  5
65
330
1
100
AcDbSymbolTableRecord
100
AcDbBlockTableRecord
  2
A$C3392
  0
BLOCK_RECORD
  5
29BF
330
1
100
AcDbSymbolTableRecord
100
AcDbBlockTableRecord
  2
A4横用_タイトル
1001
ACAD
1000
DesignCenter Data
1002
{
1070
     1
1070
     4
1002
}
  0
BLOCK_RECORD
  5
29F4
330
1
100
AcDbSymbolTableRecord
100
AcDbBlockTableRecord
  2
A4縦用_タイトル
1001
ACAD
1000
DesignCenter Data
1002
{
1070
     1
1070
     4
1002
}
  0
BLOCK_RECORD
  5
2A32
330
1
100
AcDbSymbolTableRecord
100
AcDbBlockTableRecord
  2
A3横用_タイトル
1001
ACAD
1000
DesignCenter Data
1002
{
1070
     1
1070
     4
1002
}
  0
BLOCK_RECORD
  5
2A6C
330
1
100
AcDbSymbolTableRecord
100
AcDbBlockTableRecord
  2
A3縦用_タイトル
1001
ACAD
1000
DesignCenter Data
1002
{
1070
     1
1070
     4
1002
}
  0
BLOCK_RECORD
  5
2AF4
330
1
100
AcDbSymbolTableRecord
100
AcDbBlockTableRecord
  2
_OPEN30
  0
BLOCK_RECORD
  5
436C
330
1
100
AcDbSymbolTableRecord
100
AcDbBlockTableRecord
  2
*D12
  0
BLOCK_RECORD
  5
4379
330
1
100
AcDbSymbolTableRecord
100
AcDbBlockTableRecord
  2
*D13
  0
BLOCK_RECORD
  5
44ED
330
1
100
AcDbSymbolTableRecord
100
AcDbBlockTableRecord
  2
*D15
  0
BLOCK_RECORD
  5
44FA
330
1
100
AcDbSymbolTableRecord
100
AcDbBlockTableRecord
  2
*D16
  0
BLOCK_RECORD
  5
45EE
330
1
100
AcDbSymbolTableRecord
100
AcDbBlockTableRecord
  2
*D17
  0
BLOCK_RECORD
  5
480B
330
1
100
AcDbSymbolTableRecord
100
AcDbBlockTableRecord
  2
静電容量センサ
  0
BLOCK_RECORD
  5
4ADE
330
1
100
AcDbSymbolTableRecord
100
AcDbBlockTableRecord
  2
A$C1FF97662
  0
BLOCK_RECORD
  5
4F6B
330
1
100
AcDbSymbolTableRecord
100
AcDbBlockTableRecord
  2
*D40
  0
BLOCK_RECORD
  5
4F76
330
1
100
AcDbSymbolTableRecord
100
AcDbBlockTableRecord
  2
*D41
  0
BLOCK_RECORD
  5
4F81
330
1
100
AcDbSymbolTableRecord
100
AcDbBlockTableRecord
  2
*D42
  0
BLOCK_RECORD
  5
4F8C
330
1
100
AcDbSymbolTableRecord
100
AcDbBlockTableRecord
  2
*D43
  0
BLOCK_RECORD
  5
4F97
330
1
100
AcDbSymbolTableRecord
100
AcDbBlockTableRecord
  2
*D44
  0
BLOCK_RECORD
  5
4FAF
330
1
100
AcDbSymbolTableRecord
100
AcDbBlockTableRecord
  2
*D46
  0
BLOCK_RECORD
  5
5536
330
1
100
AcDbSymbolTableRecord
100
AcDbBlockTableRecord
  2
*D49
  0
ENDTAB
  0
ENDSEC
  0
SECTION
  2
BLOCKS
  0
BLOCK
  5
1B
330
1A
100
AcDbEntity
  8
0
100
AcDbBlockBegin
  2
*MODEL_SPACE
 70
     0
 10
0.0
 20
0.0
 30
0.0
  3
*MODEL_SPACE
  1

  0
ENDBLK
  5
1C
330
1A
100
AcDbEntity
  8
0
100
AcDbBlockEnd
  0
BLOCK
  5
28FD
330
28FB
100
AcDbEntity
 67
     1
  8
0
 48
10.0
100
AcDbBlockBegin
  2
*PAPER_SPACE
 70
     0
 10
0.0
 20
0.0
 30
0.0
  3
*PAPER_SPACE
  1

  0
ENDBLK
  5
28FE
330
28FB
100
AcDbEntity
 67
     1
  8
0
 48
10.0
100
AcDbBlockEnd
  0
BLOCK
  5
93
330
65
100
AcDbEntity
  8
0
 48
10.0
100
AcDbBlockBegin
  2
A$C3392
 70
     0
 10
0.0
 20
0.0
 30
0.0
  3
A$C3392
  1

  0
LINE
  5
66
330
65
100
AcDbEntity
  8
図枠太線
  6
CONTINUOUS
100
AcDbLine
 10
211.858584505185
 20
30.927375675439
 30
0.0
 11
211.858584505185
 21
0.927375675439
 31
0.0
  0
LINE
  5
67
330
65
100
AcDbEntity
  8
図枠細線
  6
CONTINUOUS
100
AcDbLine
 10
231.858592505185
 20
15.927377675439
 30
0.0
 11
287.858592505185
 21
15.927375675439
 31
0.0
  0
LINE
  5
68
330
65
100
AcDbEntity
  8
図枠細線
  6
CONTINUOUS
100
AcDbLine
 10
211.858592505185
 20
15.927377675439
 30
0.0
 11
231.858592505185
 21
15.927377675439
 31
0.0
  0
LINE
  5
69
330
65
100
AcDbEntity
  8
図枠太線
  6
CONTINUOUS
 62
   251
100
AcDbLine
 10
1.858584505185
 20
0.927375675439
 30
0.0
 11
1.858584505185
 21
275.927375675439
 31
0.0
  0
TEXT
  5
6A
330
65
100
AcDbEntity
  8
図枠細線
  6
CONTINUOUS
 62
   252
100
AcDbText
 10
351.358592505185
 20
28.427377675439
 30
0.0
 40
2.0
  1
ＴＩＴＬＥ
 41
0.903614457831
  7
EXCADSTD
 72
     5
 11
361.358592505185
 21
28.427377675439
 31
0.0
100
AcDbText
  0
TEXT
  5
6B
330
65
100
AcDbEntity
  8
図枠細線
  6
CONTINUOUS
 62
   252
100
AcDbText
 10
345.358592505185
 20
28.427377675439
 30
0.0
 40
2.0
  1
名称
 41
1.171875
  7
EXCADSTD
 72
     5
 11
350.358592505185
 21
28.427377675439
 31
0.0
100
AcDbText
  0
TEXT
  5
6C
330
65
100
AcDbEntity
  8
図枠細線
  6
CONTINUOUS
 62
   252
100
AcDbText
 10
274.358592505185
 20
25.927377675439
 30
0.0
 40
2.0
  1
ＤＲＡＷＮ
 41
0.882352941176
  7
EXCADSTD
 72
     5
 11
284.358592505185
 21
25.927377675439
 31
0.0
100
AcDbText
  0
TEXT
  5
6D
330
65
100
AcDbEntity
  8
図枠細線
  6
CONTINUOUS
 62
   252
100
AcDbText
 10
260.358592505185
 20
25.927377675439
 30
0.0
 40
2.0
  1
ＤＥＳＩＧＮＥＤ
 41
0.713043472041
  7
EXCADSTD
 72
     5
 11
273.478592390744
 21
25.927377675439
 31
0.0
100
AcDbText
  0
TEXT
  5
6E
330
65
100
AcDbEntity
  8
図枠細線
  6
CONTINUOUS
 62
   252
100
AcDbText
 10
246.358592505185
 20
25.927377675439
 30
0.0
 40
2.0
  1
ＣＨＥＣＫＥＤ
 41
0.831249989569
  7
EXCADSTD
 72
     5
 11
259.658592338292
 21
25.927377675439
 31
0.0
100
AcDbText
  0
TEXT
  5
6F
330
65
100
AcDbEntity
  8
図枠細線
  6
CONTINUOUS
 62
   252
100
AcDbText
 10
274.358592505185
 20
28.427377675439
 30
0.0
 40
2.0
  1
製図
 41
1.209677419355
  7
EXCADSTD
 72
     5
 11
279.358592505185
 21
28.427377675439
 31
0.0
100
AcDbText
  0
TEXT
  5
70
330
65
100
AcDbEntity
  8
図枠細線
  6
CONTINUOUS
 62
   252
100
AcDbText
 10
260.358592505185
 20
28.427377675439
 30
0.0
 40
2.0
  1
設計
 41
1.171875
  7
EXCADSTD
 72
     5
 11
265.358592505185
 21
28.427377675439
 31
0.0
100
AcDbText
  0
TEXT
  5
71
330
65
100
AcDbEntity
  8
図枠細線
  6
CONTINUOUS
 62
   252
100
AcDbText
 10
246.358592505185
 20
28.427377675439
 30
0.0
 40
2.0
  1
検図
 41
1.209677419355
  7
EXCADSTD
 72
     5
 11
251.358592505185
 21
28.427377675439
 31
0.0
100
AcDbText
  0
TEXT
  5
72
330
65
100
AcDbEntity
  8
図枠細線
  6
CONTINUOUS
 62
   252
100
AcDbText
 10
232.358592505185
 20
25.927377675439
 30
0.0
 40
2.0
  1
ＡＰＰＲＯＶＥＤ
 41
0.695652184279
  7
EXCADSTD
 72
     5
 11
245.15859269592
 21
25.927377675439
 31
0.0
100
AcDbText
  0
TEXT
  5
73
330
65
100
AcDbEntity
  8
図枠細線
  6
CONTINUOUS
 62
   252
100
AcDbText
 10
232.358592505185
 20
28.427377675439
 30
0.0
 40
2.0
  1
承認
 41
1.171875
  7
EXCADSTD
 72
     5
 11
237.358592505185
 21
28.427377675439
 31
0.0
100
AcDbText
  0
TEXT
  5
74
330
65
100
AcDbEntity
  8
図枠細線
  6
CONTINUOUS
 62
   252
100
AcDbText
 10
290.069888505185
 20
2.574868675439
 30
0.0
 40
3.5
  1
ＴＯＷＡ　ＳＥＩＤＥＮ　ＩＮＤＵＳＴＲＩＡＬ　ＣＯ．，ＬＴＤ．
 41
0.414568012377
  7
EXCADSTD
 72
     5
 11
342.692388209546
 21
2.574868675439
 31
0.0
100
AcDbText
  0
TEXT
  5
75
330
65
100
AcDbEntity
  8
図枠ロゴマーク
  6
CONTINUOUS
 62
   253
100
AcDbText
 10
290.107348505185
 20
7.519769675439
 30
0.0
 40
7.0
  1
東和制電工業株式会社
 41
0.639204545455
  7
EXCADSTD
 72
     5
 11
342.607348505185
 21
7.519769675439
 31
0.0
100
AcDbText
  0
TEXT
  5
76
330
65
100
AcDbEntity
  8
図枠細線
  6
CONTINUOUS
 62
   252
100
AcDbText
 10
232.499705505185
 20
5.759088675439
 30
0.0
 40
2.0
  1
ＰＲＯＪＥＣＴＩＯＮ
 41
0.754285710199
  7
EXCADSTD
 72
     5
 11
250.099705409817
 21
5.759088675439
 31
0.0
100
AcDbText
  0
TEXT
  5
77
330
65
100
AcDbEntity
  8
図枠細線
  6
CONTINUOUS
 62
   252
100
AcDbText
 10
232.574629505185
 20
8.681077675439
 30
0.0
 40
2.0
  1
ＴＨＩＲＤ　ＡＮＧＬＥ
 41
0.691099486738
  7
EXCADSTD
 72
     5
 11
250.174629767445
 21
8.681077675439
 31
0.0
100
AcDbText
  0
TEXT
  5
78
330
65
100
AcDbEntity
  8
図枠細線
  6
CONTINUOUS
 62
   252
100
AcDbText
 10
256.823999505185
 20
13.427377675439
 30
0.0
 40
2.0
  1
ＳＣＡＬＥ
 41
0.903614457831
  7
EXCADSTD
 72
     5
 11
266.823999505185
 21
13.427377675439
 31
0.0
100
AcDbText
  0
TEXT
  5
79
330
65
100
AcDbEntity
  8
図枠細線
  6
CONTINUOUS
 62
   252
100
AcDbText
 10
274.858592505185
 20
13.427377675439
 30
0.0
 40
2.0
  1
ＤＡＴＥ
 41
0.923076923077
  7
EXCADSTD
 72
     5
 11
282.858592505185
 21
13.427377675439
 31
0.0
100
AcDbText
  0
TEXT
  5
7A
330
65
100
AcDbEntity
  8
図枠細線
  6
CONTINUOUS
 62
   252
100
AcDbText
 10
356.358592505185
 20
13.427377675439
 30
0.0
 40
2.0
  1
ＤＲＧ．ＮＯ．
 41
0.9375
  7
EXCADSTD
 72
     5
 11
370.358592505185
 21
13.427377675439
 31
0.0
100
AcDbText
  0
TEXT
  5
7B
330
65
100
AcDbEntity
  8
図枠細線
  6
CONTINUOUS
 62
   252
100
AcDbText
 10
345.358592505185
 20
13.427377675439
 30
0.0
 40
2.0
  1
図面番号
 41
1.102941176471
  7
EXCADSTD
 72
     5
 11
355.358592505185
 21
13.427377675439
 31
0.0
100
AcDbText
  0
TEXT
  5
7C
330
65
100
AcDbEntity
  8
図枠細線
  6
CONTINUOUS
 62
   252
100
AcDbText
 10
269.358592505185
 20
13.427377675439
 30
0.0
 40
2.0
  1
日付
 41
1.171875
  7
EXCADSTD
 72
     5
 11
274.358592505185
 21
13.427377675439
 31
0.0
100
AcDbText
  0
TEXT
  5
7D
330
65
100
AcDbEntity
  8
図枠細線
  6
CONTINUOUS
 62
   252
100
AcDbText
 10
251.451512505185
 20
13.427377675439
 30
0.0
 40
2.0
  1
尺度
 41
1.171875
  7
EXCADSTD
 72
     5
 11
256.451512505185
 21
13.427377675439
 31
0.0
100
AcDbText
  0
TEXT
  5
7E
330
65
100
AcDbEntity
  8
図枠細線
  6
CONTINUOUS
 62
   252
100
AcDbText
 10
232.358592505185
 20
13.427377675439
 30
0.0
 40
2.0
  1
第三角法
 41
1.102941176471
  7
EXCADSTD
 72
     5
 11
242.358592505185
 21
13.427377675439
 31
0.0
100
AcDbText
  0
TEXT
  5
7F
330
65
100
AcDbEntity
  8
図枠細線
  6
CONTINUOUS
 62
   252
100
AcDbText
 10
212.358592505185
 20
28.427377675439
 30
0.0
 40
2.0
  1
ＮＯＴＥ
 41
0.923076923077
  7
EXCADSTD
 72
     5
 11
220.358592505185
 21
28.427377675439
 31
0.0
100
AcDbText
  0
LINE
  5
80
330
65
100
AcDbEntity
  8
図枠細線
  6
CONTINUOUS
 62
   252
100
AcDbLine
 10
287.858592505185
 20
23.427375675439
 30
0.0
 11
344.858592505185
 21
23.427375675439
 31
0.0
  0
LINE
  5
81
330
65
100
AcDbEntity
  8
図枠太線
  6
CONTINUOUS
 62
   251
100
AcDbLine
 10
287.858584505185
 20
15.927375675439
 30
0.0
 11
344.858592505185
 21
15.927375675439
 31
0.0
  0
LINE
  5
82
330
65
100
AcDbEntity
  8
図枠細線
  6
CONTINUOUS
 62
   252
100
AcDbLine
 10
344.858592505185
 20
15.927375675439
 30
0.0
 11
401.858584505185
 21
15.927375675439
 31
0.0
  0
LINE
  5
83
330
65
100
AcDbEntity
  8
図枠太線
  6
CONTINUOUS
 62
   251
100
AcDbLine
 10
344.858592505185
 20
0.927377675439
 30
0.0
 11
344.858592505185
 21
30.927375675439
 31
0.0
  0
LINE
  5
84
330
65
100
AcDbEntity
  8
図枠太線
  6
CONTINUOUS
 62
   251
100
AcDbLine
 10
287.858592505185
 20
0.927377675439
 30
0.0
 11
287.858592505185
 21
30.927375675439
 31
0.0
  0
LINE
  5
85
330
65
100
AcDbEntity
  8
図枠細線
  6
CONTINUOUS
 62
   252
100
AcDbLine
 10
268.858592505185
 20
0.927377675439
 30
0.0
 11
268.858592505185
 21
15.927375675439
 31
0.0
  0
LINE
  5
86
330
65
100
AcDbEntity
  8
図枠細線
  6
CONTINUOUS
 62
   252
100
AcDbLine
 10
250.858592505185
 20
0.927377675439
 30
0.0
 11
250.858592505185
 21
15.927375675439
 31
0.0
  0
LINE
  5
87
330
65
100
AcDbEntity
  8
図枠細線
  6
CONTINUOUS
 62
   252
100
AcDbLine
 10
273.858592505185
 20
30.927375675439
 30
0.0
 11
273.858592505185
 21
15.927375675439
 31
0.0
  0
LINE
  5
88
330
65
100
AcDbEntity
  8
図枠細線
  6
CONTINUOUS
 62
   252
100
AcDbLine
 10
259.858592505185
 20
30.927375675439
 30
0.0
 11
259.858592505185
 21
15.927375675439
 31
0.0
  0
LINE
  5
89
330
65
100
AcDbEntity
  8
図枠細線
  6
CONTINUOUS
 62
   252
100
AcDbLine
 10
245.858592505185
 20
30.927375675439
 30
0.0
 11
245.858592505185
 21
15.927375675439
 31
0.0
  0
LINE
  5
8A
330
65
100
AcDbEntity
  8
図枠太線
  6
CONTINUOUS
 62
   251
100
AcDbLine
 10
231.858592505185
 20
0.927377675439
 30
0.0
 11
231.858592505185
 21
30.927375675439
 31
0.0
  0
LINE
  5
8B
330
65
100
AcDbEntity
  8
図枠細線
  6
CONTINUOUS
 62
   252
100
AcDbLine
 10
211.858592505185
 20
25.927375675439
 30
0.0
 11
231.858592505185
 21
25.927375675439
 31
0.0
  0
LINE
  5
8C
330
65
100
AcDbEntity
  8
図枠細線
  6
CONTINUOUS
 62
   252
100
AcDbLine
 10
211.858592505185
 20
20.927375675439
 30
0.0
 11
231.858592505185
 21
20.927375675439
 31
0.0
  0
LINE
  5
8D
330
65
100
AcDbEntity
  8
図枠細線
  6
CONTINUOUS
 62
   252
100
AcDbLine
 10
211.858592505185
 20
10.927375675439
 30
0.0
 11
231.858592505185
 21
10.927375675439
 31
0.0
  0
LINE
  5
8E
330
65
100
AcDbEntity
  8
図枠細線
  6
CONTINUOUS
 62
   252
100
AcDbLine
 10
211.858592505185
 20
5.927377675439
 30
0.0
 11
231.858592505185
 21
5.927377675439
 31
0.0
  0
LINE
  5
8F
330
65
100
AcDbEntity
  8
図枠太線
  6
CONTINUOUS
 62
   251
100
AcDbLine
 10
211.858592505185
 20
30.927375675439
 30
0.0
 11
401.858584505185
 21
30.927375675439
 31
0.0
  0
LINE
  5
90
330
65
100
AcDbEntity
  8
図枠太線
  6
CONTINUOUS
 62
   251
100
AcDbLine
 10
1.858584505185
 20
275.927375675439
 30
0.0
 11
401.858584505185
 21
275.927375675439
 31
0.0
  0
LINE
  5
91
330
65
100
AcDbEntity
  8
図枠太線
  6
CONTINUOUS
 62
   251
100
AcDbLine
 10
401.858584505185
 20
0.927375675439
 30
0.0
 11
401.858584505185
 21
275.927375675439
 31
0.0
  0
LINE
  5
92
330
65
100
AcDbEntity
  8
図枠太線
  6
CONTINUOUS
 62
   251
100
AcDbLine
 10
1.858584505185
 20
0.927375675439
 30
0.0
 11
401.858584505185
 21
0.927375675439
 31
0.0
  0
ENDBLK
  5
94
330
65
100
AcDbEntity
  8
0
100
AcDbBlockEnd
  0
BLOCK
  5
29C0
330
29BF
100
AcDbEntity
  8
0
100
AcDbBlockBegin
  2
A4横用_タイトル
 70
     0
 10
0.0
 20
0.0
 30
0.0
  3
A4横用_タイトル
  1

  0
LINE
  5
29C1
330
29BF
100
AcDbEntity
  8
図枠細線
  6
CONTINUOUS
100
AcDbLine
 10
75.061011071051
 20
16.806607253358
 30
0.0
 11
144.061011071051
 21
16.806604789072
 31
0.0
  0
LINE
  5
29C2
330
29BF
100
AcDbEntity
  8
図枠細線
  6
CONTINUOUS
 62
   252
100
AcDbLine
 10
4.061011071051
 20
11.806606253358
 30
0.0
 11
75.061011071051
 21
11.806606253358
 31
0.0
  0
LINE
  5
29C3
330
29BF
100
AcDbEntity
  8
図枠細線
  6
CONTINUOUS
 62
   252
100
AcDbLine
 10
4.061011071051
 20
21.806606253358
 30
0.0
 11
75.061011071051
 21
21.806606253358
 31
0.0
  0
LINE
  5
29C4
330
29BF
100
AcDbEntity
  8
図枠細線
  6
CONTINUOUS
 62
   252
100
AcDbLine
 10
4.061011071051
 20
26.806606253358
 30
0.0
 11
75.061011071051
 21
26.806606253358
 31
0.0
  0
LINE
  5
29C5
330
29BF
100
AcDbEntity
  8
図枠細線
  6
CONTINUOUS
100
AcDbLine
 10
4.061011071051
 20
16.806608253358
 30
0.0
 11
75.061011071051
 21
16.806608253358
 31
0.0
  0
TEXT
  5
29C6
330
29BF
100
AcDbEntity
  8
図枠細線
  6
CONTINUOUS
 62
   252
100
AcDbText
 10
76.405475827713
 20
9.560308253358
 30
0.0
 40
2.0
  1
ＴＨＩＲＤ　ＡＮＧＬＥ
 41
0.691099486738
  7
EXCADSTD
 72
     5
 11
94.005476089973
 21
9.560308253358
 31
0.0
100
AcDbText
  0
TEXT
  5
29C7
330
29BF
100
AcDbEntity
  8
図枠細線
  6
CONTINUOUS
 62
   252
100
AcDbText
 10
76.705775880921
 20
14.306608253358
 30
0.0
 40
2.0
  1
第三角法
 41
1.102941176471
  7
EXCADSTD
 72
     5
 11
86.705775880921
 21
14.306608253358
 31
0.0
100
AcDbText
  0
TEXT
  5
29C8
330
29BF
100
AcDbEntity
  8
図枠細線
  6
CONTINUOUS
 62
   252
100
AcDbText
 10
76.705775880921
 20
26.806608253358
 30
0.0
 40
2.0
  1
ＡＰＰＲＯＶＥＤ
 41
0.695652184279
  7
EXCADSTD
 72
     5
 11
89.505776071656
 21
26.806608253358
 31
0.0
100
AcDbText
  0
TEXT
  5
29C9
330
29BF
100
AcDbEntity
  8
図枠細線
  6
CONTINUOUS
 62
   252
100
AcDbText
 10
76.705775880921
 20
29.306608253358
 30
0.0
 40
2.0
  1
承認
 41
1.171875
  7
EXCADSTD
 72
     5
 11
81.705775880921
 21
29.306608253358
 31
0.0
100
AcDbText
  0
LINE
  5
29CA
330
29BF
100
AcDbEntity
  8
図枠細線
  6
CONTINUOUS
 62
   252
100
AcDbLine
 10
98.061011071051
 20
31.806606253358
 30
0.0
 11
98.061011071051
 21
16.806606253358
 31
0.0
  0
TEXT
  5
29CB
330
29BF
100
AcDbEntity
  8
図枠細線
  6
CONTINUOUS
 62
   252
100
AcDbText
 10
104.216531119804
 20
14.306608253358
 30
0.0
 40
2.0
  1
ＳＣＡＬＥ
 41
0.903614457831
  7
EXCADSTD
 72
     5
 11
114.216531119804
 21
14.306608253358
 31
0.0
100
AcDbText
  0
TEXT
  5
29CC
330
29BF
100
AcDbEntity
  8
図枠細線
  6
CONTINUOUS
 62
   252
100
AcDbText
 10
98.844044119804
 20
14.306608253358
 30
0.0
 40
2.0
  1
尺度
 41
1.171875
  7
EXCADSTD
 72
     5
 11
103.844044119804
 21
14.306608253358
 31
0.0
100
AcDbText
  0
TEXT
  5
29CD
330
29BF
100
AcDbEntity
  8
図枠細線
  6
CONTINUOUS
 62
   252
100
AcDbText
 10
98.968727707497
 20
26.806608253358
 30
0.0
 40
2.0
  1
ＣＨＥＣＫＥＤ
 41
0.831249989569
  7
EXCADSTD
 72
     5
 11
112.268727540604
 21
26.806608253358
 31
0.0
100
AcDbText
  0
TEXT
  5
29CE
330
29BF
100
AcDbEntity
  8
図枠細線
  6
CONTINUOUS
 62
   252
100
AcDbText
 10
98.968727707497
 20
29.306608253358
 30
0.0
 40
2.0
  1
検図
 41
1.209677419355
  7
EXCADSTD
 72
     5
 11
103.968727707497
 21
29.306608253358
 31
0.0
100
AcDbText
  0
LINE
  5
29CF
330
29BF
100
AcDbEntity
  8
図枠細線
  6
CONTINUOUS
 62
   252
100
AcDbLine
 10
121.061011071051
 20
31.806606253358
 30
0.0
 11
121.061011071051
 21
16.806606253358
 31
0.0
  0
TEXT
  5
29D0
330
29BF
100
AcDbEntity
  8
図枠細線
  6
CONTINUOUS
 62
   252
100
AcDbText
 10
128.001465247253
 20
14.306608253358
 30
0.0
 40
2.0
  1
ＤＡＴＥ
 41
0.923076923077
  7
EXCADSTD
 72
     5
 11
136.001465247253
 21
14.306608253358
 31
0.0
100
AcDbText
  0
TEXT
  5
29D1
330
29BF
100
AcDbEntity
  8
図枠細線
  6
CONTINUOUS
 62
   252
100
AcDbText
 10
122.066415498841
 20
14.306608253358
 30
0.0
 40
2.0
  1
日付
 41
1.171875
  7
EXCADSTD
 72
     5
 11
127.066415498841
 21
14.306608253358
 31
0.0
100
AcDbText
  0
TEXT
  5
29D2
330
29BF
100
AcDbEntity
  8
図枠細線
  6
CONTINUOUS
 62
   252
100
AcDbText
 10
121.59429406571
 20
29.306608253358
 30
0.0
 40
2.0
  1
製図
 41
1.209677419355
  7
EXCADSTD
 72
     5
 11
126.59429406571
 21
29.306608253358
 31
0.0
100
AcDbText
  0
TEXT
  5
29D3
330
29BF
100
AcDbEntity
  8
図枠細線
  6
CONTINUOUS
 62
   252
100
AcDbText
 10
121.59429406571
 20
26.806608253358
 30
0.0
 40
2.0
  1
ＤＲＡＷＮ
 41
0.882352941176
  7
EXCADSTD
 72
     5
 11
131.59429406571
 21
26.806608253358
 31
0.0
100
AcDbText
  0
TEXT
  5
29D4
330
29BF
100
AcDbEntity
  8
図枠細線
  6
CONTINUOUS
 62
   252
100
AcDbText
 10
226.591229661348
 20
14.306608253358
 30
0.0
 40
2.0
  1
ＤＲＧ．ＮＯ．
 41
0.9375
  7
EXCADSTD
 72
     5
 11
240.591229661348
 21
14.306608253358
 31
0.0
100
AcDbText
  0
LINE
  5
29D5
330
29BF
100
AcDbEntity
  8
図枠太線
  6
CONTINUOUS
 62
   251
100
AcDbLine
 10
144.061003071051
 20
16.806606253358
 30
0.0
 11
214.061011071051
 21
16.806606253358
 31
0.0
  0
LINE
  5
29D6
330
29BF
100
AcDbEntity
  8
図枠細線
  6
CONTINUOUS
 62
   252
100
AcDbLine
 10
144.061011071051
 20
24.306606253358
 30
0.0
 11
214.061011071051
 21
24.306606253358
 31
0.0
  0
TEXT
  5
29D7
330
29BF
100
AcDbEntity
  8
図枠ロゴマーク
  6
CONTINUOUS
 62
   253
100
AcDbText
 10
146.433776781596
 20
8.399000253358
 30
0.0
 40
7.0
  1
東和制電工業株式会社
 41
0.80361088462
  7
EXCADSTD
 72
     5
 11
212.437017438349
 21
8.399000253358
 31
0.0
100
AcDbText
  0
TEXT
  5
29D8
330
29BF
100
AcDbEntity
  8
図枠細線
  6
CONTINUOUS
 62
   252
100
AcDbText
 10
215.156179912936
 20
14.306608253358
 30
0.0
 40
2.0
  1
図面番号
 41
1.102941176471
  7
EXCADSTD
 72
     5
 11
225.156179912936
 21
14.306608253358
 31
0.0
100
AcDbText
  0
TEXT
  5
29D9
330
29BF
100
AcDbEntity
  8
図枠細線
  6
CONTINUOUS
 62
   252
100
AcDbText
 10
221.591229661348
 20
29.306608253358
 30
0.0
 40
2.0
  1
ＴＩＴＬＥ
 41
0.903614457831
  7
EXCADSTD
 72
     5
 11
231.591229661348
 21
29.306608253358
 31
0.0
100
AcDbText
  0
TEXT
  5
29DA
330
29BF
100
AcDbEntity
  8
図枠細線
  6
CONTINUOUS
 62
   252
100
AcDbText
 10
215.156179912936
 20
29.306608253358
 30
0.0
 40
2.0
  1
名称
 41
1.171875
  7
EXCADSTD
 72
     5
 11
220.156179912936
 21
29.306608253358
 31
0.0
100
AcDbText
  0
LINE
  5
29DB
330
29BF
100
AcDbEntity
  8
図枠太線
  6
CONTINUOUS
 62
   251
100
AcDbLine
 10
4.061011071051
 20
1.806608253358
 30
0.0
 11
284.061011071051
 21
1.806608253358
 31
0.0
  0
LINE
  5
29DC
330
29BF
100
AcDbEntity
  8
図枠細線
  6
CONTINUOUS
 62
   252
100
AcDbLine
 10
4.061011071051
 20
6.806608253358
 30
0.0
 11
75.061011071051
 21
6.806608253358
 31
0.0
  0
LINE
  5
29DD
330
29BF
100
AcDbEntity
  8
図枠太線
  6
CONTINUOUS
 62
   251
100
AcDbLine
 10
75.061011071051
 20
1.806608253358
 30
0.0
 11
75.061011071051
 21
31.806606253358
 31
0.0
  0
TEXT
  5
29DE
330
29BF
100
AcDbEntity
  8
図枠細線
  6
CONTINUOUS
 62
   252
100
AcDbText
 10
76.330551827713
 20
6.638319253358
 30
0.0
 40
2.0
  1
ＰＲＯＪＥＣＴＩＯＮ
 41
0.754285710199
  7
EXCADSTD
 72
     5
 11
93.930551732346
 21
6.638319253358
 31
0.0
100
AcDbText
  0
LINE
  5
29DF
330
29BF
100
AcDbEntity
  8
図枠細線
  6
CONTINUOUS
 62
   252
100
AcDbLine
 10
98.061011071051
 20
1.806606931929
 30
0.0
 11
98.061011071051
 21
16.806604931929
 31
0.0
  0
LINE
  5
29E0
330
29BF
100
AcDbEntity
  8
図枠細線
  6
CONTINUOUS
 62
   252
100
AcDbLine
 10
121.061011071051
 20
1.806607574787
 30
0.0
 11
121.061011071051
 21
16.806605574787
 31
0.0
  0
LINE
  5
29E1
330
29BF
100
AcDbEntity
  8
図枠太線
  6
CONTINUOUS
 62
   251
100
AcDbLine
 10
284.061011071051
 20
1.806608253358
 30
0.0
 11
284.061011071051
 21
31.806606253358
 31
0.0
  0
LINE
  5
29E2
330
29BF
100
AcDbEntity
  8
図枠細線
  6
CONTINUOUS
 62
   252
100
AcDbLine
 10
214.061011071051
 20
16.806606253358
 30
0.0
 11
284.061011071051
 21
16.806606253358
 31
0.0
  0
TEXT
  5
29E3
330
29BF
100
AcDbEntity
  8
図枠細線
  6
CONTINUOUS
 62
   252
100
AcDbText
 10
146.199593676182
 20
3.454099253358
 30
0.0
 40
3.5
  1
ＴＯＷＡ　ＳＥＩＤＥＮ　ＩＮＤＵＳＴＲＩＡＬ　ＣＯ．，ＬＴＤ．
 41
0.528937826907
  7
EXCADSTD
 72
     5
 11
213.339435171588
 21
3.454099253358
 31
0.0
100
AcDbText
  0
LINE
  5
29E4
330
29BF
100
AcDbEntity
  8
図枠太線
  6
CONTINUOUS
 62
   251
100
AcDbLine
 10
144.061011071051
 20
1.806608253358
 30
0.0
 11
144.061011071051
 21
31.806606253358
 31
0.0
  0
LINE
  5
29E5
330
29BF
100
AcDbEntity
  8
図枠太線
  6
CONTINUOUS
 62
   251
100
AcDbLine
 10
214.061011071051
 20
1.806608253358
 30
0.0
 11
214.061011071051
 21
31.806606253358
 31
0.0
  0
MTEXT
  5
29E6
330
29BF
100
AcDbEntity
  8
図枠太線
100
AcDbMText
 10
5.064337346478
 20
31.010982137407
 30
0.0
 40
2.5
 41
8.67856098472
 71
     1
 72
     5
  1
{\Fmonotxt.shx,bigfont.shx|c128;図暦}
  0
LINE
  5
29E7
330
29BF
100
AcDbEntity
  8
図枠太線
  6
CONTINUOUS
 62
   251
100
AcDbLine
 10
4.061011071051
 20
1.806608253358
 30
0.0
 11
4.061011071051
 21
31.806606253358
 31
0.0
  0
TEXT
  5
29E8
330
29BF
100
AcDbEntity
  8
図枠細線
 48
10.0
100
AcDbText
 10
12.260817420402
 20
28.625419626495
 30
0.0
 40
2.0
  1
CHANGE NOTICE
100
AcDbText
  0
ENDBLK
  5
29E9
330
29BF
100
AcDbEntity
  8
0
100
AcDbBlockEnd
  0
BLOCK
  5
29F5
330
29F4
100
AcDbEntity
  8
0
100
AcDbBlockBegin
  2
A4縦用_タイトル
 70
     0
 10
0.0
 20
0.0
 30
0.0
  3
A4縦用_タイトル
  1

  0
LINE
  5
29F6
330
29F4
100
AcDbEntity
  8
図枠太線
  6
CONTINUOUS
 62
   251
100
AcDbLine
 10
2.368253864267
 20
4.525433224584
 30
0.0
 11
192.368245864267
 21
4.525433224584
 31
0.0
  0
LINE
  5
29F7
330
29F4
100
AcDbEntity
  8
図枠太線
  6
CONTINUOUS
 62
   251
100
AcDbLine
 10
78.368245864267
 20
19.525431224584
 30
0.0
 11
135.368253864267
 21
19.525431224584
 31
0.0
  0
LINE
  5
29F8
330
29F4
100
AcDbEntity
  8
図枠細線
  6
CONTINUOUS
 62
   252
100
AcDbLine
 10
78.368253864267
 20
27.025431224584
 30
0.0
 11
135.368253864267
 21
27.025431224584
 31
0.0
  0
TEXT
  5
29F9
330
29F4
100
AcDbEntity
  8
図枠ロゴマーク
  6
CONTINUOUS
 62
   253
100
AcDbText
 10
80.617009864267
 20
11.117825224584
 30
0.0
 40
7.0
  1
東和制電工業株式会社
 41
0.639204545455
  7
EXCADSTD
 72
     5
 11
133.117009864267
 21
11.117825224584
 31
0.0
100
AcDbText
  0
TEXT
  5
29FA
330
29F4
100
AcDbEntity
  8
図枠細線
  6
CONTINUOUS
 62
   252
100
AcDbText
 10
80.579549864267
 20
6.172924224584
 30
0.0
 40
3.5
  1
ＴＯＷＡ　ＳＥＩＤＥＮ　ＩＮＤＵＳＴＲＩＡＬ　ＣＯ．，ＬＴＤ．
 41
0.414568012377
  7
EXCADSTD
 72
     5
 11
133.202049568628
 21
6.172924224584
 31
0.0
100
AcDbText
  0
LINE
  5
29FB
330
29F4
100
AcDbEntity
  8
図枠太線
  6
CONTINUOUS
 62
   251
100
AcDbLine
 10
2.368253864267
 20
4.525433224584
 30
0.0
 11
2.368253864267
 21
34.525431224584
 31
0.0
  0
TEXT
  5
29FC
330
29F4
100
AcDbEntity
  8
図枠細線
  6
CONTINUOUS
 62
   252
100
AcDbText
 10
22.504308136501
 20
12.279133224584
 30
0.0
 40
2.0
  1
ＴＨＩＲＤ　ＡＮＧＬＥ
 41
0.691099486738
  7
EXCADSTD
 72
     5
 11
40.104308398762
 21
12.279133224584
 31
0.0
100
AcDbText
  0
TEXT
  5
29FD
330
29F4
100
AcDbEntity
  8
図枠細線
  6
CONTINUOUS
 62
   252
100
AcDbText
 10
22.429384136501
 20
9.357144224584
 30
0.0
 40
2.0
  1
ＰＲＯＪＥＣＴＩＯＮ
 41
0.754285710199
  7
EXCADSTD
 72
     5
 11
40.029384041134
 21
9.357144224584
 31
0.0
100
AcDbText
  0
LINE
  5
29FE
330
29F4
100
AcDbEntity
  8
図枠細線
  6
CONTINUOUS
100
AcDbLine
 10
22.368253864267
 20
19.525433224584
 30
0.0
 11
78.368253864267
 21
19.525431224584
 31
0.0
  0
TEXT
  5
29FF
330
29F4
100
AcDbEntity
  8
図枠細線
  6
CONTINUOUS
 62
   252
100
AcDbText
 10
22.868253864267
 20
17.025433224584
 30
0.0
 40
2.0
  1
第三角法
 41
1.102941176471
  7
EXCADSTD
 72
     5
 11
32.868253864267
 21
17.025433224584
 31
0.0
100
AcDbText
  0
TEXT
  5
2A00
330
29F4
100
AcDbEntity
  8
図枠細線
  6
CONTINUOUS
 62
   252
100
AcDbText
 10
22.868253864267
 20
29.525433224584
 30
0.0
 40
2.0
  1
ＡＰＰＲＯＶＥＤ
 41
0.695652184279
  7
EXCADSTD
 72
     5
 11
35.668254055002
 21
29.525433224584
 31
0.0
100
AcDbText
  0
LINE
  5
2A01
330
29F4
100
AcDbEntity
  8
図枠細線
  6
CONTINUOUS
 62
   252
100
AcDbLine
 10
2.368253864267
 20
9.525433224584
 30
0.0
 11
22.368253864267
 21
9.525433224584
 31
0.0
  0
LINE
  5
2A02
330
29F4
100
AcDbEntity
  8
図枠細線
  6
CONTINUOUS
 62
   252
100
AcDbLine
 10
2.368253864267
 20
14.525431224584
 30
0.0
 11
22.368253864267
 21
14.525431224584
 31
0.0
  0
LINE
  5
2A03
330
29F4
100
AcDbEntity
  8
図枠細線
  6
CONTINUOUS
 62
   252
100
AcDbLine
 10
2.368253864267
 20
24.525431224584
 30
0.0
 11
22.368253864267
 21
24.525431224584
 31
0.0
  0
LINE
  5
2A04
330
29F4
100
AcDbEntity
  8
図枠細線
  6
CONTINUOUS
 62
   252
100
AcDbLine
 10
2.368253864267
 20
29.525431224584
 30
0.0
 11
22.368253864267
 21
29.525431224584
 31
0.0
  0
LINE
  5
2A05
330
29F4
100
AcDbEntity
  8
図枠細線
  6
CONTINUOUS
100
AcDbLine
 10
2.368253864267
 20
19.525433224584
 30
0.0
 11
22.368253864267
 21
19.525433224584
 31
0.0
  0
TEXT
  5
2A06
330
29F4
100
AcDbEntity
  8
図枠細線
  6
CONTINUOUS
 62
   252
100
AcDbText
 10
2.868253864267
 20
32.025433224584
 30
0.0
 40
2.0
  1
ＮＯＴＥ
 41
0.923076923077
  7
EXCADSTD
 72
     5
 11
10.868253864267
 21
32.025433224584
 31
0.0
100
AcDbText
  0
LINE
  5
2A07
330
29F4
100
AcDbEntity
  8
図枠太線
  6
CONTINUOUS
 62
   251
100
AcDbLine
 10
22.368253864267
 20
4.525433224584
 30
0.0
 11
22.368253864267
 21
34.525431224584
 31
0.0
  0
TEXT
  5
2A08
330
29F4
100
AcDbEntity
  8
図枠細線
  6
CONTINUOUS
 62
   252
100
AcDbText
 10
22.868253864267
 20
32.025433224584
 30
0.0
 40
2.0
  1
承認
 41
1.171875
  7
EXCADSTD
 72
     5
 11
27.868253864267
 21
32.025433224584
 31
0.0
100
AcDbText
  0
TEXT
  5
2A09
330
29F4
100
AcDbEntity
  8
図枠細線
  6
CONTINUOUS
 62
   252
100
AcDbText
 10
60.711709035982
 20
32.025433224584
 30
0.0
 40
2.0
  1
製図
 41
1.209677419355
  7
EXCADSTD
 72
     5
 11
65.711709035982
 21
32.025433224584
 31
0.0
100
AcDbText
  0
TEXT
  5
2A0A
330
29F4
100
AcDbEntity
  8
図枠細線
  6
CONTINUOUS
 62
   252
100
AcDbText
 10
60.711709035982
 20
29.525433224584
 30
0.0
 40
2.0
  1
ＤＲＡＷＮ
 41
0.882352941176
  7
EXCADSTD
 72
     5
 11
70.711709035982
 21
29.525433224584
 31
0.0
100
AcDbText
  0
TEXT
  5
2A0B
330
29F4
100
AcDbEntity
  8
図枠細線
  6
CONTINUOUS
 62
   252
100
AcDbText
 10
60.834891743877
 20
17.025433224584
 30
0.0
 40
2.0
  1
日付
 41
1.171875
  7
EXCADSTD
 72
     5
 11
65.834891743877
 21
17.025433224584
 31
0.0
100
AcDbText
  0
TEXT
  5
2A0C
330
29F4
100
AcDbEntity
  8
図枠細線
  6
CONTINUOUS
 62
   252
100
AcDbText
 10
47.333660864267
 20
17.025433224584
 30
0.0
 40
2.0
  1
ＳＣＡＬＥ
 41
0.903614457831
  7
EXCADSTD
 72
     5
 11
57.333660864267
 21
17.025433224584
 31
0.0
100
AcDbText
  0
TEXT
  5
2A0D
330
29F4
100
AcDbEntity
  8
図枠細線
  6
CONTINUOUS
 62
   252
100
AcDbText
 10
42.281425990082
 20
29.525433224584
 30
0.0
 40
2.0
  1
ＣＨＥＣＫＥＤ
 41
0.831249989569
  7
EXCADSTD
 72
     5
 11
55.581425823189
 21
29.525433224584
 31
0.0
100
AcDbText
  0
LINE
  5
2A0E
330
29F4
100
AcDbEntity
  8
図枠細線
  6
CONTINUOUS
 62
   252
100
AcDbLine
 10
40.968253864267
 20
34.525431224584
 30
0.0
 11
40.968253864267
 21
19.525431224584
 31
0.0
  0
LINE
  5
2A0F
330
29F4
100
AcDbEntity
  8
図枠細線
  6
CONTINUOUS
 62
   252
100
AcDbLine
 10
40.968253864267
 20
4.525433224584
 30
0.0
 11
40.968253864267
 21
19.525431224584
 31
0.0
  0
TEXT
  5
2A10
330
29F4
100
AcDbEntity
  8
図枠細線
  6
CONTINUOUS
 62
   252
100
AcDbText
 10
41.961173864267
 20
17.025433224584
 30
0.0
 40
2.0
  1
尺度
 41
1.171875
  7
EXCADSTD
 72
     5
 11
46.961173864267
 21
17.025433224584
 31
0.0
100
AcDbText
  0
TEXT
  5
2A11
330
29F4
100
AcDbEntity
  8
図枠細線
  6
CONTINUOUS
 62
   252
100
AcDbText
 10
42.281425990082
 20
32.025433224584
 30
0.0
 40
2.0
  1
検図
 41
1.209677419355
  7
EXCADSTD
 72
     5
 11
47.281425990082
 21
32.025433224584
 31
0.0
100
AcDbText
  0
LINE
  5
2A12
330
29F4
100
AcDbEntity
  8
図枠細線
  6
CONTINUOUS
 62
   252
100
AcDbLine
 10
59.768253864267
 20
34.525431224584
 30
0.0
 11
59.768253864267
 21
19.525431224584
 31
0.0
  0
LINE
  5
2A13
330
29F4
100
AcDbEntity
  8
図枠細線
  6
CONTINUOUS
 62
   252
100
AcDbLine
 10
59.768253864267
 20
4.525433224584
 30
0.0
 11
59.768253864267
 21
19.525431224584
 31
0.0
  0
LINE
  5
2A14
330
29F4
100
AcDbEntity
  8
図枠太線
  6
CONTINUOUS
 62
   251
100
AcDbLine
 10
78.368253864267
 20
4.525433224584
 30
0.0
 11
78.368253864267
 21
34.525431224584
 31
0.0
  0
TEXT
  5
2A15
330
29F4
100
AcDbEntity
  8
図枠細線
  6
CONTINUOUS
 62
   252
100
AcDbText
 10
66.334891743877
 20
17.025433224584
 30
0.0
 40
2.0
  1
ＤＡＴＥ
 41
0.923076923077
  7
EXCADSTD
 72
     5
 11
74.334891743877
 21
17.025433224584
 31
0.0
100
AcDbText
  0
LINE
  5
2A16
330
29F4
100
AcDbEntity
  8
図枠細線
  6
CONTINUOUS
 62
   252
100
AcDbLine
 10
135.368253864267
 20
19.525431224584
 30
0.0
 11
192.368245864267
 21
19.525431224584
 31
0.0
  0
TEXT
  5
2A17
330
29F4
100
AcDbEntity
  8
図枠細線
  6
CONTINUOUS
 62
   252
100
AcDbText
 10
141.868253864267
 20
32.025433224584
 30
0.0
 40
2.0
  1
ＴＩＴＬＥ
 41
0.903614457831
  7
EXCADSTD
 72
     5
 11
151.868253864267
 21
32.025433224584
 31
0.0
100
AcDbText
  0
LINE
  5
2A18
330
29F4
100
AcDbEntity
  8
図枠太線
  6
CONTINUOUS
 62
   251
100
AcDbLine
 10
135.368253864267
 20
4.525433224584
 30
0.0
 11
135.368253864267
 21
34.525431224584
 31
0.0
  0
TEXT
  5
2A19
330
29F4
100
AcDbEntity
  8
図枠細線
  6
CONTINUOUS
 62
   252
100
AcDbText
 10
135.868253864267
 20
17.025433224584
 30
0.0
 40
2.0
  1
図面番号
 41
1.102941176471
  7
EXCADSTD
 72
     5
 11
145.868253864267
 21
17.025433224584
 31
0.0
100
AcDbText
  0
TEXT
  5
2A1A
330
29F4
100
AcDbEntity
  8
図枠細線
  6
CONTINUOUS
 62
   252
100
AcDbText
 10
135.868253864267
 20
32.025433224584
 30
0.0
 40
2.0
  1
名称
 41
1.171875
  7
EXCADSTD
 72
     5
 11
140.868253864267
 21
32.025433224584
 31
0.0
100
AcDbText
  0
TEXT
  5
2A1B
330
29F4
100
AcDbEntity
  8
図枠細線
  6
CONTINUOUS
 62
   252
100
AcDbText
 10
146.868253864267
 20
17.025433224584
 30
0.0
 40
2.0
  1
ＤＲＧ．ＮＯ．
 41
0.9375
  7
EXCADSTD
 72
     5
 11
160.868253864267
 21
17.025433224584
 31
0.0
100
AcDbText
  0
LINE
  5
2A1C
330
29F4
100
AcDbEntity
  8
図枠太線
  6
CONTINUOUS
 62
   251
100
AcDbLine
 10
192.368245864267
 20
4.525433224584
 30
0.0
 11
192.368245864267
 21
34.525431224584
 31
0.0
  0
ENDBLK
  5
2A1D
330
29F4
100
AcDbEntity
  8
0
100
AcDbBlockEnd
  0
BLOCK
  5
2A33
330
2A32
100
AcDbEntity
  8
0
100
AcDbBlockBegin
  2
A3横用_タイトル
 70
     0
 10
0.0
 20
0.0
 30
0.0
  3
A3横用_タイトル
  1

  0
LINE
  5
2A34
330
2A32
100
AcDbEntity
  8
図枠細線
  6
CONTINUOUS
 62
   252
100
AcDbLine
 10
205.098414535793
 20
33.525959753527
 30
0.0
 11
305.098414535793
 21
33.525959753527
 31
0.0
  0
LINE
  5
2A35
330
2A32
100
AcDbEntity
  8
図枠太線
  6
CONTINUOUS
 62
   251
100
AcDbLine
 10
205.098414535793
 20
23.525959753527
 30
0.0
 11
305.098414535793
 21
23.525959753527
 31
0.0
  0
LINE
  5
2A36
330
2A32
100
AcDbEntity
  8
図枠細線
  6
CONTINUOUS
100
AcDbLine
 10
5.098414535793
 20
23.525959753527
 30
0.0
 11
105.098414535793
 21
23.525959753527
 31
0.0
  0
LINE
  5
2A37
330
2A32
100
AcDbEntity
  8
図枠細線
  6
CONTINUOUS
 62
   252
100
AcDbLine
 10
5.098414535793
 20
36.725957753527
 30
0.0
 11
105.098414535793
 21
36.725957753527
 31
0.0
  0
LINE
  5
2A38
330
2A32
100
AcDbEntity
  8
図枠細線
  6
CONTINUOUS
 62
   252
100
AcDbLine
 10
5.098414535793
 20
30.125957753527
 30
0.0
 11
105.098414535793
 21
30.125957753527
 31
0.0
  0
LINE
  5
2A39
330
2A32
100
AcDbEntity
  8
図枠細線
  6
CONTINUOUS
 62
   252
100
AcDbLine
 10
5.098414535793
 20
16.725959753527
 30
0.0
 11
105.098414535793
 21
16.725959753527
 31
0.0
  0
LINE
  5
2A3A
330
2A32
100
AcDbEntity
  8
図枠細線
  6
CONTINUOUS
 62
   252
100
AcDbLine
 10
5.098414535793
 20
10.125959753527
 30
0.0
 11
105.098414535793
 21
10.125959753527
 31
0.0
  0
LINE
  5
2A3B
330
2A32
100
AcDbEntity
  8
図枠細線
  6
CONTINUOUS
100
AcDbLine
 10
105.098414535793
 20
23.525961753527
 30
0.0
 11
205.098414535793
 21
23.525959753527
 31
0.0
  0
LINE
  5
2A3C
330
2A32
100
AcDbEntity
  8
図枠細線
  6
CONTINUOUS
 62
   252
100
AcDbLine
 10
138.398414535793
 20
43.525959753527
 30
0.0
 11
138.398414535793
 21
18.525957753527
 31
0.0
  0
LINE
  5
2A3D
330
2A32
100
AcDbEntity
  8
図枠細線
  6
CONTINUOUS
 62
   252
100
AcDbLine
 10
171.698414535793
 20
43.525959753527
 30
0.0
 11
171.698414535793
 21
18.525957753527
 31
0.0
  0
LINE
  5
2A3E
330
2A32
100
AcDbEntity
  8
図枠細線
  6
CONTINUOUS
 62
   252
100
AcDbLine
 10
305.098414535793
 20
23.525959753527
 30
0.0
 11
405.098414535793
 21
23.525959753527
 31
0.0
  0
TEXT
  5
2A3F
330
2A32
100
AcDbEntity
  8
図枠ロゴマーク
  6
CONTINUOUS
 62
   253
100
AcDbText
 10
206.102509212755
 20
13.294257570546
 30
0.0
 40
7.0
  1
東和制電工業株式会社
 50
0.016555220185
 41
1.186384129432
  7
EXCADSTD
 72
     5
 11
303.544188309143
 21
13.322412672217
 31
0.0
100
AcDbText
  0
MTEXT
  5
2A40
330
2A32
100
AcDbEntity
  8
図枠細線
100
AcDbMText
 10
6.356764112375
 20
41.976594175478
 30
0.0
 40
2.5
 41
49.938282706292
 71
     1
 72
     5
  1
{\Fmonotxt.shx,bigfont.shx|c128;図暦　CHANGE　NOTICE}
  0
MTEXT
  5
2A41
330
2A32
100
AcDbEntity
  8
図枠細線
 48
10.0
100
AcDbMText
 10
306.544114926828
 20
41.701835800934
 30
0.0
 40
2.5
 41
28.002809618823
 71
     1
 72
     5
  1
{\Fmonotxt.shx,bigfont.shx|c128;名称　TITLE}
  0
MTEXT
  5
2A42
330
2A32
100
AcDbEntity
  8
図枠細線
 48
10.0
100
AcDbMText
 10
307.329617114284
 20
21.606206797226
 30
0.0
 40
2.5
 41
24.385612216707
 71
     1
 72
     5
  1
{\Fmonotxt.shx,bigfont.shx|c128;図面番号\PDRG.　No.}
  0
MTEXT
  5
2A43
330
2A32
100
AcDbEntity
  8
図枠細線
 48
10.0
100
AcDbMText
 10
173.726349404609
 20
21.73680662198
 30
0.0
 40
2.5
 41
25.735090160813
 71
     1
 72
     5
  1
{\Fmonotxt.shx,bigfont.shx|c128;日付 DATE}
  0
MTEXT
  5
2A44
330
2A32
100
AcDbEntity
  8
図枠細線
 48
10.0
100
AcDbMText
 10
173.48708833982
 20
41.621592044998
 30
0.0
 40
2.5
 41
24.983741184205
 71
     1
 72
     5
  1
{\Fmonotxt.shx,bigfont.shx|c128;製図　DRAWN}
  0
MTEXT
  5
2A45
330
2A32
100
AcDbEntity
  8
図枠細線
 48
10.0
100
AcDbMText
 10
139.28009927741
 20
21.866713069868
 30
0.0
 40
2.5
 41
22.629632913243
 71
     1
 72
     5
  1
{\Fmonotxt.shx,bigfont.shx|c128;尺度　SCALE}
  0
MTEXT
  5
2A46
330
2A32
100
AcDbEntity
  8
図枠細線
 48
10.0
100
AcDbMText
 10
139.910091179835
 20
41.311840415554
 30
0.0
 40
2.5
 41
28.998753428368
 71
     1
 72
     5
  1
{\Fmonotxt.shx,bigfont.shx|c128;検図  CHECKED}
  0
MTEXT
  5
2A47
330
2A32
100
AcDbEntity
  8
図枠細線
 48
10.0
100
AcDbMText
 10
114.253294667728
 20
21.916124850174
 30
0.0
 40
3.0
 41
19.692400475383
 71
     1
 72
     5
  1
{\Fmonotxt.shx,bigfont.shx|c128;第三角法}
  0
MTEXT
  5
2A48
330
2A32
100
AcDbEntity
  8
図枠細線
 48
10.0
100
AcDbMText
 10
108.986959929915
 20
15.282880185837
 30
0.0
 40
2.5
 41
27.954882823547
 71
     1
 72
     5
  1
{\Fmonotxt.shx,bigfont.shx|c128;THIRD ANGLE\PPROJECTION}
  0
MTEXT
  5
2A49
330
2A32
100
AcDbEntity
  8
図枠細線
 48
10.0
100
AcDbMText
 10
106.319432640184
 20
41.511437145487
 30
0.0
 40
2.5
 41
28.233595265074
 71
     1
 72
     5
  1
{\Fmonotxt.shx,bigfont.shx|c128;承認 APPROVED}
  0
LINE
  5
2A4A
330
2A32
100
AcDbEntity
  8
図枠太線
  6
CONTINUOUS
 62
   251
100
AcDbLine
 10
5.098414535793
 20
3.525959753527
 30
0.0
 11
405.098414535793
 21
3.525959753527
 31
0.0
  0
LINE
  5
2A4B
330
2A32
100
AcDbEntity
  8
図枠太線
 48
10.0
100
AcDbLine
 10
5.098414535793
 20
3.525959753527
 30
0.0
 11
5.098414535793
 21
43.525959753527
 31
0.0
  0
LINE
  5
2A4C
330
2A32
100
AcDbEntity
  8
図枠太線
  6
CONTINUOUS
 62
   251
100
AcDbLine
 10
105.098414535793
 20
3.525959753527
 30
0.0
 11
105.098414535793
 21
43.525959753527
 31
0.0
  0
LINE
  5
2A4D
330
2A32
100
AcDbEntity
  8
図枠細線
  6
CONTINUOUS
 62
   252
100
AcDbLine
 10
138.398414535793
 20
3.525959753527
 30
0.0
 11
138.398414535793
 21
18.525957753527
 31
0.0
  0
LINE
  5
2A4E
330
2A32
100
AcDbEntity
  8
図枠細線
  6
CONTINUOUS
 62
   252
100
AcDbLine
 10
171.698414535793
 20
3.525959753527
 30
0.0
 11
171.698414535793
 21
18.525957753527
 31
0.0
  0
LINE
  5
2A4F
330
2A32
100
AcDbEntity
  8
図枠太線
  6
CONTINUOUS
 62
   251
100
AcDbLine
 10
205.098414535793
 20
3.525959753527
 30
0.0
 11
205.098414535793
 21
43.525959753527
 31
0.0
  0
LINE
  5
2A50
330
2A32
100
AcDbEntity
  8
図枠太線
 48
10.0
100
AcDbLine
 10
405.098414535793
 20
43.525959753527
 30
0.0
 11
405.098414535793
 21
3.525959753527
 31
0.0
  0
TEXT
  5
2A51
330
2A32
100
AcDbEntity
  8
図枠細線
  6
CONTINUOUS
 62
   252
100
AcDbText
 10
208.519754474571
 20
6.482358407285
 30
0.0
 40
3.5
  1
ＴＯＷＡ　ＳＥＩＤＥＮ　ＩＮＤＵＳＴＲＩＡＬ　ＣＯ．，ＬＴＤ．
 41
0.746656297509
  7
EXCADSTD
 72
     5
 11
303.295327171727
 21
6.482358407285
 31
0.0
100
AcDbText
  0
LINE
  5
2A52
330
2A32
100
AcDbEntity
  8
図枠太線
  6
CONTINUOUS
 62
   251
100
AcDbLine
 10
305.098414535793
 20
3.525959753527
 30
0.0
 11
305.098414535793
 21
43.525959753527
 31
0.0
  0
ENDBLK
  5
2A53
330
2A32
100
AcDbEntity
  8
0
100
AcDbBlockEnd
  0
BLOCK
  5
2A6D
330
2A6C
100
AcDbEntity
  8
0
100
AcDbBlockBegin
  2
A3縦用_タイトル
 70
     0
 10
0.0
 20
0.0
 30
0.0
  3
A3縦用_タイトル
  1

  0
MTEXT
  5
2A6E
330
2A6C
100
AcDbEntity
  8
図枠細線
100
AcDbMText
 10
5.040804501593
 20
31.626098649005
 30
0.0
 40
2.5
 41
49.938282706292
 71
     1
 72
     5
  1
{\Fmonotxt.shx,bigfont.shx|c128;図暦　CHANGE　NOTICE}
  0
LINE
  5
2A6F
330
2A6C
100
AcDbEntity
  8
図枠太線
  6
CONTINUOUS
 62
   251
100
AcDbLine
 10
283.577871882961
 20
2.820844689254
 30
0.0
 11
283.577871882961
 21
32.820842689254
 31
0.0
  0
MTEXT
  5
2A70
330
2A6C
100
AcDbEntity
  8
図枠細線
 48
10.0
100
AcDbMText
 10
214.912458947454
 20
31.621488632308
 30
0.0
 40
2.5
 41
28.002809618823
 71
     1
 72
     5
  1
{\Fmonotxt.shx,bigfont.shx|c128;名称　TITLE}
  0
MTEXT
  5
2A71
330
2A6C
100
AcDbEntity
  8
図枠細線
 48
10.0
100
AcDbMText
 10
214.740030458938
 20
16.310225796722
 30
0.0
 40
2.5
 41
24.385612216707
 71
     1
 72
     5
  1
{\Fmonotxt.shx,bigfont.shx|c128;図面番号\PDRG.　No.}
  0
LINE
  5
2A72
330
2A6C
100
AcDbEntity
  8
図枠太線
  6
CONTINUOUS
 62
   251
100
AcDbLine
 10
213.577871882961
 20
2.820844689254
 30
0.0
 11
213.577871882961
 21
32.820842689254
 31
0.0
  0
LINE
  5
2A73
330
2A6C
100
AcDbEntity
  8
図枠太線
  6
CONTINUOUS
 62
   251
100
AcDbLine
 10
143.577871882961
 20
2.820844689254
 30
0.0
 11
143.577871882961
 21
32.820842689254
 31
0.0
  0
TEXT
  5
2A74
330
2A6C
100
AcDbEntity
  8
図枠細線
  6
CONTINUOUS
 62
   252
100
AcDbText
 10
145.716454488093
 20
4.468335689254
 30
0.0
 40
3.5
  1
ＴＯＷＡ　ＳＥＩＤＥＮ　ＩＮＤＵＳＴＲＩＡＬ　ＣＯ．，ＬＴＤ．
 41
0.528937826907
  7
EXCADSTD
 72
     5
 11
212.856295983498
 21
4.468335689254
 31
0.0
100
AcDbText
  0
TEXT
  5
2A75
330
2A6C
100
AcDbEntity
  8
図枠ロゴマーク
  6
CONTINUOUS
 62
   253
100
AcDbText
 10
145.950637593507
 20
9.413236689254
 30
0.0
 40
7.0
  1
東和制電工業株式会社
 41
0.80361088462
  7
EXCADSTD
 72
     5
 11
211.953878250259
 21
9.413236689254
 31
0.0
100
AcDbText
  0
LINE
  5
2A76
330
2A6C
100
AcDbEntity
  8
図枠細線
  6
CONTINUOUS
 62
   252
100
AcDbLine
 10
143.577871882961
 20
25.320842689254
 30
0.0
 11
213.577871882961
 21
25.320842689254
 31
0.0
  0
LINE
  5
2A77
330
2A6C
100
AcDbEntity
  8
図枠太線
  6
CONTINUOUS
 62
   251
100
AcDbLine
 10
143.577863882961
 20
17.820842689254
 30
0.0
 11
213.577871882961
 21
17.820842689254
 31
0.0
  0
LINE
  5
2A78
330
2A6C
100
AcDbEntity
  8
図枠細線
  6
CONTINUOUS
 62
   252
100
AcDbLine
 10
213.577871882961
 20
17.820842689254
 30
0.0
 11
283.577871882961
 21
17.820842689254
 31
0.0
  0
LINE
  5
2A79
330
2A6C
100
AcDbEntity
  8
図枠細線
  6
CONTINUOUS
 62
   252
100
AcDbLine
 10
120.577871882961
 20
32.820842689254
 30
0.0
 11
120.577871882961
 21
17.820842689254
 31
0.0
  0
MTEXT
  5
2A7A
330
2A6C
100
AcDbEntity
  8
図枠細線
 48
10.0
100
AcDbMText
 10
121.100885670352
 20
16.33785922638
 30
0.0
 40
2.0
 41
17.705978285068
 71
     1
 72
     5
  1
{\Fmonotxt.shx,bigfont.shx|c128;日付 DATE}
  0
MTEXT
  5
2A7B
330
2A6C
100
AcDbEntity
  8
図枠細線
 48
10.0
100
AcDbMText
 10
121.254842273491
 20
31.208993514037
 30
0.0
 40
2.0
 41
18.363799568758
 71
     1
 72
     5
  1
{\Fmonotxt.shx,bigfont.shx|c128;製図　DRAWN}
  0
LINE
  5
2A7C
330
2A6C
100
AcDbEntity
  8
図枠細線
  6
CONTINUOUS
 62
   252
100
AcDbLine
 10
97.577871882961
 20
32.820842689254
 30
0.0
 11
97.577871882961
 21
17.820842689254
 31
0.0
  0
MTEXT
  5
2A7D
330
2A6C
100
AcDbEntity
  8
図枠細線
 48
10.0
100
AcDbMText
 10
98.239734796872
 20
16.467764839281
 30
0.0
 40
2.0
 41
17.757791689903
 71
     1
 72
     5
  1
{\Fmonotxt.shx,bigfont.shx|c128;尺度　SCALE}
  0
MTEXT
  5
2A7E
330
2A6C
100
AcDbEntity
  8
図枠細線
 48
10.0
100
AcDbMText
 10
97.864744625154
 20
31.298433377664
 30
0.0
 40
2.0
 41
23.162655920976
 71
     1
 72
     5
  1
{\Fmonotxt.shx,bigfont.shx|c128;検図  CHECKED}
  0
LINE
  5
2A7F
330
2A6C
100
AcDbEntity
  8
図枠細線
  6
CONTINUOUS
 62
   252
100
AcDbLine
 10
97.577871882961
 20
2.820843367826
 30
0.0
 11
97.577871882961
 21
17.820841367826
 31
0.0
  0
LINE
  5
2A80
330
2A6C
100
AcDbEntity
  8
図枠細線
  6
CONTINUOUS
 62
   252
100
AcDbLine
 10
120.577871882961
 20
2.820844010683
 30
0.0
 11
120.577871882961
 21
17.820842010683
 31
0.0
  0
MTEXT
  5
2A81
330
2A6C
100
AcDbEntity
  8
図枠細線
 48
10.0
100
AcDbMText
 10
81.402399084102
 20
16.316484117426
 30
0.0
 40
2.0
 41
12.920322819369
 71
     1
 72
     5
  1
{\Fmonotxt.shx,bigfont.shx|c128;第三角法}
  0
MTEXT
  5
2A82
330
2A6C
100
AcDbEntity
  8
図枠細線
 48
10.0
100
AcDbMText
 10
75.736576535096
 20
11.080410931319
 30
0.0
 40
2.0
 41
21.072870671471
 71
     1
 72
     5
  1
{\Fmonotxt.shx,bigfont.shx|c128;THIRD ANGLE\PPROJECTION}
  0
LINE
  5
2A83
330
2A6C
100
AcDbEntity
  8
図枠太線
  6
CONTINUOUS
 62
   251
100
AcDbLine
 10
74.577871882961
 20
2.820844689254
 30
0.0
 11
74.577871882961
 21
32.820842689254
 31
0.0
  0
MTEXT
  5
2A84
330
2A6C
100
AcDbEntity
  8
図枠細線
 48
10.0
100
AcDbMText
 10
75.060214781573
 20
31.298434778555
 30
0.0
 40
2.0
 41
22.240928805967
 71
     1
 72
     5
  1
{\Fmonotxt.shx,bigfont.shx|c128;承認 APPROVED}
  0
LINE
  5
2A85
330
2A6C
100
AcDbEntity
  8
図枠細線
  6
CONTINUOUS
100
AcDbLine
 10
3.577871882961
 20
17.820844689254
 30
0.0
 11
74.577871882961
 21
17.820844689254
 31
0.0
  0
LINE
  5
2A86
330
2A6C
100
AcDbEntity
  8
図枠細線
  6
CONTINUOUS
 62
   252
100
AcDbLine
 10
3.577871882961
 20
27.820842689254
 30
0.0
 11
74.577871882961
 21
27.820842689254
 31
0.0
  0
LINE
  5
2A87
330
2A6C
100
AcDbEntity
  8
図枠細線
  6
CONTINUOUS
 62
   252
100
AcDbLine
 10
3.577871882961
 20
22.820842689254
 30
0.0
 11
74.577871882961
 21
22.820842689254
 31
0.0
  0
LINE
  5
2A88
330
2A6C
100
AcDbEntity
  8
図枠細線
  6
CONTINUOUS
 62
   252
100
AcDbLine
 10
3.577871882961
 20
12.820842689254
 30
0.0
 11
74.577871882961
 21
12.820842689254
 31
0.0
  0
LINE
  5
2A89
330
2A6C
100
AcDbEntity
  8
図枠細線
  6
CONTINUOUS
 62
   252
100
AcDbLine
 10
3.577871882961
 20
7.820844689254
 30
0.0
 11
74.577871882961
 21
7.820844689254
 31
0.0
  0
LINE
  5
2A8A
330
2A6C
100
AcDbEntity
  8
図枠細線
  6
CONTINUOUS
100
AcDbLine
 10
74.577871882961
 20
17.820843689254
 30
0.0
 11
143.577871882961
 21
17.820841224969
 31
0.0
  0
LINE
  5
2A8B
330
2A6C
100
AcDbEntity
  8
図枠太線
  6
CONTINUOUS
 62
   251
100
AcDbLine
 10
3.577871882961
 20
2.820844689254
 30
0.0
 11
283.577871882961
 21
2.820844689254
 31
0.0
  0
LINE
  5
2A8C
330
2A6C
100
AcDbEntity
  8
図枠太線
  6
CONTINUOUS
 62
   251
100
AcDbLine
 10
3.577871882961
 20
2.820844689254
 30
0.0
 11
3.577871882961
 21
32.820842689254
 31
0.0
  0
ENDBLK
  5
2A8D
330
2A6C
100
AcDbEntity
  8
0
100
AcDbBlockEnd
  0
BLOCK
  5
2AF8
330
2AF4
100
AcDbEntity
  8
0
 48
10.0
100
AcDbBlockBegin
  2
_OPEN30
 70
     0
 10
0.0
 20
0.0
 30
0.0
  3
_OPEN30
  1

  0
LINE
  5
2AF5
330
2AF4
100
AcDbEntity
  8
0
  6
BYBLOCK
 62
     0
100
AcDbLine
 10
-1.0
 20
0.26794919
 30
0.0
 11
0.0
 21
0.0
 31
0.0
  0
LINE
  5
2AF6
330
2AF4
100
AcDbEntity
  8
0
  6
BYBLOCK
 62
     0
100
AcDbLine
 10
0.0
 20
0.0
 30
0.0
 11
-1.0
 21
-0.26794919
 31
0.0
  0
LINE
  5
2AF7
330
2AF4
100
AcDbEntity
  8
0
  6
BYBLOCK
 62
     0
100
AcDbLine
 10
0.0
 20
0.0
 30
0.0
 11
-1.0
 21
0.0
 31
0.0
  0
ENDBLK
  5
2AF9
330
2AF4
100
AcDbEntity
  8
0
 48
10.0
100
AcDbBlockEnd
  0
BLOCK
  5
4376
330
436C
100
AcDbEntity
  8
0
 48
10.0
100
AcDbBlockBegin
  2
*D12
 70
     1
 10
0.0
 20
0.0
 30
0.0
  3
*D12
  1

  0
LINE
  5
4C18
330
436C
100
AcDbEntity
  8
寸法線
 62
     0
 48
10.0
100
AcDbLine
 10
334.918980105816
 20
375.794448025955
 30
0.0
 11
334.918980105816
 21
301.527697878426
 31
0.0
  0
LINE
  5
4C19
330
436C
100
AcDbEntity
  8
寸法線
 62
     0
 48
10.0
100
AcDbLine
 10
359.918980105817
 20
368.712698025955
 30
0.0
 11
359.918980105817
 21
301.527697878426
 31
0.0
  0
LINE
  5
4C1A
330
436C
100
AcDbEntity
  8
寸法線
 62
     0
 48
10.0
100
AcDbLine
 10
340.918980105816
 20
302.777697878426
 30
0.0
 11
353.918980105817
 21
302.777697878426
 31
0.0
  0
INSERT
  5
4C1B
330
436C
100
AcDbEntity
  8
寸法線
 62
     0
100
AcDbBlockReference
  2
_OPEN30
 10
334.918980105816
 20
302.777697878426
 30
0.0
 41
6.0
 42
6.0
 43
6.0
 50
180.0
  0
INSERT
  5
4C1C
330
436C
100
AcDbEntity
  8
寸法線
 62
     0
100
AcDbBlockReference
  2
_OPEN30
 10
359.918980105817
 20
302.777697878426
 30
0.0
 41
6.0
 42
6.0
 43
6.0
  0
MTEXT
  5
4C1D
330
436C
100
AcDbEntity
  8
寸法線
 62
     0
 48
10.0
100
AcDbMText
 10
347.418980105817
 20
307.406864545093
 30
0.0
 40
8.0
 41
0.0
 71
     5
 72
     1
  1
\A1;25
  0
POINT
  5
4C1E
330
436C
100
AcDbEntity
  8
DEFPOINTS
 62
     0
100
AcDbPoint
 10
334.918980105816
 20
376.419448025955
 30
0.0
  0
POINT
  5
4C1F
330
436C
100
AcDbEntity
  8
DEFPOINTS
 62
     0
100
AcDbPoint
 10
359.918980105817
 20
369.337698025955
 30
0.0
  0
POINT
  5
4C20
330
436C
100
AcDbEntity
  8
DEFPOINTS
 62
     0
100
AcDbPoint
 10
359.918980105817
 20
302.777697878426
 30
0.0
  0
ENDBLK
  5
4377
330
436C
100
AcDbEntity
  8
0
 48
10.0
100
AcDbBlockEnd
  0
BLOCK
  5
4383
330
4379
100
AcDbEntity
  8
0
 48
10.0
100
AcDbBlockBegin
  2
*D13
 70
     1
 10
0.0
 20
0.0
 30
0.0
  3
*D13
  1

  0
LINE
  5
4B77
330
4379
100
AcDbEntity
  8
寸法線
 62
     0
 48
10.0
100
AcDbLine
 10
359.918980105817
 20
368.712698025955
 30
0.0
 11
359.918980105817
 21
301.527697878426
 31
0.0
  0
LINE
  5
4B78
330
4379
100
AcDbEntity
  8
寸法線
 62
     0
 48
10.0
100
AcDbLine
 10
379.918980105817
 20
368.652698025955
 30
0.0
 11
379.918980105817
 21
301.527697878426
 31
0.0
  0
LINE
  5
4B79
330
4379
100
AcDbEntity
  8
寸法線
 62
     0
 48
10.0
100
AcDbLine
 10
365.918980105817
 20
302.777697878426
 30
0.0
 11
373.918980105817
 21
302.777697878426
 31
0.0
  0
INSERT
  5
4B7A
330
4379
100
AcDbEntity
  8
寸法線
 62
     0
100
AcDbBlockReference
  2
_OPEN30
 10
359.918980105817
 20
302.777697878426
 30
0.0
 41
6.0
 42
6.0
 43
6.0
 50
180.0
  0
INSERT
  5
4B7B
330
4379
100
AcDbEntity
  8
寸法線
 62
     0
100
AcDbBlockReference
  2
_OPEN30
 10
379.918980105817
 20
302.777697878426
 30
0.0
 41
6.0
 42
6.0
 43
6.0
  0
MTEXT
  5
4B7C
330
4379
100
AcDbEntity
  8
寸法線
 62
     0
 48
10.0
100
AcDbMText
 10
369.918980105817
 20
307.406864545093
 30
0.0
 40
8.0
 41
0.0
 71
     5
 72
     1
  1
\A1;20
  0
POINT
  5
4B7D
330
4379
100
AcDbEntity
  8
DEFPOINTS
 62
     0
100
AcDbPoint
 10
359.918980105817
 20
369.337698025955
 30
0.0
  0
POINT
  5
4B7E
330
4379
100
AcDbEntity
  8
DEFPOINTS
 62
     0
100
AcDbPoint
 10
379.918980105817
 20
369.277698025955
 30
0.0
  0
POINT
  5
4B7F
330
4379
100
AcDbEntity
  8
DEFPOINTS
 62
     0
100
AcDbPoint
 10
379.918980105817
 20
302.777697878426
 30
0.0
  0
ENDBLK
  5
4384
330
4379
100
AcDbEntity
  8
0
 48
10.0
100
AcDbBlockEnd
  0
BLOCK
  5
44F7
330
44ED
100
AcDbEntity
  8
0
 48
10.0
100
AcDbBlockBegin
  2
*D15
 70
     1
 10
0.0
 20
0.0
 30
0.0
  3
*D15
  1

  0
LINE
  5
4B65
330
44ED
100
AcDbEntity
  8
寸法線
 62
     0
 48
10.0
100
AcDbLine
 10
435.667018815948
 20
427.27773513763
 30
0.0
 11
498.530511849544
 21
427.27773513763
 31
0.0
  0
LINE
  5
4B66
330
44ED
100
AcDbEntity
  8
寸法線
 62
     0
 48
10.0
100
AcDbLine
 10
456.185980105817
 20
342.277698025955
 30
0.0
 11
498.530511849544
 21
342.277698025955
 31
0.0
  0
LINE
  5
4B67
330
44ED
100
AcDbEntity
  8
寸法線
 62
     0
 48
10.0
100
AcDbLine
 10
497.280511849544
 20
421.27773513763
 30
0.0
 11
497.280511849544
 21
348.277698025955
 31
0.0
  0
INSERT
  5
4B68
330
44ED
100
AcDbEntity
  8
寸法線
 62
     0
100
AcDbBlockReference
  2
_OPEN30
 10
497.280511849544
 20
427.27773513763
 30
0.0
 41
6.0
 42
6.0
 43
6.0
 50
90.0
  0
INSERT
  5
4B69
330
44ED
100
AcDbEntity
  8
寸法線
 62
     0
100
AcDbBlockReference
  2
_OPEN30
 10
497.280511849544
 20
342.277698025955
 30
0.0
 41
6.0
 42
6.0
 43
6.0
 50
270.0
  0
MTEXT
  5
4B6A
330
44ED
100
AcDbEntity
  8
寸法線
 62
     0
 48
10.0
100
AcDbMText
 10
492.64717851621
 20
384.777716581793
 30
0.0
 40
8.0
 41
0.0
 71
     5
 72
     1
  1
\A1;85
 11
0.0
 21
1.0
 31
0.0
  0
POINT
  5
4B6B
330
44ED
100
AcDbEntity
  8
DEFPOINTS
 62
     0
100
AcDbPoint
 10
435.042018815948
 20
427.27773513763
 30
0.0
  0
POINT
  5
4B6C
330
44ED
100
AcDbEntity
  8
DEFPOINTS
 62
     0
100
AcDbPoint
 10
455.560980105817
 20
342.277698025955
 30
0.0
  0
POINT
  5
4B6D
330
44ED
100
AcDbEntity
  8
DEFPOINTS
 62
     0
100
AcDbPoint
 10
497.280511849544
 20
342.277698025955
 30
0.0
  0
ENDBLK
  5
44F8
330
44ED
100
AcDbEntity
  8
0
 48
10.0
100
AcDbBlockEnd
  0
BLOCK
  5
4504
330
44FA
100
AcDbEntity
  8
0
 48
10.0
100
AcDbBlockBegin
  2
*D16
 70
     1
 10
0.0
 20
0.0
 30
0.0
  3
*D16
  1

  0
LINE
  5
4C06
330
44FA
100
AcDbEntity
  8
寸法線
 62
     0
 48
10.0
100
AcDbLine
 10
334.918980105816
 20
375.794448025955
 30
0.0
 11
334.918980105816
 21
281.527697878426
 31
0.0
  0
LINE
  5
4C07
330
44FA
100
AcDbEntity
  8
寸法線
 62
     0
 48
10.0
100
AcDbLine
 10
469.919015679491
 20
360.649029323398
 30
0.0
 11
469.919015679491
 21
281.527697878426
 31
0.0
  0
LINE
  5
4C08
330
44FA
100
AcDbEntity
  8
寸法線
 62
     0
 48
10.0
100
AcDbLine
 10
340.918980105816
 20
282.777697878426
 30
0.0
 11
463.919015679491
 21
282.777697878426
 31
0.0
  0
INSERT
  5
4C09
330
44FA
100
AcDbEntity
  8
寸法線
 62
     0
100
AcDbBlockReference
  2
_OPEN30
 10
334.918980105816
 20
282.777697878426
 30
0.0
 41
6.0
 42
6.0
 43
6.0
 50
180.0
  0
INSERT
  5
4C0A
330
44FA
100
AcDbEntity
  8
寸法線
 62
     0
100
AcDbBlockReference
  2
_OPEN30
 10
469.919015679491
 20
282.777697878426
 30
0.0
 41
6.0
 42
6.0
 43
6.0
  0
MTEXT
  5
4C0B
330
44FA
100
AcDbEntity
  8
寸法線
 62
     0
 48
10.0
100
AcDbMText
 10
402.418997892654
 20
287.406864545092
 30
0.0
 40
8.0
 41
0.0
 71
     5
 72
     1
  1
\A1;135
  0
POINT
  5
4C0C
330
44FA
100
AcDbEntity
  8
DEFPOINTS
 62
     0
100
AcDbPoint
 10
334.918980105816
 20
376.419448025955
 30
0.0
  0
POINT
  5
4C0D
330
44FA
100
AcDbEntity
  8
DEFPOINTS
 62
     0
100
AcDbPoint
 10
469.919015679491
 20
361.274029323398
 30
0.0
  0
POINT
  5
4C0E
330
44FA
100
AcDbEntity
  8
DEFPOINTS
 62
     0
100
AcDbPoint
 10
469.919015679491
 20
282.777697878426
 30
0.0
  0
ENDBLK
  5
4505
330
44FA
100
AcDbEntity
  8
0
 48
10.0
100
AcDbBlockEnd
  0
BLOCK
  5
45F8
330
45EE
100
AcDbEntity
  8
0
 48
10.0
100
AcDbBlockBegin
  2
*D17
 70
     1
 10
0.0
 20
0.0
 30
0.0
  3
*D17
  1

  0
LINE
  5
4B53
330
45EE
100
AcDbEntity
  8
寸法線
 62
     0
 48
10.0
100
AcDbLine
 10
379.918980105817
 20
368.652698025955
 30
0.0
 11
379.918980105817
 21
301.527697878426
 31
0.0
  0
LINE
  5
4B54
330
45EE
100
AcDbEntity
  8
寸法線
 62
     0
 48
10.0
100
AcDbLine
 10
469.919015679491
 20
360.649029323398
 30
0.0
 11
469.919015679491
 21
301.527697878426
 31
0.0
  0
LINE
  5
4B55
330
45EE
100
AcDbEntity
  8
寸法線
 62
     0
 48
10.0
100
AcDbLine
 10
385.918980105817
 20
302.777697878426
 30
0.0
 11
463.919015679491
 21
302.777697878426
 31
0.0
  0
INSERT
  5
4B56
330
45EE
100
AcDbEntity
  8
寸法線
 62
     0
100
AcDbBlockReference
  2
_OPEN30
 10
379.918980105817
 20
302.777697878426
 30
0.0
 41
6.0
 42
6.0
 43
6.0
 50
180.0
  0
INSERT
  5
4B57
330
45EE
100
AcDbEntity
  8
寸法線
 62
     0
100
AcDbBlockReference
  2
_OPEN30
 10
469.919015679491
 20
302.777697878426
 30
0.0
 41
6.0
 42
6.0
 43
6.0
  0
MTEXT
  5
4B58
330
45EE
100
AcDbEntity
  8
寸法線
 62
     0
 48
10.0
100
AcDbMText
 10
424.918997892654
 20
307.402697878426
 30
0.0
 40
8.0
 41
0.0
 71
     5
 72
     1
  1
\A1;90
  0
POINT
  5
4B59
330
45EE
100
AcDbEntity
  8
DEFPOINTS
 62
     0
100
AcDbPoint
 10
379.918980105817
 20
369.277698025955
 30
0.0
  0
POINT
  5
4B5A
330
45EE
100
AcDbEntity
  8
DEFPOINTS
 62
     0
100
AcDbPoint
 10
469.919015679491
 20
361.274029323398
 30
0.0
  0
POINT
  5
4B5B
330
45EE
100
AcDbEntity
  8
DEFPOINTS
 62
     0
100
AcDbPoint
 10
469.919015679491
 20
302.777697878426
 30
0.0
  0
ENDBLK
  5
45F9
330
45EE
100
AcDbEntity
  8
0
 48
10.0
100
AcDbBlockEnd
  0
BLOCK
  5
480C
330
480B
100
AcDbEntity
  8
0
 48
10.0
100
AcDbBlockBegin
  2
静電容量センサ
 70
     0
 10
0.0
 20
0.0
 30
0.0
  3
静電容量センサ
  1

  0
ARC
  5
480D
330
480B
100
AcDbEntity
  8
外形線
 48
10.0
100
AcDbCircle
 10
1021.898525663106
 20
1073.412780408912
 30
0.0
 40
1.0
100
AcDbArc
 50
180.0
 51
268.999999999998
  0
ARC
  5
480E
330
480B
100
AcDbEntity
  8
外形線
 48
10.0
100
AcDbCircle
 10
1021.898525663106
 20
1115.960781516243
 30
0.0
 40
1.0
100
AcDbArc
 50
91.000000000002
 51
180.0
  0
LINE
  5
480F
330
480B
100
AcDbEntity
  8
外形線
 48
10.0
100
AcDbLine
 10
1020.898525663106
 20
1115.960781516243
 30
0.0
 11
1020.898525663106
 21
1073.412780408912
 31
0.0
  0
LINE
  5
4810
330
480B
100
AcDbEntity
  8
外形線
 48
10.0
100
AcDbLine
 10
1035.026308504175
 20
1117.944859066978
 30
0.0
 11
1041.278741748243
 21
1143.02199911049
 31
0.0
  0
ARC
  5
4811
330
480B
100
AcDbEntity
  8
外形線
 48
10.0
100
AcDbCircle
 10
1046.130220379623
 20
1141.812389632491
 30
0.0
 40
5.0
100
AcDbArc
 50
91.3
 51
166.000000000004
  0
ARC
  5
4812
330
480B
100
AcDbEntity
  8
外形線
 48
10.0
100
AcDbCircle
 10
1034.056012777899
 20
1118.186780962578
 30
0.0
 40
1.0
100
AcDbArc
 50
270.0
 51
346.000000000004
  0
ARC
  5
4813
330
480B
100
AcDbEntity
  8
外形線
 48
10.0
100
AcDbCircle
 10
1034.056012777899
 20
1118.186780962578
 30
0.0
 40
1.0
100
AcDbArc
 50
270.0
 51
346.000000000004
  0
LINE
  5
4814
330
480B
100
AcDbEntity
  8
外形線
 48
10.0
100
AcDbLine
 10
1021.881073256669
 20
1116.960629211399
 30
0.0
 11
1034.056012777899
 21
1117.186780962578
 31
0.0
  0
ARC
  5
4815
330
480B
100
AcDbEntity
  8
外形線
 48
10.0
100
AcDbCircle
 10
1122.899564892808
 20
1151.93622955513
 30
0.0
 40
0.5
100
AcDbArc
 50
359.999254274584
 51
88.999999999998
  0
ARC
  5
4816
330
480B
100
AcDbEntity
  8
細線
 48
10.0
100
AcDbCircle
 10
1123.898525663106
 20
1107.819822714047
 30
0.0
 40
0.5
100
AcDbArc
 50
180.0
 51
264.089361084595
  0
ARC
  5
4817
330
480B
100
AcDbEntity
  8
外形線
 48
10.0
100
AcDbCircle
 10
1123.898525663106
 20
1100.44543233102
 30
0.0
 40
0.5
100
AcDbArc
 50
91.000000000002
 51
180.0
  0
ARC
  5
4818
330
480B
100
AcDbEntity
  8
細線
 48
10.0
100
AcDbCircle
 10
1123.898525663106
 20
1108.078641759149
 30
0.0
 40
0.5
100
AcDbArc
 50
180.0
 51
264.089361084595
  0
ARC
  5
4819
330
480B
100
AcDbEntity
  8
細線
 48
10.0
100
AcDbCircle
 10
1123.898525663106
 20
1129.71320712675
 30
0.0
 40
0.5
100
AcDbArc
 50
180.0
 51
254.206830951738
  0
ARC
  5
481A
330
480B
100
AcDbEntity
  8
細線
 48
10.0
100
AcDbCircle
 10
1123.898525663106
 20
1130.420313907937
 30
0.0
 40
0.5
100
AcDbArc
 50
180.0
 51
254.206830951738
  0
ARC
  5
481B
330
480B
100
AcDbEntity
  8
細線
 48
10.0
100
AcDbCircle
 10
1123.898525663106
 20
1142.359984147006
 30
0.0
 40
0.5
100
AcDbArc
 50
180.0
 51
248.874947125989
  0
ARC
  5
481C
330
480B
100
AcDbEntity
  8
細線
 48
10.0
100
AcDbCircle
 10
1123.898525663106
 20
1143.325909973296
 30
0.0
 40
0.5
100
AcDbArc
 50
180.0
 51
248.874947125989
  0
ARC
  5
481D
330
480B
100
AcDbEntity
  8
外形線
 48
10.0
100
AcDbCircle
 10
1123.898413585187
 20
1144.632076415673
 30
0.0
 40
0.5
100
AcDbArc
 50
180.019033969455
 51
248.025023881972
  0
LINE
  5
481E
330
480B
100
AcDbEntity
  8
外形線
 48
10.0
100
AcDbLine
 10
1123.398525663106
 20
1143.325909973296
 30
0.0
 11
1123.398525663106
 21
1144.294618045039
 31
0.0
  0
LINE
  5
481F
330
480B
100
AcDbEntity
  8
外形線
 48
10.0
100
AcDbLine
 10
1123.398525663106
 20
1142.359984147006
 30
0.0
 11
1123.398525663106
 21
1142.98307227703
 31
0.0
  0
LINE
  5
4820
330
480B
100
AcDbEntity
  8
外形線
 48
10.0
100
AcDbLine
 10
1123.398525663106
 20
1130.420313907937
 30
0.0
 11
1123.398525663106
 21
1142.017146450741
 31
0.0
  0
LINE
  5
4821
330
480B
100
AcDbEntity
  8
外形線
 48
10.0
100
AcDbLine
 10
1123.398525663106
 20
1129.71320712675
 30
0.0
 11
1123.398525663106
 21
1130.042120021904
 31
0.0
  0
LINE
  5
4822
330
480B
100
AcDbEntity
  8
外形線
 48
10.0
100
AcDbLine
 10
1123.398525663106
 20
1108.078641759149
 30
0.0
 11
1123.398525663106
 21
1130.420313907937
 31
0.0
  0
LINE
  5
4823
330
480B
100
AcDbEntity
  8
外形線
 48
10.0
100
AcDbLine
 10
1123.398525663106
 20
1107.819822714047
 30
0.0
 11
1123.398525663106
 21
1108.700149198143
 31
0.0
  0
LINE
  5
4824
330
480B
100
AcDbEntity
  8
外形線
 48
10.0
100
AcDbLine
 10
1123.398525663106
 20
1100.44543233102
 30
0.0
 11
1123.398525663106
 21
1108.078641759149
 31
0.0
  0
ARC
  5
4825
330
480B
100
AcDbEntity
  8
外形線
 48
10.0
100
AcDbCircle
 10
1123.898525663106
 20
1088.928129594135
 30
0.0
 40
0.5
100
AcDbArc
 50
180.0
 51
268.999999999998
  0
LINE
  5
4826
330
480B
100
AcDbEntity
  8
外形線
 48
10.0
100
AcDbLine
 10
1123.398525663106
 20
1088.928129594135
 30
0.0
 11
1123.398525663106
 21
1100.44543233102
 31
0.0
  0
ARC
  5
4827
330
480B
100
AcDbEntity
  8
外形線
 48
10.0
100
AcDbCircle
 10
1135.396646406818
 20
1087.727276821958
 30
0.0
 40
0.5
100
AcDbArc
 50
0.002863323129
 51
88.999999999998
  0
ARC
  5
4828
330
480B
100
AcDbEntity
  8
外形線
 48
10.0
100
AcDbCircle
 10
1135.396646406818
 20
1101.646285103198
 30
0.0
 40
0.5
100
AcDbArc
 50
271.000000000002
 51
359.997136676878
  0
ARC
  5
4829
330
480B
100
AcDbEntity
  8
細線
 48
10.0
100
AcDbCircle
 10
1135.398359871226
 20
1105.882746614783
 30
0.0
 40
0.5
100
AcDbArc
 50
359.978936747976
 51
84.089361084595
  0
ARC
  5
482A
330
480B
100
AcDbEntity
  8
細線
 48
10.0
100
AcDbCircle
 10
1135.396845195015
 20
1105.6240843805
 30
0.0
 40
0.5
100
AcDbArc
 50
359.997136676878
 51
84.089361084595
  0
ARC
  5
482B
330
480B
100
AcDbEntity
  8
細線
 48
10.0
100
AcDbCircle
 10
1135.398405428356
 20
1136.84472607817
 30
0.0
 40
0.5
100
AcDbArc
 50
359.997136676878
 51
68.874947125989
  0
ARC
  5
482C
330
480B
100
AcDbEntity
  8
細線
 48
10.0
100
AcDbCircle
 10
1135.398453699003
 20
1137.810633254114
 30
0.0
 40
0.5
100
AcDbArc
 50
359.997136676878
 51
68.874947125989
  0
ARC
  5
482D
330
480B
100
AcDbEntity
  8
外形線
 48
10.0
100
AcDbCircle
 10
1135.398508800797
 20
1138.913233296621
 30
0.0
 40
0.5
100
AcDbArc
 50
359.997136676878
 51
68.025023881972
  0
LINE
  5
482E
330
480B
100
AcDbEntity
  8
外形線
 48
10.0
100
AcDbLine
 10
1135.405372610037
 20
1101.146361255619
 30
0.0
 11
1123.889799459887
 21
1100.945356178598
 31
0.0
  0
LINE
  5
482F
330
480B
100
AcDbEntity
  8
外形線
 48
10.0
100
AcDbLine
 10
1135.405372610037
 20
1088.227200669536
 30
0.0
 11
1123.889799459887
 21
1088.428205746557
 31
0.0
  0
LINE
  5
4830
330
480B
100
AcDbEntity
  8
外形線
 48
10.0
100
AcDbLine
 10
1123.711312779708
 20
1144.168402728055
 30
0.0
 11
1135.585609606275
 21
1139.376906984239
 31
0.0
  0
LINE
  5
4831
330
480B
100
AcDbEntity
  8
細線
 48
10.0
100
AcDbLine
 10
1135.448333812772
 20
1106.121426237015
 30
0.0
 11
1123.847037045349
 21
1107.322480857532
 31
0.0
  0
LINE
  5
4832
330
480B
100
AcDbEntity
  8
細線
 48
10.0
100
AcDbLine
 10
1135.449848488983
 20
1106.380088471297
 30
0.0
 11
1123.847037045349
 21
1107.581299902634
 31
0.0
  0
LINE
  5
4833
330
480B
100
AcDbEntity
  8
細線
 48
10.0
100
AcDbLine
 10
1135.533952658586
 20
1126.609702933466
 30
0.0
 11
1123.762442899618
 21
1129.939188683612
 31
0.0
  0
LINE
  5
4834
330
480B
100
AcDbEntity
  8
細線
 48
10.0
100
AcDbLine
 10
1135.578607784566
 20
1137.311124095764
 30
0.0
 11
1123.718323306896
 21
1141.893586129411
 31
0.0
  0
LINE
  5
4835
330
480B
100
AcDbEntity
  8
細線
 48
10.0
100
AcDbLine
 10
1135.578656055213
 20
1138.277031271709
 30
0.0
 11
1123.718323306896
 21
1142.859511955701
 31
0.0
  0
LINE
  5
4836
330
480B
100
AcDbEntity
  8
外形線
 48
10.0
100
AcDbLine
 10
1108.899561566736
 20
1152.686780962578
 30
0.0
 11
1122.908291096026
 21
1152.436153402709
 31
0.0
  0
LINE
  5
4837
330
480B
100
AcDbEntity
  8
外形線
 48
10.0
100
AcDbLine
 10
1108.899561566736
 20
1152.686780962578
 30
0.0
 11
1108.399561566736
 21
1152.180676686204
 31
0.0
  0
LINE
  5
4838
330
480B
100
AcDbEntity
  8
外形線
 48
10.0
100
AcDbLine
 10
1108.399561566736
 20
1151.192885238951
 30
0.0
 11
1108.399561566736
 21
1150.692885238951
 31
0.0
  0
ARC
  5
4839
330
480B
100
AcDbEntity
  8
外形線
 48
10.0
100
AcDbCircle
 10
1098.998525663106
 20
1152.414559409545
 30
0.0
 40
4.4
100
AcDbArc
 50
271.3
 51
0.0
  0
LINE
  5
483A
330
480B
100
AcDbEntity
  8
外形線
 48
10.0
100
AcDbLine
 10
1046.016783711759
 20
1146.811102679105
 30
0.0
 11
1099.098349930826
 21
1148.015691928525
 31
0.0
  0
LINE
  5
483B
330
480B
100
AcDbEntity
  8
外形線
 48
10.0
100
AcDbLine
 10
1103.398525663105
 20
1152.686780962578
 30
0.0
 11
1103.398525663105
 21
1152.414559409545
 31
0.0
  0
LINE
  5
483C
330
480B
100
AcDbEntity
  8
外形線
 48
10.0
100
AcDbLine
 10
1106.398525663105
 20
1152.686780962578
 30
0.0
 11
1103.398525663105
 21
1152.686780962578
 31
0.0
  0
ARC
  5
483D
330
480B
100
AcDbEntity
  8
外形線
 48
10.0
100
AcDbCircle
 10
1107.898525663105
 20
1150.161780962577
 30
0.0
 40
1.500000000000156
100
AcDbArc
 50
70.528779365514
 51
179.999999999993
  0
LINE
  5
483E
330
480B
100
AcDbEntity
  8
細線
 48
10.0
100
AcDbLine
 10
1108.899561566736
 20
1152.686780962578
 30
0.0
 11
1108.899561566736
 21
1036.686780962578
 31
0.0
  0
LINE
  5
483F
330
480B
100
AcDbEntity
  8
細線
 48
10.0
100
AcDbLine
 10
1108.899561566736
 20
1152.680676686204
 30
0.0
 11
1108.899561566736
 21
1036.692885238951
 31
0.0
  0
LINE
  5
4840
330
480B
100
AcDbEntity
  8
外形線
 48
10.0
100
AcDbLine
 10
1123.398525663106
 20
1072.956444458874
 30
0.0
 11
1123.398525663106
 21
1059.660354798405
 31
0.0
  0
ARC
  5
4841
330
480B
100
AcDbEntity
  8
細線
 48
10.0
100
AcDbCircle
 10
1123.898525663106
 20
1047.013577778149
 30
0.0
 40
0.5
100
AcDbArc
 50
111.125052874011
 51
180.0
  0
ARC
  5
4842
330
480B
100
AcDbEntity
  8
細線
 48
10.0
100
AcDbCircle
 10
1123.898066965619
 20
1046.04747472476
 30
0.0
 40
0.5
100
AcDbArc
 50
111.125052874011
 51
179.923306313171
  0
ARC
  5
4843
330
480B
100
AcDbEntity
  8
細線
 48
10.0
100
AcDbCircle
 10
1123.898525663106
 20
1059.660354798405
 30
0.0
 40
0.5
100
AcDbArc
 50
105.793169048262
 51
180.0
  0
ARC
  5
4844
330
480B
100
AcDbEntity
  8
細線
 48
10.0
100
AcDbCircle
 10
1123.898525663106
 20
1058.953248017218
 30
0.0
 40
0.5
100
AcDbArc
 50
105.793169048262
 51
180.0
  0
ARC
  5
4845
330
480B
100
AcDbEntity
  8
細線
 48
10.0
100
AcDbCircle
 10
1123.898525663106
 20
1081.294920166006
 30
0.0
 40
0.5
100
AcDbArc
 50
95.910638915405
 51
180.0
  0
ARC
  5
4846
330
480B
100
AcDbEntity
  8
細線
 48
10.0
100
AcDbCircle
 10
1123.898525663106
 20
1081.553739211108
 30
0.0
 40
0.5
100
AcDbArc
 50
95.910638915405
 51
180.0
  0
LINE
  5
4847
330
480B
100
AcDbEntity
  8
外形線
 48
10.0
100
AcDbLine
 10
1123.398525663106
 20
1081.294920166006
 30
0.0
 11
1123.398525663106
 21
1088.928129594135
 31
0.0
  0
LINE
  5
4848
330
480B
100
AcDbEntity
  8
外形線
 48
10.0
100
AcDbLine
 10
1123.398525663106
 20
1081.745828707453
 30
0.0
 11
1123.398525663106
 21
1082.004647752555
 31
0.0
  0
LINE
  5
4849
330
480B
100
AcDbEntity
  8
外形線
 48
10.0
100
AcDbLine
 10
1123.398525663106
 20
1072.956444458874
 30
0.0
 11
1123.398525663106
 21
1081.294920166006
 31
0.0
  0
LINE
  5
484A
330
480B
100
AcDbEntity
  8
外形線
 48
10.0
100
AcDbLine
 10
1123.398525663106
 20
1058.953248017218
 30
0.0
 11
1123.398525663106
 21
1059.660354798405
 31
0.0
  0
LINE
  5
484B
330
480B
100
AcDbEntity
  8
外形線
 48
10.0
100
AcDbLine
 10
1123.398525663106
 20
1047.013577778149
 30
0.0
 11
1123.398525663106
 21
1058.953248017218
 31
0.0
  0
LINE
  5
484C
330
480B
100
AcDbEntity
  8
外形線
 48
10.0
100
AcDbLine
 10
1123.398067413553
 20
1046.048144003235
 30
0.0
 11
1123.398525663106
 21
1047.013577778149
 31
0.0
  0
LINE
  5
484D
330
480B
100
AcDbEntity
  8
外形線
 48
10.0
100
AcDbLine
 10
1123.396317242873
 20
1044.740639597053
 30
0.0
 11
1123.398067413553
 21
1046.048144003235
 31
0.0
  0
ARC
  5
484E
330
480B
100
AcDbEntity
  8
外形線
 48
10.0
100
AcDbCircle
 10
1123.896317242873
 20
1044.740639597053
 30
0.0
 40
0.5
100
AcDbArc
 50
111.974976118028
 51
180.0
  0
ARC
  5
484F
330
480B
100
AcDbEntity
  8
細線
 48
10.0
100
AcDbCircle
 10
1135.398494161258
 20
1063.952267566336
 30
0.0
 40
0.5
100
AcDbArc
 50
285.793169048262
 51
0.004772330144
  0
ARC
  5
4850
330
480B
100
AcDbEntity
  8
細線
 48
10.0
100
AcDbCircle
 10
1135.398525663106
 20
1063.245169695216
 30
0.0
 40
0.5
100
AcDbArc
 50
285.793169048262
 51
0.0
  0
ARC
  5
4851
330
480B
100
AcDbEntity
  8
細線
 48
10.0
100
AcDbCircle
 10
1135.398525663106
 20
1052.528882302126
 30
0.0
 40
0.5
100
AcDbArc
 50
291.125052874011
 51
0.0
  0
ARC
  5
4852
330
480B
100
AcDbEntity
  8
細線
 48
10.0
100
AcDbCircle
 10
1135.398525663106
 20
1051.562956475835
 30
0.0
 40
0.5
100
AcDbArc
 50
291.125052874011
 51
0.0
  0
ARC
  5
4853
330
480B
100
AcDbEntity
  8
外形線
 48
10.0
100
AcDbCircle
 10
1135.398525663106
 20
1050.460335432784
 30
0.0
 40
0.5
100
AcDbArc
 50
291.974976118028
 51
0.0
  0
LINE
  5
4854
330
480B
100
AcDbEntity
  8
外形線
 48
10.0
100
AcDbLine
 10
1135.898525663106
 20
1051.562956475835
 30
0.0
 11
1135.898525663106
 21
1050.460335432784
 31
0.0
  0
LINE
  5
4855
330
480B
100
AcDbEntity
  8
外形線
 48
10.0
100
AcDbLine
 10
1135.898525663106
 20
1052.528882302126
 30
0.0
 11
1135.898525663106
 21
1051.562956475835
 31
0.0
  0
LINE
  5
4856
330
480B
100
AcDbEntity
  8
外形線
 48
10.0
100
AcDbLine
 10
1135.898525663106
 20
1063.245169695216
 30
0.0
 11
1135.898525663106
 21
1052.528882302126
 31
0.0
  0
LINE
  5
4857
330
480B
100
AcDbEntity
  8
外形線
 48
10.0
100
AcDbLine
 10
1135.898494159523
 20
1063.952309212773
 30
0.0
 11
1135.898525663106
 21
1063.245169695216
 31
0.0
  0
LINE
  5
4858
330
480B
100
AcDbEntity
  8
外形線
 48
10.0
100
AcDbLine
 10
1135.896845194391
 20
1083.749502531863
 30
0.0
 11
1135.898494159523
 21
1063.952309212773
 31
0.0
  0
ARC
  5
4859
330
480B
100
AcDbEntity
  8
細線
 48
10.0
100
AcDbCircle
 10
1135.396794220963
 20
1083.49065322233
 30
0.0
 40
0.5
100
AcDbArc
 50
275.910638915405
 51
0.00199902817
  0
ARC
  5
485A
330
480B
100
AcDbEntity
  8
細線
 48
10.0
100
AcDbCircle
 10
1135.396845195015
 20
1083.749477544655
 30
0.0
 40
0.5
100
AcDbArc
 50
275.910638915405
 51
0.002863323129
  0
ARC
  5
485B
330
480B
100
AcDbEntity
  8
外形線
 48
10.0
100
AcDbCircle
 10
1122.897486448612
 20
1037.437296090646
 30
0.0
 40
0.5
100
AcDbArc
 50
271.000000000002
 51
359.984453673186
  0
LINE
  5
485C
330
480B
100
AcDbEntity
  8
外形線
 48
10.0
100
AcDbLine
 10
1135.896646406194
 20
1087.727301809166
 30
0.0
 11
1135.896794220659
 21
1083.490670667142
 31
0.0
  0
LINE
  5
485D
330
480B
100
AcDbEntity
  8
外形線
 48
10.0
100
AcDbLine
 10
1123.709216437395
 20
1045.204313284671
 30
0.0
 11
1135.585626468584
 21
1049.996661745166
 31
0.0
  0
LINE
  5
485E
330
480B
100
AcDbEntity
  8
細線
 48
10.0
100
AcDbLine
 10
1135.578728019316
 20
1052.062484284531
 30
0.0
 11
1123.718323306896
 21
1047.479975795744
 31
0.0
  0
LINE
  5
485F
330
480B
100
AcDbEntity
  8
細線
 48
10.0
100
AcDbLine
 10
1135.578728019316
 20
1051.09655845824
 30
0.0
 11
1123.717864609409
 21
1046.513872742355
 31
0.0
  0
LINE
  5
4860
330
480B
100
AcDbEntity
  8
細線
 48
10.0
100
AcDbLine
 10
1135.534608426593
 20
1062.764044470891
 30
0.0
 11
1123.762442899618
 21
1059.434373241543
 31
0.0
  0
LINE
  5
4861
330
480B
100
AcDbEntity
  8
細線
 48
10.0
100
AcDbLine
 10
1135.534576924746
 20
1063.471142342011
 30
0.0
 11
1123.762442899618
 21
1060.141480022729
 31
0.0
  0
LINE
  5
4862
330
480B
100
AcDbEntity
  8
細線
 48
10.0
100
AcDbLine
 10
1135.44828283872
 20
1082.993311365815
 30
0.0
 11
1123.847037045349
 21
1081.792262022521
 31
0.0
  0
LINE
  5
4863
330
480B
100
AcDbEntity
  8
細線
 48
10.0
100
AcDbLine
 10
1135.448333812772
 20
1083.25213568814
 30
0.0
 11
1123.847037045349
 21
1082.051081067623
 31
0.0
  0
LINE
  5
4864
330
480B
100
AcDbEntity
  8
外形線
 48
10.0
100
AcDbLine
 10
1123.399470041665
 20
1044.747733739171
 30
0.0
 11
1123.397486430207
 21
1037.437160423353
 31
0.0
  0
LINE
  5
4865
330
480B
100
AcDbEntity
  8
外形線
 48
10.0
100
AcDbLine
 10
1123.399564892765
 20
1151.936223047449
 30
0.0
 11
1123.397486430207
 21
1037.437160423353
 31
0.0
  0
LINE
  5
4866
330
480B
100
AcDbEntity
  8
外形線
 48
10.0
100
AcDbLine
 10
1108.399561566736
 20
1152.180676686204
 30
0.0
 11
1108.399561566736
 21
1037.192885238951
 31
0.0
  0
LINE
  5
4867
330
480B
100
AcDbEntity
  8
外形線
 48
10.0
100
AcDbLine
 10
1108.899561566736
 20
1036.686780962578
 30
0.0
 11
1122.906212651831
 21
1036.937372243068
 31
0.0
  0
LINE
  5
4868
330
480B
100
AcDbEntity
  8
外形線
 48
10.0
100
AcDbLine
 10
1108.899561566736
 20
1036.686780962578
 30
0.0
 11
1108.399561566736
 21
1037.192885238951
 31
0.0
  0
LINE
  5
4869
330
480B
100
AcDbEntity
  8
外形線
 48
10.0
100
AcDbLine
 10
1108.399561566736
 20
1038.192885238951
 30
0.0
 11
1108.399561566736
 21
1038.692885238951
 31
0.0
  0
LINE
  5
486A
330
480B
100
AcDbEntity
  8
外形線
 48
10.0
100
AcDbLine
 10
1035.022931603883
 20
1071.442246865485
 30
0.0
 11
1041.278741748243
 21
1046.351562814666
 31
0.0
  0
ARC
  5
486B
330
480B
100
AcDbEntity
  8
外形線
 48
10.0
100
AcDbCircle
 10
1046.130220379623
 20
1047.561172292664
 30
0.0
 40
5.0
100
AcDbArc
 50
193.999999999996
 51
268.7
  0
ARC
  5
486C
330
480B
100
AcDbEntity
  8
外形線
 48
10.0
100
AcDbCircle
 10
1034.052635877606
 20
1071.200324969886
 30
0.0
 40
1.0
100
AcDbArc
 50
13.999999999996
 51
89.000000000011
  0
ARC
  5
486D
330
480B
100
AcDbEntity
  8
外形線
 48
10.0
100
AcDbCircle
 10
1069.398525663106
 20
1041.031595836918
 30
0.0
 40
1.0
100
AcDbArc
 50
0.0
 51
88.7
  0
ARC
  5
486E
330
480B
100
AcDbEntity
  8
外形線
 48
10.0
100
AcDbCircle
 10
1071.398525663106
 20
1031.186780962577
 30
0.0
 40
1.0
100
AcDbArc
 50
180.0
 51
270.0
  0
ARC
  5
486F
330
480B
100
AcDbEntity
  8
外形線
 48
10.0
100
AcDbCircle
 10
1105.398525663105
 20
1031.186780962577
 30
0.0
 40
1.0
100
AcDbArc
 50
270.0
 51
0.0
  0
LINE
  5
4870
330
480B
100
AcDbEntity
  8
外形線
 48
10.0
100
AcDbLine
 10
1070.398525663106
 20
1031.186780962577
 30
0.0
 11
1070.398525663106
 21
1041.031595836918
 31
0.0
  0
LINE
  5
4871
330
480B
100
AcDbEntity
  8
外形線
 48
10.0
100
AcDbLine
 10
1046.016783711759
 20
1042.56245924605
 30
0.0
 11
1099.098349930826
 21
1041.35786999663
 31
0.0
  0
LINE
  5
4872
330
480B
100
AcDbEntity
  8
外形線
 48
10.0
100
AcDbLine
 10
1021.881073256668
 20
1072.412932713756
 30
0.0
 11
1034.070088284044
 21
1072.200172665042
 31
0.0
  0
LINE
  5
4873
330
480B
100
AcDbEntity
  8
外形線
 48
10.0
100
AcDbLine
 10
1106.398525663105
 20
1040.711780962577
 30
0.0
 11
1106.398525663105
 21
1031.186780962577
 31
0.0
  0
LINE
  5
4874
330
480B
100
AcDbEntity
  8
外形線
 48
10.0
100
AcDbLine
 10
1106.398525663105
 20
1040.711780962577
 30
0.0
 11
1106.398525663105
 21
1152.686780962578
 31
0.0
  0
LINE
  5
4875
330
480B
100
AcDbEntity
  8
外形線
 48
10.0
100
AcDbLine
 10
1105.398525663105
 20
1030.186780962577
 30
0.0
 11
1071.398525663106
 21
1030.186780962577
 31
0.0
  0
LINE
  5
4876
330
480B
100
AcDbEntity
  8
外形線
 48
10.0
100
AcDbLine
 10
1103.398525663106
 20
1036.95900251561
 30
0.0
 11
1103.398525663105
 21
1036.692885238951
 31
0.0
  0
LINE
  5
4877
330
480B
100
AcDbEntity
  8
外形線
 48
10.0
100
AcDbLine
 10
1106.398525663105
 20
1036.692885238951
 30
0.0
 11
1103.398525663105
 21
1036.692885238951
 31
0.0
  0
ARC
  5
4878
330
480B
100
AcDbEntity
  8
外形線
 48
10.0
100
AcDbCircle
 10
1107.898525663105
 20
1039.211780962577
 30
0.0
 40
1.499999999999659
100
AcDbArc
 50
179.99999999998
 51
289.471220634515
  0
ARC
  5
4879
330
480B
100
AcDbEntity
  8
外形線
 48
10.0
100
AcDbCircle
 10
1098.998525663106
 20
1036.95900251561
 30
0.0
 40
4.4
100
AcDbArc
 50
0.0
 51
88.7
  0
LINE
  5
487A
330
480B
100
AcDbEntity
  8
細線
 48
10.0
100
AcDbLine
 10
1103.398525663105
 20
1152.686780962578
 30
0.0
 11
1103.398525663106
 21
1036.95900251561
 31
0.0
  0
LINE
  5
487B
330
480B
100
AcDbEntity
  8
細線
 48
10.0
100
AcDbLine
 10
1034.837298404406
 20
1072.186780962578
 30
0.0
 11
1034.840933619068
 21
1117.201361012233
 31
0.0
  0
LINE
  5
487C
330
480B
100
AcDbEntity
  8
細線
 48
10.0
100
AcDbLine
 10
1042.201886517784
 20
1144.905639229587
 30
0.0
 11
1042.201886517784
 21
1044.467922695569
 31
0.0
  0
LINE
  5
487D
330
480B
100
AcDbEntity
  8
外形線
 48
10.0
100
AcDbLine
 10
1135.898508800172
 20
1138.913208309413
 30
0.0
 11
1135.896646406194
 21
1101.646260115989
 31
0.0
  0
ARC
  5
487E
330
480B
100
AcDbEntity
  8
細線
 48
10.0
100
AcDbCircle
 10
1135.397834558349
 20
1125.421480922695
 30
0.0
 40
0.5
100
AcDbArc
 50
359.997136676878
 51
74.206830951738
  0
ARC
  5
487F
330
480B
100
AcDbEntity
  8
細線
 48
10.0
100
AcDbCircle
 10
1135.397869895098
 20
1126.128577709141
 30
0.0
 40
0.5
100
AcDbArc
 50
359.997136676878
 51
74.206830951738
  0
LINE
  5
4880
330
480B
100
AcDbEntity
  8
細線
 48
10.0
100
AcDbLine
 10
1135.533917321837
 20
1125.90260614702
 30
0.0
 11
1123.762442899618
 21
1129.232081902426
 31
0.0
  0
LINE
  5
4881
330
480B
100
AcDbEntity
  8
中心線
 48
10.0
100
AcDbLine
 10
1088.398525663106
 20
1052.03299312045
 30
0.0
 11
1088.398525663106
 21
1013.722487401784
 31
0.0
  0
ENDBLK
  5
4882
330
480B
100
AcDbEntity
  8
0
 48
10.0
100
AcDbBlockEnd
  0
BLOCK
  5
4AE1
330
4ADE
100
AcDbEntity
  8
0
 48
10.0
100
AcDbBlockBegin
  2
A$C1FF97662
 70
     0
 10
0.0
 20
0.0
 30
0.0
  3
A$C1FF97662
  1

  0
MTEXT
  5
4ADF
330
4ADE
100
AcDbEntity
  8
寸法線
 48
10.0
100
AcDbMText
 10
-0.126969876798
 20
4.752956930191
 30
0.0
 40
4.0
 41
23.156665718806
 71
     1
 72
     5
  1
{\H1.25x;2011.9.11}
  0
MTEXT
  5
4AE0
330
4ADE
100
AcDbEntity
  8
寸法線
 48
10.0
100
AcDbMText
 10
4.78713554519
 20
24.175469920192
 30
0.0
 40
4.5
 41
21.375384236178
 71
     1
 72
     5
  1
N.Abe
  0
ENDBLK
  5
4AE2
330
4ADE
100
AcDbEntity
  8
0
 48
10.0
100
AcDbBlockEnd
  0
BLOCK
  5
4F6C
330
4F6B
100
AcDbEntity
  8
0
100
AcDbBlockBegin
  2
*D40
 70
     1
 10
0.0
 20
0.0
 30
0.0
  3
*D40
  1

  0
LINE
  5
4F6E
330
4F6B
100
AcDbEntity
  8
寸法線
 62
     0
 48
10.0
100
AcDbLine
 10
84.918980105816
 20
380.652008257683
 30
0.0
 11
84.918980105816
 21
281.527697878426
 31
0.0
  0
LINE
  5
4F6F
330
4F6B
100
AcDbEntity
  8
寸法線
 62
     0
 48
10.0
100
AcDbLine
 10
334.918980105817
 20
371.902508257683
 30
0.0
 11
334.918980105817
 21
281.527697878426
 31
0.0
  0
LINE
  5
4F70
330
4F6B
100
AcDbEntity
  8
寸法線
 62
     0
 48
10.0
100
AcDbLine
 10
90.918980105816
 20
282.777697878426
 30
0.0
 11
328.918980105817
 21
282.777697878426
 31
0.0
  0
INSERT
  5
4F71
330
4F6B
100
AcDbEntity
  8
寸法線
 62
     0
100
AcDbBlockReference
  2
_OPEN30
 10
84.918980105816
 20
282.777697878426
 30
0.0
 41
6.0
 42
6.0
 43
6.0
 50
180.0
  0
INSERT
  5
4F72
330
4F6B
100
AcDbEntity
  8
寸法線
 62
     0
100
AcDbBlockReference
  2
_OPEN30
 10
334.918980105817
 20
282.777697878426
 30
0.0
 41
6.0
 42
6.0
 43
6.0
  0
POINT
  5
4F73
330
4F6B
100
AcDbEntity
  8
DEFPOINTS
 62
     0
100
AcDbPoint
 10
84.918980105816
 20
381.277008257683
 30
0.0
  0
POINT
  5
4F74
330
4F6B
100
AcDbEntity
  8
DEFPOINTS
 62
     0
100
AcDbPoint
 10
334.918980105817
 20
372.527508257683
 30
0.0
  0
POINT
  5
4F75
330
4F6B
100
AcDbEntity
  8
DEFPOINTS
 62
     0
100
AcDbPoint
 10
334.918980105817
 20
282.777697878426
 30
0.0
  0
ENDBLK
  5
4F6D
330
4F6B
100
AcDbEntity
  8
0
100
AcDbBlockEnd
  0
BLOCK
  5
4F77
330
4F76
100
AcDbEntity
  8
0
100
AcDbBlockBegin
  2
*D41
 70
     1
 10
0.0
 20
0.0
 30
0.0
  3
*D41
  1

  0
LINE
  5
4F79
330
4F76
100
AcDbEntity
  8
寸法線
 62
     0
 48
10.0
100
AcDbLine
 10
234.918980105816
 20
376.902008257683
 30
0.0
 11
234.918980105816
 21
301.527697878426
 31
0.0
  0
LINE
  5
4F7A
330
4F76
100
AcDbEntity
  8
寸法線
 62
     0
 48
10.0
100
AcDbLine
 10
334.918980105817
 20
371.902508257683
 30
0.0
 11
334.918980105817
 21
301.527697878426
 31
0.0
  0
LINE
  5
4F7B
330
4F76
100
AcDbEntity
  8
寸法線
 62
     0
 48
10.0
100
AcDbLine
 10
240.918980105816
 20
302.777697878426
 30
0.0
 11
328.918980105817
 21
302.777697878426
 31
0.0
  0
INSERT
  5
4F7C
330
4F76
100
AcDbEntity
  8
寸法線
 62
     0
100
AcDbBlockReference
  2
_OPEN30
 10
234.918980105816
 20
302.777697878426
 30
0.0
 41
6.0
 42
6.0
 43
6.0
 50
180.0
  0
INSERT
  5
4F7D
330
4F76
100
AcDbEntity
  8
寸法線
 62
     0
100
AcDbBlockReference
  2
_OPEN30
 10
334.918980105817
 20
302.777697878426
 30
0.0
 41
6.0
 42
6.0
 43
6.0
  0
POINT
  5
4F7E
330
4F76
100
AcDbEntity
  8
DEFPOINTS
 62
     0
100
AcDbPoint
 10
234.918980105816
 20
377.527008257683
 30
0.0
  0
POINT
  5
4F7F
330
4F76
100
AcDbEntity
  8
DEFPOINTS
 62
     0
100
AcDbPoint
 10
334.918980105817
 20
372.527508257683
 30
0.0
  0
POINT
  5
4F80
330
4F76
100
AcDbEntity
  8
DEFPOINTS
 62
     0
100
AcDbPoint
 10
334.918980105817
 20
302.777697878426
 30
0.0
  0
ENDBLK
  5
4F78
330
4F76
100
AcDbEntity
  8
0
100
AcDbBlockEnd
  0
BLOCK
  5
4F82
330
4F81
100
AcDbEntity
  8
0
100
AcDbBlockBegin
  2
*D42
 70
     1
 10
0.0
 20
0.0
 30
0.0
  3
*D42
  1

  0
LINE
  5
4F84
330
4F81
100
AcDbEntity
  8
寸法線
 62
     0
 48
10.0
100
AcDbLine
 10
184.918980105816
 20
377.402008257683
 30
0.0
 11
184.918980105816
 21
301.527697878426
 31
0.0
  0
LINE
  5
4F85
330
4F81
100
AcDbEntity
  8
寸法線
 62
     0
 48
10.0
100
AcDbLine
 10
234.918980105816
 20
376.902008257683
 30
0.0
 11
234.918980105816
 21
301.527697878426
 31
0.0
  0
LINE
  5
4F86
330
4F81
100
AcDbEntity
  8
寸法線
 62
     0
 48
10.0
100
AcDbLine
 10
190.918980105816
 20
302.777697878426
 30
0.0
 11
228.918980105816
 21
302.777697878426
 31
0.0
  0
INSERT
  5
4F87
330
4F81
100
AcDbEntity
  8
寸法線
 62
     0
100
AcDbBlockReference
  2
_OPEN30
 10
184.918980105816
 20
302.777697878426
 30
0.0
 41
6.0
 42
6.0
 43
6.0
 50
180.0
  0
INSERT
  5
4F88
330
4F81
100
AcDbEntity
  8
寸法線
 62
     0
100
AcDbBlockReference
  2
_OPEN30
 10
234.918980105816
 20
302.777697878426
 30
0.0
 41
6.0
 42
6.0
 43
6.0
  0
POINT
  5
4F89
330
4F81
100
AcDbEntity
  8
DEFPOINTS
 62
     0
100
AcDbPoint
 10
184.918980105816
 20
378.027008257683
 30
0.0
  0
POINT
  5
4F8A
330
4F81
100
AcDbEntity
  8
DEFPOINTS
 62
     0
100
AcDbPoint
 10
234.918980105816
 20
377.527008257683
 30
0.0
  0
POINT
  5
4F8B
330
4F81
100
AcDbEntity
  8
DEFPOINTS
 62
     0
100
AcDbPoint
 10
234.918980105816
 20
302.777697878426
 30
0.0
  0
ENDBLK
  5
4F83
330
4F81
100
AcDbEntity
  8
0
100
AcDbBlockEnd
  0
BLOCK
  5
4F8D
330
4F8C
100
AcDbEntity
  8
0
100
AcDbBlockBegin
  2
*D43
 70
     1
 10
0.0
 20
0.0
 30
0.0
  3
*D43
  1

  0
LINE
  5
4F8F
330
4F8C
100
AcDbEntity
  8
寸法線
 62
     0
 48
10.0
100
AcDbLine
 10
84.918980105816
 20
380.652008257683
 30
0.0
 11
84.918980105816
 21
301.527697878426
 31
0.0
  0
LINE
  5
4F90
330
4F8C
100
AcDbEntity
  8
寸法線
 62
     0
 48
10.0
100
AcDbLine
 10
184.918980105816
 20
377.402008257683
 30
0.0
 11
184.918980105816
 21
301.527697878426
 31
0.0
  0
LINE
  5
4F91
330
4F8C
100
AcDbEntity
  8
寸法線
 62
     0
 48
10.0
100
AcDbLine
 10
90.918980105816
 20
302.777697878426
 30
0.0
 11
178.918980105816
 21
302.777697878426
 31
0.0
  0
INSERT
  5
4F92
330
4F8C
100
AcDbEntity
  8
寸法線
 62
     0
100
AcDbBlockReference
  2
_OPEN30
 10
84.918980105816
 20
302.777697878426
 30
0.0
 41
6.0
 42
6.0
 43
6.0
 50
180.0
  0
INSERT
  5
4F93
330
4F8C
100
AcDbEntity
  8
寸法線
 62
     0
100
AcDbBlockReference
  2
_OPEN30
 10
184.918980105816
 20
302.777697878426
 30
0.0
 41
6.0
 42
6.0
 43
6.0
  0
POINT
  5
4F94
330
4F8C
100
AcDbEntity
  8
DEFPOINTS
 62
     0
100
AcDbPoint
 10
84.918980105816
 20
381.277008257683
 30
0.0
  0
POINT
  5
4F95
330
4F8C
100
AcDbEntity
  8
DEFPOINTS
 62
     0
100
AcDbPoint
 10
184.918980105816
 20
378.027008257683
 30
0.0
  0
POINT
  5
4F96
330
4F8C
100
AcDbEntity
  8
DEFPOINTS
 62
     0
100
AcDbPoint
 10
184.918980105816
 20
302.777697878426
 30
0.0
  0
ENDBLK
  5
4F8E
330
4F8C
100
AcDbEntity
  8
0
100
AcDbBlockEnd
  0
BLOCK
  5
4F98
330
4F97
100
AcDbEntity
  8
0
100
AcDbBlockBegin
  2
*D44
 70
     1
 10
0.0
 20
0.0
 30
0.0
  3
*D44
  1

  0
LINE
  5
4F9A
330
4F97
100
AcDbEntity
  8
寸法線
 62
     0
 48
10.0
100
AcDbLine
 10
222.280511849544
 20
399.027008257683
 30
0.0
 11
222.280511849544
 21
430.576027015966
 31
0.0
  0
LINE
  5
4F9B
330
4F97
100
AcDbEntity
  8
寸法線
 62
     0
 48
10.0
100
AcDbLine
 10
222.280511849544
 20
393.027008257683
 30
0.0
 11
222.280511849544
 21
383.527008257683
 31
0.0
  0
INSERT
  5
4F9C
330
4F97
100
AcDbEntity
  8
寸法線
 62
     0
100
AcDbBlockReference
  2
_OPEN30
 10
222.280511849544
 20
399.027008257683
 30
0.0
 41
6.0
 42
6.0
 43
6.0
 50
90.0
  0
INSERT
  5
4F9D
330
4F97
100
AcDbEntity
  8
寸法線
 62
     0
100
AcDbBlockReference
  2
_OPEN30
 10
222.280511849544
 20
377.527008257683
 30
0.0
 41
6.0
 42
6.0
 43
6.0
 50
270.0
  0
MTEXT
  5
4F9E
330
4F97
100
AcDbEntity
  8
寸法線
 62
     0
 48
10.0
100
AcDbMText
 10
217.651345182877
 20
418.017693682632
 30
0.0
 40
8.0
 41
0.0
 71
     5
 72
     1
  1
\A1;φ21.5
 11
0.0
 21
1.0
 31
0.0
  0
POINT
  5
4F9F
330
4F97
100
AcDbEntity
  8
DEFPOINTS
 62
     0
100
AcDbPoint
 10
234.918980105816
 20
399.027008257683
 30
0.0
  0
POINT
  5
4FA0
330
4F97
100
AcDbEntity
  8
DEFPOINTS
 62
     0
100
AcDbPoint
 10
234.918980105816
 20
377.527008257683
 30
0.0
  0
POINT
  5
4FA1
330
4F97
100
AcDbEntity
  8
DEFPOINTS
 62
     0
100
AcDbPoint
 10
222.280511849544
 20
377.527008257683
 30
0.0
  0
ENDBLK
  5
4F99
330
4F97
100
AcDbEntity
  8
0
100
AcDbBlockEnd
  0
BLOCK
  5
4FB0
330
4FAF
100
AcDbEntity
  8
0
100
AcDbBlockBegin
  2
*D46
 70
     1
 10
0.0
 20
0.0
 30
0.0
  3
*D46
  1

  0
LINE
  5
4FB2
330
4FAF
100
AcDbEntity
  8
寸法線
 62
     0
 48
10.0
100
AcDbLine
 10
309.783757780724
 20
399.027008257683
 30
0.0
 11
309.783757780724
 21
430.576027015966
 31
0.0
  0
LINE
  5
4FB3
330
4FAF
100
AcDbEntity
  8
寸法線
 62
     0
 48
10.0
100
AcDbLine
 10
309.783757780724
 20
393.027008257683
 30
0.0
 11
309.783757780724
 21
383.527008257683
 31
0.0
  0
INSERT
  5
4FB4
330
4FAF
100
AcDbEntity
  8
寸法線
 62
     0
100
AcDbBlockReference
  2
_OPEN30
 10
309.783757780724
 20
399.027008257683
 30
0.0
 41
6.0
 42
6.0
 43
6.0
 50
90.0
  0
INSERT
  5
4FB5
330
4FAF
100
AcDbEntity
  8
寸法線
 62
     0
100
AcDbBlockReference
  2
_OPEN30
 10
309.783757780724
 20
377.527008257683
 30
0.0
 41
6.0
 42
6.0
 43
6.0
 50
270.0
  0
MTEXT
  5
4FB6
330
4FAF
100
AcDbEntity
  8
寸法線
 62
     0
 48
10.0
100
AcDbMText
 10
305.154591114057
 20
418.017693682632
 30
0.0
 40
8.0
 41
0.0
 71
     5
 72
     1
  1
\A1;φ21.5
 11
0.0
 21
1.0
 31
0.0
  0
POINT
  5
4FB7
330
4FAF
100
AcDbEntity
  8
DEFPOINTS
 62
     0
100
AcDbPoint
 10
321.447623939141
 20
399.027008257683
 30
0.0
  0
POINT
  5
4FB8
330
4FAF
100
AcDbEntity
  8
DEFPOINTS
 62
     0
100
AcDbPoint
 10
321.447623939141
 20
377.527008257683
 30
0.0
  0
POINT
  5
4FB9
330
4FAF
100
AcDbEntity
  8
DEFPOINTS
 62
     0
100
AcDbPoint
 10
309.783757780724
 20
377.527008257683
 30
0.0
  0
ENDBLK
  5
4FB1
330
4FAF
100
AcDbEntity
  8
0
100
AcDbBlockEnd
  0
BLOCK
  5
5537
330
5536
100
AcDbEntity
  8
0
100
AcDbBlockBegin
  2
*D49
 70
     1
 10
0.0
 20
0.0
 30
0.0
  3
*D49
  1

  0
LINE
  5
5539
330
5536
100
AcDbEntity
  8
寸法線
 62
     0
 48
10.0
100
AcDbLine
 10
85.293980105816
 20
399.027008257683
 30
0.0
 11
71.030511849544
 21
399.027008257683
 31
0.0
  0
LINE
  5
553A
330
5536
100
AcDbEntity
  8
寸法線
 62
     0
 48
10.0
100
AcDbLine
 10
85.293980105816
 20
377.527008257683
 30
0.0
 11
71.030511849544
 21
377.527008257683
 31
0.0
  0
LINE
  5
553B
330
5536
100
AcDbEntity
  8
寸法線
 62
     0
 48
10.0
100
AcDbLine
 10
72.280511849544
 20
399.027008257683
 30
0.0
 11
72.280511849544
 21
430.14367492435
 31
0.0
  0
LINE
  5
553C
330
5536
100
AcDbEntity
  8
寸法線
 62
     0
 48
10.0
100
AcDbLine
 10
72.280511849544
 20
393.027008257683
 30
0.0
 11
72.280511849544
 21
383.527008257683
 31
0.0
  0
INSERT
  5
553D
330
5536
100
AcDbEntity
  8
寸法線
 62
     0
100
AcDbBlockReference
  2
_OPEN30
 10
72.280511849544
 20
399.027008257683
 30
0.0
 41
6.0
 42
6.0
 43
6.0
 50
90.0
  0
INSERT
  5
553E
330
5536
100
AcDbEntity
  8
寸法線
 62
     0
100
AcDbBlockReference
  2
_OPEN30
 10
72.280511849544
 20
377.527008257683
 30
0.0
 41
6.0
 42
6.0
 43
6.0
 50
270.0
  0
MTEXT
  5
553F
330
5536
100
AcDbEntity
  8
寸法線
 62
     0
 48
10.0
100
AcDbMText
 10
67.651345182877
 20
417.585341591016
 30
0.0
 40
8.0
 41
0.0
 71
     5
 72
     1
  1
\A1;φ21.5
 11
0.0
 21
1.0
 31
0.0
  0
POINT
  5
5540
330
5536
100
AcDbEntity
  8
DEFPOINTS
 62
     0
100
AcDbPoint
 10
85.918980105816
 20
399.027008257683
 30
0.0
  0
POINT
  5
5541
330
5536
100
AcDbEntity
  8
DEFPOINTS
 62
     0
100
AcDbPoint
 10
85.918980105816
 20
377.527008257683
 30
0.0
  0
POINT
  5
5542
330
5536
100
AcDbEntity
  8
DEFPOINTS
 62
     0
100
AcDbPoint
 10
72.280511849544
 20
377.527008257683
 30
0.0
  0
ENDBLK
  5
5538
330
5536
100
AcDbEntity
  8
0
100
AcDbBlockEnd
  0
ENDSEC
  0
SECTION
  2
ENTITIES
  0
LWPOLYLINE
  5
31A0
330
1A
100
AcDbEntity
  8
外形線
100
AcDbPolyline
 90
        4
 70
     1
 43
0.0
 10
379.918980105817
 20
369.277698025955
 10
382.918980105817
 20
369.277698025955
 10
382.918980105817
 20
407.277698025955
 10
379.918980105817
 20
407.277698025955
  0
TEXT
  5
3541
330
1A
100
AcDbEntity
  8
寸法線
100
AcDbText
 10
448.339465547815
 20
513.327455218424
 30
0.0
 40
8.0
  1
塗装色：10YR7.5/14
100
AcDbText
  0
MTEXT
  5
3E9C
330
1A
100
AcDbEntity
  8
寸法線
 48
10.0
100
AcDbMText
 10
350.59927991087
 20
472.777697878425
 30
0.0
 40
8.0
 41
0.0
 71
     7
 72
     1
  1
取付ねじR3/4"\PSUS304
  0
LINE
  5
4029
330
1A
100
AcDbEntity
  8
細線
100
AcDbLine
 10
362.918980105817
 20
399.247698025955
 30
0.0
 11
376.918980105817
 21
399.247698025955
 31
0.0
  0
LINE
  5
402A
330
1A
100
AcDbEntity
  8
細線
100
AcDbLine
 10
362.918980105817
 20
377.307698025955
 30
0.0
 11
376.918980105817
 21
377.307698025955
 31
0.0
  0
LINE
  5
408F
330
1A
100
AcDbEntity
  8
中心線
 48
10.0
100
AcDbLine
 10
76.747913936721
 20
388.277698025955
 30
0.0
 11
474.636100777006
 21
388.277698025955
 31
0.0
  0
ARC
  5
4255
330
1A
100
AcDbEntity
  8
細線
 48
10.0
100
AcDbCircle
 10
358.36216343915
 20
388.277698025955
 30
0.0
 40
21.55681666666653
100
AcDbArc
 50
329.410228093566
 51
30.589771906434
  0
ARC
  5
4256
330
1A
100
AcDbEntity
  8
細線
 48
10.0
100
AcDbCircle
 10
358.36216343915
 20
410.217698025955
 30
0.0
 40
21.55681666666653
100
AcDbArc
 50
329.410228093566
 51
352.495619345011
  0
ARC
  5
4259
330
1A
100
AcDbEntity
  8
細線
 48
10.0
100
AcDbCircle
 10
358.36216343915
 20
366.337698025955
 30
0.0
 40
21.55681666666653
100
AcDbArc
 50
7.504380654989
 51
30.589771906434
  0
ARC
  5
425A
330
1A
100
AcDbEntity
  8
細線
 48
10.0
100
AcDbCircle
 10
381.475796772483
 20
410.217698025955
 30
0.0
 40
21.55681666666653
100
AcDbArc
 50
187.504380654988
 51
210.589771906434
  0
ARC
  5
425B
330
1A
100
AcDbEntity
  8
細線
 48
10.0
100
AcDbCircle
 10
381.475796772483
 20
388.277698025955
 30
0.0
 40
21.55681666666653
100
AcDbArc
 50
149.410228093566
 51
210.589771906434
  0
ARC
  5
425C
330
1A
100
AcDbEntity
  8
細線
 48
10.0
100
AcDbCircle
 10
381.475796772483
 20
366.337698025955
 30
0.0
 40
21.55681666666653
100
AcDbArc
 50
149.410228093566
 51
172.495619345011
  0
MTEXT
  5
428B
330
1A
100
AcDbEntity
  8
寸法線
 48
10.0
100
AcDbMText
 10
277.335052302381
 20
472.777697878425
 30
0.0
 40
8.0
 41
0.0
 71
     7
 72
     1
  1
\A1;接地電極\PSUS304
  0
MTEXT
  5
428E
330
1A
100
AcDbEntity
  8
寸法線
 48
10.0
100
AcDbMText
 10
259.075693562118
 20
472.777697878426
 30
0.0
 40
8.0
 41
0.0
 71
     9
 72
     1
  1
\A1;シール\Pシリコンゴム
  0
MTEXT
  5
4290
330
1A
100
AcDbEntity
  8
寸法線
 48
10.0
100
AcDbMText
 10
187.884606031247
 20
472.777697878425
 30
0.0
 40
8.0
 41
0.0
 71
     9
 72
     1
  1
\A1;絶縁体\Pポリアセタール
  0
MTEXT
  5
4292
330
1A
100
AcDbEntity
  8
寸法線
 48
10.0
100
AcDbMText
 10
107.995909289802
 20
472.777697878425
 30
0.0
 40
8.0
 41
0.0
 71
     9
 72
     1
  1
\A1;検知電極\PSUS304
  0
DIMENSION
  5
436B
330
1A
100
AcDbEntity
  8
寸法線
 48
10.0
100
AcDbDimension
  2
*D12
 10
359.918980105817
 20
302.777697878426
 30
0.0
 11
347.418980105817
 21
307.406864545093
 31
0.0
 70
    32
  3
ISO-25
100
AcDbAlignedDimension
 13
334.918980105816
 23
376.419448025955
 33
0.0
 14
359.918980105817
 24
369.337698025955
 34
0.0
100
AcDbRotatedDimension
1001
ACAD
1000
DSTYLE
1002
{
1070
     5
1000
OPEN30
1070
    41
1040
6.0
1070
    47
1040
0.1
1070
    48
1040
0.1
1070
    73
1070
     0
1070
   140
1040
8.0
1070
   271
1070
     1
1070
   272
1070
     1
1070
   341
1005
2AF4
1002
}
  0
DIMENSION
  5
4378
330
1A
100
AcDbEntity
  8
寸法線
 48
10.0
100
AcDbDimension
  2
*D13
 10
379.918980105817
 20
302.777697878426
 30
0.0
 11
369.918980105817
 21
307.406864545093
 31
0.0
 70
    32
  3
ISO-25
100
AcDbAlignedDimension
 13
359.918980105817
 23
369.337698025955
 33
0.0
 14
379.918980105817
 24
369.277698025955
 34
0.0
100
AcDbRotatedDimension
1001
ACAD
1000
DSTYLE
1002
{
1070
     5
1000
OPEN30
1070
    41
1040
6.0
1070
    47
1040
0.1
1070
    48
1040
0.1
1070
    73
1070
     0
1070
   140
1040
8.0
1070
   271
1070
     1
1070
   272
1070
     1
1070
   341
1005
2AF4
1002
}
  0
LINE
  5
4423
102
{ACAD_REACTORS
330
44DC
102
}
330
1A
100
AcDbEntity
  8
外形線
100
AcDbLine
 10
382.918980105817
 20
404.277698025955
 30
0.0
 11
382.918980105817
 21
372.277698025955
 31
0.0
  0
ARC
  5
4424
102
{ACAD_REACTORS
330
44DC
102
}
330
1A
100
AcDbEntity
  8
外形線
100
AcDbCircle
 10
384.418980105817
 20
404.277698025955
 30
0.0
 40
1.5
100
AcDbArc
 50
90.0
 51
180.0
  0
ARC
  5
4425
102
{ACAD_REACTORS
330
44DC
102
}
330
1A
100
AcDbEntity
  8
外形線
100
AcDbCircle
 10
384.418980105817
 20
372.277698025955
 30
0.0
 40
1.5
100
AcDbArc
 50
180.0
 51
270.0
  0
LINE
  5
4428
102
{ACAD_REACTORS
330
44DC
102
}
330
1A
100
AcDbEntity
  8
外形線
100
AcDbLine
 10
406.060980105817
 20
409.277698025955
 30
0.0
 11
406.060980105817
 21
367.277698025955
 31
0.0
  0
ARC
  5
4429
102
{ACAD_REACTORS
330
44DC
102
}
330
1A
100
AcDbEntity
  8
外形線
100
AcDbCircle
 10
404.560980105817
 20
369.277698025955
 30
0.0
 40
1.5
100
AcDbArc
 50
0.0
 51
90.0
  0
ARC
  5
442A
102
{ACAD_REACTORS
330
44DC
102
}
330
1A
100
AcDbEntity
  8
外形線
100
AcDbCircle
 10
404.560980105817
 20
407.277698025955
 30
0.0
 40
1.5
100
AcDbArc
 50
270.0
 51
0.0
  0
LINE
  5
442B
102
{ACAD_REACTORS
330
44DC
102
}
330
1A
100
AcDbEntity
  8
外形線
100
AcDbLine
 10
457.011813397331
 20
358.373466333023
 30
0.0
 11
458.920036330041
 21
359.324871191338
 31
0.0
  0
LINE
  5
442C
102
{ACAD_REACTORS
330
44DC
102
}
330
1A
100
AcDbEntity
  8
外形線
100
AcDbLine
 10
427.192413547203
 20
418.181929718887
 30
0.0
 11
429.100636479913
 21
419.133334577201
 31
0.0
  0
LINE
  5
442D
102
{ACAD_REACTORS
330
44DC
102
}
330
1A
100
AcDbEntity
  8
外形線
100
AcDbLine
 10
429.100636479913
 20
419.133334577201
 30
0.0
 11
458.920036330041
 21
359.324871191338
 31
0.0
  0
LINE
  5
442E
102
{ACAD_REACTORS
330
44DC
102
}
330
1A
100
AcDbEntity
  8
外形線
100
AcDbLine
 10
457.011813397331
 20
358.373466333023
 30
0.0
 11
427.192413547203
 21
418.181929718887
 31
0.0
  0
ARC
  5
442F
102
{ACAD_REACTORS
330
44DC
102
}
330
1A
100
AcDbEntity
  8
細線
100
AcDbCircle
 10
440.558180514419
 20
329.266499660365
 30
0.0
 40
34.01119848081266
100
AcDbArc
 50
63.82505009863
 51
116.164440091242
  0
LINE
  5
4431
102
{ACAD_REACTORS
330
44DC
102
}
330
1A
100
AcDbEntity
  8
外形線
100
AcDbLine
 10
455.560980105817
 20
342.277698025955
 30
0.0
 11
456.560980105817
 21
343.277698025955
 31
0.0
  0
LINE
  5
4432
102
{ACAD_REACTORS
330
44DC
102
}
330
1A
100
AcDbEntity
  8
外形線
100
AcDbLine
 10
425.560980105817
 20
342.277698025955
 30
0.0
 11
455.560980105817
 21
342.277698025955
 31
0.0
  0
LINE
  5
4433
102
{ACAD_REACTORS
330
44DC
102
}
330
1A
100
AcDbEntity
  8
外形線
100
AcDbLine
 10
424.560980105817
 20
343.277698025955
 30
0.0
 11
425.560980105817
 21
342.277698025955
 31
0.0
  0
LINE
  5
4434
102
{ACAD_REACTORS
330
44DC
102
}
330
1A
100
AcDbEntity
  8
外形線
100
AcDbLine
 10
424.560980105817
 20
343.277698025955
 30
0.0
 11
424.560980105816
 21
358.277698025955
 31
0.0
  0
ARC
  5
4435
102
{ACAD_REACTORS
330
44DC
102
}
330
1A
100
AcDbEntity
  8
外形線
100
AcDbCircle
 10
423.560980105816
 20
358.277698025955
 30
0.0
 40
1.0
100
AcDbArc
 50
0.0
 51
90.0
  0
ARC
  5
4438
102
{ACAD_REACTORS
330
44DC
102
}
330
1A
100
AcDbEntity
  8
外形線
100
AcDbCircle
 10
414.060980105817
 20
409.277698025955
 30
0.0
 40
8.0
100
AcDbArc
 50
90.0
 51
180.0
  0
ARC
  5
4439
102
{ACAD_REACTORS
330
44DC
102
}
330
1A
100
AcDbEntity
  8
外形線
100
AcDbCircle
 10
414.060980105817
 20
367.277698025955
 30
0.0
 40
8.0
100
AcDbArc
 50
180.0
 51
270.0
  0
ARC
  5
443B
102
{ACAD_REACTORS
330
44D9
102
}
330
1A
100
AcDbEntity
  8
外形線
100
AcDbCircle
 10
434.567660502833
 20
424.315475157349
 30
0.0
 40
3.0
100
AcDbArc
 50
45.304483030748
 51
116.499999999995
  0
ARC
  5
443C
102
{ACAD_REACTORS
330
44D9
102
}
330
1A
100
AcDbEntity
  8
外形線
100
AcDbCircle
 10
466.946034638744
 20
360.872303382793
 30
0.0
 40
3.0
100
AcDbArc
 50
296.499999999995
 51
7.69551696925
  0
LINE
  5
4440
102
{ACAD_REACTORS
330
44D9
102
}
330
1A
100
AcDbEntity
  8
外形線
100
AcDbLine
 10
461.238628595994
 20
354.674494545867
 30
0.0
 11
468.284628078073
 21
358.187500297986
 31
0.0
  0
LINE
  5
4441
102
{ACAD_REACTORS
330
44D9
102
}
330
1A
100
AcDbEntity
  8
外形線
100
AcDbLine
 10
471.613366551793
 20
392.435692140208
 30
0.0
 11
462.381405777867
 21
387.832806292057
 31
0.0
  0
LINE
  5
4442
102
{ACAD_REACTORS
330
44D9
102
}
330
1A
100
AcDbEntity
  8
外形線
100
AcDbLine
 10
460.209934963669
 20
392.895852997921
 30
0.0
 11
469.159278579689
 21
397.357831129019
 31
0.0
  0
LINE
  5
4443
102
{ACAD_REACTORS
330
44D9
102
}
330
1A
100
AcDbEntity
  8
外形線
100
AcDbLine
 10
456.64035245879
 20
400.055327890737
 30
0.0
 11
465.589696074811
 21
404.517306021835
 31
0.0
  0
LINE
  5
4444
102
{ACAD_REACTORS
330
44D9
102
}
330
1A
100
AcDbEntity
  8
外形線
100
AcDbLine
 10
463.135608102707
 20
409.439445010646
 30
0.0
 11
453.903647328781
 21
404.836559162496
 31
0.0
  0
LINE
  5
4445
102
{ACAD_REACTORS
330
44D9
102
}
330
1A
100
AcDbEntity
  8
外形線
100
AcDbLine
 10
465.589696074811
 20
404.517306021835
 30
0.0
 11
463.135608102707
 21
409.439445010646
 31
0.0
  0
LINE
  5
4446
102
{ACAD_REACTORS
330
44D9
102
}
330
1A
100
AcDbEntity
  8
外形線
100
AcDbLine
 10
469.159278579689
 20
397.357831129019
 30
0.0
 11
471.613366551793
 21
392.435692140208
 31
0.0
  0
LINE
  5
4456
102
{ACAD_REACTORS
330
44DC
102
}
330
1A
100
AcDbEntity
  8
外形線
100
AcDbLine
 10
456.560980105817
 20
343.277698025955
 30
0.0
 11
456.560980105817
 21
359.277698025955
 31
0.0
  0
LINE
  5
4459
102
{ACAD_REACTORS
330
44DC
102
}
330
1A
100
AcDbEntity
  8
中心線
 48
10.0
100
AcDbLine
 10
440.560980105817
 20
368.277698025955
 30
0.0
 11
440.560980105817
 21
329.266499660365
 31
0.0
  0
LINE
  5
4463
102
{ACAD_REACTORS
330
44D9
102
}
330
1A
100
AcDbEntity
  8
外形線
 48
10.0
100
AcDbLine
 10
426.78204421396
 20
423.785911222672
 30
0.0
 11
433.229067063504
 21
427.000278242155
 31
0.0
  0
ARC
  5
448E
102
{ACAD_REACTORS
330
44D9
102
}
330
1A
100
AcDbEntity
  8
外形線
 48
10.0
100
AcDbCircle
 10
354.298304196774
 20
343.53419640298
 30
0.0
 40
116.880564807258
100
AcDbArc
 50
8.420101953743
 51
45.185262866735
  0
LINE
  5
448F
102
{ACAD_REACTORS
330
44D9
102
}
330
1A
100
AcDbEntity
  8
外形線
 48
10.0
100
AcDbLine
 10
426.78204421396
 20
423.785911222672
 30
0.0
 11
461.238628595994
 21
354.674494545867
 31
0.0
  0
LINE
  5
44D5
102
{ACAD_REACTORS
330
44DC
102
}
330
1A
100
AcDbEntity
  8
外形線
 48
10.0
100
AcDbLine
 10
414.060980105817
 20
417.277698025955
 30
0.0
 11
427.602113472267
 21
417.277698025955
 31
0.0
  0
LINE
  5
44D6
102
{ACAD_REACTORS
330
44DC
102
}
330
1A
100
AcDbEntity
  8
外形線
 48
10.0
100
AcDbLine
 10
384.418980105817
 20
405.777698025955
 30
0.0
 11
404.560980105817
 21
405.777698025955
 31
0.0
  0
LINE
  5
44D7
102
{ACAD_REACTORS
330
44DC
102
}
330
1A
100
AcDbEntity
  8
外形線
 48
10.0
100
AcDbLine
 10
384.418980105817
 20
370.777698025955
 30
0.0
 11
404.560980105817
 21
370.777698025955
 31
0.0
  0
LINE
  5
44D8
102
{ACAD_REACTORS
330
44DC
102
}
330
1A
100
AcDbEntity
  8
外形線
 48
10.0
100
AcDbLine
 10
414.060980105817
 20
359.277698025955
 30
0.0
 11
423.560980105816
 21
359.277698025955
 31
0.0
  0
DIMENSION
  5
44EC
330
1A
100
AcDbEntity
  8
寸法線
 48
10.0
100
AcDbDimension
  2
*D15
 10
497.280511849544
 20
342.277698025955
 30
0.0
 11
492.64717851621
 21
384.777716581793
 31
0.0
 70
    32
  3
ISO-25
100
AcDbAlignedDimension
 13
435.042018815948
 23
427.27773513763
 33
0.0
 14
455.560980105817
 24
342.277698025955
 34
0.0
 50
90.0
100
AcDbRotatedDimension
1001
ACAD
1000
DSTYLE
1002
{
1070
     5
1000
OPEN30
1070
    41
1040
6.0
1070
    47
1040
0.1
1070
    48
1040
0.1
1070
    73
1070
     0
1070
   140
1040
8.0
1070
   271
1070
     1
1070
   272
1070
     1
1070
   341
1005
2AF4
1002
}
  0
DIMENSION
  5
44F9
330
1A
100
AcDbEntity
  8
寸法線
 48
10.0
100
AcDbDimension
  2
*D16
 10
469.919015679491
 20
282.777697878426
 30
0.0
 11
402.418997892654
 21
287.406864545092
 31
0.0
 70
    32
  3
ISO-25
100
AcDbAlignedDimension
 13
334.918980105816
 23
376.419448025955
 33
0.0
 14
469.919015679491
 24
361.274029323398
 34
0.0
100
AcDbRotatedDimension
1001
ACAD
1000
DSTYLE
1002
{
1070
     5
1000
OPEN30
1070
    41
1040
6.0
1070
    47
1040
0.1
1070
    48
1040
0.1
1070
    73
1070
     0
1070
   140
1040
8.0
1070
   271
1070
     1
1070
   272
1070
     1
1070
   341
1005
2AF4
1002
}
  0
MTEXT
  5
456E
330
1A
100
AcDbEntity
  8
寸法線
 48
10.0
100
AcDbMText
 10
428.246191501726
 20
472.777697878426
 30
0.0
 40
8.0
 41
0.0
 71
     7
 72
     1
  1
\A1;アルミ鋳物
  0
MTEXT
  5
45BF
330
1A
100
AcDbEntity
  8
寸法線
 48
10.0
100
AcDbMText
 10
479.353319281246
 20
305.247064489379
 30
0.0
 40
8.0
 41
0.0
 71
     7
 72
     1
  1
導線取出口\PG 1/2"
  0
DIMENSION
  5
45ED
330
1A
100
AcDbEntity
  8
寸法線
 48
10.0
100
AcDbDimension
  2
*D17
 10
469.919015679491
 20
302.777697878426
 30
0.0
 11
424.918997892654
 21
307.402697878426
 31
0.0
 70
    32
  3
ISO-25
100
AcDbAlignedDimension
 13
379.918980105817
 23
369.277698025955
 33
0.0
 14
469.919015679491
 24
361.274029323398
 34
0.0
100
AcDbRotatedDimension
1001
ACAD
1000
DSTYLE
1002
{
1070
     5
1000
OPEN30
1070
    41
1040
6.0
1070
    47
1040
0.1
1070
    48
1040
0.1
1070
    73
1070
     0
1070
   140
1040
8.0
1070
   271
1070
     1
1070
   272
1070
     1
1070
   341
1005
2AF4
1002
}
  0
LEADER
  5
474D
330
1A
100
AcDbEntity
  8
寸法線
 48
10.0
100
AcDbLeader
  3
ISO-25
 76
     3
 10
234.918980105816
 20
399.027698025955
 30
0.0
 10
259.289734339991
 20
471.88349376234
 30
0.0
 10
245.506264100162
 20
471.88349376234
 30
0.0
1001
ACAD
1000
DSTYLE
1002
{
1070
     5
1000
OPEN30
1070
   147
1040
0.625
1070
    77
1070
     0
1070
    41
1040
6.0
1070
    47
1040
0.1
1070
    48
1040
0.1
1070
    73
1070
     0
1070
   140
1040
8.0
1070
   271
1070
     1
1070
   272
1070
     1
1070
   341
1005
2AF4
1070
   342
1005
2AF4
1002
}
  0
LEADER
  5
474E
330
1A
100
AcDbEntity
  8
寸法線
 48
10.0
100
AcDbLeader
  3
ISO-25
 76
     3
 10
197.79875396294
 20
399.027698025955
 30
0.0
 10
185.673335720258
 20
471.88349376234
 30
0.0
 10
174.590843683331
 20
471.88349376234
 30
0.0
1001
ACAD
1000
DSTYLE
1002
{
1070
     5
1000
OPEN30
1070
   147
1040
0.625
1070
    77
1070
     0
1070
    41
1040
6.0
1070
    47
1040
0.1
1070
    48
1040
0.1
1070
    73
1070
     0
1070
   140
1040
8.0
1070
   271
1070
     1
1070
   272
1070
     1
1070
   341
1005
2AF4
1070
   342
1005
2AF4
1002
}
  0
LEADER
  5
4750
330
1A
100
AcDbEntity
  8
寸法線
 48
10.0
100
AcDbLeader
  3
ISO-25
 76
     3
 10
123.589417570877
 20
399.027008257683
 30
0.0
 10
108.514874875189
 20
471.88349332286
 30
0.0
 10
96.777961605292
 20
471.88349332286
 30
0.0
1001
ACAD
1000
DSTYLE
1002
{
1070
     5
1000
OPEN30
1070
   147
1040
0.625
1070
    77
1070
     0
1070
    41
1040
6.0
1070
    47
1040
0.1
1070
    48
1040
0.1
1070
    73
1070
     0
1070
   140
1040
8.0
1070
   271
1070
     1
1070
   272
1070
     1
1070
   341
1005
2AF4
1070
   342
1005
2AF4
1002
}
  0
LEADER
  5
4751
330
1A
100
AcDbEntity
  8
寸法線
 48
10.0
100
AcDbLeader
  3
ISO-25
 76
     3
 10
277.911971719355
 20
399.027698025955
 30
0.0
 10
277.911971719355
 20
471.88349376234
 30
0.0
 10
290.114592671705
 20
471.88349376234
 30
0.0
1001
ACAD
1000
DSTYLE
1002
{
1070
     5
1000
OPEN30
1070
   147
1040
0.625
1070
    77
1070
     0
1070
    41
1040
6.0
1070
    47
1040
0.1
1070
    48
1040
0.1
1070
    73
1070
     0
1070
   140
1040
8.0
1070
   271
1070
     1
1070
   272
1070
     1
1070
   341
1005
2AF4
1070
   342
1005
2AF4
1002
}
  0
LEADER
  5
475A
330
1A
100
AcDbEntity
  8
寸法線
 48
10.0
100
AcDbLeader
  3
ISO-25
 76
     3
 10
343.849511195183
 20
400.700572949822
 30
0.0
 10
351.415304625815
 20
471.88349376234
 30
0.0
 10
361.33121627797
 20
471.88349376234
 30
0.0
1001
ACAD
1000
DSTYLE
1002
{
1070
     5
1000
OPEN30
1070
   147
1040
0.625
1070
    77
1070
     0
1070
    41
1040
6.0
1070
    47
1040
0.1
1070
    48
1040
0.1
1070
    73
1070
     0
1070
   140
1040
8.0
1070
   271
1070
     1
1070
   272
1070
     1
1070
   341
1005
2AF4
1070
   342
1005
2AF4
1002
}
  0
LEADER
  5
475B
330
1A
100
AcDbEntity
  8
寸法線
 48
10.0
100
AcDbLeader
  3
ISO-25
 76
     3
 10
416.966764861314
 20
417.277698025955
 30
0.0
 10
429.077145126309
 20
471.88349376234
 30
0.0
 10
441.569029609232
 20
471.88349376234
 30
0.0
1001
ACAD
1000
DSTYLE
1002
{
1070
     5
1000
OPEN30
1070
   147
1040
0.625
1070
    77
1070
     0
1070
    41
1040
6.0
1070
    47
1040
0.1
1070
    48
1040
0.1
1070
    73
1070
     0
1070
   140
1040
8.0
1070
   271
1070
     1
1070
   272
1070
     1
1070
   341
1005
2AF4
1070
   342
1005
2AF4
1002
}
  0
LINE
  5
4AD9
330
1A
100
AcDbEntity
  8
下書線
100
AcDbLine
 10
525.025332754615
 20
471.88349376234
 30
0.0
 11
4.319357378969
 21
471.88349376234
 31
0.0
  0
LEADER
  5
4ADB
330
1A
100
AcDbEntity
  8
寸法線
 48
10.0
100
AcDbLeader
  3
ISO-25
 76
     3
 10
441.47188431604
 20
341.537046792654
 30
0.0
 10
477.922677021911
 20
304.026816939098
 30
0.0
 10
490.119754297279
 20
304.026816939098
 30
0.0
213
-28.22360411614716
223
0.0
233
0.0
1001
ACAD
1000
DSTYLE
1002
{
1070
     5
1000
OPEN30
1070
   147
1040
0.625
1070
    77
1070
     0
1070
    41
1040
6.0
1070
    47
1040
0.1
1070
    48
1040
0.1
1070
    73
1070
     0
1070
   140
1040
8.0
1070
   271
1070
     1
1070
   272
1070
     1
1070
   341
1005
2AF4
1070
   342
1005
2AF4
1002
}
  0
LINE
  5
4BF7
330
1A
100
AcDbEntity
  8
外形線
100
AcDbLine
 10
334.918980105816
 20
400.135948025955
 30
0.0
 11
359.918980105816
 21
401.698448025955
 31
0.0
  0
LINE
  5
4BF8
330
1A
100
AcDbEntity
  8
外形線
100
AcDbLine
 10
334.918980105817
 20
400.135948025955
 30
0.0
 11
334.918980105816
 21
376.419448025955
 31
0.0
  0
LINE
  5
4BF9
330
1A
100
AcDbEntity
  8
細線
100
AcDbLine
 10
334.918980105816
 20
398.656948025955
 30
0.0
 11
359.918980105816
 21
400.219448025955
 31
0.0
  0
LINE
  5
4BFA
330
1A
100
AcDbEntity
  8
細線
100
AcDbLine
 10
334.918980105816
 20
377.898448025955
 30
0.0
 11
359.918980105817
 21
376.335948025955
 31
0.0
  0
LINE
  5
4BFB
330
1A
100
AcDbEntity
  8
外形線
100
AcDbLine
 10
334.918980105816
 20
376.419448025955
 30
0.0
 11
359.918980105817
 21
374.856948025955
 31
0.0
  0
LINE
  5
4BFC
330
1A
100
AcDbEntity
  8
外形線
100
AcDbLine
 10
359.918980105817
 20
407.277008257683
 30
0.0
 11
359.918980105816
 21
369.277008257683
 31
0.0
  0
LINE
  5
4BFE
330
1A
100
AcDbEntity
  8
外形線
100
AcDbLine
 10
362.918980105817
 20
366.337698025955
 30
0.0
 11
376.918980105817
 21
366.337698025955
 31
0.0
  0
LINE
  5
4BFF
330
1A
100
AcDbEntity
  8
外形線
100
AcDbLine
 10
376.918980105817
 20
366.337698025955
 30
0.0
 11
379.918980105817
 21
369.337698025955
 31
0.0
  0
LINE
  5
4C00
330
1A
100
AcDbEntity
  8
外形線
100
AcDbLine
 10
379.918980105817
 20
369.337698025955
 30
0.0
 11
379.918980105817
 21
407.217698025955
 31
0.0
  0
LINE
  5
4C01
330
1A
100
AcDbEntity
  8
外形線
100
AcDbLine
 10
379.918980105817
 20
407.217698025955
 30
0.0
 11
376.918980105817
 21
410.217698025955
 31
0.0
  0
LINE
  5
4C02
330
1A
100
AcDbEntity
  8
外形線
100
AcDbLine
 10
376.918980105817
 20
410.217698025955
 30
0.0
 11
362.918980105817
 21
410.217698025955
 31
0.0
  0
LINE
  5
4C03
330
1A
100
AcDbEntity
  8
外形線
100
AcDbLine
 10
362.918980105817
 20
410.217698025955
 30
0.0
 11
359.918980105817
 21
407.217698025955
 31
0.0
  0
LINE
  5
4C05
330
1A
100
AcDbEntity
  8
外形線
100
AcDbLine
 10
359.918980105817
 20
369.337698025955
 30
0.0
 11
362.918980105817
 21
366.337698025955
 31
0.0
  0
CIRCLE
  5
4CFF
330
1A
100
AcDbEntity
  8
寸法線
 48
10.0
100
AcDbCircle
 10
-25.765360948207
 20
200.036312165959
 30
0.0
 40
2.0
  0
CIRCLE
  5
4D00
330
1A
100
AcDbEntity
  8
寸法線
 48
10.0
100
AcDbCircle
 10
-3.564920948207
 20
200.036312165959
 30
0.0
 40
2.0
  0
TEXT
  5
4D01
330
1A
100
AcDbEntity
  8
寸法線
100
AcDbText
 10
-5.853415822264
 20
186.807759246547
 30
0.0
 40
8.0
  1
E
100
AcDbText
  0
TEXT
  5
4D02
330
1A
100
AcDbEntity
  8
寸法線
100
AcDbText
 10
-27.813046979586
 20
186.807759246547
 30
0.0
 40
8.0
  1
P
100
AcDbText
  0
TEXT
  5
4D03
330
1A
100
AcDbEntity
  8
寸法線
 48
10.0
100
AcDbText
 10
-37.566250423136
 20
163.017913422756
 30
0.0
 40
10.0
  1
変換器へ
100
AcDbText
  0
TEXT
  5
4D04
330
1A
100
AcDbEntity
  8
寸法線
 48
10.0
100
AcDbText
 10
-30.281357953954
 20
220.791261229368
 30
0.0
 40
10.0
  1
端子図
100
AcDbText
  0
LINE
  5
4D05
330
1A
100
AcDbEntity
  8
寸法線
 48
10.0
100
AcDbLine
 10
-37.165628948207
 20
186.036068165958
 30
0.0
 11
-34.165566948207
 21
181.235896165958
 31
0.0
  0
LINE
  5
4D06
330
1A
100
AcDbEntity
  8
寸法線
 48
10.0
100
AcDbLine
 10
-34.165566948207
 20
181.235896165958
 30
0.0
 11
4.835287051793
 21
181.235896165958
 31
0.0
  0
LINE
  5
4D07
330
1A
100
AcDbEntity
  8
寸法線
 48
10.0
100
AcDbLine
 10
4.835287051793
 20
181.235896165958
 30
0.0
 11
7.835347051793
 21
186.036068165958
 31
0.0
  0
LINE
  5
4D08
330
1A
100
AcDbEntity
  8
寸法線
 48
10.0
100
AcDbLine
 10
-37.963382989209
 20
218.788264165959
 30
0.0
 11
10.141066945236
 21
218.788264165959
 31
0.0
  0
LINE
  5
4D09
330
1A
100
AcDbEntity
  8
寸法線
100
AcDbLine
 10
47.456278254226
 20
160.150194980367
 30
0.0
 11
615.596326063636
 21
160.150194980367
 31
0.0
  0
LINE
  5
4D0A
330
1A
100
AcDbEntity
  8
寸法線
100
AcDbLine
 10
79.456248254226
 20
147.097568872789
 30
0.0
 11
79.456248254226
 21
265.588577733405
 31
0.0
  0
LINE
  5
4D0B
330
1A
100
AcDbEntity
  8
寸法線
100
AcDbLine
 10
47.456278254226
 20
251.518577733405
 30
0.0
 11
615.596326063636
 21
251.518577733405
 31
0.0
  0
LINE
  5
4D0C
330
1A
100
AcDbEntity
  8
寸法線
100
AcDbLine
 10
47.456278254226
 20
265.588577733405
 30
0.0
 11
615.596326063636
 21
265.588577733405
 31
0.0
  0
LINE
  5
4D0D
330
1A
100
AcDbEntity
  8
寸法線
100
AcDbLine
 10
47.456278254226
 20
147.097568872789
 30
0.0
 11
47.456278254226
 21
265.588577733405
 31
0.0
  0
LINE
  5
4D0E
330
1A
100
AcDbEntity
  8
寸法線
100
AcDbLine
 10
296.747641777197
 20
147.09756887279
 30
0.0
 11
296.747641777197
 21
265.588577733405
 31
0.0
  0
LINE
  5
4D0F
330
1A
100
AcDbEntity
  8
寸法線
100
AcDbLine
 10
47.456278254226
 20
225.413325518252
 30
0.0
 11
615.596326063636
 21
225.413325518252
 31
0.0
  0
LINE
  5
4D10
330
1A
100
AcDbEntity
  8
寸法線
100
AcDbLine
 10
47.456278254226
 20
212.360699410675
 30
0.0
 11
615.596326063636
 21
212.360699410675
 31
0.0
  0
LINE
  5
4D11
330
1A
100
AcDbEntity
  8
寸法線
100
AcDbLine
 10
47.456278254226
 20
199.308073303098
 30
0.0
 11
615.596326063636
 21
199.308073303098
 31
0.0
  0
LINE
  5
4D12
330
1A
100
AcDbEntity
  8
寸法線
100
AcDbLine
 10
47.456278254226
 20
186.255447195521
 30
0.0
 11
615.596326063636
 21
186.255447195521
 31
0.0
  0
LINE
  5
4D13
330
1A
100
AcDbEntity
  8
寸法線
100
AcDbLine
 10
47.456278254226
 20
173.202821087944
 30
0.0
 11
615.596326063636
 21
173.202821087944
 31
0.0
  0
LINE
  5
4D14
330
1A
100
AcDbEntity
  8
寸法線
100
AcDbLine
 10
328.503960341486
 20
147.09756887279
 30
0.0
 11
328.503960341486
 21
265.588577733405
 31
0.0
  0
LINE
  5
4D15
330
1A
100
AcDbEntity
  8
寸法線
100
AcDbLine
 10
47.456278254226
 20
238.465951625828
 30
0.0
 11
615.596326063636
 21
238.465951625828
 31
0.0
  0
MTEXT
  5
4D16
102
{ACAD_XDICTIONARY
360
4D17
102
}
330
1A
100
AcDbEntity
  8
寸法線
 48
10.0
100
AcDbMText
 10
118.067046743496
 20
262.731796702011
 30
0.0
 40
8.0
 41
77.221596978541
 71
     2
 72
     5
  1
型式\PTSS-A2SA-025\PTSS-A2SA-030\PTSS-A2SA-035\PTSS-A2SA-040\PTSS-A2SA-045\PTSS-A2SA-050\PTSS-A2SA-055\PTSS-A2SA-060
1001
ACADANNOTATIVE
1000
AnnotativeData
1002
{
1070
     1
1070
     0
1002
}
1001
ACAD
1000
MTEXTBEGIN
1070
    44
1040
0.99
1000
MTEXTEND
  0
LINE
  5
4D1A
330
1A
100
AcDbEntity
  8
寸法線
 48
10.0
100
AcDbLine
 10
156.677845232767
 20
265.588577733405
 30
0.0
 11
156.677845232767
 21
147.097568872789
 31
0.0
  0
MTEXT
  5
4D1B
330
1A
100
AcDbEntity
  8
寸法線
 48
10.0
100
AcDbMText
 10
49.983185415166
 20
262.871361489371
 30
0.0
 40
8.0
 41
41.842424242424
 71
     1
 72
     5
  1
御仕様\P \P\P　
  0
SPLINE
  5
4D1C
330
1A
100
AcDbEntity
  8
寸法線
 48
10.0
100
AcDbSpline
210
0.0
220
0.0
230
1.0
 70
  1064
 71
     3
 72
    13
 73
     9
 74
     7
 42
0.000000001
 43
0.0000000001
 44
0.0000000001
 40
0.0
 40
0.0
 40
0.0
 40
0.0
 40
3.546053604694607
 40
9.278996093298884
 40
13.89970108471581
 40
17.09539662994941
 40
18.79470455702451
 40
20.02704699455836
 40
20.02704699455836
 40
20.02704699455836
 40
20.02704699455836
 10
166.2264010428005
 20
254.7073534253917
 30
0.0
 10
167.2809293118788
 20
255.1944821595959
 30
0.0
 10
170.0403246227947
 20
256.4691570871352
 30
0.0
 10
170.7052615291548
 20
265.3676139599536
 30
0.0
 10
166.7719585100083
 20
258.9675271360114
 30
0.0
 10
166.9441947062097
 20
255.718509577443
 30
0.0
 10
169.0164764038589
 20
254.4456905006331
 30
0.0
 10
169.9330804820949
 20
254.9042075845028
 30
0.0
 10
170.3183822621649
 20
255.0969488703014
 30
0.0
 11
166.2264010428005
 21
254.7073534253917
 31
0.0
 11
169.0518164757492
 21
256.8501375485881
 31
0.0
 11
169.6850993689569
 21
262.5479952473039
 31
0.0
 11
167.2006829690987
 21
258.6520242810593
 31
0.0
 11
167.6391099555611
 21
255.4865461504498
 31
0.0
 11
169.1492444291219
 21
254.7073534253917
 31
0.0
 11
170.3183822621649
 21
255.0969488703014
 31
0.0
  0
SPLINE
  5
4D1D
330
1A
100
AcDbEntity
  8
寸法線
 48
10.0
100
AcDbSpline
210
0.0
220
0.0
230
1.0
 70
  1064
 71
     3
 72
    13
 73
     9
 74
     7
 42
0.000000001
 43
0.0000000001
 44
0.0000000001
 40
0.0
 40
0.0
 40
0.0
 40
0.0
 40
3.546053604694607
 40
9.278996093298884
 40
13.89970108471581
 40
17.09539662994941
 40
18.79470455702451
 40
20.02704699455836
 40
20.02704699455836
 40
20.02704699455836
 40
20.02704699455836
 10
190.4652941470203
 20
254.7073534253917
 30
0.0
 10
191.5198224160986
 20
255.1944821595959
 30
0.0
 10
194.2792177270146
 20
256.4691570871352
 30
0.0
 10
194.9441546333747
 20
265.3676139599536
 30
0.0
 10
191.0108516142281
 20
258.9675271360114
 30
0.0
 10
191.1830878104295
 20
255.718509577443
 30
0.0
 10
193.2553695080788
 20
254.4456905006331
 30
0.0
 10
194.1719735863148
 20
254.9042075845028
 30
0.0
 10
194.5572753663848
 20
255.0969488703014
 30
0.0
 11
190.4652941470203
 21
254.7073534253917
 31
0.0
 11
193.290709579969
 21
256.8501375485881
 31
0.0
 11
193.9239924731768
 21
262.5479952473039
 31
0.0
 11
191.4395760733185
 21
258.6520242810593
 31
0.0
 11
191.878003059781
 21
255.4865461504498
 31
0.0
 11
193.3881375333418
 21
254.7073534253917
 31
0.0
 11
194.5572753663848
 21
255.0969488703014
 31
0.0
  0
LINE
  5
4D22
330
1A
100
AcDbEntity
  8
寸法線
 48
10.0
100
AcDbLine
 10
183.239346656994
 20
265.588577733405
 30
0.0
 11
183.239346656994
 21
147.097568872789
 31
0.0
  0
LINE
  5
4D23
330
1A
100
AcDbEntity
  8
寸法線
 48
10.0
100
AcDbLine
 10
206.501159542174
 20
265.588577733405
 30
0.0
 11
206.501159542174
 21
147.09756887279
 31
0.0
  0
LINE
  5
4D24
330
1A
100
AcDbEntity
  8
寸法線
 48
10.0
100
AcDbLine
 10
232.351734659685
 20
265.588577733405
 30
0.0
 11
232.351734659685
 21
147.09756887279
 31
0.0
  0
LINE
  5
4D25
330
1A
100
AcDbEntity
  8
寸法線
 48
10.0
100
AcDbLine
 10
258.202309777197
 20
265.588577733405
 30
0.0
 11
258.202309777197
 21
147.09756887279
 31
0.0
  0
TEXT
  5
4D26
330
1A
100
AcDbEntity
  8
寸法線
 48
10.0
100
AcDbText
 10
196.923322944504
 20
254.791681164736
 30
0.0
 40
5.2
  1
1
100
AcDbText
  0
SPLINE
  5
4D27
330
1A
100
AcDbEntity
  8
寸法線
 48
10.0
100
AcDbSpline
210
0.0
220
0.0
230
1.0
 70
  1064
 71
     3
 72
    13
 73
     9
 74
     7
 42
0.000000001
 43
0.0000000001
 44
0.0000000001
 40
0.0
 40
0.0
 40
0.0
 40
0.0
 40
3.546053604694721
 40
9.278996093298986
 40
13.89970108471593
 40
17.09539662994953
 40
18.79470455702465
 40
20.02704699455851
 40
20.02704699455851
 40
20.02704699455851
 40
20.02704699455851
 10
216.3158692645322
 20
254.7073534253917
 30
0.0
 10
217.3703975336106
 20
255.1944821595959
 30
0.0
 10
220.1297928445266
 20
256.469157087135
 30
0.0
 10
220.7947297508866
 20
265.3676139599537
 30
0.0
 10
216.86142673174
 20
258.9675271360114
 30
0.0
 10
217.0336629279415
 20
255.7185095774432
 30
0.0
 10
219.1059446255906
 20
254.445690500633
 30
0.0
 10
220.0225487038267
 20
254.9042075845027
 30
0.0
 10
220.4078504838967
 20
255.0969488703014
 30
0.0
 11
216.3158692645322
 21
254.7073534253917
 31
0.0
 11
219.1412846974811
 21
256.8501375485881
 31
0.0
 11
219.7745675906887
 21
262.5479952473039
 31
0.0
 11
217.2901511908304
 21
258.6520242810593
 31
0.0
 11
217.7285781772929
 21
255.4865461504498
 31
0.0
 11
219.2387126508537
 21
254.7073534253917
 31
0.0
 11
220.4078504838967
 21
255.0969488703014
 31
0.0
  0
TEXT
  5
4D28
330
1A
100
AcDbEntity
  8
寸法線
 48
10.0
100
AcDbText
 10
222.773898062016
 20
254.791681164736
 30
0.0
 40
5.2
  1
2
100
AcDbText
  0
TEXT
  5
4D29
330
1A
100
AcDbEntity
  8
寸法線
 48
10.0
100
AcDbText
 10
248.624473179528
 20
254.791681164736
 30
0.0
 40
5.2
  1
3
100
AcDbText
  0
SPLINE
  5
4D2A
330
1A
100
AcDbEntity
  8
寸法線
 48
10.0
100
AcDbSpline
210
0.0
220
0.0
230
1.0
 70
  1064
 71
     3
 72
    13
 73
     9
 74
     7
 42
0.000000001
 43
0.0000000001
 44
0.0000000001
 40
0.0
 40
0.0
 40
0.0
 40
0.0
 40
3.546053604694698
 40
9.278996093298963
 40
13.89970108471589
 40
17.09539662994949
 40
18.79470455702458
 40
20.02704699455844
 40
20.02704699455844
 40
20.02704699455844
 40
20.02704699455844
 10
242.1664443820441
 20
254.7073534253917
 30
0.0
 10
243.2209726511225
 20
255.1944821595958
 30
0.0
 10
245.9803679620385
 20
256.469157087135
 30
0.0
 10
246.6453048683985
 20
265.3676139599537
 30
0.0
 10
242.7120018492519
 20
258.9675271360114
 30
0.0
 10
242.8842380454533
 20
255.718509577443
 30
0.0
 10
244.9565197431025
 20
254.4456905006331
 30
0.0
 10
245.8731238213386
 20
254.9042075845028
 30
0.0
 10
246.2584256014086
 20
255.0969488703014
 30
0.0
 11
242.1664443820441
 21
254.7073534253917
 31
0.0
 11
244.9918598149929
 21
256.8501375485881
 31
0.0
 11
245.6251427082005
 21
262.5479952473039
 31
0.0
 11
243.1407263083423
 21
258.6520242810593
 31
0.0
 11
243.5791532948048
 21
255.4865461504498
 31
0.0
 11
245.0892877683656
 21
254.7073534253917
 31
0.0
 11
246.2584256014086
 21
255.0969488703014
 31
0.0
  0
MTEXT
  5
4D2B
330
1A
100
AcDbEntity
  8
寸法線
 48
10.0
100
AcDbMText
 10
268.381032513926
 20
262.370760075379
 30
0.0
 40
8.0
 41
19.321844296148
 71
     1
 72
     5
  1
記事
  0
MTEXT
  5
4D2C
330
1A
100
AcDbEntity
  8
寸法線
 48
10.0
100
AcDbMText
 10
304.067664204908
 20
262.370760075379
 30
0.0
 40
8.0
 41
27.29696969697
 71
     1
 72
     5
  1
台数\P\P 
  0
LINE
  5
4D2D
330
1A
100
AcDbEntity
  8
寸法線
100
AcDbLine
 10
331.038460390162
 20
147.09756887279
 30
0.0
 11
331.038460390163
 21
265.588577733405
 31
0.0
  0
MTEXT
  5
4D2E
330
1A
100
AcDbEntity
  8
寸法線
 48
10.0
100
AcDbMText
 10
333.565367551103
 20
262.370760075379
 30
0.0
 40
8.0
 41
27.323158825411
 71
     1
 72
     5
  1
御仕様
  0
MTEXT
  5
4D2F
102
{ACAD_XDICTIONARY
360
4D30
102
}
330
1A
100
AcDbEntity
  8
寸法線
 48
10.0
100
AcDbMText
 10
401.649228879433
 20
262.731796702011
 30
0.0
 40
8.0
 41
77.221596978541
 71
     2
 72
     5
  1
型式\PTSS-A2SA-065\PTSS-A2SA-070\PTSS-A2SA-075\PTSS-A2SA-080\PTSS-A2SA-085\PTSS-A2SA-090\PTSS-A2SA-095\PTSS-A2SA-100
1001
ACADANNOTATIVE
1000
AnnotativeData
1002
{
1070
     1
1070
     0
1002
}
1001
ACAD
1000
MTEXTBEGIN
1070
    44
1040
0.99
1000
MTEXTEND
  0
MTEXT
  5
4D3A
330
1A
100
AcDbEntity
  8
寸法線
 48
10.0
100
AcDbMText
 10
555.473398236076
 20
262.370760075379
 30
0.0
 40
8.0
 41
19.321844296148
 71
     1
 72
     5
  1
記事
  0
MTEXT
  5
4D3B
330
1A
100
AcDbEntity
  8
寸法線
 48
10.0
100
AcDbMText
 10
591.160029927058
 20
262.370760075379
 30
0.0
 40
8.0
 41
19.321844296148
 71
     1
 72
     5
  1
台数
  0
LINE
  5
4D40
330
1A
100
AcDbEntity
  8
寸法線
100
AcDbLine
 10
363.038430390163
 20
147.09756887279
 30
0.0
 11
363.038430390162
 21
265.588577733405
 31
0.0
  0
LINE
  5
4D46
330
1A
100
AcDbEntity
  8
寸法線
100
AcDbLine
 10
583.840007499347
 20
147.09756887279
 30
0.0
 11
583.840007499347
 21
265.588577733405
 31
0.0
  0
LINE
  5
4D47
330
1A
100
AcDbEntity
  8
寸法線
100
AcDbLine
 10
615.596326063636
 20
147.09756887279
 30
0.0
 11
615.596326063636
 21
265.588577733405
 31
0.0
  0
TEXT
  5
4D48
330
1A
100
AcDbEntity
  8
寸法線
 48
10.0
100
AcDbText
 10
480.062382224004
 20
133.968246755607
 30
0.0
 40
8.0
  1
○印が今回の貴社の御仕様です。
100
AcDbText
  0
LINE
  5
4D4A
330
1A
100
AcDbEntity
  8
寸法線
100
AcDbLine
 10
47.456278254226
 20
147.097568872789
 30
0.0
 11
615.596326063636
 21
147.09756887279
 31
0.0
  0
ARC
  5
4F0D
330
1A
100
AcDbEntity
  8
細線
 48
10.0
100
AcDbCircle
 10
275.196323855817
 20
393.652008257683
 30
0.0
 40
8.222656249999796
100
AcDbArc
 50
319.180234332392
 51
40.819765667608
  0
ARC
  5
4F0E
330
1A
100
AcDbEntity
  8
細線
 48
10.0
100
AcDbCircle
 10
275.196323855816
 20
382.902008257683
 30
0.0
 40
8.222656249999796
100
AcDbArc
 50
319.180234332392
 51
40.819765667609
  0
ARC
  5
4F0F
330
1A
100
AcDbEntity
  8
細線
 48
10.0
100
AcDbCircle
 10
287.641636355816
 20
393.652008257683
 30
0.0
 40
8.222656249999796
100
AcDbArc
 50
139.180234332391
 51
220.819765667608
  0
ARC
  5
4F10
330
1A
100
AcDbEntity
  8
細線
 48
10.0
100
AcDbCircle
 10
294.641636355816
 20
393.652008257683
 30
0.0
 40
8.222656249999796
100
AcDbArc
 50
139.180234332391
 51
220.819765667609
  0
ARC
  5
4F11
330
1A
100
AcDbEntity
  8
細線
 48
10.0
100
AcDbCircle
 10
282.196323855816
 20
382.902008257683
 30
0.0
 40
8.222656249999796
100
AcDbArc
 50
319.180234332392
 51
40.819765667608
  0
ARC
  5
4F12
330
1A
100
AcDbEntity
  8
細線
 48
10.0
100
AcDbCircle
 10
294.641636355816
 20
382.902008257683
 30
0.0
 40
8.222656249999796
100
AcDbArc
 50
139.180234332391
 51
220.819765667609
  0
ARC
  5
4F13
330
1A
100
AcDbEntity
  8
細線
 48
10.0
100
AcDbCircle
 10
212.891636355816
 20
393.652008257683
 30
0.0
 40
8.222656249999796
100
AcDbArc
 50
139.180234332391
 51
220.819765667607
  0
ARC
  5
4F14
330
1A
100
AcDbEntity
  8
細線
 48
10.0
100
AcDbCircle
 10
200.446323855817
 20
393.652008257683
 30
0.0
 40
8.222656249999796
100
AcDbArc
 50
319.180234332392
 51
40.819765667609
  0
ARC
  5
4F15
330
1A
100
AcDbEntity
  8
細線
 48
10.0
100
AcDbCircle
 10
200.446323855816
 20
382.902008257683
 30
0.0
 40
8.222656249999796
100
AcDbArc
 50
319.180234332391
 51
40.819765667609
  0
ARC
  5
4F16
330
1A
100
AcDbEntity
  8
細線
 48
10.0
100
AcDbCircle
 10
219.891636355816
 20
382.902008257683
 30
0.0
 40
8.222656249999796
100
AcDbArc
 50
139.180234332391
 51
220.819765667608
  0
ARC
  5
4F17
330
1A
100
AcDbEntity
  8
細線
 48
10.0
100
AcDbCircle
 10
207.446323855816
 20
382.902008257683
 30
0.0
 40
8.222656249999796
100
AcDbArc
 50
319.180234332392
 51
40.819765667609
  0
ARC
  5
4F18
330
1A
100
AcDbEntity
  8
細線
 48
10.0
100
AcDbCircle
 10
219.891636355816
 20
393.652008257683
 30
0.0
 40
8.222656249999796
100
AcDbArc
 50
139.180234332391
 51
220.819765667608
  0
SPLINE
  5
4F19
330
1A
100
AcDbEntity
  8
寸法線
 48
10.0
100
AcDbSpline
210
0.0
220
0.0
230
1.0
 70
  1064
 71
     3
 72
    13
 73
     9
 74
     7
 42
0.000000001
 43
0.0000000001
 44
0.0000000001
 40
0.0
 40
0.0
 40
0.0
 40
0.0
 40
3.223685095176967
 40
8.435450993908002
 40
12.63609189519606
 40
15.54126966359024
 40
17.08609505184027
 40
18.20640635868928
 40
18.20640635868928
 40
18.20640635868928
 40
18.20640635868928
 10
130.9387925457486
 20
303.8601264956454
 30
0.0
 10
131.897454608547
 20
304.3029707994674
 30
0.0
 10
134.4059958002888
 20
305.4617661881394
 30
0.0
 10
135.0104838969799
 20
313.551272436156
 30
0.0
 10
131.4347538795738
 20
307.7330116871181
 30
0.0
 10
131.5913322397569
 20
304.7793593611468
 30
0.0
 10
133.4752246921653
 20
303.6222511095013
 30
0.0
 10
134.3085011269253
 20
304.0390848221099
 30
0.0
 10
134.6587754724436
 20
304.214304172836
 30
0.0
 11
130.9387925457486
 21
303.8601264956454
 31
0.0
 11
133.5073520302475
 21
305.8081120621877
 31
0.0
 11
134.0830637513454
 21
310.9879826973837
 31
0.0
 11
131.8245033878378
 21
307.4461909098887
 31
0.0
 11
132.223073375531
 21
304.5684835184255
 31
0.0
 11
133.5959228969498
 21
303.8601264956454
 31
0.0
 11
134.6587754724436
 21
304.214304172836
 31
0.0
  0
TEXT
  5
4F1A
330
1A
100
AcDbEntity
  8
寸法線
 48
10.0
100
AcDbText
 10
137.024823050563
 20
303.90903646727
 30
0.0
 40
5.2
  1
1
100
AcDbText
  0
SPLINE
  5
4F1B
330
1A
100
AcDbEntity
  8
寸法線
 48
10.0
100
AcDbSpline
210
0.0
220
0.0
230
1.0
 70
  1064
 71
     3
 72
    13
 73
     9
 74
     7
 42
0.000000001
 43
0.0000000001
 44
0.0000000001
 40
0.0
 40
0.0
 40
0.0
 40
0.0
 40
3.223685095176967
 40
8.435450993908002
 40
12.63609189519606
 40
15.54126966359024
 40
17.08609505184027
 40
18.20640635868928
 40
18.20640635868928
 40
18.20640635868928
 40
18.20640635868928
 10
205.9415554931982
 20
303.8601264956454
 30
0.0
 10
206.9002175559966
 20
304.3029707994674
 30
0.0
 10
209.4087587477384
 20
305.4617661881394
 30
0.0
 10
210.0132468444295
 20
313.551272436156
 30
0.0
 10
206.4375168270233
 20
307.7330116871181
 30
0.0
 10
206.5940951872065
 20
304.7793593611468
 30
0.0
 10
208.4779876396149
 20
303.6222511095013
 30
0.0
 10
209.3112640743749
 20
304.0390848221099
 30
0.0
 10
209.6615384198931
 20
304.214304172836
 30
0.0
 11
205.9415554931982
 21
303.8601264956454
 31
0.0
 11
208.5101149776971
 21
305.8081120621877
 31
0.0
 11
209.085826698795
 21
310.9879826973837
 31
0.0
 11
206.8272663352874
 21
307.4461909098887
 31
0.0
 11
207.2258363229806
 21
304.5684835184255
 31
0.0
 11
208.5986858443994
 21
303.8601264956454
 31
0.0
 11
209.6615384198931
 21
304.214304172836
 31
0.0
  0
TEXT
  5
4F1C
330
1A
100
AcDbEntity
  8
寸法線
 48
10.0
100
AcDbText
 10
212.027585998013
 20
303.90903646727
 30
0.0
 40
5.2
  1
2
100
AcDbText
  0
TEXT
  5
4F1D
330
1A
100
AcDbEntity
  8
寸法線
 48
10.0
100
AcDbText
 10
286.231130041143
 20
303.90903646727
 30
0.0
 40
5.2
  1
3
100
AcDbText
  0
SPLINE
  5
4F1E
330
1A
100
AcDbEntity
  8
寸法線
 48
10.0
100
AcDbSpline
210
0.0
220
0.0
230
1.0
 70
  1064
 71
     3
 72
    13
 73
     9
 74
     7
 42
0.000000001
 43
0.0000000001
 44
0.0000000001
 40
0.0
 40
0.0
 40
0.0
 40
0.0
 40
3.223685095176967
 40
8.435450993908002
 40
12.63609189519606
 40
15.54126966359024
 40
17.08609505184027
 40
18.20640635868928
 40
18.20640635868928
 40
18.20640635868928
 40
18.20640635868928
 10
280.1450995363286
 20
303.8601264956454
 30
0.0
 10
281.1037615991271
 20
304.3029707994674
 30
0.0
 10
283.6123027908689
 20
305.4617661881394
 30
0.0
 10
284.2167908875599
 20
313.551272436156
 30
0.0
 10
280.6410608701539
 20
307.7330116871181
 30
0.0
 10
280.797639230337
 20
304.7793593611468
 30
0.0
 10
282.6815316827454
 20
303.6222511095013
 30
0.0
 10
283.5148081175053
 20
304.0390848221099
 30
0.0
 10
283.8650824630236
 20
304.214304172836
 30
0.0
 11
280.1450995363286
 21
303.8601264956454
 31
0.0
 11
282.7136590208275
 21
305.8081120621877
 31
0.0
 11
283.2893707419254
 21
310.9879826973837
 31
0.0
 11
281.0308103784179
 21
307.4461909098887
 31
0.0
 11
281.429380366111
 21
304.5684835184255
 31
0.0
 11
282.8022298875299
 21
303.8601264956454
 31
0.0
 11
283.8650824630236
 21
304.214304172836
 31
0.0
  0
SPLINE
  5
4F1F
330
1A
100
AcDbEntity
  8
寸法線
 48
10.0
100
AcDbSpline
210
0.0
220
0.0
230
1.0
 70
  1064
 71
     3
 72
    13
 73
     9
 74
     7
 42
0.000000001
 43
0.0000000001
 44
0.0000000001
 40
0.0
 40
0.0
 40
0.0
 40
0.0
 40
3.223685095176967
 40
8.435450993908116
 40
12.63609189519624
 40
15.54126966359041
 40
17.08609505184049
 40
18.20640635868945
 40
18.20640635868945
 40
18.20640635868945
 40
18.20640635868945
 10
208.6277810774797
 20
284.1793622993313
 30
0.0
 10
209.5864431402781
 20
284.6222066031532
 30
0.0
 10
212.0949843320199
 20
285.7810019918252
 30
0.0
 10
212.699472428711
 20
293.8705082398422
 30
0.0
 10
209.1237424113049
 20
288.0522474908038
 30
0.0
 10
209.280320771488
 20
285.0985951648325
 30
0.0
 10
211.1642132238964
 20
283.9414869131872
 30
0.0
 10
211.9974896586564
 20
284.3583206257959
 30
0.0
 10
212.3477640041746
 20
284.5335399765219
 30
0.0
 11
208.6277810774797
 21
284.1793622993313
 31
0.0
 11
211.1963405619786
 21
286.1273478658735
 31
0.0
 11
211.7720522830764
 21
291.3072185010697
 31
0.0
 11
209.5134919195689
 21
287.7654267135746
 31
0.0
 11
209.9120619072621
 21
284.8877193221114
 31
0.0
 11
211.284911428681
 21
284.1793622993313
 31
0.0
 11
212.3477640041746
 21
284.5335399765219
 31
0.0
  0
DIMENSION
  5
4F20
330
1A
100
AcDbEntity
  8
寸法線
 48
10.0
100
AcDbDimension
  2
*D40
 10
334.918980105817
 20
282.777697878426
 30
0.0
 11
209.918980105817
 21
273.774596881612
 31
0.0
 70
    32
  1
 
  3
ISO-25
100
AcDbAlignedDimension
 13
84.918980105816
 23
381.277008257683
 33
0.0
 14
334.918980105817
 24
372.527508257683
 34
0.0
100
AcDbRotatedDimension
1001
ACAD
1000
DSTYLE
1002
{
1070
     5
1000
OPEN30
1070
    41
1040
6.0
1070
    47
1040
0.1
1070
    48
1040
0.1
1070
    73
1070
     0
1070
   140
1040
8.0
1070
   271
1070
     1
1070
   272
1070
     1
1070
   341
1005
2AF4
1002
}
  0
DIMENSION
  5
4F21
330
1A
100
AcDbEntity
  8
寸法線
 48
10.0
100
AcDbDimension
  2
*D41
 10
334.918980105817
 20
302.777697878426
 30
0.0
 11
284.918980105817
 21
293.774596881611
 31
0.0
 70
    32
  1
 
  3
ISO-25
100
AcDbAlignedDimension
 13
234.918980105816
 23
377.527008257683
 33
0.0
 14
334.918980105817
 24
372.527508257683
 34
0.0
100
AcDbRotatedDimension
1001
ACAD
1000
DSTYLE
1002
{
1070
     5
1000
OPEN30
1070
    41
1040
6.0
1070
    47
1040
0.1
1070
    48
1040
0.1
1070
    73
1070
     0
1070
   140
1040
8.0
1070
   271
1070
     1
1070
   272
1070
     1
1070
   341
1005
2AF4
1002
}
  0
DIMENSION
  5
4F22
330
1A
100
AcDbEntity
  8
寸法線
 48
10.0
100
AcDbDimension
  2
*D42
 10
234.918980105816
 20
302.777697878426
 30
0.0
 11
209.918980105816
 21
293.774596881611
 31
0.0
 70
    32
  1
 
  3
ISO-25
100
AcDbAlignedDimension
 13
184.918980105816
 23
378.027008257683
 33
0.0
 14
234.918980105816
 24
377.527008257683
 34
0.0
100
AcDbRotatedDimension
1001
ACAD
1000
DSTYLE
1002
{
1070
     5
1000
OPEN30
1070
    41
1040
6.0
1070
    47
1040
0.1
1070
    48
1040
0.1
1070
    73
1070
     0
1070
   140
1040
8.0
1070
   271
1070
     1
1070
   272
1070
     1
1070
   341
1005
2AF4
1002
}
  0
DIMENSION
  5
4F23
330
1A
100
AcDbEntity
  8
寸法線
 48
10.0
100
AcDbDimension
  2
*D43
 10
184.918980105816
 20
302.777697878426
 30
0.0
 11
134.918980105816
 21
293.774596881611
 31
0.0
 70
    32
  1
 
  3
ISO-25
100
AcDbAlignedDimension
 13
84.918980105816
 23
381.277008257683
 33
0.0
 14
184.918980105816
 24
378.027008257683
 34
0.0
100
AcDbRotatedDimension
1001
ACAD
1000
DSTYLE
1002
{
1070
     5
1000
OPEN30
1070
    41
1040
6.0
1070
    47
1040
0.1
1070
    48
1040
0.1
1070
    73
1070
     0
1070
   140
1040
8.0
1070
   271
1070
     1
1070
   272
1070
     1
1070
   341
1005
2AF4
1002
}
  0
DIMENSION
  5
4F24
330
1A
100
AcDbEntity
  8
寸法線
 48
10.0
100
AcDbDimension
  2
*D44
 10
222.280511849544
 20
377.527008257683
 30
0.0
 11
222.280511849544
 21
418.017693682632
 31
0.0
 70
   160
  1
φ<>
  3
ISO-25
100
AcDbAlignedDimension
 13
234.918980105816
 23
399.027008257683
 33
0.0
 14
234.918980105816
 24
377.527008257683
 34
0.0
 50
90.0
100
AcDbRotatedDimension
1001
ACAD
1000
DSTYLE
1002
{
1070
     5
1000
OPEN30
1070
    76
1070
     1
1070
    75
1070
     1
1070
   282
1070
     0
1070
   281
1070
     0
1070
    41
1040
6.0
1070
    47
1040
0.1
1070
    48
1040
0.1
1070
    73
1070
     0
1070
   140
1040
8.0
1070
   271
1070
     1
1070
   272
1070
     1
1070
   341
1005
2AF4
1002
}
  0
LWPOLYLINE
  5
4F26
330
1A
100
AcDbEntity
  8
外形線
100
AcDbPolyline
 90
        6
 70
     0
 43
0.0
 10
281.418980105817
 20
399.027008257683
 10
235.418980105816
 20
399.027008257683
 10
234.918980105816
 20
398.527008257683
 10
234.918980105816
 20
378.027008257683
 10
235.418980105816
 20
377.527008257683
 10
281.418980105816
 20
377.527008257683
  0
LWPOLYLINE
  5
4F27
330
1A
100
AcDbEntity
  8
外形線
100
AcDbPolyline
 90
        6
 70
     0
 43
0.0
 10
206.668980105817
 20
399.027008257683
 10
185.418980105816
 20
399.027008257683
 10
184.918980105816
 20
398.527008257683
 10
184.918980105816
 20
378.027008257683
 10
185.418980105816
 20
377.527008257683
 10
206.668980105816
 20
377.527008257683
  0
LWPOLYLINE
  5
4F29
330
1A
100
AcDbEntity
  8
外形線
100
AcDbPolyline
 90
        4
 70
     0
 43
0.0
 10
288.418980105816
 20
377.527008257683
 10
334.918980105816
 20
377.527008257683
 10
334.918980105816
 20
399.027008257683
 10
288.418980105816
 20
399.027008257683
  0
LWPOLYLINE
  5
4F2A
330
1A
100
AcDbEntity
  8
外形線
100
AcDbPolyline
 90
        4
 70
     0
 43
0.0
 10
213.668980105816
 20
377.527008257683
 10
234.918980105816
 20
377.527008257683
 10
234.918980105816
 20
399.027008257683
 10
213.668980105816
 20
399.027008257683
  0
DIMENSION
  5
4F2C
330
1A
100
AcDbEntity
  8
寸法線
 48
10.0
100
AcDbDimension
  2
*D46
 10
309.783757780724
 20
377.527008257683
 30
0.0
 11
309.783757780724
 21
418.017693682632
 31
0.0
 70
   160
  1
φ<>
  3
ISO-25
100
AcDbAlignedDimension
 13
321.447623939141
 23
399.027008257683
 33
0.0
 14
321.447623939141
 24
377.527008257683
 34
0.0
 50
90.0
100
AcDbRotatedDimension
1001
ACAD
1000
DSTYLE
1002
{
1070
     5
1000
OPEN30
1070
    76
1070
     1
1070
    75
1070
     1
1070
    41
1040
6.0
1070
    47
1040
0.1
1070
    48
1040
0.1
1070
    73
1070
     0
1070
   140
1040
8.0
1070
   271
1070
     1
1070
   272
1070
     1
1070
   341
1005
2AF4
1002
}
  0
MTEXT
  5
508B
102
{ACAD_XDICTIONARY
360
508C
102
}
330
1A
100
AcDbEntity
  8
寸法線
 48
10.0
100
AcDbMText
 10
170.285284612803
 20
249.108266979397
 30
0.0
 40
8.0
 41
23.854899029718
 71
     2
 72
     5
  1
250\P300\P350\P400\P450\P500\P550\P600
1001
ACADANNOTATIVE
1000
AnnotativeData
1002
{
1070
     1
1070
     0
1002
}
1001
ACAD
1000
MTEXTBEGIN
1070
    44
1040
0.98
1000
MTEXTEND
  0
MTEXT
  5
508F
102
{ACAD_XDICTIONARY
360
5090
102
}
330
1A
100
AcDbEntity
  8
寸法線
 48
10.0
100
AcDbMText
 10
194.719501001827
 20
249.108266979397
 30
0.0
 40
8.0
 41
23.854899029718
 71
     2
 72
     5
  1
100\P100\P100\P100\P100\P100\P150\P150
1001
ACADANNOTATIVE
1000
AnnotativeData
1002
{
1070
     1
1070
     0
1002
}
1001
ACAD
1000
MTEXTBEGIN
1070
    44
1040
0.98
1000
MTEXTEND
  0
MTEXT
  5
5093
102
{ACAD_XDICTIONARY
360
5094
102
}
330
1A
100
AcDbEntity
  8
寸法線
 48
10.0
100
AcDbMText
 10
218.918263704377
 20
249.108266979397
 30
0.0
 40
8.0
 41
23.854899029718
 71
     2
 72
     5
  1
50\P50\P50\P50\P50\P50\P50\P50
1001
ACADANNOTATIVE
1000
AnnotativeData
1002
{
1070
     1
1070
     0
1002
}
1001
ACAD
1000
MTEXTBEGIN
1070
    44
1040
0.98
1000
MTEXTEND
  0
MTEXT
  5
5097
102
{ACAD_XDICTIONARY
360
5098
102
}
330
1A
100
AcDbEntity
  8
寸法線
 48
10.0
100
AcDbMText
 10
245.037598465058
 20
249.108266979397
 30
0.0
 40
8.0
 41
23.854899029718
 71
     2
 72
     5
  1
100\P150\P200\P250\P300\P350\P350\P400
1001
ACADANNOTATIVE
1000
AnnotativeData
1002
{
1070
     1
1070
     0
1002
}
1001
ACAD
1000
MTEXTBEGIN
1070
    44
1040
0.98
1000
MTEXTEND
  0
MTEXT
  5
509B
102
{ACAD_XDICTIONARY
360
509C
102
}
330
1A
100
AcDbEntity
  8
寸法線
 48
10.0
100
AcDbMText
 10
479.949486003088
 20
249.108266979397
 30
0.0
 40
8.0
 41
23.854899029718
 71
     2
 72
     5
  1
150\P150\P150\P150\P150\P150\P150\P150
1001
ACADANNOTATIVE
1000
AnnotativeData
1002
{
1070
     1
1070
     0
1002
}
1001
ACAD
1000
MTEXTBEGIN
1070
    44
1040
0.98
1000
MTEXTEND
  0
MTEXT
  5
509F
102
{ACAD_XDICTIONARY
360
50A0
102
}
330
1A
100
AcDbEntity
  8
寸法線
 48
10.0
100
AcDbMText
 10
504.942273995217
 20
249.108266979397
 30
0.0
 40
8.0
 41
23.854899029718
 71
     2
 72
     5
  1
50\P50\P50\P50\P50\P50\P50\P50
1001
ACADANNOTATIVE
1000
AnnotativeData
1002
{
1070
     1
1070
     0
1002
}
1001
ACAD
1000
MTEXTBEGIN
1070
    44
1040
0.98
1000
MTEXTEND
  0
MTEXT
  5
50A3
102
{ACAD_XDICTIONARY
360
50A4
102
}
330
1A
100
AcDbEntity
  8
寸法線
 48
10.0
100
AcDbMText
 10
529.180896287531
 20
249.108266979397
 30
0.0
 40
8.0
 41
23.854899029718
 71
     2
 72
     5
  1
450\P500\P550\P600\P650\P700\P750\P800
1001
ACADANNOTATIVE
1000
AnnotativeData
1002
{
1070
     1
1070
     0
1002
}
1001
ACAD
1000
MTEXTBEGIN
1070
    44
1040
0.98
1000
MTEXTEND
  0
MTEXT
  5
50A7
102
{ACAD_XDICTIONARY
360
50A8
102
}
330
1A
100
AcDbEntity
  8
寸法線
 48
10.0
100
AcDbMText
 10
453.448366611328
 20
249.108266979397
 30
0.0
 40
8.0
 41
23.854899029718
 71
     2
 72
     5
  1
650\P700\P750\P800\P850\P900\P950\P1000
1001
ACADANNOTATIVE
1000
AnnotativeData
1002
{
1070
     1
1070
     0
1002
}
1001
ACAD
1000
MTEXTBEGIN
1070
    44
1040
0.98
1000
MTEXTEND
  0
LINE
  5
52E9
330
1A
100
AcDbEntity
  8
寸法線
 48
10.0
100
AcDbLine
 10
440.260027368703
 20
265.588577733405
 30
0.0
 11
440.260027368703
 21
147.097568872789
 31
0.0
  0
SPLINE
  5
52EA
330
1A
100
AcDbEntity
  8
寸法線
 48
10.0
100
AcDbSpline
210
0.0
220
0.0
230
1.0
 70
  1064
 71
     3
 72
    13
 73
     9
 74
     7
 42
0.000000001
 43
0.0000000001
 44
0.0000000001
 40
0.0
 40
0.0
 40
0.0
 40
0.0
 40
3.546053604694607
 40
9.278996093298884
 40
13.89970108471581
 40
17.09539662994941
 40
18.79470455702451
 40
20.02704699455836
 40
20.02704699455836
 40
20.02704699455836
 40
20.02704699455836
 10
449.8085831787371
 20
254.7073534253917
 30
0.0
 10
450.8631114478155
 20
255.1944821595959
 30
0.0
 10
453.6225067587315
 20
256.4691570871352
 30
0.0
 10
454.2874436650914
 20
265.3676139599536
 30
0.0
 10
450.3541406459449
 20
258.9675271360114
 30
0.0
 10
450.5263768421464
 20
255.718509577443
 30
0.0
 10
452.5986585397956
 20
254.4456905006331
 30
0.0
 10
453.5152626180317
 20
254.9042075845028
 30
0.0
 10
453.9005643981016
 20
255.0969488703014
 30
0.0
 11
449.8085831787371
 21
254.7073534253917
 31
0.0
 11
452.6339986116859
 21
256.8501375485881
 31
0.0
 11
453.2672815048936
 21
262.5479952473039
 31
0.0
 11
450.7828651050353
 21
258.6520242810593
 31
0.0
 11
451.2212920914978
 21
255.4865461504498
 31
0.0
 11
452.7314265650586
 21
254.7073534253917
 31
0.0
 11
453.9005643981016
 21
255.0969488703014
 31
0.0
  0
SPLINE
  5
52EB
330
1A
100
AcDbEntity
  8
寸法線
 48
10.0
100
AcDbSpline
210
0.0
220
0.0
230
1.0
 70
  1064
 71
     3
 72
    13
 73
     9
 74
     7
 42
0.000000001
 43
0.0000000001
 44
0.0000000001
 40
0.0
 40
0.0
 40
0.0
 40
0.0
 40
3.546053604694607
 40
9.278996093298884
 40
13.89970108471581
 40
17.09539662994941
 40
18.79470455702451
 40
20.02704699455836
 40
20.02704699455836
 40
20.02704699455836
 40
20.02704699455836
 10
474.047476282957
 20
254.7073534253917
 30
0.0
 10
475.1020045520353
 20
255.1944821595959
 30
0.0
 10
477.8613998629513
 20
256.4691570871352
 30
0.0
 10
478.5263367693114
 20
265.3676139599536
 30
0.0
 10
474.5930337501646
 20
258.9675271360114
 30
0.0
 10
474.7652699463663
 20
255.718509577443
 30
0.0
 10
476.8375516440154
 20
254.4456905006331
 30
0.0
 10
477.7541557222515
 20
254.9042075845028
 30
0.0
 10
478.1394575023215
 20
255.0969488703014
 30
0.0
 11
474.047476282957
 21
254.7073534253917
 31
0.0
 11
476.8728917159057
 21
256.8501375485881
 31
0.0
 11
477.5061746091134
 21
262.5479952473039
 31
0.0
 11
475.0217582092552
 21
258.6520242810593
 31
0.0
 11
475.4601851957177
 21
255.4865461504498
 31
0.0
 11
476.9703196692785
 21
254.7073534253917
 31
0.0
 11
478.1394575023215
 21
255.0969488703014
 31
0.0
  0
LINE
  5
52EC
330
1A
100
AcDbEntity
  8
寸法線
 48
10.0
100
AcDbLine
 10
466.821528792931
 20
265.588577733405
 30
0.0
 11
466.821528792931
 21
147.097568872789
 31
0.0
  0
LINE
  5
52ED
330
1A
100
AcDbEntity
  8
寸法線
 48
10.0
100
AcDbLine
 10
490.08334167811
 20
265.588577733405
 30
0.0
 11
490.08334167811
 21
147.09756887279
 31
0.0
  0
LINE
  5
52EE
330
1A
100
AcDbEntity
  8
寸法線
 48
10.0
100
AcDbLine
 10
515.933916795622
 20
265.588577733405
 30
0.0
 11
515.933916795622
 21
147.09756887279
 31
0.0
  0
LINE
  5
52EF
330
1A
100
AcDbEntity
  8
寸法線
 48
10.0
100
AcDbLine
 10
541.784491913134
 20
265.588577733405
 30
0.0
 11
541.784491913134
 21
147.09756887279
 31
0.0
  0
TEXT
  5
52F0
330
1A
100
AcDbEntity
  8
寸法線
 48
10.0
100
AcDbText
 10
480.505505080441
 20
254.791681164736
 30
0.0
 40
5.2
  1
1
100
AcDbText
  0
SPLINE
  5
52F1
330
1A
100
AcDbEntity
  8
寸法線
 48
10.0
100
AcDbSpline
210
0.0
220
0.0
230
1.0
 70
  1064
 71
     3
 72
    13
 73
     9
 74
     7
 42
0.000000001
 43
0.0000000001
 44
0.0000000001
 40
0.0
 40
0.0
 40
0.0
 40
0.0
 40
3.546053604694743
 40
9.278996093299007
 40
13.89970108471596
 40
17.09539662994957
 40
18.79470455702471
 40
20.02704699455857
 40
20.02704699455857
 40
20.02704699455857
 40
20.02704699455857
 10
499.8980514004689
 20
254.7073534253917
 30
0.0
 10
500.9525796695473
 20
255.1944821595958
 30
0.0
 10
503.7119749804633
 20
256.469157087135
 30
0.0
 10
504.376911886823
 20
265.3676139599535
 30
0.0
 10
500.4436088676768
 20
258.9675271360115
 30
0.0
 10
500.6158450638779
 20
255.718509577443
 30
0.0
 10
502.6881267615272
 20
254.445690500633
 30
0.0
 10
503.6047308397634
 20
254.9042075845027
 30
0.0
 10
503.9900326198334
 20
255.0969488703014
 30
0.0
 11
499.8980514004689
 21
254.7073534253917
 31
0.0
 11
502.7234668334178
 21
256.8501375485881
 31
0.0
 11
503.3567497266254
 21
262.5479952473039
 31
0.0
 11
500.8723333267671
 21
258.6520242810593
 31
0.0
 11
501.3107603132295
 21
255.4865461504498
 31
0.0
 11
502.8208947867904
 21
254.7073534253917
 31
0.0
 11
503.9900326198334
 21
255.0969488703014
 31
0.0
  0
TEXT
  5
52F2
330
1A
100
AcDbEntity
  8
寸法線
 48
10.0
100
AcDbText
 10
506.356080197953
 20
254.791681164736
 30
0.0
 40
5.2
  1
2
100
AcDbText
  0
TEXT
  5
52F3
330
1A
100
AcDbEntity
  8
寸法線
 48
10.0
100
AcDbText
 10
532.206655315465
 20
254.791681164736
 30
0.0
 40
5.2
  1
3
100
AcDbText
  0
SPLINE
  5
52F4
330
1A
100
AcDbEntity
  8
寸法線
 48
10.0
100
AcDbSpline
210
0.0
220
0.0
230
1.0
 70
  1064
 71
     3
 72
    13
 73
     9
 74
     7
 42
0.000000001
 43
0.0000000001
 44
0.0000000001
 40
0.0
 40
0.0
 40
0.0
 40
0.0
 40
3.546053604694698
 40
9.278996093298963
 40
13.89970108471589
 40
17.09539662994949
 40
18.79470455702458
 40
20.02704699455844
 40
20.02704699455844
 40
20.02704699455844
 40
20.02704699455844
 10
525.7486265179808
 20
254.7073534253917
 30
0.0
 10
526.8031547870592
 20
255.1944821595958
 30
0.0
 10
529.5625500979752
 20
256.469157087135
 30
0.0
 10
530.2274870043353
 20
265.3676139599537
 30
0.0
 10
526.2941839851885
 20
258.9675271360114
 30
0.0
 10
526.46642018139
 20
255.718509577443
 30
0.0
 10
528.5387018790393
 20
254.4456905006331
 30
0.0
 10
529.4553059572753
 20
254.9042075845028
 30
0.0
 10
529.8406077373453
 20
255.0969488703014
 30
0.0
 11
525.7486265179808
 21
254.7073534253917
 31
0.0
 11
528.5740419509297
 21
256.8501375485881
 31
0.0
 11
529.2073248441372
 21
262.5479952473039
 31
0.0
 11
526.722908444279
 21
258.6520242810593
 31
0.0
 11
527.1613354307415
 21
255.4865461504498
 31
0.0
 11
528.6714699043023
 21
254.7073534253917
 31
0.0
 11
529.8406077373453
 21
255.0969488703014
 31
0.0
  0
DIMENSION
  5
5527
330
1A
100
AcDbEntity
  8
寸法線
 48
10.0
100
AcDbDimension
  2
*D49
 10
72.280511849544
 20
377.527008257683
 30
0.0
 11
72.280511849544
 21
417.585341591016
 31
0.0
 70
   160
  1
φ<>
  3
ISO-25
100
AcDbAlignedDimension
 13
85.918980105816
 23
399.027008257683
 33
0.0
 14
85.918980105816
 24
377.527008257683
 34
0.0
 50
90.0
100
AcDbRotatedDimension
1001
ACAD
1000
DSTYLE
1002
{
1070
     5
1000
OPEN30
1070
    41
1040
6.0
1070
    47
1040
0.1
1070
    48
1040
0.1
1070
    73
1070
     0
1070
   140
1040
8.0
1070
   271
1070
     1
1070
   272
1070
     1
1070
   341
1005
2AF4
1002
}
  0
LINE
  5
5528
330
1A
100
AcDbEntity
  8
外形線
100
AcDbLine
 10
184.918980105816
 20
377.527008257683
 30
0.0
 11
184.918980105816
 21
399.027008257683
 31
0.0
  0
LINE
  5
5529
330
1A
100
AcDbEntity
  8
外形線
100
AcDbLine
 10
184.918980105816
 20
399.027008257683
 30
0.0
 11
138.418980105816
 21
399.027008257683
 31
0.0
  0
LINE
  5
552A
330
1A
100
AcDbEntity
  8
外形線
100
AcDbLine
 10
85.918980105816
 20
399.027008257683
 30
0.0
 11
84.918980105816
 21
398.027008257683
 31
0.0
  0
LINE
  5
552B
330
1A
100
AcDbEntity
  8
外形線
100
AcDbLine
 10
84.918980105816
 20
398.027008257683
 30
0.0
 11
84.918980105816
 21
378.527008257683
 31
0.0
  0
LINE
  5
552C
330
1A
100
AcDbEntity
  8
外形線
100
AcDbLine
 10
85.918980105816
 20
377.527008257683
 30
0.0
 11
84.918980105816
 21
378.527008257683
 31
0.0
  0
LINE
  5
552D
330
1A
100
AcDbEntity
  8
外形線
100
AcDbLine
 10
184.918980105816
 20
377.527008257683
 30
0.0
 11
138.418980105816
 21
377.527008257683
 31
0.0
  0
ARC
  5
552E
330
1A
100
AcDbEntity
  8
細線
 48
10.0
100
AcDbCircle
 10
125.196323855817
 20
393.652008257683
 30
0.0
 40
8.222656249999796
100
AcDbArc
 50
319.180234332391
 51
40.819765667609
  0
ARC
  5
552F
330
1A
100
AcDbEntity
  8
細線
 48
10.0
100
AcDbCircle
 10
125.196323855816
 20
382.902008257683
 30
0.0
 40
8.222656249999796
100
AcDbArc
 50
319.180234332391
 51
40.819765667609
  0
ARC
  5
5530
330
1A
100
AcDbEntity
  8
細線
 48
10.0
100
AcDbCircle
 10
137.641636355816
 20
393.652008257683
 30
0.0
 40
8.222656249999796
100
AcDbArc
 50
139.180234332391
 51
220.819765667608
  0
ARC
  5
5531
330
1A
100
AcDbEntity
  8
細線
 48
10.0
100
AcDbCircle
 10
144.641636355816
 20
393.652008257683
 30
0.0
 40
8.222656249999796
100
AcDbArc
 50
139.180234332391
 51
220.819765667608
  0
ARC
  5
5532
330
1A
100
AcDbEntity
  8
細線
 48
10.0
100
AcDbCircle
 10
132.196323855816
 20
382.902008257683
 30
0.0
 40
8.222656249999796
100
AcDbArc
 50
319.180234332391
 51
40.819765667609
  0
ARC
  5
5533
330
1A
100
AcDbEntity
  8
細線
 48
10.0
100
AcDbCircle
 10
144.641636355816
 20
382.902008257683
 30
0.0
 40
8.222656249999796
100
AcDbArc
 50
139.180234332391
 51
220.819765667608
  0
LINE
  5
5534
330
1A
100
AcDbEntity
  8
外形線
100
AcDbLine
 10
131.418980105817
 20
399.027008257683
 30
0.0
 11
85.918980105816
 21
399.027008257683
 31
0.0
  0
LINE
  5
5535
330
1A
100
AcDbEntity
  8
外形線
100
AcDbLine
 10
131.418980105816
 20
377.527008257683
 30
0.0
 11
85.918980105816
 21
377.527008257683
 31
0.0
  0
VIEWPORT
  5
2902
330
28FB
100
AcDbEntity
 67
     1
  8
0
 48
10.0
100
AcDbViewport
 10
0.0
 20
0.0
 30
0.0
 40
528.349942987457
 41
300.3
 68
     1
 69
     1
1001
ACAD
1000
MVIEW
1002
{
1070
    16
1010
0.0
1020
0.0
1030
0.0
1010
0.0
1020
0.0
1030
1.0
1040
0.0
1040
300.3
1040
205.756503333333
1040
143.551503333333
1040
50.0
1040
0.0
1040
0.0
1070
    16
1070
   100
1070
     0
1070
     1
1070
     0
1070
     0
1070
     0
1070
     0
1040
0.0
1040
0.0
1040
0.0
1040
10.0
1040
10.0
1040
10.0
1040
10.0
1070
     0
1002
{
1002
}
1002
}
  0
VIEWPORT
  5
2904
330
28FB
100
AcDbEntity
 67
     1
  8
図枠太線
 48
10.0
100
AcDbViewport
 10
202.579940977619
 20
161.396645458131
 30
0.0
 40
400.0
 41
240.0
 68
     2
 69
     2
1001
ACAD
1000
MVIEW
1002
{
1070
    16
1010
0.0
1020
0.0
1030
0.0
1010
0.0
1020
0.0
1030
1.0
1040
0.0
1040
480.000004183857
1040
265.573849811905
1040
328.091239856452
1040
50.0
1040
0.0
1040
0.0
1070
    16
1070
   100
1070
     0
1070
     0
1070
     0
1070
     0
1070
     0
1070
     0
1040
0.0
1040
0.0
1040
0.0
1040
1.0
1040
1.0
1040
0.0
1040
0.0
1070
     0
1002
{
1002
}
1002
}
  0
INSERT
  5
2A59
330
28FB
100
AcDbEntity
 67
     1
  8
図枠太線
100
AcDbBlockReference
  2
A3横用_タイトル
 10
-2.518473558174
 20
-2.129314295396
 30
0.0
  0
MTEXT
  5
2E85
330
28FB
100
AcDbEntity
 67
     1
  8
寸法線
 48
10.0
100
AcDbMText
 10
146.959752587265
 20
14.255245025413
 30
0.0
 40
5.0
 41
11.452149180996
 71
     1
 72
     5
  1
{\H1.4x;1:2}
  0
MTEXT
  5
513E
330
28FB
100
AcDbEntity
 67
     1
  8
下書線
 48
10.0
100
AcDbMText
 10
98.286945912451
 20
62.928497134063
 30
0.0
 40
10.0
 41
175.933723286424
 71
     1
 72
     1
  1
HP用図面、追記・変更　不可
  0
LWPOLYLINE
  5
513F
330
28FB
100
AcDbEntity
 67
     1
  8
下書線
 48
10.0
100
AcDbPolyline
 90
        4
 70
     1
 43
0.0
 10
90.237690598693
 20
68.677965215319
 10
262.146786228238
 20
68.677965215319
 10
262.146786228238
 20
47.404933314673
 10
90.237690598693
 20
47.404933314673
  0
MTEXT
  5
51D3
330
28FB
100
AcDbEntity
 67
     1
  8
寸法線
 48
10.0
100
AcDbMText
 10
366.359288184004
 20
37.824901447322
 30
0.0
 40
5.0
 41
44.607313995184
 71
     1
 72
     5
  1
静電容量式\Pレベルセンサ
  0
MTEXT
  5
51D4
102
{ACAD_XDICTIONARY
360
51D5
102
}
330
28FB
100
AcDbEntity
 67
     1
  8
寸法線
 48
10.0
100
AcDbMText
 10
307.97024884535
 20
32.490274306478
 30
0.0
 40
6.0
 41
45.0
 71
     1
 72
     5
  1
TSS-A2SA-□
1001
ACADANNOTATIVE
1000
AnnotativeData
1002
{
1070
     1
1070
     0
1002
}
  0
MTEXT
  5
51D8
102
{ACAD_XDICTIONARY
360
51D9
102
}
330
28FB
100
AcDbEntity
 67
     1
  8
寸法線
 48
10.0
100
AcDbMText
 10
338.2155168043
 20
14.040659141141
 30
0.0
 40
8.0
 41
45.0
 71
     1
 72
     5
  1
HE-13003
1001
ACADANNOTATIVE
1000
AnnotativeData
1002
{
1070
     1
1070
     0
1002
}
1001
ACAD
1000
MTEXTBEGIN
1070
    44
1040
1.2
1000
MTEXTEND
  0
MTEXT
  5
520F
102
{ACAD_XDICTIONARY
360
5210
102
}
330
28FB
100
AcDbEntity
 67
     1
  8
寸法線
 48
10.0
100
AcDbMText
 10
372.327661762431
 20
50.249424629171
 30
0.0
 40
5.0
 41
34.444444444444
 71
     1
 72
     5
  1
台数   台
1001
ACADANNOTATIVE
1000
AnnotativeData
1002
{
1070
     1
1070
     0
1002
}
  0
MTEXT
  5
524A
102
{ACAD_XDICTIONARY
360
524B
102
}
330
28FB
100
AcDbEntity
 67
     1
  8
寸法線
 48
10.0
100
AcDbMText
 10
174.894974509547
 20
12.023595502767
 30
0.0
 40
5.0
 41
31.372065131184
 71
     1
 72
     5
  1
2016.9.14
1001
ACADANNOTATIVE
1000
AnnotativeData
1002
{
1070
     1
1070
     0
1002
}
  0
MTEXT
  5
524E
102
{ACAD_XDICTIONARY
360
524F
102
}
330
28FB
100
AcDbEntity
 67
     1
  8
寸法線
 48
10.0
100
AcDbMText
 10
171.897391388996
 20
31.731156297467
 30
0.0
 40
5.0
 41
27.609563343169
 71
     1
 72
     5
  1
takahashi
1001
ACADANNOTATIVE
1000
AnnotativeData
1002
{
1070
     1
1070
     0
1002
}
  0
MTEXT
  5
5571
330
28FB
100
AcDbEntity
 67
     1
  8
寸法線
 48
10.0
100
AcDbMText
 10
288.525832830248
 20
50.409704435936
 30
0.0
 40
5.0
 41
59.487124795261
 71
     1
 72
     5
  1
A3縮小図
  0
LINE
  5
5572
330
28FB
100
AcDbEntity
 67
     1
  8
寸法線
 48
10.0
100
AcDbLine
 10
287.592210879204
 20
44.026105349677
 30
0.0
 11
313.227074489021
 21
44.026105349677
 31
0.0
  0
ENDSEC
  0
SECTION
  2
OBJECTS
  0
DICTIONARY
  5
C
330
0
100
AcDbDictionary
  3
ACAD_COLOR
350
2948
  3
ACAD_GROUP
350
D
  3
ACAD_LAYOUT
350
2816
  3
ACAD_MATERIAL
350
2947
  3
ACAD_MLEADERSTYLE
350
4C7C
  3
ACAD_MLINESTYLE
350
E
  3
ACAD_PLOTSETTINGS
350
2817
  3
ACAD_SCALELIST
350
4C55
  3
ACAD_VISUALSTYLE
350
4C3C
  3
ACADDIM
350
474F
  3
ACDBHEADERROUNDTRIPXREC
350
562B
  3
ACDBVARIABLEDICTIONARY
350
4696
  3
DWGPROPS
350
564F
  0
DICTIONARY
  5
5650
330
8
100
AcDbDictionary
280
     1
  3
ACAD_XREC_ROUNDTRIP
360
5651
  0
DICTIONARY
  5
29EA
330
2
100
AcDbDictionary
280
     1
  3
ACAD_LAYERFILTERS
360
2B0C
  3
ACAD_LAYERSTATES
360
29EB
  0
DICTIONARY
  5
4506
330
1A
100
AcDbDictionary
280
     1
  3
ACAD_SORTENTS
360
4507
  0
DICTIONARY
  5
4D17
330
4D16
100
AcDbDictionary
280
     1
  3
ACDBCONTEXTDATAMANAGER
360
4D18
  0
DICTIONARY
  5
4D30
330
4D2F
100
AcDbDictionary
280
     1
  3
ACDBCONTEXTDATAMANAGER
360
4D31
  0
DICTIONARY
  5
508C
330
508B
100
AcDbDictionary
280
     1
  3
ACDBCONTEXTDATAMANAGER
360
508D
  0
DICTIONARY
  5
5090
330
508F
100
AcDbDictionary
280
     1
  3
ACDBCONTEXTDATAMANAGER
360
5091
  0
DICTIONARY
  5
5094
330
5093
100
AcDbDictionary
280
     1
  3
ACDBCONTEXTDATAMANAGER
360
5095
  0
DICTIONARY
  5
5098
330
5097
100
AcDbDictionary
280
     1
  3
ACDBCONTEXTDATAMANAGER
360
5099
  0
DICTIONARY
  5
509C
330
509B
100
AcDbDictionary
280
     1
  3
ACDBCONTEXTDATAMANAGER
360
509D
  0
DICTIONARY
  5
50A0
330
509F
100
AcDbDictionary
280
     1
  3
ACDBCONTEXTDATAMANAGER
360
50A1
  0
DICTIONARY
  5
50A4
330
50A3
100
AcDbDictionary
280
     1
  3
ACDBCONTEXTDATAMANAGER
360
50A5
  0
DICTIONARY
  5
50A8
330
50A7
100
AcDbDictionary
280
     1
  3
ACDBCONTEXTDATAMANAGER
360
50A9
  0
DICTIONARY
  5
51D5
330
51D4
100
AcDbDictionary
280
     1
  3
ACDBCONTEXTDATAMANAGER
360
51D6
  0
DICTIONARY
  5
51D9
330
51D8
100
AcDbDictionary
280
     1
  3
ACDBCONTEXTDATAMANAGER
360
51DA
  0
DICTIONARY
  5
5210
330
520F
100
AcDbDictionary
280
     1
  3
ACDBCONTEXTDATAMANAGER
360
5211
  0
DICTIONARY
  5
524B
330
524A
100
AcDbDictionary
280
     1
  3
ACDBCONTEXTDATAMANAGER
360
524C
  0
DICTIONARY
  5
524F
330
524E
100
AcDbDictionary
280
     1
  3
ACDBCONTEXTDATAMANAGER
360
5250
  0
DICTIONARY
  5
2948
102
{ACAD_REACTORS
330
C
102
}
330
C
100
AcDbDictionary
  0
DICTIONARY
  5
D
102
{ACAD_REACTORS
330
C
102
}
330
C
100
AcDbDictionary
  3
*A1
350
44D9
  3
*A2
350
44DC
  0
DICTIONARY
  5
2816
102
{ACAD_REACTORS
330
C
102
}
330
C
100
AcDbDictionary
  0
DICTIONARY
  5
2947
102
{ACAD_REACTORS
330
C
102
}
330
C
100
AcDbDictionary
  3
BYBLOCK
350
4C78
  3
BYLAYER
350
4C77
  3
GLOBAL
350
4C79
  0
DICTIONARY
  5
4C7C
102
{ACAD_REACTORS
330
C
102
}
330
C
100
AcDbDictionary
  3
STANDARD
350
4C7D
  0
DICTIONARY
  5
E
102
{ACAD_REACTORS
330
C
102
}
330
C
100
AcDbDictionary
  3
STANDARD
350
13
  0
DICTIONARY
  5
2817
102
{ACAD_REACTORS
330
C
102
}
330
C
100
AcDbDictionary
  0
DICTIONARY
  5
4C55
102
{ACAD_REACTORS
330
C
102
}
330
C
100
AcDbDictionary
  3
A0
350
4C56
  3
A1
350
4C57
  3
A2
350
4C58
  3
A3
350
4C59
  3
A4
350
4C5A
  3
A5
350
4C5B
  3
A6
350
4C5C
  3
A7
350
4C5D
  3
A8
350
4C5E
  3
A9
350
4C5F
  3
B0
350
4C60
  3
B1
350
4C61
  3
B2
350
4C62
  3
B3
350
4C63
  3
B4
350
4C64
  3
B5
350
4C65
  3
B6
350
4C66
  3
B7
350
4C67
  3
B8
350
4C68
  3
B9
350
4C69
  3
C0
350
4C6A
  3
C1
350
4C6B
  3
C2
350
4C6C
  3
C3
350
4C6D
  3
C4
350
4C6E
  3
C5
350
4C6F
  3
C6
350
4C70
  3
C7
350
4C71
  3
C8
350
4C72
  3
C9
350
4C73
  3
D0
350
4C74
  3
D1
350
4C75
  3
D2
350
4C76
  0
DICTIONARY
  5
4C3C
102
{ACAD_REACTORS
330
C
102
}
330
C
100
AcDbDictionary
  3
2DWIREFRAME
350
4C41
  3
BASIC
350
4C44
  3
BRIGHTEN
350
4C48
  3
COLORCHANGE
350
4C4C
  3
CONCEPTUAL
350
4C46
  3
DIM
350
4C47
  3
EDGECOLOROFF
350
4C4F
  3
FACEPATTERN
350
4C4B
  3
FLAT
350
4C3D
  3
FLATWITHEDGES
350
4C3E
  3
GOURAUD
350
4C3F
  3
GOURAUDWITHEDGES
350
4C40
  3
HIDDEN
350
4C43
  3
JITTEROFF
350
4C4D
  3
LINEPATTERN
350
4C4A
  3
MODELING
350
519A
  3
OVERHANGOFF
350
4C4E
  3
REALISTIC
350
4C45
  3
SHADED
350
4C54
  3
SHADED_WITH_EDGES
350
4C53
  3
SHADES_OF_GRAY
350
4C50
  3
SKETCHY
350
4C51
  3
THICKEN
350
4C49
  3
WIREFRAME
350
4C42
  3
X-RAY
350
4C52
  0
XRECORD
  5
474F
102
{ACAD_REACTORS
330
C
102
}
330
C
100
AcDbXrecord
 90
   990106
  3

 60
     0
 61
     0
 62
     4
 63
     4
 64
     0
 65
     0
 66
     0
 67
     3
 68
     1
 69
     0
 70
     0
 71
     0
 72
     0
 40
0.0
170
     2
340
456E
  0
DICTIONARY
  5
562B
102
{ACAD_REACTORS
330
C
102
}
330
C
100
AcDbDictionary
  3
CEPSNID
350
5635
  3
CEPSNTYPE
350
5634
  3
COLORDICT
350
564D
  3
DIMSTYLEDATA
350
564B
  3
FINGERPRINTGUID
350
5636
  3
HYPERLINKBASE
350
562E
  3
INSUNITS
350
5633
  3
LAYOUTDICT
350
5630
  3
LWETCUNION
350
5632
  3
MATERIALDICT
350
564E
  3
PLOTSETDICT
350
5631
  3
PSVPSCALE
350
5638
  3
PUCSBASE
350
563B
  3
PUCSORGBACK
350
5641
  3
PUCSORGBOTTOM
350
563D
  3
PUCSORGFRONT
350
5640
  3
PUCSORGLEFT
350
563E
  3
PUCSORGRIGHT
350
563F
  3
PUCSORGTOP
350
563C
  3
PUCSORTHOREF
350
5639
  3
PUCSORTHOVIEW
350
563A
  3
STYLESHEET
350
562F
  3
TSTACKALIGN
350
562C
  3
TSTACKSIZE
350
562D
  3
UCSBASE
350
5644
  3
UCSORGBACK
350
564A
  3
UCSORGBOTTOM
350
5646
  3
UCSORGFRONT
350
5649
  3
UCSORGLEFT
350
5647
  3
UCSORGRIGHT
350
5648
  3
UCSORGTOP
350
5645
  3
UCSORTHOREF
350
5642
  3
UCSORTHOVIEW
350
5643
  3
VERSIONGUID
350
5637
  0
DICTIONARY
  5
4696
102
{ACAD_REACTORS
330
C
102
}
330
C
100
AcDbDictionary
  3
CANNOSCALE
350
4FC6
  3
CMLEADERSTYLE
350
4FC8
  3
CTABLESTYLE
350
4FC7
  3
DIMASSOC
350
4697
  3
HIDETEXT
350
564C
  3
MSLTSCALE
350
4FC9
  3
PROJECTNAME
350
4698
  3
XCLIPFRAME
350
4FCA
  0
XRECORD
  5
564F
102
{ACAD_REACTORS
330
C
102
}
330
C
100
AcDbXrecord
  1
DWGPROPS COOKIE
  2

  3

  4

  6

  7

  8
takahashi
  9

300
=
301
=
302
=
303
=
304
=
305
=
306
=
307
=
308
=
309
=
 40
0.0
 41
2450576.222302431
 42
2457658.401797072
  1

 90
        0
  0
XRECORD
  5
5651
102
{ACAD_REACTORS
330
5650
102
}
330
5650
100
AcDbXrecord
102
VTR_0.000_0.000_1.000_1.000_VISUALSTYLE
340
4C41
102
VTR_0.000_0.000_1.000_1.000_GRIDDISPLAY
 70
     3
102
VTR_0.000_0.000_1.000_1.000_GRIDMAJOR
 70
     5
102
VTR_0.000_0.000_1.000_1.000_DEFAULTLIGHTING
280
     1
102
VTR_0.000_0.000_1.000_1.000_DEFAULTLIGHTINGTYPE
 70
     1
102
VTR_0.000_0.000_1.000_1.000_BRIGHTNESS
141
0.0
102
VTR_0.000_0.000_1.000_1.000_CONTRAST
142
0.0
  0
DICTIONARY
  5
2B0C
102
{ACAD_REACTORS
330
29EA
102
}
330
29EA
100
AcDbDictionary
  0
DICTIONARY
  5
29EB
102
{ACAD_REACTORS
330
29EA
102
}
330
29EA
100
AcDbDictionary
  0
SORTENTSTABLE
  5
4507
102
{ACAD_REACTORS
330
4506
102
}
330
4506
100
AcDbSortentsTable
330
1A
331
0
  5
4024
331
31A0
  5
376C
331
3541
  5
376D
331
3E9C
  5
3E9C
331
4029
  5
4029
331
402A
  5
402A
331
408F
  5
408F
331
4255
  5
4255
331
4256
  5
4256
331
4259
  5
4259
331
425A
  5
425A
331
425B
  5
425B
331
425C
  5
425C
331
428B
  5
428B
331
428E
  5
428E
331
4290
  5
4290
331
4292
  5
4292
331
436B
  5
436B
331
4378
  5
4378
331
4423
  5
4423
331
4424
  5
4424
331
4425
  5
4425
331
4428
  5
4428
331
4429
  5
4429
331
442A
  5
442A
331
442B
  5
442B
331
442C
  5
442C
331
442D
  5
442D
331
442E
  5
442E
331
442F
  5
442F
331
4431
  5
4431
331
4432
  5
4432
331
4433
  5
4433
331
4434
  5
4434
331
4435
  5
4435
331
4438
  5
4438
331
4439
  5
4439
331
443B
  5
443B
331
443C
  5
443C
331
4440
  5
4440
331
4441
  5
4441
331
4442
  5
4442
331
4443
  5
4443
331
4444
  5
4444
331
4445
  5
4445
331
4446
  5
4446
331
4456
  5
4456
331
4459
  5
4459
331
4463
  5
4463
331
448E
  5
448E
331
448F
  5
448F
331
44D5
  5
44D5
331
44D6
  5
44D6
331
44D7
  5
44D7
331
44D8
  5
44D8
331
44EC
  5
44EC
331
44F9
  5
44F9
  0
DICTIONARY
  5
4D18
102
{ACAD_REACTORS
330
4D17
102
}
330
4D17
100
AcDbDictionary
  3
ACDB_ANNOTATIONSCALES
350
4D19
  0
DICTIONARY
  5
4D31
102
{ACAD_REACTORS
330
4D30
102
}
330
4D30
100
AcDbDictionary
  3
ACDB_ANNOTATIONSCALES
350
4D32
  0
DICTIONARY
  5
508D
102
{ACAD_REACTORS
330
508C
102
}
330
508C
100
AcDbDictionary
  3
ACDB_ANNOTATIONSCALES
350
508E
  0
DICTIONARY
  5
5091
102
{ACAD_REACTORS
330
5090
102
}
330
5090
100
AcDbDictionary
  3
ACDB_ANNOTATIONSCALES
350
5092
  0
DICTIONARY
  5
5095
102
{ACAD_REACTORS
330
5094
102
}
330
5094
100
AcDbDictionary
  3
ACDB_ANNOTATIONSCALES
350
5096
  0
DICTIONARY
  5
5099
102
{ACAD_REACTORS
330
5098
102
}
330
5098
100
AcDbDictionary
  3
ACDB_ANNOTATIONSCALES
350
509A
  0
DICTIONARY
  5
509D
102
{ACAD_REACTORS
330
509C
102
}
330
509C
100
AcDbDictionary
  3
ACDB_ANNOTATIONSCALES
350
509E
  0
DICTIONARY
  5
50A1
102
{ACAD_REACTORS
330
50A0
102
}
330
50A0
100
AcDbDictionary
  3
ACDB_ANNOTATIONSCALES
350
50A2
  0
DICTIONARY
  5
50A5
102
{ACAD_REACTORS
330
50A4
102
}
330
50A4
100
AcDbDictionary
  3
ACDB_ANNOTATIONSCALES
350
50A6
  0
DICTIONARY
  5
50A9
102
{ACAD_REACTORS
330
50A8
102
}
330
50A8
100
AcDbDictionary
  3
ACDB_ANNOTATIONSCALES
350
50AA
  0
DICTIONARY
  5
51D6
102
{ACAD_REACTORS
330
51D5
102
}
330
51D5
100
AcDbDictionary
  3
ACDB_ANNOTATIONSCALES
350
51D7
  0
DICTIONARY
  5
51DA
102
{ACAD_REACTORS
330
51D9
102
}
330
51D9
100
AcDbDictionary
  3
ACDB_ANNOTATIONSCALES
350
51DB
  0
DICTIONARY
  5
5211
102
{ACAD_REACTORS
330
5210
102
}
330
5210
100
AcDbDictionary
  3
ACDB_ANNOTATIONSCALES
350
5212
  0
DICTIONARY
  5
524C
102
{ACAD_REACTORS
330
524B
102
}
330
524B
100
AcDbDictionary
  3
ACDB_ANNOTATIONSCALES
350
524D
  0
DICTIONARY
  5
5250
102
{ACAD_REACTORS
330
524F
102
}
330
524F
100
AcDbDictionary
  3
ACDB_ANNOTATIONSCALES
350
5251
  0
GROUP
  5
44D9
102
{ACAD_REACTORS
330
D
102
}
330
D
100
AcDbGroup
300

 70
     1
 71
     1
340
448F
340
4463
340
443B
340
4440
340
443C
340
448E
340
4446
340
4445
340
4444
340
4443
340
4442
340
4441
  0
GROUP
  5
44DC
102
{ACAD_REACTORS
330
D
102
}
330
D
100
AcDbGroup
300

 70
     1
 71
     1
340
442D
340
442C
340
442E
340
442B
340
44D8
340
44D7
340
44D6
340
44D5
340
4439
340
4438
340
4435
340
4434
340
4433
340
442A
340
4429
340
4428
340
4425
340
4424
340
4423
340
4456
340
4432
340
4431
340
442F
340
4459
  0
MATERIAL
  5
4C78
102
{ACAD_REACTORS
330
2947
102
}
102
{ACAD_XDICTIONARY
360
5654
102
}
330
2947
100
AcDbMaterial
  1
BYBLOCK
  0
MATERIAL
  5
4C77
102
{ACAD_REACTORS
330
2947
102
}
102
{ACAD_XDICTIONARY
360
5652
102
}
330
2947
100
AcDbMaterial
  1
BYLAYER
  0
MATERIAL
  5
4C79
102
{ACAD_REACTORS
330
2947
102
}
102
{ACAD_XDICTIONARY
360
5656
102
}
330
2947
100
AcDbMaterial
  1
GLOBAL
  0
ACAD_PROXY_OBJECT
  5
4C7D
102
{ACAD_REACTORS
330
4C7C
102
}
330
4C7C
100
AcDbProxyObject
 90
      499
 91
      509
 93
      610
310
40901902A4063FBFFFFFE0000000000000020400000000000020404214DD185B99185C990000000000000104090141901A00000000000004100000000000000041025764000000000000039000
340
14
340
0
340
10
340
0
 94
        0
1001
ACAD_MLEADERVER
1070
     2
  0
MLINESTYLE
  5
13
102
{ACAD_REACTORS
330
E
102
}
330
E
100
AcDbMlineStyle
  2
STANDARD
 70
     0
  3

 62
     0
 51
90.0
 52
90.0
 71
     2
 49
0.5
 62
   256
  6
BYLAYER
 49
-0.5
 62
   256
  6
BYLAYER
  0
ACAD_PROXY_OBJECT
  5
4C56
102
{ACAD_REACTORS
330
4C55
102
}
330
4C55
100
AcDbProxyObject
 90
      499
 91
      506
 93
       41
310
903313A31580
  0
ACAD_PROXY_OBJECT
  5
4C57
102
{ACAD_REACTORS
330
4C55
102
}
330
4C55
100
AcDbProxyObject
 90
      499
 91
      506
 93
      105
310
903313A324000000000000004000
  0
ACAD_PROXY_OBJECT
  5
4C58
102
{ACAD_REACTORS
330
4C55
102
}
330
4C55
100
AcDbProxyObject
 90
      499
 91
      506
 93
      105
310
903313A344000000000000104000
  0
ACAD_PROXY_OBJECT
  5
4C59
102
{ACAD_REACTORS
330
4C55
102
}
330
4C55
100
AcDbProxyObject
 90
      499
 91
      506
 93
      105
310
903313A354000000000000144000
  0
ACAD_PROXY_OBJECT
  5
4C5A
102
{ACAD_REACTORS
330
4C55
102
}
330
4C55
100
AcDbProxyObject
 90
      499
 91
      506
 93
      105
310
903313A384000000000000204000
  0
ACAD_PROXY_OBJECT
  5
4C5B
102
{ACAD_REACTORS
330
4C55
102
}
330
4C55
100
AcDbProxyObject
 90
      499
 91
      506
 93
      113
310
904313A31304000000000000244000
  0
ACAD_PROXY_OBJECT
  5
4C5C
102
{ACAD_REACTORS
330
4C55
102
}
330
4C55
100
AcDbProxyObject
 90
      499
 91
      506
 93
      113
310
904313A31364000000000000304000
  0
ACAD_PROXY_OBJECT
  5
4C5D
102
{ACAD_REACTORS
330
4C55
102
}
330
4C55
100
AcDbProxyObject
 90
      499
 91
      506
 93
      113
310
904313A32304000000000000344000
  0
ACAD_PROXY_OBJECT
  5
4C5E
102
{ACAD_REACTORS
330
4C55
102
}
330
4C55
100
AcDbProxyObject
 90
      499
 91
      506
 93
      113
310
904313A333040000000000003E4000
  0
ACAD_PROXY_OBJECT
  5
4C5F
102
{ACAD_REACTORS
330
4C55
102
}
330
4C55
100
AcDbProxyObject
 90
      499
 91
      506
 93
      113
310
904313A34304000000000000444000
  0
ACAD_PROXY_OBJECT
  5
4C60
102
{ACAD_REACTORS
330
4C55
102
}
330
4C55
100
AcDbProxyObject
 90
      499
 91
      506
 93
      113
310
904313A35304000000000000494000
  0
ACAD_PROXY_OBJECT
  5
4C61
102
{ACAD_REACTORS
330
4C55
102
}
330
4C55
100
AcDbProxyObject
 90
      499
 91
      506
 93
      121
310
905313A3130304000000000000594000
  0
ACAD_PROXY_OBJECT
  5
4C62
102
{ACAD_REACTORS
330
4C55
102
}
330
4C55
100
AcDbProxyObject
 90
      499
 91
      506
 93
      105
310
903323A310000000000000010100
  0
ACAD_PROXY_OBJECT
  5
4C63
102
{ACAD_REACTORS
330
4C55
102
}
330
4C55
100
AcDbProxyObject
 90
      499
 91
      506
 93
      105
310
903343A310000000000000410100
  0
ACAD_PROXY_OBJECT
  5
4C64
102
{ACAD_REACTORS
330
4C55
102
}
330
4C55
100
AcDbProxyObject
 90
      499
 91
      506
 93
      105
310
903383A310000000000000810100
  0
ACAD_PROXY_OBJECT
  5
4C65
102
{ACAD_REACTORS
330
4C55
102
}
330
4C55
100
AcDbProxyObject
 90
      499
 91
      506
 93
      113
310
90431303A310000000000000910100
  0
ACAD_PROXY_OBJECT
  5
4C66
102
{ACAD_REACTORS
330
4C55
102
}
330
4C55
100
AcDbProxyObject
 90
      499
 91
      506
 93
      121
310
9053130303A310000000000001650100
  0
ACAD_PROXY_OBJECT
  5
4C67
102
{ACAD_REACTORS
330
4C55
102
}
330
4C55
100
AcDbProxyObject
 90
      499
 91
      506
 93
      257
310
90E312F31323822203D2031272D3022000000000000200FC000000000000284000
  0
ACAD_PROXY_OBJECT
  5
4C68
102
{ACAD_REACTORS
330
4C55
102
}
330
4C55
100
AcDbProxyObject
 90
      499
 91
      506
 93
      249
310
90D312F363422203D2031272D3022000000000000240FC000000000000284000
  0
ACAD_PROXY_OBJECT
  5
4C69
102
{ACAD_REACTORS
330
4C55
102
}
330
4C55
100
AcDbProxyObject
 90
      499
 91
      506
 93
      249
310
90D312F333222203D2031272D3022000000000000280FC000000000000284000
  0
ACAD_PROXY_OBJECT
  5
4C6A
102
{ACAD_REACTORS
330
4C55
102
}
330
4C55
100
AcDbProxyObject
 90
      499
 91
      506
 93
      249
310
90D312F313622203D2031272D30220000000000002C0FC000000000000284000
  0
ACAD_PROXY_OBJECT
  5
4C6B
102
{ACAD_REACTORS
330
4C55
102
}
330
4C55
100
AcDbProxyObject
 90
      499
 91
      506
 93
      249
310
90D332F333222203D2031272D30220000000000002E0FC000000000000284000
  0
ACAD_PROXY_OBJECT
  5
4C6C
102
{ACAD_REACTORS
330
4C55
102
}
330
4C55
100
AcDbProxyObject
 90
      499
 91
      506
 93
      241
310
90C312F3822203D2031272D3022000000000000300FC000000000000284000
  0
ACAD_PROXY_OBJECT
  5
4C6D
102
{ACAD_REACTORS
330
4C55
102
}
330
4C55
100
AcDbProxyObject
 90
      499
 91
      506
 93
      249
310
90D332F313622203D2031272D3022000000000000320FC000000000000284000
  0
ACAD_PROXY_OBJECT
  5
4C6E
102
{ACAD_REACTORS
330
4C55
102
}
330
4C55
100
AcDbProxyObject
 90
      499
 91
      506
 93
      241
310
90C312F3422203D2031272D3022000000000000340FC000000000000284000
  0
ACAD_PROXY_OBJECT
  5
4C6F
102
{ACAD_REACTORS
330
4C55
102
}
330
4C55
100
AcDbProxyObject
 90
      499
 91
      506
 93
      241
310
90C332F3822203D2031272D3022000000000000360FC000000000000284000
  0
ACAD_PROXY_OBJECT
  5
4C70
102
{ACAD_REACTORS
330
4C55
102
}
330
4C55
100
AcDbProxyObject
 90
      499
 91
      506
 93
      241
310
90C312F3222203D2031272D3022000000000000380FC000000000000284000
  0
ACAD_PROXY_OBJECT
  5
4C71
102
{ACAD_REACTORS
330
4C55
102
}
330
4C55
100
AcDbProxyObject
 90
      499
 91
      506
 93
      241
310
90C332F3422203D2031272D30220000000000003A0FC000000000000284000
  0
ACAD_PROXY_OBJECT
  5
4C72
102
{ACAD_REACTORS
330
4C55
102
}
330
4C55
100
AcDbProxyObject
 90
      499
 91
      506
 93
      161
310
90A3122203D2031272D30224000000000000284000
  0
ACAD_PROXY_OBJECT
  5
4C73
102
{ACAD_REACTORS
330
4C55
102
}
330
4C55
100
AcDbProxyObject
 90
      499
 91
      506
 93
      257
310
90E312D312F3222203D2031272D30220000000000003E0FC000000000000284000
  0
ACAD_PROXY_OBJECT
  5
4C74
102
{ACAD_REACTORS
330
4C55
102
}
330
4C55
100
AcDbProxyObject
 90
      499
 91
      506
 93
      225
310
90A3322203D2031272D302200000000000002100000000000000284000
  0
ACAD_PROXY_OBJECT
  5
4C75
102
{ACAD_REACTORS
330
4C55
102
}
330
4C55
100
AcDbProxyObject
 90
      499
 91
      506
 93
      225
310
90A3622203D2031272D302200000000000006100000000000000284000
  0
ACAD_PROXY_OBJECT
  5
4C76
102
{ACAD_REACTORS
330
4C55
102
}
330
4C55
100
AcDbProxyObject
 90
      499
 91
      506
 93
      249
310
90D31272D3022203D2031272D30220000000000000A100000000000000284000
  0
ACAD_PROXY_OBJECT
  5
4C41
102
{ACAD_REACTORS
330
4C3C
102
}
330
4C3C
100
AcDbProxyObject
 90
      499
 91
      505
 93
      436
310
42CC9915DA5C99599C985B595049028333333333333E33F0000000000000F90107901411070040501600405405064090741402480A0340
1001
ACAD
1000
AcDbSavedByObjectVersion
1070
     0
  0
ACAD_PROXY_OBJECT
  5
4C44
102
{ACAD_REACTORS
330
4C3C
102
}
330
4C3C
100
AcDbProxyObject
 90
      499
 91
      505
 93
      388
310
4150985CDA58D07406404333333333333E33F0000000000000F90107A41107004050150841D405064090741402480A0350
1001
ACAD
1000
AcDbSavedByObjectVersion
1070
     0
  0
ACAD_PROXY_OBJECT
  5
4C48
102
{ACAD_REACTORS
330
4C3C
102
}
330
4C3C
100
AcDbProxyObject
 90
      499
 91
      505
 93
      428
310
42109C9A59DA1D195B90C409028333333333333E33F0000000000000F9010790141107004050150841D405064090741402480A029950
1001
ACAD
1000
AcDbSavedByObjectVersion
1070
     0
  0
ACAD_PROXY_OBJECT
  5
4C4C
102
{ACAD_REACTORS
330
4C3C
102
}
330
4C3C
100
AcDbProxyObject
 90
      499
 91
      505
 93
      452
310
42D0DBDB1BDC90DA185B99D95104090240C333333333333E33F0000000000000F90108901411070040501508421405064090741402480A0350
1001
ACAD
1000
AcDbSavedByObjectVersion
1070
     0
  0
ACAD_PROXY_OBJECT
  5
4C46
102
{ACAD_REACTORS
330
4C3C
102
}
330
4C3C
100
AcDbProxyObject
 90
      499
 91
      505
 93
      500
310
4290DBDB98D95C1D1D585B10940D028333333333333E33F0000000000000F90107902409070040501000000000018199010841D405064090740C02480A0340
1001
ACAD
1000
AcDbSavedByObjectVersion
1070
     0
  0
ACAD_PROXY_OBJECT
  5
4C47
102
{ACAD_REACTORS
330
4C3C
102
}
330
4C3C
100
AcDbProxyObject
 90
      499
 91
      505
 93
      412
310
40D11A5B50B409028333333333333E33F0000000000000F9010790141107004050150841D405064090741402480A02677FFFFFD0
1001
ACAD
1000
AcDbSavedByObjectVersion
1070
     0
  0
ACAD_PROXY_OBJECT
  5
4C4F
102
{ACAD_REACTORS
330
4C3C
102
}
330
4C3C
100
AcDbProxyObject
 90
      499
 91
      505
 93
      452
310
43115919D950DBDB1BDC93D999916409028333333333333E33F0000000000000F9010790141107004050150841D405064090741402480A0350
1001
ACAD
1000
AcDbSavedByObjectVersion
1070
     0
  0
ACAD_PROXY_OBJECT
  5
4C4B
102
{ACAD_REACTORS
330
4C3C
102
}
330
4C3C
100
AcDbProxyObject
 90
      499
 91
      505
 93
      444
310
42D19858D95C185D1D195C9B90F409028333333333333E33F0000000000000F9010790141107004050150841D405064090741402480A0350
1001
ACAD
1000
AcDbSavedByObjectVersion
1070
     0
  0
ACAD_PROXY_OBJECT
  5
4C3D
102
{ACAD_REACTORS
330
4C3C
102
}
330
4C3C
100
AcDbProxyObject
 90
      499
 91
      505
 93
      380
310
41119B185D240901404333333333333E33F0000000000000F9010740A907004050150841D405064090741402480A1B50
1001
ACAD
1000
AcDbSavedByObjectVersion
1070
     0
  0
ACAD_PROXY_OBJECT
  5
4C3E
102
{ACAD_REACTORS
330
4C3C
102
}
330
4C3C
100
AcDbProxyObject
 90
      499
 91
      505
 93
      468
310
43519B185D15DA5D1A115919D95CD0140901404333333333333E33F0000000000000F90107409019070040501600405405064090741402480A1B50
1001
ACAD
1000
AcDbSavedByObjectVersion
1070
     0
  0
ACAD_PROXY_OBJECT
  5
4C3F
102
{ACAD_REACTORS
330
4C3C
102
}
330
4C3C
100
AcDbProxyObject
 90
      499
 91
      505
 93
      404
310
41D1DBDD5C985D5910240902404333333333333E33F0000000000000F9010740A9070040501641D405064090741402480A1B50
1001
ACAD
1000
AcDbSavedByObjectVersion
1070
     0
  0
ACAD_PROXY_OBJECT
  5
4C40
102
{ACAD_REACTORS
330
4C3C
102
}
330
4C3C
100
AcDbProxyObject
 90
      499
 91
      505
 93
      492
310
4411DBDD5C985D5915DA5D1A115919D95CD0340902404333333333333E33F0000000000000F90107409019070040501600405405064090741402480A1B50
1001
ACAD
1000
AcDbSavedByObjectVersion
1070
     0
  0
ACAD_PROXY_OBJECT
  5
4C43
102
{ACAD_REACTORS
330
4C3C
102
}
330
4C3C
100
AcDbProxyObject
 90
      499
 91
      505
 93
      476
310
41921A5919195B90640502408333333333333E33F0000000000000F901079024090700405020000000000001110200405405064090740C02480A0340
1001
ACAD
1000
AcDbSavedByObjectVersion
1070
     0
  0
ACAD_PROXY_OBJECT
  5
4C4D
102
{ACAD_REACTORS
330
4C3C
102
}
330
4C3C
100
AcDbProxyObject
 90
      499
 91
      505
 93
      428
310
42529A5D1D195C93D999914409028333333333333E33F0000000000000F9010790141107004050150A41D405064090741402480A0350
1001
ACAD
1000
AcDbSavedByObjectVersion
1070
     0
  0
ACAD_PROXY_OBJECT
  5
4C4A
102
{ACAD_REACTORS
330
4C3C
102
}
330
4C3C
100
AcDbProxyObject
 90
      499
 91
      505
 93
      444
310
42D31A5B995C185D1D195C9B90E409028333333333333E33F0000000000000F9010790141107004050750841D405064090741402483A0350
1001
ACAD
1000
AcDbSavedByObjectVersion
1070
     0
  0
ACAD_PROXY_OBJECT
  5
519A
102
{ACAD_REACTORS
330
4C3C
102
}
330
4C3C
100
AcDbProxyObject
 90
      499
 91
      505
 93
      412
310
90A409038333333333333E33F0000000000000F901074090290700405010000000000201990108421405064090741402480A1B40
1001
ACAD
1000
AcDbSavedByObjectVersion
1070
     0
  0
ACAD_PROXY_OBJECT
  5
4C4E
102
{ACAD_REACTORS
330
4C3C
102
}
330
4C3C
100
AcDbProxyObject
 90
      499
 91
      505
 93
      444
310
42D3DD995C9A185B99D3D999915409028333333333333E33F0000000000000F9010790141107004050150941D405064090741402480A0350
1001
ACAD
1000
AcDbSavedByObjectVersion
1070
     0
  0
ACAD_PROXY_OBJECT
  5
4C45
102
{ACAD_REACTORS
330
4C3C
102
}
330
4C3C
100
AcDbProxyObject
 90
      499
 91
      505
 93
      428
310
425499585B1A5CDD1A58D08409038333333333333E33F0000000000000F9010740A907004050150800405405064090740C02480A1B40
1001
ACAD
1000
AcDbSavedByObjectVersion
1070
     0
  0
ACAD_PROXY_OBJECT
  5
4C54
102
{ACAD_REACTORS
330
4C3C
102
}
330
4C3C
100
AcDbProxyObject
 90
      499
 91
      505
 93
      420
310
4194DA1859195911B40902404333333333333E33F0000000000000F9010740A41107004050150800405405064090840C02480A0B40
1001
ACAD
1000
AcDbSavedByObjectVersion
1070
     0
  0
ACAD_PROXY_OBJECT
  5
4C53
102
{ACAD_REACTORS
330
4C3C
102
}
330
4C3C
100
AcDbProxyObject
 90
      499
 91
      505
 93
      516
310
4454DA18591959081DDA5D1A08195919D95CD1A40902404333333333333E33F0000000000000F901074090142907004050250800405405064090740C02480A0B40
1001
ACAD
1000
AcDbSavedByObjectVersion
1070
     0
  0
ACAD_PROXY_OBJECT
  5
4C50
102
{ACAD_REACTORS
330
4C3C
102
}
330
4C3C
100
AcDbProxyObject
 90
      499
 91
      505
 93
      532
310
4394DA1859195CC81BD98811DC985E5174090240C333333333333E33F0000000000000F901079024090741D01000000000000111010841D405064090740C02480A0340
1001
ACAD
1000
AcDbSavedByObjectVersion
1070
     0
  0
ACAD_PROXY_OBJECT
  5
4C51
102
{ACAD_REACTORS
330
4C3C
102
}
330
4C3C
100
AcDbProxyObject
 90
      499
 91
      505
 93
      476
310
41D4DAD95D18DA1E51840502408333333333333E33F0000000000000F901079024090741D01000000000000111010B41D405064090741802480A0340
1001
ACAD
1000
AcDbSavedByObjectVersion
1070
     0
  0
ACAD_PROXY_OBJECT
  5
4C49
102
{ACAD_REACTORS
330
4C3C
102
}
330
4C3C
100
AcDbProxyObject
 90
      499
 91
      505
 93
      412
310
41D51A1A58DAD95B90D409028333333333333E33F0000000000000F9010790141107004050150C41D405064090741402480A0350
1001
ACAD
1000
AcDbSavedByObjectVersion
1070
     0
  0
ACAD_PROXY_OBJECT
  5
4C42
102
{ACAD_REACTORS
330
4C3C
102
}
330
4C3C
100
AcDbProxyObject
 90
      499
 91
      505
 93
      420
310
4255DA5C99599C985B595059028333333333333E33F0000000000000F90107901411070040501600405405064090740C02480A0340
1001
ACAD
1000
AcDbSavedByObjectVersion
1070
     0
  0
ACAD_PROXY_OBJECT
  5
4C52
102
{ACAD_REACTORS
330
4C3C
102
}
330
4C3C
100
AcDbProxyObject
 90
      499
 91
      505
 93
      404
310
41560B54985E51940902404000000000000E03F0000000000000F9010740501907004050150841D405064090740C02480A1B40
1001
ACAD
1000
AcDbSavedByObjectVersion
1070
     0
  0
XRECORD
  5
5635
102
{ACAD_REACTORS
330
562B
102
}
330
562B
100
AcDbXrecord
340
0
  0
XRECORD
  5
5634
102
{ACAD_REACTORS
330
562B
102
}
330
562B
100
AcDbXrecord
 90
        0
  0
XRECORD
  5
564D
102
{ACAD_REACTORS
330
562B
102
}
330
562B
100
AcDbXrecord
340
2948
  0
XRECORD
  5
564B
102
{ACAD_REACTORS
330
562B
102
}
330
562B
100
AcDbXrecord
1000
DSTYLE
1002
{
1070
   171
 70
     2
1070
   143
 40
0.0394
1070
   274
 70
     2
1070
    41
 40
6.0
1070
   342
340
2AF4
1070
   271
 70
     1
1070
   278
 70
    46
1070
   341
340
2AF4
1070
   272
 70
     1
1070
    48
 40
0.1
1070
   283
 70
     1
1070
    47
 40
0.1
1070
   145
 40
1.0
1070
   340
340
10
1070
   140
 40
8.0
1070
   284
 70
     0
1002
}
  0
XRECORD
  5
5636
102
{ACAD_REACTORS
330
562B
102
}
330
562B
100
AcDbXrecord
  1
{23698909-1D67-4744-B0E2-8DE11E3ED422}
  0
XRECORD
  5
562E
102
{ACAD_REACTORS
330
562B
102
}
330
562B
100
AcDbXrecord
  1

  0
XRECORD
  5
5633
102
{ACAD_REACTORS
330
562B
102
}
330
562B
100
AcDbXrecord
 90
        0
  0
XRECORD
  5
5630
102
{ACAD_REACTORS
330
562B
102
}
330
562B
100
AcDbXrecord
340
2816
  0
XRECORD
  5
5632
102
{ACAD_REACTORS
330
562B
102
}
330
562B
100
AcDbXrecord
 90
    10781
  0
XRECORD
  5
564E
102
{ACAD_REACTORS
330
562B
102
}
330
562B
100
AcDbXrecord
340
2947
  0
XRECORD
  5
5631
102
{ACAD_REACTORS
330
562B
102
}
330
562B
100
AcDbXrecord
340
2817
  0
XRECORD
  5
5638
102
{ACAD_REACTORS
330
562B
102
}
330
562B
100
AcDbXrecord
 40
0.25
  0
XRECORD
  5
563B
102
{ACAD_REACTORS
330
562B
102
}
330
562B
100
AcDbXrecord
340
0
  0
XRECORD
  5
5641
102
{ACAD_REACTORS
330
562B
102
}
330
562B
100
AcDbXrecord
 10
0.0
 20
0.0
 30
0.0
  0
XRECORD
  5
563D
102
{ACAD_REACTORS
330
562B
102
}
330
562B
100
AcDbXrecord
 10
0.0
 20
0.0
 30
0.0
  0
XRECORD
  5
5640
102
{ACAD_REACTORS
330
562B
102
}
330
562B
100
AcDbXrecord
 10
0.0
 20
0.0
 30
0.0
  0
XRECORD
  5
563E
102
{ACAD_REACTORS
330
562B
102
}
330
562B
100
AcDbXrecord
 10
0.0
 20
0.0
 30
0.0
  0
XRECORD
  5
563F
102
{ACAD_REACTORS
330
562B
102
}
330
562B
100
AcDbXrecord
 10
0.0
 20
0.0
 30
0.0
  0
XRECORD
  5
563C
102
{ACAD_REACTORS
330
562B
102
}
330
562B
100
AcDbXrecord
 10
0.0
 20
0.0
 30
0.0
  0
XRECORD
  5
5639
102
{ACAD_REACTORS
330
562B
102
}
330
562B
100
AcDbXrecord
340
0
  0
XRECORD
  5
563A
102
{ACAD_REACTORS
330
562B
102
}
330
562B
100
AcDbXrecord
 70
     0
  0
XRECORD
  5
562F
102
{ACAD_REACTORS
330
562B
102
}
330
562B
100
AcDbXrecord
  1

  0
XRECORD
  5
562C
102
{ACAD_REACTORS
330
562B
102
}
330
562B
100
AcDbXrecord
 90
        1
  0
XRECORD
  5
562D
102
{ACAD_REACTORS
330
562B
102
}
330
562B
100
AcDbXrecord
 90
       70
  0
XRECORD
  5
5644
102
{ACAD_REACTORS
330
562B
102
}
330
562B
100
AcDbXrecord
340
0
  0
XRECORD
  5
564A
102
{ACAD_REACTORS
330
562B
102
}
330
562B
100
AcDbXrecord
 10
0.0
 20
0.0
 30
0.0
  0
XRECORD
  5
5646
102
{ACAD_REACTORS
330
562B
102
}
330
562B
100
AcDbXrecord
 10
0.0
 20
0.0
 30
0.0
  0
XRECORD
  5
5649
102
{ACAD_REACTORS
330
562B
102
}
330
562B
100
AcDbXrecord
 10
0.0
 20
0.0
 30
0.0
  0
XRECORD
  5
5647
102
{ACAD_REACTORS
330
562B
102
}
330
562B
100
AcDbXrecord
 10
0.0
 20
0.0
 30
0.0
  0
XRECORD
  5
5648
102
{ACAD_REACTORS
330
562B
102
}
330
562B
100
AcDbXrecord
 10
0.0
 20
0.0
 30
0.0
  0
XRECORD
  5
5645
102
{ACAD_REACTORS
330
562B
102
}
330
562B
100
AcDbXrecord
 10
0.0
 20
0.0
 30
0.0
  0
XRECORD
  5
5642
102
{ACAD_REACTORS
330
562B
102
}
330
562B
100
AcDbXrecord
340
0
  0
XRECORD
  5
5643
102
{ACAD_REACTORS
330
562B
102
}
330
562B
100
AcDbXrecord
 70
     0
  0
XRECORD
  5
5637
102
{ACAD_REACTORS
330
562B
102
}
330
562B
100
AcDbXrecord
  1
{0CA2F0F7-8589-4D5B-B955-F6462FC040E4}
  0
DICTIONARYVAR
  5
4FC6
102
{ACAD_REACTORS
330
4696
102
}
330
4696
100
DictionaryVariables
280
     0
  1
1:1
  0
DICTIONARYVAR
  5
4FC8
102
{ACAD_REACTORS
330
4696
102
}
330
4696
100
DictionaryVariables
280
     0
  1
Standard
  0
DICTIONARYVAR
  5
4FC7
102
{ACAD_REACTORS
330
4696
102
}
330
4696
100
DictionaryVariables
280
     0
  1
Standard
  0
DICTIONARYVAR
  5
4697
102
{ACAD_REACTORS
330
4696
102
}
330
4696
100
DictionaryVariables
280
     0
  1
1
  0
DICTIONARYVAR
  5
564C
102
{ACAD_REACTORS
330
4696
102
}
330
4696
100
DictionaryVariables
280
     0
  1
0
  0
DICTIONARYVAR
  5
4FC9
102
{ACAD_REACTORS
330
4696
102
}
330
4696
100
DictionaryVariables
280
     0
  1
0
  0
DICTIONARYVAR
  5
4698
102
{ACAD_REACTORS
330
4696
102
}
330
4696
100
DictionaryVariables
280
     0
  1

  0
DICTIONARYVAR
  5
4FCA
102
{ACAD_REACTORS
330
4696
102
}
330
4696
100
DictionaryVariables
280
     0
  1
0
  0
DICTIONARY
  5
4D19
102
{ACAD_REACTORS
330
4D18
102
}
330
4D18
100
AcDbDictionary
  0
DICTIONARY
  5
4D32
102
{ACAD_REACTORS
330
4D31
102
}
330
4D31
100
AcDbDictionary
  0
DICTIONARY
  5
508E
102
{ACAD_REACTORS
330
508D
102
}
330
508D
100
AcDbDictionary
  0
DICTIONARY
  5
5092
102
{ACAD_REACTORS
330
5091
102
}
330
5091
100
AcDbDictionary
  0
DICTIONARY
  5
5096
102
{ACAD_REACTORS
330
5095
102
}
330
5095
100
AcDbDictionary
  0
DICTIONARY
  5
509A
102
{ACAD_REACTORS
330
5099
102
}
330
5099
100
AcDbDictionary
  0
DICTIONARY
  5
509E
102
{ACAD_REACTORS
330
509D
102
}
330
509D
100
AcDbDictionary
  0
DICTIONARY
  5
50A2
102
{ACAD_REACTORS
330
50A1
102
}
330
50A1
100
AcDbDictionary
  0
DICTIONARY
  5
50A6
102
{ACAD_REACTORS
330
50A5
102
}
330
50A5
100
AcDbDictionary
  0
DICTIONARY
  5
50AA
102
{ACAD_REACTORS
330
50A9
102
}
330
50A9
100
AcDbDictionary
  0
DICTIONARY
  5
51D7
102
{ACAD_REACTORS
330
51D6
102
}
330
51D6
100
AcDbDictionary
  0
DICTIONARY
  5
51DB
102
{ACAD_REACTORS
330
51DA
102
}
330
51DA
100
AcDbDictionary
  0
DICTIONARY
  5
5212
102
{ACAD_REACTORS
330
5211
102
}
330
5211
100
AcDbDictionary
  0
DICTIONARY
  5
524D
102
{ACAD_REACTORS
330
524C
102
}
330
524C
100
AcDbDictionary
  0
DICTIONARY
  5
5251
102
{ACAD_REACTORS
330
5250
102
}
330
5250
100
AcDbDictionary
  0
DICTIONARY
  5
5654
330
4C78
100
AcDbDictionary
280
     1
  3
ACAD_XREC_ROUNDTRIP
360
5655
  0
DICTIONARY
  5
5652
330
4C77
100
AcDbDictionary
280
     1
  3
ACAD_XREC_ROUNDTRIP
360
5653
  0
DICTIONARY
  5
5656
330
4C79
100
AcDbDictionary
280
     1
  3
ACAD_XREC_ROUNDTRIP
360
5657
  0
XRECORD
  5
5655
102
{ACAD_REACTORS
330
5654
102
}
330
5654
100
AcDbXrecord
102
MATERIAL
148
0.0
149
0.0
149
0.0
 93
        0
 94
      127
282
     0
 72
     1
 77
     1
171
     1
175
     1
179
     1
273
     0
  0
XRECORD
  5
5653
102
{ACAD_REACTORS
330
5652
102
}
330
5652
100
AcDbXrecord
102
MATERIAL
148
0.0
149
0.0
149
0.0
 93
        0
 94
      127
282
     0
 72
     1
 77
     1
171
     1
175
     1
179
     1
273
     0
  0
XRECORD
  5
5657
102
{ACAD_REACTORS
330
5656
102
}
330
5656
100
AcDbXrecord
102
MATERIAL
148
0.0
149
0.0
149
0.0
 93
        0
 94
      127
282
     0
 72
     1
 77
     1
171
     1
175
     1
179
     1
273
     0
  0
ENDSEC
  0
EOF
