  0
SECTION
  2
HEADER
  9
$ACADVER
  1
AC1018
  9
$ACADMAINTVER
 70
     0
  9
$DWGCODEPAGE
  3
ANSI_932
  9
$INSBASE
 10
0.0
 20
0.0
 30
0.0
  9
$EXTMIN
 10
795.9267932407819
 20
-588.5602302018943
 30
0.0
  9
$EXTMAX
 10
1398.063982808499
 20
279.7536190172423
 30
0.0
  9
$LIMMIN
 10
-360.7475667952417
 20
4.457354754525567
  9
$LIMMAX
 10
-162.1536961442673
 20
287.6754402640176
  9
$ORTHOMODE
 70
     1
  9
$REGENMODE
 70
     1
  9
$FILLMODE
 70
     1
  9
$QTEXTMODE
 70
     0
  9
$MIRRTEXT
 70
     1
  9
$LTSCALE
 40
1.0
  9
$ATTMODE
 70
     1
  9
$TEXTSIZE
 40
2.333873885063326
  9
$TRACEWID
 40
1.0
  9
$TEXTSTYLE
  7
STANDARD
  9
$CLAYER
  8
寸法線
  9
$CELTYPE
  6
BYLAYER
  9
$CECOLOR
 62
   256
  9
$CELTSCALE
 40
10.0
  9
$DISPSILH
 70
     0
  9
$DIMSCALE
 40
1.0
  9
$DIMASZ
 40
6.0
  9
$DIMEXO
 40
0.625
  9
$DIMDLI
 40
3.75
  9
$DIMRND
 40
0.0
  9
$DIMDLE
 40
0.0
  9
$DIMEXE
 40
1.25
  9
$DIMTP
 40
0.1
  9
$DIMTM
 40
0.1
  9
$DIMTXT
 40
5.0
  9
$DIMCEN
 40
2.5
  9
$DIMTSZ
 40
0.0
  9
$DIMTOL
 70
     0
  9
$DIMLIM
 70
     0
  9
$DIMTIH
 70
     0
  9
$DIMTOH
 70
     0
  9
$DIMSE1
 70
     0
  9
$DIMSE2
 70
     0
  9
$DIMTAD
 70
     1
  9
$DIMZIN
 70
     8
  9
$DIMBLK
  1
Open30
  9
$DIMASO
 70
     1
  9
$DIMSHO
 70
     1
  9
$DIMPOST
  1

  9
$DIMAPOST
  1

  9
$DIMALT
 70
     0
  9
$DIMALTD
 70
     2
  9
$DIMALTF
 40
0.0394
  9
$DIMLFAC
 40
1.0
  9
$DIMTOFL
 70
     1
  9
$DIMTVP
 40
1.0
  9
$DIMTIX
 70
     0
  9
$DIMSOXD
 70
     0
  9
$DIMSAH
 70
     0
  9
$DIMBLK1
  1

  9
$DIMBLK2
  1

  9
$DIMSTYLE
  2
ISO-25
  9
$DIMCLRD
 70
     0
  9
$DIMCLRE
 70
     0
  9
$DIMCLRT
 70
     0
  9
$DIMTFAC
 40
1.0
  9
$DIMGAP
 40
0.625
  9
$DIMJUST
 70
     0
  9
$DIMSD1
 70
     0
  9
$DIMSD2
 70
     0
  9
$DIMTOLJ
 70
     1
  9
$DIMTZIN
 70
     0
  9
$DIMALTZ
 70
     0
  9
$DIMALTTZ
 70
     0
  9
$DIMUPT
 70
     0
  9
$DIMDEC
 70
     1
  9
$DIMTDEC
 70
     1
  9
$DIMALTU
 70
     2
  9
$DIMALTTD
 70
     2
  9
$DIMTXSTY
  7
STANDARD
  9
$DIMAUNIT
 70
     0
  9
$DIMADEC
 70
     0
  9
$DIMALTRND
 40
0.0
  9
$DIMAZIN
 70
     0
  9
$DIMDSEP
 70
    46
  9
$DIMATFIT
 70
     3
  9
$DIMFRAC
 70
     0
  9
$DIMLDRBLK
  1
Open30
  9
$DIMLUNIT
 70
     2
  9
$DIMLWD
 70
    -2
  9
$DIMLWE
 70
    -2
  9
$DIMTMOVE
 70
     0
  9
$LUNITS
 70
     2
  9
$LUPREC
 70
     4
  9
$SKETCHINC
 40
1.0
  9
$FILLETRAD
 40
6.5
  9
$AUNITS
 70
     0
  9
$AUPREC
 70
     0
  9
$MENU
  1
.
  9
$ELEVATION
 40
0.0
  9
$PELEVATION
 40
0.0
  9
$THICKNESS
 40
0.0
  9
$LIMCHECK
 70
     0
  9
$CHAMFERA
 40
10.0
  9
$CHAMFERB
 40
10.0
  9
$CHAMFERC
 40
20.0
  9
$CHAMFERD
 40
0.0
  9
$SKPOLY
 70
     0
  9
$TDCREATE
 40
2450576.597302431
  9
$TDUCREATE
 40
2450576.222302431
  9
$TDUPDATE
 40
2455147.437099873
  9
$TDUUPDATE
 40
2455147.062099873
  9
$TDINDWG
 40
1.3215426852
  9
$TDUSRTIMER
 40
1.3215426852
  9
$USRTIMER
 70
     1
  9
$ANGBASE
 50
0.0
  9
$ANGDIR
 70
     0
  9
$PDMODE
 70
     0
  9
$PDSIZE
 40
0.0
  9
$PLINEWID
 40
0.0
  9
$SPLFRAME
 70
     0
  9
$SPLINETYPE
 70
     6
  9
$SPLINESEGS
 70
     8
  9
$HANDSEED
  5
7846
  9
$SURFTAB1
 70
     6
  9
$SURFTAB2
 70
     6
  9
$SURFTYPE
 70
     6
  9
$SURFU
 70
     6
  9
$SURFV
 70
     6
  9
$UCSBASE
  2

  9
$UCSNAME
  2

  9
$UCSORG
 10
0.0
 20
0.0
 30
0.0
  9
$UCSXDIR
 10
1.0
 20
0.0
 30
0.0
  9
$UCSYDIR
 10
0.0
 20
1.0
 30
0.0
  9
$UCSORTHOREF
  2

  9
$UCSORTHOVIEW
 70
     0
  9
$UCSORGTOP
 10
0.0
 20
0.0
 30
0.0
  9
$UCSORGBOTTOM
 10
0.0
 20
0.0
 30
0.0
  9
$UCSORGLEFT
 10
0.0
 20
0.0
 30
0.0
  9
$UCSORGRIGHT
 10
0.0
 20
0.0
 30
0.0
  9
$UCSORGFRONT
 10
0.0
 20
0.0
 30
0.0
  9
$UCSORGBACK
 10
0.0
 20
0.0
 30
0.0
  9
$PUCSBASE
  2

  9
$PUCSNAME
  2

  9
$PUCSORG
 10
0.0
 20
0.0
 30
0.0
  9
$PUCSXDIR
 10
1.0
 20
0.0
 30
0.0
  9
$PUCSYDIR
 10
0.0
 20
1.0
 30
0.0
  9
$PUCSORTHOREF
  2

  9
$PUCSORTHOVIEW
 70
     0
  9
$PUCSORGTOP
 10
0.0
 20
0.0
 30
0.0
  9
$PUCSORGBOTTOM
 10
0.0
 20
0.0
 30
0.0
  9
$PUCSORGLEFT
 10
0.0
 20
0.0
 30
0.0
  9
$PUCSORGRIGHT
 10
0.0
 20
0.0
 30
0.0
  9
$PUCSORGFRONT
 10
0.0
 20
0.0
 30
0.0
  9
$PUCSORGBACK
 10
0.0
 20
0.0
 30
0.0
  9
$USERI1
 70
     0
  9
$USERI2
 70
     0
  9
$USERI3
 70
     0
  9
$USERI4
 70
     0
  9
$USERI5
 70
     0
  9
$USERR1
 40
0.0
  9
$USERR2
 40
0.0
  9
$USERR3
 40
0.0
  9
$USERR4
 40
0.0
  9
$USERR5
 40
0.0
  9
$WORLDVIEW
 70
     1
  9
$SHADEDGE
 70
     3
  9
$SHADEDIF
 70
    70
  9
$TILEMODE
 70
     0
  9
$MAXACTVP
 70
    16
  9
$PINSBASE
 10
0.0
 20
0.0
 30
0.0
  9
$PLIMCHECK
 70
     0
  9
$PEXTMIN
 10
3.379715380909601
 20
2.834855338171948
 30
0.0
  9
$PEXTMAX
 10
283.3797153809096
 20
407.8348546596004
 30
0.0
  9
$PLIMMIN
 10
-6.946582412719726
 20
-7.007089462280273
  9
$PLIMMAX
 10
293.3152761077881
 20
417.6576120758056
  9
$UNITMODE
 70
     0
  9
$VISRETAIN
 70
     0
  9
$PLINEGEN
 70
     0
  9
$PSLTSCALE
 70
     1
  9
$TREEDEPTH
 70
  3020
  9
$CMLSTYLE
  2
STANDARD
  9
$CMLJUST
 70
     0
  9
$CMLSCALE
 40
1.0
  9
$PROXYGRAPHICS
 70
     1
  9
$MEASUREMENT
 70
     1
  9
$CELWEIGHT
370
    -1
  9
$ENDCAPS
280
     0
  9
$JOINSTYLE
280
     0
  9
$LWDISPLAY
290
     0
  9
$INSUNITS
 70
     0
  9
$HYPERLINKBASE
  1

  9
$STYLESHEET
  1

  9
$XEDIT
290
     1
  9
$CEPSNTYPE
380
     0
  9
$PSTYLEMODE
290
     1
  9
$FINGERPRINTGUID
  2
{23698909-1D67-4744-B0E2-8DE11E3ED422}
  9
$VERSIONGUID
  2
{9C39C9D0-D29E-4CE0-9847-D87FA46DDD68}
  9
$EXTNAMES
290
     1
  9
$PSVPSCALE
 40
0.25
  9
$OLESTARTUP
290
     0
  9
$SORTENTS
280
   127
  9
$INDEXCTL
280
     0
  9
$HIDETEXT
280
     0
  9
$XCLIPFRAME
290
     0
  9
$HALOGAP
280
     0
  9
$OBSCOLOR
 70
   257
  9
$OBSLTYPE
280
     0
  9
$INTERSECTIONDISPLAY
280
     0
  9
$INTERSECTIONCOLOR
 70
   257
  9
$DIMASSOC
280
     1
  9
$PROJECTNAME
  1

  0
ENDSEC
  0
SECTION
  2
CLASSES
  0
CLASS
  1
ACDBDICTIONARYWDFLT
  2
AcDbDictionaryWithDefault
  3
ObjectDBX Classes
 90
        0
 91
        1
280
     0
281
     0
  0
ENDSEC
  0
SECTION
  2
TABLES
  0
TABLE
  2
VPORT
  5
8
330
0
100
AcDbSymbolTable
 70
     1
  0
VPORT
  5
783B
330
8
100
AcDbSymbolTableRecord
100
AcDbViewportTableRecord
  2
*Active
 70
     0
 10
0.0
 20
0.0
 11
1.0
 21
1.0
 12
1374.724731684492
 22
-137.9735742985506
 13
0.0
 23
0.0
 14
1.0
 24
1.0
 15
0.0
 25
0.0
 16
0.0
 26
0.0
 36
1.0
 17
0.0
 27
0.0
 37
0.0
 40
1708.037062430854
 41
1.548138639281129
 42
50.0
 43
0.0
 44
0.0
 50
0.0
 51
0.0
 71
     0
 72
   100
 73
     1
 74
     0
 75
     0
 76
     0
 77
     0
 78
     0
281
     0
 65
     1
110
0.0
120
0.0
130
0.0
111
1.0
121
0.0
131
0.0
112
0.0
122
1.0
132
0.0
 79
     0
146
0.0
  0
ENDTAB
  0
TABLE
  2
LTYPE
  5
5
330
0
100
AcDbSymbolTable
 70
     3
  0
LTYPE
  5
14
330
5
100
AcDbSymbolTableRecord
100
AcDbLinetypeTableRecord
  2
BYBLOCK
 70
     0
  3

 72
    65
 73
     0
 40
0.0
  0
LTYPE
  5
15
330
5
100
AcDbSymbolTableRecord
100
AcDbLinetypeTableRecord
  2
BYLAYER
 70
     0
  3

 72
    65
 73
     0
 40
0.0
  0
LTYPE
  5
16
330
5
100
AcDbSymbolTableRecord
100
AcDbLinetypeTableRecord
  2
CONTINUOUS
 70
     0
  3
Solid line
 72
    65
 73
     0
 40
0.0
  0
LTYPE
  5
1EC
330
5
100
AcDbSymbolTableRecord
100
AcDbLinetypeTableRecord
  2
CENTER
 70
     0
  3
____ _ ____ _ ____ _ ____ _ ____ _ ____ _ ____ 
 72
    65
 73
     4
 40
2.0
 49
1.25
 74
     0
 49
-0.25
 74
     0
 49
0.25
 74
     0
 49
-0.25
 74
     0
  0
LTYPE
  5
1ED
330
5
100
AcDbSymbolTableRecord
100
AcDbLinetypeTableRecord
  2
DASHED
 70
     0
  3
__ __ __ __ __ __ __ __ __ __ __ __ __ __ __ __
 72
    65
 73
     2
 40
0.75
 49
0.5
 74
     0
 49
-0.25
 74
     0
  0
ENDTAB
  0
TABLE
  2
LAYER
  5
2
102
{ACAD_XDICTIONARY
360
29EA
102
}
330
0
100
AcDbSymbolTable
 70
    14
  0
LAYER
  5
F
330
2
100
AcDbSymbolTableRecord
100
AcDbLayerTableRecord
  2
0
 70
     0
 62
     7
  6
CONTINUOUS
370
    -3
390
2815
  0
LAYER
  5
61
330
2
100
AcDbSymbolTableRecord
100
AcDbLayerTableRecord
  2
図枠太線
 70
     0
 62
   251
  6
CONTINUOUS
370
    -3
390
2815
  0
LAYER
  5
62
330
2
100
AcDbSymbolTableRecord
100
AcDbLayerTableRecord
  2
図枠細線
 70
     0
 62
   252
  6
CONTINUOUS
370
    -3
390
2815
  0
LAYER
  5
63
330
2
100
AcDbSymbolTableRecord
100
AcDbLayerTableRecord
  2
図枠ロゴマーク
 70
     0
 62
   253
  6
CONTINUOUS
370
    -3
390
2815
  0
LAYER
  5
1EF
330
2
100
AcDbSymbolTableRecord
100
AcDbLayerTableRecord
  2
外形線
 70
     0
 62
     7
  6
CONTINUOUS
370
    -3
390
2815
  0
LAYER
  5
1F0
330
2
100
AcDbSymbolTableRecord
100
AcDbLayerTableRecord
  2
寸法線
 70
     0
 62
     1
  6
CONTINUOUS
370
    -3
390
2815
  0
LAYER
  5
1F1
330
2
100
AcDbSymbolTableRecord
100
AcDbLayerTableRecord
  2
中心線
 70
     0
 62
     4
  6
CENTER
370
    -3
390
2815
  0
LAYER
  5
1F4
330
2
100
AcDbSymbolTableRecord
100
AcDbLayerTableRecord
  2
DEFPOINTS
 70
     0
 62
     7
  6
CONTINUOUS
290
     0
370
    -3
390
2815
  0
LAYER
  5
2AA2
330
2
100
AcDbSymbolTableRecord
100
AcDbLayerTableRecord
  2
下書線
 70
     0
 62
     2
  6
CONTINUOUS
290
     0
370
    -3
390
2815
  0
LAYER
  5
2AA3
330
2
100
AcDbSymbolTableRecord
100
AcDbLayerTableRecord
  2
隠れ線
 70
     0
 62
     3
  6
DASHED
370
    -3
390
2815
  0
LAYER
  5
2AA4
330
2
100
AcDbSymbolTableRecord
100
AcDbLayerTableRecord
  2
細線
 70
     0
 62
     6
  6
CONTINUOUS
370
    -3
390
2815
  0
LAYER
  5
2AA5
330
2
100
AcDbSymbolTableRecord
100
AcDbLayerTableRecord
  2
太線
 70
     0
 62
   190
  6
CONTINUOUS
370
    -3
390
2815
  0
LAYER
  5
2EC2
330
2
100
AcDbSymbolTableRecord
100
AcDbLayerTableRecord
  2
1
 70
     0
 62
     7
  6
CONTINUOUS
370
    -3
390
2815
  0
LAYER
  5
2EC3
330
2
100
AcDbSymbolTableRecord
100
AcDbLayerTableRecord
  2
3
 70
     0
 62
     7
  6
CONTINUOUS
370
    -3
390
2815
  0
ENDTAB
  0
TABLE
  2
STYLE
  5
3
330
0
100
AcDbSymbolTable
 70
     3
  0
STYLE
  5
10
330
3
100
AcDbSymbolTableRecord
100
AcDbTextStyleTableRecord
  2
STANDARD
 70
     0
 40
0.0
 41
1.0
 50
0.0
 71
     0
 42
2.333873885063326
  3
ISOCP
  4
bigfont.shx
  0
STYLE
  5
64
330
3
100
AcDbSymbolTableRecord
100
AcDbTextStyleTableRecord
  2
EXCADSTD
 70
     0
 40
0.0
 41
1.0
 50
0.0
 71
     0
 42
0.2
  3
monotxt
  4
bigfont
  0
STYLE
  5
2EC4
330
3
100
AcDbSymbolTableRecord
100
AcDbTextStyleTableRecord
  2
ROMANS
 70
     0
 40
0.0
 41
1.0
 50
0.0
 71
     0
 42
1.6
  3
romans
  4

  0
ENDTAB
  0
TABLE
  2
VIEW
  5
6
330
0
100
AcDbSymbolTable
 70
     0
  0
ENDTAB
  0
TABLE
  2
UCS
  5
7
330
0
100
AcDbSymbolTable
 70
     0
  0
ENDTAB
  0
TABLE
  2
APPID
  5
9
330
0
100
AcDbSymbolTable
 70
     1
  0
APPID
  5
11
330
9
100
AcDbSymbolTableRecord
100
AcDbRegAppTableRecord
  2
ACAD
 70
     0
  0
ENDTAB
  0
TABLE
  2
DIMSTYLE
  5
A
330
0
100
AcDbSymbolTable
 70
     6
100
AcDbDimStyleTable
 71
     1
340
24
  0
DIMSTYLE
105
1D
330
A
100
AcDbSymbolTableRecord
100
AcDbDimStyleTableRecord
  2
STANDARD
 70
     0
340
10
  0
DIMSTYLE
105
24
102
{ACAD_REACTORS
330
772D
330
772E
330
7733
330
7553
102
}
330
A
100
AcDbSymbolTableRecord
100
AcDbDimStyleTableRecord
  2
ISO-25
 70
     0
 41
2.5
 42
0.625
 43
3.75
 44
1.25
 74
     0
 77
     1
 78
     8
140
2.5
141
2.5
143
0.0394
145
1.0
147
0.625
172
     1
340
10
  0
DIMSTYLE
105
2EC5
330
A
100
AcDbSymbolTableRecord
100
AcDbDimStyleTableRecord
  2
NORMAL
 70
     0
 41
3.0
 42
0.1
 43
0.4
 44
0.2
 73
     0
 74
     0
 77
     1
140
2.5
141
0.0
147
1.0
172
     1
178
     4
271
     1
272
     0
284
     2
288
     1
289
     1
340
10
  0
DIMSTYLE
105
5C62
330
A
100
AcDbSymbolTableRecord
100
AcDbDimStyleTableRecord
  2
文字5ｐｔ
 70
     0
 41
6.0
 42
0.625
 43
3.75
 44
1.25
 47
0.1
 48
0.1
 73
     0
 74
     0
 77
     1
 78
     8
140
5.0
141
2.5
143
0.0394
145
1.0
147
0.625
172
     1
271
     1
272
     1
340
10
341
2AE3
342
2AE3
  0
DIMSTYLE
105
5C63
330
A
100
AcDbSymbolTableRecord
100
AcDbDimStyleTableRecord
  2
文字8ｐｔ
 70
     0
 41
6.0
 42
0.625
 43
3.75
 44
1.25
 47
0.1
 48
0.1
 73
     0
 74
     0
 77
     1
 78
     8
140
8.0
141
2.5
143
0.0394
145
1.0
147
0.625
172
     1
271
     1
272
     1
340
10
341
2AE3
342
2AE3
  0
DIMSTYLE
105
5C64
330
A
100
AcDbSymbolTableRecord
100
AcDbDimStyleTableRecord
  2
文字10ｐｔ
 70
     0
 41
6.0
 42
0.625
 43
3.75
 44
1.25
 47
0.1
 48
0.1
 73
     0
 74
     0
 77
     1
 78
     8
140
10.0
141
2.5
143
0.0394
145
1.0
147
0.625
172
     1
271
     1
272
     1
340
10
341
2AE3
342
2AE3
  0
ENDTAB
  0
TABLE
  2
BLOCK_RECORD
  5
1
330
0
100
AcDbSymbolTable
 70
    15
  0
BLOCK_RECORD
  5
1A
330
1
100
AcDbSymbolTableRecord
100
AcDbBlockTableRecord
  2
*MODEL_SPACE
340
2818
  0
BLOCK_RECORD
  5
299E
330
1
100
AcDbSymbolTableRecord
100
AcDbBlockTableRecord
  2
*Paper_Space
340
29A4
  0
BLOCK_RECORD
  5
65
330
1
100
AcDbSymbolTableRecord
100
AcDbBlockTableRecord
  2
A$C3392
340
0
  0
BLOCK_RECORD
  5
29BF
330
1
100
AcDbSymbolTableRecord
100
AcDbBlockTableRecord
  2
A4横用　タイトル
340
0
310
2800000020000000200000000100080000000000000400000000000000000000000000000000000000000000000080000080000000808000800000008000800080800000C0C0C000C0DCC000F0CAA6000020400000206000002080000020A0000020C0000020E00000400000004020000040400000406000004080000040A0
310
000040C0000040E00000600000006020000060400000606000006080000060A0000060C0000060E00000800000008020000080400000806000008080000080A0000080C0000080E00000A0000000A0200000A0400000A0600000A0800000A0A00000A0C00000A0E00000C0000000C0200000C0400000C0600000C0800000C0
310
A00000C0C00000C0E00000E0000000E0200000E0400000E0600000E0800000E0A00000E0C00000E0E00040000000400020004000400040006000400080004000A0004000C0004000E00040200000402020004020400040206000402080004020A0004020C0004020E000404000004040200040404000404060004040800040
310
40A0004040C0004040E00040600000406020004060400040606000406080004060A0004060C0004060E00040800000408020004080400040806000408080004080A0004080C0004080E00040A0000040A0200040A0400040A0600040A0800040A0A00040A0C00040A0E00040C0000040C0200040C0400040C0600040C08000
310
40C0A00040C0C00040C0E00040E0000040E0200040E0400040E0600040E0800040E0A00040E0C00040E0E00080000000800020008000400080006000800080008000A0008000C0008000E00080200000802020008020400080206000802080008020A0008020C0008020E00080400000804020008040400080406000804080
310
008040A0008040C0008040E00080600000806020008060400080606000806080008060A0008060C0008060E00080800000808020008080400080806000808080008080A0008080C0008080E00080A0000080A0200080A0400080A0600080A0800080A0A00080A0C00080A0E00080C0000080C0200080C0400080C0600080C0
310
800080C0A00080C0C00080C0E00080E0000080E0200080E0400080E0600080E0800080E0A00080E0C00080E0E000C0000000C0002000C0004000C0006000C0008000C000A000C000C000C000E000C0200000C0202000C0204000C0206000C0208000C020A000C020C000C020E000C0400000C0402000C0404000C0406000C0
310
408000C040A000C040C000C040E000C0600000C0602000C0604000C0606000C0608000C060A000C060C000C060E000C0800000C0802000C0804000C0806000C0808000C080A000C080C000C080E000C0A00000C0A02000C0A04000C0A06000C0A08000C0A0A000C0A0C000C0A0E000C0C00000C0C02000C0C04000C0C06000
310
C0C08000C0C0A000F0FBFF00A4A0A000808080000000FF0000FF000000FFFF00FF000000FF00FF00FFFF0000FFFFFF0000000000000000000000000000000000000000000000000000000000000000000000000000000000000000000000000000000000000000000000000000000000000000000000000000000000000000
310
00000000000000000000000000000000000000000000000000000000000000000000000000000000000000000000000000000000000000000000000000000000000000000000000000000000000000000000000000000000000000000000000000000000000000000000000000000000000000000000000000000000000000
310
00000000000000000000000000000000000000000000000000000000000000000000000000000000000000000000000000000000000000000000000000000000000000000000000000000000000000000000000000000000000000000000000000000000000000000000000000000000000000000000000000000000000000
310
00000000000000000000000000000000000000000000000000000000000000000000000000000000000000000000000000000000000000000000000000000000000000000000000000000000000000000000000000000000000000000000000000000000000000000000000000000000000000005BA4A4A4A4A4A4A45B5BA4
310
5BA45B5B5BA4A4A4A4A4A45B5B5B5B5B5B5B5B00005BA4A4A4A4A4A4A4A4A4A4A4A4A45B5BF7F7F7F7F7F75BA4A4A4A4A4A4A400005BA4A4A4A4A4A4A45BA4A4A4A400005BA4A4A4A4A4A45B0000000000005B00005BA4A4A4A4A4A4A45BA4A4A4A4A4005B0000000000005BA400000000005B000000000000000000000000
310
00000000000000000000000000000000000000000000000000000000000000000000000000000000000000000000000000000000000000000000000000000000000000000000000000000000000000000000000000000000000000000000000000000000000000000000000000000000000000000000000000000000000000
310
00000000000000000000000000000000000000000000000000000000000000000000000000000000000000000000000000000000000000000000000000000000000000000000000000000000000000000000000000000000000000000000000000000000000000000000000000000000000000000000000000000000000000
310
00000000000000000000000000000000000000000000000000000000000000000000000000000000000000000000000000000000000000000000000000000000000000000000000000000000000000000000000000000000000000000000000000000000000000000000000000000000000000000000000000000000000000
310
0000000000000000000000000000000000000000000000000000000000000000000000000000000000000000000000000000000000000000
1001
ACAD
1000
DesignCenter Data
1002
{
1070
     1
1070
     4
1002
}
  0
BLOCK_RECORD
  5
29F4
330
1
100
AcDbSymbolTableRecord
100
AcDbBlockTableRecord
  2
A4縦用　タイトル
340
0
310
2800000020000000200000000100080000000000000400000000000000000000000000000000000000000000000080000080000000808000800000008000800080800000C0C0C000C0DCC000F0CAA6000020400000206000002080000020A0000020C0000020E00000400000004020000040400000406000004080000040A0
310
000040C0000040E00000600000006020000060400000606000006080000060A0000060C0000060E00000800000008020000080400000806000008080000080A0000080C0000080E00000A0000000A0200000A0400000A0600000A0800000A0A00000A0C00000A0E00000C0000000C0200000C0400000C0600000C0800000C0
310
A00000C0C00000C0E00000E0000000E0200000E0400000E0600000E0800000E0A00000E0C00000E0E00040000000400020004000400040006000400080004000A0004000C0004000E00040200000402020004020400040206000402080004020A0004020C0004020E000404000004040200040404000404060004040800040
310
40A0004040C0004040E00040600000406020004060400040606000406080004060A0004060C0004060E00040800000408020004080400040806000408080004080A0004080C0004080E00040A0000040A0200040A0400040A0600040A0800040A0A00040A0C00040A0E00040C0000040C0200040C0400040C0600040C08000
310
40C0A00040C0C00040C0E00040E0000040E0200040E0400040E0600040E0800040E0A00040E0C00040E0E00080000000800020008000400080006000800080008000A0008000C0008000E00080200000802020008020400080206000802080008020A0008020C0008020E00080400000804020008040400080406000804080
310
008040A0008040C0008040E00080600000806020008060400080606000806080008060A0008060C0008060E00080800000808020008080400080806000808080008080A0008080C0008080E00080A0000080A0200080A0400080A0600080A0800080A0A00080A0C00080A0E00080C0000080C0200080C0400080C0600080C0
310
800080C0A00080C0C00080C0E00080E0000080E0200080E0400080E0600080E0800080E0A00080E0C00080E0E000C0000000C0002000C0004000C0006000C0008000C000A000C000C000C000E000C0200000C0202000C0204000C0206000C0208000C020A000C020C000C020E000C0400000C0402000C0404000C0406000C0
310
408000C040A000C040C000C040E000C0600000C0602000C0604000C0606000C0608000C060A000C060C000C060E000C0800000C0802000C0804000C0806000C0808000C080A000C080C000C080E000C0A00000C0A02000C0A04000C0A06000C0A08000C0A0A000C0A0C000C0A0E000C0C00000C0C02000C0C04000C0C06000
310
C0C08000C0C0A000F0FBFF00A4A0A000808080000000FF0000FF000000FFFF00FF000000FF00FF00FFFF0000FFFFFF0000000000000000000000000000000000000000000000000000000000000000000000000000000000000000000000000000000000000000000000000000000000000000000000000000000000000000
310
00000000000000000000000000000000000000000000000000000000000000000000000000000000000000000000000000000000000000000000000000000000000000000000000000000000000000000000000000000000000000000000000000000000000000000000000000000000000000000000000000000000000000
310
00000000000000000000000000000000000000000000000000000000000000000000000000000000000000000000000000000000000000000000000000000000000000000000000000000000000000000000000000000000000000000000000000000000000000000000000000000000000000000000000000000000000000
310
0000000000000000000000000000000000000000000000000000000000000000000000000000000000000000000000000000000000000000000000000000000000000000000000000000000000000000000000005B5B5B5B5B5BA45B5BA45B5B5B5B5B5B5B5B5B5B5B5B5B5B5B5B5B5B5B5B0000A4A4A45BA4A4A40000A400
310
005BA4A4A4A4A4A4A45B00000000000000005B0000A4A4A45BA4A4A4A4A4A4A4A45BF7F7F7F7F7F7F7A4A4A4A4A4A4A4A4A45B0000A4A4A45BA4A4A4A400A400005B000000000000005B00000000000000005B0000A4A4A4A4A4A4A4A4A4A4A4A45BA4A4A4A4A4A4A4A4A4A4A400000000005B00005BA4A4A4A400A4A400A4
310
A4005B00000000000000A4A4A4A400000000005B0000000000000000000000000000000000000000000000000000000000000000000000000000000000000000000000000000000000000000000000000000000000000000000000000000000000000000000000000000000000000000000000000000000000000000000000
310
00000000000000000000000000000000000000000000000000000000000000000000000000000000000000000000000000000000000000000000000000000000000000000000000000000000000000000000000000000000000000000000000000000000000000000000000000000000000000000000000000000000000000
310
00000000000000000000000000000000000000000000000000000000000000000000000000000000000000000000000000000000000000000000000000000000000000000000000000000000000000000000000000000000000000000000000000000000000000000000000000000000000000000000000000000000000000
310
0000000000000000000000000000000000000000000000000000000000000000000000000000000000000000000000000000000000000000
1001
ACAD
1000
DesignCenter Data
1002
{
1070
     1
1070
     4
1002
}
  0
BLOCK_RECORD
  5
2A32
330
1
100
AcDbSymbolTableRecord
100
AcDbBlockTableRecord
  2
A3横用　タイトル
340
0
310
2800000020000000200000000100080000000000000400000000000000000000000000000000000000000000000080000080000000808000800000008000800080800000C0C0C000C0DCC000F0CAA6000020400000206000002080000020A0000020C0000020E00000400000004020000040400000406000004080000040A0
310
000040C0000040E00000600000006020000060400000606000006080000060A0000060C0000060E00000800000008020000080400000806000008080000080A0000080C0000080E00000A0000000A0200000A0400000A0600000A0800000A0A00000A0C00000A0E00000C0000000C0200000C0400000C0600000C0800000C0
310
A00000C0C00000C0E00000E0000000E0200000E0400000E0600000E0800000E0A00000E0C00000E0E00040000000400020004000400040006000400080004000A0004000C0004000E00040200000402020004020400040206000402080004020A0004020C0004020E000404000004040200040404000404060004040800040
310
40A0004040C0004040E00040600000406020004060400040606000406080004060A0004060C0004060E00040800000408020004080400040806000408080004080A0004080C0004080E00040A0000040A0200040A0400040A0600040A0800040A0A00040A0C00040A0E00040C0000040C0200040C0400040C0600040C08000
310
40C0A00040C0C00040C0E00040E0000040E0200040E0400040E0600040E0800040E0A00040E0C00040E0E00080000000800020008000400080006000800080008000A0008000C0008000E00080200000802020008020400080206000802080008020A0008020C0008020E00080400000804020008040400080406000804080
310
008040A0008040C0008040E00080600000806020008060400080606000806080008060A0008060C0008060E00080800000808020008080400080806000808080008080A0008080C0008080E00080A0000080A0200080A0400080A0600080A0800080A0A00080A0C00080A0E00080C0000080C0200080C0400080C0600080C0
310
800080C0A00080C0C00080C0E00080E0000080E0200080E0400080E0600080E0800080E0A00080E0C00080E0E000C0000000C0002000C0004000C0006000C0008000C000A000C000C000C000E000C0200000C0202000C0204000C0206000C0208000C020A000C020C000C020E000C0400000C0402000C0404000C0406000C0
310
408000C040A000C040C000C040E000C0600000C0602000C0604000C0606000C0608000C060A000C060C000C060E000C0800000C0802000C0804000C0806000C0808000C080A000C080C000C080E000C0A00000C0A02000C0A04000C0A06000C0A08000C0A0A000C0A0C000C0A0E000C0C00000C0C02000C0C04000C0C06000
310
C0C08000C0C0A000F0FBFF00A4A0A000808080000000FF0000FF000000FFFF00FF000000FF00FF00FFFF0000FFFFFF0000000000000000000000000000000000000000000000000000000000000000000000000000000000000000000000000000000000000000000000000000000000000000000000000000000000000000
310
00000000000000000000000000000000000000000000000000000000000000000000000000000000000000000000000000000000000000000000000000000000000000000000000000000000000000000000000000000000000000000000000000000000000000000000000000000000000000000000000000000000000000
310
00000000000000000000000000000000000000000000000000000000000000000000000000000000000000000000000000000000000000000000000000000000000000000000000000000000000000000000000000000000000000000000000000000000000000000000000000000000000000000000000000000000000000
310
00000000000000000000000000000000000000000000000000000000000000000000000000000000000000000000000000000000000000000000000000000000000000000000000000000000000000000000000000000000000000000000000000000000000000000000000000000000000000005B5B5B5B5B5B5B5B5B5BA4
310
5BA45B5BA4A4A4A4A4A4A45B5B5B5B5B5B5B5B00005BA4A4A4A4A4A45BA4A4A4A4A4A45BA4A4A4A4A4A4A45BA400000000005B00005BA4A4A4A4A4A45BA4A4A4A4A4A45B5B5B5B5B5B5B5B5BA4A4A4A4A4A45B00005BA4A4A40000005BA4A4A4A4A4A45B000000000000005BA400000000005B000000000000000000000000
310
00000000000000000000000000000000000000000000000000000000000000000000000000000000000000000000000000000000000000000000000000000000000000000000000000000000000000000000000000000000000000000000000000000000000000000000000000000000000000000000000000000000000000
310
00000000000000000000000000000000000000000000000000000000000000000000000000000000000000000000000000000000000000000000000000000000000000000000000000000000000000000000000000000000000000000000000000000000000000000000000000000000000000000000000000000000000000
310
00000000000000000000000000000000000000000000000000000000000000000000000000000000000000000000000000000000000000000000000000000000000000000000000000000000000000000000000000000000000000000000000000000000000000000000000000000000000000000000000000000000000000
310
0000000000000000000000000000000000000000000000000000000000000000000000000000000000000000000000000000000000000000
1001
ACAD
1000
DesignCenter Data
1002
{
1070
     1
1070
     4
1002
}
  0
BLOCK_RECORD
  5
2A6C
330
1
100
AcDbSymbolTableRecord
100
AcDbBlockTableRecord
  2
A3縦用　タイトル
340
0
310
2800000020000000200000000100080000000000000400000000000000000000000000000000000000000000000080000080000000808000800000008000800080800000C0C0C000C0DCC000F0CAA6000020400000206000002080000020A0000020C0000020E00000400000004020000040400000406000004080000040A0
310
000040C0000040E00000600000006020000060400000606000006080000060A0000060C0000060E00000800000008020000080400000806000008080000080A0000080C0000080E00000A0000000A0200000A0400000A0600000A0800000A0A00000A0C00000A0E00000C0000000C0200000C0400000C0600000C0800000C0
310
A00000C0C00000C0E00000E0000000E0200000E0400000E0600000E0800000E0A00000E0C00000E0E00040000000400020004000400040006000400080004000A0004000C0004000E00040200000402020004020400040206000402080004020A0004020C0004020E000404000004040200040404000404060004040800040
310
40A0004040C0004040E00040600000406020004060400040606000406080004060A0004060C0004060E00040800000408020004080400040806000408080004080A0004080C0004080E00040A0000040A0200040A0400040A0600040A0800040A0A00040A0C00040A0E00040C0000040C0200040C0400040C0600040C08000
310
40C0A00040C0C00040C0E00040E0000040E0200040E0400040E0600040E0800040E0A00040E0C00040E0E00080000000800020008000400080006000800080008000A0008000C0008000E00080200000802020008020400080206000802080008020A0008020C0008020E00080400000804020008040400080406000804080
310
008040A0008040C0008040E00080600000806020008060400080606000806080008060A0008060C0008060E00080800000808020008080400080806000808080008080A0008080C0008080E00080A0000080A0200080A0400080A0600080A0800080A0A00080A0C00080A0E00080C0000080C0200080C0400080C0600080C0
310
800080C0A00080C0C00080C0E00080E0000080E0200080E0400080E0600080E0800080E0A00080E0C00080E0E000C0000000C0002000C0004000C0006000C0008000C000A000C000C000C000E000C0200000C0202000C0204000C0206000C0208000C020A000C020C000C020E000C0400000C0402000C0404000C0406000C0
310
408000C040A000C040C000C040E000C0600000C0602000C0604000C0606000C0608000C060A000C060C000C060E000C0800000C0802000C0804000C0806000C0808000C080A000C080C000C080E000C0A00000C0A02000C0A04000C0A06000C0A08000C0A0A000C0A0C000C0A0E000C0C00000C0C02000C0C04000C0C06000
310
C0C08000C0C0A000F0FBFF00A4A0A000808080000000FF0000FF000000FFFF00FF000000FF00FF00FFFF0000FFFFFF0000000000000000000000000000000000000000000000000000000000000000000000000000000000000000000000000000000000000000000000000000000000000000000000000000000000000000
310
00000000000000000000000000000000000000000000000000000000000000000000000000000000000000000000000000000000000000000000000000000000000000000000000000000000000000000000000000000000000000000000000000000000000000000000000000000000000000000000000000000000000000
310
00000000000000000000000000000000000000000000000000000000000000000000000000000000000000000000000000000000000000000000000000000000000000000000000000000000000000000000000000000000000000000000000000000000000000000000000000000000000000000000000000000000000000
310
00000000000000000000000000000000000000000000000000000000000000000000000000000000000000000000000000000000000000000000000000000000000000000000000000000000000000000000000000000000000000000000000000000000000000000000000000000000000000005B5B5B5B5B5B5B5B5B5B5B
310
5B5B5B5B5B5B5B5B5B5B5B5B5B5B5B5B5B5B5B00005BA4A4A4A4A4A4A4A4A4A4A4A4A4A45B5B5B5B5B5B5BA4A4A4A4A4A4A4A400005BA4A4A4A4A4A4A4A4A4A4A4A400A4A4A4A4A4A4A4A4A40000000000005B00005BA4A4A4A4A4A4A4A4A4A4A4A4A4A4000000000000005BA4A4000000005B000000000000000000000000
310
00000000000000000000000000000000000000000000000000000000000000000000000000000000000000000000000000000000000000000000000000000000000000000000000000000000000000000000000000000000000000000000000000000000000000000000000000000000000000000000000000000000000000
310
00000000000000000000000000000000000000000000000000000000000000000000000000000000000000000000000000000000000000000000000000000000000000000000000000000000000000000000000000000000000000000000000000000000000000000000000000000000000000000000000000000000000000
310
00000000000000000000000000000000000000000000000000000000000000000000000000000000000000000000000000000000000000000000000000000000000000000000000000000000000000000000000000000000000000000000000000000000000000000000000000000000000000000000000000000000000000
310
0000000000000000000000000000000000000000000000000000000000000000000000000000000000000000000000000000000000000000
102
{BLKREFS
331
2A93
102
}
1001
ACAD
1000
DesignCenter Data
1002
{
1070
     1
1070
     4
1002
}
  0
BLOCK_RECORD
  5
2AE3
330
1
100
AcDbSymbolTableRecord
100
AcDbBlockTableRecord
  2
_Open30
340
0
102
{BLKREFS
331
77BA
331
77BB
331
77C3
331
77C4
331
77CE
331
77CF
331
77D7
331
77D8
102
}
  0
BLOCK_RECORD
  5
2B21
330
1
100
AcDbSymbolTableRecord
100
AcDbBlockTableRecord
  2
*X6
340
0
102
{BLKREFS
331
2DC7
102
}
  0
BLOCK_RECORD
  5
2D4F
330
1
100
AcDbSymbolTableRecord
100
AcDbBlockTableRecord
  2
A3A
340
0
  0
BLOCK_RECORD
  5
2E12
330
1
100
AcDbSymbolTableRecord
100
AcDbBlockTableRecord
  2
ISOKOZ
340
0
  0
BLOCK_RECORD
  5
3AE5
330
1
100
AcDbSymbolTableRecord
100
AcDbBlockTableRecord
  2
A$C60B5275A
340
0
  0
BLOCK_RECORD
  5
3B7D
330
1
100
AcDbSymbolTableRecord
100
AcDbBlockTableRecord
  2
A$C5081540B
340
0
  0
BLOCK_RECORD
  5
7735
330
1
100
AcDbSymbolTableRecord
100
AcDbBlockTableRecord
  2
*D11
340
0
  0
BLOCK_RECORD
  5
7743
330
1
100
AcDbSymbolTableRecord
100
AcDbBlockTableRecord
  2
*D12
340
0
  0
BLOCK_RECORD
  5
774F
330
1
100
AcDbSymbolTableRecord
100
AcDbBlockTableRecord
  2
*D13
340
0
  0
BLOCK_RECORD
  5
775C
330
1
100
AcDbSymbolTableRecord
100
AcDbBlockTableRecord
  2
*D14
340
0
  0
ENDTAB
  0
ENDSEC
  0
SECTION
  2
BLOCKS
  0
BLOCK
  5
1B
330
1A
100
AcDbEntity
  8
0
100
AcDbBlockBegin
  2
*MODEL_SPACE
 70
     0
 10
0.0
 20
0.0
 30
0.0
  3
*MODEL_SPACE
  1

  0
ENDBLK
  5
1C
330
1A
100
AcDbEntity
  8
0
100
AcDbBlockEnd
  0
BLOCK
  5
299F
330
299E
100
AcDbEntity
 67
     1
  8
0
 48
10.0
100
AcDbBlockBegin
  2
*Paper_Space
 70
     0
 10
0.0
 20
0.0
 30
0.0
  3
*Paper_Space
  1

  0
ENDBLK
  5
29A3
330
299E
100
AcDbEntity
 67
     1
  8
0
 48
10.0
100
AcDbBlockEnd
  0
BLOCK
  5
93
330
65
100
AcDbEntity
  8
0
100
AcDbBlockBegin
  2
A$C3392
 70
     0
 10
0.0
 20
0.0
 30
0.0
  3
A$C3392
  1

  0
LINE
  5
66
330
65
100
AcDbEntity
  8
図枠太線
  6
Continuous
100
AcDbLine
 10
211.8585845051848
 20
30.9273756754393
 30
0.0
 11
211.8585845051848
 21
0.9273756754392934
 31
0.0
  0
LINE
  5
67
330
65
100
AcDbEntity
  8
図枠細線
  6
Continuous
100
AcDbLine
 10
231.8585925051848
 20
15.92737767543929
 30
0.0
 11
287.8585925051848
 21
15.92737567543929
 31
0.0
  0
LINE
  5
68
330
65
100
AcDbEntity
  8
図枠細線
  6
Continuous
100
AcDbLine
 10
211.8585925051848
 20
15.92737767543929
 30
0.0
 11
231.8585925051848
 21
15.92737767543929
 31
0.0
  0
LINE
  5
69
330
65
100
AcDbEntity
  8
図枠太線
  6
Continuous
 62
   251
100
AcDbLine
 10
1.858584505184808
 20
0.9273756754392934
 30
0.0
 11
1.858584505184808
 21
275.9273756754393
 31
0.0
  0
TEXT
  5
6A
330
65
100
AcDbEntity
  8
図枠細線
  6
Continuous
 62
   252
100
AcDbText
 10
351.3585925051848
 20
28.42737767543929
 30
0.0
 40
2.0
  1
ＴＩＴＬＥ
 41
0.9036144578313251
  7
EXCADSTD
 72
     5
 11
361.3585925051848
 21
28.42737767543929
 31
0.0
100
AcDbText
  0
TEXT
  5
6B
330
65
100
AcDbEntity
  8
図枠細線
  6
Continuous
 62
   252
100
AcDbText
 10
345.3585925051848
 20
28.42737767543929
 30
0.0
 40
2.0
  1
名称
 41
1.171875
  7
EXCADSTD
 72
     5
 11
350.3585925051848
 21
28.42737767543929
 31
0.0
100
AcDbText
  0
TEXT
  5
6C
330
65
100
AcDbEntity
  8
図枠細線
  6
Continuous
 62
   252
100
AcDbText
 10
274.3585925051848
 20
25.92737767543929
 30
0.0
 40
2.0
  1
ＤＲＡＷＮ
 41
0.8823529411764708
  7
EXCADSTD
 72
     5
 11
284.3585925051848
 21
25.92737767543929
 31
0.0
100
AcDbText
  0
TEXT
  5
6D
330
65
100
AcDbEntity
  8
図枠細線
  6
Continuous
 62
   252
100
AcDbText
 10
260.3585925051848
 20
25.92737767543929
 30
0.0
 40
2.0
  1
ＤＥＳＩＧＮＥＤ
 41
0.7130434720412544
  7
EXCADSTD
 72
     5
 11
273.4785923907439
 21
25.92737767543929
 31
0.0
100
AcDbText
  0
TEXT
  5
6E
330
65
100
AcDbEntity
  8
図枠細線
  6
Continuous
 62
   252
100
AcDbText
 10
246.3585925051848
 20
25.92737767543929
 30
0.0
 40
2.0
  1
ＣＨＥＣＫＥＤ
 41
0.8312499895691853
  7
EXCADSTD
 72
     5
 11
259.6585923382918
 21
25.92737767543929
 31
0.0
100
AcDbText
  0
TEXT
  5
6F
330
65
100
AcDbEntity
  8
図枠細線
  6
Continuous
 62
   252
100
AcDbText
 10
274.3585925051848
 20
28.42737767543929
 30
0.0
 40
2.0
  1
製図
 41
1.209677419354838
  7
EXCADSTD
 72
     5
 11
279.3585925051848
 21
28.42737767543929
 31
0.0
100
AcDbText
  0
TEXT
  5
70
330
65
100
AcDbEntity
  8
図枠細線
  6
Continuous
 62
   252
100
AcDbText
 10
260.3585925051848
 20
28.42737767543929
 30
0.0
 40
2.0
  1
設計
 41
1.171875
  7
EXCADSTD
 72
     5
 11
265.3585925051848
 21
28.42737767543929
 31
0.0
100
AcDbText
  0
TEXT
  5
71
330
65
100
AcDbEntity
  8
図枠細線
  6
Continuous
 62
   252
100
AcDbText
 10
246.3585925051848
 20
28.42737767543929
 30
0.0
 40
2.0
  1
検図
 41
1.209677419354831
  7
EXCADSTD
 72
     5
 11
251.3585925051848
 21
28.42737767543929
 31
0.0
100
AcDbText
  0
TEXT
  5
72
330
65
100
AcDbEntity
  8
図枠細線
  6
Continuous
 62
   252
100
AcDbText
 10
232.3585925051848
 20
25.92737767543929
 30
0.0
 40
2.0
  1
ＡＰＰＲＯＶＥＤ
 41
0.6956521842790703
  7
EXCADSTD
 72
     5
 11
245.1585926959197
 21
25.92737767543929
 31
0.0
100
AcDbText
  0
TEXT
  5
73
330
65
100
AcDbEntity
  8
図枠細線
  6
Continuous
 62
   252
100
AcDbText
 10
232.3585925051848
 20
28.42737767543929
 30
0.0
 40
2.0
  1
承認
 41
1.171875
  7
EXCADSTD
 72
     5
 11
237.3585925051848
 21
28.42737767543929
 31
0.0
100
AcDbText
  0
TEXT
  5
74
330
65
100
AcDbEntity
  8
図枠細線
  6
Continuous
 62
   252
100
AcDbText
 10
290.0698885051848
 20
2.57486867543929
 30
0.0
 40
3.5
  1
ＴＯＷＡ　ＳＥＩＤＥＮ　ＩＮＤＵＳＴＲＩＡＬ　ＣＯ．，ＬＴＤ．
 41
0.4145680123767934
  7
EXCADSTD
 72
     5
 11
342.6923882095458
 21
2.57486867543929
 31
0.0
100
AcDbText
  0
TEXT
  5
75
330
65
100
AcDbEntity
  8
図枠ロゴマーク
  6
Continuous
 62
   253
100
AcDbText
 10
290.1073485051848
 20
7.519769675439306
 30
0.0
 40
7.0
  1
東和制電工業株式会社
 41
0.6392045454545459
  7
EXCADSTD
 72
     5
 11
342.6073485051849
 21
7.519769675439306
 31
0.0
100
AcDbText
  0
TEXT
  5
76
330
65
100
AcDbEntity
  8
図枠細線
  6
Continuous
 62
   252
100
AcDbText
 10
232.4997055051848
 20
5.759088675439272
 30
0.0
 40
2.0
  1
ＰＲＯＪＥＣＴＩＯＮ
 41
0.7542857101985387
  7
EXCADSTD
 72
     5
 11
250.0997054098174
 21
5.759088675439272
 31
0.0
100
AcDbText
  0
TEXT
  5
77
330
65
100
AcDbEntity
  8
図枠細線
  6
Continuous
 62
   252
100
AcDbText
 10
232.5746295051848
 20
8.681077675439269
 30
0.0
 40
2.0
  1
ＴＨＩＲＤ　ＡＮＧＬＥ
 41
0.6910994867379751
  7
EXCADSTD
 72
     5
 11
250.1746297674452
 21
8.681077675439269
 31
0.0
100
AcDbText
  0
TEXT
  5
78
330
65
100
AcDbEntity
  8
図枠細線
  6
Continuous
 62
   252
100
AcDbText
 10
256.8239995051848
 20
13.42737767543929
 30
0.0
 40
2.0
  1
ＳＣＡＬＥ
 41
0.9036144578313255
  7
EXCADSTD
 72
     5
 11
266.8239995051848
 21
13.42737767543929
 31
0.0
100
AcDbText
  0
TEXT
  5
79
330
65
100
AcDbEntity
  8
図枠細線
  6
Continuous
 62
   252
100
AcDbText
 10
274.8585925051848
 20
13.42737767543929
 30
0.0
 40
2.0
  1
ＤＡＴＥ
 41
0.9230769230769231
  7
EXCADSTD
 72
     5
 11
282.8585925051848
 21
13.42737767543929
 31
0.0
100
AcDbText
  0
TEXT
  5
7A
330
65
100
AcDbEntity
  8
図枠細線
  6
Continuous
 62
   252
100
AcDbText
 10
356.3585925051848
 20
13.42737767543929
 30
0.0
 40
2.0
  1
ＤＲＧ．ＮＯ．
 41
0.9375
  7
EXCADSTD
 72
     5
 11
370.3585925051848
 21
13.42737767543929
 31
0.0
100
AcDbText
  0
TEXT
  5
7B
330
65
100
AcDbEntity
  8
図枠細線
  6
Continuous
 62
   252
100
AcDbText
 10
345.3585925051848
 20
13.42737767543929
 30
0.0
 40
2.0
  1
図面番号
 41
1.102941176470588
  7
EXCADSTD
 72
     5
 11
355.3585925051848
 21
13.42737767543929
 31
0.0
100
AcDbText
  0
TEXT
  5
7C
330
65
100
AcDbEntity
  8
図枠細線
  6
Continuous
 62
   252
100
AcDbText
 10
269.3585925051848
 20
13.42737767543929
 30
0.0
 40
2.0
  1
日付
 41
1.171875
  7
EXCADSTD
 72
     5
 11
274.3585925051848
 21
13.42737767543929
 31
0.0
100
AcDbText
  0
TEXT
  5
7D
330
65
100
AcDbEntity
  8
図枠細線
  6
Continuous
 62
   252
100
AcDbText
 10
251.4515125051848
 20
13.42737767543929
 30
0.0
 40
2.0
  1
尺度
 41
1.171874999999999
  7
EXCADSTD
 72
     5
 11
256.4515125051848
 21
13.42737767543929
 31
0.0
100
AcDbText
  0
TEXT
  5
7E
330
65
100
AcDbEntity
  8
図枠細線
  6
Continuous
 62
   252
100
AcDbText
 10
232.3585925051848
 20
13.42737767543929
 30
0.0
 40
2.0
  1
第三角法
 41
1.102941176470587
  7
EXCADSTD
 72
     5
 11
242.3585925051848
 21
13.42737767543929
 31
0.0
100
AcDbText
  0
TEXT
  5
7F
330
65
100
AcDbEntity
  8
図枠細線
  6
Continuous
 62
   252
100
AcDbText
 10
212.3585925051848
 20
28.42737767543929
 30
0.0
 40
2.0
  1
ＮＯＴＥ
 41
0.9230769230769231
  7
EXCADSTD
 72
     5
 11
220.3585925051848
 21
28.42737767543929
 31
0.0
100
AcDbText
  0
LINE
  5
80
330
65
100
AcDbEntity
  8
図枠細線
  6
Continuous
 62
   252
100
AcDbLine
 10
287.8585925051848
 20
23.42737567543929
 30
0.0
 11
344.8585925051848
 21
23.42737567543929
 31
0.0
  0
LINE
  5
81
330
65
100
AcDbEntity
  8
図枠太線
  6
Continuous
 62
   251
100
AcDbLine
 10
287.8585845051848
 20
15.92737567543929
 30
0.0
 11
344.8585925051848
 21
15.92737567543929
 31
0.0
  0
LINE
  5
82
330
65
100
AcDbEntity
  8
図枠細線
  6
Continuous
 62
   252
100
AcDbLine
 10
344.8585925051848
 20
15.92737567543929
 30
0.0
 11
401.8585845051847
 21
15.92737567543929
 31
0.0
  0
LINE
  5
83
330
65
100
AcDbEntity
  8
図枠太線
  6
Continuous
 62
   251
100
AcDbLine
 10
344.8585925051848
 20
0.9273776754392883
 30
0.0
 11
344.8585925051848
 21
30.9273756754393
 31
0.0
  0
LINE
  5
84
330
65
100
AcDbEntity
  8
図枠太線
  6
Continuous
 62
   251
100
AcDbLine
 10
287.8585925051848
 20
0.9273776754392883
 30
0.0
 11
287.8585925051848
 21
30.9273756754393
 31
0.0
  0
LINE
  5
85
330
65
100
AcDbEntity
  8
図枠細線
  6
Continuous
 62
   252
100
AcDbLine
 10
268.8585925051848
 20
0.9273776754392883
 30
0.0
 11
268.8585925051848
 21
15.92737567543929
 31
0.0
  0
LINE
  5
86
330
65
100
AcDbEntity
  8
図枠細線
  6
Continuous
 62
   252
100
AcDbLine
 10
250.8585925051848
 20
0.9273776754392883
 30
0.0
 11
250.8585925051848
 21
15.92737567543929
 31
0.0
  0
LINE
  5
87
330
65
100
AcDbEntity
  8
図枠細線
  6
Continuous
 62
   252
100
AcDbLine
 10
273.8585925051848
 20
30.9273756754393
 30
0.0
 11
273.8585925051848
 21
15.92737567543929
 31
0.0
  0
LINE
  5
88
330
65
100
AcDbEntity
  8
図枠細線
  6
Continuous
 62
   252
100
AcDbLine
 10
259.8585925051848
 20
30.9273756754393
 30
0.0
 11
259.8585925051848
 21
15.92737567543929
 31
0.0
  0
LINE
  5
89
330
65
100
AcDbEntity
  8
図枠細線
  6
Continuous
 62
   252
100
AcDbLine
 10
245.8585925051848
 20
30.9273756754393
 30
0.0
 11
245.8585925051848
 21
15.92737567543929
 31
0.0
  0
LINE
  5
8A
330
65
100
AcDbEntity
  8
図枠太線
  6
Continuous
 62
   251
100
AcDbLine
 10
231.8585925051848
 20
0.9273776754392883
 30
0.0
 11
231.8585925051848
 21
30.9273756754393
 31
0.0
  0
LINE
  5
8B
330
65
100
AcDbEntity
  8
図枠細線
  6
Continuous
 62
   252
100
AcDbLine
 10
211.8585925051848
 20
25.9273756754393
 30
0.0
 11
231.8585925051848
 21
25.9273756754393
 31
0.0
  0
LINE
  5
8C
330
65
100
AcDbEntity
  8
図枠細線
  6
Continuous
 62
   252
100
AcDbLine
 10
211.8585925051848
 20
20.92737567543929
 30
0.0
 11
231.8585925051848
 21
20.92737567543929
 31
0.0
  0
LINE
  5
8D
330
65
100
AcDbEntity
  8
図枠細線
  6
Continuous
 62
   252
100
AcDbLine
 10
211.8585925051848
 20
10.92737567543929
 30
0.0
 11
231.8585925051848
 21
10.92737567543929
 31
0.0
  0
LINE
  5
8E
330
65
100
AcDbEntity
  8
図枠細線
  6
Continuous
 62
   252
100
AcDbLine
 10
211.8585925051848
 20
5.927377675439288
 30
0.0
 11
231.8585925051848
 21
5.927377675439288
 31
0.0
  0
LINE
  5
8F
330
65
100
AcDbEntity
  8
図枠太線
  6
Continuous
 62
   251
100
AcDbLine
 10
211.8585925051848
 20
30.9273756754393
 30
0.0
 11
401.8585845051847
 21
30.9273756754393
 31
0.0
  0
LINE
  5
90
330
65
100
AcDbEntity
  8
図枠太線
  6
Continuous
 62
   251
100
AcDbLine
 10
1.858584505184808
 20
275.9273756754393
 30
0.0
 11
401.8585845051847
 21
275.9273756754393
 31
0.0
  0
LINE
  5
91
330
65
100
AcDbEntity
  8
図枠太線
  6
Continuous
 62
   251
100
AcDbLine
 10
401.8585845051847
 20
0.9273756754392934
 30
0.0
 11
401.8585845051847
 21
275.9273756754393
 31
0.0
  0
LINE
  5
92
330
65
100
AcDbEntity
  8
図枠太線
  6
Continuous
 62
   251
100
AcDbLine
 10
1.858584505184808
 20
0.9273756754392934
 30
0.0
 11
401.8585845051847
 21
0.9273756754392934
 31
0.0
  0
ENDBLK
  5
94
330
65
100
AcDbEntity
  8
0
100
AcDbBlockEnd
  0
BLOCK
  5
29C0
330
29BF
100
AcDbEntity
  8
0
100
AcDbBlockBegin
  2
A4横用　タイトル
 70
     0
 10
0.0
 20
0.0
 30
0.0
  3
A4横用　タイトル
  1

  0
LINE
  5
29C1
330
29BF
100
AcDbEntity
  8
図枠細線
  6
Continuous
100
AcDbLine
 10
75.06101107105076
 20
16.80660725335804
 30
0.0
 11
144.0610110710507
 21
16.80660478907234
 31
0.0
  0
LINE
  5
29C2
330
29BF
100
AcDbEntity
  8
図枠細線
  6
Continuous
 62
   252
100
AcDbLine
 10
4.061011071050756
 20
11.80660625335804
 30
0.0
 11
75.06101107105074
 21
11.80660625335804
 31
0.0
  0
LINE
  5
29C3
330
29BF
100
AcDbEntity
  8
図枠細線
  6
Continuous
 62
   252
100
AcDbLine
 10
4.061011071050756
 20
21.80660625335804
 30
0.0
 11
75.06101107105074
 21
21.80660625335805
 31
0.0
  0
LINE
  5
29C4
330
29BF
100
AcDbEntity
  8
図枠細線
  6
Continuous
 62
   252
100
AcDbLine
 10
4.061011071050756
 20
26.80660625335804
 30
0.0
 11
75.06101107105074
 21
26.80660625335804
 31
0.0
  0
LINE
  5
29C5
330
29BF
100
AcDbEntity
  8
図枠細線
  6
Continuous
100
AcDbLine
 10
4.061011071050756
 20
16.80660825335803
 30
0.0
 11
75.06101107105074
 21
16.80660825335803
 31
0.0
  0
TEXT
  5
29C6
330
29BF
100
AcDbEntity
  8
図枠細線
  6
Continuous
 62
   252
100
AcDbText
 10
76.40547582771296
 20
9.560308253358016
 30
0.0
 40
2.0
  1
ＴＨＩＲＤ　ＡＮＧＬＥ
 41
0.6910994867379731
  7
EXCADSTD
 72
     5
 11
94.00547608997333
 21
9.560308253358016
 31
0.0
100
AcDbText
  0
TEXT
  5
29C7
330
29BF
100
AcDbEntity
  8
図枠細線
  6
Continuous
 62
   252
100
AcDbText
 10
76.70577588092118
 20
14.30660825335803
 30
0.0
 40
2.0
  1
第三角法
 41
1.102941176470587
  7
EXCADSTD
 72
     5
 11
86.70577588092118
 21
14.30660825335803
 31
0.0
100
AcDbText
  0
TEXT
  5
29C8
330
29BF
100
AcDbEntity
  8
図枠細線
  6
Continuous
 62
   252
100
AcDbText
 10
76.70577588092118
 20
26.80660825335804
 30
0.0
 40
2.0
  1
ＡＰＰＲＯＶＥＤ
 41
0.6956521842790683
  7
EXCADSTD
 72
     5
 11
89.50577607165604
 21
26.80660825335804
 31
0.0
100
AcDbText
  0
TEXT
  5
29C9
330
29BF
100
AcDbEntity
  8
図枠細線
  6
Continuous
 62
   252
100
AcDbText
 10
76.70577588092118
 20
29.30660825335804
 30
0.0
 40
2.0
  1
承認
 41
1.171875
  7
EXCADSTD
 72
     5
 11
81.70577588092118
 21
29.30660825335804
 31
0.0
100
AcDbText
  0
LINE
  5
29CA
330
29BF
100
AcDbEntity
  8
図枠細線
  6
Continuous
 62
   252
100
AcDbLine
 10
98.06101107105076
 20
31.80660625335804
 30
0.0
 11
98.06101107105076
 21
16.80660625335804
 31
0.0
  0
TEXT
  5
29CB
330
29BF
100
AcDbEntity
  8
図枠細線
  6
Continuous
 62
   252
100
AcDbText
 10
104.2165311198036
 20
14.30660825335803
 30
0.0
 40
2.0
  1
ＳＣＡＬＥ
 41
0.9036144578313253
  7
EXCADSTD
 72
     5
 11
114.2165311198036
 21
14.30660825335803
 31
0.0
100
AcDbText
  0
TEXT
  5
29CC
330
29BF
100
AcDbEntity
  8
図枠細線
  6
Continuous
 62
   252
100
AcDbText
 10
98.84404411980364
 20
14.30660825335803
 30
0.0
 40
2.0
  1
尺度
 41
1.171874999999999
  7
EXCADSTD
 72
     5
 11
103.8440441198036
 21
14.30660825335803
 31
0.0
100
AcDbText
  0
TEXT
  5
29CD
330
29BF
100
AcDbEntity
  8
図枠細線
  6
Continuous
 62
   252
100
AcDbText
 10
98.96872770749741
 20
26.80660825335804
 30
0.0
 40
2.0
  1
ＣＨＥＣＫＥＤ
 41
0.8312499895691873
  7
EXCADSTD
 72
     5
 11
112.2687275406044
 21
26.80660825335804
 31
0.0
100
AcDbText
  0
TEXT
  5
29CE
330
29BF
100
AcDbEntity
  8
図枠細線
  6
Continuous
 62
   252
100
AcDbText
 10
98.96872770749741
 20
29.30660825335804
 30
0.0
 40
2.0
  1
検図
 41
1.209677419354838
  7
EXCADSTD
 72
     5
 11
103.9687277074974
 21
29.30660825335804
 31
0.0
100
AcDbText
  0
LINE
  5
29CF
330
29BF
100
AcDbEntity
  8
図枠細線
  6
Continuous
 62
   252
100
AcDbLine
 10
121.0610110710507
 20
31.80660625335806
 30
0.0
 11
121.0610110710507
 21
16.80660625335805
 31
0.0
  0
TEXT
  5
29D0
330
29BF
100
AcDbEntity
  8
図枠細線
  6
Continuous
 62
   252
100
AcDbText
 10
128.0014652472527
 20
14.30660825335803
 30
0.0
 40
2.0
  1
ＤＡＴＥ
 41
0.9230769230769231
  7
EXCADSTD
 72
     5
 11
136.0014652472527
 21
14.30660825335803
 31
0.0
100
AcDbText
  0
TEXT
  5
29D1
330
29BF
100
AcDbEntity
  8
図枠細線
  6
Continuous
 62
   252
100
AcDbText
 10
122.0664154988409
 20
14.30660825335803
 30
0.0
 40
2.0
  1
日付
 41
1.171875
  7
EXCADSTD
 72
     5
 11
127.0664154988409
 21
14.30660825335803
 31
0.0
100
AcDbText
  0
TEXT
  5
29D2
330
29BF
100
AcDbEntity
  8
図枠細線
  6
Continuous
 62
   252
100
AcDbText
 10
121.5942940657102
 20
29.30660825335804
 30
0.0
 40
2.0
  1
製図
 41
1.209677419354838
  7
EXCADSTD
 72
     5
 11
126.5942940657102
 21
29.30660825335804
 31
0.0
100
AcDbText
  0
TEXT
  5
29D3
330
29BF
100
AcDbEntity
  8
図枠細線
  6
Continuous
 62
   252
100
AcDbText
 10
121.5942940657102
 20
26.80660825335804
 30
0.0
 40
2.0
  1
ＤＲＡＷＮ
 41
0.8823529411764708
  7
EXCADSTD
 72
     5
 11
131.5942940657102
 21
26.80660825335804
 31
0.0
100
AcDbText
  0
TEXT
  5
29D4
330
29BF
100
AcDbEntity
  8
図枠細線
  6
Continuous
 62
   252
100
AcDbText
 10
226.5912296613477
 20
14.30660825335803
 30
0.0
 40
2.0
  1
ＤＲＧ．ＮＯ．
 41
0.9375
  7
EXCADSTD
 72
     5
 11
240.5912296613478
 21
14.30660825335803
 31
0.0
100
AcDbText
  0
LINE
  5
29D5
330
29BF
100
AcDbEntity
  8
図枠太線
  6
Continuous
 62
   251
100
AcDbLine
 10
144.0610030710507
 20
16.80660625335804
 30
0.0
 11
214.0610110710508
 21
16.80660625335804
 31
0.0
  0
LINE
  5
29D6
330
29BF
100
AcDbEntity
  8
図枠細線
  6
Continuous
 62
   252
100
AcDbLine
 10
144.0610110710507
 20
24.30660625335804
 30
0.0
 11
214.0610110710508
 21
24.30660625335804
 31
0.0
  0
TEXT
  5
29D7
330
29BF
100
AcDbEntity
  8
図枠ロゴマーク
  6
Continuous
 62
   253
100
AcDbText
 10
146.4337767815963
 20
8.399000253358053
 30
0.0
 40
7.0
  1
東和制電工業株式会社
 41
0.8036108846195519
  7
EXCADSTD
 72
     5
 11
212.4370174383488
 21
8.399000253358053
 31
0.0
100
AcDbText
  0
TEXT
  5
29D8
330
29BF
100
AcDbEntity
  8
図枠細線
  6
Continuous
 62
   252
100
AcDbText
 10
215.156179912936
 20
14.30660825335803
 30
0.0
 40
2.0
  1
図面番号
 41
1.102941176470588
  7
EXCADSTD
 72
     5
 11
225.156179912936
 21
14.30660825335803
 31
0.0
100
AcDbText
  0
TEXT
  5
29D9
330
29BF
100
AcDbEntity
  8
図枠細線
  6
Continuous
 62
   252
100
AcDbText
 10
221.5912296613478
 20
29.30660825335804
 30
0.0
 40
2.0
  1
ＴＩＴＬＥ
 41
0.9036144578313251
  7
EXCADSTD
 72
     5
 11
231.5912296613477
 21
29.30660825335804
 31
0.0
100
AcDbText
  0
TEXT
  5
29DA
330
29BF
100
AcDbEntity
  8
図枠細線
  6
Continuous
 62
   252
100
AcDbText
 10
215.156179912936
 20
29.30660825335804
 30
0.0
 40
2.0
  1
名称
 41
1.171875
  7
EXCADSTD
 72
     5
 11
220.156179912936
 21
29.30660825335804
 31
0.0
100
AcDbText
  0
LINE
  5
29DB
330
29BF
100
AcDbEntity
  8
図枠太線
  6
Continuous
 62
   251
100
AcDbLine
 10
4.061011071050756
 20
1.806608253358035
 30
0.0
 11
284.0610110710508
 21
1.806608253358035
 31
0.0
  0
LINE
  5
29DC
330
29BF
100
AcDbEntity
  8
図枠細線
  6
Continuous
 62
   252
100
AcDbLine
 10
4.061011071050756
 20
6.806608253358035
 30
0.0
 11
75.06101107105074
 21
6.806608253358035
 31
0.0
  0
LINE
  5
29DD
330
29BF
100
AcDbEntity
  8
図枠太線
  6
Continuous
 62
   251
100
AcDbLine
 10
75.06101107105076
 20
1.806608253358042
 30
0.0
 11
75.06101107105076
 21
31.80660625335805
 31
0.0
  0
TEXT
  5
29DE
330
29BF
100
AcDbEntity
  8
図枠細線
  6
Continuous
 62
   252
100
AcDbText
 10
76.33055182771295
 20
6.638319253358019
 30
0.0
 40
2.0
  1
ＰＲＯＪＥＣＴＩＯＮ
 41
0.7542857101985412
  7
EXCADSTD
 72
     5
 11
93.93055173234557
 21
6.638319253358019
 31
0.0
100
AcDbText
  0
LINE
  5
29DF
330
29BF
100
AcDbEntity
  8
図枠細線
  6
Continuous
 62
   252
100
AcDbLine
 10
98.06101107105076
 20
1.806606931929469
 30
0.0
 11
98.06101107105076
 21
16.80660493192947
 31
0.0
  0
LINE
  5
29E0
330
29BF
100
AcDbEntity
  8
図枠細線
  6
Continuous
 62
   252
100
AcDbLine
 10
121.0610110710507
 20
1.806607574786621
 30
0.0
 11
121.0610110710507
 21
16.80660557478663
 31
0.0
  0
LINE
  5
29E1
330
29BF
100
AcDbEntity
  8
図枠太線
  6
Continuous
 62
   251
100
AcDbLine
 10
284.0610110710508
 20
1.806608253358035
 30
0.0
 11
284.0610110710508
 21
31.80660625335804
 31
0.0
  0
LINE
  5
29E2
330
29BF
100
AcDbEntity
  8
図枠細線
  6
Continuous
 62
   252
100
AcDbLine
 10
214.0610110710508
 20
16.80660625335804
 30
0.0
 11
284.0610110710508
 21
16.80660625335804
 31
0.0
  0
TEXT
  5
29E3
330
29BF
100
AcDbEntity
  8
図枠細線
  6
Continuous
 62
   252
100
AcDbText
 10
146.1995936761824
 20
3.454099253358037
 30
0.0
 40
3.5
  1
ＴＯＷＡ　ＳＥＩＤＥＮ　ＩＮＤＵＳＴＲＩＡＬ　ＣＯ．，ＬＴＤ．
 41
0.5289378269070804
  7
EXCADSTD
 72
     5
 11
213.3394351715878
 21
3.454099253358037
 31
0.0
100
AcDbText
  0
LINE
  5
29E4
330
29BF
100
AcDbEntity
  8
図枠太線
  6
Continuous
 62
   251
100
AcDbLine
 10
144.0610110710507
 20
1.806608253358035
 30
0.0
 11
144.0610110710507
 21
31.80660625335804
 31
0.0
  0
LINE
  5
29E5
330
29BF
100
AcDbEntity
  8
図枠太線
  6
Continuous
 62
   251
100
AcDbLine
 10
214.0610110710508
 20
1.806608253358035
 30
0.0
 11
214.0610110710508
 21
31.80660625335804
 31
0.0
  0
MTEXT
  5
29E6
330
29BF
100
AcDbEntity
  8
図枠太線
100
AcDbMText
 10
5.064337346478396
 20
31.0109821374075
 30
0.0
 40
2.5
 41
8.678560984720206
 71
     1
 72
     5
  1
{\Fmonotxt.shx,bigfont.shx|c128;図暦}
 73
     1
 44
1.0
  0
LINE
  5
29E7
330
29BF
100
AcDbEntity
  8
図枠太線
  6
Continuous
 62
   251
100
AcDbLine
 10
4.061011071050756
 20
1.806608253358035
 30
0.0
 11
4.061011071050756
 21
31.80660625335804
 31
0.0
  0
TEXT
  5
29E8
330
29BF
100
AcDbEntity
  8
図枠細線
 48
10.0
100
AcDbText
 10
12.26081742040207
 20
28.62541962649539
 30
0.0
 40
2.0
  1
CHANGE NOTICE
100
AcDbText
  0
ENDBLK
  5
29E9
330
29BF
100
AcDbEntity
  8
0
100
AcDbBlockEnd
  0
BLOCK
  5
29F5
330
29F4
100
AcDbEntity
  8
0
100
AcDbBlockBegin
  2
A4縦用　タイトル
 70
     0
 10
0.0
 20
0.0
 30
0.0
  3
A4縦用　タイトル
  1

  0
LINE
  5
29F6
330
29F4
100
AcDbEntity
  8
図枠太線
  6
Continuous
 62
   251
100
AcDbLine
 10
2.36825386426733
 20
4.525433224583935
 30
0.0
 11
192.3682458642673
 21
4.525433224583935
 31
0.0
  0
LINE
  5
29F7
330
29F4
100
AcDbEntity
  8
図枠太線
  6
Continuous
 62
   251
100
AcDbLine
 10
78.36824586426729
 20
19.52543122458394
 30
0.0
 11
135.3682538642673
 21
19.52543122458394
 31
0.0
  0
LINE
  5
29F8
330
29F4
100
AcDbEntity
  8
図枠細線
  6
Continuous
 62
   252
100
AcDbLine
 10
78.36825386426733
 20
27.02543122458394
 30
0.0
 11
135.3682538642673
 21
27.02543122458394
 31
0.0
  0
TEXT
  5
29F9
330
29F4
100
AcDbEntity
  8
図枠ロゴマーク
  6
Continuous
 62
   253
100
AcDbText
 10
80.61700986426728
 20
11.11782522458395
 30
0.0
 40
7.0
  1
東和制電工業株式会社
 41
0.6392045454545461
  7
EXCADSTD
 72
     5
 11
133.1170098642673
 21
11.11782522458395
 31
0.0
100
AcDbText
  0
TEXT
  5
29FA
330
29F4
100
AcDbEntity
  8
図枠細線
  6
Continuous
 62
   252
100
AcDbText
 10
80.57954986426727
 20
6.172924224583937
 30
0.0
 40
3.5
  1
ＴＯＷＡ　ＳＥＩＤＥＮ　ＩＮＤＵＳＴＲＩＡＬ　ＣＯ．，ＬＴＤ．
 41
0.4145680123767934
  7
EXCADSTD
 72
     5
 11
133.2020495686283
 21
6.172924224583937
 31
0.0
100
AcDbText
  0
LINE
  5
29FB
330
29F4
100
AcDbEntity
  8
図枠太線
  6
Continuous
 62
   251
100
AcDbLine
 10
2.36825386426733
 20
4.525433224583935
 30
0.0
 11
2.36825386426733
 21
34.52543122458394
 31
0.0
  0
TEXT
  5
29FC
330
29F4
100
AcDbEntity
  8
図枠細線
  6
Continuous
 62
   252
100
AcDbText
 10
22.50430813650149
 20
12.27913322458391
 30
0.0
 40
2.0
  1
ＴＨＩＲＤ　ＡＮＧＬＥ
 41
0.6910994867379731
  7
EXCADSTD
 72
     5
 11
40.10430839876187
 21
12.27913322458391
 31
0.0
100
AcDbText
  0
TEXT
  5
29FD
330
29F4
100
AcDbEntity
  8
図枠細線
  6
Continuous
 62
   252
100
AcDbText
 10
22.42938413650148
 20
9.357144224583919
 30
0.0
 40
2.0
  1
ＰＲＯＪＥＣＴＩＯＮ
 41
0.7542857101985414
  7
EXCADSTD
 72
     5
 11
40.0293840411341
 21
9.357144224583919
 31
0.0
100
AcDbText
  0
LINE
  5
29FE
330
29F4
100
AcDbEntity
  8
図枠細線
  6
Continuous
100
AcDbLine
 10
22.36825386426733
 20
19.52543322458393
 30
0.0
 11
78.36825386426733
 21
19.52543122458394
 31
0.0
  0
TEXT
  5
29FF
330
29F4
100
AcDbEntity
  8
図枠細線
  6
Continuous
 62
   252
100
AcDbText
 10
22.86825386426733
 20
17.02543322458393
 30
0.0
 40
2.0
  1
第三角法
 41
1.102941176470588
  7
EXCADSTD
 72
     5
 11
32.86825386426733
 21
17.02543322458393
 31
0.0
100
AcDbText
  0
TEXT
  5
2A00
330
29F4
100
AcDbEntity
  8
図枠細線
  6
Continuous
 62
   252
100
AcDbText
 10
22.86825386426733
 20
29.52543322458394
 30
0.0
 40
2.0
  1
ＡＰＰＲＯＶＥＤ
 41
0.6956521842790688
  7
EXCADSTD
 72
     5
 11
35.6682540550022
 21
29.52543322458394
 31
0.0
100
AcDbText
  0
LINE
  5
2A01
330
29F4
100
AcDbEntity
  8
図枠細線
  6
Continuous
 62
   252
100
AcDbLine
 10
2.36825386426733
 20
9.525433224583935
 30
0.0
 11
22.36825386426733
 21
9.525433224583935
 31
0.0
  0
LINE
  5
2A02
330
29F4
100
AcDbEntity
  8
図枠細線
  6
Continuous
 62
   252
100
AcDbLine
 10
2.36825386426733
 20
14.52543122458394
 30
0.0
 11
22.36825386426733
 21
14.52543122458394
 31
0.0
  0
LINE
  5
2A03
330
29F4
100
AcDbEntity
  8
図枠細線
  6
Continuous
 62
   252
100
AcDbLine
 10
2.36825386426733
 20
24.52543122458394
 30
0.0
 11
22.36825386426733
 21
24.52543122458394
 31
0.0
  0
LINE
  5
2A04
330
29F4
100
AcDbEntity
  8
図枠細線
  6
Continuous
 62
   252
100
AcDbLine
 10
2.36825386426733
 20
29.52543122458394
 30
0.0
 11
22.36825386426733
 21
29.52543122458394
 31
0.0
  0
LINE
  5
2A05
330
29F4
100
AcDbEntity
  8
図枠細線
  6
Continuous
100
AcDbLine
 10
2.36825386426733
 20
19.52543322458393
 30
0.0
 11
22.36825386426733
 21
19.52543322458393
 31
0.0
  0
TEXT
  5
2A06
330
29F4
100
AcDbEntity
  8
図枠細線
  6
Continuous
 62
   252
100
AcDbText
 10
2.86825386426733
 20
32.02543322458394
 30
0.0
 40
2.0
  1
ＮＯＴＥ
 41
0.9230769230769231
  7
EXCADSTD
 72
     5
 11
10.86825386426733
 21
32.02543322458394
 31
0.0
100
AcDbText
  0
LINE
  5
2A07
330
29F4
100
AcDbEntity
  8
図枠太線
  6
Continuous
 62
   251
100
AcDbLine
 10
22.36825386426733
 20
4.525433224583935
 30
0.0
 11
22.36825386426733
 21
34.52543122458394
 31
0.0
  0
TEXT
  5
2A08
330
29F4
100
AcDbEntity
  8
図枠細線
  6
Continuous
 62
   252
100
AcDbText
 10
22.86825386426733
 20
32.02543322458394
 30
0.0
 40
2.0
  1
承認
 41
1.171875
  7
EXCADSTD
 72
     5
 11
27.86825386426733
 21
32.02543322458394
 31
0.0
100
AcDbText
  0
TEXT
  5
2A09
330
29F4
100
AcDbEntity
  8
図枠細線
  6
Continuous
 62
   252
100
AcDbText
 10
60.7117090359817
 20
32.02543322458394
 30
0.0
 40
2.0
  1
製図
 41
1.209677419354838
  7
EXCADSTD
 72
     5
 11
65.7117090359817
 21
32.02543322458394
 31
0.0
100
AcDbText
  0
TEXT
  5
2A0A
330
29F4
100
AcDbEntity
  8
図枠細線
  6
Continuous
 62
   252
100
AcDbText
 10
60.7117090359817
 20
29.52543322458394
 30
0.0
 40
2.0
  1
ＤＲＡＷＮ
 41
0.8823529411764708
  7
EXCADSTD
 72
     5
 11
70.7117090359817
 21
29.52543322458394
 31
0.0
100
AcDbText
  0
TEXT
  5
2A0B
330
29F4
100
AcDbEntity
  8
図枠細線
  6
Continuous
 62
   252
100
AcDbText
 10
60.83489174387716
 20
17.02543322458393
 30
0.0
 40
2.0
  1
日付
 41
1.171875
  7
EXCADSTD
 72
     5
 11
65.83489174387716
 21
17.02543322458393
 31
0.0
100
AcDbText
  0
TEXT
  5
2A0C
330
29F4
100
AcDbEntity
  8
図枠細線
  6
Continuous
 62
   252
100
AcDbText
 10
47.33366086426729
 20
17.02543322458393
 30
0.0
 40
2.0
  1
ＳＣＡＬＥ
 41
0.9036144578313253
  7
EXCADSTD
 72
     5
 11
57.3336608642673
 21
17.02543322458393
 31
0.0
100
AcDbText
  0
TEXT
  5
2A0D
330
29F4
100
AcDbEntity
  8
図枠細線
  6
Continuous
 62
   252
100
AcDbText
 10
42.28142599008208
 20
29.52543322458394
 30
0.0
 40
2.0
  1
ＣＨＥＣＫＥＤ
 41
0.8312499895691873
  7
EXCADSTD
 72
     5
 11
55.58142582318907
 21
29.52543322458394
 31
0.0
100
AcDbText
  0
LINE
  5
2A0E
330
29F4
100
AcDbEntity
  8
図枠細線
  6
Continuous
 62
   252
100
AcDbLine
 10
40.96825386426733
 20
34.52543122458394
 30
0.0
 11
40.96825386426733
 21
19.52543122458394
 31
0.0
  0
LINE
  5
2A0F
330
29F4
100
AcDbEntity
  8
図枠細線
  6
Continuous
 62
   252
100
AcDbLine
 10
40.96825386426733
 20
4.525433224583935
 30
0.0
 11
40.96825386426733
 21
19.52543122458394
 31
0.0
  0
TEXT
  5
2A10
330
29F4
100
AcDbEntity
  8
図枠細線
  6
Continuous
 62
   252
100
AcDbText
 10
41.96117386426727
 20
17.02543322458393
 30
0.0
 40
2.0
  1
尺度
 41
1.171874999999999
  7
EXCADSTD
 72
     5
 11
46.96117386426727
 21
17.02543322458393
 31
0.0
100
AcDbText
  0
TEXT
  5
2A11
330
29F4
100
AcDbEntity
  8
図枠細線
  6
Continuous
 62
   252
100
AcDbText
 10
42.28142599008208
 20
32.02543322458394
 30
0.0
 40
2.0
  1
検図
 41
1.209677419354838
  7
EXCADSTD
 72
     5
 11
47.28142599008208
 21
32.02543322458394
 31
0.0
100
AcDbText
  0
LINE
  5
2A12
330
29F4
100
AcDbEntity
  8
図枠細線
  6
Continuous
 62
   252
100
AcDbLine
 10
59.76825386426733
 20
34.52543122458394
 30
0.0
 11
59.76825386426733
 21
19.52543122458394
 31
0.0
  0
LINE
  5
2A13
330
29F4
100
AcDbEntity
  8
図枠細線
  6
Continuous
 62
   252
100
AcDbLine
 10
59.76825386426733
 20
4.525433224583935
 30
0.0
 11
59.76825386426733
 21
19.52543122458394
 31
0.0
  0
LINE
  5
2A14
330
29F4
100
AcDbEntity
  8
図枠太線
  6
Continuous
 62
   251
100
AcDbLine
 10
78.36825386426733
 20
4.525433224583935
 30
0.0
 11
78.36825386426733
 21
34.52543122458394
 31
0.0
  0
TEXT
  5
2A15
330
29F4
100
AcDbEntity
  8
図枠細線
  6
Continuous
 62
   252
100
AcDbText
 10
66.33489174387716
 20
17.02543322458393
 30
0.0
 40
2.0
  1
ＤＡＴＥ
 41
0.9230769230769231
  7
EXCADSTD
 72
     5
 11
74.33489174387716
 21
17.02543322458393
 31
0.0
100
AcDbText
  0
LINE
  5
2A16
330
29F4
100
AcDbEntity
  8
図枠細線
  6
Continuous
 62
   252
100
AcDbLine
 10
135.3682538642673
 20
19.52543122458394
 30
0.0
 11
192.3682458642673
 21
19.52543122458394
 31
0.0
  0
TEXT
  5
2A17
330
29F4
100
AcDbEntity
  8
図枠細線
  6
Continuous
 62
   252
100
AcDbText
 10
141.8682538642673
 20
32.02543322458394
 30
0.0
 40
2.0
  1
ＴＩＴＬＥ
 41
0.9036144578313251
  7
EXCADSTD
 72
     5
 11
151.8682538642673
 21
32.02543322458394
 31
0.0
100
AcDbText
  0
LINE
  5
2A18
330
29F4
100
AcDbEntity
  8
図枠太線
  6
Continuous
 62
   251
100
AcDbLine
 10
135.3682538642673
 20
4.525433224583935
 30
0.0
 11
135.3682538642673
 21
34.52543122458394
 31
0.0
  0
TEXT
  5
2A19
330
29F4
100
AcDbEntity
  8
図枠細線
  6
Continuous
 62
   252
100
AcDbText
 10
135.8682538642673
 20
17.02543322458393
 30
0.0
 40
2.0
  1
図面番号
 41
1.102941176470588
  7
EXCADSTD
 72
     5
 11
145.8682538642673
 21
17.02543322458393
 31
0.0
100
AcDbText
  0
TEXT
  5
2A1A
330
29F4
100
AcDbEntity
  8
図枠細線
  6
Continuous
 62
   252
100
AcDbText
 10
135.8682538642673
 20
32.02543322458394
 30
0.0
 40
2.0
  1
名称
 41
1.171875
  7
EXCADSTD
 72
     5
 11
140.8682538642673
 21
32.02543322458394
 31
0.0
100
AcDbText
  0
TEXT
  5
2A1B
330
29F4
100
AcDbEntity
  8
図枠細線
  6
Continuous
 62
   252
100
AcDbText
 10
146.8682538642673
 20
17.02543322458393
 30
0.0
 40
2.0
  1
ＤＲＧ．ＮＯ．
 41
0.9375
  7
EXCADSTD
 72
     5
 11
160.8682538642673
 21
17.02543322458393
 31
0.0
100
AcDbText
  0
LINE
  5
2A1C
330
29F4
100
AcDbEntity
  8
図枠太線
  6
Continuous
 62
   251
100
AcDbLine
 10
192.3682458642673
 20
4.525433224583935
 30
0.0
 11
192.3682458642673
 21
34.52543122458394
 31
0.0
  0
ENDBLK
  5
2A1D
330
29F4
100
AcDbEntity
  8
0
100
AcDbBlockEnd
  0
BLOCK
  5
2A33
330
2A32
100
AcDbEntity
  8
0
100
AcDbBlockBegin
  2
A3横用　タイトル
 70
     0
 10
0.0
 20
0.0
 30
0.0
  3
A3横用　タイトル
  1

  0
LINE
  5
2A34
330
2A32
100
AcDbEntity
  8
図枠細線
  6
Continuous
 62
   252
100
AcDbLine
 10
205.0984145357926
 20
33.52595975352681
 30
0.0
 11
305.0984145357926
 21
33.52595975352681
 31
0.0
  0
LINE
  5
2A35
330
2A32
100
AcDbEntity
  8
図枠太線
  6
Continuous
 62
   251
100
AcDbLine
 10
205.0984145357927
 20
23.52595975352683
 30
0.0
 11
305.0984145357926
 21
23.52595975352683
 31
0.0
  0
LINE
  5
2A36
330
2A32
100
AcDbEntity
  8
図枠細線
  6
Continuous
100
AcDbLine
 10
5.098414535792699
 20
23.52595975352683
 30
0.0
 11
105.0984145357927
 21
23.52595975352683
 31
0.0
  0
LINE
  5
2A37
330
2A32
100
AcDbEntity
  8
図枠細線
  6
Continuous
 62
   252
100
AcDbLine
 10
5.098414535792702
 20
36.72595775352683
 30
0.0
 11
105.0984145357927
 21
36.72595775352683
 31
0.0
  0
LINE
  5
2A38
330
2A32
100
AcDbEntity
  8
図枠細線
  6
Continuous
 62
   252
100
AcDbLine
 10
5.098414535792699
 20
30.12595775352683
 30
0.0
 11
105.0984145357927
 21
30.12595775352683
 31
0.0
  0
LINE
  5
2A39
330
2A32
100
AcDbEntity
  8
図枠細線
  6
Continuous
 62
   252
100
AcDbLine
 10
5.0984145357927
 20
16.72595975352682
 30
0.0
 11
105.0984145357927
 21
16.72595975352682
 31
0.0
  0
LINE
  5
2A3A
330
2A32
100
AcDbEntity
  8
図枠細線
  6
Continuous
 62
   252
100
AcDbLine
 10
5.098414535792699
 20
10.12595975352682
 30
0.0
 11
105.0984145357927
 21
10.12595975352682
 31
0.0
  0
LINE
  5
2A3B
330
2A32
100
AcDbEntity
  8
図枠細線
  6
Continuous
100
AcDbLine
 10
105.0984145357926
 20
23.52596175352682
 30
0.0
 11
205.0984145357927
 21
23.52595975352683
 31
0.0
  0
LINE
  5
2A3C
330
2A32
100
AcDbEntity
  8
図枠細線
  6
Continuous
 62
   252
100
AcDbLine
 10
138.3984145357926
 20
43.52595975352682
 30
0.0
 11
138.3984145357926
 21
18.52595775352682
 31
0.0
  0
LINE
  5
2A3D
330
2A32
100
AcDbEntity
  8
図枠細線
  6
Continuous
 62
   252
100
AcDbLine
 10
171.6984145357926
 20
43.52595975352682
 30
0.0
 11
171.6984145357926
 21
18.52595775352682
 31
0.0
  0
LINE
  5
2A3E
330
2A32
100
AcDbEntity
  8
図枠細線
  6
Continuous
 62
   252
100
AcDbLine
 10
305.0984145357927
 20
23.52595975352683
 30
0.0
 11
405.0984145357927
 21
23.52595975352681
 31
0.0
  0
TEXT
  5
2A3F
330
2A32
100
AcDbEntity
  8
図枠ロゴマーク
  6
Continuous
 62
   253
100
AcDbText
 10
206.1025092127552
 20
13.29425757054633
 30
0.0
 40
7.0
  1
東和制電工業株式会社
 50
0.016555220184569
 41
1.186384129431804
  7
EXCADSTD
 72
     5
 11
303.5441883091428
 21
13.32241267221695
 31
0.0
100
AcDbText
  0
MTEXT
  5
2A40
330
2A32
100
AcDbEntity
  8
図枠細線
100
AcDbMText
 10
6.356764112374776
 20
41.97659417547754
 30
0.0
 40
2.5
 41
49.93828270629228
 71
     1
 72
     5
  1
{\Fmonotxt.shx,bigfont.shx|c128;図暦　CHANGE　NOTICE}
 73
     1
 44
1.0
  0
MTEXT
  5
2A41
330
2A32
100
AcDbEntity
  8
図枠細線
 48
10.0
100
AcDbMText
 10
306.5441149268283
 20
41.70183580093419
 30
0.0
 40
2.5
 41
28.00280961882254
 71
     1
 72
     5
  1
{\Fmonotxt.shx,bigfont.shx|c128;名称　TITLE}
 73
     1
 44
1.0
  0
MTEXT
  5
2A42
330
2A32
100
AcDbEntity
  8
図枠細線
 48
10.0
100
AcDbMText
 10
307.3296171142835
 20
21.60620679722615
 30
0.0
 40
2.5
 41
24.38561221670716
 71
     1
 72
     5
  1
{\Fmonotxt.shx,bigfont.shx|c128;図面番号\PDRG.　No.}
 73
     1
 44
1.0
  0
MTEXT
  5
2A43
330
2A32
100
AcDbEntity
  8
図枠細線
 48
10.0
100
AcDbMText
 10
173.7263494046087
 20
21.73680662198024
 30
0.0
 40
2.5
 41
25.73509016081289
 71
     1
 72
     5
  1
{\Fmonotxt.shx,bigfont.shx|c128;日付 DATE}
 73
     1
 44
1.0
  0
MTEXT
  5
2A44
330
2A32
100
AcDbEntity
  8
図枠細線
 48
10.0
100
AcDbMText
 10
173.4870883398202
 20
41.62159204499767
 30
0.0
 40
2.5
 41
24.98374118420452
 71
     1
 72
     5
  1
{\Fmonotxt.shx,bigfont.shx|c128;製図　DRAWN}
 73
     1
 44
1.0
  0
MTEXT
  5
2A45
330
2A32
100
AcDbEntity
  8
図枠細線
 48
10.0
100
AcDbMText
 10
139.28009927741
 20
21.8667130698675
 30
0.0
 40
2.5
 41
22.62963291324309
 71
     1
 72
     5
  1
{\Fmonotxt.shx,bigfont.shx|c128;尺度　SCALE}
 73
     1
 44
1.0
  0
MTEXT
  5
2A46
330
2A32
100
AcDbEntity
  8
図枠細線
 48
10.0
100
AcDbMText
 10
139.9100911798348
 20
41.31184041555377
 30
0.0
 40
2.5
 41
28.99875342836845
 71
     1
 72
     5
  1
{\Fmonotxt.shx,bigfont.shx|c128;検図  CHECKED}
 73
     1
 44
1.0
  0
MTEXT
  5
2A47
330
2A32
100
AcDbEntity
  8
図枠細線
 48
10.0
100
AcDbMText
 10
114.2532946677281
 20
21.91612485017367
 30
0.0
 40
3.0
 41
19.69240047538346
 71
     1
 72
     5
  1
{\Fmonotxt.shx,bigfont.shx|c128;第三角法}
 73
     1
 44
1.0
  0
MTEXT
  5
2A48
330
2A32
100
AcDbEntity
  8
図枠細線
 48
10.0
100
AcDbMText
 10
108.9869599299147
 20
15.28288018583657
 30
0.0
 40
2.5
 41
27.95488282354722
 71
     1
 72
     5
  1
{\Fmonotxt.shx,bigfont.shx|c128;THIRD ANGLE\PPROJECTION}
 73
     1
 44
1.0
  0
MTEXT
  5
2A49
330
2A32
100
AcDbEntity
  8
図枠細線
 48
10.0
100
AcDbMText
 10
106.3194326401844
 20
41.51143714548664
 30
0.0
 40
2.5
 41
28.23359526507397
 71
     1
 72
     5
  1
{\Fmonotxt.shx,bigfont.shx|c128;承認 APPROVED}
 73
     1
 44
1.0
  0
LINE
  5
2A4A
330
2A32
100
AcDbEntity
  8
図枠太線
  6
Continuous
 62
   251
100
AcDbLine
 10
5.098414535792699
 20
3.525959753526819
 30
0.0
 11
405.0984145357927
 21
3.525959753526819
 31
0.0
  0
LINE
  5
2A4B
330
2A32
100
AcDbEntity
  8
図枠太線
 48
10.0
100
AcDbLine
 10
5.098414535792699
 20
3.525959753526819
 30
0.0
 11
5.098414535792699
 21
43.52595975352682
 31
0.0
  0
LINE
  5
2A4C
330
2A32
100
AcDbEntity
  8
図枠太線
  6
Continuous
 62
   251
100
AcDbLine
 10
105.0984145357927
 20
3.525959753526819
 30
0.0
 11
105.0984145357927
 21
43.52595975352683
 31
0.0
  0
LINE
  5
2A4D
330
2A32
100
AcDbEntity
  8
図枠細線
  6
Continuous
 62
   252
100
AcDbLine
 10
138.3984145357926
 20
3.525959753526819
 30
0.0
 11
138.3984145357926
 21
18.52595775352682
 31
0.0
  0
LINE
  5
2A4E
330
2A32
100
AcDbEntity
  8
図枠細線
  6
Continuous
 62
   252
100
AcDbLine
 10
171.6984145357926
 20
3.525959753526819
 30
0.0
 11
171.6984145357926
 21
18.52595775352682
 31
0.0
  0
LINE
  5
2A4F
330
2A32
100
AcDbEntity
  8
図枠太線
  6
Continuous
 62
   251
100
AcDbLine
 10
205.0984145357927
 20
3.525959753526819
 30
0.0
 11
205.0984145357927
 21
43.52595975352683
 31
0.0
  0
LINE
  5
2A50
330
2A32
100
AcDbEntity
  8
図枠太線
 48
10.0
100
AcDbLine
 10
405.0984145357927
 20
43.52595975352682
 30
0.0
 11
405.0984145357927
 21
3.525959753526819
 31
0.0
  0
TEXT
  5
2A51
330
2A32
100
AcDbEntity
  8
図枠細線
  6
Continuous
 62
   252
100
AcDbText
 10
208.5197544745715
 20
6.48235840728546
 30
0.0
 40
3.5
  1
ＴＯＷＡ　ＳＥＩＤＥＮ　ＩＮＤＵＳＴＲＩＡＬ　ＣＯ．，ＬＴＤ．
 41
0.7466562975091008
  7
EXCADSTD
 72
     5
 11
303.2953271717267
 21
6.48235840728546
 31
0.0
100
AcDbText
  0
LINE
  5
2A52
330
2A32
100
AcDbEntity
  8
図枠太線
  6
Continuous
 62
   251
100
AcDbLine
 10
305.0984145357927
 20
3.525959753526819
 30
0.0
 11
305.0984145357927
 21
43.52595975352683
 31
0.0
  0
ENDBLK
  5
2A53
330
2A32
100
AcDbEntity
  8
0
100
AcDbBlockEnd
  0
BLOCK
  5
2A6D
330
2A6C
100
AcDbEntity
  8
0
100
AcDbBlockBegin
  2
A3縦用　タイトル
 70
     0
 10
0.0
 20
0.0
 30
0.0
  3
A3縦用　タイトル
  1

  0
MTEXT
  5
2A6E
330
2A6C
100
AcDbEntity
  8
図枠細線
100
AcDbMText
 10
5.040804501592901
 20
31.62609864900492
 30
0.0
 40
2.5
 41
49.93828270629228
 71
     1
 72
     5
  1
{\Fmonotxt.shx,bigfont.shx|c128;図暦　CHANGE　NOTICE}
 73
     1
 44
1.0
  0
LINE
  5
2A6F
330
2A6C
100
AcDbEntity
  8
図枠太線
  6
Continuous
 62
   251
100
AcDbLine
 10
283.5778718829611
 20
2.820844689254272
 30
0.0
 11
283.5778718829611
 21
32.82084268925428
 31
0.0
  0
MTEXT
  5
2A70
330
2A6C
100
AcDbEntity
  8
図枠細線
 48
10.0
100
AcDbMText
 10
214.9124589474543
 20
31.62148863230834
 30
0.0
 40
2.5
 41
28.00280961882254
 71
     1
 72
     5
  1
{\Fmonotxt.shx,bigfont.shx|c128;名称　TITLE}
 73
     1
 44
1.0
  0
MTEXT
  5
2A71
330
2A6C
100
AcDbEntity
  8
図枠細線
 48
10.0
100
AcDbMText
 10
214.740030458938
 20
16.31022579672151
 30
0.0
 40
2.5
 41
24.38561221670716
 71
     1
 72
     5
  1
{\Fmonotxt.shx,bigfont.shx|c128;図面番号\PDRG.　No.}
 73
     1
 44
1.0
  0
LINE
  5
2A72
330
2A6C
100
AcDbEntity
  8
図枠太線
  6
Continuous
 62
   251
100
AcDbLine
 10
213.5778718829611
 20
2.820844689254272
 30
0.0
 11
213.5778718829611
 21
32.82084268925428
 31
0.0
  0
LINE
  5
2A73
330
2A6C
100
AcDbEntity
  8
図枠太線
  6
Continuous
 62
   251
100
AcDbLine
 10
143.577871882961
 20
2.820844689254272
 30
0.0
 11
143.577871882961
 21
32.82084268925428
 31
0.0
  0
TEXT
  5
2A74
330
2A6C
100
AcDbEntity
  8
図枠細線
  6
Continuous
 62
   252
100
AcDbText
 10
145.7164544880927
 20
4.468335689254274
 30
0.0
 40
3.5
  1
ＴＯＷＡ　ＳＥＩＤＥＮ　ＩＮＤＵＳＴＲＩＡＬ　ＣＯ．，ＬＴＤ．
 41
0.5289378269070801
  7
EXCADSTD
 72
     5
 11
212.856295983498
 21
4.468335689254274
 31
0.0
100
AcDbText
  0
TEXT
  5
2A75
330
2A6C
100
AcDbEntity
  8
図枠ロゴマーク
  6
Continuous
 62
   253
100
AcDbText
 10
145.9506375935066
 20
9.41323668925429
 30
0.0
 40
7.0
  1
東和制電工業株式会社
 41
0.8036108846195519
  7
EXCADSTD
 72
     5
 11
211.9538782502591
 21
9.41323668925429
 31
0.0
100
AcDbText
  0
LINE
  5
2A76
330
2A6C
100
AcDbEntity
  8
図枠細線
  6
Continuous
 62
   252
100
AcDbLine
 10
143.577871882961
 20
25.32084268925428
 30
0.0
 11
213.5778718829611
 21
25.32084268925428
 31
0.0
  0
LINE
  5
2A77
330
2A6C
100
AcDbEntity
  8
図枠太線
  6
Continuous
 62
   251
100
AcDbLine
 10
143.577863882961
 20
17.82084268925428
 30
0.0
 11
213.5778718829611
 21
17.82084268925428
 31
0.0
  0
LINE
  5
2A78
330
2A6C
100
AcDbEntity
  8
図枠細線
  6
Continuous
 62
   252
100
AcDbLine
 10
213.5778718829611
 20
17.82084268925428
 30
0.0
 11
283.5778718829611
 21
17.82084268925428
 31
0.0
  0
LINE
  5
2A79
330
2A6C
100
AcDbEntity
  8
図枠細線
  6
Continuous
 62
   252
100
AcDbLine
 10
120.577871882961
 20
32.82084268925429
 30
0.0
 11
120.577871882961
 21
17.82084268925429
 31
0.0
  0
MTEXT
  5
2A7A
330
2A6C
100
AcDbEntity
  8
図枠細線
 48
10.0
100
AcDbMText
 10
121.1008856703524
 20
16.33785922638049
 30
0.0
 40
2.0
 41
17.70597828506834
 71
     1
 72
     5
  1
{\Fmonotxt.shx,bigfont.shx|c128;日付 DATE}
 73
     1
 44
1.0
  0
MTEXT
  5
2A7B
330
2A6C
100
AcDbEntity
  8
図枠細線
 48
10.0
100
AcDbMText
 10
121.254842273491
 20
31.20899351403704
 30
0.0
 40
2.0
 41
18.36379956875839
 71
     1
 72
     5
  1
{\Fmonotxt.shx,bigfont.shx|c128;製図　DRAWN}
 73
     1
 44
1.0
  0
LINE
  5
2A7C
330
2A6C
100
AcDbEntity
  8
図枠細線
  6
Continuous
 62
   252
100
AcDbLine
 10
97.57787188296106
 20
32.82084268925428
 30
0.0
 11
97.57787188296106
 21
17.82084268925428
 31
0.0
  0
MTEXT
  5
2A7D
330
2A6C
100
AcDbEntity
  8
図枠細線
 48
10.0
100
AcDbMText
 10
98.23973479687197
 20
16.46776483928056
 30
0.0
 40
2.0
 41
17.75779168990334
 71
     1
 72
     5
  1
{\Fmonotxt.shx,bigfont.shx|c128;尺度　SCALE}
 73
     1
 44
1.0
  0
MTEXT
  5
2A7E
330
2A6C
100
AcDbEntity
  8
図枠細線
 48
10.0
100
AcDbMText
 10
97.86474462515366
 20
31.29843337766442
 30
0.0
 40
2.0
 41
23.16265592097625
 71
     1
 72
     5
  1
{\Fmonotxt.shx,bigfont.shx|c128;検図  CHECKED}
 73
     1
 44
1.0
  0
LINE
  5
2A7F
330
2A6C
100
AcDbEntity
  8
図枠細線
  6
Continuous
 62
   252
100
AcDbLine
 10
97.57787188296106
 20
2.820843367825702
 30
0.0
 11
97.57787188296106
 21
17.82084136782571
 31
0.0
  0
LINE
  5
2A80
330
2A6C
100
AcDbEntity
  8
図枠細線
  6
Continuous
 62
   252
100
AcDbLine
 10
120.577871882961
 20
2.820844010682861
 30
0.0
 11
120.577871882961
 21
17.82084201068286
 31
0.0
  0
MTEXT
  5
2A81
330
2A6C
100
AcDbEntity
  8
図枠細線
 48
10.0
100
AcDbMText
 10
81.40239908410171
 20
16.3164841174256
 30
0.0
 40
2.0
 41
12.9203228193694
 71
     1
 72
     5
  1
{\Fmonotxt.shx,bigfont.shx|c128;第三角法}
 73
     1
 44
1.0
  0
MTEXT
  5
2A82
330
2A6C
100
AcDbEntity
  8
図枠細線
 48
10.0
100
AcDbMText
 10
75.73657653509553
 20
11.08041093131885
 30
0.0
 40
2.0
 41
21.07287067147126
 71
     1
 72
     5
  1
{\Fmonotxt.shx,bigfont.shx|c128;THIRD ANGLE\PPROJECTION}
 73
     1
 44
1.0
  0
LINE
  5
2A83
330
2A6C
100
AcDbEntity
  8
図枠太線
  6
Continuous
 62
   251
100
AcDbLine
 10
74.57787188296106
 20
2.820844689254279
 30
0.0
 11
74.57787188296106
 21
32.82084268925429
 31
0.0
  0
MTEXT
  5
2A84
330
2A6C
100
AcDbEntity
  8
図枠細線
 48
10.0
100
AcDbMText
 10
75.06021478157276
 20
31.29843477855525
 30
0.0
 40
2.0
 41
22.24092880596732
 71
     1
 72
     5
  1
{\Fmonotxt.shx,bigfont.shx|c128;承認 APPROVED}
 73
     1
 44
1.0
  0
LINE
  5
2A85
330
2A6C
100
AcDbEntity
  8
図枠細線
  6
Continuous
100
AcDbLine
 10
3.577871882961062
 20
17.82084468925427
 30
0.0
 11
74.57787188296106
 21
17.82084468925427
 31
0.0
  0
LINE
  5
2A86
330
2A6C
100
AcDbEntity
  8
図枠細線
  6
Continuous
 62
   252
100
AcDbLine
 10
3.577871882961062
 20
27.82084268925428
 30
0.0
 11
74.57787188296106
 21
27.82084268925428
 31
0.0
  0
LINE
  5
2A87
330
2A6C
100
AcDbEntity
  8
図枠細線
  6
Continuous
 62
   252
100
AcDbLine
 10
3.577871882961062
 20
22.82084268925428
 30
0.0
 11
74.57787188296106
 21
22.82084268925428
 31
0.0
  0
LINE
  5
2A88
330
2A6C
100
AcDbEntity
  8
図枠細線
  6
Continuous
 62
   252
100
AcDbLine
 10
3.577871882961062
 20
12.82084268925428
 30
0.0
 11
74.57787188296106
 21
12.82084268925428
 31
0.0
  0
LINE
  5
2A89
330
2A6C
100
AcDbEntity
  8
図枠細線
  6
Continuous
 62
   252
100
AcDbLine
 10
3.577871882961062
 20
7.820844689254272
 30
0.0
 11
74.57787188296106
 21
7.820844689254272
 31
0.0
  0
LINE
  5
2A8A
330
2A6C
100
AcDbEntity
  8
図枠細線
  6
Continuous
100
AcDbLine
 10
74.57787188296106
 20
17.82084368925428
 30
0.0
 11
143.577871882961
 21
17.82084122496857
 31
0.0
  0
LINE
  5
2A8B
330
2A6C
100
AcDbEntity
  8
図枠太線
  6
Continuous
 62
   251
100
AcDbLine
 10
3.577871882961062
 20
2.820844689254272
 30
0.0
 11
283.5778718829611
 21
2.820844689254272
 31
0.0
  0
LINE
  5
2A8C
330
2A6C
100
AcDbEntity
  8
図枠太線
  6
Continuous
 62
   251
100
AcDbLine
 10
3.577871882961062
 20
2.820844689254271
 30
0.0
 11
3.577871882961062
 21
32.82084268925428
 31
0.0
  0
ENDBLK
  5
2A8D
330
2A6C
100
AcDbEntity
  8
0
100
AcDbBlockEnd
  0
BLOCK
  5
2AE7
330
2AE3
100
AcDbEntity
  8
0
 48
10.0
100
AcDbBlockBegin
  2
_Open30
 70
     0
 10
0.0
 20
0.0
 30
0.0
  3
_Open30
  1

  0
LINE
  5
2AE4
330
2AE3
100
AcDbEntity
  8
0
  6
ByBlock
 62
     0
370
    -2
100
AcDbLine
 10
-1.0
 20
0.26794919
 30
0.0
 11
0.0
 21
0.0
 31
0.0
  0
LINE
  5
2AE5
330
2AE3
100
AcDbEntity
  8
0
  6
ByBlock
 62
     0
370
    -2
100
AcDbLine
 10
0.0
 20
0.0
 30
0.0
 11
-1.0
 21
-0.26794919
 31
0.0
  0
LINE
  5
2AE6
330
2AE3
100
AcDbEntity
  8
0
  6
ByBlock
 62
     0
370
    -2
100
AcDbLine
 10
0.0
 20
0.0
 30
0.0
 11
-1.0
 21
0.0
 31
0.0
  0
ENDBLK
  5
2AE8
330
2AE3
100
AcDbEntity
  8
0
 48
10.0
100
AcDbBlockEnd
  0
BLOCK
  5
2B22
330
2B21
100
AcDbEntity
  8
0
100
AcDbBlockBegin
  2
*X6
 70
     1
 10
0.0
 20
0.0
 30
0.0
  3
*X6
  1

  0
LINE
  5
2B23
330
2B21
100
AcDbEntity
  8
0
100
AcDbLine
 10
63.5
 20
24.064304
 30
0.0
 11
63.5
 21
55.14285699999999
 31
0.0
  0
LINE
  5
2B24
330
2B21
100
AcDbEntity
  8
0
100
AcDbLine
 10
63.5
 20
88.0
 30
0.0
 11
63.5
 21
103.142857
 31
0.0
  0
LINE
  5
2B25
330
2B21
100
AcDbEntity
  8
0
100
AcDbLine
 10
63.5
 20
64.0
 30
0.0
 11
63.5
 21
79.14285699999999
 31
0.0
  0
LINE
  5
2B26
330
2B21
100
AcDbEntity
  8
0
100
AcDbLine
 10
63.0
 20
24.064304
 30
0.0
 11
63.0
 21
54.285714
 31
0.0
  0
LINE
  5
2B27
330
2B21
100
AcDbEntity
  8
0
100
AcDbLine
 10
63.0
 20
88.0
 30
0.0
 11
63.0
 21
102.285714
 31
0.0
  0
LINE
  5
2B28
330
2B21
100
AcDbEntity
  8
0
100
AcDbLine
 10
63.0
 20
64.0
 30
0.0
 11
63.0
 21
78.285714
 31
0.0
  0
LINE
  5
2B29
330
2B21
100
AcDbEntity
  8
0
100
AcDbLine
 10
62.5
 20
24.064304
 30
0.0
 11
62.5
 21
53.42857099999999
 31
0.0
  0
LINE
  5
2B2A
330
2B21
100
AcDbEntity
  8
0
100
AcDbLine
 10
62.5
 20
88.0
 30
0.0
 11
62.5
 21
101.428571
 31
0.0
  0
LINE
  5
2B2B
330
2B21
100
AcDbEntity
  8
0
100
AcDbLine
 10
62.5
 20
64.0
 30
0.0
 11
62.5
 21
77.42857099999999
 31
0.0
  0
LINE
  5
2B2C
330
2B21
100
AcDbEntity
  8
0
100
AcDbLine
 10
62.0
 20
24.064304
 30
0.0
 11
62.0
 21
52.571429
 31
0.0
  0
LINE
  5
2B2D
330
2B21
100
AcDbEntity
  8
0
100
AcDbLine
 10
62.0
 20
88.0
 30
0.0
 11
62.0
 21
100.571429
 31
0.0
  0
LINE
  5
2B2E
330
2B21
100
AcDbEntity
  8
0
100
AcDbLine
 10
62.0
 20
64.0
 30
0.0
 11
62.0
 21
76.57142900000001
 31
0.0
  0
LINE
  5
2B2F
330
2B21
100
AcDbEntity
  8
0
100
AcDbLine
 10
61.5
 20
24.064304
 30
0.0
 11
61.5
 21
51.714286
 31
0.0
  0
LINE
  5
2B30
330
2B21
100
AcDbEntity
  8
0
100
AcDbLine
 10
61.5
 20
88.0
 30
0.0
 11
61.5
 21
99.71428600000001
 31
0.0
  0
LINE
  5
2B31
330
2B21
100
AcDbEntity
  8
0
100
AcDbLine
 10
61.5
 20
64.0
 30
0.0
 11
61.5
 21
75.714286
 31
0.0
  0
LINE
  5
2B32
330
2B21
100
AcDbEntity
  8
0
100
AcDbLine
 10
61.0
 20
24.064304
 30
0.0
 11
61.0
 21
50.857143
 31
0.0
  0
LINE
  5
2B33
330
2B21
100
AcDbEntity
  8
0
100
AcDbLine
 10
61.0
 20
88.0
 30
0.0
 11
61.0
 21
98.85714300000001
 31
0.0
  0
LINE
  5
2B34
330
2B21
100
AcDbEntity
  8
0
100
AcDbLine
 10
61.0
 20
64.0
 30
0.0
 11
61.0
 21
74.85714300000001
 31
0.0
  0
LINE
  5
2B35
330
2B21
100
AcDbEntity
  8
0
100
AcDbLine
 10
60.5
 20
24.064304
 30
0.0
 11
60.5
 21
50.0
 31
0.0
  0
LINE
  5
2B36
330
2B21
100
AcDbEntity
  8
0
100
AcDbLine
 10
60.5
 20
88.0
 30
0.0
 11
60.5
 21
98.0
 31
0.0
  0
LINE
  5
2B37
330
2B21
100
AcDbEntity
  8
0
100
AcDbLine
 10
60.5
 20
64.0
 30
0.0
 11
60.5
 21
74.0
 31
0.0
  0
LINE
  5
2B38
330
2B21
100
AcDbEntity
  8
0
100
AcDbLine
 10
60.0
 20
24.064304
 30
0.0
 11
60.0
 21
49.142857
 31
0.0
  0
LINE
  5
2B39
330
2B21
100
AcDbEntity
  8
0
100
AcDbLine
 10
60.0
 20
88.0
 30
0.0
 11
60.0
 21
97.14285699999999
 31
0.0
  0
LINE
  5
2B3A
330
2B21
100
AcDbEntity
  8
0
100
AcDbLine
 10
60.0
 20
64.0
 30
0.0
 11
60.0
 21
73.14285699999999
 31
0.0
  0
LINE
  5
2B3B
330
2B21
100
AcDbEntity
  8
0
100
AcDbLine
 10
59.5
 20
24.064304
 30
0.0
 11
59.5
 21
48.285714
 31
0.0
  0
LINE
  5
2B3C
330
2B21
100
AcDbEntity
  8
0
100
AcDbLine
 10
59.5
 20
88.0
 30
0.0
 11
59.5
 21
96.285714
 31
0.0
  0
LINE
  5
2B3D
330
2B21
100
AcDbEntity
  8
0
100
AcDbLine
 10
59.5
 20
64.0
 30
0.0
 11
59.5
 21
72.28571399999999
 31
0.0
  0
LINE
  5
2B3E
330
2B21
100
AcDbEntity
  8
0
100
AcDbLine
 10
59.0
 20
24.064304
 30
0.0
 11
59.0
 21
47.42857100000001
 31
0.0
  0
LINE
  5
2B3F
330
2B21
100
AcDbEntity
  8
0
100
AcDbLine
 10
59.0
 20
88.0
 30
0.0
 11
59.0
 21
95.42857099999999
 31
0.0
  0
LINE
  5
2B40
330
2B21
100
AcDbEntity
  8
0
100
AcDbLine
 10
59.0
 20
64.0
 30
0.0
 11
59.0
 21
71.42857099999999
 31
0.0
  0
LINE
  5
2B41
330
2B21
100
AcDbEntity
  8
0
100
AcDbLine
 10
58.5
 20
24.064304
 30
0.0
 11
58.5
 21
46.57142899999999
 31
0.0
  0
LINE
  5
2B42
330
2B21
100
AcDbEntity
  8
0
100
AcDbLine
 10
58.5
 20
88.0
 30
0.0
 11
58.5
 21
94.571429
 31
0.0
  0
LINE
  5
2B43
330
2B21
100
AcDbEntity
  8
0
100
AcDbLine
 10
58.5
 20
64.0
 30
0.0
 11
58.5
 21
70.57142900000001
 31
0.0
  0
LINE
  5
2B44
330
2B21
100
AcDbEntity
  8
0
100
AcDbLine
 10
58.0
 20
24.064304
 30
0.0
 11
58.0
 21
45.71428599999999
 31
0.0
  0
LINE
  5
2B45
330
2B21
100
AcDbEntity
  8
0
100
AcDbLine
 10
58.0
 20
88.0
 30
0.0
 11
58.0
 21
93.71428599999999
 31
0.0
  0
LINE
  5
2B46
330
2B21
100
AcDbEntity
  8
0
100
AcDbLine
 10
58.0
 20
64.0
 30
0.0
 11
58.0
 21
69.714286
 31
0.0
  0
LINE
  5
2B47
330
2B21
100
AcDbEntity
  8
0
100
AcDbLine
 10
57.5
 20
24.064304
 30
0.0
 11
57.5
 21
44.857143
 31
0.0
  0
LINE
  5
2B48
330
2B21
100
AcDbEntity
  8
0
100
AcDbLine
 10
57.5
 20
88.0
 30
0.0
 11
57.5
 21
92.857143
 31
0.0
  0
LINE
  5
2B49
330
2B21
100
AcDbEntity
  8
0
100
AcDbLine
 10
57.5
 20
64.0
 30
0.0
 11
57.5
 21
68.857143
 31
0.0
  0
LINE
  5
2B4A
330
2B21
100
AcDbEntity
  8
0
100
AcDbLine
 10
57.0
 20
24.064304
 30
0.0
 11
57.0
 21
44.0
 31
0.0
  0
LINE
  5
2B4B
330
2B21
100
AcDbEntity
  8
0
100
AcDbLine
 10
57.0
 20
88.0
 30
0.0
 11
57.0
 21
92.0
 31
0.0
  0
LINE
  5
2B4C
330
2B21
100
AcDbEntity
  8
0
100
AcDbLine
 10
57.0
 20
64.0
 30
0.0
 11
57.0
 21
68.0
 31
0.0
  0
LINE
  5
2B4D
330
2B21
100
AcDbEntity
  8
0
100
AcDbLine
 10
56.5
 20
24.064304
 30
0.0
 11
56.5
 21
43.142857
 31
0.0
  0
LINE
  5
2B4E
330
2B21
100
AcDbEntity
  8
0
100
AcDbLine
 10
56.5
 20
88.0
 30
0.0
 11
56.5
 21
91.14285699999999
 31
0.0
  0
LINE
  5
2B4F
330
2B21
100
AcDbEntity
  8
0
100
AcDbLine
 10
56.5
 20
64.0
 30
0.0
 11
56.5
 21
67.14285699999999
 31
0.0
  0
LINE
  5
2B50
330
2B21
100
AcDbEntity
  8
0
100
AcDbLine
 10
56.0
 20
24.064304
 30
0.0
 11
56.0
 21
42.28571399999999
 31
0.0
  0
LINE
  5
2B51
330
2B21
100
AcDbEntity
  8
0
100
AcDbLine
 10
56.0
 20
88.0
 30
0.0
 11
56.0
 21
90.285714
 31
0.0
  0
LINE
  5
2B52
330
2B21
100
AcDbEntity
  8
0
100
AcDbLine
 10
56.0
 20
64.0
 30
0.0
 11
56.0
 21
66.285714
 31
0.0
  0
LINE
  5
2B53
330
2B21
100
AcDbEntity
  8
0
100
AcDbLine
 10
55.5
 20
24.064304
 30
0.0
 11
55.5
 21
41.428571
 31
0.0
  0
LINE
  5
2B54
330
2B21
100
AcDbEntity
  8
0
100
AcDbLine
 10
55.5
 20
86.82352900000001
 30
0.0
 11
55.5
 21
89.42857099999999
 31
0.0
  0
LINE
  5
2B55
330
2B21
100
AcDbEntity
  8
0
100
AcDbLine
 10
55.5
 20
62.6
 30
0.0
 11
55.5
 21
65.42857099999999
 31
0.0
  0
LINE
  5
2B56
330
2B21
100
AcDbEntity
  8
0
100
AcDbLine
 10
55.0
 20
24.064304
 30
0.0
 11
55.0
 21
40.57142899999999
 31
0.0
  0
LINE
  5
2B57
330
2B21
100
AcDbEntity
  8
0
100
AcDbLine
 10
55.0
 20
117.666667
 30
0.0
 11
55.0
 21
118.0
 31
0.0
  0
LINE
  5
2B58
330
2B21
100
AcDbEntity
  8
0
100
AcDbLine
 10
55.0
 20
61.2
 30
0.0
 11
55.0
 21
64.571429
 31
0.0
  0
LINE
  5
2B59
330
2B21
100
AcDbEntity
  8
0
100
AcDbLine
 10
55.0
 20
85.64705899999999
 30
0.0
 11
55.0
 21
88.57142900000001
 31
0.0
  0
LINE
  5
2B5A
330
2B21
100
AcDbEntity
  8
0
100
AcDbLine
 10
54.5
 20
24.064304
 30
0.0
 11
54.5
 21
39.714286
 31
0.0
  0
LINE
  5
2B5B
330
2B21
100
AcDbEntity
  8
0
100
AcDbLine
 10
54.5
 20
116.5
 30
0.0
 11
54.5
 21
118.0
 31
0.0
  0
LINE
  5
2B5C
330
2B21
100
AcDbEntity
  8
0
100
AcDbLine
 10
54.5
 20
59.8
 30
0.0
 11
54.5
 21
63.714286
 31
0.0
  0
LINE
  5
2B5D
330
2B21
100
AcDbEntity
  8
0
100
AcDbLine
 10
54.5
 20
84.470588
 30
0.0
 11
54.5
 21
87.714286
 31
0.0
  0
LINE
  5
2B5E
330
2B21
100
AcDbEntity
  8
0
100
AcDbLine
 10
54.0
 20
24.064304
 30
0.0
 11
54.0
 21
38.857143
 31
0.0
  0
LINE
  5
2B5F
330
2B21
100
AcDbEntity
  8
0
100
AcDbLine
 10
54.0
 20
115.333333
 30
0.0
 11
54.0
 21
118.0
 31
0.0
  0
LINE
  5
2B60
330
2B21
100
AcDbEntity
  8
0
100
AcDbLine
 10
54.0
 20
58.39999999999999
 30
0.0
 11
54.0
 21
62.85714300000001
 31
0.0
  0
LINE
  5
2B61
330
2B21
100
AcDbEntity
  8
0
100
AcDbLine
 10
54.0
 20
83.294118
 30
0.0
 11
54.0
 21
86.857143
 31
0.0
  0
LINE
  5
2B62
330
2B21
100
AcDbEntity
  8
0
100
AcDbLine
 10
53.5
 20
24.064304
 30
0.0
 11
53.5
 21
38.0
 31
0.0
  0
LINE
  5
2B63
330
2B21
100
AcDbEntity
  8
0
100
AcDbLine
 10
53.5
 20
114.166667
 30
0.0
 11
53.5
 21
118.0
 31
0.0
  0
LINE
  5
2B64
330
2B21
100
AcDbEntity
  8
0
100
AcDbLine
 10
53.5
 20
57.0
 30
0.0
 11
53.5
 21
62.0
 31
0.0
  0
LINE
  5
2B65
330
2B21
100
AcDbEntity
  8
0
100
AcDbLine
 10
53.5
 20
82.11764699999999
 30
0.0
 11
53.5
 21
86.0
 31
0.0
  0
LINE
  5
2B66
330
2B21
100
AcDbEntity
  8
0
100
AcDbLine
 10
53.0
 20
24.064304
 30
0.0
 11
53.0
 21
37.142857
 31
0.0
  0
LINE
  5
2B67
330
2B21
100
AcDbEntity
  8
0
100
AcDbLine
 10
53.0
 20
113.0
 30
0.0
 11
53.0
 21
118.0
 31
0.0
  0
LINE
  5
2B68
330
2B21
100
AcDbEntity
  8
0
100
AcDbLine
 10
53.0
 20
55.6
 30
0.0
 11
53.0
 21
61.14285699999999
 31
0.0
  0
LINE
  5
2B69
330
2B21
100
AcDbEntity
  8
0
100
AcDbLine
 10
53.0
 20
80.941176
 30
0.0
 11
53.0
 21
85.142857
 31
0.0
  0
LINE
  5
2B6A
330
2B21
100
AcDbEntity
  8
0
100
AcDbLine
 10
52.5
 20
24.064304
 30
0.0
 11
52.5
 21
36.285714
 31
0.0
  0
LINE
  5
2B6B
330
2B21
100
AcDbEntity
  8
0
100
AcDbLine
 10
52.5
 20
111.833333
 30
0.0
 11
52.5
 21
118.0
 31
0.0
  0
LINE
  5
2B6C
330
2B21
100
AcDbEntity
  8
0
100
AcDbLine
 10
52.5
 20
54.2
 30
0.0
 11
52.5
 21
60.285714
 31
0.0
  0
LINE
  5
2B6D
330
2B21
100
AcDbEntity
  8
0
100
AcDbLine
 10
52.5
 20
79.764706
 30
0.0
 11
52.5
 21
84.285714
 31
0.0
  0
LINE
  5
2B6E
330
2B21
100
AcDbEntity
  8
0
100
AcDbLine
 10
52.0
 20
24.064304
 30
0.0
 11
52.0
 21
35.42857100000001
 31
0.0
  0
LINE
  5
2B6F
330
2B21
100
AcDbEntity
  8
0
100
AcDbLine
 10
52.0
 20
110.666667
 30
0.0
 11
52.0
 21
118.0
 31
0.0
  0
LINE
  5
2B70
330
2B21
100
AcDbEntity
  8
0
100
AcDbLine
 10
52.0
 20
52.8
 30
0.0
 11
52.0
 21
59.428571
 31
0.0
  0
LINE
  5
2B71
330
2B21
100
AcDbEntity
  8
0
100
AcDbLine
 10
52.0
 20
78.58823499999999
 30
0.0
 11
52.0
 21
83.42857099999999
 31
0.0
  0
LINE
  5
2B72
330
2B21
100
AcDbEntity
  8
0
100
AcDbLine
 10
51.5
 20
24.064304
 30
0.0
 11
51.5
 21
34.571429
 31
0.0
  0
LINE
  5
2B73
330
2B21
100
AcDbEntity
  8
0
100
AcDbLine
 10
51.5
 20
109.5
 30
0.0
 11
51.5
 21
118.0
 31
0.0
  0
LINE
  5
2B74
330
2B21
100
AcDbEntity
  8
0
100
AcDbLine
 10
51.5
 20
51.4
 30
0.0
 11
51.5
 21
58.571429
 31
0.0
  0
LINE
  5
2B75
330
2B21
100
AcDbEntity
  8
0
100
AcDbLine
 10
51.5
 20
77.411765
 30
0.0
 11
51.5
 21
82.57142900000001
 31
0.0
  0
LINE
  5
2B76
330
2B21
100
AcDbEntity
  8
0
100
AcDbLine
 10
51.0
 20
24.064304
 30
0.0
 11
51.0
 21
33.714286
 31
0.0
  0
LINE
  5
2B77
330
2B21
100
AcDbEntity
  8
0
100
AcDbLine
 10
51.0
 20
108.333333
 30
0.0
 11
51.0
 21
118.0
 31
0.0
  0
LINE
  5
2B78
330
2B21
100
AcDbEntity
  8
0
100
AcDbLine
 10
51.0
 20
50.0
 30
0.0
 11
51.0
 21
57.714286
 31
0.0
  0
LINE
  5
2B79
330
2B21
100
AcDbEntity
  8
0
100
AcDbLine
 10
51.0
 20
76.23529399999999
 30
0.0
 11
51.0
 21
81.714286
 31
0.0
  0
LINE
  5
2B7A
330
2B21
100
AcDbEntity
  8
0
100
AcDbLine
 10
50.5
 20
24.064304
 30
0.0
 11
50.5
 21
32.857143
 31
0.0
  0
LINE
  5
2B7B
330
2B21
100
AcDbEntity
  8
0
100
AcDbLine
 10
50.5
 20
107.166667
 30
0.0
 11
50.5
 21
118.0
 31
0.0
  0
LINE
  5
2B7C
330
2B21
100
AcDbEntity
  8
0
100
AcDbLine
 10
50.5
 20
48.6
 30
0.0
 11
50.5
 21
56.857143
 31
0.0
  0
LINE
  5
2B7D
330
2B21
100
AcDbEntity
  8
0
100
AcDbLine
 10
50.5
 20
75.058824
 30
0.0
 11
50.5
 21
80.85714300000001
 31
0.0
  0
LINE
  5
2B7E
330
2B21
100
AcDbEntity
  8
0
100
AcDbLine
 10
50.0
 20
24.064304
 30
0.0
 11
50.0
 21
32.0
 31
0.0
  0
LINE
  5
2B7F
330
2B21
100
AcDbEntity
  8
0
100
AcDbLine
 10
50.0
 20
106.0
 30
0.0
 11
50.0
 21
118.0
 31
0.0
  0
LINE
  5
2B80
330
2B21
100
AcDbEntity
  8
0
100
AcDbLine
 10
50.0
 20
47.2
 30
0.0
 11
50.0
 21
56.0
 31
0.0
  0
LINE
  5
2B81
330
2B21
100
AcDbEntity
  8
0
100
AcDbLine
 10
50.0
 20
73.88235300000001
 30
0.0
 11
50.0
 21
80.0
 31
0.0
  0
LINE
  5
2B82
330
2B21
100
AcDbEntity
  8
0
100
AcDbLine
 10
49.5
 20
24.064304
 30
0.0
 11
49.5
 21
31.142857
 31
0.0
  0
LINE
  5
2B83
330
2B21
100
AcDbEntity
  8
0
100
AcDbLine
 10
49.5
 20
104.833333
 30
0.0
 11
49.5
 21
118.0
 31
0.0
  0
LINE
  5
2B84
330
2B21
100
AcDbEntity
  8
0
100
AcDbLine
 10
49.5
 20
45.8
 30
0.0
 11
49.5
 21
55.14285699999999
 31
0.0
  0
LINE
  5
2B85
330
2B21
100
AcDbEntity
  8
0
100
AcDbLine
 10
49.5
 20
72.70588199999998
 30
0.0
 11
49.5
 21
79.14285699999999
 31
0.0
  0
LINE
  5
2B86
330
2B21
100
AcDbEntity
  8
0
100
AcDbLine
 10
49.0
 20
24.064304
 30
0.0
 11
49.0
 21
30.28571400000001
 31
0.0
  0
LINE
  5
2B87
330
2B21
100
AcDbEntity
  8
0
100
AcDbLine
 10
49.0
 20
103.666667
 30
0.0
 11
49.0
 21
118.0
 31
0.0
  0
LINE
  5
2B88
330
2B21
100
AcDbEntity
  8
0
100
AcDbLine
 10
49.0
 20
44.4
 30
0.0
 11
49.0
 21
54.285714
 31
0.0
  0
LINE
  5
2B89
330
2B21
100
AcDbEntity
  8
0
100
AcDbLine
 10
49.0
 20
71.52941199999999
 30
0.0
 11
49.0
 21
78.285714
 31
0.0
  0
LINE
  5
2B8A
330
2B21
100
AcDbEntity
  8
0
100
AcDbLine
 10
48.5
 20
24.064304
 30
0.0
 11
48.5
 21
29.428571
 31
0.0
  0
LINE
  5
2B8B
330
2B21
100
AcDbEntity
  8
0
100
AcDbLine
 10
48.5
 20
102.5
 30
0.0
 11
48.5
 21
118.0
 31
0.0
  0
LINE
  5
2B8C
330
2B21
100
AcDbEntity
  8
0
100
AcDbLine
 10
48.5
 20
43.0
 30
0.0
 11
48.5
 21
53.42857099999999
 31
0.0
  0
LINE
  5
2B8D
330
2B21
100
AcDbEntity
  8
0
100
AcDbLine
 10
48.5
 20
70.352941
 30
0.0
 11
48.5
 21
77.42857099999999
 31
0.0
  0
LINE
  5
2B8E
330
2B21
100
AcDbEntity
  8
0
100
AcDbLine
 10
48.0
 20
24.064304
 30
0.0
 11
48.0
 21
28.571429
 31
0.0
  0
LINE
  5
2B8F
330
2B21
100
AcDbEntity
  8
0
100
AcDbLine
 10
48.0
 20
101.333333
 30
0.0
 11
48.0
 21
118.0
 31
0.0
  0
LINE
  5
2B90
330
2B21
100
AcDbEntity
  8
0
100
AcDbLine
 10
48.0
 20
41.6
 30
0.0
 11
48.0
 21
52.571429
 31
0.0
  0
LINE
  5
2B91
330
2B21
100
AcDbEntity
  8
0
100
AcDbLine
 10
48.0
 20
69.17647099999999
 30
0.0
 11
48.0
 21
76.57142900000001
 31
0.0
  0
LINE
  5
2B92
330
2B21
100
AcDbEntity
  8
0
100
AcDbLine
 10
47.5
 20
24.064304
 30
0.0
 11
47.5
 21
27.714286
 31
0.0
  0
LINE
  5
2B93
330
2B21
100
AcDbEntity
  8
0
100
AcDbLine
 10
47.5
 20
100.166667
 30
0.0
 11
47.5
 21
118.0
 31
0.0
  0
LINE
  5
2B94
330
2B21
100
AcDbEntity
  8
0
100
AcDbLine
 10
47.5
 20
40.2
 30
0.0
 11
47.5
 21
51.714286
 31
0.0
  0
LINE
  5
2B95
330
2B21
100
AcDbEntity
  8
0
100
AcDbLine
 10
47.5
 20
68.0
 30
0.0
 11
47.5
 21
75.714286
 31
0.0
  0
LINE
  5
2B96
330
2B21
100
AcDbEntity
  8
0
100
AcDbLine
 10
47.0
 20
24.064304
 30
0.0
 11
47.0
 21
26.857143
 31
0.0
  0
LINE
  5
2B97
330
2B21
100
AcDbEntity
  8
0
100
AcDbLine
 10
47.0
 20
99.0
 30
0.0
 11
47.0
 21
118.0
 31
0.0
  0
LINE
  5
2B98
330
2B21
100
AcDbEntity
  8
0
100
AcDbLine
 10
47.0
 20
38.8
 30
0.0
 11
47.0
 21
50.857143
 31
0.0
  0
LINE
  5
2B99
330
2B21
100
AcDbEntity
  8
0
100
AcDbLine
 10
47.0
 20
66.82352900000001
 30
0.0
 11
47.0
 21
74.85714300000001
 31
0.0
  0
LINE
  5
2B9A
330
2B21
100
AcDbEntity
  8
0
100
AcDbLine
 10
46.5
 20
24.064304
 30
0.0
 11
46.5
 21
26.0
 31
0.0
  0
LINE
  5
2B9B
330
2B21
100
AcDbEntity
  8
0
100
AcDbLine
 10
46.5
 20
97.833333
 30
0.0
 11
46.5
 21
118.0
 31
0.0
  0
LINE
  5
2B9C
330
2B21
100
AcDbEntity
  8
0
100
AcDbLine
 10
46.5
 20
37.4
 30
0.0
 11
46.5
 21
50.0
 31
0.0
  0
LINE
  5
2B9D
330
2B21
100
AcDbEntity
  8
0
100
AcDbLine
 10
46.5
 20
65.64705899999999
 30
0.0
 11
46.5
 21
74.0
 31
0.0
  0
LINE
  5
2B9E
330
2B21
100
AcDbEntity
  8
0
100
AcDbLine
 10
46.0
 20
24.064304
 30
0.0
 11
46.0
 21
25.142857
 31
0.0
  0
LINE
  5
2B9F
330
2B21
100
AcDbEntity
  8
0
100
AcDbLine
 10
46.0
 20
96.666667
 30
0.0
 11
46.0
 21
118.0
 31
0.0
  0
LINE
  5
2BA0
330
2B21
100
AcDbEntity
  8
0
100
AcDbLine
 10
46.0
 20
36.0
 30
0.0
 11
46.0
 21
49.142857
 31
0.0
  0
LINE
  5
2BA1
330
2B21
100
AcDbEntity
  8
0
100
AcDbLine
 10
46.0
 20
64.470588
 30
0.0
 11
46.0
 21
73.14285699999999
 31
0.0
  0
LINE
  5
2BA2
330
2B21
100
AcDbEntity
  8
0
100
AcDbLine
 10
45.49999999999999
 20
24.064304
 30
0.0
 11
45.49999999999999
 21
24.285714
 31
0.0
  0
LINE
  5
2BA3
330
2B21
100
AcDbEntity
  8
0
100
AcDbLine
 10
45.49999999999999
 20
95.5
 30
0.0
 11
45.49999999999999
 21
118.0
 31
0.0
  0
LINE
  5
2BA4
330
2B21
100
AcDbEntity
  8
0
100
AcDbLine
 10
45.49999999999999
 20
34.6
 30
0.0
 11
45.49999999999999
 21
48.285714
 31
0.0
  0
LINE
  5
2BA5
330
2B21
100
AcDbEntity
  8
0
100
AcDbLine
 10
45.49999999999999
 20
63.294118
 30
0.0
 11
45.49999999999999
 21
72.28571399999999
 31
0.0
  0
LINE
  5
2BA6
330
2B21
100
AcDbEntity
  8
0
100
AcDbLine
 10
45.0
 20
33.2
 30
0.0
 11
45.0
 21
47.42857100000001
 31
0.0
  0
LINE
  5
2BA7
330
2B21
100
AcDbEntity
  8
0
100
AcDbLine
 10
45.0
 20
94.33333299999999
 30
0.0
 11
45.0
 21
118.0
 31
0.0
  0
LINE
  5
2BA8
330
2B21
100
AcDbEntity
  8
0
100
AcDbLine
 10
45.0
 20
62.11764699999999
 30
0.0
 11
45.0
 21
71.42857099999999
 31
0.0
  0
LINE
  5
2BA9
330
2B21
100
AcDbEntity
  8
0
100
AcDbLine
 10
44.5
 20
31.8
 30
0.0
 11
44.5
 21
46.57142899999999
 31
0.0
  0
LINE
  5
2BAA
330
2B21
100
AcDbEntity
  8
0
100
AcDbLine
 10
44.5
 20
93.166667
 30
0.0
 11
44.5
 21
118.0
 31
0.0
  0
LINE
  5
2BAB
330
2B21
100
AcDbEntity
  8
0
100
AcDbLine
 10
44.5
 20
60.941176
 30
0.0
 11
44.5
 21
70.57142900000001
 31
0.0
  0
LINE
  5
2BAC
330
2B21
100
AcDbEntity
  8
0
100
AcDbLine
 10
44.0
 20
30.4
 30
0.0
 11
44.0
 21
45.71428599999999
 31
0.0
  0
LINE
  5
2BAD
330
2B21
100
AcDbEntity
  8
0
100
AcDbLine
 10
44.0
 20
92.0
 30
0.0
 11
44.0
 21
118.0
 31
0.0
  0
LINE
  5
2BAE
330
2B21
100
AcDbEntity
  8
0
100
AcDbLine
 10
44.0
 20
59.764706
 30
0.0
 11
44.0
 21
69.714286
 31
0.0
  0
LINE
  5
2BAF
330
2B21
100
AcDbEntity
  8
0
100
AcDbLine
 10
43.5
 20
29.0
 30
0.0
 11
43.5
 21
44.857143
 31
0.0
  0
LINE
  5
2BB0
330
2B21
100
AcDbEntity
  8
0
100
AcDbLine
 10
43.5
 20
90.83333299999999
 30
0.0
 11
43.5
 21
118.0
 31
0.0
  0
LINE
  5
2BB1
330
2B21
100
AcDbEntity
  8
0
100
AcDbLine
 10
43.5
 20
58.58823499999999
 30
0.0
 11
43.5
 21
68.857143
 31
0.0
  0
LINE
  5
2BB2
330
2B21
100
AcDbEntity
  8
0
100
AcDbLine
 10
43.0
 20
27.6
 30
0.0
 11
43.0
 21
44.0
 31
0.0
  0
LINE
  5
2BB3
330
2B21
100
AcDbEntity
  8
0
100
AcDbLine
 10
43.0
 20
89.66666700000001
 30
0.0
 11
43.0
 21
118.0
 31
0.0
  0
LINE
  5
2BB4
330
2B21
100
AcDbEntity
  8
0
100
AcDbLine
 10
43.0
 20
57.411765
 30
0.0
 11
43.0
 21
68.0
 31
0.0
  0
LINE
  5
2BB5
330
2B21
100
AcDbEntity
  8
0
100
AcDbLine
 10
42.5
 20
26.2
 30
0.0
 11
42.5
 21
43.142857
 31
0.0
  0
LINE
  5
2BB6
330
2B21
100
AcDbEntity
  8
0
100
AcDbLine
 10
42.5
 20
88.49999999999999
 30
0.0
 11
42.5
 21
118.0
 31
0.0
  0
LINE
  5
2BB7
330
2B21
100
AcDbEntity
  8
0
100
AcDbLine
 10
42.5
 20
56.23529399999999
 30
0.0
 11
42.5
 21
67.14285699999999
 31
0.0
  0
LINE
  5
2BB8
330
2B21
100
AcDbEntity
  8
0
100
AcDbLine
 10
42.0
 20
24.8
 30
0.0
 11
42.0
 21
42.28571399999999
 31
0.0
  0
LINE
  5
2BB9
330
2B21
100
AcDbEntity
  8
0
100
AcDbLine
 10
42.0
 20
87.33333299999999
 30
0.0
 11
42.0
 21
118.0
 31
0.0
  0
LINE
  5
2BBA
330
2B21
100
AcDbEntity
  8
0
100
AcDbLine
 10
42.0
 20
55.058824
 30
0.0
 11
42.0
 21
66.285714
 31
0.0
  0
LINE
  5
2BBB
330
2B21
100
AcDbEntity
  8
0
100
AcDbLine
 10
41.5
 20
24.064304
 30
0.0
 11
41.5
 21
41.428571
 31
0.0
  0
LINE
  5
2BBC
330
2B21
100
AcDbEntity
  8
0
100
AcDbLine
 10
41.5
 20
86.16666700000001
 30
0.0
 11
41.5
 21
118.0
 31
0.0
  0
LINE
  5
2BBD
330
2B21
100
AcDbEntity
  8
0
100
AcDbLine
 10
41.5
 20
53.882353
 30
0.0
 11
41.5
 21
65.42857099999999
 31
0.0
  0
LINE
  5
2BBE
330
2B21
100
AcDbEntity
  8
0
100
AcDbLine
 10
41.0
 20
24.064304
 30
0.0
 11
41.0
 21
40.57142899999999
 31
0.0
  0
LINE
  5
2BBF
330
2B21
100
AcDbEntity
  8
0
100
AcDbLine
 10
41.0
 20
85.0
 30
0.0
 11
41.0
 21
118.0
 31
0.0
  0
LINE
  5
2BC0
330
2B21
100
AcDbEntity
  8
0
100
AcDbLine
 10
41.0
 20
52.70588199999999
 30
0.0
 11
41.0
 21
64.571429
 31
0.0
  0
LINE
  5
2BC1
330
2B21
100
AcDbEntity
  8
0
100
AcDbLine
 10
40.49999999999999
 20
24.064304
 30
0.0
 11
40.49999999999999
 21
39.714286
 31
0.0
  0
LINE
  5
2BC2
330
2B21
100
AcDbEntity
  8
0
100
AcDbLine
 10
40.49999999999999
 20
83.833333
 30
0.0
 11
40.49999999999999
 21
118.0
 31
0.0
  0
LINE
  5
2BC3
330
2B21
100
AcDbEntity
  8
0
100
AcDbLine
 10
40.49999999999999
 20
51.529412
 30
0.0
 11
40.49999999999999
 21
63.714286
 31
0.0
  0
LINE
  5
2BC4
330
2B21
100
AcDbEntity
  8
0
100
AcDbLine
 10
40.0
 20
24.064304
 30
0.0
 11
40.0
 21
38.857143
 31
0.0
  0
LINE
  5
2BC5
330
2B21
100
AcDbEntity
  8
0
100
AcDbLine
 10
40.0
 20
82.666667
 30
0.0
 11
40.0
 21
118.0
 31
0.0
  0
LINE
  5
2BC6
330
2B21
100
AcDbEntity
  8
0
100
AcDbLine
 10
40.0
 20
50.35294099999999
 30
0.0
 11
40.0
 21
62.85714300000001
 31
0.0
  0
LINE
  5
2BC7
330
2B21
100
AcDbEntity
  8
0
100
AcDbLine
 10
39.5
 20
24.064304
 30
0.0
 11
39.5
 21
38.0
 31
0.0
  0
LINE
  5
2BC8
330
2B21
100
AcDbEntity
  8
0
100
AcDbLine
 10
39.5
 20
81.5
 30
0.0
 11
39.5
 21
118.0
 31
0.0
  0
LINE
  5
2BC9
330
2B21
100
AcDbEntity
  8
0
100
AcDbLine
 10
39.5
 20
49.17647099999999
 30
0.0
 11
39.5
 21
62.0
 31
0.0
  0
LINE
  5
2BCA
330
2B21
100
AcDbEntity
  8
0
100
AcDbLine
 10
39.0
 20
24.064304
 30
0.0
 11
39.0
 21
37.142857
 31
0.0
  0
LINE
  5
2BCB
330
2B21
100
AcDbEntity
  8
0
100
AcDbLine
 10
39.0
 20
80.333333
 30
0.0
 11
39.0
 21
118.0
 31
0.0
  0
LINE
  5
2BCC
330
2B21
100
AcDbEntity
  8
0
100
AcDbLine
 10
39.0
 20
48.0
 30
0.0
 11
39.0
 21
61.14285699999999
 31
0.0
  0
LINE
  5
2BCD
330
2B21
100
AcDbEntity
  8
0
100
AcDbLine
 10
38.5
 20
24.064304
 30
0.0
 11
38.5
 21
36.285714
 31
0.0
  0
LINE
  5
2BCE
330
2B21
100
AcDbEntity
  8
0
100
AcDbLine
 10
38.5
 20
79.166667
 30
0.0
 11
38.5
 21
118.0
 31
0.0
  0
LINE
  5
2BCF
330
2B21
100
AcDbEntity
  8
0
100
AcDbLine
 10
38.5
 20
46.823529
 30
0.0
 11
38.5
 21
60.285714
 31
0.0
  0
LINE
  5
2BD0
330
2B21
100
AcDbEntity
  8
0
100
AcDbLine
 10
38.0
 20
24.064304
 30
0.0
 11
38.0
 21
35.42857100000001
 31
0.0
  0
LINE
  5
2BD1
330
2B21
100
AcDbEntity
  8
0
100
AcDbLine
 10
38.0
 20
78.0
 30
0.0
 11
38.0
 21
118.0
 31
0.0
  0
LINE
  5
2BD2
330
2B21
100
AcDbEntity
  8
0
100
AcDbLine
 10
38.0
 20
45.647059
 30
0.0
 11
38.0
 21
59.428571
 31
0.0
  0
LINE
  5
2BD3
330
2B21
100
AcDbEntity
  8
0
100
AcDbLine
 10
37.5
 20
24.064304
 30
0.0
 11
37.5
 21
34.571429
 31
0.0
  0
LINE
  5
2BD4
330
2B21
100
AcDbEntity
  8
0
100
AcDbLine
 10
37.5
 20
76.833333
 30
0.0
 11
37.5
 21
118.0
 31
0.0
  0
LINE
  5
2BD5
330
2B21
100
AcDbEntity
  8
0
100
AcDbLine
 10
37.5
 20
44.47058799999999
 30
0.0
 11
37.5
 21
58.571429
 31
0.0
  0
LINE
  5
2BD6
330
2B21
100
AcDbEntity
  8
0
100
AcDbLine
 10
37.0
 20
24.064304
 30
0.0
 11
37.0
 21
33.714286
 31
0.0
  0
LINE
  5
2BD7
330
2B21
100
AcDbEntity
  8
0
100
AcDbLine
 10
37.0
 20
75.666667
 30
0.0
 11
37.0
 21
118.0
 31
0.0
  0
LINE
  5
2BD8
330
2B21
100
AcDbEntity
  8
0
100
AcDbLine
 10
37.0
 20
43.29411799999999
 30
0.0
 11
37.0
 21
57.714286
 31
0.0
  0
LINE
  5
2BD9
330
2B21
100
AcDbEntity
  8
0
100
AcDbLine
 10
36.5
 20
24.064304
 30
0.0
 11
36.5
 21
32.857143
 31
0.0
  0
LINE
  5
2BDA
330
2B21
100
AcDbEntity
  8
0
100
AcDbLine
 10
36.5
 20
74.5
 30
0.0
 11
36.5
 21
118.0
 31
0.0
  0
LINE
  5
2BDB
330
2B21
100
AcDbEntity
  8
0
100
AcDbLine
 10
36.5
 20
42.11764699999999
 30
0.0
 11
36.5
 21
56.857143
 31
0.0
  0
LINE
  5
2BDC
330
2B21
100
AcDbEntity
  8
0
100
AcDbLine
 10
36.0
 20
24.064304
 30
0.0
 11
36.0
 21
32.0
 31
0.0
  0
LINE
  5
2BDD
330
2B21
100
AcDbEntity
  8
0
100
AcDbLine
 10
36.0
 20
73.33333299999999
 30
0.0
 11
36.0
 21
118.0
 31
0.0
  0
LINE
  5
2BDE
330
2B21
100
AcDbEntity
  8
0
100
AcDbLine
 10
36.0
 20
40.94117599999999
 30
0.0
 11
36.0
 21
56.0
 31
0.0
  0
LINE
  5
2BDF
330
2B21
100
AcDbEntity
  8
0
100
AcDbLine
 10
35.5
 20
24.064304
 30
0.0
 11
35.5
 21
31.142857
 31
0.0
  0
LINE
  5
2BE0
330
2B21
100
AcDbEntity
  8
0
100
AcDbLine
 10
35.5
 20
72.16666700000001
 30
0.0
 11
35.5
 21
118.0
 31
0.0
  0
LINE
  5
2BE1
330
2B21
100
AcDbEntity
  8
0
100
AcDbLine
 10
35.5
 20
39.764706
 30
0.0
 11
35.5
 21
55.14285699999999
 31
0.0
  0
LINE
  5
2BE2
330
2B21
100
AcDbEntity
  8
0
100
AcDbLine
 10
35.0
 20
24.064304
 30
0.0
 11
35.0
 21
30.28571400000001
 31
0.0
  0
LINE
  5
2BE3
330
2B21
100
AcDbEntity
  8
0
100
AcDbLine
 10
35.0
 20
71.0
 30
0.0
 11
35.0
 21
118.0
 31
0.0
  0
LINE
  5
2BE4
330
2B21
100
AcDbEntity
  8
0
100
AcDbLine
 10
35.0
 20
38.588235
 30
0.0
 11
35.0
 21
54.285714
 31
0.0
  0
LINE
  5
2BE5
330
2B21
100
AcDbEntity
  8
0
100
AcDbLine
 10
34.5
 20
24.064304
 30
0.0
 11
34.5
 21
29.428571
 31
0.0
  0
LINE
  5
2BE6
330
2B21
100
AcDbEntity
  8
0
100
AcDbLine
 10
34.5
 20
69.83333299999999
 30
0.0
 11
34.5
 21
118.0
 31
0.0
  0
LINE
  5
2BE7
330
2B21
100
AcDbEntity
  8
0
100
AcDbLine
 10
34.5
 20
37.411765
 30
0.0
 11
34.5
 21
53.42857099999999
 31
0.0
  0
LINE
  5
2BE8
330
2B21
100
AcDbEntity
  8
0
100
AcDbLine
 10
34.0
 20
24.064304
 30
0.0
 11
34.0
 21
28.571429
 31
0.0
  0
LINE
  5
2BE9
330
2B21
100
AcDbEntity
  8
0
100
AcDbLine
 10
34.0
 20
68.666667
 30
0.0
 11
34.0
 21
118.0
 31
0.0
  0
LINE
  5
2BEA
330
2B21
100
AcDbEntity
  8
0
100
AcDbLine
 10
34.0
 20
36.23529400000001
 30
0.0
 11
34.0
 21
52.571429
 31
0.0
  0
LINE
  5
2BEB
330
2B21
100
AcDbEntity
  8
0
100
AcDbLine
 10
33.5
 20
24.064304
 30
0.0
 11
33.5
 21
27.714286
 31
0.0
  0
LINE
  5
2BEC
330
2B21
100
AcDbEntity
  8
0
100
AcDbLine
 10
33.5
 20
67.5
 30
0.0
 11
33.5
 21
118.0
 31
0.0
  0
LINE
  5
2BED
330
2B21
100
AcDbEntity
  8
0
100
AcDbLine
 10
33.5
 20
35.058824
 30
0.0
 11
33.5
 21
51.714286
 31
0.0
  0
LINE
  5
2BEE
330
2B21
100
AcDbEntity
  8
0
100
AcDbLine
 10
33.0
 20
24.064304
 30
0.0
 11
33.0
 21
26.857143
 31
0.0
  0
LINE
  5
2BEF
330
2B21
100
AcDbEntity
  8
0
100
AcDbLine
 10
33.0
 20
66.333333
 30
0.0
 11
33.0
 21
118.0
 31
0.0
  0
LINE
  5
2BF0
330
2B21
100
AcDbEntity
  8
0
100
AcDbLine
 10
33.0
 20
33.882353
 30
0.0
 11
33.0
 21
50.857143
 31
0.0
  0
LINE
  5
2BF1
330
2B21
100
AcDbEntity
  8
0
100
AcDbLine
 10
32.5
 20
24.064304
 30
0.0
 11
32.5
 21
26.0
 31
0.0
  0
LINE
  5
2BF2
330
2B21
100
AcDbEntity
  8
0
100
AcDbLine
 10
32.5
 20
65.166667
 30
0.0
 11
32.5
 21
118.0
 31
0.0
  0
LINE
  5
2BF3
330
2B21
100
AcDbEntity
  8
0
100
AcDbLine
 10
32.5
 20
32.70588200000001
 30
0.0
 11
32.5
 21
50.0
 31
0.0
  0
LINE
  5
2BF4
330
2B21
100
AcDbEntity
  8
0
100
AcDbLine
 10
32.0
 20
24.064304
 30
0.0
 11
32.0
 21
25.142857
 31
0.0
  0
LINE
  5
2BF5
330
2B21
100
AcDbEntity
  8
0
100
AcDbLine
 10
32.0
 20
64.0
 30
0.0
 11
32.0
 21
118.0
 31
0.0
  0
LINE
  5
2BF6
330
2B21
100
AcDbEntity
  8
0
100
AcDbLine
 10
32.0
 20
31.529412
 30
0.0
 11
32.0
 21
49.142857
 31
0.0
  0
LINE
  5
2BF7
330
2B21
100
AcDbEntity
  8
0
100
AcDbLine
 10
31.5
 20
24.064304
 30
0.0
 11
31.5
 21
24.285714
 31
0.0
  0
LINE
  5
2BF8
330
2B21
100
AcDbEntity
  8
0
100
AcDbLine
 10
31.5
 20
62.83333299999999
 30
0.0
 11
31.5
 21
118.0
 31
0.0
  0
LINE
  5
2BF9
330
2B21
100
AcDbEntity
  8
0
100
AcDbLine
 10
31.5
 20
30.352941
 30
0.0
 11
31.5
 21
48.285714
 31
0.0
  0
LINE
  5
2BFA
330
2B21
100
AcDbEntity
  8
0
100
AcDbLine
 10
31.0
 20
29.176471
 30
0.0
 11
31.0
 21
47.42857100000001
 31
0.0
  0
LINE
  5
2BFB
330
2B21
100
AcDbEntity
  8
0
100
AcDbLine
 10
31.0
 20
61.666667
 30
0.0
 11
31.0
 21
118.0
 31
0.0
  0
LINE
  5
2BFC
330
2B21
100
AcDbEntity
  8
0
100
AcDbLine
 10
30.5
 20
28.0
 30
0.0
 11
30.5
 21
46.57142899999999
 31
0.0
  0
LINE
  5
2BFD
330
2B21
100
AcDbEntity
  8
0
100
AcDbLine
 10
30.5
 20
60.5
 30
0.0
 11
30.5
 21
118.0
 31
0.0
  0
LINE
  5
2BFE
330
2B21
100
AcDbEntity
  8
0
100
AcDbLine
 10
30.0
 20
26.823529
 30
0.0
 11
30.0
 21
45.71428599999999
 31
0.0
  0
LINE
  5
2BFF
330
2B21
100
AcDbEntity
  8
0
100
AcDbLine
 10
30.0
 20
59.333333
 30
0.0
 11
30.0
 21
118.0
 31
0.0
  0
LINE
  5
2C00
330
2B21
100
AcDbEntity
  8
0
100
AcDbLine
 10
29.5
 20
25.647059
 30
0.0
 11
29.5
 21
44.857143
 31
0.0
  0
LINE
  5
2C01
330
2B21
100
AcDbEntity
  8
0
100
AcDbLine
 10
29.5
 20
58.166667
 30
0.0
 11
29.5
 21
118.0
 31
0.0
  0
LINE
  5
2C02
330
2B21
100
AcDbEntity
  8
0
100
AcDbLine
 10
29.0
 20
24.470588
 30
0.0
 11
29.0
 21
44.0
 31
0.0
  0
LINE
  5
2C03
330
2B21
100
AcDbEntity
  8
0
100
AcDbLine
 10
29.0
 20
57.0
 30
0.0
 11
29.0
 21
118.0
 31
0.0
  0
LINE
  5
2C04
330
2B21
100
AcDbEntity
  8
0
100
AcDbLine
 10
28.5
 20
24.064304
 30
0.0
 11
28.5
 21
43.142857
 31
0.0
  0
LINE
  5
2C05
330
2B21
100
AcDbEntity
  8
0
100
AcDbLine
 10
28.5
 20
55.83333299999999
 30
0.0
 11
28.5
 21
118.0
 31
0.0
  0
LINE
  5
2C06
330
2B21
100
AcDbEntity
  8
0
100
AcDbLine
 10
28.0
 20
24.064304
 30
0.0
 11
28.0
 21
42.28571399999999
 31
0.0
  0
LINE
  5
2C07
330
2B21
100
AcDbEntity
  8
0
100
AcDbLine
 10
28.0
 20
54.66666700000001
 30
0.0
 11
28.0
 21
118.0
 31
0.0
  0
LINE
  5
2C08
330
2B21
100
AcDbEntity
  8
0
100
AcDbLine
 10
27.5
 20
24.064304
 30
0.0
 11
27.5
 21
41.428571
 31
0.0
  0
LINE
  5
2C09
330
2B21
100
AcDbEntity
  8
0
100
AcDbLine
 10
27.5
 20
53.5
 30
0.0
 11
27.5
 21
118.0
 31
0.0
  0
LINE
  5
2C0A
330
2B21
100
AcDbEntity
  8
0
100
AcDbLine
 10
27.0
 20
24.064304
 30
0.0
 11
27.0
 21
40.57142899999999
 31
0.0
  0
LINE
  5
2C0B
330
2B21
100
AcDbEntity
  8
0
100
AcDbLine
 10
27.0
 20
52.333333
 30
0.0
 11
27.0
 21
118.0
 31
0.0
  0
LINE
  5
2C0C
330
2B21
100
AcDbEntity
  8
0
100
AcDbLine
 10
26.5
 20
24.064304
 30
0.0
 11
26.5
 21
39.714286
 31
0.0
  0
LINE
  5
2C0D
330
2B21
100
AcDbEntity
  8
0
100
AcDbLine
 10
26.5
 20
51.16666699999999
 30
0.0
 11
26.5
 21
118.0
 31
0.0
  0
LINE
  5
2C0E
330
2B21
100
AcDbEntity
  8
0
100
AcDbLine
 10
26.0
 20
24.064304
 30
0.0
 11
26.0
 21
38.857143
 31
0.0
  0
LINE
  5
2C0F
330
2B21
100
AcDbEntity
  8
0
100
AcDbLine
 10
26.0
 20
50.0
 30
0.0
 11
26.0
 21
118.0
 31
0.0
  0
LINE
  5
2C10
330
2B21
100
AcDbEntity
  8
0
100
AcDbLine
 10
25.5
 20
24.064304
 30
0.0
 11
25.5
 21
38.0
 31
0.0
  0
LINE
  5
2C11
330
2B21
100
AcDbEntity
  8
0
100
AcDbLine
 10
25.5
 20
48.833333
 30
0.0
 11
25.5
 21
118.0
 31
0.0
  0
LINE
  5
2C12
330
2B21
100
AcDbEntity
  8
0
100
AcDbLine
 10
25.0
 20
24.064304
 30
0.0
 11
25.0
 21
37.142857
 31
0.0
  0
LINE
  5
2C13
330
2B21
100
AcDbEntity
  8
0
100
AcDbLine
 10
25.0
 20
47.666667
 30
0.0
 11
25.0
 21
118.0
 31
0.0
  0
LINE
  5
2C14
330
2B21
100
AcDbEntity
  8
0
100
AcDbLine
 10
24.5
 20
24.064304
 30
0.0
 11
24.5
 21
36.285714
 31
0.0
  0
LINE
  5
2C15
330
2B21
100
AcDbEntity
  8
0
100
AcDbLine
 10
24.5
 20
46.5
 30
0.0
 11
24.5
 21
118.0
 31
0.0
  0
LINE
  5
2C16
330
2B21
100
AcDbEntity
  8
0
100
AcDbLine
 10
24.0
 20
24.064304
 30
0.0
 11
24.0
 21
35.42857100000001
 31
0.0
  0
LINE
  5
2C17
330
2B21
100
AcDbEntity
  8
0
100
AcDbLine
 10
24.0
 20
45.333333
 30
0.0
 11
24.0
 21
118.0
 31
0.0
  0
LINE
  5
2C18
330
2B21
100
AcDbEntity
  8
0
100
AcDbLine
 10
23.5
 20
24.064304
 30
0.0
 11
23.5
 21
34.571429
 31
0.0
  0
LINE
  5
2C19
330
2B21
100
AcDbEntity
  8
0
100
AcDbLine
 10
23.5
 20
44.16666699999999
 30
0.0
 11
23.5
 21
118.0
 31
0.0
  0
LINE
  5
2C1A
330
2B21
100
AcDbEntity
  8
0
100
AcDbLine
 10
23.0
 20
24.064304
 30
0.0
 11
23.0
 21
33.714286
 31
0.0
  0
LINE
  5
2C1B
330
2B21
100
AcDbEntity
  8
0
100
AcDbLine
 10
23.0
 20
43.0
 30
0.0
 11
23.0
 21
118.0
 31
0.0
  0
LINE
  5
2C1C
330
2B21
100
AcDbEntity
  8
0
100
AcDbLine
 10
22.5
 20
24.064304
 30
0.0
 11
22.5
 21
32.857143
 31
0.0
  0
LINE
  5
2C1D
330
2B21
100
AcDbEntity
  8
0
100
AcDbLine
 10
22.5
 20
41.833333
 30
0.0
 11
22.5
 21
118.0
 31
0.0
  0
LINE
  5
2C1E
330
2B21
100
AcDbEntity
  8
0
100
AcDbLine
 10
22.0
 20
24.064304
 30
0.0
 11
22.0
 21
32.0
 31
0.0
  0
LINE
  5
2C1F
330
2B21
100
AcDbEntity
  8
0
100
AcDbLine
 10
22.0
 20
40.66666699999999
 30
0.0
 11
22.0
 21
118.0
 31
0.0
  0
LINE
  5
2C20
330
2B21
100
AcDbEntity
  8
0
100
AcDbLine
 10
21.5
 20
24.064304
 30
0.0
 11
21.5
 21
31.142857
 31
0.0
  0
LINE
  5
2C21
330
2B21
100
AcDbEntity
  8
0
100
AcDbLine
 10
21.5
 20
39.5
 30
0.0
 11
21.5
 21
118.0
 31
0.0
  0
LINE
  5
2C22
330
2B21
100
AcDbEntity
  8
0
100
AcDbLine
 10
21.0
 20
24.064304
 30
0.0
 11
21.0
 21
30.28571400000001
 31
0.0
  0
LINE
  5
2C23
330
2B21
100
AcDbEntity
  8
0
100
AcDbLine
 10
21.0
 20
38.33333300000001
 30
0.0
 11
21.0
 21
118.0
 31
0.0
  0
LINE
  5
2C24
330
2B21
100
AcDbEntity
  8
0
100
AcDbLine
 10
20.5
 20
24.064304
 30
0.0
 11
20.5
 21
29.428571
 31
0.0
  0
LINE
  5
2C25
330
2B21
100
AcDbEntity
  8
0
100
AcDbLine
 10
20.5
 20
37.166667
 30
0.0
 11
20.5
 21
118.0
 31
0.0
  0
LINE
  5
2C26
330
2B21
100
AcDbEntity
  8
0
100
AcDbLine
 10
20.0
 20
24.064304
 30
0.0
 11
20.0
 21
28.571429
 31
0.0
  0
LINE
  5
2C27
330
2B21
100
AcDbEntity
  8
0
100
AcDbLine
 10
20.0
 20
36.0
 30
0.0
 11
20.0
 21
118.0
 31
0.0
  0
LINE
  5
2C28
330
2B21
100
AcDbEntity
  8
0
100
AcDbLine
 10
19.5
 20
24.064304
 30
0.0
 11
19.5
 21
27.714286
 31
0.0
  0
LINE
  5
2C29
330
2B21
100
AcDbEntity
  8
0
100
AcDbLine
 10
19.5
 20
34.833333
 30
0.0
 11
19.5
 21
118.0
 31
0.0
  0
LINE
  5
2C2A
330
2B21
100
AcDbEntity
  8
0
100
AcDbLine
 10
19.0
 20
24.064304
 30
0.0
 11
19.0
 21
26.857143
 31
0.0
  0
LINE
  5
2C2B
330
2B21
100
AcDbEntity
  8
0
100
AcDbLine
 10
19.0
 20
33.666667
 30
0.0
 11
19.0
 21
118.0
 31
0.0
  0
LINE
  5
2C2C
330
2B21
100
AcDbEntity
  8
0
100
AcDbLine
 10
18.5
 20
24.064304
 30
0.0
 11
18.5
 21
26.0
 31
0.0
  0
LINE
  5
2C2D
330
2B21
100
AcDbEntity
  8
0
100
AcDbLine
 10
18.5
 20
32.5
 30
0.0
 11
18.5
 21
118.0
 31
0.0
  0
LINE
  5
2C2E
330
2B21
100
AcDbEntity
  8
0
100
AcDbLine
 10
18.0
 20
24.064304
 30
0.0
 11
18.0
 21
25.142857
 31
0.0
  0
LINE
  5
2C2F
330
2B21
100
AcDbEntity
  8
0
100
AcDbLine
 10
18.0
 20
31.333333
 30
0.0
 11
18.0
 21
118.0
 31
0.0
  0
LINE
  5
2C30
330
2B21
100
AcDbEntity
  8
0
100
AcDbLine
 10
17.5
 20
24.064304
 30
0.0
 11
17.5
 21
24.285714
 31
0.0
  0
LINE
  5
2C31
330
2B21
100
AcDbEntity
  8
0
100
AcDbLine
 10
17.5
 20
30.166667
 30
0.0
 11
17.5
 21
118.0
 31
0.0
  0
LINE
  5
2C32
330
2B21
100
AcDbEntity
  8
0
100
AcDbLine
 10
17.0
 20
29.0
 30
0.0
 11
17.0
 21
118.0
 31
0.0
  0
LINE
  5
2C33
330
2B21
100
AcDbEntity
  8
0
100
AcDbLine
 10
16.5
 20
27.83333300000001
 30
0.0
 11
16.5
 21
118.0
 31
0.0
  0
LINE
  5
2C34
330
2B21
100
AcDbEntity
  8
0
100
AcDbLine
 10
16.0
 20
26.666667
 30
0.0
 11
16.0
 21
118.0
 31
0.0
  0
LINE
  5
2C35
330
2B21
100
AcDbEntity
  8
0
100
AcDbLine
 10
15.5
 20
25.5
 30
0.0
 11
15.5
 21
118.0
 31
0.0
  0
LINE
  5
2C36
330
2B21
100
AcDbEntity
  8
0
100
AcDbLine
 10
15.0
 20
24.333333
 30
0.0
 11
15.0
 21
118.0
 31
0.0
  0
LINE
  5
2C37
330
2B21
100
AcDbEntity
  8
0
100
AcDbLine
 10
64.0
 20
24.064304
 30
0.0
 11
64.0
 21
56.0
 31
0.0
  0
LINE
  5
2C38
330
2B21
100
AcDbEntity
  8
0
100
AcDbLine
 10
64.0
 20
88.0
 30
0.0
 11
64.0
 21
103.935252
 31
0.0
  0
LINE
  5
2C39
330
2B21
100
AcDbEntity
  8
0
100
AcDbLine
 10
64.0
 20
64.0
 30
0.0
 11
64.0
 21
80.0
 31
0.0
  0
LINE
  5
2C3A
330
2B21
100
AcDbEntity
  8
0
100
AcDbLine
 10
64.5
 20
24.064304
 30
0.0
 11
64.5
 21
55.14285699999999
 31
0.0
  0
LINE
  5
2C3B
330
2B21
100
AcDbEntity
  8
0
100
AcDbLine
 10
64.5
 20
88.0
 30
0.0
 11
64.5
 21
103.078867
 31
0.0
  0
LINE
  5
2C3C
330
2B21
100
AcDbEntity
  8
0
100
AcDbLine
 10
64.5
 20
64.0
 30
0.0
 11
64.5
 21
79.14285699999999
 31
0.0
  0
LINE
  5
2C3D
330
2B21
100
AcDbEntity
  8
0
100
AcDbLine
 10
65.0
 20
24.064304
 30
0.0
 11
65.0
 21
54.285714
 31
0.0
  0
LINE
  5
2C3E
330
2B21
100
AcDbEntity
  8
0
100
AcDbLine
 10
65.0
 20
88.0
 30
0.0
 11
65.0
 21
102.222482
 31
0.0
  0
LINE
  5
2C3F
330
2B21
100
AcDbEntity
  8
0
100
AcDbLine
 10
65.0
 20
64.0
 30
0.0
 11
65.0
 21
78.285714
 31
0.0
  0
LINE
  5
2C40
330
2B21
100
AcDbEntity
  8
0
100
AcDbLine
 10
65.5
 20
24.064304
 30
0.0
 11
65.5
 21
53.42857099999999
 31
0.0
  0
LINE
  5
2C41
330
2B21
100
AcDbEntity
  8
0
100
AcDbLine
 10
65.5
 20
88.0
 30
0.0
 11
65.5
 21
101.366097
 31
0.0
  0
LINE
  5
2C42
330
2B21
100
AcDbEntity
  8
0
100
AcDbLine
 10
65.5
 20
64.0
 30
0.0
 11
65.5
 21
77.42857099999999
 31
0.0
  0
LINE
  5
2C43
330
2B21
100
AcDbEntity
  8
0
100
AcDbLine
 10
66.0
 20
24.064304
 30
0.0
 11
66.0
 21
52.571429
 31
0.0
  0
LINE
  5
2C44
330
2B21
100
AcDbEntity
  8
0
100
AcDbLine
 10
66.0
 20
88.0
 30
0.0
 11
66.0
 21
100.509712
 31
0.0
  0
LINE
  5
2C45
330
2B21
100
AcDbEntity
  8
0
100
AcDbLine
 10
66.0
 20
64.0
 30
0.0
 11
66.0
 21
76.57142900000001
 31
0.0
  0
LINE
  5
2C46
330
2B21
100
AcDbEntity
  8
0
100
AcDbLine
 10
66.5
 20
24.064304
 30
0.0
 11
66.5
 21
51.714286
 31
0.0
  0
LINE
  5
2C47
330
2B21
100
AcDbEntity
  8
0
100
AcDbLine
 10
66.5
 20
88.0
 30
0.0
 11
66.5
 21
99.65332700000001
 31
0.0
  0
LINE
  5
2C48
330
2B21
100
AcDbEntity
  8
0
100
AcDbLine
 10
66.5
 20
64.0
 30
0.0
 11
66.5
 21
75.714286
 31
0.0
  0
LINE
  5
2C49
330
2B21
100
AcDbEntity
  8
0
100
AcDbLine
 10
67.0
 20
24.064304
 30
0.0
 11
67.0
 21
50.857143
 31
0.0
  0
LINE
  5
2C4A
330
2B21
100
AcDbEntity
  8
0
100
AcDbLine
 10
67.0
 20
88.0
 30
0.0
 11
67.0
 21
98.79694200000001
 31
0.0
  0
LINE
  5
2C4B
330
2B21
100
AcDbEntity
  8
0
100
AcDbLine
 10
67.0
 20
64.0
 30
0.0
 11
67.0
 21
74.85714300000001
 31
0.0
  0
LINE
  5
2C4C
330
2B21
100
AcDbEntity
  8
0
100
AcDbLine
 10
67.5
 20
24.064304
 30
0.0
 11
67.5
 21
50.0
 31
0.0
  0
LINE
  5
2C4D
330
2B21
100
AcDbEntity
  8
0
100
AcDbLine
 10
67.5
 20
88.0
 30
0.0
 11
67.5
 21
97.940558
 31
0.0
  0
LINE
  5
2C4E
330
2B21
100
AcDbEntity
  8
0
100
AcDbLine
 10
67.5
 20
64.0
 30
0.0
 11
67.5
 21
74.0
 31
0.0
  0
LINE
  5
2C4F
330
2B21
100
AcDbEntity
  8
0
100
AcDbLine
 10
68.0
 20
24.064304
 30
0.0
 11
68.0
 21
49.142857
 31
0.0
  0
LINE
  5
2C50
330
2B21
100
AcDbEntity
  8
0
100
AcDbLine
 10
68.0
 20
88.0
 30
0.0
 11
68.0
 21
97.084173
 31
0.0
  0
LINE
  5
2C51
330
2B21
100
AcDbEntity
  8
0
100
AcDbLine
 10
68.0
 20
64.0
 30
0.0
 11
68.0
 21
73.14285699999999
 31
0.0
  0
LINE
  5
2C52
330
2B21
100
AcDbEntity
  8
0
100
AcDbLine
 10
68.5
 20
24.064304
 30
0.0
 11
68.5
 21
48.285714
 31
0.0
  0
LINE
  5
2C53
330
2B21
100
AcDbEntity
  8
0
100
AcDbLine
 10
68.5
 20
88.0
 30
0.0
 11
68.5
 21
96.227788
 31
0.0
  0
LINE
  5
2C54
330
2B21
100
AcDbEntity
  8
0
100
AcDbLine
 10
68.5
 20
64.0
 30
0.0
 11
68.5
 21
72.28571399999999
 31
0.0
  0
LINE
  5
2C55
330
2B21
100
AcDbEntity
  8
0
100
AcDbLine
 10
69.0
 20
24.064304
 30
0.0
 11
69.0
 21
47.42857100000001
 31
0.0
  0
LINE
  5
2C56
330
2B21
100
AcDbEntity
  8
0
100
AcDbLine
 10
69.0
 20
88.0
 30
0.0
 11
69.0
 21
95.371403
 31
0.0
  0
LINE
  5
2C57
330
2B21
100
AcDbEntity
  8
0
100
AcDbLine
 10
69.0
 20
64.0
 30
0.0
 11
69.0
 21
71.42857099999999
 31
0.0
  0
LINE
  5
2C58
330
2B21
100
AcDbEntity
  8
0
100
AcDbLine
 10
69.5
 20
24.064304
 30
0.0
 11
69.5
 21
46.57142899999999
 31
0.0
  0
LINE
  5
2C59
330
2B21
100
AcDbEntity
  8
0
100
AcDbLine
 10
69.5
 20
88.0
 30
0.0
 11
69.5
 21
94.515018
 31
0.0
  0
LINE
  5
2C5A
330
2B21
100
AcDbEntity
  8
0
100
AcDbLine
 10
69.5
 20
64.0
 30
0.0
 11
69.5
 21
70.57142900000001
 31
0.0
  0
LINE
  5
2C5B
330
2B21
100
AcDbEntity
  8
0
100
AcDbLine
 10
70.0
 20
24.064304
 30
0.0
 11
70.0
 21
45.71428599999999
 31
0.0
  0
LINE
  5
2C5C
330
2B21
100
AcDbEntity
  8
0
100
AcDbLine
 10
70.0
 20
88.0
 30
0.0
 11
70.0
 21
93.65863299999999
 31
0.0
  0
LINE
  5
2C5D
330
2B21
100
AcDbEntity
  8
0
100
AcDbLine
 10
70.0
 20
64.0
 30
0.0
 11
70.0
 21
69.714286
 31
0.0
  0
LINE
  5
2C5E
330
2B21
100
AcDbEntity
  8
0
100
AcDbLine
 10
70.5
 20
24.064304
 30
0.0
 11
70.5
 21
44.857143
 31
0.0
  0
LINE
  5
2C5F
330
2B21
100
AcDbEntity
  8
0
100
AcDbLine
 10
70.5
 20
88.0
 30
0.0
 11
70.5
 21
92.80224799999999
 31
0.0
  0
LINE
  5
2C60
330
2B21
100
AcDbEntity
  8
0
100
AcDbLine
 10
70.5
 20
64.0
 30
0.0
 11
70.5
 21
68.857143
 31
0.0
  0
LINE
  5
2C61
330
2B21
100
AcDbEntity
  8
0
100
AcDbLine
 10
71.0
 20
24.064304
 30
0.0
 11
71.0
 21
44.0
 31
0.0
  0
LINE
  5
2C62
330
2B21
100
AcDbEntity
  8
0
100
AcDbLine
 10
71.0
 20
88.0
 30
0.0
 11
71.0
 21
91.945863
 31
0.0
  0
LINE
  5
2C63
330
2B21
100
AcDbEntity
  8
0
100
AcDbLine
 10
71.0
 20
64.0
 30
0.0
 11
71.0
 21
68.0
 31
0.0
  0
LINE
  5
2C64
330
2B21
100
AcDbEntity
  8
0
100
AcDbLine
 10
71.5
 20
24.064304
 30
0.0
 11
71.5
 21
43.142857
 31
0.0
  0
LINE
  5
2C65
330
2B21
100
AcDbEntity
  8
0
100
AcDbLine
 10
71.5
 20
88.0
 30
0.0
 11
71.5
 21
91.08947800000001
 31
0.0
  0
LINE
  5
2C66
330
2B21
100
AcDbEntity
  8
0
100
AcDbLine
 10
71.5
 20
64.0
 30
0.0
 11
71.5
 21
67.14285699999999
 31
0.0
  0
LINE
  5
2C67
330
2B21
100
AcDbEntity
  8
0
100
AcDbLine
 10
72.0
 20
24.064304
 30
0.0
 11
72.0
 21
42.28571399999999
 31
0.0
  0
LINE
  5
2C68
330
2B21
100
AcDbEntity
  8
0
100
AcDbLine
 10
72.0
 20
88.0
 30
0.0
 11
72.0
 21
90.23309300000001
 31
0.0
  0
LINE
  5
2C69
330
2B21
100
AcDbEntity
  8
0
100
AcDbLine
 10
72.0
 20
64.0
 30
0.0
 11
72.0
 21
66.285714
 31
0.0
  0
LINE
  5
2C6A
330
2B21
100
AcDbEntity
  8
0
100
AcDbLine
 10
72.5
 20
24.064304
 30
0.0
 11
72.5
 21
41.428571
 31
0.0
  0
LINE
  5
2C6B
330
2B21
100
AcDbEntity
  8
0
100
AcDbLine
 10
72.5
 20
86.82352900000001
 30
0.0
 11
72.5
 21
89.37670799999999
 31
0.0
  0
LINE
  5
2C6C
330
2B21
100
AcDbEntity
  8
0
100
AcDbLine
 10
72.5
 20
62.6
 30
0.0
 11
72.5
 21
65.42857099999999
 31
0.0
  0
LINE
  5
2C6D
330
2B21
100
AcDbEntity
  8
0
100
AcDbLine
 10
73.0
 20
24.064304
 30
0.0
 11
73.0
 21
40.57142899999999
 31
0.0
  0
LINE
  5
2C6E
330
2B21
100
AcDbEntity
  8
0
100
AcDbLine
 10
73.0
 20
117.510407
 30
0.0
 11
73.0
 21
117.982101
 31
0.0
  0
LINE
  5
2C6F
330
2B21
100
AcDbEntity
  8
0
100
AcDbLine
 10
73.0
 20
61.2
 30
0.0
 11
73.0
 21
64.571429
 31
0.0
  0
LINE
  5
2C70
330
2B21
100
AcDbEntity
  8
0
100
AcDbLine
 10
73.0
 20
85.64705899999999
 30
0.0
 11
73.0
 21
88.52032300000001
 31
0.0
  0
LINE
  5
2C71
330
2B21
100
AcDbEntity
  8
0
100
AcDbLine
 10
73.5
 20
24.064304
 30
0.0
 11
73.5
 21
39.714286
 31
0.0
  0
LINE
  5
2C72
330
2B21
100
AcDbEntity
  8
0
100
AcDbLine
 10
73.5
 20
116.345403
 30
0.0
 11
73.5
 21
117.982515
 31
0.0
  0
LINE
  5
2C73
330
2B21
100
AcDbEntity
  8
0
100
AcDbLine
 10
73.5
 20
59.8
 30
0.0
 11
73.5
 21
63.714286
 31
0.0
  0
LINE
  5
2C74
330
2B21
100
AcDbEntity
  8
0
100
AcDbLine
 10
73.5
 20
84.470588
 30
0.0
 11
73.5
 21
87.663939
 31
0.0
  0
LINE
  5
2C75
330
2B21
100
AcDbEntity
  8
0
100
AcDbLine
 10
74.0
 20
24.064304
 30
0.0
 11
74.0
 21
38.857143
 31
0.0
  0
LINE
  5
2C76
330
2B21
100
AcDbEntity
  8
0
100
AcDbLine
 10
74.0
 20
115.180398
 30
0.0
 11
74.0
 21
117.982929
 31
0.0
  0
LINE
  5
2C77
330
2B21
100
AcDbEntity
  8
0
100
AcDbLine
 10
74.0
 20
58.39999999999999
 30
0.0
 11
74.0
 21
62.85714300000001
 31
0.0
  0
LINE
  5
2C78
330
2B21
100
AcDbEntity
  8
0
100
AcDbLine
 10
74.0
 20
83.294118
 30
0.0
 11
74.0
 21
86.807554
 31
0.0
  0
LINE
  5
2C79
330
2B21
100
AcDbEntity
  8
0
100
AcDbLine
 10
74.5
 20
24.064304
 30
0.0
 11
74.5
 21
38.0
 31
0.0
  0
LINE
  5
2C7A
330
2B21
100
AcDbEntity
  8
0
100
AcDbLine
 10
74.5
 20
114.015394
 30
0.0
 11
74.5
 21
117.983343
 31
0.0
  0
LINE
  5
2C7B
330
2B21
100
AcDbEntity
  8
0
100
AcDbLine
 10
74.5
 20
57.0
 30
0.0
 11
74.5
 21
62.0
 31
0.0
  0
LINE
  5
2C7C
330
2B21
100
AcDbEntity
  8
0
100
AcDbLine
 10
74.5
 20
82.11764699999999
 30
0.0
 11
74.5
 21
85.95116899999998
 31
0.0
  0
LINE
  5
2C7D
330
2B21
100
AcDbEntity
  8
0
100
AcDbLine
 10
75.0
 20
24.064304
 30
0.0
 11
75.0
 21
37.142857
 31
0.0
  0
LINE
  5
2C7E
330
2B21
100
AcDbEntity
  8
0
100
AcDbLine
 10
75.0
 20
112.85039
 30
0.0
 11
75.0
 21
117.983756
 31
0.0
  0
LINE
  5
2C7F
330
2B21
100
AcDbEntity
  8
0
100
AcDbLine
 10
75.0
 20
55.6
 30
0.0
 11
75.0
 21
61.14285699999999
 31
0.0
  0
LINE
  5
2C80
330
2B21
100
AcDbEntity
  8
0
100
AcDbLine
 10
75.0
 20
80.941176
 30
0.0
 11
75.0
 21
85.09478399999998
 31
0.0
  0
LINE
  5
2C81
330
2B21
100
AcDbEntity
  8
0
100
AcDbLine
 10
75.5
 20
24.064304
 30
0.0
 11
75.5
 21
36.285714
 31
0.0
  0
LINE
  5
2C82
330
2B21
100
AcDbEntity
  8
0
100
AcDbLine
 10
75.5
 20
111.685385
 30
0.0
 11
75.5
 21
117.98417
 31
0.0
  0
LINE
  5
2C83
330
2B21
100
AcDbEntity
  8
0
100
AcDbLine
 10
75.5
 20
54.2
 30
0.0
 11
75.5
 21
60.285714
 31
0.0
  0
LINE
  5
2C84
330
2B21
100
AcDbEntity
  8
0
100
AcDbLine
 10
75.5
 20
79.764706
 30
0.0
 11
75.5
 21
84.238399
 31
0.0
  0
LINE
  5
2C85
330
2B21
100
AcDbEntity
  8
0
100
AcDbLine
 10
76.0
 20
24.064304
 30
0.0
 11
76.0
 21
35.42857100000001
 31
0.0
  0
LINE
  5
2C86
330
2B21
100
AcDbEntity
  8
0
100
AcDbLine
 10
76.0
 20
110.520381
 30
0.0
 11
76.0
 21
117.984584
 31
0.0
  0
LINE
  5
2C87
330
2B21
100
AcDbEntity
  8
0
100
AcDbLine
 10
76.0
 20
52.8
 30
0.0
 11
76.0
 21
59.428571
 31
0.0
  0
LINE
  5
2C88
330
2B21
100
AcDbEntity
  8
0
100
AcDbLine
 10
76.0
 20
78.58823499999999
 30
0.0
 11
76.0
 21
83.382014
 31
0.0
  0
LINE
  5
2C89
330
2B21
100
AcDbEntity
  8
0
100
AcDbLine
 10
76.5
 20
24.064304
 30
0.0
 11
76.5
 21
34.571429
 31
0.0
  0
LINE
  5
2C8A
330
2B21
100
AcDbEntity
  8
0
100
AcDbLine
 10
76.5
 20
109.355377
 30
0.0
 11
76.5
 21
117.984998
 31
0.0
  0
LINE
  5
2C8B
330
2B21
100
AcDbEntity
  8
0
100
AcDbLine
 10
76.5
 20
51.4
 30
0.0
 11
76.5
 21
58.571429
 31
0.0
  0
LINE
  5
2C8C
330
2B21
100
AcDbEntity
  8
0
100
AcDbLine
 10
76.5
 20
77.411765
 30
0.0
 11
76.5
 21
82.525629
 31
0.0
  0
LINE
  5
2C8D
330
2B21
100
AcDbEntity
  8
0
100
AcDbLine
 10
77.0
 20
24.064304
 30
0.0
 11
77.0
 21
33.714286
 31
0.0
  0
LINE
  5
2C8E
330
2B21
100
AcDbEntity
  8
0
100
AcDbLine
 10
77.0
 20
108.190372
 30
0.0
 11
77.0
 21
117.985412
 31
0.0
  0
LINE
  5
2C8F
330
2B21
100
AcDbEntity
  8
0
100
AcDbLine
 10
77.0
 20
50.0
 30
0.0
 11
77.0
 21
57.714286
 31
0.0
  0
LINE
  5
2C90
330
2B21
100
AcDbEntity
  8
0
100
AcDbLine
 10
77.0
 20
76.23529399999999
 30
0.0
 11
77.0
 21
81.66924399999999
 31
0.0
  0
LINE
  5
2C91
330
2B21
100
AcDbEntity
  8
0
100
AcDbLine
 10
77.5
 20
24.064304
 30
0.0
 11
77.5
 21
32.857143
 31
0.0
  0
LINE
  5
2C92
330
2B21
100
AcDbEntity
  8
0
100
AcDbLine
 10
77.5
 20
107.025368
 30
0.0
 11
77.5
 21
117.985826
 31
0.0
  0
LINE
  5
2C93
330
2B21
100
AcDbEntity
  8
0
100
AcDbLine
 10
77.5
 20
48.6
 30
0.0
 11
77.5
 21
56.857143
 31
0.0
  0
LINE
  5
2C94
330
2B21
100
AcDbEntity
  8
0
100
AcDbLine
 10
77.5
 20
75.058824
 30
0.0
 11
77.5
 21
80.81285900000001
 31
0.0
  0
LINE
  5
2C95
330
2B21
100
AcDbEntity
  8
0
100
AcDbLine
 10
78.0
 20
24.064304
 30
0.0
 11
78.0
 21
32.0
 31
0.0
  0
LINE
  5
2C96
330
2B21
100
AcDbEntity
  8
0
100
AcDbLine
 10
78.0
 20
105.860364
 30
0.0
 11
78.0
 21
117.986239
 31
0.0
  0
LINE
  5
2C97
330
2B21
100
AcDbEntity
  8
0
100
AcDbLine
 10
78.0
 20
47.2
 30
0.0
 11
78.0
 21
56.0
 31
0.0
  0
LINE
  5
2C98
330
2B21
100
AcDbEntity
  8
0
100
AcDbLine
 10
78.0
 20
73.88235300000001
 30
0.0
 11
78.0
 21
79.956474
 31
0.0
  0
LINE
  5
2C99
330
2B21
100
AcDbEntity
  8
0
100
AcDbLine
 10
78.5
 20
24.064304
 30
0.0
 11
78.5
 21
31.142857
 31
0.0
  0
LINE
  5
2C9A
330
2B21
100
AcDbEntity
  8
0
100
AcDbLine
 10
78.5
 20
104.695359
 30
0.0
 11
78.5
 21
117.986653
 31
0.0
  0
LINE
  5
2C9B
330
2B21
100
AcDbEntity
  8
0
100
AcDbLine
 10
78.5
 20
45.8
 30
0.0
 11
78.5
 21
55.14285699999999
 31
0.0
  0
LINE
  5
2C9C
330
2B21
100
AcDbEntity
  8
0
100
AcDbLine
 10
78.5
 20
72.70588199999998
 30
0.0
 11
78.5
 21
79.100089
 31
0.0
  0
LINE
  5
2C9D
330
2B21
100
AcDbEntity
  8
0
100
AcDbLine
 10
79.0
 20
24.064304
 30
0.0
 11
79.0
 21
30.28571400000001
 31
0.0
  0
LINE
  5
2C9E
330
2B21
100
AcDbEntity
  8
0
100
AcDbLine
 10
79.0
 20
103.530355
 30
0.0
 11
79.0
 21
117.987067
 31
0.0
  0
LINE
  5
2C9F
330
2B21
100
AcDbEntity
  8
0
100
AcDbLine
 10
79.0
 20
44.4
 30
0.0
 11
79.0
 21
54.285714
 31
0.0
  0
LINE
  5
2CA0
330
2B21
100
AcDbEntity
  8
0
100
AcDbLine
 10
79.0
 20
71.52941199999999
 30
0.0
 11
79.0
 21
78.24370400000001
 31
0.0
  0
LINE
  5
2CA1
330
2B21
100
AcDbEntity
  8
0
100
AcDbLine
 10
79.5
 20
24.064304
 30
0.0
 11
79.5
 21
29.428571
 31
0.0
  0
LINE
  5
2CA2
330
2B21
100
AcDbEntity
  8
0
100
AcDbLine
 10
79.5
 20
102.365351
 30
0.0
 11
79.5
 21
117.987481
 31
0.0
  0
LINE
  5
2CA3
330
2B21
100
AcDbEntity
  8
0
100
AcDbLine
 10
79.5
 20
43.0
 30
0.0
 11
79.5
 21
53.42857099999999
 31
0.0
  0
LINE
  5
2CA4
330
2B21
100
AcDbEntity
  8
0
100
AcDbLine
 10
79.5
 20
70.352941
 30
0.0
 11
79.5
 21
77.38731999999998
 31
0.0
  0
LINE
  5
2CA5
330
2B21
100
AcDbEntity
  8
0
100
AcDbLine
 10
80.0
 20
24.064304
 30
0.0
 11
80.0
 21
28.571429
 31
0.0
  0
LINE
  5
2CA6
330
2B21
100
AcDbEntity
  8
0
100
AcDbLine
 10
80.0
 20
101.200346
 30
0.0
 11
80.0
 21
117.987895
 31
0.0
  0
LINE
  5
2CA7
330
2B21
100
AcDbEntity
  8
0
100
AcDbLine
 10
80.0
 20
41.6
 30
0.0
 11
80.0
 21
52.571429
 31
0.0
  0
LINE
  5
2CA8
330
2B21
100
AcDbEntity
  8
0
100
AcDbLine
 10
80.0
 20
69.17647099999999
 30
0.0
 11
80.0
 21
76.530935
 31
0.0
  0
LINE
  5
2CA9
330
2B21
100
AcDbEntity
  8
0
100
AcDbLine
 10
80.5
 20
24.064304
 30
0.0
 11
80.5
 21
27.714286
 31
0.0
  0
LINE
  5
2CAA
330
2B21
100
AcDbEntity
  8
0
100
AcDbLine
 10
80.5
 20
100.035342
 30
0.0
 11
80.5
 21
117.988308
 31
0.0
  0
LINE
  5
2CAB
330
2B21
100
AcDbEntity
  8
0
100
AcDbLine
 10
80.5
 20
40.2
 30
0.0
 11
80.5
 21
51.714286
 31
0.0
  0
LINE
  5
2CAC
330
2B21
100
AcDbEntity
  8
0
100
AcDbLine
 10
80.5
 20
68.0
 30
0.0
 11
80.5
 21
75.67454999999999
 31
0.0
  0
LINE
  5
2CAD
330
2B21
100
AcDbEntity
  8
0
100
AcDbLine
 10
81.0
 20
24.064304
 30
0.0
 11
81.0
 21
26.857143
 31
0.0
  0
LINE
  5
2CAE
330
2B21
100
AcDbEntity
  8
0
100
AcDbLine
 10
81.0
 20
98.87033800000001
 30
0.0
 11
81.0
 21
117.988722
 31
0.0
  0
LINE
  5
2CAF
330
2B21
100
AcDbEntity
  8
0
100
AcDbLine
 10
81.0
 20
38.8
 30
0.0
 11
81.0
 21
50.857143
 31
0.0
  0
LINE
  5
2CB0
330
2B21
100
AcDbEntity
  8
0
100
AcDbLine
 10
81.0
 20
66.82352900000001
 30
0.0
 11
81.0
 21
74.818165
 31
0.0
  0
LINE
  5
2CB1
330
2B21
100
AcDbEntity
  8
0
100
AcDbLine
 10
81.5
 20
24.064304
 30
0.0
 11
81.5
 21
26.0
 31
0.0
  0
LINE
  5
2CB2
330
2B21
100
AcDbEntity
  8
0
100
AcDbLine
 10
81.5
 20
97.705333
 30
0.0
 11
81.5
 21
117.989136
 31
0.0
  0
LINE
  5
2CB3
330
2B21
100
AcDbEntity
  8
0
100
AcDbLine
 10
81.5
 20
37.4
 30
0.0
 11
81.5
 21
50.0
 31
0.0
  0
LINE
  5
2CB4
330
2B21
100
AcDbEntity
  8
0
100
AcDbLine
 10
81.5
 20
65.64705899999999
 30
0.0
 11
81.5
 21
73.96178
 31
0.0
  0
LINE
  5
2CB5
330
2B21
100
AcDbEntity
  8
0
100
AcDbLine
 10
82.0
 20
24.064304
 30
0.0
 11
82.0
 21
25.142857
 31
0.0
  0
LINE
  5
2CB6
330
2B21
100
AcDbEntity
  8
0
100
AcDbLine
 10
82.0
 20
96.540329
 30
0.0
 11
82.0
 21
117.98955
 31
0.0
  0
LINE
  5
2CB7
330
2B21
100
AcDbEntity
  8
0
100
AcDbLine
 10
82.0
 20
36.0
 30
0.0
 11
82.0
 21
49.142857
 31
0.0
  0
LINE
  5
2CB8
330
2B21
100
AcDbEntity
  8
0
100
AcDbLine
 10
82.0
 20
64.470588
 30
0.0
 11
82.0
 21
73.105395
 31
0.0
  0
LINE
  5
2CB9
330
2B21
100
AcDbEntity
  8
0
100
AcDbLine
 10
82.5
 20
24.064304
 30
0.0
 11
82.5
 21
24.285714
 31
0.0
  0
LINE
  5
2CBA
330
2B21
100
AcDbEntity
  8
0
100
AcDbLine
 10
82.5
 20
95.37532500000001
 30
0.0
 11
82.5
 21
117.989964
 31
0.0
  0
LINE
  5
2CBB
330
2B21
100
AcDbEntity
  8
0
100
AcDbLine
 10
82.5
 20
34.6
 30
0.0
 11
82.5
 21
48.285714
 31
0.0
  0
LINE
  5
2CBC
330
2B21
100
AcDbEntity
  8
0
100
AcDbLine
 10
82.5
 20
63.294118
 30
0.0
 11
82.5
 21
72.24901
 31
0.0
  0
LINE
  5
2CBD
330
2B21
100
AcDbEntity
  8
0
100
AcDbLine
 10
83.0
 20
33.2
 30
0.0
 11
83.0
 21
47.42857100000001
 31
0.0
  0
LINE
  5
2CBE
330
2B21
100
AcDbEntity
  8
0
100
AcDbLine
 10
83.0
 20
94.21032
 30
0.0
 11
83.0
 21
117.990377
 31
0.0
  0
LINE
  5
2CBF
330
2B21
100
AcDbEntity
  8
0
100
AcDbLine
 10
83.0
 20
62.11764699999999
 30
0.0
 11
83.0
 21
71.392625
 31
0.0
  0
LINE
  5
2CC0
330
2B21
100
AcDbEntity
  8
0
100
AcDbLine
 10
83.49999999999999
 20
31.8
 30
0.0
 11
83.49999999999999
 21
46.57142899999999
 31
0.0
  0
LINE
  5
2CC1
330
2B21
100
AcDbEntity
  8
0
100
AcDbLine
 10
83.49999999999999
 20
93.045316
 30
0.0
 11
83.49999999999999
 21
117.990791
 31
0.0
  0
LINE
  5
2CC2
330
2B21
100
AcDbEntity
  8
0
100
AcDbLine
 10
83.49999999999999
 20
60.941176
 30
0.0
 11
83.49999999999999
 21
70.53624000000001
 31
0.0
  0
LINE
  5
2CC3
330
2B21
100
AcDbEntity
  8
0
100
AcDbLine
 10
84.0
 20
30.4
 30
0.0
 11
84.0
 21
45.71428599999999
 31
0.0
  0
LINE
  5
2CC4
330
2B21
100
AcDbEntity
  8
0
100
AcDbLine
 10
84.0
 20
91.88031200000001
 30
0.0
 11
84.0
 21
117.991205
 31
0.0
  0
LINE
  5
2CC5
330
2B21
100
AcDbEntity
  8
0
100
AcDbLine
 10
84.0
 20
59.764706
 30
0.0
 11
84.0
 21
69.67985500000001
 31
0.0
  0
LINE
  5
2CC6
330
2B21
100
AcDbEntity
  8
0
100
AcDbLine
 10
84.50000000000001
 20
29.0
 30
0.0
 11
84.50000000000001
 21
44.857143
 31
0.0
  0
LINE
  5
2CC7
330
2B21
100
AcDbEntity
  8
0
100
AcDbLine
 10
84.50000000000001
 20
90.715307
 30
0.0
 11
84.50000000000001
 21
117.991619
 31
0.0
  0
LINE
  5
2CC8
330
2B21
100
AcDbEntity
  8
0
100
AcDbLine
 10
84.50000000000001
 20
58.58823499999999
 30
0.0
 11
84.50000000000001
 21
68.82347
 31
0.0
  0
LINE
  5
2CC9
330
2B21
100
AcDbEntity
  8
0
100
AcDbLine
 10
85.0
 20
27.6
 30
0.0
 11
85.0
 21
44.0
 31
0.0
  0
LINE
  5
2CCA
330
2B21
100
AcDbEntity
  8
0
100
AcDbLine
 10
85.0
 20
89.550303
 30
0.0
 11
85.0
 21
117.992033
 31
0.0
  0
LINE
  5
2CCB
330
2B21
100
AcDbEntity
  8
0
100
AcDbLine
 10
85.0
 20
57.411765
 30
0.0
 11
85.0
 21
67.967085
 31
0.0
  0
LINE
  5
2CCC
330
2B21
100
AcDbEntity
  8
0
100
AcDbLine
 10
85.5
 20
26.2
 30
0.0
 11
85.5
 21
43.142857
 31
0.0
  0
LINE
  5
2CCD
330
2B21
100
AcDbEntity
  8
0
100
AcDbLine
 10
85.5
 20
88.38529900000001
 30
0.0
 11
85.5
 21
117.992447
 31
0.0
  0
LINE
  5
2CCE
330
2B21
100
AcDbEntity
  8
0
100
AcDbLine
 10
85.5
 20
56.23529399999999
 30
0.0
 11
85.5
 21
67.110701
 31
0.0
  0
LINE
  5
2CCF
330
2B21
100
AcDbEntity
  8
0
100
AcDbLine
 10
86.0
 20
24.8
 30
0.0
 11
86.0
 21
42.28571399999999
 31
0.0
  0
LINE
  5
2CD0
330
2B21
100
AcDbEntity
  8
0
100
AcDbLine
 10
86.0
 20
87.220294
 30
0.0
 11
86.0
 21
117.99286
 31
0.0
  0
LINE
  5
2CD1
330
2B21
100
AcDbEntity
  8
0
100
AcDbLine
 10
86.0
 20
55.058824
 30
0.0
 11
86.0
 21
66.254316
 31
0.0
  0
LINE
  5
2CD2
330
2B21
100
AcDbEntity
  8
0
100
AcDbLine
 10
86.5
 20
24.064304
 30
0.0
 11
86.5
 21
41.428571
 31
0.0
  0
LINE
  5
2CD3
330
2B21
100
AcDbEntity
  8
0
100
AcDbLine
 10
86.5
 20
86.05529
 30
0.0
 11
86.5
 21
117.993274
 31
0.0
  0
LINE
  5
2CD4
330
2B21
100
AcDbEntity
  8
0
100
AcDbLine
 10
86.5
 20
53.882353
 30
0.0
 11
86.5
 21
65.397931
 31
0.0
  0
LINE
  5
2CD5
330
2B21
100
AcDbEntity
  8
0
100
AcDbLine
 10
87.0
 20
24.064304
 30
0.0
 11
87.0
 21
40.57142899999999
 31
0.0
  0
LINE
  5
2CD6
330
2B21
100
AcDbEntity
  8
0
100
AcDbLine
 10
87.0
 20
84.89028600000001
 30
0.0
 11
87.0
 21
117.993688
 31
0.0
  0
LINE
  5
2CD7
330
2B21
100
AcDbEntity
  8
0
100
AcDbLine
 10
87.0
 20
52.70588199999999
 30
0.0
 11
87.0
 21
64.54154599999999
 31
0.0
  0
LINE
  5
2CD8
330
2B21
100
AcDbEntity
  8
0
100
AcDbLine
 10
87.5
 20
24.064304
 30
0.0
 11
87.5
 21
39.714286
 31
0.0
  0
LINE
  5
2CD9
330
2B21
100
AcDbEntity
  8
0
100
AcDbLine
 10
87.5
 20
83.72528100000002
 30
0.0
 11
87.5
 21
117.994102
 31
0.0
  0
LINE
  5
2CDA
330
2B21
100
AcDbEntity
  8
0
100
AcDbLine
 10
87.5
 20
51.529412
 30
0.0
 11
87.5
 21
63.685161
 31
0.0
  0
LINE
  5
2CDB
330
2B21
100
AcDbEntity
  8
0
100
AcDbLine
 10
88.0
 20
24.064304
 30
0.0
 11
88.0
 21
38.857143
 31
0.0
  0
LINE
  5
2CDC
330
2B21
100
AcDbEntity
  8
0
100
AcDbLine
 10
88.0
 20
82.560277
 30
0.0
 11
88.0
 21
117.994516
 31
0.0
  0
LINE
  5
2CDD
330
2B21
100
AcDbEntity
  8
0
100
AcDbLine
 10
88.0
 20
50.35294099999999
 30
0.0
 11
88.0
 21
62.82877599999999
 31
0.0
  0
LINE
  5
2CDE
330
2B21
100
AcDbEntity
  8
0
100
AcDbLine
 10
88.49999999999999
 20
24.064304
 30
0.0
 11
88.49999999999999
 21
38.0
 31
0.0
  0
LINE
  5
2CDF
330
2B21
100
AcDbEntity
  8
0
100
AcDbLine
 10
88.49999999999999
 20
81.39527300000001
 30
0.0
 11
88.49999999999999
 21
117.994929
 31
0.0
  0
LINE
  5
2CE0
330
2B21
100
AcDbEntity
  8
0
100
AcDbLine
 10
88.49999999999999
 20
49.17647099999999
 30
0.0
 11
88.49999999999999
 21
61.972391
 31
0.0
  0
LINE
  5
2CE1
330
2B21
100
AcDbEntity
  8
0
100
AcDbLine
 10
89.0
 20
24.064304
 30
0.0
 11
89.0
 21
37.142857
 31
0.0
  0
LINE
  5
2CE2
330
2B21
100
AcDbEntity
  8
0
100
AcDbLine
 10
89.0
 20
80.23026800000002
 30
0.0
 11
89.0
 21
117.995343
 31
0.0
  0
LINE
  5
2CE3
330
2B21
100
AcDbEntity
  8
0
100
AcDbLine
 10
89.0
 20
48.0
 30
0.0
 11
89.0
 21
61.116006
 31
0.0
  0
LINE
  5
2CE4
330
2B21
100
AcDbEntity
  8
0
100
AcDbLine
 10
89.50000000000001
 20
24.064304
 30
0.0
 11
89.50000000000001
 21
36.285714
 31
0.0
  0
LINE
  5
2CE5
330
2B21
100
AcDbEntity
  8
0
100
AcDbLine
 10
89.50000000000001
 20
79.065264
 30
0.0
 11
89.50000000000001
 21
117.995757
 31
0.0
  0
LINE
  5
2CE6
330
2B21
100
AcDbEntity
  8
0
100
AcDbLine
 10
89.50000000000001
 20
46.823529
 30
0.0
 11
89.50000000000001
 21
60.259621
 31
0.0
  0
LINE
  5
2CE7
330
2B21
100
AcDbEntity
  8
0
100
AcDbLine
 10
90.0
 20
24.064304
 30
0.0
 11
90.0
 21
35.42857100000001
 31
0.0
  0
LINE
  5
2CE8
330
2B21
100
AcDbEntity
  8
0
100
AcDbLine
 10
90.0
 20
77.90026000000001
 30
0.0
 11
90.0
 21
117.996171
 31
0.0
  0
LINE
  5
2CE9
330
2B21
100
AcDbEntity
  8
0
100
AcDbLine
 10
90.0
 20
45.647059
 30
0.0
 11
90.0
 21
59.403236
 31
0.0
  0
LINE
  5
2CEA
330
2B21
100
AcDbEntity
  8
0
100
AcDbLine
 10
90.5
 20
24.064304
 30
0.0
 11
90.5
 21
34.571429
 31
0.0
  0
LINE
  5
2CEB
330
2B21
100
AcDbEntity
  8
0
100
AcDbLine
 10
90.5
 20
76.73525500000001
 30
0.0
 11
90.5
 21
117.996585
 31
0.0
  0
LINE
  5
2CEC
330
2B21
100
AcDbEntity
  8
0
100
AcDbLine
 10
90.5
 20
44.47058799999999
 30
0.0
 11
90.5
 21
58.54685100000001
 31
0.0
  0
LINE
  5
2CED
330
2B21
100
AcDbEntity
  8
0
100
AcDbLine
 10
91.0
 20
24.064304
 30
0.0
 11
91.0
 21
33.714286
 31
0.0
  0
LINE
  5
2CEE
330
2B21
100
AcDbEntity
  8
0
100
AcDbLine
 10
91.0
 20
75.570251
 30
0.0
 11
91.0
 21
117.996998
 31
0.0
  0
LINE
  5
2CEF
330
2B21
100
AcDbEntity
  8
0
100
AcDbLine
 10
91.0
 20
43.29411799999999
 30
0.0
 11
91.0
 21
57.690466
 31
0.0
  0
LINE
  5
2CF0
330
2B21
100
AcDbEntity
  8
0
100
AcDbLine
 10
91.5
 20
24.064304
 30
0.0
 11
91.5
 21
32.857143
 31
0.0
  0
LINE
  5
2CF1
330
2B21
100
AcDbEntity
  8
0
100
AcDbLine
 10
91.5
 20
74.405247
 30
0.0
 11
91.5
 21
117.997412
 31
0.0
  0
LINE
  5
2CF2
330
2B21
100
AcDbEntity
  8
0
100
AcDbLine
 10
91.5
 20
42.11764699999999
 30
0.0
 11
91.5
 21
56.83408199999999
 31
0.0
  0
LINE
  5
2CF3
330
2B21
100
AcDbEntity
  8
0
100
AcDbLine
 10
92.0
 20
24.064304
 30
0.0
 11
92.0
 21
32.0
 31
0.0
  0
LINE
  5
2CF4
330
2B21
100
AcDbEntity
  8
0
100
AcDbLine
 10
92.0
 20
73.24024200000001
 30
0.0
 11
92.0
 21
117.997826
 31
0.0
  0
LINE
  5
2CF5
330
2B21
100
AcDbEntity
  8
0
100
AcDbLine
 10
92.0
 20
40.94117599999999
 30
0.0
 11
92.0
 21
55.977697
 31
0.0
  0
LINE
  5
2CF6
330
2B21
100
AcDbEntity
  8
0
100
AcDbLine
 10
92.5
 20
24.064304
 30
0.0
 11
92.5
 21
31.142857
 31
0.0
  0
LINE
  5
2CF7
330
2B21
100
AcDbEntity
  8
0
100
AcDbLine
 10
92.5
 20
72.075238
 30
0.0
 11
92.5
 21
117.99824
 31
0.0
  0
LINE
  5
2CF8
330
2B21
100
AcDbEntity
  8
0
100
AcDbLine
 10
92.5
 20
39.764706
 30
0.0
 11
92.5
 21
55.12131199999999
 31
0.0
  0
LINE
  5
2CF9
330
2B21
100
AcDbEntity
  8
0
100
AcDbLine
 10
93.0
 20
24.064304
 30
0.0
 11
93.0
 21
30.28571400000001
 31
0.0
  0
LINE
  5
2CFA
330
2B21
100
AcDbEntity
  8
0
100
AcDbLine
 10
93.0
 20
70.910234
 30
0.0
 11
93.0
 21
117.998654
 31
0.0
  0
LINE
  5
2CFB
330
2B21
100
AcDbEntity
  8
0
100
AcDbLine
 10
93.0
 20
38.588235
 30
0.0
 11
93.0
 21
54.264927
 31
0.0
  0
LINE
  5
2CFC
330
2B21
100
AcDbEntity
  8
0
100
AcDbLine
 10
93.49999999999999
 20
24.064304
 30
0.0
 11
93.49999999999999
 21
29.428571
 31
0.0
  0
LINE
  5
2CFD
330
2B21
100
AcDbEntity
  8
0
100
AcDbLine
 10
93.49999999999999
 20
69.74523000000001
 30
0.0
 11
93.49999999999999
 21
117.999067
 31
0.0
  0
LINE
  5
2CFE
330
2B21
100
AcDbEntity
  8
0
100
AcDbLine
 10
93.49999999999999
 20
37.411765
 30
0.0
 11
93.49999999999999
 21
53.408542
 31
0.0
  0
LINE
  5
2CFF
330
2B21
100
AcDbEntity
  8
0
100
AcDbLine
 10
94.0
 20
24.064304
 30
0.0
 11
94.0
 21
28.571429
 31
0.0
  0
LINE
  5
2D00
330
2B21
100
AcDbEntity
  8
0
100
AcDbLine
 10
94.0
 20
68.580225
 30
0.0
 11
94.0
 21
117.999481
 31
0.0
  0
LINE
  5
2D01
330
2B21
100
AcDbEntity
  8
0
100
AcDbLine
 10
94.0
 20
36.23529400000001
 30
0.0
 11
94.0
 21
52.55215699999999
 31
0.0
  0
LINE
  5
2D02
330
2B21
100
AcDbEntity
  8
0
100
AcDbLine
 10
94.50000000000001
 20
24.064304
 30
0.0
 11
94.50000000000001
 21
27.714286
 31
0.0
  0
LINE
  5
2D03
330
2B21
100
AcDbEntity
  8
0
100
AcDbLine
 10
94.50000000000001
 20
67.415221
 30
0.0
 11
94.50000000000001
 21
117.999895
 31
0.0
  0
LINE
  5
2D04
330
2B21
100
AcDbEntity
  8
0
100
AcDbLine
 10
94.50000000000001
 20
35.058824
 30
0.0
 11
94.50000000000001
 21
51.69577199999999
 31
0.0
  0
LINE
  5
2D05
330
2B21
100
AcDbEntity
  8
0
100
AcDbLine
 10
95.0
 20
24.064304
 30
0.0
 11
95.0
 21
26.857143
 31
0.0
  0
LINE
  5
2D06
330
2B21
100
AcDbEntity
  8
0
100
AcDbLine
 10
95.0
 20
66.25021700000001
 30
0.0
 11
95.0
 21
118.000309
 31
0.0
  0
LINE
  5
2D07
330
2B21
100
AcDbEntity
  8
0
100
AcDbLine
 10
95.0
 20
33.882353
 30
0.0
 11
95.0
 21
50.839387
 31
0.0
  0
LINE
  5
2D08
330
2B21
100
AcDbEntity
  8
0
100
AcDbLine
 10
95.5
 20
24.064304
 30
0.0
 11
95.5
 21
26.0
 31
0.0
  0
LINE
  5
2D09
330
2B21
100
AcDbEntity
  8
0
100
AcDbLine
 10
95.5
 20
65.085212
 30
0.0
 11
95.5
 21
118.000723
 31
0.0
  0
LINE
  5
2D0A
330
2B21
100
AcDbEntity
  8
0
100
AcDbLine
 10
95.5
 20
32.70588200000001
 30
0.0
 11
95.5
 21
49.983002
 31
0.0
  0
LINE
  5
2D0B
330
2B21
100
AcDbEntity
  8
0
100
AcDbLine
 10
96.0
 20
24.064304
 30
0.0
 11
96.0
 21
25.142857
 31
0.0
  0
LINE
  5
2D0C
330
2B21
100
AcDbEntity
  8
0
100
AcDbLine
 10
96.0
 20
63.920208
 30
0.0
 11
96.0
 21
118.001137
 31
0.0
  0
LINE
  5
2D0D
330
2B21
100
AcDbEntity
  8
0
100
AcDbLine
 10
96.0
 20
31.529412
 30
0.0
 11
96.0
 21
49.126617
 31
0.0
  0
LINE
  5
2D0E
330
2B21
100
AcDbEntity
  8
0
100
AcDbLine
 10
96.5
 20
24.064304
 30
0.0
 11
96.5
 21
24.285714
 31
0.0
  0
LINE
  5
2D0F
330
2B21
100
AcDbEntity
  8
0
100
AcDbLine
 10
96.5
 20
62.75520400000001
 30
0.0
 11
96.5
 21
118.00155
 31
0.0
  0
LINE
  5
2D10
330
2B21
100
AcDbEntity
  8
0
100
AcDbLine
 10
96.5
 20
30.352941
 30
0.0
 11
96.5
 21
48.270232
 31
0.0
  0
LINE
  5
2D11
330
2B21
100
AcDbEntity
  8
0
100
AcDbLine
 10
97.0
 20
29.176471
 30
0.0
 11
97.0
 21
47.413847
 31
0.0
  0
LINE
  5
2D12
330
2B21
100
AcDbEntity
  8
0
100
AcDbLine
 10
97.0
 20
61.590199
 30
0.0
 11
97.0
 21
118.001964
 31
0.0
  0
LINE
  5
2D13
330
2B21
100
AcDbEntity
  8
0
100
AcDbLine
 10
97.5
 20
28.0
 30
0.0
 11
97.5
 21
46.55746299999999
 31
0.0
  0
LINE
  5
2D14
330
2B21
100
AcDbEntity
  8
0
100
AcDbLine
 10
97.5
 20
60.425195
 30
0.0
 11
97.5
 21
118.002378
 31
0.0
  0
LINE
  5
2D15
330
2B21
100
AcDbEntity
  8
0
100
AcDbLine
 10
98.0
 20
26.823529
 30
0.0
 11
98.0
 21
45.701078
 31
0.0
  0
LINE
  5
2D16
330
2B21
100
AcDbEntity
  8
0
100
AcDbLine
 10
98.0
 20
59.26019100000001
 30
0.0
 11
98.0
 21
118.002792
 31
0.0
  0
LINE
  5
2D17
330
2B21
100
AcDbEntity
  8
0
100
AcDbLine
 10
98.50000000000001
 20
25.647059
 30
0.0
 11
98.50000000000001
 21
44.84469299999999
 31
0.0
  0
LINE
  5
2D18
330
2B21
100
AcDbEntity
  8
0
100
AcDbLine
 10
98.50000000000001
 20
58.095186
 30
0.0
 11
98.50000000000001
 21
118.003206
 31
0.0
  0
LINE
  5
2D19
330
2B21
100
AcDbEntity
  8
0
100
AcDbLine
 10
99.0
 20
24.470588
 30
0.0
 11
99.0
 21
43.988308
 31
0.0
  0
LINE
  5
2D1A
330
2B21
100
AcDbEntity
  8
0
100
AcDbLine
 10
99.0
 20
56.930182
 30
0.0
 11
99.0
 21
118.003619
 31
0.0
  0
LINE
  5
2D1B
330
2B21
100
AcDbEntity
  8
0
100
AcDbLine
 10
99.50000000000001
 20
24.064304
 30
0.0
 11
99.50000000000001
 21
43.13192299999999
 31
0.0
  0
LINE
  5
2D1C
330
2B21
100
AcDbEntity
  8
0
100
AcDbLine
 10
99.50000000000001
 20
55.76517800000001
 30
0.0
 11
99.50000000000001
 21
118.004033
 31
0.0
  0
LINE
  5
2D1D
330
2B21
100
AcDbEntity
  8
0
100
AcDbLine
 10
100.0
 20
24.064304
 30
0.0
 11
100.0
 21
42.27553799999999
 31
0.0
  0
LINE
  5
2D1E
330
2B21
100
AcDbEntity
  8
0
100
AcDbLine
 10
100.0
 20
54.600173
 30
0.0
 11
100.0
 21
118.004447
 31
0.0
  0
LINE
  5
2D1F
330
2B21
100
AcDbEntity
  8
0
100
AcDbLine
 10
100.5
 20
24.064304
 30
0.0
 11
100.5
 21
41.41915299999999
 31
0.0
  0
LINE
  5
2D20
330
2B21
100
AcDbEntity
  8
0
100
AcDbLine
 10
100.5
 20
53.435169
 30
0.0
 11
100.5
 21
118.004861
 31
0.0
  0
LINE
  5
2D21
330
2B21
100
AcDbEntity
  8
0
100
AcDbLine
 10
101.0
 20
24.064304
 30
0.0
 11
101.0
 21
40.562768
 31
0.0
  0
LINE
  5
2D22
330
2B21
100
AcDbEntity
  8
0
100
AcDbLine
 10
101.0
 20
52.27016500000001
 30
0.0
 11
101.0
 21
118.005275
 31
0.0
  0
LINE
  5
2D23
330
2B21
100
AcDbEntity
  8
0
100
AcDbLine
 10
101.5
 20
24.064304
 30
0.0
 11
101.5
 21
39.706383
 31
0.0
  0
LINE
  5
2D24
330
2B21
100
AcDbEntity
  8
0
100
AcDbLine
 10
101.5
 20
51.10516
 30
0.0
 11
101.5
 21
118.005688
 31
0.0
  0
LINE
  5
2D25
330
2B21
100
AcDbEntity
  8
0
100
AcDbLine
 10
102.0
 20
24.064304
 30
0.0
 11
102.0
 21
38.849998
 31
0.0
  0
LINE
  5
2D26
330
2B21
100
AcDbEntity
  8
0
100
AcDbLine
 10
102.0
 20
49.940156
 30
0.0
 11
102.0
 21
118.006102
 31
0.0
  0
LINE
  5
2D27
330
2B21
100
AcDbEntity
  8
0
100
AcDbLine
 10
102.5
 20
24.064304
 30
0.0
 11
102.5
 21
37.99361300000001
 31
0.0
  0
LINE
  5
2D28
330
2B21
100
AcDbEntity
  8
0
100
AcDbLine
 10
102.5
 20
48.775152
 30
0.0
 11
102.5
 21
118.006516
 31
0.0
  0
LINE
  5
2D29
330
2B21
100
AcDbEntity
  8
0
100
AcDbLine
 10
103.0
 20
24.064304
 30
0.0
 11
103.0
 21
37.137228
 31
0.0
  0
LINE
  5
2D2A
330
2B21
100
AcDbEntity
  8
0
100
AcDbLine
 10
103.0
 20
47.61014699999999
 30
0.0
 11
103.0
 21
118.00693
 31
0.0
  0
LINE
  5
2D2B
330
2B21
100
AcDbEntity
  8
0
100
AcDbLine
 10
103.5
 20
24.064304
 30
0.0
 11
103.5
 21
36.280844
 31
0.0
  0
LINE
  5
2D2C
330
2B21
100
AcDbEntity
  8
0
100
AcDbLine
 10
103.5
 20
46.44514299999999
 30
0.0
 11
103.5
 21
118.007344
 31
0.0
  0
LINE
  5
2D2D
330
2B21
100
AcDbEntity
  8
0
100
AcDbLine
 10
104.0
 20
24.064304
 30
0.0
 11
104.0
 21
35.42445900000001
 31
0.0
  0
LINE
  5
2D2E
330
2B21
100
AcDbEntity
  8
0
100
AcDbLine
 10
104.0
 20
45.280139
 30
0.0
 11
104.0
 21
118.007758
 31
0.0
  0
LINE
  5
2D2F
330
2B21
100
AcDbEntity
  8
0
100
AcDbLine
 10
104.5
 20
24.064304
 30
0.0
 11
104.5
 21
34.568074
 31
0.0
  0
LINE
  5
2D30
330
2B21
100
AcDbEntity
  8
0
100
AcDbLine
 10
104.5
 20
44.115134
 30
0.0
 11
104.5
 21
118.008171
 31
0.0
  0
LINE
  5
2D31
330
2B21
100
AcDbEntity
  8
0
100
AcDbLine
 10
105.0
 20
24.064304
 30
0.0
 11
105.0
 21
33.711689
 31
0.0
  0
LINE
  5
2D32
330
2B21
100
AcDbEntity
  8
0
100
AcDbLine
 10
105.0
 20
42.95012999999999
 30
0.0
 11
105.0
 21
118.008585
 31
0.0
  0
LINE
  5
2D33
330
2B21
100
AcDbEntity
  8
0
100
AcDbLine
 10
105.5
 20
24.064304
 30
0.0
 11
105.5
 21
32.855304
 31
0.0
  0
LINE
  5
2D34
330
2B21
100
AcDbEntity
  8
0
100
AcDbLine
 10
105.5
 20
41.785126
 30
0.0
 11
105.5
 21
118.008999
 31
0.0
  0
LINE
  5
2D35
330
2B21
100
AcDbEntity
  8
0
100
AcDbLine
 10
106.0
 20
24.064304
 30
0.0
 11
106.0
 21
31.998919
 31
0.0
  0
LINE
  5
2D36
330
2B21
100
AcDbEntity
  8
0
100
AcDbLine
 10
106.0
 20
40.620121
 30
0.0
 11
106.0
 21
118.009413
 31
0.0
  0
LINE
  5
2D37
330
2B21
100
AcDbEntity
  8
0
100
AcDbLine
 10
106.5
 20
24.064304
 30
0.0
 11
106.5
 21
31.142534
 31
0.0
  0
LINE
  5
2D38
330
2B21
100
AcDbEntity
  8
0
100
AcDbLine
 10
106.5
 20
39.455117
 30
0.0
 11
106.5
 21
118.009827
 31
0.0
  0
LINE
  5
2D39
330
2B21
100
AcDbEntity
  8
0
100
AcDbLine
 10
107.0
 20
24.064304
 30
0.0
 11
107.0
 21
30.286149
 31
0.0
  0
LINE
  5
2D3A
330
2B21
100
AcDbEntity
  8
0
100
AcDbLine
 10
107.0
 20
38.290113
 30
0.0
 11
107.0
 21
118.01024
 31
0.0
  0
LINE
  5
2D3B
330
2B21
100
AcDbEntity
  8
0
100
AcDbLine
 10
107.5
 20
24.064304
 30
0.0
 11
107.5
 21
29.429764
 31
0.0
  0
LINE
  5
2D3C
330
2B21
100
AcDbEntity
  8
0
100
AcDbLine
 10
107.5
 20
37.125108
 30
0.0
 11
107.5
 21
118.010654
 31
0.0
  0
LINE
  5
2D3D
330
2B21
100
AcDbEntity
  8
0
100
AcDbLine
 10
108.0
 20
24.064304
 30
0.0
 11
108.0
 21
28.573379
 31
0.0
  0
LINE
  5
2D3E
330
2B21
100
AcDbEntity
  8
0
100
AcDbLine
 10
108.0
 20
35.960104
 30
0.0
 11
108.0
 21
118.011068
 31
0.0
  0
LINE
  5
2D3F
330
2B21
100
AcDbEntity
  8
0
100
AcDbLine
 10
108.5
 20
24.064304
 30
0.0
 11
108.5
 21
27.716994
 31
0.0
  0
LINE
  5
2D40
330
2B21
100
AcDbEntity
  8
0
100
AcDbLine
 10
108.5
 20
34.7951
 30
0.0
 11
108.5
 21
118.011482
 31
0.0
  0
LINE
  5
2D41
330
2B21
100
AcDbEntity
  8
0
100
AcDbLine
 10
109.0
 20
24.064304
 30
0.0
 11
109.0
 21
26.86060900000001
 31
0.0
  0
LINE
  5
2D42
330
2B21
100
AcDbEntity
  8
0
100
AcDbLine
 10
109.0
 20
33.630095
 30
0.0
 11
109.0
 21
118.011896
 31
0.0
  0
LINE
  5
2D43
330
2B21
100
AcDbEntity
  8
0
100
AcDbLine
 10
109.5
 20
24.064304
 30
0.0
 11
109.5
 21
26.004225
 31
0.0
  0
LINE
  5
2D44
330
2B21
100
AcDbEntity
  8
0
100
AcDbLine
 10
109.5
 20
32.46509099999999
 30
0.0
 11
109.5
 21
118.012309
 31
0.0
  0
LINE
  5
2D45
330
2B21
100
AcDbEntity
  8
0
100
AcDbLine
 10
110.0
 20
24.064304
 30
0.0
 11
110.0
 21
25.14784
 31
0.0
  0
LINE
  5
2D46
330
2B21
100
AcDbEntity
  8
0
100
AcDbLine
 10
110.0
 20
31.300087
 30
0.0
 11
110.0
 21
118.012723
 31
0.0
  0
LINE
  5
2D47
330
2B21
100
AcDbEntity
  8
0
100
AcDbLine
 10
110.5
 20
24.064304
 30
0.0
 11
110.5
 21
24.291455
 31
0.0
  0
LINE
  5
2D48
330
2B21
100
AcDbEntity
  8
0
100
AcDbLine
 10
110.5
 20
30.135082
 30
0.0
 11
110.5
 21
118.013137
 31
0.0
  0
LINE
  5
2D49
330
2B21
100
AcDbEntity
  8
0
100
AcDbLine
 10
111.0
 20
28.97007800000001
 30
0.0
 11
111.0
 21
118.013551
 31
0.0
  0
LINE
  5
2D4A
330
2B21
100
AcDbEntity
  8
0
100
AcDbLine
 10
111.5
 20
27.805074
 30
0.0
 11
111.5
 21
118.013965
 31
0.0
  0
LINE
  5
2D4B
330
2B21
100
AcDbEntity
  8
0
100
AcDbLine
 10
112.0
 20
26.640069
 30
0.0
 11
112.0
 21
118.014378
 31
0.0
  0
LINE
  5
2D4C
330
2B21
100
AcDbEntity
  8
0
100
AcDbLine
 10
112.5
 20
25.475065
 30
0.0
 11
112.5
 21
118.014792
 31
0.0
  0
LINE
  5
2D4D
330
2B21
100
AcDbEntity
  8
0
100
AcDbLine
 10
113.0
 20
24.310061
 30
0.0
 11
113.0
 21
118.015206
 31
0.0
  0
ENDBLK
  5
2D4E
330
2B21
100
AcDbEntity
  8
0
100
AcDbBlockEnd
  0
BLOCK
  5
2D50
330
2D4F
100
AcDbEntity
  8
0
100
AcDbBlockBegin
  2
A3A
 70
     2
 10
0.0
 20
0.0
 30
0.0
  3
A3A
  1

  0
LINE
  5
2D51
330
2D4F
100
AcDbEntity
  8
0
 62
     7
100
AcDbLine
 10
84.37046570631792
 20
47.49999999999997
 30
0.0
 11
280.6346223039411
 21
47.49999999999997
 31
0.0
  0
LINE
  5
2D52
330
2D4F
100
AcDbEntity
  8
0
100
AcDbLine
 10
95.20082054913055
 20
18.19918428350232
 30
0.0
 11
95.20082054913055
 21
0.4999999999999716
 31
0.0
  0
LINE
  5
2D53
330
2D4F
100
AcDbEntity
  8
0
 62
     3
100
AcDbLine
 10
134.7823020708698
 20
35.63664892128682
 30
0.0
 11
134.7823020708698
 21
0.7496819567552678
 31
0.0
  0
LINE
  5
2D54
330
2D4F
100
AcDbEntity
  8
0
 62
     3
100
AcDbLine
 10
228.8850507222057
 20
23.44463693090998
 30
0.0
 11
280.6346223039412
 21
23.44463693090998
 31
0.0
  0
LINE
  5
2D55
330
2D4F
100
AcDbEntity
  8
0
 62
     3
100
AcDbLine
 10
228.8850507222057
 20
35.63664892128682
 30
0.0
 11
228.8850507222057
 21
12.10895691175287
 31
0.0
  0
LINE
  5
2D56
330
2D4F
100
AcDbEntity
  8
0
 62
     3
100
AcDbLine
 10
247.3532711655506
 20
35.74968195675527
 30
0.0
 11
247.3532711655507
 21
23.44463693090999
 31
0.0
  0
TEXT
  5
2D57
330
2D4F
100
AcDbEntity
  8
0
 62
     7
100
AcDbText
 10
278.0486419070005
 20
30.43906285462336
 30
0.0
 40
1.438571755054918
  1
R
  7
ROMANS
100
AcDbText
  0
CIRCLE
  5
2D58
330
2D4F
100
AcDbEntity
  8
0
 62
     7
100
AcDbCircle
 10
278.6669662607072
 20
31.18995967239246
 30
0.0
 40
1.298239169517934
  0
ARC
  5
2D59
330
2D4F
100
AcDbEntity
  8
0
 62
     7
100
AcDbCircle
 10
268.3781746886561
 20
29.11348080054679
 30
0.0
 40
0.9736793771384506
100
AcDbArc
 50
26.565051177078
 51
333.434948822922
  0
CIRCLE
  5
2D5A
330
2D4F
100
AcDbEntity
  8
0
 62
     7
100
AcDbCircle
 10
273.2465715743483
 20
29.11348080054679
 30
0.0
 40
0.9736793771384506
  0
LINE
  5
2D5B
330
2D4F
100
AcDbEntity
  8
0
 62
     7
100
AcDbLine
 10
265.4571365572408
 20
27.16612204626986
 30
0.0
 11
265.4571365572408
 21
32.52135862053135
 31
0.0
  0
LINE
  5
2D5C
330
2D4F
100
AcDbEntity
  8
0
 62
     7
100
AcDbLine
 10
264.9702968686715
 20
32.52135862053135
 30
0.0
 11
264.9702968686715
 21
27.16612204626986
 31
0.0
  0
LINE
  5
2D5D
330
2D4F
100
AcDbEntity
  8
0
 62
     7
100
AcDbLine
 10
264.4834571801022
 20
32.52135862053135
 30
0.0
 11
264.4834571801022
 21
27.16612204626986
 31
0.0
  0
LINE
  5
2D5E
330
2D4F
100
AcDbEntity
  8
0
 62
     7
100
AcDbLine
 10
263.5097778029638
 20
28.13980142340833
 30
0.0
 11
261.5624190486869
 21
28.13980142340833
 31
0.0
  0
LINE
  5
2D5F
330
2D4F
100
AcDbEntity
  8
0
 62
     7
100
AcDbLine
 10
261.5624190486869
 20
27.65296173483913
 30
0.0
 11
263.5097778029638
 21
27.65296173483913
 31
0.0
  0
LINE
  5
2D60
330
2D4F
100
AcDbEntity
  8
0
 62
     7
100
AcDbLine
 10
261.5624190486869
 20
27.16612204626986
 30
0.0
 11
263.5097778029638
 21
27.16612204626986
 31
0.0
  0
ARC
  5
2D61
330
2D4F
100
AcDbEntity
  8
0
 62
     7
100
AcDbCircle
 10
261.5624190486869
 20
29.11348080054679
 30
0.0
 40
1.947358754276901
100
AcDbArc
 50
347.9570467539289
 51
270.0
  0
ARC
  5
2D62
330
2D4F
100
AcDbEntity
  8
0
 62
     7
100
AcDbCircle
 10
261.5624190486869
 20
29.11348080054679
 30
0.0
 40
1.460519065707676
100
AcDbArc
 50
343.8672488335547
 51
270.0
  0
ARC
  5
2D63
330
2D4F
100
AcDbEntity
  8
0
 62
     7
100
AcDbCircle
 10
261.5624190486869
 20
29.11348080054679
 30
0.0
 40
0.9736793771384506
100
AcDbArc
 50
334.9757291819141
 51
270.0
  0
LINE
  5
2D64
330
2D4F
100
AcDbEntity
  8
0
 62
     7
100
AcDbLine
 10
257.1808618515639
 20
29.11348080054679
 30
0.0
 11
256.6940221629947
 21
31.06083955482367
 31
0.0
  0
LINE
  5
2D65
330
2D4F
100
AcDbEntity
  8
0
 62
     7
100
AcDbLine
 10
257.6677015401331
 20
31.06083955482367
 30
0.0
 11
257.1808618515639
 21
29.11348080054679
 31
0.0
  0
LINE
  5
2D66
330
2D4F
100
AcDbEntity
  8
0
 62
     7
100
AcDbLine
 10
258.6413809172715
 20
31.06083955482367
 30
0.0
 11
257.6677015401331
 21
27.16612204626986
 31
0.0
  0
LINE
  5
2D67
330
2D4F
100
AcDbEntity
  8
0
 62
     7
100
AcDbLine
 10
257.1808618515639
 20
27.16612204626986
 30
0.0
 11
258.1545412287024
 21
31.06083955482367
 31
0.0
  0
LINE
  5
2D68
330
2D4F
100
AcDbEntity
  8
0
 62
     7
100
AcDbLine
 10
256.2071824744255
 20
31.06083955482367
 30
0.0
 11
257.1808618515639
 21
27.16612204626986
 31
0.0
  0
LINE
  5
2D69
330
2D4F
100
AcDbEntity
  8
0
 62
     7
100
AcDbLine
 10
255.7203427858562
 20
31.06083955482367
 30
0.0
 11
256.6940221629947
 21
27.16612204626986
 31
0.0
  0
CIRCLE
  5
2D6A
330
2D4F
100
AcDbEntity
  8
0
 62
     7
100
AcDbCircle
 10
254.2598237201486
 20
32.03451893196214
 30
0.0
 40
0.4868396885692254
  0
LINE
  5
2D6B
330
2D4F
100
AcDbEntity
  8
0
 62
     7
100
AcDbLine
 10
254.7466634087178
 20
31.06083955482367
 30
0.0
 11
254.7466634087178
 21
27.16612204626986
 31
0.0
  0
LINE
  5
2D6C
330
2D4F
100
AcDbEntity
  8
0
 62
     7
100
AcDbLine
 10
254.2598237201486
 20
27.16612204626986
 30
0.0
 11
254.2598237201486
 21
31.06083955482367
 31
0.0
  0
LINE
  5
2D6D
330
2D4F
100
AcDbEntity
  8
0
 62
     7
100
AcDbLine
 10
253.7729840315794
 20
31.06083955482367
 30
0.0
 11
253.7729840315794
 21
27.16612204626986
 31
0.0
  0
LINE
  5
2D6E
330
2D4F
100
AcDbEntity
  8
0
 62
     7
100
AcDbLine
 10
252.3124649658717
 20
27.16612204626986
 30
0.0
 11
252.3124649658717
 21
29.11348080054679
 31
0.0
  0
LINE
  5
2D6F
330
2D4F
100
AcDbEntity
  8
0
 62
     7
100
AcDbLine
 10
251.8256252773024
 20
29.11348080054679
 30
0.0
 11
251.8256252773024
 21
27.16612204626986
 31
0.0
  0
ARC
  5
2D70
330
2D4F
100
AcDbEntity
  8
0
 62
     7
100
AcDbCircle
 10
250.851945900164
 20
29.11348080054679
 30
0.0
 40
1.460519065707676
100
AcDbArc
 50
0.0
 51
109.245387990013
  0
ARC
  5
2D71
330
2D4F
100
AcDbEntity
  8
0
 62
     7
100
AcDbCircle
 10
250.851945900164
 20
29.11348080054679
 30
0.0
 40
0.9736793771384506
100
AcDbArc
 50
0.0
 51
119.1091363549823
  0
LINE
  5
2D72
330
2D4F
100
AcDbEntity
  8
0
 62
     7
100
AcDbLine
 10
252.7993046544409
 20
29.11348080054679
 30
0.0
 11
252.7993046544409
 21
27.16612204626986
 31
0.0
  0
ARC
  5
2D73
330
2D4F
100
AcDbEntity
  8
0
 62
     7
100
AcDbCircle
 10
250.9625912839297
 20
29.31264249132508
 30
0.0
 40
1.847479738586645
100
AcDbArc
 50
353.8113840367584
 51
108.8689994550615
  0
LINE
  5
2D74
330
2D4F
100
AcDbEntity
  8
0
 62
     7
100
AcDbLine
 10
250.3651062115948
 20
27.16612204626986
 30
0.0
 11
250.3651062115948
 21
31.06083955482367
 31
0.0
  0
LINE
  5
2D75
330
2D4F
100
AcDbEntity
  8
0
 62
     7
100
AcDbLine
 10
249.8782665230255
 20
31.06083955482367
 30
0.0
 11
249.8782665230255
 21
27.16612204626986
 31
0.0
  0
LINE
  5
2D76
330
2D4F
100
AcDbEntity
  8
0
 62
     7
100
AcDbLine
 10
249.3914268344564
 20
27.16612204626986
 30
0.0
 11
249.3914268344564
 21
31.06083955482367
 31
0.0
  0
LINE
  5
2D77
330
2D4F
100
AcDbEntity
  8
0
 62
     7
100
AcDbLine
 10
248.4177474573178
 20
31.22311945101339
 30
0.0
 11
248.4177474573178
 21
27.00384215008015
 31
0.0
  0
LINE
  5
2D78
330
2D4F
100
AcDbEntity
  8
0
 62
     7
100
AcDbLine
 10
275.356210224815
 20
25.70560298056219
 30
0.0
 11
249.7159866268358
 21
25.70560298056219
 31
0.0
  0
LINE
  5
2D79
330
2D4F
100
AcDbEntity
  8
0
 62
     7
100
AcDbLine
 10
276.6544493943329
 20
31.22311945101339
 30
0.0
 11
276.6544493943329
 21
27.00384215008015
 31
0.0
  0
LINE
  5
2D7A
330
2D4F
100
AcDbEntity
  8
0
 62
     7
100
AcDbLine
 10
249.7159866268358
 20
32.52135862053135
 30
0.0
 11
253.6431309366614
 21
32.52135862053135
 31
0.0
  0
ARC
  5
2D7B
330
2D4F
100
AcDbEntity
  8
0
 62
     7
100
AcDbCircle
 10
268.3781746886561
 20
29.11348080054679
 30
0.0
 40
1.946223752832486
100
AcDbArc
 50
12.92863215792523
 51
347.0713678420747
  0
CIRCLE
  5
2D7C
330
2D4F
100
AcDbEntity
  8
0
 62
     7
100
AcDbCircle
 10
273.2465715743483
 20
29.11348080054679
 30
0.0
 40
1.946223752832486
  0
ARC
  5
2D7D
330
2D4F
100
AcDbEntity
  8
0
 62
     7
100
AcDbCircle
 10
249.7159866268358
 20
27.00384215008015
 30
0.0
 40
1.298239169517934
100
AcDbArc
 50
180.0
 51
270.0
  0
ARC
  5
2D7E
330
2D4F
100
AcDbEntity
  8
0
 62
     7
100
AcDbCircle
 10
249.7159866268358
 20
31.22311945101339
 30
0.0
 40
1.298239169517934
100
AcDbArc
 50
90.0
 51
180.0
  0
ARC
  5
2D7F
330
2D4F
100
AcDbEntity
  8
0
 62
     7
100
AcDbCircle
 10
275.356210224815
 20
31.22311945101339
 30
0.0
 40
1.298239169517934
100
AcDbArc
 50
0.0
 51
90.0
  0
ARC
  5
2D80
330
2D4F
100
AcDbEntity
  8
0
 62
     7
100
AcDbCircle
 10
275.356210224815
 20
27.00384215008015
 30
0.0
 40
1.298239169517934
100
AcDbArc
 50
270.0
 51
0.0
  0
LINE
  5
2D81
330
2D4F
100
AcDbEntity
  8
0
 62
     7
100
AcDbLine
 10
265.7989608819737
 20
32.52135862053135
 30
0.0
 11
275.356210224815
 21
32.52135862053135
 31
0.0
  0
LINE
  5
2D82
330
2D4F
100
AcDbEntity
  8
0
 62
     7
100
AcDbLine
 10
254.8767036138336
 20
32.52135862053135
 30
0.0
 11
264.1541973124108
 21
32.52135862053135
 31
0.0
  0
POINT
  5
2D83
330
2D4F
100
AcDbEntity
  8
0
 62
     7
100
AcDbPoint
 10
254.2598237201486
 20
32.03451893196214
 30
0.0
  0
TEXT
  5
2D84
330
2D4F
100
AcDbEntity
  8
0
100
AcDbText
 10
229.5013774808956
 20
32.44352293440872
 30
0.0
 40
2.0
  1
M\U+00E9retar\U+00E1ny:
  7
ROMANS
100
AcDbText
  0
TEXT
  5
2D85
330
2D4F
100
AcDbEntity
  8
0
100
AcDbText
 10
163.8704657063179
 20
8.499999999999971
 30
0.0
 40
2.0
  1
Rajzsz\U+00E1m:
  7
ROMANS
100
AcDbText
  0
TEXT
  5
2D86
330
2D4F
100
AcDbEntity
  8
0
100
AcDbText
 10
229.460806505213
 20
19.6415838701723
 30
0.0
 40
2.0
  1
Dwg:
  7
ROMANS
100
AcDbText
  0
TEXT
  5
2D87
330
2D4F
100
AcDbEntity
  8
0
100
AcDbText
 10
248.3704657063179
 20
8.437466653733196
 30
0.0
 40
2.0
  1
V\U+00E1ltozat:
  7
ROMANS
100
AcDbText
  0
TEXT
  5
2D88
330
2D4F
100
AcDbEntity
  8
0
 62
     7
100
AcDbText
 10
135.4046021446162
 20
8.499999999999971
 30
0.0
 40
2.0
  1
Lap.:
  7
ROMANS
100
AcDbText
  0
TEXT
  5
2D89
330
2D4F
100
AcDbEntity
  8
0
100
AcDbText
 10
135.7357295428187
 20
32.09868379611592
 30
0.0
 40
2.0
  1
Megnevez\U+00E9s:
  7
ROMANS
100
AcDbText
  0
TEXT
  5
2D8A
330
2D4F
100
AcDbEntity
  8
0
100
AcDbText
 10
85.10202623700832
 20
14.14954051660308
 30
0.0
 40
2.0
  1
Terv.
  7
ROMANS
100
AcDbText
  0
TEXT
  5
2D8B
330
2D4F
100
AcDbEntity
  8
0
100
AcDbText
 10
85.03851180737232
 20
8.504842915028831
 30
0.0
 40
2.0
  1
Ell.
  7
ROMANS
100
AcDbText
  0
TEXT
  5
2D8C
330
2D4F
100
AcDbEntity
  8
0
100
AcDbText
 10
84.83526563253716
 20
2.355639309624251
 30
0.0
 40
2.0
  1
Eng.
  7
ROMANS
100
AcDbText
  0
LINE
  5
2D8D
330
2D4F
100
AcDbEntity
  8
0
100
AcDbLine
 10
118.3999558468312
 20
18.19918428350232
 30
0.0
 11
118.3999558468312
 21
0.4999999999999716
 31
0.0
  0
LINE
  5
2D8E
330
2D4F
100
AcDbEntity
  8
0
100
AcDbLine
 10
84.37046570631792
 20
6.73519495388578
 30
0.0
 11
134.7823020708698
 21
6.73519495388578
 31
0.0
  0
LINE
  5
2D8F
330
2D4F
100
AcDbEntity
  8
0
100
AcDbLine
 10
84.37046570631792
 20
12.10895691175287
 30
0.0
 11
134.7823020708698
 21
12.10895691175287
 31
0.0
  0
LINE
  5
2D90
330
2D4F
100
AcDbEntity
  8
0
100
AcDbLine
 10
84.37046570631792
 20
18.19918428350232
 30
0.0
 11
134.7823020708698
 21
18.19918428350232
 31
0.0
  0
LINE
  5
2D91
330
2D4F
100
AcDbEntity
  8
0
100
AcDbLine
 10
84.37046570631792
 20
23.40339798651607
 30
0.0
 11
134.7823020708698
 21
23.40339798651607
 31
0.0
  0
TEXT
  5
2D92
330
2D4F
100
AcDbEntity
  8
0
100
AcDbText
 10
229.3704657063179
 20
13.64431747114347
 30
0.0
 40
2.0
  1
R.
  7
ROMANS
100
AcDbText
  0
LINE
  5
2D93
330
2D4F
100
AcDbEntity
  8
0
 62
     3
100
AcDbLine
 10
0.5
 20
0.5
 30
0.0
 11
280.6346223039412
 21
0.5000000000000285
 31
0.0
  0
LINE
  5
2D94
330
2D4F
100
AcDbEntity
  8
0
 62
     3
100
AcDbLine
 10
84.37046570631792
 20
47.49999999999997
 30
0.0
 11
280.6346223039411
 21
47.49999999999997
 31
0.0
  0
TEXT
  5
2D95
330
2D4F
100
AcDbEntity
  8
0
100
AcDbText
 10
111.2857988768566
 20
52.55732474720102
 30
0.0
 40
1.6
  1
Megnevez\U+00E9s
  7
ROMANS
100
AcDbText
  0
TEXT
  5
2D96
330
2D4F
100
AcDbEntity
  8
0
100
AcDbText
 10
90.43574805096632
 20
53.02197036431481
 30
0.0
 40
1.6
  1
T.
  7
ROMANS
100
AcDbText
  0
TEXT
  5
2D97
330
2D4F
100
AcDbEntity
  8
0
100
AcDbText
 10
97.87121282011895
 20
52.69820309934276
 30
0.0
 40
1.6
  1
Db.
  7
ROMANS
100
AcDbText
  0
LINE
  5
2D98
330
2D4F
100
AcDbEntity
  8
0
100
AcDbLine
 10
96.43574805096626
 20
51.49999999999998
 30
0.0
 11
96.43574805096626
 21
47.50000000000004
 31
0.0
  0
LINE
  5
2D99
330
2D4F
100
AcDbEntity
  8
0
100
AcDbLine
 10
102.9357480509663
 20
47.50000000000004
 30
0.0
 11
102.9357480509663
 21
51.50000000000004
 31
0.0
  0
TEXT
  5
2D9A
330
2D4F
100
AcDbEntity
  8
0
100
AcDbText
 10
148.8199050846536
 20
52.561915904568
 30
0.0
 40
1.6
  1
M\U+00E9ret
  7
ROMANS
100
AcDbText
  0
LINE
  5
2D9B
330
2D4F
100
AcDbEntity
  8
0
100
AcDbLine
 10
139.6041910676061
 20
47.50000000000002
 30
0.0
 11
139.6041910676061
 21
51.50000000000003
 31
0.0
  0
LINE
  5
2D9C
330
2D4F
100
AcDbEntity
  8
0
100
AcDbLine
 10
166.2430764549098
 20
47.50000000000002
 30
0.0
 11
166.2430764549098
 21
51.50000000000003
 31
0.0
  0
TEXT
  5
2D9D
330
2D4F
100
AcDbEntity
  8
0
100
AcDbText
 10
169.6000550541372
 20
52.54808702199344
 30
0.0
 40
1.6
  1
M\U+00E9retszabv.
  7
ROMANS
100
AcDbText
  0
TEXT
  5
2D9E
330
2D4F
100
AcDbEntity
  8
0
100
AcDbText
 10
233.3495366897797
 20
52.54115601298739
 30
0.0
 40
1.6
  1
Rajzsz\U+00E1m/cikksz\U+00E1m
  7
ROMANS
100
AcDbText
  0
TEXT
  5
2D9F
330
2D4F
100
AcDbEntity
  8
0
100
AcDbText
 10
193.3565461551903
 20
52.48228615896451
 30
0.0
 40
1.6
  1
Anyag
  7
ROMANS
100
AcDbText
  0
LINE
  5
2DA0
330
2D4F
100
AcDbEntity
  8
0
100
AcDbLine
 10
185.3814871433591
 20
47.50000000000002
 30
0.0
 11
185.3814871433591
 21
51.49999999999997
 31
0.0
  0
LINE
  5
2DA1
330
2D4F
100
AcDbEntity
  8
0
100
AcDbLine
 10
212.0415902808718
 20
47.50000000000002
 30
0.0
 11
212.0415902808718
 21
51.49999999999997
 31
0.0
  0
TEXT
  5
2DA2
330
2D4F
100
AcDbEntity
  8
0
100
AcDbText
 10
215.0662148963377
 20
52.51623443268207
 30
0.0
 40
1.6
  1
Anyagszabv.
  7
ROMANS
100
AcDbText
  0
LINE
  5
2DA3
330
2D4F
100
AcDbEntity
  8
0
100
AcDbLine
 10
231.1481743440077
 20
47.50000000000002
 30
0.0
 11
231.1481743440077
 21
51.50000000000003
 31
0.0
  0
LINE
  5
2DA4
330
2D4F
100
AcDbEntity
  8
0
100
AcDbLine
 10
261.23830126757
 20
47.49999999999997
 30
0.0
 11
261.2383012675701
 21
51.50000000000003
 31
0.0
  0
TEXT
  5
2DA5
330
2D4F
100
AcDbEntity
  8
0
100
AcDbText
 10
263.2397445412777
 20
52.53315600890224
 30
0.0
 40
1.6
  1
Egy\U+00E9b
  7
ROMANS
100
AcDbText
  0
LINE
  5
2DA6
330
2D4F
100
AcDbEntity
  8
0
100
AcDbLine
 10
84.37046570631792
 20
43.74968195675527
 30
0.0
 11
280.6346223039412
 21
43.74968195675527
 31
0.0
  0
LINE
  5
2DA7
330
2D4F
100
AcDbEntity
  8
0
100
AcDbLine
 10
84.37046570631787
 20
47.49999999999997
 30
0.0
 11
280.6346223039411
 21
47.49999999999997
 31
0.0
  0
LINE
  5
2DA8
330
2D4F
100
AcDbEntity
  8
0
100
AcDbLine
 10
84.37046570631787
 20
51.49999999999997
 30
0.0
 11
280.6346223039411
 21
51.50000000000003
 31
0.0
  0
LINE
  5
2DA9
330
2D4F
100
AcDbEntity
  8
0
100
AcDbLine
 10
84.37046570631792
 20
39.74968195675527
 30
0.0
 11
280.6346223039412
 21
39.74968195675527
 31
0.0
  0
LINE
  5
2DAA
330
2D4F
100
AcDbEntity
  8
0
 62
     3
100
AcDbLine
 10
84.37046570631792
 20
35.74968195675527
 30
0.0
 11
280.6346223039412
 21
35.74968195675527
 31
0.0
  0
LINE
  5
2DAB
330
2D4F
100
AcDbEntity
  8
0
 62
     3
100
AcDbLine
 10
185.3814871433591
 20
35.74968195675527
 30
0.0
 11
185.3814871433591
 21
47.49999999999997
 31
0.0
  0
LINE
  5
2DAC
330
2D4F
100
AcDbEntity
  8
0
 62
     3
100
AcDbLine
 10
166.2430764549098
 20
35.74968195675527
 30
0.0
 11
166.2430764549098
 21
47.49999999999997
 31
0.0
  0
LINE
  5
2DAD
330
2D4F
100
AcDbEntity
  8
0
 62
     3
100
AcDbLine
 10
261.2383012675701
 20
35.8793799012793
 30
0.0
 11
261.2383012675701
 21
47.49999999999997
 31
0.0
  0
TEXT
  5
2DAE
330
2D4F
100
AcDbEntity
  8
0
 62
     7
100
AcDbText
 10
109.6715241782774
 20
36.55807951631537
 30
0.0
 40
2.2
  1
V\U+00E1ltoz\U+00E1s
  7
ROMANS
100
AcDbText
  0
TEXT
  5
2DAF
330
2D4F
100
AcDbEntity
  8
0
 62
     7
100
AcDbText
 10
166.6038360596739
 20
36.5718135498006
 30
0.0
 40
2.2
  1
D\U+00E1tum Jel
  7
ROMANS
100
AcDbText
  0
TEXT
  5
2DB0
330
2D4F
100
AcDbEntity
  8
0
 62
     7
100
AcDbText
 10
208.8036024770891
 20
36.55963656936507
 30
0.0
 40
2.2
  1
V\U+00E1ltoz\U+00E1s
  7
ROMANS
100
AcDbText
  0
TEXT
  5
2DB1
330
2D4F
100
AcDbEntity
  8
0
 62
     7
100
AcDbText
 10
261.7531643166138
 20
36.58172338730474
 30
0.0
 40
2.2
  1
D\U+00E1tum Jel
  7
ROMANS
100
AcDbText
  0
LINE
  5
2DB2
330
2D4F
100
AcDbEntity
  8
0
 62
     3
100
AcDbLine
 10
228.8850507222056
 20
18.19918428350232
 30
0.0
 11
280.6346223039412
 21
18.19918428350232
 31
0.0
  0
LINE
  5
2DB3
330
2D4F
100
AcDbEntity
  8
0
100
AcDbLine
 10
272.585664174079
 20
1.3630737068884
 30
0.0
 11
274.4485797740791
 21
4.556643306888389
 31
0.0
  0
LINE
  5
2DB4
330
2D4F
100
AcDbEntity
  8
0
100
AcDbLine
 10
273.648579774079
 20
5.3566433068884
 30
0.0
 11
272.2223048740791
 21
1.3630737068884
 31
0.0
  0
LINE
  5
2DB5
330
2D4F
100
AcDbEntity
  8
0
100
AcDbLine
 10
274.4485797740791
 20
5.3566433068884
 30
0.0
 11
273.648579774079
 21
5.3566433068884
 31
0.0
  0
LINE
  5
2DB6
330
2D4F
100
AcDbEntity
  8
0
100
AcDbLine
 10
271.185664174079
 20
1.3630737068884
 30
0.0
 11
274.4485797740791
 21
6.956643306888423
 31
0.0
  0
LINE
  5
2DB7
330
2D4F
100
AcDbEntity
  8
0
100
AcDbLine
 10
273.648579774079
 20
7.756643306888435
 30
0.0
 11
270.9313126740791
 21
1.3630737068884
 31
0.0
  0
LINE
  5
2DB8
330
2D4F
100
AcDbEntity
  8
0
100
AcDbLine
 10
274.4485797740791
 20
7.756643306888435
 30
0.0
 11
273.648579774079
 21
7.756643306888435
 31
0.0
  0
LINE
  5
2DB9
330
2D4F
100
AcDbEntity
  8
0
100
AcDbLine
 10
269.785664174079
 20
1.3630737068884
 30
0.0
 11
274.446690474079
 21
9.353404506888438
 31
0.0
  0
LINE
  5
2DBA
330
2D4F
100
AcDbEntity
  8
0
100
AcDbLine
 10
273.5628654740791
 20
10.75664330688843
 30
0.0
 11
269.537049974079
 21
1.3630737068884
 31
0.0
  0
LINE
  5
2DBB
330
2D4F
100
AcDbEntity
  8
0
100
AcDbLine
 10
269.537049974079
 20
10.75664330688843
 30
0.0
 11
273.5628654740791
 21
10.75664330688843
 31
0.0
  0
LINE
  5
2DBC
330
2D4F
100
AcDbEntity
  8
0
100
AcDbLine
 10
274.4485797740791
 20
4.556643306888389
 30
0.0
 11
276.311495374079
 21
1.3630737068884
 31
0.0
  0
LINE
  5
2DBD
330
2D4F
100
AcDbEntity
  8
0
100
AcDbLine
 10
276.6748546740791
 20
1.3630737068884
 30
0.0
 11
275.248579774079
 21
5.3566433068884
 31
0.0
  0
LINE
  5
2DBE
330
2D4F
100
AcDbEntity
  8
0
100
AcDbLine
 10
275.248579774079
 20
5.3566433068884
 30
0.0
 11
274.4485797740791
 21
5.3566433068884
 31
0.0
  0
LINE
  5
2DBF
330
2D4F
100
AcDbEntity
  8
0
100
AcDbLine
 10
274.4485797740791
 20
6.956643306888423
 30
0.0
 11
277.711495374079
 21
1.3630737068884
 31
0.0
  0
LINE
  5
2DC0
330
2D4F
100
AcDbEntity
  8
0
100
AcDbLine
 10
277.9658468740791
 20
1.3630737068884
 30
0.0
 11
275.248579774079
 21
7.756643306888435
 31
0.0
  0
LINE
  5
2DC1
330
2D4F
100
AcDbEntity
  8
0
100
AcDbLine
 10
275.248579774079
 20
7.756643306888435
 30
0.0
 11
274.4485797740791
 21
7.756643306888435
 31
0.0
  0
LINE
  5
2DC2
330
2D4F
100
AcDbEntity
  8
0
100
AcDbLine
 10
279.359127274079
 20
10.75817260688839
 30
0.0
 11
275.328342674079
 21
10.75483670688842
 31
0.0
  0
LINE
  5
2DC3
330
2D4F
100
AcDbEntity
  8
0
100
AcDbLine
 10
279.359127274079
 20
1.3630737068884
 30
0.0
 11
275.328342674079
 21
10.75483670688842
 31
0.0
  0
LINE
  5
2DC4
330
2D4F
100
AcDbEntity
  8
0
100
AcDbLine
 10
274.446690474079
 20
9.353404506888438
 30
0.0
 11
279.111841974079
 21
1.3630737068884
 31
0.0
  0
LINE
  5
2DC5
330
2D4F
100
AcDbEntity
  8
0
100
AcDbLine
 10
279.359127274079
 20
1.3630737068884
 30
0.0
 11
279.359127274079
 21
10.75817260688839
 31
0.0
  0
LINE
  5
2DC6
330
2D4F
100
AcDbEntity
  8
0
100
AcDbLine
 10
269.537049974079
 20
1.3630737068884
 30
0.0
 11
269.537049974079
 21
10.75664330688843
 31
0.0
  0
INSERT
  5
2DC7
330
2D4F
100
AcDbEntity
  8
0
100
AcDbBlockReference
  2
*X6
 10
268.0485797740791
 20
-1.043356693111576
 30
0.0
 41
0.1
 42
0.1
 43
0.1
  0
LINE
  5
2DC8
330
2D4F
100
AcDbEntity
  8
0
 62
     3
100
AcDbLine
 10
0.4999999999998864
 20
393.0283131952465
 30
0.0
 11
0.5
 21
0.5
 31
0.0
  0
LINE
  5
2DC9
330
2D4F
100
AcDbEntity
  8
0
 62
     3
100
AcDbLine
 10
84.37046570631791
 20
0.5000000000000285
 30
0.0
 11
280.6346223039412
 21
0.5000000000000285
 31
0.0
  0
LINE
  5
2DCA
330
2D4F
100
AcDbEntity
  8
0
 62
     3
100
AcDbLine
 10
134.7823020708698
 20
12.10895691175287
 30
0.0
 11
280.6346223039412
 21
12.10895691175287
 31
0.0
  0
LINE
  5
2DCB
330
2D4F
100
AcDbEntity
  8
0
 62
     7
100
AcDbLine
 10
162.6579749596602
 20
11.99999999999997
 30
0.0
 11
162.6579749596601
 21
0.5000000000000285
 31
0.0
  0
LINE
  5
2DCC
330
2D4F
100
AcDbEntity
  8
0
 62
     3
100
AcDbLine
 10
280.6346223039412
 20
393.0283131952465
 30
0.0
 11
280.6346223039412
 21
0.5000000000000285
 31
0.0
  0
LINE
  5
2DCD
330
2D4F
100
AcDbEntity
  8
0
100
AcDbLine
 10
102.9357480509663
 20
51.50000000000004
 30
0.0
 11
102.9357480509663
 21
55.50000000000004
 31
0.0
  0
LINE
  5
2DCE
330
2D4F
100
AcDbEntity
  8
0
100
AcDbLine
 10
96.43574805096626
 20
55.49999999999998
 30
0.0
 11
96.43574805096626
 21
51.50000000000004
 31
0.0
  0
LINE
  5
2DCF
330
2D4F
100
AcDbEntity
  8
0
100
AcDbLine
 10
84.37046570631787
 20
55.49999999999998
 30
0.0
 11
280.6346223039411
 21
55.50000000000004
 31
0.0
  0
LINE
  5
2DD0
330
2D4F
100
AcDbEntity
  8
0
100
AcDbLine
 10
139.6041910676061
 20
51.50000000000003
 30
0.0
 11
139.6041910676061
 21
55.50000000000003
 31
0.0
  0
LINE
  5
2DD1
330
2D4F
100
AcDbEntity
  8
0
100
AcDbLine
 10
166.2430764549098
 20
51.50000000000003
 30
0.0
 11
166.2430764549098
 21
55.50000000000003
 31
0.0
  0
LINE
  5
2DD2
330
2D4F
100
AcDbEntity
  8
0
100
AcDbLine
 10
185.3814871433591
 20
51.50000000000003
 30
0.0
 11
185.3814871433591
 21
55.49999999999997
 31
0.0
  0
LINE
  5
2DD3
330
2D4F
100
AcDbEntity
  8
0
100
AcDbLine
 10
212.0415902808718
 20
51.50000000000003
 30
0.0
 11
212.0415902808718
 21
55.49999999999997
 31
0.0
  0
LINE
  5
2DD4
330
2D4F
100
AcDbEntity
  8
0
100
AcDbLine
 10
231.1481743440077
 20
51.50000000000003
 30
0.0
 11
231.1481743440077
 21
55.50000000000003
 31
0.0
  0
LINE
  5
2DD5
330
2D4F
100
AcDbEntity
  8
0
100
AcDbLine
 10
261.23830126757
 20
51.49999999999997
 30
0.0
 11
261.2383012675701
 21
55.50000000000003
 31
0.0
  0
LINE
  5
2DD6
330
2D4F
100
AcDbEntity
  8
0
 62
     3
100
AcDbLine
 10
156.7430764549098
 20
35.74968195675527
 30
0.0
 11
156.7430764549098
 21
47.49999999999997
 31
0.0
  0
LINE
  5
2DD7
330
2D4F
100
AcDbEntity
  8
0
 62
     3
100
AcDbLine
 10
251.7383012675701
 20
35.8793799012793
 30
0.0
 11
251.7383012675701
 21
47.62969794452399
 31
0.0
  0
TEXT
  5
2DD8
330
2D4F
100
AcDbEntity
  8
0
 62
     7
100
AcDbText
 10
252.2758401798571
 20
36.63171433407344
 30
0.0
 40
2.0
  1
Jele
  7
ROMANS
100
AcDbText
  0
TEXT
  5
2DD9
330
2D4F
100
AcDbEntity
  8
0
 62
     7
100
AcDbText
 10
157.9751626482681
 20
36.63171433407344
 30
0.0
 40
2.0
  1
Jele
  7
ROMANS
100
AcDbText
  0
ATTDEF
  5
2DDA
330
2D4F
100
AcDbEntity
  8
0
 62
     3
100
AcDbText
 10
136.8704657063179
 20
24.99999999999997
 30
0.0
 40
4.0
  1

  7
ROMANS
100
AcDbAttributeDefinition
  3

  2
MEGNEVEZES
 70
     0
  0
ATTDEF
  5
2DDB
330
2D4F
100
AcDbEntity
  8
0
 62
     3
100
AcDbText
 10
136.3704657063179
 20
16.49999999999997
 30
0.0
 40
4.0
  1

  7
ROMANS
100
AcDbAttributeDefinition
  3

  2
MEGNEVEZES1
 70
     0
  0
ATTDEF
  5
2DDC
330
2D4F
100
AcDbEntity
  8
0
 62
     3
100
AcDbText
 10
166.8704657063179
 20
2.499999999999971
 30
0.0
 40
3.0
  1

  7
ROMANS
100
AcDbAttributeDefinition
  3

  2
RAJZSZAM
 70
     0
  0
LINE
  5
2DDD
330
2D4F
100
AcDbEntity
  8
0
 62
     7
100
AcDbLine
 10
247.3532711655508
 20
12.10895691175287
 30
0.0
 11
247.3532711655509
 21
0.5000000000000285
 31
0.0
  0
ATTDEF
  5
2DDE
330
2D4F
100
AcDbEntity
  8
0
 62
     7
100
AcDbText
 10
96.87046570631792
 20
13.99999999999997
 30
0.0
 40
2.0
  1
Antal
  7
ROMANS
100
AcDbAttributeDefinition
  3

  2
TERVEZO
 70
     0
  0
ATTDEF
  5
2DDF
330
2D4F
100
AcDbEntity
  8
0
 62
     7
100
AcDbText
 10
118.8704657063179
 20
13.99999999999997
 30
0.0
 40
2.0
  1

  7
ROMANS
100
AcDbAttributeDefinition
  3

  2
DATUM
 70
     0
  0
ATTDEF
  5
2DE0
330
2D4F
100
AcDbEntity
  8
0
 62
     7
100
AcDbText
 10
85.37046570631792
 20
19.49999999999997
 30
0.0
 40
2.0
  1
0
  7
ROMANS
100
AcDbAttributeDefinition
  3

  2
TIME
 70
     0
  0
ATTDEF
  5
2DE1
330
2D4F
100
AcDbEntity
  8
0
 62
     3
100
AcDbText
 10
230.3704657063179
 20
25.49999999999997
 30
0.0
 40
4.0
  1
1:1
  7
ROMANS
100
AcDbAttributeDefinition
  3

  2
MERETERANY
 70
     0
  0
ATTDEF
  5
2DE2
330
2D4F
100
AcDbEntity
  8
0
 62
     7
100
AcDbText
 10
237.3704657063179
 20
19.49999999999997
 30
0.0
 40
1.6
  1
0
  7
ROMANS
100
AcDbAttributeDefinition
  3

  2
DWG
 70
     0
  0
ATTDEF
  5
2DE3
330
2D4F
100
AcDbEntity
  8
0
 62
     7
100
AcDbText
 10
233.3704657063179
 20
13.49999999999997
 30
0.0
 40
1.6
  1
0
  7
ROMANS
100
AcDbAttributeDefinition
  3

  2
RETEG
 70
     0
  0
ATTDEF
  5
2DE4
330
2D4F
100
AcDbEntity
  8
0
 62
     7
100
AcDbText
 10
249.370465706318
 20
2.499999999999971
 30
0.0
 40
3.0
  1
0
  7
ROMANS
100
AcDbAttributeDefinition
  3

  2
VALTOZAT
 70
     0
  0
ATTDEF
  5
2DE5
330
2D4F
100
AcDbEntity
  8
0
 62
     7
100
AcDbText
 10
143.8704657063179
 20
1.999999999999971
 30
0.0
 40
3.0
  1
1/1
  7
ROMANS
100
AcDbAttributeDefinition
  3

  2
LAPOK
 70
     0
  0
ATTDEF
  5
2DE6
330
2D4F
100
AcDbEntity
  8
0
 62
     7
100
AcDbText
 10
85.37046570631792
 20
40.49999999999997
 30
0.0
 40
1.6
  1

  7
ROMANS
100
AcDbAttributeDefinition
  3

  2
VALTOZAS1
 70
     0
  0
ATTDEF
  5
2DE7
330
2D4F
100
AcDbEntity
  8
0
 62
     7
100
AcDbText
 10
157.3704657063179
 20
40.49999999999997
 30
0.0
 40
1.6
  1

  7
ROMANS
100
AcDbAttributeDefinition
  3

  2
JELE1
 70
     0
  0
ATTDEF
  5
2DE8
330
2D4F
100
AcDbEntity
  8
0
 62
     7
100
AcDbText
 10
166.8704657063179
 20
40.49999999999997
 30
0.0
 40
1.6
  1

  7
ROMANS
100
AcDbAttributeDefinition
  3

  2
DATUM1
 70
     0
  0
ATTDEF
  5
2DE9
330
2D4F
100
AcDbEntity
  8
0
 62
     7
100
AcDbText
 10
85.37046570631792
 20
44.49999999999997
 30
0.0
 40
1.6
  1

  7
ROMANS
100
AcDbAttributeDefinition
  3

  2
VALTOZAS2
 70
     0
  0
ATTDEF
  5
2DEA
330
2D4F
100
AcDbEntity
  8
0
 62
     7
100
AcDbText
 10
157.3704657063179
 20
44.49999999999997
 30
0.0
 40
1.6
  1

  7
ROMANS
100
AcDbAttributeDefinition
  3

  2
JELE2
 70
     0
  0
ATTDEF
  5
2DEB
330
2D4F
100
AcDbEntity
  8
0
 62
     7
100
AcDbText
 10
166.8704657063179
 20
44.99999999999997
 30
0.0
 40
1.6
  1

  7
ROMANS
100
AcDbAttributeDefinition
  3

  2
DATUM2
 70
     0
  0
ATTDEF
  5
2DEC
330
2D4F
100
AcDbEntity
  8
0
 62
     7
100
AcDbText
 10
186.3704657063179
 20
40.49999999999997
 30
0.0
 40
1.6
  1

  7
ROMANS
100
AcDbAttributeDefinition
  3

  2
VALTOZAS3
 70
     0
  0
ATTDEF
  5
2DED
330
2D4F
100
AcDbEntity
  8
0
 62
     7
100
AcDbText
 10
252.3704657063179
 20
40.49999999999997
 30
0.0
 40
1.6
  1

  7
ROMANS
100
AcDbAttributeDefinition
  3

  2
JELE3
 70
     0
  0
ATTDEF
  5
2DEE
330
2D4F
100
AcDbEntity
  8
0
 62
     7
100
AcDbText
 10
261.870465706318
 20
40.49999999999997
 30
0.0
 40
1.6
  1

  7
ROMANS
100
AcDbAttributeDefinition
  3

  2
DATUM3
 70
     0
  0
ATTDEF
  5
2DEF
330
2D4F
100
AcDbEntity
  8
0
 62
     7
100
AcDbText
 10
186.3704657063179
 20
44.49999999999997
 30
0.0
 40
1.6
  1

  7
ROMANS
100
AcDbAttributeDefinition
  3

  2
VALTOZAS4
 70
     0
  0
ATTDEF
  5
2DF0
330
2D4F
100
AcDbEntity
  8
0
 62
     7
100
AcDbText
 10
252.3704657063179
 20
44.49999999999997
 30
0.0
 40
1.6
  1

  7
ROMANS
100
AcDbAttributeDefinition
  3

  2
JELE4
 70
     0
  0
ATTDEF
  5
2DF1
330
2D4F
100
AcDbEntity
  8
0
 62
     7
100
AcDbText
 10
261.870465706318
 20
44.49999999999997
 30
0.0
 40
1.6
  1

  7
ROMANS
100
AcDbAttributeDefinition
  3

  2
DATUM4
 70
     0
  0
ATTDEF
  5
2DF2
330
2D4F
100
AcDbEntity
  8
0
 62
     7
100
AcDbText
 10
140.8704657063179
 20
48.49999999999997
 30
0.0
 40
1.6
  1

  7
ROMANS
100
AcDbAttributeDefinition
  3

  2
MERET
 70
     0
  0
ATTDEF
  5
2DF3
330
2D4F
100
AcDbEntity
  8
0
 62
     7
100
AcDbText
 10
167.3704657063179
 20
48.49999999999997
 30
0.0
 40
1.6
  1

  7
ROMANS
100
AcDbAttributeDefinition
  3

  2
MERETMSZ
 70
     0
  0
ATTDEF
  5
2DF4
330
2D4F
100
AcDbEntity
  8
0
 62
     7
100
AcDbText
 10
186.3704657063179
 20
48.49999999999997
 30
0.0
 40
1.6
  1

  7
ROMANS
100
AcDbAttributeDefinition
  3

  2
ANYAG
 70
     0
  0
ATTDEF
  5
2DF5
330
2D4F
100
AcDbEntity
  8
0
 62
     7
100
AcDbText
 10
212.8704657063179
 20
48.49999999999997
 30
0.0
 40
1.6
  1

  7
ROMANS
100
AcDbAttributeDefinition
  3

  2
ANYAGMSZ
 70
     0
  0
ATTDEF
  5
2DF6
330
2D4F
100
AcDbEntity
  8
0
 62
     7
100
AcDbText
 10
231.8704657063179
 20
48.49999999999997
 30
0.0
 40
1.6
  1

  7
ROMANS
100
AcDbAttributeDefinition
  3

  2
CIKKSZAM
 70
     0
  0
ATTDEF
  5
2DF7
330
2D4F
100
AcDbEntity
  8
0
 62
     7
100
AcDbText
 10
261.870465706318
 20
48.49999999999997
 30
0.0
 40
1.6
  1

  7
ROMANS
100
AcDbAttributeDefinition
  3

  2
EGYEB
 70
     0
  0
ATTDEF
  5
2DF8
330
2D4F
100
AcDbEntity
  8
0
 62
     7
100
AcDbText
 10
286.870465706318
 20
51.99999999999997
 30
0.0
 40
1.6
  1

  7
ROMANS
100
AcDbAttributeDefinition
  3

  2
KOD
 70
     0
  0
ATTDEF
  5
2DF9
330
2D4F
100
AcDbEntity
  8
0
 62
     7
100
AcDbText
 10
272.8530429672192
 20
14.0592208708627
 30
0.0
 40
1.6
  1
0
  7
ROMANS
100
AcDbAttributeDefinition
  3

  2
AR
 70
     0
  0
ATTDEF
  5
2DFA
330
2D4F
100
AcDbEntity
  8
0
 62
     7
100
AcDbText
 10
304.3704657063179
 20
51.99999999999997
 30
0.0
 40
1.6
  1
1
  7
ROMANS
100
AcDbAttributeDefinition
  3

  2
JEL
 70
     0
  0
ATTDEF
  5
2DFB
330
2D4F
100
AcDbEntity
  8
0
 62
     7
100
AcDbText
 10
103.9357265577481
 20
48.49999999999997
 30
0.0
 40
1.6
  1

  7
ROMANS
100
AcDbAttributeDefinition
  3

  2
ANYAGNEV
 70
     0
  0
LINE
  5
2DFC
330
2D4F
100
AcDbEntity
  8
0
 62
     3
100
AcDbLine
 10
84.37046570631787
 20
55.49999999999997
 30
0.0
 11
84.37046570631787
 21
0.5000000000000086
 31
0.0
  0
LINE
  5
2DFD
330
2D4F
100
AcDbEntity
  8
0
 62
     3
100
AcDbLine
 10
0.4999999999998864
 20
393.0283131952465
 30
0.0
 11
280.6346223039412
 21
393.0283131952465
 31
0.0
  0
LINE
  5
2DFE
330
2D4F
100
AcDbEntity
  8
0
 62
     7
100
AcDbLine
 10
89.93722817613145
 20
55.49999999999998
 30
0.0
 11
89.93722817613145
 21
51.49999999999997
 31
0.0
  0
ATTDEF
  5
2DFF
330
2D4F
100
AcDbEntity
  8
0
 62
     7
100
AcDbText
 10
261.2293738328625
 20
14.0592208708627
 30
0.0
 40
1.6
  1
0
  7
ROMANS
100
AcDbAttributeDefinition
  3

  2
IDO
 70
     0
  0
LINE
  5
2E00
330
2D4F
100
AcDbEntity
  8
0
 62
     7
100
AcDbLine
 10
254.7598365130734
 20
18.19918428350232
 30
0.0
 11
254.7598365130734
 21
12.10895691175287
 31
0.0
  0
TEXT
  5
2E01
330
2D4F
100
AcDbEntity
  8
0
 62
     7
100
AcDbText
 10
255.5140813681291
 20
14.0592208708627
 30
0.0
 40
1.6
  1
Id\U+00EF:
  7
ROMANS
100
AcDbText
  0
ATTDEF
  5
2E02
330
2D4F
100
AcDbEntity
  8
0
 62
     7
100
AcDbText
 10
97.0972
 20
7.927999999999999
 30
0.0
 40
2.0
  1
Adler
  7
ROMANS
100
AcDbAttributeDefinition
  3

  2
ELLENOR
 70
     0
  0
ENDBLK
  5
2E03
330
2D4F
100
AcDbEntity
  8
0
100
AcDbBlockEnd
  0
BLOCK
  5
2E13
330
2E12
100
AcDbEntity
  8
0
100
AcDbBlockBegin
  2
ISOKOZ
 70
     0
 10
0.0
 20
0.0
 30
0.0
  3
ISOKOZ
  1

  0
POINT
  5
2E14
330
2E12
100
AcDbEntity
  8
0
 62
     7
100
AcDbPoint
 10
6.357629203368343
 20
33.38363997816872
 30
0.0
  0
POINT
  5
2E15
330
2E12
100
AcDbEntity
  8
0
 62
     7
100
AcDbPoint
 10
5.940735754613622
 20
33.38363997816872
 30
0.0
  0
LINE
  5
2E16
330
2E12
100
AcDbEntity
  8
0
 62
     7
100
AcDbLine
 10
18.10013629159709
 20
33.24474628561148
 30
0.0
 11
18.10013629159709
 21
33.45308648676612
 31
0.0
  0
LINE
  5
2E17
330
2E12
100
AcDbEntity
  8
0
 62
     7
100
AcDbLine
 10
16.01566765465084
 20
33.24474628561148
 30
0.0
 11
16.01566765465084
 21
33.52253333304474
 31
0.0
  0
LINE
  5
2E18
330
2E12
100
AcDbEntity
  8
0
 62
     7
100
AcDbLine
 10
15.73773853401739
 20
33.24474628561148
 30
0.0
 11
15.73773853401739
 21
33.45308648676612
 31
0.0
  0
TEXT
  5
2E19
330
2E12
100
AcDbEntity
  8
0
 62
     7
100
AcDbText
 10
2.410081627077168
 20
29.54502906109305
 30
0.0
 40
1.5
  1
MSZ ISO 2768-2-K szerint.
  7
ROMANS
100
AcDbText
  0
TEXT
  5
2E1A
330
2E12
100
AcDbEntity
  8
0
 62
     7
100
AcDbText
 10
2.5
 20
31.97360048966447
 30
0.0
 40
1.5
  1
Jeloletlen turesek MSZ ISO 2768-1-m,
  7
ROMANS
100
AcDbText
  0
ENDBLK
  5
2E1B
330
2E12
100
AcDbEntity
  8
0
100
AcDbBlockEnd
  0
BLOCK
  5
3AE6
330
3AE5
100
AcDbEntity
  8
0
100
AcDbBlockBegin
  2
A$C60B5275A
 70
     0
 10
0.0
 20
0.0
 30
0.0
  3
A$C60B5275A
  1

  0
ARC
  5
3AE7
330
3AE5
100
AcDbEntity
  8
0
 62
     3
100
AcDbCircle
 10
5.782476361110042
 20
3.627793175507065
 30
0.0
 40
10.78096468787626
100
AcDbArc
 50
60.67641034843694
 51
122.4361798365817
  0
LINE
  5
3AE8
330
3AE5
100
AcDbEntity
  8
0
 62
     3
100
AcDbLine
 10
11.06236170533279
 20
1.372632387805822
 30
0.0
 11
11.06236170533279
 21
13.04524881269532
 31
0.0
  0
ARC
  5
3AE9
330
3AE5
100
AcDbEntity
  8
0
 62
     3
100
AcDbCircle
 10
22.89804222372024
 20
-37.31358416876691
 30
0.0
 40
51.71358445501045
100
AcDbArc
 50
89.99999999999992
 51
103.2305444589138
  0
ARC
  5
3AEA
330
3AE5
100
AcDbEntity
  8
0
 62
     3
100
AcDbCircle
 10
5.782476361110042
 20
10.77220739698026
 30
0.0
 40
10.78096468787626
100
AcDbArc
 50
237.5638201634183
 51
299.323589651563
  0
ARC
  5
3AEB
330
3AE5
100
AcDbEntity
  8
0
 62
     3
100
AcDbCircle
 10
22.89804222372024
 20
51.71358474125423
 30
0.0
 40
51.71358445501045
100
AcDbArc
 50
256.7694555410862
 51
270.0000000000001
  0
ENDBLK
  5
3AEC
330
3AE5
100
AcDbEntity
  8
0
100
AcDbBlockEnd
  0
BLOCK
  5
3B7E
330
3B7D
100
AcDbEntity
  8
0
100
AcDbBlockBegin
  2
A$C5081540B
 70
     0
 10
0.0
 20
0.0
 30
0.0
  3
A$C5081540B
  1

  0
MTEXT
  5
3B7F
330
3B7D
100
AcDbEntity
  8
0
 62
     4
100
AcDbMText
 10
1.568249986110117
 20
3.491204064800768
 30
0.0
 40
2.5
 41
16.37185749537332
 71
     1
 72
     5
  1
\fArial Narrow|b0|i0|c238|p34;2 x NPT1/2"
 73
     1
 44
1.0
  0
LWPOLYLINE
  5
3B80
330
3B7D
100
AcDbEntity
  8
0
 62
     7
100
AcDbPolyline
 90
        2
 70
     0
 43
0.0
 10
16.56628749842411
 20
0.1332017568068124
 10
0.3324001041725069
 20
0.1332017568068124
  0
LWPOLYLINE
  5
3B81
330
3B7D
100
AcDbEntity
  8
0
 62
     7
100
AcDbPolyline
 90
        4
 70
     0
 10
24.68466676787284
 20
9.701738474042628
 40
0.125
 41
0.125
 42
-1.0
 10
24.80966676787284
 20
9.701738474042628
 40
0.125
 41
0.125
 42
-1.0
 10
24.68466676787284
 20
9.701738474042628
 40
0.0
 41
0.0
 10
16.56628749842411
 20
0.1332017568068124
 40
0.0
 41
0.0
  0
LINE
  5
3B82
330
3B7D
100
AcDbEntity
  8
0
100
AcDbLine
 10
24.68466676787284
 20
9.701738474042628
 30
0.0
 11
16.56628749842411
 21
0.1332017568068124
 31
0.0
  0
LWPOLYLINE
  5
3B83
330
3B7D
100
AcDbEntity
  8
0
 62
     7
100
AcDbPolyline
 90
        2
 70
     0
 43
0.0
 10
20.04919481832985
 20
18.52196901897517
 10
0.6422691426772645
 20
18.52196901897517
  0
MTEXT
  5
3B84
330
3B7D
100
AcDbEntity
  8
0
 62
     4
100
AcDbMText
 10
0.452728781464316
 20
22.33589920812292
 30
0.0
 40
2.5
 41
21.32390482479073
 71
     1
 72
     5
  1
\fArial Narrow|b0|i0|c238|p34;2 pcs M20x1.5
 73
     1
 44
1.0
  0
LINE
  5
3B85
330
3B7D
100
AcDbEntity
  8
0
100
AcDbLine
 10
13.15195494942895
 20
13.34310337371099
 30
0.0
 11
9.424321569375024
 21
18.52196901897517
 31
0.0
  0
LWPOLYLINE
  5
3B86
330
3B7D
100
AcDbEntity
  8
0
 62
     7
100
AcDbPolyline
 90
        4
 70
     0
 10
13.15195494942895
 20
13.34310337371099
 40
0.125
 41
0.125
 42
-1.0
 10
13.27695494942895
 20
13.34310337371099
 40
0.125
 41
0.125
 42
-1.0
 10
13.15195494942895
 20
13.34310337371099
 40
0.0
 41
0.0
 10
9.424321569375024
 20
18.52196901897517
 40
0.0
 41
0.0
  0
ENDBLK
  5
3B87
330
3B7D
100
AcDbEntity
  8
0
100
AcDbBlockEnd
  0
BLOCK
  5
7741
330
7735
100
AcDbEntity
  8
0
 48
10.0
100
AcDbBlockBegin
  2
*D11
 70
     1
 10
0.0
 20
0.0
 30
0.0
  3
*D11
  1

  0
LINE
  5
77C9
330
7735
100
AcDbEntity
  8
寸法線
 62
     0
 48
10.0
370
    -2
100
AcDbLine
 10
1270.966591685872
 20
-181.9771773638176
 30
0.0
 11
1270.966591685872
 21
-181.3521616002717
 31
0.0
  0
LINE
  5
77CA
330
7735
100
AcDbEntity
  8
寸法線
 62
     0
 48
10.0
370
    -2
100
AcDbLine
 10
1278.966340795377
 20
-184.4720518466729
 30
0.0
 11
1278.966340795377
 21
-181.3521616002717
 31
0.0
  0
LINE
  5
77CB
330
7735
100
AcDbEntity
  8
寸法線
 62
     0
 48
10.0
370
    -2
100
AcDbLine
 10
1284.966340795377
 20
-182.6021616002717
 30
0.0
 11
1290.966340795377
 21
-182.6021616002717
 31
0.0
  0
LINE
  5
77CC
330
7735
100
AcDbEntity
  8
寸法線
 62
     0
 48
10.0
370
    -2
100
AcDbLine
 10
1264.966591685872
 20
-182.6021616002717
 30
0.0
 11
1240.166591685872
 21
-182.6021616002717
 31
0.0
  0
LINE
  5
77CD
330
7735
100
AcDbEntity
  8
寸法線
 62
     0
 48
10.0
370
    -2
100
AcDbLine
 10
1278.966340795377
 20
-182.6021616002717
 30
0.0
 11
1270.966591685872
 21
-182.6021616002717
 31
0.0
  0
INSERT
  5
77CE
330
7735
100
AcDbEntity
  8
寸法線
 62
     0
 48
10.0
370
    -2
100
AcDbBlockReference
  2
_Open30
 10
1278.966340795377
 20
-182.6021616002717
 30
0.0
 41
6.0
 42
6.0
 43
6.0
 50
180.0
  0
INSERT
  5
77CF
330
7735
100
AcDbEntity
  8
寸法線
 62
     0
 48
10.0
370
    -2
100
AcDbBlockReference
  2
_Open30
 10
1270.966591685872
 20
-182.6021616002717
 30
0.0
 41
6.0
 42
6.0
 43
6.0
  0
MTEXT
  5
77D0
330
7735
100
AcDbEntity
  8
寸法線
 62
     0
 48
10.0
100
AcDbMText
 10
1248.541591685872
 20
-176.9771616002717
 30
0.0
 40
10.0
 41
0.0
 71
     5
 72
     1
  1
\A1;φ8
 73
     1
 44
1.0
  0
POINT
  5
77D1
330
7735
100
AcDbEntity
  8
DEFPOINTS
 62
     0
 48
10.0
100
AcDbPoint
 10
1270.966591685872
 20
-182.6021773638176
 30
0.0
  0
POINT
  5
77D2
330
7735
100
AcDbEntity
  8
DEFPOINTS
 62
     0
 48
10.0
100
AcDbPoint
 10
1278.966340795377
 20
-185.0970518466729
 30
0.0
  0
POINT
  5
77D3
330
7735
100
AcDbEntity
  8
DEFPOINTS
 62
     0
 48
10.0
100
AcDbPoint
 10
1278.966340795377
 20
-182.6021616002717
 30
0.0
  0
ENDBLK
  5
7742
330
7735
100
AcDbEntity
  8
0
 48
10.0
100
AcDbBlockEnd
  0
BLOCK
  5
774D
330
7743
100
AcDbEntity
  8
0
 48
10.0
100
AcDbBlockBegin
  2
*D12
 70
     1
 10
0.0
 20
0.0
 30
0.0
  3
*D12
  1

  0
LINE
  5
77C0
330
7743
100
AcDbEntity
  8
寸法線
 62
     0
 48
10.0
370
    -2
100
AcDbLine
 10
1395.831287668499
 20
82.43120291155719
 30
0.0
 11
1395.206287668499
 21
82.43120291155719
 31
0.0
  0
LINE
  5
77C1
330
7743
100
AcDbEntity
  8
寸法線
 62
     0
 48
10.0
370
    -2
100
AcDbLine
 10
1303.241429093098
 20
-321.5746729742305
 30
0.0
 11
1397.706287668499
 21
-321.5746729742305
 31
0.0
  0
LINE
  5
77C2
330
7743
100
AcDbEntity
  8
寸法線
 62
     0
 48
10.0
370
    -2
100
AcDbLine
 10
1396.456287668499
 20
76.43120291155719
 30
0.0
 11
1396.456287668499
 21
-315.5746729742305
 31
0.0
  0
INSERT
  5
77C3
330
7743
100
AcDbEntity
  8
寸法線
 62
     0
 48
10.0
370
    -2
100
AcDbBlockReference
  2
_Open30
 10
1396.456287668499
 20
82.43120291155719
 30
0.0
 41
6.0
 42
6.0
 43
6.0
 50
90.0
  0
INSERT
  5
77C4
330
7743
100
AcDbEntity
  8
寸法線
 62
     0
 48
10.0
370
    -2
100
AcDbBlockReference
  2
_Open30
 10
1396.456287668499
 20
-321.5746729742305
 30
0.0
 41
6.0
 42
6.0
 43
6.0
 50
270.0
  0
MTEXT
  5
77C5
330
7743
100
AcDbEntity
  8
寸法線
 62
     0
 48
10.0
100
AcDbMText
 10
1386.456287668499
 20
-119.5717350313366
 30
0.0
 40
10.0
 41
0.0
 71
     5
 72
     1
  1
\A1;L
 11
0.0000000000000001
 21
1.0
 31
0.0
 73
     1
 44
1.0
  0
POINT
  5
77C6
330
7743
100
AcDbEntity
  8
DEFPOINTS
 62
     0
 48
10.0
100
AcDbPoint
 10
1396.456287668499
 20
82.43120291155719
 30
0.0
  0
POINT
  5
77C7
330
7743
100
AcDbEntity
  8
DEFPOINTS
 62
     0
 48
10.0
100
AcDbPoint
 10
1302.616429093098
 20
-321.5746729742305
 30
0.0
  0
POINT
  5
77C8
330
7743
100
AcDbEntity
  8
DEFPOINTS
 62
     0
 48
10.0
100
AcDbPoint
 10
1396.456287668499
 20
-321.5746729742305
 30
0.0
  0
ENDBLK
  5
774E
330
7743
100
AcDbEntity
  8
0
 48
10.0
100
AcDbBlockEnd
  0
BLOCK
  5
775A
330
774F
100
AcDbEntity
  8
0
 48
10.0
100
AcDbBlockBegin
  2
*D13
 70
     1
 10
0.0
 20
0.0
 30
0.0
  3
*D13
  1

  0
LINE
  5
77B6
330
774F
100
AcDbEntity
  8
寸法線
 62
     0
 48
10.0
370
    -2
100
AcDbLine
 10
1265.241294674612
 20
63.80620398146948
 30
0.0
 11
1265.241294674612
 21
45.80029437253688
 31
0.0
  0
LINE
  5
77B7
330
774F
100
AcDbEntity
  8
寸法線
 62
     0
 48
10.0
370
    -2
100
AcDbLine
 10
1313.291538234217
 20
63.80620398146948
 30
0.0
 11
1313.291538234217
 21
45.80029437253688
 31
0.0
  0
LINE
  5
77B8
330
774F
100
AcDbEntity
  8
寸法線
 62
     0
 48
10.0
370
    -2
100
AcDbLine
 10
1271.241294674612
 20
47.05029437253688
 30
0.0
 11
1307.291538234217
 21
47.05029437253688
 31
0.0
  0
LINE
  5
77B9
330
774F
100
AcDbEntity
  8
寸法線
 62
     0
 48
10.0
370
    -2
100
AcDbLine
 10
1313.291538234217
 20
47.05029437253688
 30
0.0
 11
1362.059305187183
 21
47.05029437253688
 31
0.0
  0
INSERT
  5
77BA
330
774F
100
AcDbEntity
  8
寸法線
 62
     0
 48
10.0
370
    -2
100
AcDbBlockReference
  2
_Open30
 10
1265.241294674612
 20
47.05029437253688
 30
0.0
 41
6.0
 42
6.0
 43
6.0
 50
180.0
  0
INSERT
  5
77BB
330
774F
100
AcDbEntity
  8
寸法線
 62
     0
 48
10.0
370
    -2
100
AcDbBlockReference
  2
_Open30
 10
1313.291538234217
 20
47.05029437253688
 30
0.0
 41
6.0
 42
6.0
 43
6.0
  0
MTEXT
  5
77BC
330
774F
100
AcDbEntity
  8
寸法線
 62
     0
 48
10.0
100
AcDbMText
 10
1340.6754217107
 20
52.69306132550325
 30
0.0
 40
10.0
 41
0.0
 71
     5
 72
     1
  1
\A1;G1 1/2"
 73
     1
 44
1.0
  0
POINT
  5
77BD
330
774F
100
AcDbEntity
  8
DEFPOINTS
 62
     0
 48
10.0
100
AcDbPoint
 10
1265.241294674612
 20
64.43120398146948
 30
0.0
  0
POINT
  5
77BE
330
774F
100
AcDbEntity
  8
DEFPOINTS
 62
     0
 48
10.0
100
AcDbPoint
 10
1313.291538234217
 20
64.43120398146948
 30
0.0
  0
POINT
  5
77BF
330
774F
100
AcDbEntity
  8
DEFPOINTS
 62
     0
 48
10.0
100
AcDbPoint
 10
1313.291538234217
 20
47.05029437253688
 30
0.0
  0
ENDBLK
  5
775B
330
774F
100
AcDbEntity
  8
0
 48
10.0
100
AcDbBlockEnd
  0
BLOCK
  5
7766
330
775C
100
AcDbEntity
  8
0
 48
10.0
100
AcDbBlockBegin
  2
*D14
 70
     1
 10
0.0
 20
0.0
 30
0.0
  3
*D14
  1

  0
LINE
  5
77D4
330
775C
100
AcDbEntity
  8
寸法線
 62
     0
 48
10.0
370
    -2
100
AcDbLine
 10
1339.732955926192
 20
245.6605929818206
 30
0.0
 11
1397.706287668499
 21
245.6605929818206
 31
0.0
  0
LINE
  5
77D5
330
775C
100
AcDbEntity
  8
寸法線
 62
     0
 48
10.0
370
    -2
100
AcDbLine
 10
1316.291416454415
 20
82.4312039814704
 30
0.0
 11
1397.706287668499
 21
82.43120398147038
 31
0.0
  0
LINE
  5
77D6
330
775C
100
AcDbEntity
  8
寸法線
 62
     0
 48
10.0
370
    -2
100
AcDbLine
 10
1396.456287668499
 20
239.6605929818206
 30
0.0
 11
1396.456287668499
 21
88.43120398147037
 31
0.0
  0
INSERT
  5
77D7
330
775C
100
AcDbEntity
  8
寸法線
 62
     0
 48
10.0
370
    -2
100
AcDbBlockReference
  2
_Open30
 10
1396.456287668499
 20
245.6605929818206
 30
0.0
 41
6.0
 42
6.0
 43
6.0
 50
90.0
  0
INSERT
  5
77D8
330
775C
100
AcDbEntity
  8
寸法線
 62
     0
 48
10.0
370
    -2
100
AcDbBlockReference
  2
_Open30
 10
1396.456287668499
 20
82.43120398147038
 30
0.0
 41
6.0
 42
6.0
 43
6.0
 50
270.0
  0
MTEXT
  5
77D9
330
775C
100
AcDbEntity
  8
寸法線
 62
     0
 48
10.0
100
AcDbMText
 10
1390.831287668499
 20
164.0458984816455
 30
0.0
 40
10.0
 41
0.0
 71
     5
 72
     1
  1
\A1;163
 11
0.0000000000000001
 21
1.0
 31
0.0
 73
     1
 44
1.0
  0
POINT
  5
77DA
330
775C
100
AcDbEntity
  8
DEFPOINTS
 62
     0
 48
10.0
100
AcDbPoint
 10
1339.107955926192
 20
245.6605929818206
 30
0.0
  0
POINT
  5
77DB
330
775C
100
AcDbEntity
  8
DEFPOINTS
 62
     0
 48
10.0
100
AcDbPoint
 10
1315.666416454415
 20
82.4312039814704
 30
0.0
  0
POINT
  5
77DC
330
775C
100
AcDbEntity
  8
DEFPOINTS
 62
     0
 48
10.0
100
AcDbPoint
 10
1396.456287668499
 20
82.43120398147038
 30
0.0
  0
ENDBLK
  5
7767
330
775C
100
AcDbEntity
  8
0
 48
10.0
100
AcDbBlockEnd
  0
ENDSEC
  0
SECTION
  2
ENTITIES
  0
CIRCLE
  5
5CB9
330
1A
100
AcDbEntity
  8
外形線
 48
10.0
100
AcDbCircle
 10
1055.368316164688
 20
-170.7270362163072
 30
0.0
 40
0.2353646668415532
  0
CIRCLE
  5
5CBA
330
1A
100
AcDbEntity
  8
外形線
 48
10.0
100
AcDbCircle
 10
1055.368316164688
 20
-137.77923007892
 30
0.0
 40
0.2353646668415532
  0
SPLINE
  5
5CBB
330
1A
100
AcDbEntity
  8
外形線
 48
10.0
100
AcDbSpline
210
0.0
220
0.0
230
1.0
 70
     8
 71
     3
 72
    11
 73
     7
 74
     0
 42
0.0000000001
 43
0.0000000001
 40
0.0
 40
0.0
 40
0.0
 40
0.0
 40
10.89748726272635
 40
19.0521390387555
 40
26.7942184031496
 40
31.11424095259497
 40
31.11424095259497
 40
31.11424095259497
 40
31.11424095259497
 10
1084.695659200311
 20
-161.4547308520006
 30
0.0
 10
1081.11379244485
 20
-162.0455334730528
 30
0.0
 10
1074.851594398813
 20
-163.0784370598503
 30
0.0
 10
1066.202199515786
 20
-165.5880636702537
 30
0.0
 10
1060.706063939899
 20
-169.9852142412649
 30
0.0
 10
1056.80848793747
 20
-170.6354130939032
 30
0.0
 10
1055.368316164688
 20
-170.7270362163072
 30
0.0
  0
SPLINE
  5
5CBC
330
1A
100
AcDbEntity
  8
外形線
 48
10.0
100
AcDbSpline
210
0.0
220
0.0
230
1.0
 70
     8
 71
     3
 72
    11
 73
     7
 74
     0
 42
0.0000000001
 43
0.0000000001
 40
0.0
 40
0.0
 40
0.0
 40
0.0
 40
7.110051286250825
 40
14.81370128028179
 40
21.77121491133621
 40
32.60117325325521
 40
32.60117325325521
 40
32.60117325325521
 40
32.60117325325521
 10
1084.695659200311
 20
-150.7687497105006
 30
0.0
 10
1082.342794150938
 20
-150.2318253998419
 30
0.0
 10
1077.44062979361
 20
-149.1131504384391
 30
0.0
 10
1072.025845113351
 20
-144.0463208821254
 30
0.0
 10
1064.845229104367
 20
-139.3176913185799
 30
0.0
 10
1059.013531120823
 20
-138.204904891582
 30
0.0
 10
1055.368316164688
 20
-137.77923007892
 30
0.0
  0
LINE
  5
5CBD
330
1A
100
AcDbEntity
  8
外形線
 48
10.0
100
AcDbLine
 10
1122.608808184796
 20
-156.1117402812506
 30
0.0
 11
1138.544991903088
 21
-156.1117402812506
 31
0.0
  0
MTEXT
  5
5CBE
330
1A
100
AcDbEntity
  8
寸法線
 48
10.0
100
AcDbMText
 10
1144.460952061657
 20
-154.3781958413301
 30
0.0
 40
5.0
 41
27.44561352058713
 71
     1
 72
     5
  1
設定用PC
 73
     1
 44
1.0
  0
LINE
  5
5CBF
330
1A
100
AcDbEntity
  8
外形線
 48
10.0
100
AcDbLine
 10
1176.458140887573
 20
-164.946187689487
 30
0.0
 11
1138.544991903088
 21
-164.946187689487
 31
0.0
  0
LINE
  5
5CC0
330
1A
100
AcDbEntity
  8
外形線
 48
10.0
100
AcDbLine
 10
1138.544991903088
 20
-147.2772928730142
 30
0.0
 11
1138.544991903088
 21
-164.946187689487
 31
0.0
  0
LINE
  5
5CC1
330
1A
100
AcDbEntity
  8
外形線
 48
10.0
100
AcDbLine
 10
1138.544991903088
 20
-147.2772928730142
 30
0.0
 11
1176.458140887573
 21
-147.2772928730142
 31
0.0
  0
LINE
  5
5CC2
330
1A
100
AcDbEntity
  8
外形線
 48
10.0
100
AcDbLine
 10
1176.458140887573
 20
-147.2772928730142
 30
0.0
 11
1176.458140887573
 21
-164.946187689487
 31
0.0
  0
MTEXT
  5
5CC3
330
1A
100
AcDbEntity
  8
寸法線
 48
10.0
100
AcDbMText
 10
1086.900281180065
 20
-151.1228541706268
 30
0.0
 40
4.0
 41
36.35090758709271
 71
     1
 72
     5
  1
ＨＡＲＴモデム\P(COP-Hなど)
 73
     1
 44
1.0
  0
LINE
  5
5CC4
330
1A
100
AcDbEntity
  8
外形線
 48
10.0
100
AcDbLine
 10
1084.695659200311
 20
-147.2772928730142
 30
0.0
 11
1084.695659200311
 21
-164.946187689487
 31
0.0
  0
LINE
  5
5CC5
330
1A
100
AcDbEntity
  8
外形線
 48
10.0
100
AcDbLine
 10
1122.608808184796
 20
-164.946187689487
 30
0.0
 11
1084.695659200311
 21
-164.946187689487
 31
0.0
  0
LINE
  5
5CC6
330
1A
100
AcDbEntity
  8
外形線
 48
10.0
100
AcDbLine
 10
1122.608808184796
 20
-147.2772928730142
 30
0.0
 11
1122.608808184796
 21
-164.946187689487
 31
0.0
  0
LINE
  5
5CC7
330
1A
100
AcDbEntity
  8
外形線
 48
10.0
100
AcDbLine
 10
1084.695659200311
 20
-147.2772928730142
 30
0.0
 11
1122.608808184796
 21
-147.2772928730142
 31
0.0
  0
LINE
  5
5CC8
330
1A
100
AcDbEntity
  8
外形線
 48
10.0
100
AcDbLine
 10
1038.788121241342
 20
-192.9093373119267
 30
0.0
 11
1048.854188118809
 21
-192.9093373119267
 31
0.0
  0
LINE
  5
5CC9
330
1A
100
AcDbEntity
  8
外形線
 48
10.0
100
AcDbLine
 10
1047.043046471602
 20
-195.3307063542052
 30
0.0
 11
1040.599262888549
 21
-195.3307063542052
 31
0.0
  0
LINE
  5
5CCA
330
1A
100
AcDbEntity
  8
外形線
 48
10.0
100
AcDbLine
 10
1036.976979594135
 20
-190.4879682696482
 30
0.0
 11
1050.665329766016
 21
-190.4879682696482
 31
0.0
  0
LINE
  5
5CCB
330
1A
100
AcDbEntity
  8
外形線
 48
10.0
100
AcDbLine
 10
1043.821154680075
 20
-181.677456148197
 30
0.0
 11
1043.821154680075
 21
-190.4879682696482
 31
0.0
  0
LINE
  5
5CCC
330
1A
100
AcDbEntity
  8
外形線
 48
10.0
100
AcDbLine
 10
1033.283871807248
 20
-181.677456148197
 30
0.0
 11
1043.821154680075
 21
-181.677456148197
 31
0.0
  0
LINE
  5
5CCD
330
1A
100
AcDbEntity
  8
隠れ線
 48
10.0
100
AcDbLine
 10
875.0050544510735
 20
-139.3377116869401
 30
0.0
 11
875.0050544510735
 21
-149.3976302526202
 31
0.0
  0
LINE
  5
5CCE
330
1A
100
AcDbEntity
  8
隠れ線
 48
10.0
100
AcDbLine
 10
842.0533415897184
 20
-139.3377116869401
 30
0.0
 11
875.0050544510735
 21
-139.3377116869401
 31
0.0
  0
LINE
  5
5CCF
330
1A
100
AcDbEntity
  8
隠れ線
 48
10.0
100
AcDbLine
 10
842.0533415897184
 20
-181.677456148197
 30
0.0
 11
1033.283871807248
 21
-181.677456148197
 31
0.0
  0
LINE
  5
5CD0
330
1A
100
AcDbEntity
  8
隠れ線
 48
10.0
100
AcDbLine
 10
1033.283871807248
 20
-149.3976302526202
 30
0.0
 11
1033.283871807248
 21
-181.677456148197
 31
0.0
  0
LINE
  5
5CD1
330
1A
100
AcDbEntity
  8
隠れ線
 48
10.0
100
AcDbLine
 10
875.0050544510735
 20
-149.3976302526203
 30
0.0
 11
1033.283871807248
 21
-149.3976302526202
 31
0.0
  0
LINE
  5
5CD2
330
1A
100
AcDbEntity
  8
隠れ線
 48
10.0
100
AcDbLine
 10
842.0533415897184
 20
-139.3377116869401
 30
0.0
 11
842.0533415897184
 21
-181.677456148197
 31
0.0
  0
MTEXT
  5
5CD3
330
1A
100
AcDbEntity
  8
寸法線
 48
10.0
100
AcDbMText
 10
814.6430095007458
 20
-33.49013327990121
 30
0.0
 40
2.333873885063326
 41
99.28188441981502
 71
     1
 72
     5
  1
{\H2.999x;マイクロパルスレベル計\PH\U+25A1D-4\U+25A1\U+25A1-4}
 73
     1
 44
1.0
  0
LINE
  5
5CD4
330
1A
100
AcDbEntity
  8
外形線
 48
10.0
100
AcDbLine
 10
809.3557616804691
 20
-112.805163642234
 30
0.0
 11
809.3557616804691
 21
-27.50837229327363
 31
0.0
  0
LINE
  5
5CD5
330
1A
100
AcDbEntity
  8
外形線
 48
10.0
100
AcDbLine
 10
809.3557616804691
 20
-112.805163642234
 30
0.0
 11
937.310989138653
 21
-112.8051636422338
 31
0.0
  0
LINE
  5
5CD6
330
1A
100
AcDbEntity
  8
外形線
 48
10.0
100
AcDbLine
 10
937.310989138653
 20
-27.50837229327351
 30
0.0
 11
937.310989138653
 21
-112.805163642234
 31
0.0
  0
LINE
  5
5CD7
330
1A
100
AcDbEntity
  8
外形線
 48
10.0
100
AcDbLine
 10
937.310989138653
 20
-27.50837229327351
 30
0.0
 11
809.3557616804691
 21
-27.50837229327363
 31
0.0
  0
MTEXT
  5
5CD9
330
1A
100
AcDbEntity
  8
寸法線
 48
10.0
100
AcDbMText
 10
1051.777020576407
 20
-149.125909480095
 30
0.0
 40
8.0
 41
13.45623410021221
 71
     1
 72
     5
  1
R{\H0.375x;A}
 73
     1
 44
1.0
  0
LINE
  5
5CDA
330
1A
100
AcDbEntity
  8
外形線
 48
10.0
100
AcDbLine
 10
1055.368316164688
 20
-162.0343598536126
 30
0.0
 11
1055.368316164688
 21
-174.0772557222253
 31
0.0
  0
LINE
  5
5CDB
330
1A
100
AcDbEntity
  8
外形線
 48
10.0
100
AcDbLine
 10
1050.368316164688
 20
-162.0343598536126
 30
0.0
 11
1060.368316164688
 21
-162.0343598536126
 31
0.0
  0
LINE
  5
5CDC
330
1A
100
AcDbEntity
  8
外形線
 48
10.0
100
AcDbLine
 10
1050.368316164688
 20
-144.0343598536126
 30
0.0
 11
1050.368316164688
 21
-162.0343598536126
 31
0.0
  0
LINE
  5
5CDD
330
1A
100
AcDbEntity
  8
外形線
 48
10.0
100
AcDbLine
 10
1060.368316164688
 20
-144.0343598536126
 30
0.0
 11
1060.368316164688
 21
-162.0343598536126
 31
0.0
  0
LINE
  5
5CDE
330
1A
100
AcDbEntity
  8
外形線
 48
10.0
100
AcDbLine
 10
1050.368316164688
 20
-144.0343598536126
 30
0.0
 11
1060.368316164688
 21
-144.0343598536126
 31
0.0
  0
MTEXT
  5
5CDF
330
1A
100
AcDbEntity
  8
寸法線
 48
10.0
100
AcDbMText
 10
1074.941264229783
 20
-114.8740457465437
 30
0.0
 40
2.333873885063326
 41
33.73285609669733
 71
     1
 72
     5
  1
{\H2.999x;電流計\PPLCなど}
 73
     1
 44
1.0
  0
MTEXT
  5
5CE0
330
1A
100
AcDbEntity
  8
寸法線
 48
10.0
100
AcDbMText
 10
1051.777020576407
 20
-118.3851697471261
 30
0.0
 40
8.0
 41
7.161920552340689
 71
     1
 72
     5
  1
Ａ
 73
     1
 44
1.0
  0
LINE
  5
5CE1
330
1A
100
AcDbEntity
  8
外形線
 48
10.0
100
AcDbLine
 10
1062.016091357996
 20
-115.9126133746436
 30
0.0
 11
1069.441602514304
 21
-108.4871022183361
 31
0.0
  0
LINE
  5
5CE2
330
1A
100
AcDbEntity
  8
外形線
 48
10.0
100
AcDbLine
 10
1069.441602514304
 20
-108.4871022183361
 30
0.0
 11
1066.248950938765
 21
-115.3406926587418
 31
0.0
  0
LINE
  5
5CE3
330
1A
100
AcDbEntity
  8
外形線
 48
10.0
100
AcDbLine
 10
1062.588012073899
 20
-111.6797537938751
 30
0.0
 11
1069.441602514304
 21
-108.4871022183361
 31
0.0
  0
LINE
  5
5CE4
330
1A
100
AcDbEntity
  8
外形線
 48
10.0
100
AcDbLine
 10
1041.295029815072
 20
-136.6336749175677
 30
0.0
 11
1048.72054097138
 21
-129.2081637612601
 31
0.0
  0
LINE
  5
5CE5
330
1A
100
AcDbEntity
  8
外形線
 48
10.0
100
AcDbLine
 10
1055.368316164688
 20
-131.9617624059359
 30
0.0
 11
1055.368316164688
 21
-144.0343598536126
 31
0.0
  0
CIRCLE
  5
5CE6
330
1A
100
AcDbEntity
  8
外形線
 48
10.0
100
AcDbCircle
 10
1055.368316164688
 20
-122.5603885679519
 30
0.0
 40
9.40137383798401
  0
LINE
  5
5CE7
330
1A
100
AcDbEntity
  8
外形線
 48
10.0
100
AcDbLine
 10
1055.368316164688
 20
-174.0772557222254
 30
0.0
 11
849.9894854985793
 21
-174.0772557222254
 31
0.0
  0
LINE
  5
5CE8
330
1A
100
AcDbEntity
  8
外形線
 48
10.0
100
AcDbLine
 10
867.0689105422125
 20
-156.9978306785921
 30
0.0
 11
1038.327166251955
 21
-156.997830678592
 31
0.0
  0
LINE
  5
5CE9
330
1A
100
AcDbEntity
  8
外形線
 48
10.0
100
AcDbLine
 10
1055.368316164688
 20
-85.37594063828555
 30
0.0
 11
1055.368316164688
 21
-113.1590147299679
 31
0.0
  0
LINE
  5
5CEA
330
1A
100
AcDbEntity
  8
外形線
 48
10.0
100
AcDbLine
 10
1038.327166251955
 20
-85.37594063828555
 30
0.0
 11
1038.327166251955
 21
-156.9978306785921
 31
0.0
  0
LINE
  5
5CEB
330
1A
100
AcDbEntity
  8
外形線
 48
10.0
100
AcDbLine
 10
1026.847741208321
 20
-85.37594063828555
 30
0.0
 11
1066.847741208321
 21
-85.37594063828567
 31
0.0
  0
LINE
  5
5CEC
330
1A
100
AcDbEntity
  8
外形線
 48
10.0
100
AcDbLine
 10
1026.847741208321
 20
-45.37594063828556
 30
0.0
 11
1066.847741208321
 21
-45.37594063828544
 31
0.0
  0
LINE
  5
5CED
330
1A
100
AcDbEntity
  8
外形線
 48
10.0
100
AcDbLine
 10
1066.847741208321
 20
-45.37594063828556
 30
0.0
 11
1066.847741208321
 21
-85.37594063828544
 31
0.0
  0
LINE
  5
5CEE
330
1A
100
AcDbEntity
  8
外形線
 48
10.0
100
AcDbLine
 10
1026.847741208321
 20
-45.37594063828556
 30
0.0
 11
1026.847741208321
 21
-85.37594063828555
 31
0.0
  0
MTEXT
  5
5CEF
330
1A
100
AcDbEntity
  8
寸法線
 48
10.0
100
AcDbMText
 10
1034.062535518986
 20
-62.90975524759097
 30
0.0
 40
2.333873885063326
 41
33.00148532865842
 71
     1
 72
     5
  1
{\H2.999x;DC電源}
 73
     1
 44
1.0
  0
LINE
  5
5CF0
330
1A
100
AcDbEntity
  8
外形線
 48
10.0
100
AcDbLine
 10
867.0689105422125
 20
-98.45475447851368
 30
0.0
 11
867.0689105422125
 21
-156.9978306785921
 31
0.0
  0
LINE
  5
5CF1
330
1A
100
AcDbEntity
  8
外形線
 48
10.0
100
AcDbLine
 10
849.9894854985793
 20
-98.45475447851368
 30
0.0
 11
849.9894854985793
 21
-174.0772557222254
 31
0.0
  0
MTEXT
  5
5CF2
330
1A
100
AcDbEntity
  8
寸法線
 48
10.0
100
AcDbMText
 10
832.0287525799827
 20
-76.04973557908135
 30
0.0
 40
5.0
 41
99.26666666666665
 71
     1
 72
     5
  1
1    {\H0.6x; }2    {\H0.6x; }3    {\H0.6x; }4
 73
     1
 44
1.0
  0
LINE
  5
5CF3
330
1A
100
AcDbEntity
  8
寸法線
 48
10.0
100
AcDbLine
 10
837.0812688512703
 20
-89.19775964456244
 30
0.0
 11
830.1530656209948
 21
-96.12596287483803
 31
0.0
  0
LINE
  5
5CF4
330
1A
100
AcDbEntity
  8
寸法線
 48
10.0
100
AcDbLine
 10
835.6670552888973
 20
-87.78354608218933
 30
0.0
 11
828.7388520586215
 21
-94.71174931246492
 31
0.0
  0
LINE
  5
5CF5
330
1A
100
AcDbEntity
  8
寸法線
 48
10.0
100
AcDbLine
 10
852.7464803325306
 20
-87.78354608218933
 30
0.0
 11
845.8182771022549
 21
-94.71174931246492
 31
0.0
  0
LINE
  5
5CF6
330
1A
100
AcDbEntity
  8
寸法線
 48
10.0
100
AcDbLine
 10
854.1606938949037
 20
-89.19775964456244
 30
0.0
 11
847.2324906646282
 21
-96.12596287483803
 31
0.0
  0
LINE
  5
5CF7
330
1A
100
AcDbEntity
  8
寸法線
 48
10.0
100
AcDbLine
 10
869.8259053761637
 20
-87.78354608218933
 30
0.0
 11
862.8977021458881
 21
-94.71174931246492
 31
0.0
  0
LINE
  5
5CF8
330
1A
100
AcDbEntity
  8
寸法線
 48
10.0
100
AcDbLine
 10
871.2401189385369
 20
-89.19775964456244
 30
0.0
 11
864.3119157082612
 21
-96.12596287483803
 31
0.0
  0
LINE
  5
5CF9
330
1A
100
AcDbEntity
  8
寸法線
 48
10.0
100
AcDbLine
 10
888.3195439821699
 20
-89.19775964456244
 30
0.0
 11
881.3913407518946
 21
-96.12596287483803
 31
0.0
  0
LINE
  5
5CFA
330
1A
100
AcDbEntity
  8
寸法線
 48
10.0
100
AcDbLine
 10
886.905330419797
 20
-87.78354608218933
 30
0.0
 11
879.9771271895215
 21
-94.71174931246492
 31
0.0
  0
HATCH
  5
5CFB
330
1A
100
AcDbEntity
  8
外形線
 48
10.0
100
AcDbHatch
 10
0.0
 20
0.0
 30
0.0
210
0.0
220
0.0
230
1.0
  2
SOLID
 70
     1
 71
     1
 91
        4
 92
        7
 72
     1
 73
     1
 93
        2
 10
834.9100604549459
 20
-71.95475447851368
 42
1.0
 10
830.910060454946
 20
-71.95475447851368
 42
1.0
 97
        1
330
5CFF
 92
        7
 72
     1
 73
     1
 93
        2
 10
847.9894854985793
 20
-71.95475447851368
 42
1.0
 10
851.9894854985793
 20
-71.95475447851368
 42
1.0
 97
        1
330
5CFE
 92
        7
 72
     1
 73
     1
 93
        2
 10
865.0689105422125
 20
-71.95475447851368
 42
1.0
 10
869.0689105422125
 20
-71.95475447851368
 42
1.0
 97
        1
330
5CFC
 92
        7
 72
     1
 73
     1
 93
        2
 10
886.1483355858458
 20
-71.95475447851368
 42
1.0
 10
882.1483355858459
 20
-71.95475447851368
 42
1.0
 97
        1
330
5CFD
 75
     0
 76
     1
 47
0.1242535103053288
 98
        4
 10
833.2248368973663
 20
-72.82077645703395
 10
850.7544840773382
 20
-71.70249485587181
 10
866.4192752688991
 20
-71.20548082852258
 10
882.954332710392
 20
-71.95100194879933
450
        0
451
        0
460
0.0
461
0.0
452
        1
462
1.0
453
        2
463
0.0
 63
     5
421
      255
463
1.0
 63
    51
421
 16777113
470
LINEAR
  0
CIRCLE
  5
5CFC
102
{ACAD_REACTORS
330
5CFB
102
}
330
1A
100
AcDbEntity
  8
外形線
 48
10.0
100
AcDbCircle
 10
867.0689105422125
 20
-71.95475447851368
 30
0.0
 40
2.0
  0
CIRCLE
  5
5CFD
102
{ACAD_REACTORS
330
5CFB
102
}
330
1A
100
AcDbEntity
  8
外形線
 48
10.0
100
AcDbCircle
 10
884.1483355858459
 20
-71.95475447851368
 30
0.0
 40
2.0
  0
CIRCLE
  5
5CFE
102
{ACAD_REACTORS
330
5CFB
102
}
330
1A
100
AcDbEntity
  8
外形線
 48
10.0
100
AcDbCircle
 10
849.9894854985793
 20
-71.95475447851368
 30
0.0
 40
2.0
  0
CIRCLE
  5
5CFF
102
{ACAD_REACTORS
330
5CFB
102
}
330
1A
100
AcDbEntity
  8
外形線
 48
10.0
100
AcDbCircle
 10
832.9100604549459
 20
-71.95475447851368
 30
0.0
 40
2.0
  0
CIRCLE
  5
5D00
330
1A
100
AcDbEntity
  8
外形線
 48
10.0
100
AcDbCircle
 10
867.0689105422125
 20
-91.95475447851368
 30
0.0
 40
5.0
  0
CIRCLE
  5
5D01
330
1A
100
AcDbEntity
  8
外形線
 48
10.0
100
AcDbCircle
 10
884.1483355858459
 20
-91.95475447851368
 30
0.0
 40
5.0
  0
CIRCLE
  5
5D03
330
1A
100
AcDbEntity
  8
外形線
 48
10.0
100
AcDbCircle
 10
832.9100604549459
 20
-91.95475447851368
 30
0.0
 40
5.0
  0
CIRCLE
  5
5D04
330
1A
100
AcDbEntity
  8
外形線
 48
10.0
100
AcDbCircle
 10
849.9894854985793
 20
-91.95475447851368
 30
0.0
 40
5.0
  0
LINE
  5
5D05
330
1A
100
AcDbEntity
  8
外形線
 48
10.0
100
AcDbLine
 10
824.5086230640291
 20
-98.45475447851368
 30
0.0
 11
926.7468981949289
 21
-98.45475447851368
 31
0.0
  0
LINE
  5
5D06
330
1A
100
AcDbEntity
  8
外形線
 48
10.0
100
AcDbLine
 10
824.5086230640291
 20
-58.45475447851367
 30
0.0
 11
926.7468981949289
 21
-58.45475447851367
 31
0.0
  0
LINE
  5
5D07
330
1A
100
AcDbEntity
  8
外形線
 48
10.0
100
AcDbLine
 10
824.5086230640291
 20
-85.45475447851368
 30
0.0
 11
926.7468981949289
 21
-85.45475447851368
 31
0.0
  0
LINE
  5
5D08
330
1A
100
AcDbEntity
  8
外形線
 48
10.0
100
AcDbLine
 10
824.5086230640291
 20
-58.45475447851367
 30
0.0
 11
824.5086230640291
 21
-98.45475447851368
 31
0.0
  0
LINE
  5
5D0E
330
1A
100
AcDbEntity
  8
外形線
 48
10.0
100
AcDbLine
 10
939.3109891386529
 20
-25.50837229327351
 30
0.0
 11
939.3109891386529
 21
-114.805163642234
 31
0.0
  0
LINE
  5
5D0F
330
1A
100
AcDbEntity
  8
外形線
 48
10.0
100
AcDbLine
 10
939.3109891386529
 20
-114.805163642234
 30
0.0
 11
807.3557616804691
 21
-114.805163642234
 31
0.0
  0
LINE
  5
5D10
330
1A
100
AcDbEntity
  8
外形線
 48
10.0
100
AcDbLine
 10
807.3557616804691
 20
-114.805163642234
 30
0.0
 11
807.3557616804691
 21
-25.50837229327362
 31
0.0
  0
LINE
  5
5D11
330
1A
100
AcDbEntity
  8
外形線
 48
10.0
100
AcDbLine
 10
939.3109891386529
 20
-25.50837229327351
 30
0.0
 11
807.3557616804691
 21
-25.50837229327362
 31
0.0
  0
MTEXT
  5
5D38
330
1A
100
AcDbEntity
  8
寸法線
 48
10.0
100
AcDbMText
 10
800.1450475008953
 20
264.1001690065933
 30
0.0
 40
10.0
 41
226.1037037037037
 71
     1
 72
     5
  1
型式\P L=         　　mm  台数
 73
     1
 44
1.0
  0
MTEXT
  5
5D39
330
1A
100
AcDbEntity
  8
寸法線
 48
10.0
100
AcDbMText
 10
798.791325680186
 20
0.9921836959630354
 30
0.0
 40
10.0
 41
226.1037037037037
 71
     1
 72
     5
  1
結線図
 73
     1
 44
1.0
  0
MTEXT
  5
5D3A
330
1A
100
AcDbEntity
  8
寸法線
 48
10.0
100
AcDbMText
 10
797.0930155602136
 20
-208.7765556720465
 30
0.0
 40
10.0
 41
405.6296296296296
 71
     1
 72
     5
  1
・ レベル計の入力端子には極性がありません。\P・ 抵抗RAはHART通信で現場設定を行なう際に必要です。\P・ RAは250Ωの抵抗の使用を推奨します。\P・ 配線はシールドケーブルの使用を推奨します。\P・ シールドの接地は指示側で行なってください。
 73
     1
 44
1.0
  0
LWPOLYLINE
  5
5D3B
330
1A
100
AcDbEntity
  8
寸法線
 48
10.0
100
AcDbPolyline
 90
        4
 70
     1
 43
0.0
 10
795.9267932407822
 20
-16.00496645971657
 10
1186.542825465245
 20
-16.00496645971657
 10
1186.542825465245
 20
-203.1954179267948
 10
795.9267932407822
 20
-203.1954179267948
  0
LINE
  5
5D9F
330
1A
100
AcDbEntity
  8
寸法線
 48
10.0
100
AcDbLine
 10
795.9267932407822
 20
267.5014526405489
 30
0.0
 11
1022.542287879093
 21
267.5014526405489
 31
0.0
  0
LINE
  5
5DA0
330
1A
100
AcDbEntity
  8
寸法線
 48
10.0
100
AcDbLine
 10
795.9267932407822
 20
250.3127238724028
 30
0.0
 11
1022.542287879093
 21
250.3127238724028
 31
0.0
  0
LINE
  5
5DA1
330
1A
100
AcDbEntity
  8
寸法線
 48
10.0
100
AcDbLine
 10
795.9267932407822
 20
234.9596822185836
 30
0.0
 11
1022.542287879093
 21
234.9596822185835
 31
0.0
  0
LINE
  5
5DA2
330
1A
100
AcDbEntity
  8
寸法線
 48
10.0
100
AcDbLine
 10
795.9267932407822
 20
267.5014526405489
 30
0.0
 11
795.9267932407822
 21
234.9596822185836
 31
0.0
  0
LINE
  5
5DA3
330
1A
100
AcDbEntity
  8
寸法線
 48
10.0
100
AcDbLine
 10
829.3161290038709
 20
267.5014526405489
 30
0.0
 11
829.3161290038709
 21
234.9596822185836
 31
0.0
  0
MTEXT
  5
5DC1
330
1A
100
AcDbEntity
  8
寸法線
 48
10.0
100
AcDbMText
 10
797.9476534762364
 20
279.7536190172418
 30
0.0
 40
3.5
 41
255.9666666666667
 71
     1
 72
     5
  1
{\H2.857x;今回の貴社の御仕様は以下のとおりです。}
 73
     1
 44
1.0
  0
LINE
  5
5DCD
330
1A
100
AcDbEntity
  8
寸法線
 48
10.0
100
AcDbLine
 10
957.0635741717143
 20
250.3127238724028
 30
0.0
 11
957.0635741717143
 21
234.9596822185836
 31
0.0
  0
LINE
  5
5DCE
330
1A
100
AcDbEntity
  8
寸法線
 48
10.0
100
AcDbLine
 10
1022.542287879093
 20
267.5014526405489
 30
0.0
 11
1022.542287879093
 21
234.9596822185836
 31
0.0
  0
LINE
  5
5DCF
330
1A
100
AcDbEntity
  8
寸法線
 48
10.0
100
AcDbLine
 10
921.0646664480249
 20
250.3127238724028
 30
0.0
 11
921.0646664480249
 21
234.9596822185836
 31
0.0
  0
CIRCLE
  5
72DE
330
1A
100
AcDbEntity
  8
外形線
 48
10.0
100
AcDbCircle
 10
918.3071856731123
 20
-91.95475447851368
 30
0.0
 40
5.0
  0
CIRCLE
  5
72DF
330
1A
100
AcDbEntity
  8
外形線
 48
10.0
100
AcDbCircle
 10
901.2277606294789
 20
-91.95475447851368
 30
0.0
 40
5.0
  0
CIRCLE
  5
72E0
102
{ACAD_REACTORS
330
72ED
102
}
330
1A
100
AcDbEntity
  8
外形線
 48
10.0
100
AcDbCircle
 10
918.3071856731123
 20
-71.95475447851368
 30
0.0
 40
2.0
  0
CIRCLE
  5
72E1
102
{ACAD_REACTORS
330
72ED
102
}
330
1A
100
AcDbEntity
  8
外形線
 48
10.0
100
AcDbCircle
 10
901.2277606294789
 20
-71.95475447851368
 30
0.0
 40
2.0
  0
LINE
  5
72E2
330
1A
100
AcDbEntity
  8
寸法線
 48
10.0
100
AcDbLine
 10
921.0641805070636
 20
-87.78354608218933
 30
0.0
 11
914.1359772767881
 21
-94.71174931246492
 31
0.0
  0
LINE
  5
72E3
330
1A
100
AcDbEntity
  8
寸法線
 48
10.0
100
AcDbLine
 10
922.4783940694365
 20
-89.19775964456244
 30
0.0
 11
915.5501908391611
 21
-96.12596287483803
 31
0.0
  0
LINE
  5
72E4
330
1A
100
AcDbEntity
  8
寸法線
 48
10.0
100
AcDbLine
 10
905.3989690258033
 20
-89.19775964456244
 30
0.0
 11
898.4707657955278
 21
-96.12596287483803
 31
0.0
  0
LINE
  5
72E5
330
1A
100
AcDbEntity
  8
寸法線
 48
10.0
100
AcDbLine
 10
903.9847554634302
 20
-87.78354608218933
 30
0.0
 11
897.0565522331547
 21
-94.71174931246492
 31
0.0
  0
LINE
  5
72E6
330
1A
100
AcDbEntity
  8
外形線
 48
10.0
100
AcDbLine
 10
926.7468981949289
 20
-58.45475447851367
 30
0.0
 11
926.7468981949289
 21
-98.45475447851356
 31
0.0
  0
MTEXT
  5
72E8
330
1A
100
AcDbEntity
  8
寸法線
 48
10.0
100
AcDbMText
 10
900.2307203646809
 20
-76.04973557908135
 30
0.0
 40
5.0
 41
99.26666666666665
 71
     1
 72
     5
  1
5    {\H0.6x; }6
 73
     1
 44
1.0
  0
HATCH
  5
72ED
330
1A
100
AcDbEntity
  8
外形線
 48
10.0
100
AcDbHatch
 10
0.0
 20
0.0
 30
0.0
210
0.0
220
0.0
230
1.0
  2
SOLID
 70
     1
 71
     1
 91
        2
 92
        7
 72
     1
 73
     1
 93
        2
 10
899.227760629479
 20
-71.95475447851368
 42
1.0
 10
903.227760629479
 20
-71.95475447851368
 42
1.0
 97
        1
330
72E1
 92
        7
 72
     1
 73
     1
 93
        2
 10
920.3071856731124
 20
-71.95475447851368
 42
1.0
 10
916.3071856731123
 20
-71.95475447851368
 42
1.0
 97
        1
330
72E0
 75
     0
 76
     1
 47
0.0507777743068972
 98
        2
 10
902.1468118689226
 20
-71.72749680082961
 10
918.1532707961295
 20
-72.53994285332919
450
        0
451
        0
460
0.0
461
0.0
452
        1
462
1.0
453
        2
463
0.0
 63
     5
421
      255
463
1.0
 63
    51
421
 16777113
470
LINEAR
  0
LINE
  5
7543
330
1A
100
AcDbEntity
  8
中心線
 48
10.0
100
AcDbLine
 10
1274.964267079505
 20
61.7091865790735
 30
0.0
 11
1274.964267079505
 21
-304.8327900086274
 31
0.0
  0
LINE
  5
7544
330
1A
100
AcDbEntity
  8
中心線
 48
10.0
100
AcDbLine
 10
1296.26641645441
 20
254.9173168820207
 30
0.0
 11
1296.26641645441
 21
-304.9908583768756
 31
0.0
  0
LINE
  5
7545
330
1A
100
AcDbEntity
  8
外形線
100
AcDbLine
 10
1270.966211889831
 20
-254.4855341219353
 30
0.0
 11
1270.96596081031
 21
-301.5746729742287
 31
0.0
  0
LINE
  5
7546
330
1A
100
AcDbEntity
  8
外形線
100
AcDbLine
 10
1278.96678759396
 20
-254.4855341219353
 30
0.0
 11
1278.966976139644
 21
-301.5746729742286
 31
0.0
  0
LINE
  5
7547
330
1A
100
AcDbEntity
  8
外形線
100
AcDbLine
 10
1292.266045314875
 20
-254.4855341219353
 30
0.0
 11
1292.265856769193
 21
-301.5746729742286
 31
0.0
  0
LINE
  5
7548
330
1A
100
AcDbEntity
  8
外形線
100
AcDbLine
 10
1300.266751194007
 20
-254.4855341219353
 30
0.0
 11
1300.266953404584
 21
-301.5746729742287
 31
0.0
  0
LINE
  5
7549
330
1A
100
AcDbEntity
  8
外形線
100
AcDbLine
 10
1300.26634229379
 20
-145.2871985016636
 30
0.0
 11
1300.266517719219
 21
-198.1201177095363
 31
0.0
  0
LINE
  5
754A
330
1A
100
AcDbEntity
  8
外形線
100
AcDbLine
 10
1292.266482546797
 20
-145.2871985016636
 30
0.0
 11
1292.266057567576
 21
-251.4254313776541
 31
0.0
  0
LINE
  5
754B
330
1A
100
AcDbEntity
  8
外形線
100
AcDbLine
 10
1278.966350362032
 20
-145.2871985016636
 30
0.0
 11
1278.966775341258
 21
-251.4254313776541
 31
0.0
  0
LINE
  5
754C
330
1A
100
AcDbEntity
  8
外形線
100
AcDbLine
 10
1270.966576857417
 20
-145.2871985016636
 30
0.0
 11
1270.96641645442
 21
-198.1201177095363
 31
0.0
  0
LINE
  5
754D
330
1A
100
AcDbEntity
  8
細線
100
AcDbLine
 10
1263.126597023265
 20
-145.2871985016636
 30
0.0
 11
1307.822632391914
 21
-145.2871985016636
 31
0.0
  0
LINE
  5
754E
330
1A
100
AcDbEntity
  8
細線
100
AcDbLine
 10
1263.212952742979
 20
-142.2270957573823
 30
0.0
 11
1307.918004092622
 21
-142.2270957573823
 31
0.0
  0
LINE
  5
754F
330
1A
100
AcDbEntity
  8
中心線
 48
10.0
100
AcDbLine
 10
1285.616416454419
 20
-303.6903130147175
 30
0.0
 11
1285.616416454419
 21
-319.9685263269111
 31
0.0
  0
LINE
  5
7550
330
1A
100
AcDbEntity
  8
中心線
 48
10.0
100
AcDbLine
 10
1264.562734425658
 20
-311.5746729742296
 30
0.0
 11
1307.628142813434
 21
-311.5746729742296
 31
0.0
  0
LINE
  5
7551
330
1A
100
AcDbEntity
  8
細線
100
AcDbLine
 10
1263.212952742979
 20
-251.4254313776541
 30
0.0
 11
1307.918004092622
 21
-251.4254313776541
 31
0.0
  0
LINE
  5
7552
330
1A
100
AcDbEntity
  8
細線
100
AcDbLine
 10
1263.126597023265
 20
-254.4855341219354
 30
0.0
 11
1307.822632391914
 21
-254.4855341219354
 31
0.0
  0
DIMENSION
  5
7553
330
1A
100
AcDbEntity
  8
寸法線
 48
10.0
100
AcDbDimension
  2
*D14
 10
1396.456287668499
 20
82.43120398147038
 30
0.0
 11
1396.456287668499
 21
164.0458984816455
 31
0.0
 70
   160
  1
163
 71
     5
 42
163.2293890003502
  3
ISO-25
100
AcDbAlignedDimension
 13
1339.107955926192
 23
245.6605929818206
 33
0.0
 14
1315.666416454415
 24
82.4312039814704
 34
0.0
 50
90.0
100
AcDbRotatedDimension
1001
ACAD
1000
DSTYLE
1002
{
1070
    41
1040
6.0
1070
    47
1040
0.1
1070
    48
1040
0.1
1070
    73
1070
     0
1070
   140
1040
10.0
1070
   271
1070
     1
1070
   272
1070
     1
1070
   341
1005
2AE3
1070
   342
1005
2AE3
1002
}
  0
LINE
  5
7554
330
1A
100
AcDbEntity
  8
外形線
100
AcDbLine
 10
1302.266360662013
 20
42.73219778279963
 30
0.0
 11
1302.26636040134
 21
25.60177466369168
 31
0.0
  0
LINE
  5
7555
330
1A
100
AcDbEntity
  8
外形線
100
AcDbLine
 10
1290.26647224681
 20
42.73219778279963
 30
0.0
 11
1290.266472507483
 21
25.60177466369168
 31
0.0
  0
LINE
  5
7556
330
1A
100
AcDbEntity
  8
外形線
100
AcDbLine
 10
1280.966112946029
 20
43.43120398146948
 30
0.0
 11
1280.966112685355
 21
26.30078086236427
 31
0.0
  0
LINE
  5
7557
330
1A
100
AcDbEntity
  8
外形線
100
AcDbLine
 10
1268.966719962803
 20
43.43120398146948
 30
0.0
 11
1268.966720223478
 21
26.30078086236427
 31
0.0
  0
LINE
  5
7558
330
1A
100
AcDbEntity
  8
外形線
100
AcDbLine
 10
1304.61641645442
 20
-216.1201177095363
 30
0.0
 11
1304.61641645442
 21
-198.1201177095363
 31
0.0
  0
LINE
  5
7559
330
1A
100
AcDbEntity
  8
外形線
100
AcDbLine
 10
1298.216416454412
 20
-207.1201177095363
 30
0.0
 11
1298.216416454412
 21
-198.8379468299172
 31
0.0
  0
LINE
  5
755A
330
1A
100
AcDbEntity
  8
外形線
100
AcDbLine
 10
1266.616416454421
 20
-216.1201177095363
 30
0.0
 11
1266.616416454421
 21
-198.1201177095363
 31
0.0
  0
LINE
  5
755B
330
1A
100
AcDbEntity
  8
外形線
100
AcDbLine
 10
1273.016416454414
 20
-207.1201177095363
 30
0.0
 11
1273.016416454414
 21
-198.8379468299172
 31
0.0
  0
LINE
  5
755C
330
1A
100
AcDbEntity
  8
外形線
100
AcDbLine
 10
1292.266725650289
 20
-100.6249647296454
 30
0.0
 11
1292.266559074676
 21
-142.2270957573823
 31
0.0
  0
LINE
  5
755D
330
1A
100
AcDbEntity
  8
外形線
100
AcDbLine
 10
1278.966107258538
 20
-100.6249647296454
 30
0.0
 11
1278.966273834153
 21
-142.2270957573823
 31
0.0
  0
LINE
  5
755E
330
1A
100
AcDbEntity
  8
外形線
100
AcDbLine
 10
1270.96641645442
 20
-216.1201177095363
 30
0.0
 11
1270.966228206314
 21
-251.4254313776541
 31
0.0
  0
LINE
  5
755F
330
1A
100
AcDbEntity
  8
外形線
100
AcDbLine
 10
1300.266586444912
 20
-216.1201177095363
 30
0.0
 11
1300.266738053288
 21
-251.4254313776541
 31
0.0
  0
LINE
  5
7560
330
1A
100
AcDbEntity
  8
外形線
100
AcDbLine
 10
1302.616416454426
 20
-321.5746729742305
 30
0.0
 11
1302.616416454426
 21
-301.5746729742286
 31
0.0
  0
LINE
  5
7561
330
1A
100
AcDbEntity
  8
外形線
100
AcDbLine
 10
1268.616416454413
 20
-321.5746729742305
 30
0.0
 11
1268.616416454413
 21
-301.5746729742286
 31
0.0
  0
LWPOLYLINE
  5
7562
330
1A
100
AcDbEntity
  8
寸法線
100
AcDbPolyline
 90
        6
 70
     1
 43
0.0
 10
1285.616416454418
 20
-308.7172725736018
 10
1283.141835118692
 20
-310.145972773913
 10
1283.141835118692
 20
-313.0033731745389
 10
1285.616416454418
 20
-314.4320733748537
 10
1288.090997790144
 20
-313.0033731745389
 10
1288.090997790144
 20
-310.145972773913
  0
CIRCLE
  5
7563
330
1A
100
AcDbEntity
  8
外形線
100
AcDbCircle
 10
1285.616416454419
 20
-311.5746729742277
 30
0.0
 40
5.00000000000648
  0
LINE
  5
7564
330
1A
100
AcDbEntity
  8
外形線
100
AcDbLine
 10
1302.616416454426
 20
-321.5746729742305
 30
0.0
 11
1268.616416454419
 21
-321.5746729742305
 31
0.0
  0
LINE
  5
7565
330
1A
100
AcDbEntity
  8
外形線
100
AcDbLine
 10
1268.616416454413
 20
-301.5746729742286
 30
0.0
 11
1302.616416454426
 21
-301.5746729742286
 31
0.0
  0
ARC
  5
7566
330
1A
100
AcDbEntity
  8
外形線
100
AcDbCircle
 10
1296.26639036691
 20
-224.2573804515132
 30
0.0
 40
9.067262742014291
100
AcDbArc
 50
63.8226992668516
 51
77.5808195592391
  0
LINE
  5
7567
330
1A
100
AcDbEntity
  8
外形線
100
AcDbLine
 10
1304.61641645442
 20
-216.1201177095363
 30
0.0
 11
1300.266416454421
 21
-216.1201177095363
 31
0.0
  0
LINE
  5
7568
330
1A
100
AcDbEntity
  8
外形線
100
AcDbLine
 10
1306.41641645442
 20
-205.1201177095354
 30
0.0
 11
1306.41641645442
 21
-207.1201177095363
 31
0.0
  0
LINE
  5
7569
330
1A
100
AcDbEntity
  8
外形線
100
AcDbLine
 10
1306.41641645442
 20
-209.1201177095372
 30
0.0
 11
1306.41641645442
 21
-207.1201177095363
 31
0.0
  0
LINE
  5
756A
330
1A
100
AcDbEntity
  8
外形線
100
AcDbLine
 10
1298.216416454412
 20
-214.6201177095381
 30
0.0
 11
1304.61641645442
 21
-214.6201177095381
 31
0.0
  0
LINE
  5
756B
330
1A
100
AcDbEntity
  8
外形線
100
AcDbLine
 10
1298.216416454412
 20
-207.1201177095363
 30
0.0
 11
1298.216416454412
 21
-215.4022885891554
 31
0.0
  0
LINE
  5
756C
330
1A
100
AcDbEntity
  8
外形線
100
AcDbLine
 10
1305.416416454421
 20
-210.1201177095363
 30
0.0
 11
1304.61641645442
 21
-210.1201177095363
 31
0.0
  0
LINE
  5
756D
330
1A
100
AcDbEntity
  8
外形線
100
AcDbLine
 10
1305.416416454421
 20
-204.1201177095363
 30
0.0
 11
1304.61641645442
 21
-204.1201177095363
 31
0.0
  0
ARC
  5
756E
330
1A
100
AcDbEntity
  8
外形線
100
AcDbCircle
 10
1305.416416454421
 20
-209.1201177095372
 30
0.0
 40
1.0
100
AcDbArc
 50
270.0
 51
0.0
  0
ARC
  5
756F
330
1A
100
AcDbEntity
  8
外形線
100
AcDbCircle
 10
1305.416416454421
 20
-205.1201177095354
 30
0.0
 40
1.0
100
AcDbArc
 50
0.0
 51
90.0
  0
ARC
  5
7570
330
1A
100
AcDbEntity
  8
外形線
100
AcDbCircle
 10
1274.966442541916
 20
-224.2573804515132
 30
0.0
 40
9.067262742014291
100
AcDbArc
 50
102.4191804407609
 51
116.1773007331484
  0
LINE
  5
7571
330
1A
100
AcDbEntity
  8
外形線
100
AcDbLine
 10
1292.266416454421
 20
-216.1201177095363
 30
0.0
 11
1285.616416454421
 21
-216.1201177095363
 31
0.0
  0
LINE
  5
7572
330
1A
100
AcDbEntity
  8
外形線
100
AcDbLine
 10
1278.96641645442
 20
-216.1201177095363
 30
0.0
 11
1285.616416454421
 21
-216.1201177095363
 31
0.0
  0
LINE
  5
7573
330
1A
100
AcDbEntity
  8
外形線
100
AcDbLine
 10
1266.616416454421
 20
-216.1201177095363
 30
0.0
 11
1270.96641645442
 21
-216.1201177095363
 31
0.0
  0
LINE
  5
7574
330
1A
100
AcDbEntity
  8
外形線
100
AcDbLine
 10
1273.016416454414
 20
-207.1201177095363
 30
0.0
 11
1273.016416454414
 21
-215.4022885891554
 31
0.0
  0
LINE
  5
7575
330
1A
100
AcDbEntity
  8
外形線
100
AcDbLine
 10
1264.81641645442
 20
-205.1201177095354
 30
0.0
 11
1264.81641645442
 21
-207.1201177095363
 31
0.0
  0
LINE
  5
7576
330
1A
100
AcDbEntity
  8
外形線
100
AcDbLine
 10
1265.816416454421
 20
-210.1201177095363
 30
0.0
 11
1266.616416454421
 21
-210.1201177095363
 31
0.0
  0
ARC
  5
7577
330
1A
100
AcDbEntity
  8
外形線
100
AcDbCircle
 10
1265.816416454421
 20
-209.1201177095372
 30
0.0
 40
1.0
100
AcDbArc
 50
180.0
 51
270.0
  0
LINE
  5
7578
330
1A
100
AcDbEntity
  8
外形線
100
AcDbLine
 10
1264.81641645442
 20
-209.1201177095372
 30
0.0
 11
1264.81641645442
 21
-207.1201177095363
 31
0.0
  0
LINE
  5
7579
330
1A
100
AcDbEntity
  8
外形線
100
AcDbLine
 10
1265.816416454421
 20
-204.1201177095363
 30
0.0
 11
1266.616416454421
 21
-204.1201177095363
 31
0.0
  0
ARC
  5
757A
330
1A
100
AcDbEntity
  8
外形線
100
AcDbCircle
 10
1265.816416454421
 20
-205.1201177095354
 30
0.0
 40
1.0
100
AcDbArc
 50
90.0
 51
180.0
  0
LINE
  5
757B
330
1A
100
AcDbEntity
  8
外形線
100
AcDbLine
 10
1273.016416454414
 20
-214.6201177095381
 30
0.0
 11
1266.616416454406
 21
-214.6201177095381
 31
0.0
  0
ARC
  5
757C
330
1A
100
AcDbEntity
  8
外形線
100
AcDbCircle
 10
1305.416716637425
 20
-93.614637347594
 30
0.0
 40
1.0
100
AcDbArc
 50
270.0
 51
0.0
  0
ARC
  5
757D
330
1A
100
AcDbEntity
  8
外形線
100
AcDbCircle
 10
1312.741716637425
 20
-91.62496472964448
 30
0.0
 40
12.12500000000001
100
AcDbArc
 50
132.0750220508335
 51
227.9249779491665
  0
LINE
  5
757E
330
1A
100
AcDbEntity
  8
外形線
100
AcDbLine
 10
1304.616716637424
 20
-100.6249647296454
 30
0.0
 11
1304.616716637424
 21
-82.62496472964448
 31
0.0
  0
ARC
  5
757F
330
1A
100
AcDbEntity
  8
外形線
100
AcDbCircle
 10
1265.816716637425
 20
-93.614637347594
 30
0.0
 40
1.0
100
AcDbArc
 50
180.0
 51
270.0
  0
LINE
  5
7580
330
1A
100
AcDbEntity
  8
外形線
100
AcDbLine
 10
1266.616716637424
 20
-100.6249647296454
 30
0.0
 11
1266.616716637424
 21
-82.62496472964448
 31
0.0
  0
ARC
  5
7581
330
1A
100
AcDbEntity
  8
外形線
100
AcDbCircle
 10
1258.491716637425
 20
-91.62496472964448
 30
0.0
 40
12.12500000000002
100
AcDbArc
 50
312.0750220508335
 51
47.92497794916651
  0
LINE
  5
7582
330
1A
100
AcDbEntity
  8
外形線
100
AcDbLine
 10
1304.616716637424
 20
-100.6249647296454
 30
0.0
 11
1300.266716637424
 21
-100.6249647296454
 31
0.0
  0
LINE
  5
7583
330
1A
100
AcDbEntity
  8
外形線
100
AcDbLine
 10
1305.416716637425
 20
-94.61463734759309
 30
0.0
 11
1304.616716637424
 21
-94.61463734759309
 31
0.0
  0
LINE
  5
7584
330
1A
100
AcDbEntity
  8
外形線
100
AcDbLine
 10
1292.266716637425
 20
-100.6249647296454
 30
0.0
 11
1285.616716637424
 21
-100.6249647296454
 31
0.0
  0
ARC
  5
7585
330
1A
100
AcDbEntity
  8
外形線
100
AcDbCircle
 10
1274.966716637425
 20
-108.1249647296436
 30
0.0
 40
8.500000000000079
100
AcDbArc
 50
61.9275130641455
 51
118.0724869358545
  0
LINE
  5
7586
330
1A
100
AcDbEntity
  8
外形線
100
AcDbLine
 10
1278.966716637425
 20
-100.6249647296454
 30
0.0
 11
1285.616716637424
 21
-100.6249647296454
 31
0.0
  0
LINE
  5
7587
330
1A
100
AcDbEntity
  8
外形線
100
AcDbLine
 10
1265.816716637425
 20
-94.61463734759309
 30
0.0
 11
1266.616716637424
 21
-94.61463734759309
 31
0.0
  0
LINE
  5
7588
330
1A
100
AcDbEntity
  8
外形線
100
AcDbLine
 10
1266.616716637424
 20
-100.6249647296454
 30
0.0
 11
1270.966716637425
 21
-100.6249647296454
 31
0.0
  0
ARC
  5
7589
330
1A
100
AcDbEntity
  8
外形線
100
AcDbCircle
 10
1296.266716637425
 20
-108.1249647296436
 30
0.0
 40
8.500000000000079
100
AcDbArc
 50
61.9275130641455
 51
118.0724869358545
  0
LINE
  5
758A
330
1A
100
AcDbEntity
  8
外形線
100
AcDbLine
 10
1304.61641645442
 20
-198.1201177095363
 30
0.0
 11
1300.266416454421
 21
-198.1201177095363
 31
0.0
  0
LINE
  5
758B
330
1A
100
AcDbEntity
  8
外形線
100
AcDbLine
 10
1298.216416454412
 20
-199.6201177095345
 30
0.0
 11
1304.61641645442
 21
-199.6201177095345
 31
0.0
  0
ARC
  5
758C
330
1A
100
AcDbEntity
  8
外形線
100
AcDbCircle
 10
1296.26639036691
 20
-189.9828549675594
 30
0.0
 40
9.067262742014291
100
AcDbArc
 50
282.4191804407609
 51
296.1773007331484
  0
LINE
  5
758D
330
1A
100
AcDbEntity
  8
外形線
100
AcDbLine
 10
1292.266416454421
 20
-198.1201177095363
 30
0.0
 11
1285.616416454421
 21
-198.1201177095363
 31
0.0
  0
ARC
  5
758E
330
1A
100
AcDbEntity
  8
外形線
100
AcDbCircle
 10
1274.966442541916
 20
-189.9828549675594
 30
0.0
 40
9.067262742014291
100
AcDbArc
 50
243.8226992668516
 51
257.5808195592391
  0
LINE
  5
758F
330
1A
100
AcDbEntity
  8
外形線
100
AcDbLine
 10
1278.96641645442
 20
-198.1201177095363
 30
0.0
 11
1285.616416454421
 21
-198.1201177095363
 31
0.0
  0
LINE
  5
7590
330
1A
100
AcDbEntity
  8
外形線
100
AcDbLine
 10
1273.016416454414
 20
-199.6201177095345
 30
0.0
 11
1266.616416454406
 21
-199.6201177095345
 31
0.0
  0
LINE
  5
7591
330
1A
100
AcDbEntity
  8
外形線
100
AcDbLine
 10
1266.616416454421
 20
-198.1201177095363
 30
0.0
 11
1270.9664164545
 21
-198.1201049093242
 31
0.0
  0
LINE
  5
7592
330
1A
100
AcDbEntity
  8
外形線
100
AcDbLine
 10
1300.266140697148
 20
-100.6249647296454
 30
0.0
 11
1300.26627883208
 21
-142.2270957573825
 31
0.0
  0
LINE
  5
7593
330
1A
100
AcDbEntity
  8
外形線
100
AcDbLine
 10
1270.966761190474
 20
-100.6249647296454
 30
0.0
 11
1270.966634884629
 21
-142.2270957573825
 31
0.0
  0
LINE
  5
7594
330
1A
100
AcDbEntity
  8
外形線
100
AcDbLine
 10
1302.266360660031
 20
20.73219788535334
 30
0.0
 11
1301.203577851679
 21
15.73219788535243
 31
0.0
  0
ARC
  5
7595
330
1A
100
AcDbEntity
  8
細線
100
AcDbCircle
 10
1288.146992568763
 20
24.36234806147786
 30
0.0
 40
11.99833002920699
100
AcDbArc
 50
322.5035527109579
 51
342.3888957150799
  0
LINE
  5
7596
330
1A
100
AcDbEntity
  8
外形線
100
AcDbLine
 10
1300.213041584596
 20
0.7321991609378529
 30
0.0
 11
1300.213055016729
 21
15.73219788535243
 31
0.0
  0
LINE
  5
7597
330
1A
100
AcDbEntity
  8
細線
100
AcDbLine
 10
1299.726360661987
 20
15.73219788535243
 30
0.0
 11
1299.726360756102
 21
0.7321989909933109
 31
0.0
  0
LINE
  5
7598
330
1A
100
AcDbEntity
  8
細線
100
AcDbLine
 10
1302.266360660031
 20
20.73219788535334
 30
0.0
 11
1299.582985450386
 21
20.73219788535334
 31
0.0
  0
LINE
  5
7599
330
1A
100
AcDbEntity
  8
外形線
100
AcDbLine
 10
1302.266360660031
 20
20.73219788535334
 30
0.0
 11
1302.266360660031
 21
25.73219788535153
 31
0.0
  0
LINE
  5
759A
330
1A
100
AcDbEntity
  8
細線
100
AcDbLine
 10
1299.582985450386
 20
20.73219788535334
 30
0.0
 11
1299.582985450386
 21
25.73219788535153
 31
0.0
  0
ARC
  5
759B
330
1A
100
AcDbEntity
  8
細線
100
AcDbCircle
 10
1304.385840340061
 20
24.36234806147786
 30
0.0
 40
11.99833002920699
100
AcDbArc
 50
197.6111042849201
 51
217.4964472890422
  0
LINE
  5
759C
330
1A
100
AcDbEntity
  8
外形線
100
AcDbLine
 10
1290.266472248793
 20
20.73219788535334
 30
0.0
 11
1291.329255057144
 21
15.73219788535243
 31
0.0
  0
ARC
  5
759D
330
1A
100
AcDbEntity
  8
細線
100
AcDbCircle
 10
1266.846744852778
 20
25.06135426015044
 30
0.0
 40
11.99833002920699
100
AcDbArc
 50
322.5035527109579
 51
342.3888957150799
  0
LINE
  5
759E
330
1A
100
AcDbEntity
  8
外形線
100
AcDbLine
 10
1280.966112944046
 20
21.43120408402319
 30
0.0
 11
1279.903330135697
 21
16.43120408402501
 31
0.0
  0
ARC
  5
759F
330
1A
100
AcDbEntity
  8
細線
100
AcDbCircle
 10
1283.086088056054
 20
25.06135426015044
 30
0.0
 40
11.99833002920699
100
AcDbArc
 50
197.6111042849201
 51
217.4964472890422
  0
LINE
  5
75A0
330
1A
100
AcDbEntity
  8
外形線
100
AcDbLine
 10
1268.966719964786
 20
21.43120408402319
 30
0.0
 11
1270.029502773137
 21
16.43120408402501
 31
0.0
  0
LINE
  5
75A1
330
1A
100
AcDbEntity
  8
外形線
100
AcDbLine
 10
1296.266775750491
 20
0.7321977826895818
 30
0.0
 11
1292.319792259996
 21
0.7321991609378529
 31
0.0
  0
LINE
  5
75A2
330
1A
100
AcDbEntity
  8
外形線
100
AcDbLine
 10
1291.329255057144
 20
15.73219788535243
 30
0.0
 11
1296.266472248795
 21
15.73219788535243
 31
0.0
  0
LINE
  5
75A3
330
1A
100
AcDbEntity
  8
細線
100
AcDbLine
 10
1292.806472246837
 20
15.73219788535243
 30
0.0
 11
1292.806472152723
 21
0.7321989909933109
 31
0.0
  0
LINE
  5
75A4
330
1A
100
AcDbEntity
  8
外形線
100
AcDbLine
 10
1292.319791324228
 20
0.7321991609378529
 30
0.0
 11
1292.319777892096
 21
15.73219788535243
 31
0.0
  0
LINE
  5
75A5
330
1A
100
AcDbEntity
  8
外形線
100
AcDbLine
 10
1278.912794112697
 20
1.332199265822964
 30
0.0
 11
1278.912807300744
 21
16.43120408402501
 31
0.0
  0
LINE
  5
75A6
330
1A
100
AcDbEntity
  8
細線
100
AcDbLine
 10
1278.426112946003
 20
16.43120408402501
 30
0.0
 11
1278.426113284203
 21
1.332199095877513
 31
0.0
  0
LINE
  5
75A7
330
1A
100
AcDbEntity
  8
細線
100
AcDbLine
 10
1271.50671996283
 20
16.43120408402501
 30
0.0
 11
1271.506719624629
 21
1.332199095877513
 31
0.0
  0
LINE
  5
75A8
330
1A
100
AcDbEntity
  8
外形線
100
AcDbLine
 10
1271.020038796136
 20
1.332199265822964
 30
0.0
 11
1271.020025608089
 21
16.43120408402501
 31
0.0
  0
LINE
  5
75A9
330
1A
100
AcDbEntity
  8
外形線
100
AcDbLine
 10
1274.965809442349
 20
1.332197887574693
 30
0.0
 11
1278.912792932844
 21
1.332199265822964
 31
0.0
  0
LINE
  5
75AA
330
1A
100
AcDbEntity
  8
外形線
100
AcDbLine
 10
1274.967023466484
 20
1.332197887574693
 30
0.0
 11
1271.020039975989
 21
1.332199265822964
 31
0.0
  0
ARC
  5
75AB
330
1A
100
AcDbEntity
  8
細線
100
AcDbCircle
 10
1274.430385709841
 20
19.05254856286501
 30
0.0
 40
2.328809070069961
100
AcDbArc
 50
283.2996288653489
 51
326.2231403470696
  0
LINE
  5
75AC
330
1A
100
AcDbEntity
  8
外形線
100
AcDbLine
 10
1279.903330135697
 20
16.43120408402501
 30
0.0
 11
1274.966112944043
 21
16.43120408402501
 31
0.0
  0
ARC
  5
75AD
330
1A
100
AcDbEntity
  8
細線
100
AcDbCircle
 10
1275.502447198992
 20
19.05254856286501
 30
0.0
 40
2.328809070069961
100
AcDbArc
 50
213.7768596529304
 51
256.7003711346511
  0
LINE
  5
75AE
330
1A
100
AcDbEntity
  8
外形線
100
AcDbLine
 10
1270.029502773137
 20
16.43120408402501
 30
0.0
 11
1274.96671996479
 21
16.43120408402501
 31
0.0
  0
ARC
  5
75AF
330
1A
100
AcDbEntity
  8
細線
100
AcDbCircle
 10
1296.802199482999
 20
18.35354236419516
 30
0.0
 40
2.328809070069961
100
AcDbArc
 50
213.7768596529304
 51
256.7003711346511
  0
LINE
  5
75B0
330
1A
100
AcDbEntity
  8
外形線
100
AcDbLine
 10
1290.266472248793
 20
25.73219788535153
 30
0.0
 11
1296.266472248794
 21
25.73219788535153
 31
0.0
  0
LINE
  5
75B1
330
1A
100
AcDbEntity
  8
細線
100
AcDbLine
 10
1292.949847458437
 20
20.73219788535334
 30
0.0
 11
1292.949847458437
 21
25.73219788535153
 31
0.0
  0
LINE
  5
75B2
330
1A
100
AcDbEntity
  8
外形線
100
AcDbLine
 10
1290.266472248793
 20
20.73219788535334
 30
0.0
 11
1290.266472248793
 21
25.73219788535153
 31
0.0
  0
LINE
  5
75B3
330
1A
100
AcDbEntity
  8
細線
100
AcDbLine
 10
1290.266472248793
 20
20.73219788535334
 30
0.0
 11
1292.949847458437
 21
20.73219788535334
 31
0.0
  0
LINE
  5
75B4
330
1A
100
AcDbEntity
  8
外形線
100
AcDbLine
 10
1280.966112944046
 20
21.43120408402319
 30
0.0
 11
1280.966112944046
 21
26.4312040840241
 31
0.0
  0
LINE
  5
75B5
330
1A
100
AcDbEntity
  8
細線
100
AcDbLine
 10
1278.282737734401
 20
21.43120408402319
 30
0.0
 11
1278.282737734401
 21
26.4312040840241
 31
0.0
  0
LINE
  5
75B6
330
1A
100
AcDbEntity
  8
細線
100
AcDbLine
 10
1271.65009517443
 20
21.43120408402319
 30
0.0
 11
1271.65009517443
 21
26.4312040840241
 31
0.0
  0
LINE
  5
75B7
330
1A
100
AcDbEntity
  8
細線
100
AcDbLine
 10
1280.966112944046
 20
21.43120408402319
 30
0.0
 11
1278.282737734401
 21
21.43120408402319
 31
0.0
  0
LINE
  5
75B8
330
1A
100
AcDbEntity
  8
外形線
100
AcDbLine
 10
1280.966112944046
 20
26.4312040840241
 30
0.0
 11
1274.966112944046
 21
26.4312040840241
 31
0.0
  0
LINE
  5
75B9
330
1A
100
AcDbEntity
  8
外形線
100
AcDbLine
 10
1268.966719964786
 20
21.43120408402319
 30
0.0
 11
1268.966719964786
 21
26.4312040840241
 31
0.0
  0
LINE
  5
75BA
330
1A
100
AcDbEntity
  8
細線
100
AcDbLine
 10
1268.966719964786
 20
21.43120408402319
 30
0.0
 11
1271.65009517443
 21
21.43120408402319
 31
0.0
  0
LINE
  5
75BB
330
1A
100
AcDbEntity
  8
外形線
100
AcDbLine
 10
1268.966719964786
 20
26.4312040840241
 30
0.0
 11
1274.966719964787
 21
26.4312040840241
 31
0.0
  0
LINE
  5
75BC
330
1A
100
AcDbEntity
  8
外形線
100
AcDbLine
 10
1296.266057158334
 20
0.7321977826895818
 30
0.0
 11
1300.213040648828
 21
0.7321991609378529
 31
0.0
  0
ARC
  5
75BD
330
1A
100
AcDbEntity
  8
細線
100
AcDbCircle
 10
1295.730633425825
 20
18.35354236419516
 30
0.0
 40
2.328809070069961
100
AcDbArc
 50
283.2996288653489
 51
326.2231403470696
  0
LINE
  5
75BE
330
1A
100
AcDbEntity
  8
外形線
100
AcDbLine
 10
1301.203577851679
 20
15.73219788535243
 30
0.0
 11
1296.266360660028
 21
15.73219788535243
 31
0.0
  0
LINE
  5
75BF
330
1A
100
AcDbEntity
  8
外形線
100
AcDbLine
 10
1302.266360660031
 20
25.73219788535153
 30
0.0
 11
1296.266360660031
 21
25.73219788535153
 31
0.0
  0
LINE
  5
75C0
330
1A
100
AcDbEntity
  8
外形線
100
AcDbLine
 10
1304.616716637424
 20
-82.62496472964448
 30
0.0
 11
1300.266716637424
 21
-82.62496472964448
 31
0.0
  0
LINE
  5
75C1
330
1A
100
AcDbEntity
  8
外形線
100
AcDbLine
 10
1306.416716637424
 20
-93.614637347594
 30
0.0
 11
1306.416716637424
 21
-91.61463734759308
 31
0.0
  0
LINE
  5
75C2
330
1A
100
AcDbEntity
  8
外形線
100
AcDbLine
 10
1306.416716637424
 20
-89.61463734759218
 30
0.0
 11
1306.416716637424
 21
-91.61463734759308
 31
0.0
  0
LINE
  5
75C3
330
1A
100
AcDbEntity
  8
外形線
100
AcDbLine
 10
1305.416716637425
 20
-88.61463734759309
 30
0.0
 11
1304.616716637424
 21
-88.61463734759309
 31
0.0
  0
ARC
  5
75C4
330
1A
100
AcDbEntity
  8
外形線
100
AcDbCircle
 10
1305.416716637425
 20
-89.61463734759218
 30
0.0
 40
1.0
100
AcDbArc
 50
0.0
 51
90.0
  0
LINE
  5
75C5
330
1A
100
AcDbEntity
  8
外形線
100
AcDbLine
 10
1292.266716637425
 20
-82.62496472964448
 30
0.0
 11
1285.616716637424
 21
-82.62496472964448
 31
0.0
  0
ARC
  5
75C6
330
1A
100
AcDbEntity
  8
外形線
100
AcDbCircle
 10
1274.966716637425
 20
-75.1249647296454
 30
0.0
 40
8.500000000000079
100
AcDbArc
 50
241.9275130641455
 51
298.0724869358545
  0
LINE
  5
75C7
330
1A
100
AcDbEntity
  8
外形線
100
AcDbLine
 10
1278.966716637425
 20
-82.62496472964448
 30
0.0
 11
1285.616716637424
 21
-82.62496472964448
 31
0.0
  0
LINE
  5
75C8
330
1A
100
AcDbEntity
  8
外形線
100
AcDbLine
 10
1266.616716637424
 20
-82.62496472964448
 30
0.0
 11
1270.966716637425
 21
-82.62496472964448
 31
0.0
  0
ARC
  5
75C9
330
1A
100
AcDbEntity
  8
外形線
100
AcDbCircle
 10
1265.816716637425
 20
-89.61463734759218
 30
0.0
 40
1.0
100
AcDbArc
 50
90.0
 51
180.0
  0
LINE
  5
75CA
330
1A
100
AcDbEntity
  8
外形線
100
AcDbLine
 10
1264.816716637424
 20
-93.614637347594
 30
0.0
 11
1264.816716637424
 21
-91.61463734759308
 31
0.0
  0
LINE
  5
75CB
330
1A
100
AcDbEntity
  8
外形線
100
AcDbLine
 10
1264.816716637424
 20
-89.61463734759218
 30
0.0
 11
1264.816716637424
 21
-91.61463734759308
 31
0.0
  0
LINE
  5
75CC
330
1A
100
AcDbEntity
  8
外形線
100
AcDbLine
 10
1265.816716637425
 20
-88.61463734759309
 30
0.0
 11
1266.616716637424
 21
-88.61463734759309
 31
0.0
  0
ARC
  5
75CD
330
1A
100
AcDbEntity
  8
外形線
100
AcDbCircle
 10
1296.266716637425
 20
-75.1249647296454
 30
0.0
 40
8.500000000000079
100
AcDbArc
 50
241.9275130641455
 51
298.0724869358545
  0
LINE
  5
75CE
330
1A
100
AcDbEntity
  8
外形線
100
AcDbLine
 10
1300.213041584596
 20
0.7321992252846031
 30
0.0
 11
1300.265217380659
 21
-82.62544406885627
 31
0.0
  0
LINE
  5
75CF
330
1A
100
AcDbEntity
  8
外形線
100
AcDbLine
 10
1292.319791324228
 20
0.7321992252846031
 30
0.0
 11
1292.267615528166
 21
-82.62544406885627
 31
0.0
  0
LINE
  5
75D0
330
1A
100
AcDbEntity
  8
外形線
100
AcDbLine
 10
1278.964738176406
 20
1.332199283961017
 30
0.0
 11
1278.965217377533
 21
-82.62496473945885
 31
0.0
  0
LINE
  5
75D1
330
1A
100
AcDbEntity
  8
外形線
100
AcDbLine
 10
1270.968094732427
 20
1.332199283961017
 30
0.0
 11
1270.967615531296
 21
-82.62496551755702
 31
0.0
  0
LINE
  5
75D2
330
1A
100
AcDbEntity
  8
外形線
100
AcDbLine
 10
1235.64509611085
 20
149.2786963341095
 30
0.0
 11
1248.865695887299
 21
136.0580965576609
 31
0.0
  0
LINE
  5
75D3
330
1A
100
AcDbEntity
  8
外形線
100
AcDbLine
 10
1235.766416454411
 20
150.1605929818188
 30
0.0
 11
1268.76641645441
 21
150.1605929818188
 31
0.0
  0
CIRCLE
  5
75D4
330
1A
100
AcDbEntity
  8
外形線
100
AcDbCircle
 10
1253.307827839325
 20
168.1589844861855
 30
0.0
 40
13.80211455718106
  0
LINE
  5
75D5
330
1A
100
AcDbEntity
  8
外形線
100
AcDbLine
 10
1235.766416454411
 20
186.1605929818206
 30
0.0
 11
1345.76641645441
 21
186.1605929818206
 31
0.0
  0
LINE
  5
75D6
330
1A
100
AcDbEntity
  8
外形線
100
AcDbLine
 10
1234.766416454411
 20
151.1605929818179
 30
0.0
 11
1234.766416454411
 21
185.1605929818215
 31
0.0
  0
ARC
  5
75D7
330
1A
100
AcDbEntity
  8
外形線
100
AcDbCircle
 10
1235.766416454411
 20
151.1605929818179
 30
0.0
 40
1.0
100
AcDbArc
 50
180.0
 51
270.0
  0
ARC
  5
75D8
330
1A
100
AcDbEntity
  8
外形線
100
AcDbCircle
 10
1237.766416454411
 20
151.4000166776686
 30
0.0
 40
3.0
100
AcDbArc
 50
190.7521272360077
 51
225.0000000000046
  0
ARC
  5
75D9
330
1A
100
AcDbEntity
  8
外形線
100
AcDbCircle
 10
1235.766416454411
 20
185.1605929818215
 30
0.0
 40
1.0
100
AcDbArc
 50
90.0
 51
180.0
  0
LINE
  5
75DA
330
1A
100
AcDbEntity
  8
外形線
100
AcDbLine
 10
1233.818752410654
 20
184.6109280137789
 30
0.0
 11
1232.757566703462
 21
184.5553136274584
 31
0.0
  0
ARC
  5
75DB
330
1A
100
AcDbEntity
  8
外形線
100
AcDbCircle
 10
1232.809902659704
 20
183.5566840927031
 30
0.0
 40
1.0
100
AcDbArc
 50
93.00000000000558
 51
180.0
  0
LINE
  5
75DC
330
1A
100
AcDbEntity
  8
外形線
100
AcDbLine
 10
1231.809902659703
 20
183.1589844861291
 30
0.0
 11
1231.809902659703
 21
183.5566840927031
 31
0.0
  0
LINE
  5
75DD
330
1A
100
AcDbEntity
  8
外形線
100
AcDbLine
 10
1228.266416454411
 20
183.1589844861291
 30
0.0
 11
1234.26641645441
 21
183.1589844861291
 31
0.0
  0
ARC
  5
75DE
330
1A
100
AcDbEntity
  8
外形線
100
AcDbCircle
 10
1233.354464699799
 20
186.5031499825636
 30
0.0
 40
1.948349829366278
100
AcDbArc
 50
283.7861039460946
 51
316.4431559317665
  0
LINE
  5
75DF
330
1A
100
AcDbEntity
  8
外形線
100
AcDbLine
 10
1223.809902659704
 20
183.4881398908374
 30
0.0
 11
1223.809902659704
 21
183.1589844861291
 31
0.0
  0
LINE
  5
75E0
330
1A
100
AcDbEntity
  8
外形線
100
AcDbLine
 10
1223.809902659704
 20
183.4881398908374
 30
0.0
 11
1231.809902659703
 21
183.4881398908374
 31
0.0
  0
LINE
  5
75E1
330
1A
100
AcDbEntity
  8
細線
100
AcDbLine
 10
1228.266416454411
 20
174.6589844861309
 30
0.0
 11
1234.26641645441
 21
174.6589844861309
 31
0.0
  0
LINE
  5
75E2
330
1A
100
AcDbEntity
  8
細線
100
AcDbLine
 10
1228.266416454411
 20
177.1589844861291
 30
0.0
 11
1234.26641645441
 21
177.1589844861291
 31
0.0
  0
LINE
  5
75E3
330
1A
100
AcDbEntity
  8
外形線
100
AcDbLine
 10
1234.26641645441
 20
181.1589844861309
 30
0.0
 11
1234.766416454411
 21
181.1589844861309
 31
0.0
  0
LINE
  5
75E4
330
1A
100
AcDbEntity
  8
外形線
100
AcDbLine
 10
1234.26641645441
 20
181.1589844861309
 30
0.0
 11
1234.766416454411
 21
181.1589844861309
 31
0.0
  0
LINE
  5
75E5
330
1A
100
AcDbEntity
  8
外形線
100
AcDbLine
 10
1227.069034641316
 20
178.65898448613
 30
0.0
 11
1228.266416454411
 21
178.65898448613
 31
0.0
  0
LINE
  5
75E6
330
1A
100
AcDbEntity
  8
外形線
100
AcDbLine
 10
1227.069034641316
 20
178.65898448613
 30
0.0
 11
1226.26641645441
 21
179.4920065391234
 31
0.0
  0
LINE
  5
75E7
330
1A
100
AcDbEntity
  8
外形線
100
AcDbLine
 10
1227.069034641316
 20
178.65898448613
 30
0.0
 11
1226.26641645441
 21
178.65898448613
 31
0.0
  0
LINE
  5
75E8
330
1A
100
AcDbEntity
  8
外形線
100
AcDbLine
 10
1227.809902659703
 20
183.4881398908374
 30
0.0
 11
1227.809902659703
 21
178.65898448613
 31
0.0
  0
ARC
  5
75E9
330
1A
100
AcDbEntity
  8
外形線
100
AcDbCircle
 10
1212.26641645441
 20
176.4589844861284
 30
0.0
 40
5.0
100
AcDbArc
 50
90.0
 51
180.0
  0
LINE
  5
75EA
330
1A
100
AcDbEntity
  8
外形線
100
AcDbLine
 10
1215.26641645441
 20
181.4589844861293
 30
0.0
 11
1216.866416454409
 21
183.1589844861291
 31
0.0
  0
LINE
  5
75EB
330
1A
100
AcDbEntity
  8
外形線
100
AcDbLine
 10
1212.26641645441
 20
181.4589844861293
 30
0.0
 11
1215.26641645441
 21
181.4589844861293
 31
0.0
  0
LINE
  5
75EC
330
1A
100
AcDbEntity
  8
細線
100
AcDbLine
 10
1216.866416454409
 20
174.6589844861309
 30
0.0
 11
1216.866416454409
 21
177.1589844861291
 31
0.0
  0
ARC
  5
75ED
330
1A
100
AcDbEntity
  8
細線
100
AcDbCircle
 10
1219.689174966182
 20
180.1589844861291
 30
0.0
 40
4.119219054114879
100
AcDbArc
 50
133.2564871116759
 51
226.7435128883241
  0
LINE
  5
75EE
330
1A
100
AcDbEntity
  8
外形線
100
AcDbLine
 10
1226.26641645441
 20
183.1589844861291
 30
0.0
 11
1216.866416454409
 21
183.1589844861291
 31
0.0
  0
LINE
  5
75EF
330
1A
100
AcDbEntity
  8
細線
100
AcDbLine
 10
1216.866416454409
 20
174.6589844861309
 30
0.0
 11
1226.26641645441
 21
174.6589844861309
 31
0.0
  0
LINE
  5
75F0
330
1A
100
AcDbEntity
  8
細線
100
AcDbLine
 10
1216.866416454409
 20
177.1589844861291
 30
0.0
 11
1226.26641645441
 21
177.1589844861291
 31
0.0
  0
LINE
  5
75F1
330
1A
100
AcDbEntity
  8
外形線
100
AcDbLine
 10
1234.26641645441
 20
155.1589844861291
 30
0.0
 11
1234.766416454411
 21
155.1589844861291
 31
0.0
  0
LINE
  5
75F2
330
1A
100
AcDbEntity
  8
外形線
100
AcDbLine
 10
1234.26641645441
 20
155.1589844861291
 30
0.0
 11
1234.766416454411
 21
155.1589844861291
 31
0.0
  0
LINE
  5
75F3
330
1A
100
AcDbEntity
  8
外形線
100
AcDbLine
 10
1227.069034641316
 20
157.6589844861291
 30
0.0
 11
1228.266416454411
 21
157.6589844861291
 31
0.0
  0
LINE
  5
75F4
330
1A
100
AcDbEntity
  8
外形線
100
AcDbLine
 10
1228.266416454411
 20
153.1589844861282
 30
0.0
 11
1234.26641645441
 21
153.1589844861282
 31
0.0
  0
LINE
  5
75F5
330
1A
100
AcDbEntity
  8
外形線
100
AcDbLine
 10
1227.069034641316
 20
157.6589844861291
 30
0.0
 11
1226.26641645441
 21
157.6589844861291
 31
0.0
  0
LINE
  5
75F6
330
1A
100
AcDbEntity
  8
外形線
100
AcDbLine
 10
1227.069034641316
 20
157.6589844861291
 30
0.0
 11
1226.26641645441
 21
156.825962433134
 31
0.0
  0
LINE
  5
75F7
330
1A
100
AcDbEntity
  8
細線
100
AcDbLine
 10
1228.266416454411
 20
161.6589844861282
 30
0.0
 11
1234.26641645441
 21
161.6589844861282
 31
0.0
  0
LINE
  5
75F8
330
1A
100
AcDbEntity
  8
細線
100
AcDbLine
 10
1228.266416454411
 20
159.1589844861282
 30
0.0
 11
1234.26641645441
 21
159.1589844861282
 31
0.0
  0
ARC
  5
75F9
330
1A
100
AcDbEntity
  8
外形線
100
AcDbCircle
 10
1212.26641645441
 20
159.858984486129
 30
0.0
 40
5.0
100
AcDbArc
 50
180.0
 51
270.0
  0
ARC
  5
75FA
330
1A
100
AcDbEntity
  8
細線
100
AcDbCircle
 10
1219.689174966182
 20
156.1589844861309
 30
0.0
 40
4.119219054114879
100
AcDbArc
 50
133.2564871116759
 51
226.7435128883241
  0
LINE
  5
75FB
330
1A
100
AcDbEntity
  8
外形線
100
AcDbLine
 10
1215.26641645441
 20
154.8589844861271
 30
0.0
 11
1216.866416454409
 21
153.1589844861282
 31
0.0
  0
LINE
  5
75FC
330
1A
100
AcDbEntity
  8
外形線
100
AcDbLine
 10
1212.26641645441
 20
154.8589844861271
 30
0.0
 11
1215.26641645441
 21
154.8589844861271
 31
0.0
  0
LINE
  5
75FD
330
1A
100
AcDbEntity
  8
細線
100
AcDbLine
 10
1216.866416454409
 20
161.6589844861282
 30
0.0
 11
1216.866416454409
 21
159.1589844861282
 31
0.0
  0
LINE
  5
75FE
330
1A
100
AcDbEntity
  8
外形線
100
AcDbLine
 10
1226.26641645441
 20
153.1589844861282
 30
0.0
 11
1216.866416454409
 21
153.1589844861282
 31
0.0
  0
LINE
  5
75FF
330
1A
100
AcDbEntity
  8
細線
100
AcDbLine
 10
1216.866416454409
 20
161.6589844861282
 30
0.0
 11
1226.26641645441
 21
161.6589844861282
 31
0.0
  0
LINE
  5
7600
330
1A
100
AcDbEntity
  8
細線
100
AcDbLine
 10
1216.866416454409
 20
159.1589844861282
 30
0.0
 11
1226.26641645441
 21
159.1589844861282
 31
0.0
  0
LINE
  5
7601
330
1A
100
AcDbEntity
  8
外形線
100
AcDbLine
 10
1207.26641645441
 20
159.858984486129
 30
0.0
 11
1207.26641645441
 21
176.4589844861284
 31
0.0
  0
LINE
  5
7602
330
1A
100
AcDbEntity
  8
外形線
100
AcDbLine
 10
1227.069034641316
 20
178.65898448613
 30
0.0
 11
1227.069034641316
 21
157.6589844861291
 31
0.0
  0
ARC
  5
7603
330
1A
100
AcDbEntity
  8
細線
100
AcDbCircle
 10
1232.572848833942
 20
168.158984486131
 30
0.0
 40
16.99829456424291
100
AcDbArc
 50
157.5181156825082
 51
202.4818843174917
  0
LINE
  5
7604
330
1A
100
AcDbEntity
  8
外形線
100
AcDbLine
 10
1234.26641645441
 20
153.1589844861282
 30
0.0
 11
1234.26641645441
 21
183.1589844861291
 31
0.0
  0
LINE
  5
7605
330
1A
100
AcDbEntity
  8
外形線
100
AcDbLine
 10
1228.266416454411
 20
153.1589844861282
 30
0.0
 11
1228.266416454411
 21
183.1589844861291
 31
0.0
  0
LINE
  5
7606
330
1A
100
AcDbEntity
  8
外形線
100
AcDbLine
 10
1226.26641645441
 20
153.1589844861282
 30
0.0
 11
1226.26641645441
 21
183.1589844861291
 31
0.0
  0
LINE
  5
7607
330
1A
100
AcDbEntity
  8
外形線
100
AcDbLine
 10
1215.26641645441
 20
154.8589844861271
 30
0.0
 11
1215.26641645441
 21
181.4589844861293
 31
0.0
  0
LINE
  5
7608
330
1A
100
AcDbEntity
  8
外形線
100
AcDbLine
 10
1341.76641645441
 20
139.6310943854923
 30
0.0
 11
1341.76641645441
 21
178.9310943854889
 31
0.0
  0
LINE
  5
7609
330
1A
100
AcDbEntity
  8
外形線
100
AcDbLine
 10
1341.76641645441
 20
139.6310943854923
 30
0.0
 11
1341.76641645441
 21
178.3107743728169
 31
0.0
  0
LINE
  5
760A
330
1A
100
AcDbEntity
  8
外形線
100
AcDbLine
 10
1268.76641645441
 20
150.1605929818188
 30
0.0
 11
1268.76641645441
 21
177.5605307017986
 31
0.0
  0
LINE
  5
760B
330
1A
100
AcDbEntity
  8
外形線
100
AcDbLine
 10
1268.76641645441
 20
150.1605929818188
 30
0.0
 11
1268.76641645441
 21
177.905684511511
 31
0.0
  0
LINE
  5
760C
330
1A
100
AcDbEntity
  8
外形線
100
AcDbLine
 10
1329.132441858196
 20
120.6310943854923
 30
0.0
 11
1263.400391050626
 21
120.6310943854923
 31
0.0
  0
LINE
  5
760D
330
1A
100
AcDbEntity
  8
外形線
100
AcDbLine
 10
1329.405265602166
 20
124.5108214729716
 30
0.0
 11
1263.127567306655
 21
124.5108214729716
 31
0.0
  0
LINE
  5
760E
330
1A
100
AcDbEntity
  8
外形線
100
AcDbLine
 10
1340.766416454411
 20
138.6310943854896
 30
0.0
 11
1252.88938223243
 21
138.6310943854896
 31
0.0
  0
LINE
  5
760F
330
1A
100
AcDbEntity
  8
外形線
100
AcDbLine
 10
1312.266416372061
 20
99.23219788768347
 30
0.0
 11
1312.266416372061
 21
104.8312039814691
 31
0.0
  0
LINE
  5
7610
330
1A
100
AcDbEntity
  8
外形線
100
AcDbLine
 10
1316.725999598473
 20
83.11833138983093
 30
0.0
 11
1316.725999598473
 21
98.16143021132212
 31
0.0
  0
LINE
  5
7611
330
1A
100
AcDbEntity
  8
外形線
100
AcDbLine
 10
1311.54468822
 20
78.65625464425466
 30
0.0
 11
1313.291538234217
 21
75.64991763406851
 31
0.0
  0
LINE
  5
7612
330
1A
100
AcDbEntity
  8
外形線
100
AcDbLine
 10
1315.666416454415
 20
82.4312039814704
 30
0.0
 11
1316.725999598473
 21
83.11833138983093
 31
0.0
  0
ARC
  5
7613
330
1A
100
AcDbEntity
  8
外形線
100
AcDbCircle
 10
1313.984378214892
 20
81.63120398146929
 30
0.0
 40
0.79999999999999
100
AcDbArc
 50
90.0
 51
176.0230688591311
1001
ACAD
1000
ASC_BOUNDS
1002
{
1070
    19
1005
0
1002
}
  0
ARC
  5
7614
330
1A
100
AcDbEntity
  8
外形線
100
AcDbCircle
 10
1312.687508543028
 20
81.7213652492046
 30
0.0
 40
0.5000000000000001
100
AcDbArc
 50
299.7448812969405
 51
356.0230688591311
1001
ACAD
1000
ASC_BOUNDS
1002
{
1070
    19
1005
0
1002
}
  0
LINE
  5
7615
330
1A
100
AcDbEntity
  8
外形線
100
AcDbLine
 10
1311.840597392342
 20
80.66154046679185
 30
0.0
 11
1312.935578012206
 21
81.28724367814356
 31
0.0
1001
ACAD
1000
ASC_BOUNDS
1002
{
1070
    19
1005
0
1002
}
  0
LINE
  5
7616
330
1A
100
AcDbEntity
  8
外形線
100
AcDbLine
 10
1311.437508543028
 20
79.96694595309418
 30
0.0
 11
1311.437508543028
 21
79.05625464425338
 31
0.0
1001
ACAD
1000
ASC_BOUNDS
1002
{
1070
    19
1005
0
1002
}
  0
ARC
  5
7617
330
1A
100
AcDbEntity
  8
外形線
100
AcDbCircle
 10
1312.237508543027
 20
79.05625464425338
 30
0.0
 40
0.8000000000000001
100
AcDbArc
 50
180.0
 51
209.9999999999973
1001
ACAD
1000
ASC_BOUNDS
1002
{
1070
    19
1005
0
1002
}
  0
ARC
  5
7618
330
1A
100
AcDbEntity
  8
外形線
100
AcDbCircle
 10
1312.237508543027
 20
79.96694595309418
 30
0.0
 40
0.8000000000000001
100
AcDbArc
 50
119.7448812969244
 51
180.0
1001
ACAD
1000
ASC_BOUNDS
1002
{
1070
    19
1005
0
1002
}
  0
ARC
  5
7619
330
1A
100
AcDbEntity
  8
外形線
100
AcDbCircle
 10
1313.066416372062
 20
99.23219788768074
 30
0.0
 40
0.8000000000000001
100
AcDbArc
 50
180.0
 51
270.0
  0
LINE
  5
761A
330
1A
100
AcDbEntity
  8
外形線
100
AcDbLine
 10
1316.266416454415
 20
98.43219788768237
 30
0.0
 11
1316.725999598473
 21
98.16143021132212
 31
0.0
  0
LINE
  5
761B
330
1A
100
AcDbEntity
  8
外形線
100
AcDbLine
 10
1319.266416454411
 20
120.6310943854923
 30
0.0
 11
1319.266416454411
 21
120.2177923362387
 31
0.0
  0
ARC
  5
761C
330
1A
100
AcDbEntity
  8
外形線
100
AcDbCircle
 10
1319.266416490498
 20
112.5895695959361
 30
0.0
 40
2.0
100
AcDbArc
 50
300.0000000000135
 51
0.0000002710773015
  0
LINE
  5
761D
330
1A
100
AcDbEntity
  8
外形線
100
AcDbLine
 10
1313.292634677683
 20
106.8312039814709
 30
0.0
 11
1320.266416490498
 21
110.8575187883662
 31
0.0
  0
LINE
  5
761E
330
1A
100
AcDbEntity
  8
外形線
100
AcDbLine
 10
1312.266416372061
 20
104.8312039814691
 30
0.0
 11
1313.292634677683
 21
105.8312039814718
 31
0.0
  0
LINE
  5
761F
330
1A
100
AcDbEntity
  8
外形線
100
AcDbLine
 10
1313.292634677683
 20
105.8312039814718
 30
0.0
 11
1313.292634677683
 21
106.8312039814709
 31
0.0
  0
LINE
  5
7620
330
1A
100
AcDbEntity
  8
外形線
100
AcDbLine
 10
1321.26641645441
 20
120.2177923362387
 30
0.0
 11
1321.266416490497
 21
112.5895696053976
 31
0.0
  0
LINE
  5
7621
330
1A
100
AcDbEntity
  8
外形線
100
AcDbLine
 10
1280.26641653676
 20
99.23219788768347
 30
0.0
 11
1280.26641653676
 21
104.8312039814691
 31
0.0
  0
LINE
  5
7622
330
1A
100
AcDbEntity
  8
外形線
100
AcDbLine
 10
1265.597254896577
 20
81.28724367809809
 30
0.0
 11
1289.266416454391
 21
81.28724367814356
 31
0.0
  0
LINE
  5
7623
330
1A
100
AcDbEntity
  8
細線
100
AcDbLine
 10
1267.068065026792
 20
78.84919940813052
 30
0.0
 11
1289.266416454394
 21
78.84919940817326
 31
0.0
  0
LINE
  5
7624
330
1A
100
AcDbEntity
  8
外形線
100
AcDbLine
 10
1265.241294674576
 20
75.64991763402304
 30
0.0
 11
1289.266416454396
 21
75.64991763406851
 31
0.0
  0
ARC
  5
7625
330
1A
100
AcDbEntity
  8
外形線
100
AcDbCircle
 10
1178.041848077652
 20
-3795.594409236624
 30
0.0
 40
3879.620285722065
100
AcDbArc
 50
88.35716612418401
 51
88.76282915867442
  0
ARC
  5
7626
330
1A
100
AcDbEntity
  8
外形線
100
AcDbCircle
 10
1178.041848077779
 20
3976.45781110578
 30
0.0
 40
3879.620285722065
100
AcDbArc
 50
271.2371708412995
 51
271.642833875816
  0
LINE
  5
7627
330
1A
100
AcDbEntity
  8
外形線
  6
Continuous
100
AcDbLine
 10
1289.266416454414
 20
82.4312039814704
 30
0.0
 11
1262.866416454414
 21
82.4312039814704
 31
0.0
  0
LINE
  5
7628
330
1A
100
AcDbEntity
  8
外形線
100
AcDbLine
 10
1262.266416454414
 20
98.43219788768237
 30
0.0
 11
1289.266416454374
 21
98.43219788768237
 31
0.0
  0
LINE
  5
7629
330
1A
100
AcDbEntity
  8
外形線
100
AcDbLine
 10
1261.806833310356
 20
83.11833138983093
 30
0.0
 11
1261.806833310356
 21
98.16143021132212
 31
0.0
  0
LINE
  5
762A
330
1A
100
AcDbEntity
  8
外形線
100
AcDbLine
 10
1266.988144688829
 20
78.65625464425466
 30
0.0
 11
1265.241294674612
 21
75.64991763406851
 31
0.0
  0
LINE
  5
762B
330
1A
100
AcDbEntity
  8
外形線
100
AcDbLine
 10
1262.866416454414
 20
82.4312039814704
 30
0.0
 11
1261.806833310356
 21
83.11833138983093
 31
0.0
  0
ARC
  5
762C
330
1A
100
AcDbEntity
  8
外形線
100
AcDbCircle
 10
1266.295324365801
 20
79.96694595309418
 30
0.0
 40
0.8000000000000001
100
AcDbArc
 50
0.0
 51
60.25511870307556
1001
ACAD
1000
ASC_BOUNDS
1002
{
1070
    19
1005
0
1002
}
  0
ARC
  5
762D
330
1A
100
AcDbEntity
  8
外形線
100
AcDbCircle
 10
1265.845324365801
 20
81.7213652492046
 30
0.0
 40
0.5000000000000001
100
AcDbArc
 50
183.9769311408689
 51
240.2551187030594
1001
ACAD
1000
ASC_BOUNDS
1002
{
1070
    19
1005
0
1002
}
  0
ARC
  5
762E
330
1A
100
AcDbEntity
  8
外形線
100
AcDbCircle
 10
1264.548454693938
 20
81.63120398146929
 30
0.0
 40
0.8000000000000001
100
AcDbArc
 50
3.976931140868875
 51
90.0
1001
ACAD
1000
ASC_BOUNDS
1002
{
1070
    19
1005
0
1002
}
  0
LINE
  5
762F
330
1A
100
AcDbEntity
  8
外形線
100
AcDbLine
 10
1266.692235516486
 20
80.66154046679185
 30
0.0
 11
1265.597254896623
 21
81.28724367814356
 31
0.0
1001
ACAD
1000
ASC_BOUNDS
1002
{
1070
    19
1005
0
1002
}
  0
ARC
  5
7630
330
1A
100
AcDbEntity
  8
外形線
100
AcDbCircle
 10
1266.295324365801
 20
79.05625464425338
 30
0.0
 40
0.8000000000000001
100
AcDbArc
 50
330.0000000000027
 51
0.0
1001
ACAD
1000
ASC_BOUNDS
1002
{
1070
    19
1005
0
1002
}
  0
LINE
  5
7631
330
1A
100
AcDbEntity
  8
外形線
100
AcDbLine
 10
1267.095324365801
 20
79.96694595309418
 30
0.0
 11
1267.095324365801
 21
79.05625464425338
 31
0.0
1001
ACAD
1000
ASC_BOUNDS
1002
{
1070
    19
1005
0
1002
}
  0
POINT
  5
7632
330
1A
100
AcDbEntity
  8
外形線
  6
ByBlock
100
AcDbPoint
 10
1262.266416454414
 20
98.43219788768237
 30
0.0
  0
LINE
  5
7633
330
1A
100
AcDbEntity
  8
外形線
100
AcDbLine
 10
1262.266416454414
 20
98.43219788768237
 30
0.0
 11
1261.806833310356
 21
98.16143021132212
 31
0.0
  0
LINE
  5
7634
330
1A
100
AcDbEntity
  8
外形線
100
AcDbLine
 10
1289.266416454439
 20
82.4312039814704
 30
0.0
 11
1289.266416454439
 21
98.43219788768511
 31
0.0
  0
ARC
  5
7635
330
1A
100
AcDbEntity
  8
外形線
100
AcDbCircle
 10
1279.46641653676
 20
99.23219788768347
 30
0.0
 40
0.8000000000000001
100
AcDbArc
 50
270.0
 51
0.0
  0
LINE
  5
7636
330
1A
100
AcDbEntity
  8
外形線
100
AcDbLine
 10
1271.26641645441
 20
120.2177923362387
 30
0.0
 11
1296.26641645441
 21
120.217792336236
 31
0.0
  0
LINE
  5
7637
330
1A
100
AcDbEntity
  8
外形線
100
AcDbLine
 10
1279.240198231137
 20
106.8312039814709
 30
0.0
 11
1296.26641645441
 21
106.8312039814709
 31
0.0
  0
LINE
  5
7638
330
1A
100
AcDbEntity
  8
外形線
100
AcDbLine
 10
1280.26641653676
 20
104.8312039814691
 30
0.0
 11
1296.26641645441
 21
104.8312039814691
 31
0.0
  0
LINE
  5
7639
330
1A
100
AcDbEntity
  8
外形線
100
AcDbLine
 10
1279.240198231138
 20
105.8312039814718
 30
0.0
 11
1296.26641645441
 21
105.8312039814718
 31
0.0
  0
LINE
  5
763A
330
1A
100
AcDbEntity
  8
細線
100
AcDbLine
 10
1273.647542149967
 20
112.0780861944404
 30
0.0
 11
1296.26641645441
 21
112.0780861944404
 31
0.0
  0
LINE
  5
763B
330
1A
100
AcDbEntity
  8
外形線
100
AcDbLine
 10
1263.26641645441
 20
121.1310943854914
 30
0.0
 11
1263.26641645441
 21
123.6087040744587
 31
0.0
  0
ARC
  5
763C
330
1A
100
AcDbEntity
  8
外形線
100
AcDbCircle
 10
1264.266416454411
 20
121.1310943854914
 30
0.0
 40
1.0
100
AcDbArc
 50
180.0
 51
209.9999999999973
  0
ARC
  5
763D
330
1A
100
AcDbEntity
  8
外形線
100
AcDbCircle
 10
1260.26641645441
 20
123.6087040744587
 30
0.0
 40
3.0
100
AcDbArc
 50
0.0
 51
34.99999999997922
  0
LINE
  5
763E
330
1A
100
AcDbEntity
  8
外形線
100
AcDbLine
 10
1273.266416454411
 20
120.6310943854923
 30
0.0
 11
1273.266416454411
 21
120.2177923362387
 31
0.0
  0
ARC
  5
763F
330
1A
100
AcDbEntity
  8
外形線
100
AcDbCircle
 10
1273.266416418324
 20
112.5895695959361
 30
0.0
 40
2.0
100
AcDbArc
 50
179.9999997289227
 51
239.9999999999866
  0
LINE
  5
7640
330
1A
100
AcDbEntity
  8
外形線
100
AcDbLine
 10
1279.240198231137
 20
106.8312039814709
 30
0.0
 11
1272.266416418324
 21
110.8575187883662
 31
0.0
  0
LINE
  5
7641
330
1A
100
AcDbEntity
  8
外形線
100
AcDbLine
 10
1279.240198231138
 20
105.8312039814718
 30
0.0
 11
1279.240198231137
 21
106.8312039814709
 31
0.0
  0
LINE
  5
7642
330
1A
100
AcDbEntity
  8
外形線
100
AcDbLine
 10
1280.26641653676
 20
104.8312039814691
 30
0.0
 11
1279.240198231138
 21
105.8312039814718
 31
0.0
  0
LINE
  5
7643
330
1A
100
AcDbEntity
  8
外形線
100
AcDbLine
 10
1271.26641645441
 20
120.2177923362387
 30
0.0
 11
1271.266416418323
 21
112.5895696053976
 31
0.0
  0
ARC
  5
7644
330
1A
100
AcDbEntity
  8
外形線
100
AcDbCircle
 10
1400.490984831175
 20
-3795.594409236624
 30
0.0
 40
3879.620285722065
100
AcDbArc
 50
91.23717084132556
 51
91.64283387584202
  0
LINE
  5
7645
330
1A
100
AcDbEntity
  8
外形線
  6
Continuous
100
AcDbLine
 10
1315.666416454415
 20
82.4312039814704
 30
0.0
 11
1289.266416454414
 21
82.4312039814704
 31
0.0
  0
LINE
  5
7646
330
1A
100
AcDbEntity
  8
外形線
100
AcDbLine
 10
1312.935578012206
 20
81.28724367814356
 30
0.0
 11
1289.266416454391
 21
81.28724367814356
 31
0.0
  0
LINE
  5
7647
330
1A
100
AcDbEntity
  8
細線
100
AcDbLine
 10
1311.464767881997
 20
78.84919940817326
 30
0.0
 11
1289.266416454394
 21
78.84919940817326
 31
0.0
  0
LINE
  5
7648
330
1A
100
AcDbEntity
  8
外形線
100
AcDbLine
 10
1313.291538234217
 20
75.64991763406851
 30
0.0
 11
1289.266416454396
 21
75.64991763406851
 31
0.0
  0
ARC
  5
7649
330
1A
100
AcDbEntity
  8
外形線
100
AcDbCircle
 10
1400.49098483105
 20
3976.45781110578
 30
0.0
 40
3879.620285722065
100
AcDbArc
 50
268.357166124158
 51
268.7628291587005
  0
LINE
  5
764A
330
1A
100
AcDbEntity
  8
外形線
100
AcDbLine
 10
1289.266416454476
 20
98.43219788768237
 30
0.0
 11
1316.266416454415
 21
98.43219788768237
 31
0.0
  0
LINE
  5
764B
330
1A
100
AcDbEntity
  8
外形線
100
AcDbLine
 10
1321.26641645441
 20
120.2177923362387
 30
0.0
 11
1296.26641645441
 21
120.217792336236
 31
0.0
  0
LINE
  5
764C
330
1A
100
AcDbEntity
  8
外形線
100
AcDbLine
 10
1313.292634677683
 20
105.8312039814718
 30
0.0
 11
1296.26641645441
 21
105.8312039814718
 31
0.0
  0
LINE
  5
764D
330
1A
100
AcDbEntity
  8
外形線
100
AcDbLine
 10
1312.266416372061
 20
104.8312039814691
 30
0.0
 11
1296.26641645441
 21
104.8312039814691
 31
0.0
  0
LINE
  5
764E
330
1A
100
AcDbEntity
  8
外形線
100
AcDbLine
 10
1313.292634677683
 20
106.8312039814709
 30
0.0
 11
1296.26641645441
 21
106.8312039814709
 31
0.0
  0
LINE
  5
764F
330
1A
100
AcDbEntity
  8
細線
100
AcDbLine
 10
1318.885290758855
 20
112.0780861944404
 30
0.0
 11
1296.26641645441
 21
112.0780861944404
 31
0.0
  0
LINE
  5
7650
330
1A
100
AcDbEntity
  8
外形線
100
AcDbLine
 10
1311.291538234219
 20
62.43120398146857
 30
0.0
 11
1313.291538234218
 21
64.43120398146948
 31
0.0
  0
LINE
  5
7651
330
1A
100
AcDbEntity
  8
外形線
100
AcDbLine
 10
1311.291538234218
 20
60.93120398147039
 30
0.0
 11
1310.791538234218
 21
60.43120398147038
 31
0.0
  0
LINE
  5
7652
330
1A
100
AcDbEntity
  8
外形線
100
AcDbLine
 10
1311.291538234218
 20
60.93120398147039
 30
0.0
 11
1311.291538234219
 21
62.43120398146857
 31
0.0
  0
LINE
  5
7653
330
1A
100
AcDbEntity
  8
外形線
100
AcDbLine
 10
1307.716416454415
 20
60.43120398147038
 30
0.0
 11
1307.017410360627
 21
59.73219788767983
 31
0.0
  0
ARC
  5
7654
330
1A
100
AcDbEntity
  8
細線
100
AcDbCircle
 10
1288.147048363146
 20
51.10204771155441
 30
0.0
 40
11.99833002920699
100
AcDbArc
 50
17.61110428492008
 51
37.49644728904215
  0
LINE
  5
7655
330
1A
100
AcDbEntity
  8
外形線
100
AcDbLine
 10
1302.266416454412
 20
54.73219788768165
 30
0.0
 11
1301.203633646063
 21
59.73219788767983
 31
0.0
  0
LINE
  5
7656
330
1A
100
AcDbEntity
  8
細線
100
AcDbLine
 10
1302.266416454412
 20
54.73219788768165
 30
0.0
 11
1299.583041244768
 21
54.73219788768165
 31
0.0
  0
LINE
  5
7657
330
1A
100
AcDbEntity
  8
外形線
100
AcDbLine
 10
1302.266416454412
 20
54.73219788768165
 30
0.0
 11
1302.266416454412
 21
49.73219788768074
 31
0.0
  0
LINE
  5
7658
330
1A
100
AcDbEntity
  8
細線
100
AcDbLine
 10
1299.583041244768
 20
54.73219788768165
 30
0.0
 11
1299.583041244768
 21
49.73219788768074
 31
0.0
  0
LINE
  5
7659
330
1A
100
AcDbEntity
  8
外形線
100
AcDbLine
 10
1302.266360662013
 20
42.73219778279963
 30
0.0
 11
1301.266360662014
 21
42.73219778279963
 31
0.0
  0
LINE
  5
765A
330
1A
100
AcDbEntity
  8
外形線
100
AcDbLine
 10
1301.266360662013
 20
49.73219778279872
 30
0.0
 11
1301.266360662014
 21
42.73219778279963
 31
0.0
  0
ARC
  5
765B
330
1A
100
AcDbEntity
  8
細線
100
AcDbCircle
 10
1304.385784545679
 20
51.10204771155441
 30
0.0
 40
11.99833002920699
100
AcDbArc
 50
142.5035527109578
 51
162.3888957150799
  0
LINE
  5
765C
330
1A
100
AcDbEntity
  8
外形線
100
AcDbLine
 10
1296.266416454414
 20
59.73219788767983
 30
0.0
 11
1285.515422548196
 21
59.73219788767983
 31
0.0
  0
LINE
  5
765D
330
1A
100
AcDbEntity
  8
細線
100
AcDbLine
 10
1292.949791664057
 20
54.73219788768165
 30
0.0
 11
1292.949791664057
 21
49.73219788768074
 31
0.0
  0
LINE
  5
765E
330
1A
100
AcDbEntity
  8
外形線
100
AcDbLine
 10
1290.266416454413
 20
54.73219788768165
 30
0.0
 11
1290.266416454413
 21
49.73219788768074
 31
0.0
  0
LINE
  5
765F
330
1A
100
AcDbEntity
  8
細線
100
AcDbLine
 10
1290.266416454413
 20
54.73219788768165
 30
0.0
 11
1292.949791664057
 21
54.73219788768165
 31
0.0
  0
LINE
  5
7660
330
1A
100
AcDbEntity
  8
外形線
100
AcDbLine
 10
1290.266416454413
 20
54.73219788768165
 30
0.0
 11
1291.329199262763
 21
59.73219788767983
 31
0.0
  0
LINE
  5
7661
330
1A
100
AcDbEntity
  8
外形線
100
AcDbLine
 10
1280.966416454415
 20
55.43120398146948
 30
0.0
 11
1279.903633646067
 21
60.43120398147038
 31
0.0
  0
ARC
  5
7662
330
1A
100
AcDbEntity
  8
細線
100
AcDbCircle
 10
1274.164941743027
 20
57.55584358133365
 30
0.0
 40
2.691670126702103
100
AcDbArc
 50
35.12643951812452
 51
69.4486779443278
  0
ARC
  5
7663
330
1A
100
AcDbEntity
  8
細線
100
AcDbCircle
 10
1266.847048363144
 20
51.80105380534223
 30
0.0
 40
11.99833002920699
100
AcDbArc
 50
17.61110428492008
 51
37.49644728904215
  0
LINE
  5
7664
330
1A
100
AcDbEntity
  8
細線
100
AcDbLine
 10
1280.966416454412
 20
55.43120398146948
 30
0.0
 11
1278.283041244769
 21
55.43120398146948
 31
0.0
  0
LINE
  5
7665
330
1A
100
AcDbEntity
  8
細線
100
AcDbLine
 10
1278.283041244769
 20
55.43120398146948
 30
0.0
 11
1278.283041244769
 21
50.4312039814713
 31
0.0
  0
LINE
  5
7666
330
1A
100
AcDbEntity
  8
外形線
100
AcDbLine
 10
1280.966416454415
 20
55.43120398146948
 30
0.0
 11
1280.966416454415
 21
50.43120398146857
 31
0.0
  0
ARC
  5
7667
330
1A
100
AcDbEntity
  8
細線
100
AcDbCircle
 10
1275.767891165799
 20
57.55584358133365
 30
0.0
 40
2.691670126702103
100
AcDbArc
 50
110.5513220556722
 51
144.8735604818755
  0
ARC
  5
7668
330
1A
100
AcDbEntity
  8
細線
100
AcDbCircle
 10
1283.085784545681
 20
51.80105380534223
 30
0.0
 40
11.99833002920699
100
AcDbArc
 50
142.5035527109578
 51
162.3888957150799
  0
LINE
  5
7669
330
1A
100
AcDbEntity
  8
細線
100
AcDbLine
 10
1271.649791664059
 20
55.43120398146948
 30
0.0
 11
1271.649791664059
 21
50.43120398146857
 31
0.0
  0
LINE
  5
766A
330
1A
100
AcDbEntity
  8
外形線
100
AcDbLine
 10
1268.966416454413
 20
55.43120398146948
 30
0.0
 11
1268.966416454413
 21
50.43120398146857
 31
0.0
  0
LINE
  5
766B
330
1A
100
AcDbEntity
  8
細線
100
AcDbLine
 10
1268.966416454413
 20
55.43120398146948
 30
0.0
 11
1271.649791664059
 21
55.43120398146948
 31
0.0
  0
LINE
  5
766C
330
1A
100
AcDbEntity
  8
外形線
100
AcDbLine
 10
1268.966416454413
 20
55.43120398146948
 30
0.0
 11
1270.029199262763
 21
60.43120398147038
 31
0.0
  0
LINE
  5
766D
330
1A
100
AcDbEntity
  8
外形線
100
AcDbLine
 10
1268.966416454413
 20
50.43120398146857
 30
0.0
 11
1280.966416454415
 21
50.43120398146857
 31
0.0
  0
ARC
  5
766E
330
1A
100
AcDbEntity
  8
細線
100
AcDbCircle
 10
1274.966414393878
 20
59.72789441458644
 30
0.0
 40
0.3766929248256475
100
AcDbArc
 50
67.61980923457809
 51
90.0
  0
ARC
  5
766F
330
1A
100
AcDbEntity
  8
細線
100
AcDbCircle
 10
1274.966414393881
 20
59.72789441458644
 30
0.0
 40
0.3766929248256475
100
AcDbArc
 50
90.0
 51
112.3801907654219
  0
LINE
  5
7670
330
1A
100
AcDbEntity
  8
外形線
100
AcDbLine
 10
1265.241294674597
 20
64.43120398142127
 30
0.0
 11
1289.266416454408
 21
64.43120398146948
 31
0.0
  0
LINE
  5
7671
330
1A
100
AcDbEntity
  8
外形線
100
AcDbLine
 10
1267.241294674602
 20
62.43120398142583
 30
0.0
 11
1289.266416454409
 21
62.43120398146857
 31
0.0
  0
LINE
  5
7672
330
1A
100
AcDbEntity
  8
細線
100
AcDbLine
 10
1267.241294674606
 20
60.93120398142492
 30
0.0
 11
1289.266416454411
 21
60.93120398147039
 31
0.0
  0
LINE
  5
7673
330
1A
100
AcDbEntity
  8
外形線
100
AcDbLine
 10
1267.741294674611
 20
60.43120398147038
 30
0.0
 11
1289.266416454414
 21
60.43120398147038
 31
0.0
  0
LINE
  5
7674
330
1A
100
AcDbEntity
  8
外形線
100
AcDbLine
 10
1267.241294674612
 20
62.43120398146857
 30
0.0
 11
1265.24129467461
 21
64.43120398146948
 31
0.0
  0
LINE
  5
7675
330
1A
100
AcDbEntity
  8
外形線
100
AcDbLine
 10
1267.241294674612
 20
60.93120398147039
 30
0.0
 11
1267.741294674611
 21
60.43120398147038
 31
0.0
  0
LINE
  5
7676
330
1A
100
AcDbEntity
  8
外形線
100
AcDbLine
 10
1267.241294674612
 20
60.93120398147039
 30
0.0
 11
1267.241294674612
 21
62.43120398146857
 31
0.0
  0
LINE
  5
7677
330
1A
100
AcDbEntity
  8
外形線
100
AcDbLine
 10
1284.816416454408
 20
60.43120398147038
 30
0.0
 11
1285.515422548198
 21
59.73219788767983
 31
0.0
  0
LINE
  5
7678
330
1A
100
AcDbEntity
  8
外形線
100
AcDbLine
 10
1290.26647224681
 20
42.73219778279963
 30
0.0
 11
1291.26647224681
 21
42.73219778279963
 31
0.0
  0
LINE
  5
7679
330
1A
100
AcDbEntity
  8
外形線
100
AcDbLine
 10
1280.966112946029
 20
43.43120398146948
 30
0.0
 11
1279.96611294603
 21
43.43120398146948
 31
0.0
  0
LINE
  5
767A
330
1A
100
AcDbEntity
  8
外形線
100
AcDbLine
 10
1268.966719962803
 20
43.43120398146948
 30
0.0
 11
1269.966719962803
 21
43.43120398146948
 31
0.0
  0
LINE
  5
767B
330
1A
100
AcDbEntity
  8
外形線
100
AcDbLine
 10
1279.966112946028
 20
50.43120398146857
 30
0.0
 11
1279.96611294603
 21
43.43120398146948
 31
0.0
  0
LINE
  5
767C
330
1A
100
AcDbEntity
  8
外形線
100
AcDbLine
 10
1291.26647224681
 20
49.73219778279872
 30
0.0
 11
1291.26647224681
 21
42.73219778279963
 31
0.0
  0
LINE
  5
767D
330
1A
100
AcDbEntity
  8
外形線
100
AcDbLine
 10
1269.966719962805
 20
50.43120398146857
 30
0.0
 11
1269.966719962803
 21
43.43120398146948
 31
0.0
  0
ARC
  5
767E
330
1A
100
AcDbEntity
  8
細線
100
AcDbCircle
 10
1297.067891165796
 20
56.85683748754309
 30
0.0
 40
2.691670126702103
100
AcDbArc
 50
110.5513220556722
 51
144.8735604818755
  0
ARC
  5
767F
330
1A
100
AcDbEntity
  8
細線
100
AcDbCircle
 10
1296.266416454413
 20
59.02888507233001
 30
0.0
 40
0.3766929248256475
100
AcDbArc
 50
90.0
 51
112.3801907654219
  0
ARC
  5
7680
330
1A
100
AcDbEntity
  8
細線
100
AcDbCircle
 10
1296.26641645441
 20
59.02888507233001
 30
0.0
 40
0.3766929248256475
100
AcDbArc
 50
67.61980923457809
 51
90.0
  0
LINE
  5
7681
330
1A
100
AcDbEntity
  8
外形線
100
AcDbLine
 10
1290.266416454413
 20
49.73219788768074
 30
0.0
 11
1302.266416454412
 21
49.73219788768074
 31
0.0
  0
LINE
  5
7682
330
1A
100
AcDbEntity
  8
細線
100
AcDbLine
 10
1311.291538234218
 20
60.93120398147039
 30
0.0
 11
1289.266416454411
 21
60.93120398147039
 31
0.0
  0
LINE
  5
7683
330
1A
100
AcDbEntity
  8
外形線
100
AcDbLine
 10
1311.291538234219
 20
62.43120398146857
 30
0.0
 11
1289.266416454409
 21
62.43120398146857
 31
0.0
  0
LINE
  5
7684
330
1A
100
AcDbEntity
  8
外形線
100
AcDbLine
 10
1289.266416454412
 20
60.43120398147038
 30
0.0
 11
1310.791538234218
 21
60.43120398147038
 31
0.0
  0
LINE
  5
7685
330
1A
100
AcDbEntity
  8
外形線
100
AcDbLine
 10
1313.291538234218
 20
64.43120398146948
 30
0.0
 11
1289.266416454408
 21
64.43120398146948
 31
0.0
  0
ARC
  5
7686
330
1A
100
AcDbEntity
  8
細線
100
AcDbCircle
 10
1295.464941743028
 20
56.85683748754309
 30
0.0
 40
2.691670126702103
100
AcDbArc
 50
35.12643951812452
 51
69.4486779443278
  0
LINE
  5
7687
330
1A
100
AcDbEntity
  8
外形線
100
AcDbLine
 10
1296.26641645441
 20
59.73219788767983
 30
0.0
 11
1307.017410360627
 21
59.73219788768256
 31
0.0
  0
LINE
  5
7688
330
1A
100
AcDbEntity
  8
細線
  6
Continuous
100
AcDbLine
 10
1266.988144688829
 20
62.68435396725272
 30
0.0
 11
1266.988144688829
 21
78.65625464425466
 31
0.0
  0
LINE
  5
7689
330
1A
100
AcDbEntity
  8
外形線
100
AcDbLine
 10
1265.241294674612
 20
75.64991763406851
 30
0.0
 11
1265.241294674612
 21
64.43120398146948
 31
0.0
  0
LINE
  5
768A
330
1A
100
AcDbEntity
  8
細線
  6
Continuous
100
AcDbLine
 10
1311.54468822
 20
62.68435396725272
 30
0.0
 11
1311.54468822
 21
78.65625464425466
 31
0.0
  0
LINE
  5
768B
330
1A
100
AcDbEntity
  8
外形線
100
AcDbLine
 10
1313.291538234217
 20
75.64991763406851
 30
0.0
 11
1313.291538234217
 21
64.43120398146948
 31
0.0
  0
LINE
  5
768C
330
1A
100
AcDbEntity
  8
外形線
100
AcDbLine
 10
1252.88938223243
 20
138.6310943854896
 30
0.0
 11
1251.766416454411
 21
138.6310943854896
 31
0.0
  0
LINE
  5
768D
330
1A
100
AcDbEntity
  8
外形線
100
AcDbLine
 10
1254.265138725281
 20
135.17941690122
 30
0.0
 11
1250.987016230858
 21
135.17941690122
 31
0.0
  0
LINE
  5
768E
330
1A
100
AcDbEntity
  8
外形線
100
AcDbLine
 10
1250.76641645441
 20
139.6310943854923
 30
0.0
 11
1250.76641645441
 21
148.1605929818206
 31
0.0
  0
ARC
  5
768F
330
1A
100
AcDbEntity
  8
外形線
100
AcDbCircle
 10
1248.766416454411
 20
148.1605929818206
 30
0.0
 40
2.0
100
AcDbArc
 50
0.0
 51
90.0
  0
ARC
  5
7690
330
1A
100
AcDbEntity
  8
外形線
100
AcDbCircle
 10
1250.987016230858
 20
138.17941690122
 30
0.0
 40
3.0
100
AcDbArc
 50
225.0000000000046
 51
270.0
  0
ARC
  5
7691
330
1A
100
AcDbEntity
  8
外形線
100
AcDbCircle
 10
1251.766416454411
 20
139.6310943854923
 30
0.0
 40
1.0
100
AcDbArc
 50
180.0
 51
270.0
  0
ARC
  5
7692
330
1A
100
AcDbEntity
  8
外形線
100
AcDbCircle
 10
1252.88938223243
 20
137.6310943854905
 30
0.0
 40
1.0
100
AcDbArc
 50
34.99999999997922
 51
90.0
  0
ARC
  5
7693
330
1A
100
AcDbEntity
  8
外形線
100
AcDbCircle
 10
1254.265138725281
 20
132.17941690122
 30
0.0
 40
3.0
100
AcDbArc
 50
34.99999999997922
 51
90.0
  0
LINE
  5
7694
330
1A
100
AcDbEntity
  8
外形線
100
AcDbLine
 10
1262.723872587276
 20
125.3294333835119
 30
0.0
 11
1253.708534276719
 21
138.2046708218404
 31
0.0
  0
ARC
  5
7695
330
1A
100
AcDbEntity
  8
外形線
100
AcDbCircle
 10
1340.766416454411
 20
139.6310943854923
 30
0.0
 40
1.0
100
AcDbArc
 50
270.0
 51
0.0
  0
ARC
  5
7696
330
1A
100
AcDbEntity
  8
外形線
100
AcDbCircle
 10
1339.64345067639
 20
137.6310943854905
 30
0.0
 40
1.0
100
AcDbArc
 50
90.0
 51
145.0000000000208
  0
LINE
  5
7697
330
1A
100
AcDbEntity
  8
外形線
100
AcDbLine
 10
1329.26641645441
 20
121.1310943854914
 30
0.0
 11
1329.26641645441
 21
123.6087040744587
 31
0.0
  0
ARC
  5
7698
330
1A
100
AcDbEntity
  8
外形線
100
AcDbCircle
 10
1328.266416454411
 20
121.1310943854914
 30
0.0
 40
1.0
100
AcDbArc
 50
330.0000000000027
 51
0.0
  0
ARC
  5
7699
330
1A
100
AcDbEntity
  8
外形線
100
AcDbCircle
 10
1332.26641645441
 20
123.6087040744587
 30
0.0
 40
3.0
100
AcDbArc
 50
145.0000000000208
 51
180.0
  0
LINE
  5
769A
330
1A
100
AcDbEntity
  8
外形線
100
AcDbLine
 10
1329.808960321544
 20
125.3294333835119
 30
0.0
 11
1338.824298632102
 21
138.2046708218404
 31
0.0
  0
LINE
  5
769B
330
1A
100
AcDbEntity
  8
外形線
100
AcDbLine
 10
1266.487132758069
 20
182.3195425153462
 30
0.0
 11
1345.76641645441
 21
182.3195425153462
 31
0.0
  0
LINE
  5
769C
330
1A
100
AcDbEntity
  8
外形線
100
AcDbLine
 10
1296.26641645441
 20
186.6605929818197
 30
0.0
 11
1345.76641645441
 21
186.6605929818197
 31
0.0
  0
LINE
  5
769D
330
1A
100
AcDbEntity
  8
外形線
100
AcDbLine
 10
1270.582743190028
 20
178.9310943854889
 30
0.0
 11
1343.220083399837
 21
178.9310943854889
 31
0.0
  0
LINE
  5
769E
330
1A
100
AcDbEntity
  8
外形線
100
AcDbLine
 10
1320.180622237735
 20
245.6605929818197
 30
0.0
 11
1339.107955926192
 21
245.6605929818197
 31
0.0
  0
LINE
  5
769F
330
1A
100
AcDbEntity
  8
外形線
100
AcDbLine
 10
1345.266416454411
 20
219.6605929818179
 30
0.0
 11
1296.26641645441
 21
219.6605929818179
 31
0.0
  0
ARC
  5
76A0
330
1A
100
AcDbEntity
  8
外形線
100
AcDbCircle
 10
1320.180622237735
 20
244.6605929818179
 30
0.0
 40
1.0
100
AcDbArc
 50
90.0
 51
142.8645635297071
  0
ARC
  5
76A1
330
1A
100
AcDbEntity
  8
外形線
100
AcDbCircle
 10
1314.554343970102
 20
244.6605929818179
 30
0.0
 40
1.0
100
AcDbArc
 50
0.0
 51
90.0
  0
ARC
  5
76A2
330
1A
100
AcDbEntity
  8
外形線
100
AcDbCircle
 10
1321.214598007946
 20
242.6605929818197
 30
0.0
 40
3.0
100
AcDbArc
 50
0.0
 51
90.0
  0
ARC
  5
76A3
330
1A
100
AcDbEntity
  8
外形線
100
AcDbCircle
 10
1322.049956175292
 20
241.1605929818215
 30
0.0
 40
1.5
100
AcDbArc
 50
0.0
 51
90.0
  0
LINE
  5
76A4
330
1A
100
AcDbEntity
  8
外形線
100
AcDbLine
 10
1319.383411535367
 20
245.2642941463291
 30
0.0
 11
1317.411715194133
 21
242.6605929818197
 31
0.0
  0
LINE
  5
76A5
330
1A
100
AcDbEntity
  8
外形線
100
AcDbLine
 10
1322.168928000904
 20
242.6605929818197
 30
0.0
 11
1316.054343970102
 21
242.6605929818197
 31
0.0
  0
LINE
  5
76A6
330
1A
100
AcDbEntity
  8
外形線
100
AcDbLine
 10
1322.168928000904
 20
242.6605929818197
 30
0.0
 11
1315.554343970102
 21
242.6605929818197
 31
0.0
  0
LINE
  5
76A7
330
1A
100
AcDbEntity
  8
外形線
100
AcDbLine
 10
1324.140869366839
 20
223.7410330013172
 30
0.0
 11
1323.922194183964
 21
222.8527875330619
 31
0.0
210
0.0
220
0.0
230
-1.0
  0
LINE
  5
76A8
330
1A
100
AcDbEntity
  8
外形線
100
AcDbLine
 10
1323.566019180398
 20
222.026104711138
 30
0.0
 11
1323.084473468706
 21
221.2891362275532
 31
0.0
210
0.0
220
0.0
230
-1.0
  0
LINE
  5
76A9
330
1A
100
AcDbEntity
  8
外形線
100
AcDbLine
 10
1322.493955510549
 20
220.6669786601187
 30
0.0
 11
1321.814574686742
 21
220.1808188385985
 31
0.0
210
0.0
220
0.0
230
-1.0
  0
LINE
  5
76AA
330
1A
100
AcDbEntity
  8
外形線
100
AcDbLine
 10
1323.084473468706
 20
221.2891362275532
 30
0.0
 11
1322.493955510549
 21
220.6669786601187
 31
0.0
210
0.0
220
0.0
230
-1.0
  0
LINE
  5
76AB
330
1A
100
AcDbEntity
  8
外形線
100
AcDbLine
 10
1323.922194183964
 20
222.8527875330619
 30
0.0
 11
1323.566019180398
 21
222.026104711138
 31
0.0
210
0.0
220
0.0
230
-1.0
  0
LINE
  5
76AC
330
1A
100
AcDbEntity
  8
外形線
100
AcDbLine
 10
1324.214598007946
 20
224.6605929818197
 30
0.0
 11
1324.140869366839
 21
223.7410330013172
 31
0.0
210
0.0
220
0.0
230
-1.0
  0
LINE
  5
76AD
330
1A
100
AcDbEntity
  8
外形線
100
AcDbLine
 10
1321.069466496414
 20
219.8472123526235
 30
0.0
 11
1320.284004705328
 21
219.6775197709676
 31
0.0
210
0.0
220
0.0
230
-1.0
  0
LINE
  5
76AE
330
1A
100
AcDbEntity
  8
外形線
100
AcDbLine
 10
1317.274986467499
 20
220.6669786601187
 30
0.0
 11
1316.684468509343
 21
221.2891362275532
 31
0.0
210
0.0
220
0.0
230
-1.0
  0
LINE
  5
76AF
330
1A
100
AcDbEntity
  8
外形線
100
AcDbLine
 10
1315.846747794085
 20
222.8527875330619
 30
0.0
 11
1315.628072611209
 21
223.7410330013172
 31
0.0
210
0.0
220
0.0
230
-1.0
  0
LINE
  5
76B0
330
1A
100
AcDbEntity
  8
外形線
100
AcDbLine
 10
1316.202922797651
 20
222.026104711138
 30
0.0
 11
1315.846747794085
 21
222.8527875330619
 31
0.0
210
0.0
220
0.0
230
-1.0
  0
LINE
  5
76B1
330
1A
100
AcDbEntity
  8
外形線
100
AcDbLine
 10
1316.684468509343
 20
221.2891362275532
 30
0.0
 11
1316.202922797651
 21
222.026104711138
 31
0.0
210
0.0
220
0.0
230
-1.0
  0
LINE
  5
76B2
330
1A
100
AcDbEntity
  8
外形線
100
AcDbLine
 10
1315.628072611209
 20
223.7410330013172
 30
0.0
 11
1315.554343970102
 21
224.6605929818197
 31
0.0
210
0.0
220
0.0
230
-1.0
  0
LINE
  5
76B3
330
1A
100
AcDbEntity
  8
外形線
100
AcDbLine
 10
1320.284004705328
 20
219.6775197709676
 30
0.0
 11
1319.48493727272
 21
219.6775197709676
 31
0.0
210
0.0
220
0.0
230
-1.0
  0
LINE
  5
76B4
330
1A
100
AcDbEntity
  8
外形線
100
AcDbLine
 10
1317.954367291306
 20
220.1808188385985
 30
0.0
 11
1317.274986467499
 21
220.6669786601187
 31
0.0
210
0.0
220
0.0
230
-1.0
  0
LINE
  5
76B5
330
1A
100
AcDbEntity
  8
外形線
100
AcDbLine
 10
1318.699475481635
 20
219.8472123526235
 30
0.0
 11
1317.954367291306
 21
220.1808188385985
 31
0.0
210
0.0
220
0.0
230
-1.0
  0
LINE
  5
76B6
330
1A
100
AcDbEntity
  8
外形線
100
AcDbLine
 10
1319.48493727272
 20
219.6775197709676
 30
0.0
 11
1318.699475481635
 21
219.8472123526235
 31
0.0
210
0.0
220
0.0
230
-1.0
  0
ELLIPSE
  5
76B7
330
1A
100
AcDbEntity
  8
細線
100
AcDbEllipse
 10
1319.21982915637
 20
224.6605929818215
 30
0.0
 11
0.000000000000014
 21
5.198088632108957
 31
0.0
210
0.0
220
0.0
230
-1.0
 40
0.8330229292695726
 41
1.570796326794884
 42
2.864635972754259
  0
LINE
  5
76B8
330
1A
100
AcDbEntity
  8
外形線
100
AcDbLine
 10
1321.814574686742
 20
220.1808188385985
 30
0.0
 11
1321.069466496414
 21
219.8472123526235
 31
0.0
210
0.0
220
0.0
230
-1.0
  0
LINE
  5
76B9
330
1A
100
AcDbEntity
  8
細線
100
AcDbLine
 10
1323.549956175294
 20
224.6605929818197
 30
0.0
 11
1323.549956175294
 21
241.1605929818215
 31
0.0
  0
LINE
  5
76BA
330
1A
100
AcDbEntity
  8
外形線
100
AcDbLine
 10
1324.214598007946
 20
224.6605929818197
 30
0.0
 11
1324.214598007946
 21
242.6605929818197
 31
0.0
  0
LINE
  5
76BB
330
1A
100
AcDbEntity
  8
外形線
100
AcDbLine
 10
1315.554343970102
 20
224.6605929818197
 30
0.0
 11
1315.554343970102
 21
244.6605929818179
 31
0.0
  0
ARC
  5
76BC
330
1A
100
AcDbEntity
  8
外形線
100
AcDbCircle
 10
1302.26641645441
 20
244.6605929818179
 30
0.0
 40
1.0
100
AcDbArc
 50
90.0
 51
180.0
  0
LINE
  5
76BD
330
1A
100
AcDbEntity
  8
外形線
100
AcDbLine
 10
1301.26641645441
 20
224.6605929818197
 30
0.0
 11
1301.26641645441
 21
244.6605929818179
 31
0.0
  0
LINE
  5
76BE
330
1A
100
AcDbEntity
  8
外形線
100
AcDbLine
 10
1314.554343970102
 20
245.6605929818197
 30
0.0
 11
1302.26641645441
 21
245.6605929818197
 31
0.0
  0
LINE
  5
76BF
330
1A
100
AcDbEntity
  8
外形線
100
AcDbLine
 10
1265.26641645441
 20
186.1605929818206
 30
0.0
 11
1265.26641645441
 21
181.7558740013646
 31
0.0
  0
ARC
  5
76C0
330
1A
100
AcDbEntity
  8
外形線
100
AcDbCircle
 10
1267.566416454411
 20
177.905684511511
 30
0.0
 40
1.199999999999999
100
AcDbArc
 50
0.0
 51
52.76903203433242
  0
LINE
  5
76C1
330
1A
100
AcDbEntity
  8
外形線
100
AcDbLine
 10
1265.740380999995
 20
180.8004303772113
 30
0.0
 11
1268.292451908824
 21
178.8611281356616
 31
0.0
  0
ARC
  5
76C2
330
1A
100
AcDbEntity
  8
外形線
100
AcDbCircle
 10
1266.46641645441
 20
181.7558740013646
 30
0.0
 40
1.199999999999999
100
AcDbArc
 50
180.0
 51
232.7690320343324
  0
LINE
  5
76C3
330
1A
100
AcDbEntity
  8
外形線
100
AcDbLine
 10
1291.26641645441
 20
242.6605929818197
 30
0.0
 11
1296.26641645441
 21
242.6605929818197
 31
0.0
  0
ARC
  5
76C4
330
1A
100
AcDbEntity
  8
外形線
100
AcDbCircle
 10
1296.26641645441
 20
224.6605929818197
 30
0.0
 40
5.0
100
AcDbArc
 50
180.0
 51
270.0
  0
LINE
  5
76C5
330
1A
100
AcDbEntity
  8
外形線
100
AcDbLine
 10
1270.482876733528
 20
242.6605929818197
 30
0.0
 11
1276.978488938719
 21
242.6605929818197
 31
0.0
  0
ELLIPSE
  5
76C6
330
1A
100
AcDbEntity
  8
細線
100
AcDbEllipse
 10
1273.313003752449
 20
224.6605929818215
 30
0.0
 11
-0.0000000000000093
 21
5.198088632108957
 31
0.0
210
0.0
220
0.0
230
1.0
 40
0.8330229292695726
 41
1.570796326794884
 42
2.864635972754259
  0
LINE
  5
76C7
330
1A
100
AcDbEntity
  8
外形線
100
AcDbLine
 10
1271.463366412406
 20
219.8472123526235
 30
0.0
 11
1272.248828203492
 21
219.6775197709676
 31
0.0
  0
ARC
  5
76C8
330
1A
100
AcDbEntity
  8
外形線
100
AcDbCircle
 10
1271.318234900874
 20
242.6605929818197
 30
0.0
 40
3.0
100
AcDbArc
 50
90.0
 51
180.0
  0
ARC
  5
76C9
330
1A
100
AcDbEntity
  8
外形線
100
AcDbCircle
 10
1270.482876733528
 20
241.1605929818215
 30
0.0
 40
1.5
100
AcDbArc
 50
90.0
 51
180.0
  0
LINE
  5
76CA
330
1A
100
AcDbEntity
  8
外形線
100
AcDbLine
 10
1269.448359440114
 20
221.2891362275532
 30
0.0
 11
1270.038877398273
 21
220.6669786601187
 31
0.0
  0
LINE
  5
76CB
330
1A
100
AcDbEntity
  8
外形線
100
AcDbLine
 10
1268.391963541982
 20
223.7410330013172
 30
0.0
 11
1268.610638724858
 21
222.8527875330619
 31
0.0
  0
LINE
  5
76CC
330
1A
100
AcDbEntity
  8
外形線
100
AcDbLine
 10
1268.966813728422
 20
222.026104711138
 30
0.0
 11
1269.448359440114
 21
221.2891362275532
 31
0.0
  0
LINE
  5
76CD
330
1A
100
AcDbEntity
  8
外形線
100
AcDbLine
 10
1268.610638724858
 20
222.8527875330619
 30
0.0
 11
1268.966813728422
 21
222.026104711138
 31
0.0
  0
LINE
  5
76CE
330
1A
100
AcDbEntity
  8
外形線
100
AcDbLine
 10
1268.318234900874
 20
224.6605929818197
 30
0.0
 11
1268.391963541982
 21
223.7410330013172
 31
0.0
  0
LINE
  5
76CF
330
1A
100
AcDbEntity
  8
外形線
100
AcDbLine
 10
1270.038877398273
 20
220.6669786601187
 30
0.0
 11
1270.718258222079
 21
220.1808188385985
 31
0.0
  0
LINE
  5
76D0
330
1A
100
AcDbEntity
  8
外形線
100
AcDbLine
 10
1270.718258222079
 20
220.1808188385985
 30
0.0
 11
1271.463366412406
 21
219.8472123526235
 31
0.0
  0
LINE
  5
76D1
330
1A
100
AcDbEntity
  8
細線
100
AcDbLine
 10
1268.982876733528
 20
224.6605929818197
 30
0.0
 11
1268.982876733528
 21
241.1605929818215
 31
0.0
  0
LINE
  5
76D2
330
1A
100
AcDbEntity
  8
外形線
100
AcDbLine
 10
1268.318234900874
 20
224.6605929818197
 30
0.0
 11
1268.318234900874
 21
242.6605929818197
 31
0.0
  0
ARC
  5
76D3
330
1A
100
AcDbEntity
  8
外形線
100
AcDbCircle
 10
1277.978488938718
 20
244.6605929818179
 30
0.0
 40
1.0
100
AcDbArc
 50
90.0
 51
180.0
  0
ARC
  5
76D4
330
1A
100
AcDbEntity
  8
外形線
100
AcDbCircle
 10
1290.26641645441
 20
244.6605929818179
 30
0.0
 40
1.0
100
AcDbArc
 50
0.0
 51
90.0
  0
ARC
  5
76D5
330
1A
100
AcDbEntity
  8
外形線
100
AcDbCircle
 10
1272.352210671087
 20
244.6605929818179
 30
0.0
 40
1.0
100
AcDbArc
 50
37.13543647029285
 51
90.0
  0
LINE
  5
76D6
330
1A
100
AcDbEntity
  8
外形線
100
AcDbLine
 10
1273.149421373453
 20
245.2642941463291
 30
0.0
 11
1275.121117714688
 21
242.6605929818197
 31
0.0
  0
LINE
  5
76D7
330
1A
100
AcDbEntity
  8
外形線
100
AcDbLine
 10
1276.686085114735
 20
222.8527875330619
 30
0.0
 11
1276.904760297612
 21
223.7410330013172
 31
0.0
  0
LINE
  5
76D8
330
1A
100
AcDbEntity
  8
外形線
100
AcDbLine
 10
1276.329910111171
 20
222.026104711138
 30
0.0
 11
1276.686085114735
 21
222.8527875330619
 31
0.0
  0
LINE
  5
76D9
330
1A
100
AcDbEntity
  8
外形線
100
AcDbLine
 10
1275.848364399477
 20
221.2891362275532
 30
0.0
 11
1276.329910111171
 21
222.026104711138
 31
0.0
  0
LINE
  5
76DA
330
1A
100
AcDbEntity
  8
外形線
100
AcDbLine
 10
1275.257846441321
 20
220.6669786601187
 30
0.0
 11
1275.848364399477
 21
221.2891362275532
 31
0.0
  0
LINE
  5
76DB
330
1A
100
AcDbEntity
  8
外形線
100
AcDbLine
 10
1274.578465617515
 20
220.1808188385985
 30
0.0
 11
1275.257846441321
 21
220.6669786601187
 31
0.0
  0
LINE
  5
76DC
330
1A
100
AcDbEntity
  8
外形線
100
AcDbLine
 10
1276.904760297612
 20
223.7410330013172
 30
0.0
 11
1276.978488938719
 21
224.6605929818197
 31
0.0
  0
LINE
  5
76DD
330
1A
100
AcDbEntity
  8
外形線
100
AcDbLine
 10
1272.248828203492
 20
219.6775197709676
 30
0.0
 11
1273.047895636101
 21
219.6775197709676
 31
0.0
  0
LINE
  5
76DE
330
1A
100
AcDbEntity
  8
外形線
100
AcDbLine
 10
1273.047895636101
 20
219.6775197709676
 30
0.0
 11
1273.833357427187
 21
219.8472123526235
 31
0.0
  0
LINE
  5
76DF
330
1A
100
AcDbEntity
  8
外形線
100
AcDbLine
 10
1273.833357427187
 20
219.8472123526235
 30
0.0
 11
1274.578465617515
 21
220.1808188385985
 31
0.0
  0
LINE
  5
76E0
330
1A
100
AcDbEntity
  8
外形線
100
AcDbLine
 10
1276.978488938719
 20
224.6605929818197
 30
0.0
 11
1276.978488938719
 21
244.6605929818179
 31
0.0
  0
LINE
  5
76E1
330
1A
100
AcDbEntity
  8
外形線
100
AcDbLine
 10
1291.26641645441
 20
224.6605929818197
 30
0.0
 11
1291.26641645441
 21
244.6605929818179
 31
0.0
  0
LINE
  5
76E2
330
1A
100
AcDbEntity
  8
外形線
100
AcDbLine
 10
1277.978488938718
 20
245.6605929818197
 30
0.0
 11
1290.26641645441
 21
245.6605929818197
 31
0.0
  0
LINE
  5
76E3
330
1A
100
AcDbEntity
  8
外形線
100
AcDbLine
 10
1301.26641645441
 20
242.6605929818197
 30
0.0
 11
1296.26641645441
 21
242.6605929818197
 31
0.0
  0
ARC
  5
76E4
330
1A
100
AcDbEntity
  8
外形線
100
AcDbCircle
 10
1296.26641645441
 20
224.6605929818197
 30
0.0
 40
5.0
100
AcDbArc
 50
270.0
 51
0.0
  0
LINE
  5
76E5
330
1A
100
AcDbEntity
  8
外形線
100
AcDbLine
 10
1246.76641645441
 20
219.5266183856056
 30
0.0
 11
1246.76641645441
 21
186.6605929818197
 31
0.0
  0
LINE
  5
76E6
330
1A
100
AcDbEntity
  8
外形線
100
AcDbLine
 10
1248.86641645441
 20
186.6605929818197
 30
0.0
 11
1248.86641645441
 21
186.1605929818206
 31
0.0
  0
ARC
  5
76E7
330
1A
100
AcDbEntity
  8
外形線
100
AcDbCircle
 10
1255.858746024527
 20
242.6605929818197
 30
0.0
 40
3.0
100
AcDbArc
 50
90.0
 51
180.0
  0
ARC
  5
76E8
330
1A
100
AcDbEntity
  8
外形線
100
AcDbCircle
 10
1253.42487698263
 20
241.6605929818206
 30
0.0
 40
4.0
100
AcDbArc
 50
90.0
 51
176.9999999999946
  0
ARC
  5
76E9
330
1A
100
AcDbEntity
  8
外形線
100
AcDbCircle
 10
1247.266416454411
 20
218.6605929818188
 30
0.0
 40
1.0
100
AcDbArc
 50
90.0
 51
120.0000000000134
  0
LINE
  5
76EA
330
1A
100
AcDbEntity
  8
外形線
100
AcDbLine
 10
1248.266416454411
 20
219.6605929818179
 30
0.0
 11
1249.43035884361
 21
241.8699368067901
 31
0.0
  0
ARC
  5
76EB
330
1A
100
AcDbEntity
  8
外形線
100
AcDbCircle
 10
1255.265908238315
 20
240.6605929818216
 30
0.0
 40
2.0
100
AcDbArc
 50
90.0
 51
180.0
  0
LINE
  5
76EC
330
1A
100
AcDbEntity
  8
外形線
100
AcDbLine
 10
1255.265908238315
 20
242.6605929818197
 30
0.0
 11
1258.72971454229
 21
242.6605929818197
 31
0.0
  0
LINE
  5
76ED
330
1A
100
AcDbEntity
  8
外形線
100
AcDbLine
 10
1255.265908238315
 20
242.6605929818197
 30
0.0
 11
1258.72971454229
 21
242.6605929818197
 31
0.0
  0
LINE
  5
76EE
330
1A
100
AcDbEntity
  8
外形線
100
AcDbLine
 10
1252.858746024527
 20
224.6605929818197
 30
0.0
 11
1252.908728222382
 21
223.7409918366257
 31
0.0
  0
LINE
  5
76EF
330
1A
100
AcDbEntity
  8
外形線
100
AcDbLine
 10
1254.485772356447
 20
220.1806182986347
 30
0.0
 11
1254.990896883813
 21
219.8469968785548
 31
0.0
  0
ELLIPSE
  5
76F0
330
1A
100
AcDbEntity
  8
細線
100
AcDbEllipse
 10
1256.201392497195
 20
224.6605929818215
 30
0.0
 11
0.0000000000000702
 21
5.00464521551449
 31
0.0
210
0.0
220
0.0
230
1.0
 40
0.5865519197607893
 41
1.570796326794904
 42
2.940551587312731
  0
LINE
  5
76F1
330
1A
100
AcDbEntity
  8
外形線
100
AcDbLine
 10
1252.908728222382
 20
223.7409918366257
 30
0.0
 11
1253.056972732147
 21
222.8527066054931
 31
0.0
  0
LINE
  5
76F2
330
1A
100
AcDbEntity
  8
外形線
100
AcDbLine
 10
1254.025205794461
 20
220.666799883411
 30
0.0
 11
1254.485772356447
 21
220.1806182986347
 31
0.0
  0
LINE
  5
76F3
330
1A
100
AcDbEntity
  8
外形線
100
AcDbLine
 10
1253.624881239734
 20
221.2889853021315
 30
0.0
 11
1254.025205794461
 21
220.666799883411
 31
0.0
  0
LINE
  5
76F4
330
1A
100
AcDbEntity
  8
外形線
100
AcDbLine
 10
1253.298431264842
 20
222.0259867765826
 30
0.0
 11
1253.624881239734
 21
221.2889853021315
 31
0.0
  0
LINE
  5
76F5
330
1A
100
AcDbEntity
  8
外形線
100
AcDbLine
 10
1253.056972732147
 20
222.8527066054931
 30
0.0
 11
1253.298431264842
 21
222.0259867765826
 31
0.0
  0
LINE
  5
76F6
330
1A
100
AcDbEntity
  8
外形線
100
AcDbLine
 10
1258.531487834669
 20
222.8527066054931
 30
0.0
 11
1258.679732344434
 21
223.7409918366257
 31
0.0
  0
LINE
  5
76F7
330
1A
100
AcDbEntity
  8
外形線
100
AcDbLine
 10
1256.065082600205
 20
219.6772967005009
 30
0.0
 11
1256.597563683004
 21
219.8469968785548
 31
0.0
  0
LINE
  5
76F8
330
1A
100
AcDbEntity
  8
外形線
100
AcDbLine
 10
1254.990896883813
 20
219.8469968785548
 30
0.0
 11
1255.52337796661
 21
219.6772967005009
 31
0.0
  0
LINE
  5
76F9
330
1A
100
AcDbEntity
  8
外形線
100
AcDbLine
 10
1255.52337796661
 20
219.6772967005009
 30
0.0
 11
1256.065082600205
 21
219.6772967005009
 31
0.0
  0
LINE
  5
76FA
330
1A
100
AcDbEntity
  8
外形線
100
AcDbLine
 10
1258.290029301974
 20
222.0259867765826
 30
0.0
 11
1258.531487834669
 21
222.8527066054931
 31
0.0
  0
LINE
  5
76FB
330
1A
100
AcDbEntity
  8
外形線
100
AcDbLine
 10
1257.963579327083
 20
221.2889853021315
 30
0.0
 11
1258.290029301974
 21
222.0259867765826
 31
0.0
  0
LINE
  5
76FC
330
1A
100
AcDbEntity
  8
外形線
100
AcDbLine
 10
1257.563254772356
 20
220.666799883411
 30
0.0
 11
1257.963579327083
 21
221.2889853021315
 31
0.0
  0
LINE
  5
76FD
330
1A
100
AcDbEntity
  8
外形線
100
AcDbLine
 10
1257.10268821037
 20
220.1806182986347
 30
0.0
 11
1257.563254772356
 21
220.666799883411
 31
0.0
  0
LINE
  5
76FE
330
1A
100
AcDbEntity
  8
外形線
100
AcDbLine
 10
1256.597563683004
 20
219.8469968785548
 30
0.0
 11
1257.10268821037
 21
220.1806182986347
 31
0.0
  0
LINE
  5
76FF
330
1A
100
AcDbEntity
  8
外形線
100
AcDbLine
 10
1258.679732344434
 20
223.7409918366257
 30
0.0
 11
1258.72971454229
 21
224.6605929818197
 31
0.0
  0
LINE
  5
7700
330
1A
100
AcDbEntity
  8
細線
100
AcDbLine
 10
1253.265908238315
 20
224.6605929818197
 30
0.0
 11
1253.265908238317
 21
240.6605929818216
 31
0.0
  0
LINE
  5
7701
330
1A
100
AcDbEntity
  8
外形線
100
AcDbLine
 10
1252.858746024527
 20
224.6605929818197
 30
0.0
 11
1252.858746024527
 21
242.6605929818197
 31
0.0
  0
LINE
  5
7702
330
1A
100
AcDbEntity
  8
外形線
100
AcDbLine
 10
1258.72971454229
 20
224.6605929818197
 30
0.0
 11
1258.72971454229
 21
242.6605929818197
 31
0.0
  0
LINE
  5
7703
330
1A
100
AcDbEntity
  8
外形線
100
AcDbLine
 10
1296.26641645441
 20
186.6605929818197
 30
0.0
 11
1246.76641645441
 21
186.6605929818197
 31
0.0
  0
LINE
  5
7704
330
1A
100
AcDbEntity
  8
外形線
100
AcDbLine
 10
1247.266416454411
 20
219.6605929818179
 30
0.0
 11
1296.26641645441
 21
219.6605929818179
 31
0.0
  0
LINE
  5
7705
330
1A
100
AcDbEntity
  8
外形線
100
AcDbLine
 10
1272.352210671087
 20
245.6605929818197
 30
0.0
 11
1253.42487698263
 21
245.6605929818197
 31
0.0
  0
ARC
  5
7706
330
1A
100
AcDbEntity
  8
外形線
100
AcDbCircle
 10
1261.72971454229
 20
242.6605929818197
 30
0.0
 40
3.0
100
AcDbArc
 50
90.0
 51
180.0
  0
LINE
  5
7707
330
1A
100
AcDbEntity
  8
外形線
100
AcDbLine
 10
1248.503350859097
 20
161.3368146739894
 30
0.0
 11
1259.917594037699
 21
173.2517235137429
 31
0.0
  0
LINE
  5
7708
330
1A
100
AcDbEntity
  8
外形線
100
AcDbLine
 10
1248.503350859097
 20
161.3368146739894
 30
0.0
 11
1246.698061640952
 21
163.0662454586245
 31
0.0
  0
LINE
  5
7709
330
1A
100
AcDbEntity
  8
外形線
100
AcDbLine
 10
1246.698061640952
 20
163.0662454586245
 30
0.0
 11
1258.112304819554
 21
174.9811542983816
 31
0.0
  0
LINE
  5
770A
330
1A
100
AcDbEntity
  8
外形線
100
AcDbLine
 10
1259.917594037699
 20
173.2517235137429
 30
0.0
 11
1258.112304819554
 21
174.9811542983816
 31
0.0
  0
LINE
  5
770B
330
1A
100
AcDbEntity
  8
外形線
100
AcDbLine
 10
1345.76641645441
 20
219.5266183856056
 30
0.0
 11
1345.76641645441
 21
186.6605929818197
 31
0.0
  0
LINE
  5
770C
330
1A
100
AcDbEntity
  8
外形線
100
AcDbLine
 10
1343.666416454411
 20
186.6605929818197
 30
0.0
 11
1343.666416454411
 21
186.1605929818206
 31
0.0
  0
LINE
  5
770D
330
1A
100
AcDbEntity
  8
外形線
100
AcDbLine
 10
1345.76641645441
 20
182.3195425153462
 30
0.0
 11
1345.76641645441
 21
186.1605929818206
 31
0.0
  0
LINE
  5
770E
330
1A
100
AcDbEntity
  8
外形線
100
AcDbLine
 10
1345.180630016784
 20
180.9053289529702
 30
0.0
 11
1343.206395449303
 21
178.9310943854889
 31
0.0
  0
ARC
  5
770F
330
1A
100
AcDbEntity
  8
外形線
100
AcDbCircle
 10
1343.76641645441
 20
182.3195425153462
 30
0.0
 40
2.0
100
AcDbArc
 50
314.9999999999954
 51
0.0
  0
LINE
  5
7710
330
1A
100
AcDbEntity
  8
外形線
100
AcDbLine
 10
1337.266924670505
 20
242.6605929818197
 30
0.0
 11
1334.80311836653
 21
242.6605929818197
 31
0.0
  0
LINE
  5
7711
330
1A
100
AcDbEntity
  8
外形線
100
AcDbLine
 10
1337.00945494221
 20
219.6772967005009
 30
0.0
 11
1336.467750308615
 21
219.6772967005009
 31
0.0
210
0.0
220
0.0
230
-1.0
  0
LINE
  5
7712
330
1A
100
AcDbEntity
  8
外形線
100
AcDbLine
 10
1335.935269225818
 20
219.8469968785548
 30
0.0
 11
1335.430144698452
 21
220.1806182986347
 31
0.0
210
0.0
220
0.0
230
-1.0
  0
LINE
  5
7713
330
1A
100
AcDbEntity
  8
外形線
100
AcDbLine
 10
1334.969578136464
 20
220.666799883411
 30
0.0
 11
1334.569253581739
 21
221.2889853021315
 31
0.0
210
0.0
220
0.0
230
-1.0
  0
LINE
  5
7714
330
1A
100
AcDbEntity
  8
外形線
100
AcDbLine
 10
1335.430144698452
 20
220.1806182986347
 30
0.0
 11
1334.969578136464
 21
220.666799883411
 31
0.0
210
0.0
220
0.0
230
-1.0
  0
LINE
  5
7715
330
1A
100
AcDbEntity
  8
外形線
100
AcDbLine
 10
1336.467750308615
 20
219.6772967005009
 30
0.0
 11
1335.935269225818
 21
219.8469968785548
 31
0.0
210
0.0
220
0.0
230
-1.0
  0
ARC
  5
7716
330
1A
100
AcDbEntity
  8
外形線
100
AcDbCircle
 10
1336.674086884295
 20
242.6605929818197
 30
0.0
 40
3.0
100
AcDbArc
 50
0.0
 51
90.0
  0
ARC
  5
7717
330
1A
100
AcDbEntity
  8
外形線
100
AcDbCircle
 10
1339.107955926192
 20
241.6605929818206
 30
0.0
 40
4.0
100
AcDbArc
 50
3.000000000005424
 51
90.0
  0
ARC
  5
7718
330
1A
100
AcDbEntity
  8
外形線
100
AcDbCircle
 10
1337.266924670505
 20
240.6605929818216
 30
0.0
 40
2.0
100
AcDbArc
 50
0.0
 51
90.0
  0
ARC
  5
7719
330
1A
100
AcDbEntity
  8
外形線
100
AcDbCircle
 10
1345.266416454411
 20
218.6605929818188
 30
0.0
 40
1.0
100
AcDbArc
 50
59.99999999998655
 51
90.0
  0
LINE
  5
771A
330
1A
100
AcDbEntity
  8
外形線
100
AcDbLine
 10
1339.62410468644
 20
223.7409918366257
 30
0.0
 11
1339.475860176673
 21
222.8527066054931
 31
0.0
210
0.0
220
0.0
230
-1.0
  0
LINE
  5
771B
330
1A
100
AcDbEntity
  8
外形線
100
AcDbLine
 10
1338.907951669088
 20
221.2889853021315
 30
0.0
 11
1338.507627114361
 21
220.666799883411
 31
0.0
210
0.0
220
0.0
230
-1.0
  0
LINE
  5
771C
330
1A
100
AcDbEntity
  8
外形線
100
AcDbLine
 10
1339.234401643978
 20
222.0259867765826
 30
0.0
 11
1338.907951669088
 21
221.2889853021315
 31
0.0
210
0.0
220
0.0
230
-1.0
  0
LINE
  5
771D
330
1A
100
AcDbEntity
  8
外形線
100
AcDbLine
 10
1339.475860176673
 20
222.8527066054931
 30
0.0
 11
1339.234401643978
 21
222.0259867765826
 31
0.0
210
0.0
220
0.0
230
-1.0
  0
LINE
  5
771E
330
1A
100
AcDbEntity
  8
外形線
100
AcDbLine
 10
1339.674086884295
 20
224.6605929818197
 30
0.0
 11
1339.62410468644
 21
223.7409918366257
 31
0.0
210
0.0
220
0.0
230
-1.0
  0
ELLIPSE
  5
771F
330
1A
100
AcDbEntity
  8
細線
100
AcDbEllipse
 10
1336.331440411622
 20
224.6605929818215
 30
0.0
 11
-0.0000000000000657
 21
5.00464521551449
 31
0.0
210
0.0
220
0.0
230
-1.0
 40
0.5865519197607893
 41
1.570796326794904
 42
2.940551587312731
  0
LINE
  5
7720
330
1A
100
AcDbEntity
  8
外形線
100
AcDbLine
 10
1337.541936025008
 20
219.8469968785548
 30
0.0
 11
1337.00945494221
 21
219.6772967005009
 31
0.0
210
0.0
220
0.0
230
-1.0
  0
LINE
  5
7721
330
1A
100
AcDbEntity
  8
外形線
100
AcDbLine
 10
1338.507627114361
 20
220.666799883411
 30
0.0
 11
1338.047060552375
 21
220.1806182986347
 31
0.0
210
0.0
220
0.0
230
-1.0
  0
LINE
  5
7722
330
1A
100
AcDbEntity
  8
外形線
100
AcDbLine
 10
1338.047060552375
 20
220.1806182986347
 30
0.0
 11
1337.541936025008
 21
219.8469968785548
 31
0.0
210
0.0
220
0.0
230
-1.0
  0
LINE
  5
7723
330
1A
100
AcDbEntity
  8
細線
100
AcDbLine
 10
1339.266924670506
 20
224.6605929818197
 30
0.0
 11
1339.266924670505
 21
240.6605929818216
 31
0.0
  0
LINE
  5
7724
330
1A
100
AcDbEntity
  8
外形線
100
AcDbLine
 10
1339.674086884295
 20
224.6605929818197
 30
0.0
 11
1339.674086884295
 21
242.6605929818197
 31
0.0
  0
LINE
  5
7725
330
1A
100
AcDbEntity
  8
外形線
100
AcDbLine
 10
1344.266416454411
 20
219.6605929818179
 30
0.0
 11
1343.10247406521
 21
241.8699368067901
 31
0.0
  0
ARC
  5
7726
330
1A
100
AcDbEntity
  8
外形線
100
AcDbCircle
 10
1330.80311836653
 20
242.6605929818197
 30
0.0
 40
3.0
100
AcDbArc
 50
0.0
 51
90.0
  0
LINE
  5
7727
330
1A
100
AcDbEntity
  8
外形線
100
AcDbLine
 10
1334.001345074152
 20
222.8527066054931
 30
0.0
 11
1333.853100564386
 21
223.7409918366257
 31
0.0
210
0.0
220
0.0
230
-1.0
  0
LINE
  5
7728
330
1A
100
AcDbEntity
  8
外形線
100
AcDbLine
 10
1334.242803606848
 20
222.0259867765826
 30
0.0
 11
1334.001345074152
 21
222.8527066054931
 31
0.0
210
0.0
220
0.0
230
-1.0
  0
LINE
  5
7729
330
1A
100
AcDbEntity
  8
外形線
100
AcDbLine
 10
1333.853100564386
 20
223.7409918366257
 30
0.0
 11
1333.80311836653
 21
224.6605929818197
 31
0.0
210
0.0
220
0.0
230
-1.0
  0
LINE
  5
772A
330
1A
100
AcDbEntity
  8
外形線
100
AcDbLine
 10
1333.80311836653
 20
224.6605929818197
 30
0.0
 11
1333.80311836653
 21
242.6605929818197
 31
0.0
  0
LINE
  5
772B
330
1A
100
AcDbEntity
  8
外形線
100
AcDbLine
 10
1336.885896496114
 20
242.6605929818197
 30
0.0
 11
1333.80311836653
 21
242.6605929818197
 31
0.0
  0
LINE
  5
772C
330
1A
100
AcDbEntity
  8
外形線
100
AcDbLine
 10
1334.569253581739
 20
221.2889853021315
 30
0.0
 11
1334.242803606848
 21
222.0259867765826
 31
0.0
210
0.0
220
0.0
230
-1.0
  0
DIMENSION
  5
772D
330
1A
100
AcDbEntity
  8
寸法線
 48
10.0
100
AcDbDimension
  2
*D11
 10
1278.966340795377
 20
-182.6021616002717
 30
0.0
 11
1248.541591685872
 21
-182.6021616002717
 31
0.0
 70
   160
  1
φ<>
 71
     5
 42
7.999749109505046
  3
ISO-25
100
AcDbAlignedDimension
 13
1270.966591685872
 23
-182.6021773638176
 33
0.0
 14
1278.966340795377
 24
-185.0970518466729
 34
0.0
 50
180.0
100
AcDbRotatedDimension
1001
ACAD
1000
DSTYLE
1002
{
1070
    41
1040
6.0
1070
    47
1040
0.1
1070
    48
1040
0.1
1070
    73
1070
     0
1070
   140
1040
10.0
1070
   271
1070
     1
1070
   272
1070
     1
1070
   341
1005
2AE3
1070
   342
1005
2AE3
1002
}
  0
DIMENSION
  5
772E
330
1A
100
AcDbEntity
  8
寸法線
 48
10.0
100
AcDbDimension
  2
*D12
 10
1396.456287668499
 20
-321.5746729742305
 30
0.0
 11
1396.456287668499
 21
-119.5717350313366
 31
0.0
 70
   160
  1
L
 71
     5
 42
404.0058758857878
  3
ISO-25
100
AcDbAlignedDimension
 13
1396.456287668499
 23
82.43120291155719
 33
0.0
 14
1302.616429093098
 24
-321.5746729742305
 34
0.0
 50
90.0
100
AcDbRotatedDimension
1001
ACAD
1000
DSTYLE
1002
{
1070
    41
1040
6.0
1070
    47
1040
0.1
1070
    48
1040
0.1
1070
    73
1070
     0
1070
    77
1070
     0
1070
   140
1040
10.0
1070
   271
1070
     1
1070
   272
1070
     1
1070
   341
1005
2AE3
1070
   342
1005
2AE3
1002
}
  0
MTEXT
  5
772F
102
{ACAD_REACTORS
330
7730
102
}
330
1A
100
AcDbEntity
  8
寸法線
 48
10.0
100
AcDbMText
 10
1193.222888304275
 20
116.5396572535846
 30
0.0
 40
10.0
 41
0.0
 71
     9
 72
     1
  1
2×M20
 73
     1
 44
1.0
  0
LEADER
  5
7730
330
1A
100
AcDbEntity
  8
寸法線
 48
10.0
100
AcDbLeader
  3
ISO-25
 73
     0
 75
     1
 40
10.00196850393701
 41
39.26181102362204
 76
     3
 10
1216.095175797599
 20
153.97842768399
 30
0.0
 10
1201.702674073103
 20
120.5778294973152
 30
0.0
 10
1195.702674073102
 20
120.5778294973152
 30
0.0
340
772F
213
1.854785768827014
223
4.038172243730514
233
0.0
1001
ACAD
1000
DSTYLE
1002
{
1070
   147
1040
0.625
1070
    77
1070
     0
1070
    41
1040
6.0
1070
    47
1040
0.1
1070
    48
1040
0.1
1070
    73
1070
     0
1070
   140
1040
5.0
1070
   271
1070
     1
1070
   272
1070
     1
1070
   341
1005
2AE3
1070
   342
1005
2AE3
1002
}
  0
MTEXT
  5
7731
102
{ACAD_REACTORS
330
7732
102
}
330
1A
100
AcDbEntity
  8
寸法線
 48
10.0
100
AcDbMText
 10
1224.270281354649
 20
95.66964719277349
 30
0.0
 40
10.0
 41
0.0
 71
     9
 72
     1
  1
\A1;2×NPT{\H0.7x;\S1#2;}"
 73
     1
 44
1.0
  0
LEADER
  5
7732
330
1A
100
AcDbEntity
  8
寸法線
 48
10.0
100
AcDbLeader
  3
ISO-25
 73
     0
 75
     1
 40
12.9513779527559
 41
54.42992782152231
 76
     3
 10
1247.446905913385
 20
159.9370012447298
 30
0.0
 10
1230.895281354649
 20
99.74405934496463
 30
0.0
 10
1224.895281354649
 20
99.74405934496463
 30
0.0
340
7731
213
0.0
223
4.074412152191143
233
0.0
1001
ACAD
1000
DSTYLE
1002
{
1070
   147
1040
0.625
1070
    77
1070
     0
1070
    41
1040
6.0
1070
    47
1040
0.1
1070
    48
1040
0.1
1070
    73
1070
     0
1070
   140
1040
5.0
1070
   271
1070
     1
1070
   272
1070
     1
1070
   341
1005
2AE3
1070
   342
1005
2AE3
1002
}
  0
DIMENSION
  5
7733
330
1A
100
AcDbEntity
  8
寸法線
 48
10.0
100
AcDbDimension
  2
*D13
 10
1313.291538234217
 20
47.05029437253688
 30
0.0
 11
1340.6754217107
 21
47.05029437253688
 31
0.0
 70
   160
  1
G1 1/2"
 71
     5
 42
48.05024355960495
  3
ISO-25
100
AcDbAlignedDimension
 13
1265.241294674612
 23
64.43120398146948
 33
0.0
 14
1313.291538234217
 24
64.43120398146948
 34
0.0
100
AcDbRotatedDimension
1001
ACAD
1000
DSTYLE
1002
{
1070
    41
1040
6.0
1070
    47
1040
0.1
1070
    48
1040
0.1
1070
    73
1070
     0
1070
   140
1040
10.0
1070
   271
1070
     1
1070
   272
1070
     1
1070
   341
1005
2AE3
1070
   342
1005
2AE3
1002
}
  0
LINE
  5
7734
330
1A
100
AcDbEntity
  8
中心線
 48
10.0
100
AcDbLine
 10
1277.082886364989
 20
168.1589844861282
 30
0.0
 11
1202.661991319817
 21
168.1589844861282
 31
0.0
  0
LINE
  5
780D
330
1A
100
AcDbEntity
  8
寸法線
 48
10.0
100
AcDbLine
 10
795.926793240782
 20
-340.0221768192065
 30
0.0
 11
1231.352790289369
 21
-340.0221768192065
 31
0.0
  0
LINE
  5
780E
330
1A
100
AcDbEntity
  8
寸法線
 48
10.0
100
AcDbLine
 10
795.926793240782
 20
-572.8632300728532
 30
0.0
 11
1231.352790289369
 21
-572.8632300728531
 31
0.0
  0
LINE
  5
780F
330
1A
100
AcDbEntity
  8
寸法線
 48
10.0
100
AcDbLine
 10
795.926793240782
 20
-588.5602302018942
 30
0.0
 11
1231.352790289369
 21
-588.5602302018943
 31
0.0
  0
LINE
  5
7810
330
1A
100
AcDbEntity
  8
寸法線
 48
10.0
100
AcDbLine
 10
795.926793240782
 20
-557.1662299438124
 30
0.0
 11
1231.352790289369
 21
-557.1662299438124
 31
0.0
  0
MTEXT
  5
7811
330
1A
100
AcDbEntity
  8
寸法線
 48
10.0
100
AcDbMText
 10
839.3021366976615
 20
-543.8555865338242
 30
0.0
 40
10.0
 41
53.46358514229328
 71
     1
 72
     5
  1
分解能
 73
     1
 44
1.0
  0
MTEXT
  5
7812
330
1A
100
AcDbEntity
  8
寸法線
 48
10.0
100
AcDbMText
 10
839.3021366976615
 20
-527.9084528310808
 30
0.0
 40
10.0
 41
53.46358514229328
 71
     1
 72
     5
  1
測定精度
 73
     1
 44
1.0
  0
LINE
  5
7813
330
1A
100
AcDbEntity
  8
寸法線
 48
10.0
100
AcDbLine
 10
835.3016999685243
 20
-474.8322285832083
 30
0.0
 11
835.3016999685243
 21
-557.2410042401542
 31
0.0
  0
MTEXT
  5
7814
330
1A
100
AcDbEntity
  8
寸法線
 48
10.0
100
AcDbMText
 10
838.7664861042804
 20
-476.6025394342682
 30
0.0
 40
10.0
 41
53.46358514229328
 71
     1
 72
     5
  1
出力
 73
     1
 44
1.0
  0
MTEXT
  5
7815
330
1A
100
AcDbEntity
  8
寸法線
 48
10.0
100
AcDbMText
 10
801.4953706825947
 20
-310.1896437150604
 30
0.0
 40
10.0
 41
226.1037037037037
 71
     1
 72
     5
  1
ハウジング材質\Pプローブ材質\Pスペーサー材質\Pシール材質\P取付方式
 73
     1
 44
1.0
  0
MTEXT
  5
7816
330
1A
100
AcDbEntity
  8
寸法線
 48
10.0
100
AcDbMText
 10
800.2759394929773
 20
-393.2008616675846
 30
0.0
 40
10.0
 41
26.28878781605536
 71
     1
 72
     5
  1
温度
 73
     1
 44
1.0
  0
MTEXT
  5
7817
330
1A
100
AcDbEntity
  8
寸法線
 48
10.0
100
AcDbMText
 10
838.7664861042804
 20
-392.6466060095382
 30
0.0
 40
10.0
 41
53.46358514229328
 71
     1
 72
     5
  1
被測定物\P接続部\P周囲
 73
     1
 44
1.0
  0
MTEXT
  5
7818
330
1A
100
AcDbEntity
  8
寸法線
 48
10.0
100
AcDbMText
 10
800.4013483197043
 20
-443.4804764233899
 30
0.0
 40
10.0
 41
86.68137899839749
 71
     1
 72
     5
  1
圧力\P電源電圧\P出力\P\P\P\P\P保護等級\P導線取出口
 73
     1
 44
1.0
  0
LINE
  5
7819
330
1A
100
AcDbEntity
  8
寸法線
 48
10.0
100
AcDbLine
 10
795.926793240782
 20
-357.2529110639095
 30
0.0
 11
1231.352790289369
 21
-357.2529110639095
 31
0.0
  0
LINE
  5
781A
330
1A
100
AcDbEntity
  8
寸法線
 48
10.0
100
AcDbLine
 10
1231.352790289369
 20
-305.234314093963
 30
0.0
 11
1231.352790289369
 21
-588.5602302018943
 31
0.0
  0
LINE
  5
781B
330
1A
100
AcDbEntity
  8
寸法線
 48
10.0
100
AcDbLine
 10
795.926793240782
 20
-373.7947764895149
 30
0.0
 11
1231.352790289369
 21
-373.7947764895149
 31
0.0
  0
LINE
  5
781C
330
1A
100
AcDbEntity
  8
寸法線
 48
10.0
100
AcDbLine
 10
795.926793240782
 20
-390.0860055627344
 30
0.0
 11
1231.352790289369
 21
-390.0860055627344
 31
0.0
  0
MTEXT
  5
781D
330
1A
100
AcDbEntity
  8
寸法線
 48
10.0
100
AcDbMText
 10
892.2300712465737
 20
-309.0955341191823
 30
0.0
 40
10.0
 41
437.2997424168067
 71
     1
 72
     5
  3
アルミニウム合金粉体塗装\PSUS316Ti相当\PPTFE-DG25（L>1.5m）\Pバイトン\Pねじ込み式　G1 1/2"\P-30\U+2103～+200\U+2103\P-30\U+2103～+90\U+2103\P-30\U+2103～+60\U+2103（SAP-300ディスプレイ装着時-20\U+2103～+60\U+2103）\P最小-0.1Pa（abs）、最大1.6MPa\P定灰C24V、DC18～35V（レベル計入力端子での電圧）\Pアナログ：4～20mA(3.9～20.5mA)、エラー出力として22mA\Pディジタル：HARTインタフェース、端子抵抗最大750Ω\P表示：SAP-300 LCDドットマトリックス\P液体：±5mm\P±3μA\PIP65\P2×M20、2×1/2" NPT、シールド線：0.5～2.5mm
  3
iDC24V、DC18～35V（レベル計入力端子での電圧）\Pアナログ：4～20mA(3.9～20.5mA)、エラー出力として22mA\Pディジタル：HARTインタフェース、端子抵抗最大750Ω\P表示：SAP-300 LCDドットマトリックス\P液体：±5mm\P±3μA\PIP65\P2×M20、2×1/2" NPT、シールド線：0
  1
.5～2.5mm
 73
     1
 44
1.0
  0
LINE
  5
781E
330
1A
100
AcDbEntity
  8
寸法線
 48
10.0
100
AcDbLine
 10
887.0827273181019
 20
-588.5602302018942
 30
0.0
 11
887.0827273181019
 21
-305.234314093963
 31
0.0
  0
LINE
  5
781F
330
1A
100
AcDbEntity
  8
寸法線
 48
10.0
100
AcDbLine
 10
795.926793240782
 20
-322.465048338666
 30
0.0
 11
1231.352790289369
 21
-322.465048338666
 31
0.0
  0
LINE
  5
7820
330
1A
100
AcDbEntity
  8
寸法線
 48
10.0
100
AcDbLine
 10
835.3016999685241
 20
-406.6018931367278
 30
0.0
 11
1231.352790289369
 21
-406.6018931367278
 31
0.0
  0
LINE
  5
7821
330
1A
100
AcDbEntity
  8
寸法線
 48
10.0
100
AcDbLine
 10
835.3016999685241
 20
-422.349394056373
 30
0.0
 11
1231.352790289369
 21
-422.3493940563727
 31
0.0
  0
LINE
  5
7822
330
1A
100
AcDbEntity
  8
寸法線
 48
10.0
100
AcDbLine
 10
795.9267932407822
 20
-439.4091870207449
 30
0.0
 11
1231.352790289369
 21
-439.4091870207449
 31
0.0
  0
LINE
  5
7823
330
1A
100
AcDbEntity
  8
寸法線
 48
10.0
100
AcDbLine
 10
795.926793240782
 20
-474.8322285832083
 30
0.0
 11
1231.352790289369
 21
-474.8322285832083
 31
0.0
  0
LINE
  5
7824
330
1A
100
AcDbEntity
  8
寸法線
 48
10.0
100
AcDbLine
 10
887.0827273181019
 20
-423.1177807107209
 30
0.0
 11
887.0827273181019
 21
-471.8912929651329
 31
0.0
  0
LINE
  5
7825
330
1A
100
AcDbEntity
  8
寸法線
 48
10.0
100
AcDbLine
 10
835.3016999685241
 20
-390.0860055627345
 30
0.0
 11
835.3016999685241
 21
-438.8595178171464
 31
0.0
  0
LINE
  5
7826
330
1A
100
AcDbEntity
  8
寸法線
 48
10.0
100
AcDbLine
 10
835.3016999685243
 20
-523.5452537560584
 30
0.0
 11
1231.352790289369
 21
-523.5452537560584
 31
0.0
  0
LINE
  5
7827
330
1A
100
AcDbEntity
  8
寸法線
 48
10.0
100
AcDbLine
 10
835.3016999685243
 20
-539.6743441716197
 30
0.0
 11
1231.352790289369
 21
-539.6743441716197
 31
0.0
  0
LINE
  5
7828
330
1A
100
AcDbEntity
  8
寸法線
 48
10.0
100
AcDbLine
 10
795.9267932407819
 20
-305.234314093963
 30
0.0
 11
795.926793240782
 21
-588.5602302018942
 31
0.0
  0
MTEXT
  5
7829
330
1A
100
AcDbEntity
  8
寸法線
 48
10.0
100
AcDbMText
 10
1166.833631247244
 20
-576.4216456816028
 30
0.0
 40
5.0
 41
17.84049369747208
 71
     1
 72
     5
  1
2
 73
     1
 44
1.0
  0
MTEXT
  5
782A
330
1A
100
AcDbEntity
  8
寸法線
 48
10.0
100
AcDbMText
 10
798.791325680186
 20
-290.9640941299176
 30
0.0
 40
10.0
 41
25.02109546034822
 71
     1
 72
     5
  1
仕様
 73
     1
 44
1.0
  0
LINE
  5
782B
330
1A
100
AcDbEntity
  8
寸法線
 48
10.0
100
AcDbLine
 10
795.926793240782
 20
-456.8514323750221
 30
0.0
 11
1231.352790289369
 21
-456.8514323750221
 31
0.0
  0
LINE
  5
782C
330
1A
100
AcDbEntity
  8
寸法線
 48
10.0
100
AcDbLine
 10
795.926793240782
 20
-305.234314093963
 30
0.0
 11
1231.352790289369
 21
-305.234314093963
 31
0.0
  0
VIEWPORT
  5
29A0
330
299E
100
AcDbEntity
 67
     1
  8
0
 48
10.0
100
AcDbViewport
 10
427.1051704859135
 20
199.1710291297913
 30
0.0
 40
1072.537090496395
 41
502.837045608043
 68
     1
 69
     1
 12
427.1051704859135
 22
199.1710291297913
 13
0.0
 23
0.0
 14
10.0
 24
10.0
 15
10.0
 25
10.0
 16
0.0
 26
0.0
 36
1.0
 17
0.0
 27
0.0
 37
0.0
 42
50.0
 43
0.0
 44
0.0
 45
502.837045608043
 50
0.0
 51
0.0
 72
   100
 90
    32800
  1

281
     0
 71
     1
 74
     0
110
0.0
120
0.0
130
0.0
111
1.0
121
0.0
131
0.0
112
0.0
122
1.0
132
0.0
 79
     0
146
0.0
170
     0
  0
VIEWPORT
  5
29A1
330
299E
100
AcDbEntity
 67
     1
  8
図枠太線
 48
10.0
100
AcDbViewport
 10
143.3797153809096
 20
220.3348546596005
 30
0.0
 40
280.0
 41
375.0
 68
     2
 69
     2
 12
1127.40685145773
 22
-137.5859021431558
 13
0.0
 23
0.0
 14
1.0
 24
1.0
 15
0.0
 25
0.0
 16
0.0
 26
0.0
 36
1.0
 17
0.0
 27
0.0
 37
0.0
 42
50.0
 43
0.0
 44
0.0
 45
937.5
 50
0.0
 51
0.0
 72
   100
 90
    32768
  1

281
     0
 71
     1
 74
     0
110
0.0
120
0.0
130
0.0
111
1.0
121
0.0
131
0.0
112
0.0
122
1.0
132
0.0
 79
     0
146
0.0
170
     0
  0
INSERT
  5
2A93
330
299E
100
AcDbEntity
 67
     1
  8
図枠太線
100
AcDbBlockReference
  2
A3縦用　タイトル
 10
-0.1981565020514608
 20
0.014011970346246
 30
0.0
  0
MTEXT
  5
358F
330
299E
100
AcDbEntity
 67
     1
  8
寸法線
 48
10.0
100
AcDbMText
 10
124.2268890221703
 20
10.56499088996255
 30
0.0
 40
3.0
 41
20.99863159610118
 71
     1
 72
     5
  1
2009.9.29
 73
     1
 44
1.0
  0
MTEXT
  5
3590
330
299E
100
AcDbEntity
 67
     1
  8
寸法線
 48
10.0
100
AcDbMText
 10
102.2318525312951
 20
11.09178579426486
 30
0.0
 40
4.0
 41
39.4
 71
     1
 72
     5
  1
1:2.5
 73
     1
 44
1.0
  0
MTEXT
  5
3591
330
299E
100
AcDbEntity
 67
     1
  8
寸法線
 48
10.0
100
AcDbMText
 10
127.5695195464793
 20
25.4554327559116
 30
0.0
 40
3.0
 41
40.32688172043011
 71
     1
 72
     5
  1
ohno
 73
     1
 44
1.0
  0
MTEXT
  5
39D1
330
299E
100
AcDbEntity
 67
     1
  8
寸法線
 48
10.0
100
AcDbMText
 10
239.0153889147687
 20
13.72384898919358
 30
0.0
 40
7.0
 41
42.83711411729791
 71
     1
 72
     5
  1
NY-1560
 73
     1
 44
1.0
  0
MTEXT
  5
39D3
330
299E
100
AcDbEntity
 67
     1
  8
寸法線
 48
10.0
100
AcDbMText
 10
192.2870235225664
 20
38.63771938235527
 30
0.0
 40
2.333873885063326
 41
19.67392166615855
 71
     1
 72
     5
  1
{\H1.714x;A3縮小図}
 73
     1
 44
1.0
  0
LINE
  5
39D4
330
299E
100
AcDbEntity
 67
     1
  8
寸法線
 48
10.0
100
AcDbLine
 10
191.9417008878902
 20
33.88944758165974
 30
0.0
 11
211.5412386611854
 21
33.88944758165974
 31
0.0
  0
MTEXT
  5
5B57
330
299E
100
AcDbEntity
 67
     1
  8
寸法線
 48
10.0
100
AcDbMText
 10
215.8292683394663
 20
26.87266095672615
 30
0.0
 40
5.0
 41
39.59133125095718
 71
     1
 72
     5
  1
H\U+25A1D-4\U+25A1\U+25A1-4
 73
     1
 44
1.0
  0
MTEXT
  5
5B58
330
299E
100
AcDbEntity
 67
     1
  8
寸法線
 48
10.0
100
AcDbMText
 10
256.683693180184
 20
31.24094042804927
 30
0.0
 40
2.333873885063326
 41
26.53201952100812
 71
     1
 72
     5
  1
{\H1.928x;ﾏｲｸﾛﾊﾟﾙｽ式\Pレベル計}
 73
     1
 44
1.0
  0
MTEXT
  5
5E0E
330
299E
100
AcDbEntity
 67
     1
  8
寸法線
 48
10.0
100
AcDbMText
 10
166.0931143455755
 20
30.79556392682173
 30
0.0
 40
4.0
 41
40.32688172043011
 71
     1
 72
     5
  1
1m\U+2266L\U+22663m
 73
     1
 44
1.0
  0
ENDSEC
  0
SECTION
  2
OBJECTS
  0
DICTIONARY
  5
C
330
0
100
AcDbDictionary
281
     1
  3
ACAD_COLOR
350
2948
  3
ACAD_GROUP
350
D
  3
ACAD_LAYOUT
350
2816
  3
ACAD_MATERIAL
350
2947
  3
ACAD_MLINESTYLE
350
E
  3
ACAD_PLOTSETTINGS
350
2817
  3
ACAD_PLOTSTYLENAME
350
2814
  3
AcadDim
350
3A15
  0
DICTIONARY
  5
29EA
330
2
100
AcDbDictionary
280
     1
281
     1
  3
ACAD_LAYERFILTERS
360
2AFB
  3
ACAD_LAYERSTATES
360
29EB
  0
DICTIONARY
  5
2948
102
{ACAD_REACTORS
330
C
102
}
330
C
100
AcDbDictionary
281
     1
  0
DICTIONARY
  5
D
102
{ACAD_REACTORS
330
C
102
}
330
C
100
AcDbDictionary
281
     1
  3
*A1
350
3811
  3
*A2
350
3813
  0
DICTIONARY
  5
2816
102
{ACAD_REACTORS
330
C
102
}
330
C
100
AcDbDictionary
281
     1
  3
A3縦
350
29A4
  3
Model
350
2818
  0
DICTIONARY
  5
2947
102
{ACAD_REACTORS
330
C
102
}
330
C
100
AcDbDictionary
281
     1
  0
DICTIONARY
  5
E
102
{ACAD_REACTORS
330
C
102
}
330
C
100
AcDbDictionary
281
     1
  3
STANDARD
350
13
  0
DICTIONARY
  5
2817
102
{ACAD_REACTORS
330
C
102
}
330
C
100
AcDbDictionary
281
     1
  0
ACDBDICTIONARYWDFLT
  5
2814
102
{ACAD_REACTORS
330
C
102
}
330
C
100
AcDbDictionary
281
     1
  3
Normal
350
2815
100
AcDbDictionaryWithDefault
340
2815
  0
XRECORD
  5
3A15
102
{ACAD_REACTORS
330
C
102
}
330
C
100
AcDbXrecord
280
     1
 90
   990106
  3

 60
     0
 61
     0
 62
     1
 63
     3
 64
     0
 65
     0
 66
     0
 67
     3
 68
     1
 69
     0
 70
     0
 71
     0
 72
     0
 40
0.0
170
     0
340
0
  0
DICTIONARY
  5
2AFB
102
{ACAD_REACTORS
330
29EA
102
}
330
29EA
100
AcDbDictionary
281
     1
  0
DICTIONARY
  5
29EB
102
{ACAD_REACTORS
330
29EA
102
}
330
29EA
100
AcDbDictionary
281
     1
  0
GROUP
  5
3811
102
{ACAD_REACTORS
330
D
102
}
330
D
100
AcDbGroup
300

 70
     1
 71
     1
  0
GROUP
  5
3813
102
{ACAD_REACTORS
330
D
102
}
330
D
100
AcDbGroup
300

 70
     1
 71
     1
  0
LAYOUT
  5
29A4
102
{ACAD_REACTORS
330
2816
102
}
330
2816
100
AcDbPlotSettings
  1

  2
DocuCentre 352.pc3
  4
A4
  6

 40
4.857749938964843
 41
4.900062561035156
 42
4.942413330078125
 43
4.857757568359375
 44
209.9733276367187
 45
296.9683227539062
 46
0.0
 47
0.0
 48
0.0
 49
0.0
140
0.0
141
0.0
142
1.0
143
1.429999999999999
 70
   736
 72
     1
 73
     0
 74
     5
  7
TOWA.ctb
 75
     0
147
1.0
 76
     1
 77
     2
 78
   300
148
0.0
149
0.0
100
AcDbLayout
  1
A3縦
 70
     1
 71
     1
 10
-6.946582412719726
 20
-7.007089462280273
 11
293.3152761077881
 21
417.6576120758056
 12
0.0
 22
0.0
 32
0.0
 14
3.379715380909601
 24
2.834855338171948
 34
0.0
 15
283.3797153809096
 25
407.8348546596004
 35
0.0
146
0.0
 13
0.0
 23
0.0
 33
0.0
 16
1.0
 26
0.0
 36
0.0
 17
0.0
 27
1.0
 37
0.0
 76
     0
330
299E
331
29A0
  0
LAYOUT
  5
2818
102
{ACAD_REACTORS
330
2816
102
}
330
2816
100
AcDbPlotSettings
  1

  2
none_device
  4
Letter_(8.50_x_11.00_Inches)
  6

 40
6.349999904632568
 41
6.349999904632568
 42
6.350006103515625
 43
6.350006103515625
 44
215.8999938964844
 45
279.3999938964844
 46
0.0
 47
0.0
 48
0.0
 49
0.0
140
0.0
141
0.0
142
1.0
143
1.0
 70
 11952
 72
     1
 73
     1
 74
     0
  7
TOWA.ctb
 75
     0
147
1.0
 76
     0
 77
     2
 78
   300
148
-999.2671574230698
149
339.2452142811905
100
AcDbLayout
  1
Model
 70
     1
 71
     0
 10
0.0
 20
0.0
 11
12.0
 21
9.0
 12
0.0
 22
0.0
 32
0.0
 14
0.0
 24
0.0
 34
0.0
 15
0.0
 25
0.0
 35
0.0
146
0.0
 13
0.0
 23
0.0
 33
0.0
 16
1.0
 26
0.0
 36
0.0
 17
0.0
 27
1.0
 37
0.0
 76
     0
330
1A
  0
MLINESTYLE
  5
13
102
{ACAD_REACTORS
330
E
102
}
330
E
100
AcDbMlineStyle
  2
STANDARD
 70
     0
  3

 62
     0
 51
90.0
 52
90.0
 71
     2
 49
0.5
 62
   256
  6
BYLAYER
 49
-0.5
 62
   256
  6
BYLAYER
  0
ACDBPLACEHOLDER
  5
2815
102
{ACAD_REACTORS
330
2814
102
}
330
2814
  0
ENDSEC
  0
EOF
