  0
SECTION
  2
HEADER
  9
$ACADVER
  1
AC1018
  9
$ACADMAINTVER
 70
     0
  9
$DWGCODEPAGE
  3
ANSI_932
  9
$LASTSAVEDBY
  1
y-ohno
  9
$INSBASE
 10
0.0
 20
0.0
 30
0.0
  9
$EXTMIN
 10
-266.889945157064
 20
635.419869529332
 30
0.0
  9
$EXTMAX
 10
394.427118376567
 20
1066.2355915511
 30
0.0
  9
$LIMMIN
 10
-360.747566795242
 20
4.457354754526
  9
$LIMMAX
 10
-162.153696144267
 20
287.675440264018
  9
$ORTHOMODE
 70
     0
  9
$REGENMODE
 70
     1
  9
$FILLMODE
 70
     1
  9
$QTEXTMODE
 70
     0
  9
$MIRRTEXT
 70
     1
  9
$LTSCALE
 40
1.0
  9
$ATTMODE
 70
     1
  9
$TEXTSIZE
 40
2.333873885063
  9
$TRACEWID
 40
1.0
  9
$TEXTSTYLE
  7
STANDARD
  9
$CLAYER
  8
寸法線
  9
$CELTYPE
  6
BYLAYER
  9
$CECOLOR
 62
   256
  9
$CELTSCALE
 40
10.0
  9
$DISPSILH
 70
     0
  9
$DIMSCALE
 40
1.0
  9
$DIMASZ
 40
2.5
  9
$DIMEXO
 40
0.625
  9
$DIMDLI
 40
3.75
  9
$DIMRND
 40
0.0
  9
$DIMDLE
 40
0.0
  9
$DIMEXE
 40
1.25
  9
$DIMTP
 40
0.0
  9
$DIMTM
 40
0.0
  9
$DIMTXT
 40
2.5
  9
$DIMCEN
 40
2.5
  9
$DIMTSZ
 40
0.0
  9
$DIMTOL
 70
     0
  9
$DIMLIM
 70
     0
  9
$DIMTIH
 70
     1
  9
$DIMTOH
 70
     0
  9
$DIMSE1
 70
     0
  9
$DIMSE2
 70
     0
  9
$DIMTAD
 70
     1
  9
$DIMZIN
 70
     8
  9
$DIMBLK
  1

  9
$DIMASO
 70
     1
  9
$DIMSHO
 70
     1
  9
$DIMPOST
  1

  9
$DIMAPOST
  1

  9
$DIMALT
 70
     0
  9
$DIMALTD
 70
     2
  9
$DIMALTF
 40
0.0394
  9
$DIMLFAC
 40
1.0
  9
$DIMTOFL
 70
     1
  9
$DIMTVP
 40
1.0
  9
$DIMTIX
 70
     0
  9
$DIMSOXD
 70
     0
  9
$DIMSAH
 70
     0
  9
$DIMBLK1
  1

  9
$DIMBLK2
  1

  9
$DIMSTYLE
  2
ISO-25
  9
$DIMCLRD
 70
     0
  9
$DIMCLRE
 70
     0
  9
$DIMCLRT
 70
     0
  9
$DIMTFAC
 40
1.0
  9
$DIMGAP
 40
0.625
  9
$DIMJUST
 70
     0
  9
$DIMSD1
 70
     0
  9
$DIMSD2
 70
     0
  9
$DIMTOLJ
 70
     1
  9
$DIMTZIN
 70
     0
  9
$DIMALTZ
 70
     0
  9
$DIMALTTZ
 70
     0
  9
$DIMUPT
 70
     0
  9
$DIMDEC
 70
     4
  9
$DIMTDEC
 70
     4
  9
$DIMALTU
 70
     2
  9
$DIMALTTD
 70
     2
  9
$DIMTXSTY
  7
STANDARD
  9
$DIMAUNIT
 70
     0
  9
$DIMADEC
 70
     0
  9
$DIMALTRND
 40
0.0
  9
$DIMAZIN
 70
     0
  9
$DIMDSEP
 70
    46
  9
$DIMATFIT
 70
     3
  9
$DIMFRAC
 70
     0
  9
$DIMLDRBLK
  1

  9
$DIMLUNIT
 70
     2
  9
$DIMLWD
 70
    -2
  9
$DIMLWE
 70
    -2
  9
$DIMTMOVE
 70
     0
  9
$LUNITS
 70
     2
  9
$LUPREC
 70
     4
  9
$SKETCHINC
 40
1.0
  9
$FILLETRAD
 40
6.5
  9
$AUNITS
 70
     0
  9
$AUPREC
 70
     0
  9
$MENU
  1
.
  9
$ELEVATION
 40
0.0
  9
$PELEVATION
 40
0.0
  9
$THICKNESS
 40
0.0
  9
$LIMCHECK
 70
     0
  9
$CHAMFERA
 40
10.0
  9
$CHAMFERB
 40
10.0
  9
$CHAMFERC
 40
20.0
  9
$CHAMFERD
 40
0.0
  9
$SKPOLY
 70
     0
  9
$TDCREATE
 40
2450576.597302431
  9
$TDUCREATE
 40
2450576.222302431
  9
$TDUPDATE
 40
2457452.466859259
  9
$TDUUPDATE
 40
2457452.091859259
  9
$TDINDWG
 40
1.20311125
  9
$TDUSRTIMER
 40
1.20311125
  9
$USRTIMER
 70
     1
  9
$ANGBASE
 50
0.0
  9
$ANGDIR
 70
     0
  9
$PDMODE
 70
     0
  9
$PDSIZE
 40
0.0
  9
$PLINEWID
 40
0.0
  9
$SPLFRAME
 70
     0
  9
$SPLINETYPE
 70
     6
  9
$SPLINESEGS
 70
     8
  9
$HANDSEED
  5
3FF8
  9
$SURFTAB1
 70
     6
  9
$SURFTAB2
 70
     6
  9
$SURFTYPE
 70
     6
  9
$SURFU
 70
     6
  9
$SURFV
 70
     6
  9
$UCSBASE
  2

  9
$UCSNAME
  2

  9
$UCSORG
 10
0.0
 20
0.0
 30
0.0
  9
$UCSXDIR
 10
1.0
 20
0.0
 30
0.0
  9
$UCSYDIR
 10
0.0
 20
1.0
 30
0.0
  9
$UCSORTHOREF
  2

  9
$UCSORTHOVIEW
 70
     0
  9
$UCSORGTOP
 10
0.0
 20
0.0
 30
0.0
  9
$UCSORGBOTTOM
 10
0.0
 20
0.0
 30
0.0
  9
$UCSORGLEFT
 10
0.0
 20
0.0
 30
0.0
  9
$UCSORGRIGHT
 10
0.0
 20
0.0
 30
0.0
  9
$UCSORGFRONT
 10
0.0
 20
0.0
 30
0.0
  9
$UCSORGBACK
 10
0.0
 20
0.0
 30
0.0
  9
$PUCSBASE
  2

  9
$PUCSNAME
  2

  9
$PUCSORG
 10
0.0
 20
0.0
 30
0.0
  9
$PUCSXDIR
 10
1.0
 20
0.0
 30
0.0
  9
$PUCSYDIR
 10
0.0
 20
1.0
 30
0.0
  9
$PUCSORTHOREF
  2

  9
$PUCSORTHOVIEW
 70
     0
  9
$PUCSORGTOP
 10
0.0
 20
0.0
 30
0.0
  9
$PUCSORGBOTTOM
 10
0.0
 20
0.0
 30
0.0
  9
$PUCSORGLEFT
 10
0.0
 20
0.0
 30
0.0
  9
$PUCSORGRIGHT
 10
0.0
 20
0.0
 30
0.0
  9
$PUCSORGFRONT
 10
0.0
 20
0.0
 30
0.0
  9
$PUCSORGBACK
 10
0.0
 20
0.0
 30
0.0
  9
$USERI1
 70
     0
  9
$USERI2
 70
     0
  9
$USERI3
 70
     0
  9
$USERI4
 70
     0
  9
$USERI5
 70
     0
  9
$USERR1
 40
0.0
  9
$USERR2
 40
0.0
  9
$USERR3
 40
0.0
  9
$USERR4
 40
0.0
  9
$USERR5
 40
0.0
  9
$WORLDVIEW
 70
     1
  9
$SHADEDGE
 70
     3
  9
$SHADEDIF
 70
    70
  9
$TILEMODE
 70
     0
  9
$MAXACTVP
 70
    16
  9
$PINSBASE
 10
0.0
 20
0.0
 30
0.0
  9
$PLIMCHECK
 70
     0
  9
$PEXTMIN
 10
4.746305129083
 20
2.617583436752
 30
0.0
  9
$PEXTMAX
 10
404.746305129083
 20
282.617583436752
 30
0.0
  9
$PLIMMIN
 10
-7.007122192383
 20
-7.007118782997
  9
$PLIMMAX
 10
417.718108215332
 20
293.315290427208
  9
$UNITMODE
 70
     0
  9
$VISRETAIN
 70
     0
  9
$PLINEGEN
 70
     0
  9
$PSLTSCALE
 70
     1
  9
$TREEDEPTH
 70
  3020
  9
$CMLSTYLE
  2
STANDARD
  9
$CMLJUST
 70
     0
  9
$CMLSCALE
 40
1.0
  9
$PROXYGRAPHICS
 70
     1
  9
$MEASUREMENT
 70
     1
  9
$CELWEIGHT
370
    -1
  9
$ENDCAPS
280
     0
  9
$JOINSTYLE
280
     0
  9
$LWDISPLAY
290
     0
  9
$INSUNITS
 70
     0
  9
$HYPERLINKBASE
  1

  9
$STYLESHEET
  1

  9
$XEDIT
290
     1
  9
$CEPSNTYPE
380
     0
  9
$PSTYLEMODE
290
     1
  9
$FINGERPRINTGUID
  2
{23698909-1D67-4744-B0E2-8DE11E3ED422}
  9
$VERSIONGUID
  2
{6BA96ED7-28E4-43E6-9B52-6412C4D5D89A}
  9
$EXTNAMES
290
     1
  9
$PSVPSCALE
 40
0.25
  9
$OLESTARTUP
290
     0
  9
$SORTENTS
280
   127
  9
$INDEXCTL
280
     0
  9
$HIDETEXT
280
     0
  9
$XCLIPFRAME
290
     0
  9
$HALOGAP
280
     0
  9
$OBSCOLOR
 70
   257
  9
$OBSLTYPE
280
     0
  9
$INTERSECTIONDISPLAY
280
     0
  9
$INTERSECTIONCOLOR
 70
   257
  9
$DIMASSOC
280
     1
  9
$PROJECTNAME
  1

  0
ENDSEC
  0
SECTION
  2
CLASSES
  0
CLASS
  1
ACDBDICTIONARYWDFLT
  2
AcDbDictionaryWithDefault
  3
ObjectDBX Classes
 90
        0
 91
        5
280
     0
281
     0
  0
CLASS
  1
ACDBPLACEHOLDER
  2
AcDbPlaceHolder
  3
ObjectDBX Classes
 90
        0
 91
        1
280
     0
281
     0
  0
CLASS
  1
LAYOUT
  2
AcDbLayout
  3
ObjectDBX Classes
 90
        0
 91
        1
280
     0
281
     0
  0
CLASS
  1
SORTENTSTABLE
  2
AcDbSortentsTable
  3
ObjectDBX Classes
 90
        0
 91
        4
280
     0
281
     0
  0
CLASS
  1
VISUALSTYLE
  2
AcDbVisualStyle
  3
ObjectDBX Classes
 90
     4095
 91
        5
280
     0
281
     0
  0
CLASS
  1
SCALE
  2
AcDbScale
  3
ObjectDBX Classes
 90
     1153
 91
        5
280
     0
281
     0
  0
CLASS
  1
MATERIAL
  2
AcDbMaterial
  3
ObjectDBX Classes
 90
     1153
 91
        5
280
     0
281
     0
  0
CLASS
  1
TABLESTYLE
  2
AcDbTableStyle
  3
ObjectDBX Classes
 90
     4095
 91
        5
280
     0
281
     0
  0
CLASS
  1
MLEADERSTYLE
  2
AcDbMLeaderStyle
  3
ACDB_MLEADERSTYLE_CLASS
 90
     4095
 91
        5
280
     0
281
     0
  0
CLASS
  1
SUN
  2
AcDbSun
  3
SCENEOE
 90
     1153
 91
        5
280
     0
281
     0
  0
CLASS
  1
DICTIONARYVAR
  2
AcDbDictionaryVar
  3
ObjectDBX Classes
 90
        0
 91
        4
280
     0
281
     0
  0
CLASS
  1
CELLSTYLEMAP
  2
AcDbCellStyleMap
  3
ObjectDBX Classes
 90
     1152
 91
        4
280
     0
281
     0
  0
ENDSEC
  0
SECTION
  2
TABLES
  0
TABLE
  2
VPORT
  5
8
102
{ACAD_XDICTIONARY
360
3FBA
102
}
330
0
100
AcDbSymbolTable
 70
     2
  0
VPORT
  5
3BCB
330
8
100
AcDbSymbolTableRecord
100
AcDbViewportTableRecord
  2
*Active
 70
     0
 10
0.0
 20
0.0
 11
1.0
 21
1.0
 12
-65.715567580178
 22
766.630249315077
 13
0.0
 23
0.0
 14
1.0
 24
1.0
 15
0.0
 25
0.0
 16
0.0
 26
0.0
 36
1.0
 17
0.0
 27
0.0
 37
0.0
 40
274.096666571312
 41
1.392991239049
 42
50.0
 43
0.0
 44
0.0
 50
0.0
 51
0.0
 71
    16
 72
   100
 73
     1
 74
     0
 75
     0
 76
     0
 77
     0
 78
     0
281
     0
 65
     1
110
0.0
120
0.0
130
0.0
111
1.0
121
0.0
131
0.0
112
0.0
122
1.0
132
0.0
 79
     0
146
0.0
  0
ENDTAB
  0
TABLE
  2
LTYPE
  5
5
330
0
100
AcDbSymbolTable
 70
     3
  0
LTYPE
  5
14
330
5
100
AcDbSymbolTableRecord
100
AcDbLinetypeTableRecord
  2
BYBLOCK
 70
     0
  3

 72
    65
 73
     0
 40
0.0
  0
LTYPE
  5
15
330
5
100
AcDbSymbolTableRecord
100
AcDbLinetypeTableRecord
  2
BYLAYER
 70
     0
  3

 72
    65
 73
     0
 40
0.0
  0
LTYPE
  5
16
330
5
100
AcDbSymbolTableRecord
100
AcDbLinetypeTableRecord
  2
CONTINUOUS
 70
     0
  3
Solid line
 72
    65
 73
     0
 40
0.0
  0
LTYPE
  5
1EC
330
5
100
AcDbSymbolTableRecord
100
AcDbLinetypeTableRecord
  2
CENTER
 70
     0
  3
____ _ ____ _ ____ _ ____ _ ____ _ ____ _ ____ 
 72
    65
 73
     4
 40
2.0
 49
1.25
 74
     0
 49
-0.25
 74
     0
 49
0.25
 74
     0
 49
-0.25
 74
     0
  0
LTYPE
  5
1ED
330
5
100
AcDbSymbolTableRecord
100
AcDbLinetypeTableRecord
  2
DASHED
 70
     0
  3
__ __ __ __ __ __ __ __ __ __ __ __ __ __ __ __
 72
    65
 73
     2
 40
0.75
 49
0.5
 74
     0
 49
-0.25
 74
     0
  0
ENDTAB
  0
TABLE
  2
LAYER
  5
2
102
{ACAD_XDICTIONARY
360
29EA
102
}
330
0
100
AcDbSymbolTable
 70
    10
  0
LAYER
  5
F
330
2
100
AcDbSymbolTableRecord
100
AcDbLayerTableRecord
  2
0
 70
     0
 62
     7
  6
CONTINUOUS
370
    -3
390
2815
  0
LAYER
  5
61
330
2
100
AcDbSymbolTableRecord
100
AcDbLayerTableRecord
  2
図枠太線
 70
     0
 62
   251
  6
CONTINUOUS
370
    -3
390
2815
  0
LAYER
  5
62
330
2
100
AcDbSymbolTableRecord
100
AcDbLayerTableRecord
  2
図枠細線
 70
     0
 62
   252
  6
CONTINUOUS
370
    -3
390
2815
  0
LAYER
  5
63
330
2
100
AcDbSymbolTableRecord
100
AcDbLayerTableRecord
  2
図枠ロゴマーク
 70
     0
 62
   253
  6
CONTINUOUS
370
    -3
390
2815
  0
LAYER
  5
1EF
330
2
100
AcDbSymbolTableRecord
100
AcDbLayerTableRecord
  2
外形線
 70
     0
 62
     7
  6
CONTINUOUS
370
    -3
390
2815
  0
LAYER
  5
1F0
330
2
100
AcDbSymbolTableRecord
100
AcDbLayerTableRecord
  2
寸法線
 70
     0
 62
     1
  6
CONTINUOUS
370
    -3
390
2815
  0
LAYER
  5
1F1
330
2
100
AcDbSymbolTableRecord
100
AcDbLayerTableRecord
  2
中心線
 70
     0
 62
     4
  6
CENTER
370
    -3
390
2815
  0
LAYER
  5
1F4
330
2
100
AcDbSymbolTableRecord
100
AcDbLayerTableRecord
  2
DEFPOINTS
 70
     0
 62
     7
  6
CONTINUOUS
290
     0
370
    -3
390
2815
  0
LAYER
  5
2AA2
330
2
100
AcDbSymbolTableRecord
100
AcDbLayerTableRecord
  2
下書線
 70
     0
 62
     2
  6
CONTINUOUS
290
     0
370
    -3
390
2815
  0
LAYER
  5
2AA4
330
2
100
AcDbSymbolTableRecord
100
AcDbLayerTableRecord
  2
細線
 70
     0
 62
     6
  6
CONTINUOUS
370
    -3
390
2815
  0
ENDTAB
  0
TABLE
  2
STYLE
  5
3
330
0
100
AcDbSymbolTable
 70
     3
  0
STYLE
  5
10
330
3
100
AcDbSymbolTableRecord
100
AcDbTextStyleTableRecord
  2
STANDARD
 70
     0
 40
0.0
 41
1.0
 50
0.0
 71
     0
 42
2.333873885063
  3
ISOCP
  4
bigfont.shx
  0
STYLE
  5
64
330
3
100
AcDbSymbolTableRecord
100
AcDbTextStyleTableRecord
  2
EXCADSTD
 70
     0
 40
0.0
 41
1.0
 50
0.0
 71
     0
 42
0.2
  3
monotxt
  4
bigfont
  0
STYLE
  5
2B21
330
3
100
AcDbSymbolTableRecord
100
AcDbTextStyleTableRecord
  2
EXCADVERT
 70
     4
 40
0.0
 41
1.0
 50
0.0
 71
     0
 42
0.286885
  3
monotxt
  4
bigfont
  0
ENDTAB
  0
TABLE
  2
VIEW
  5
6
330
0
100
AcDbSymbolTable
 70
     0
  0
ENDTAB
  0
TABLE
  2
UCS
  5
7
330
0
100
AcDbSymbolTable
 70
     0
  0
ENDTAB
  0
TABLE
  2
APPID
  5
9
330
0
100
AcDbSymbolTable
 70
     3
  0
APPID
  5
11
330
9
100
AcDbSymbolTableRecord
100
AcDbRegAppTableRecord
  2
ACAD
 70
     0
  0
APPID
  5
3C15
330
9
100
AcDbSymbolTableRecord
100
AcDbRegAppTableRecord
  2
AcadAnnotative
 70
     0
  0
APPID
  5
3D31
330
9
100
AcDbSymbolTableRecord
100
AcDbRegAppTableRecord
  2
ACAD_MLEADERVER
 70
     0
  0
ENDTAB
  0
TABLE
  2
DIMSTYLE
  5
A
330
0
100
AcDbSymbolTable
 70
     2
100
AcDbDimStyleTable
  0
DIMSTYLE
105
1D
330
A
100
AcDbSymbolTableRecord
100
AcDbDimStyleTableRecord
  2
STANDARD
 70
     0
178
     0
340
10
  0
DIMSTYLE
105
24
102
{ACAD_REACTORS
330
300F
330
3010
330
303A
330
3834
330
3835
330
3838
330
3839
330
384E
330
384F
330
3855
330
3833
102
}
330
A
100
AcDbSymbolTableRecord
100
AcDbDimStyleTableRecord
  2
ISO-25
 70
     0
 41
2.5
 42
0.625
 43
3.75
 44
1.25
 74
     0
 77
     1
 78
     8
140
2.5
141
2.5
143
0.0394
145
1.0
147
0.625
172
     1
178
     0
340
10
  0
ENDTAB
  0
TABLE
  2
BLOCK_RECORD
  5
1
330
0
100
AcDbSymbolTable
 70
    19
  0
BLOCK_RECORD
  5
1A
330
1
100
AcDbSymbolTableRecord
100
AcDbBlockTableRecord
  2
*MODEL_SPACE
340
2818
  0
BLOCK_RECORD
  5
28FB
330
1
100
AcDbSymbolTableRecord
100
AcDbBlockTableRecord
  2
*Paper_Space
340
28FC
  0
BLOCK_RECORD
  5
2A32
330
1
100
AcDbSymbolTableRecord
100
AcDbBlockTableRecord
  2
A3横用　タイトル
340
0
310
2800000020000000200000000100080000000000000400000000000000000000000000000000000000000000000080000080000000808000800000008000800080800000C0C0C000C0DCC000F0CAA6000020400000206000002080000020A0000020C0000020E00000400000004020000040400000406000004080000040A0
310
000040C0000040E00000600000006020000060400000606000006080000060A0000060C0000060E00000800000008020000080400000806000008080000080A0000080C0000080E00000A0000000A0200000A0400000A0600000A0800000A0A00000A0C00000A0E00000C0000000C0200000C0400000C0600000C0800000C0
310
A00000C0C00000C0E00000E0000000E0200000E0400000E0600000E0800000E0A00000E0C00000E0E00040000000400020004000400040006000400080004000A0004000C0004000E00040200000402020004020400040206000402080004020A0004020C0004020E000404000004040200040404000404060004040800040
310
40A0004040C0004040E00040600000406020004060400040606000406080004060A0004060C0004060E00040800000408020004080400040806000408080004080A0004080C0004080E00040A0000040A0200040A0400040A0600040A0800040A0A00040A0C00040A0E00040C0000040C0200040C0400040C0600040C08000
310
40C0A00040C0C00040C0E00040E0000040E0200040E0400040E0600040E0800040E0A00040E0C00040E0E00080000000800020008000400080006000800080008000A0008000C0008000E00080200000802020008020400080206000802080008020A0008020C0008020E00080400000804020008040400080406000804080
310
008040A0008040C0008040E00080600000806020008060400080606000806080008060A0008060C0008060E00080800000808020008080400080806000808080008080A0008080C0008080E00080A0000080A0200080A0400080A0600080A0800080A0A00080A0C00080A0E00080C0000080C0200080C0400080C0600080C0
310
800080C0A00080C0C00080C0E00080E0000080E0200080E0400080E0600080E0800080E0A00080E0C00080E0E000C0000000C0002000C0004000C0006000C0008000C000A000C000C000C000E000C0200000C0202000C0204000C0206000C0208000C020A000C020C000C020E000C0400000C0402000C0404000C0406000C0
310
408000C040A000C040C000C040E000C0600000C0602000C0604000C0606000C0608000C060A000C060C000C060E000C0800000C0802000C0804000C0806000C0808000C080A000C080C000C080E000C0A00000C0A02000C0A04000C0A06000C0A08000C0A0A000C0A0C000C0A0E000C0C00000C0C02000C0C04000C0C06000
310
C0C08000C0C0A000F0FBFF00A4A0A000808080000000FF0000FF000000FFFF00FF000000FF00FF00FFFF0000FFFFFF0000000000000000000000000000000000000000000000000000000000000000000000000000000000000000000000000000000000000000000000000000000000000000000000000000000000000000
310
00000000000000000000000000000000000000000000000000000000000000000000000000000000000000000000000000000000000000000000000000000000000000000000000000000000000000000000000000000000000000000000000000000000000000000000000000000000000000000000000000000000000000
310
00000000000000000000000000000000000000000000000000000000000000000000000000000000000000000000000000000000000000000000000000000000000000000000000000000000000000000000000000000000000000000000000000000000000000000000000000000000000000000000000000000000000000
310
00000000000000000000000000000000000000000000000000000000000000000000000000000000000000000000000000000000000000000000000000000000000000000000000000000000000000000000000000000000000000000000000000000000000000000000000000000000000000005B5B5B5B5B5B5B5B5B5BA4
310
5BA45B5BA4A4A4A4A4A4A45B5B5B5B5B5B5B5B00005BA4A4A4A4A4A45BA4A4A4A4A4A45BA4A4A4A4A4A4A45BA400000000005B00005BA4A4A4A4A4A45BA4A4A4A4A4A45B5B5B5B5B5B5B5B5BA4A4A4A4A4A45B00005BA4A4A40000005BA4A4A4A4A4A45B000000000000005BA400000000005B000000000000000000000000
310
00000000000000000000000000000000000000000000000000000000000000000000000000000000000000000000000000000000000000000000000000000000000000000000000000000000000000000000000000000000000000000000000000000000000000000000000000000000000000000000000000000000000000
310
00000000000000000000000000000000000000000000000000000000000000000000000000000000000000000000000000000000000000000000000000000000000000000000000000000000000000000000000000000000000000000000000000000000000000000000000000000000000000000000000000000000000000
310
00000000000000000000000000000000000000000000000000000000000000000000000000000000000000000000000000000000000000000000000000000000000000000000000000000000000000000000000000000000000000000000000000000000000000000000000000000000000000000000000000000000000000
310
0000000000000000000000000000000000000000000000000000000000000000000000000000000000000000000000000000000000000000
102
{BLKREFS
331
2A59
102
}
1001
ACAD
1000
DesignCenter Data
1002
{
1070
     1
1070
     4
1002
}
  0
BLOCK_RECORD
  5
2AF4
330
1
100
AcDbSymbolTableRecord
100
AcDbBlockTableRecord
  2
_Open30
340
0
102
{BLKREFS
331
3BC5
331
3BC6
331
3BBC
331
3BBD
331
3B7B
331
3B7C
331
3B65
331
3B66
331
3B5C
331
3B5D
331
3BA9
331
3BAA
331
3B38
331
3B39
331
3B2F
331
3B30
331
3B26
331
3B27
331
3B1D
331
3B1E
331
3B70
331
3B71
102
}
  0
BLOCK_RECORD
  5
2EB5
330
1
100
AcDbSymbolTableRecord
100
AcDbBlockTableRecord
  2
パドル　W1
340
0
310
2800000020000000200000000100080000000000000400000000000000000000000000000000000000000000000080000080000000808000800000008000800080800000C0C0C000C0DCC000F0CAA6000020400000206000002080000020A0000020C0000020E00000400000004020000040400000406000004080000040A0
310
000040C0000040E00000600000006020000060400000606000006080000060A0000060C0000060E00000800000008020000080400000806000008080000080A0000080C0000080E00000A0000000A0200000A0400000A0600000A0800000A0A00000A0C00000A0E00000C0000000C0200000C0400000C0600000C0800000C0
310
A00000C0C00000C0E00000E0000000E0200000E0400000E0600000E0800000E0A00000E0C00000E0E00040000000400020004000400040006000400080004000A0004000C0004000E00040200000402020004020400040206000402080004020A0004020C0004020E000404000004040200040404000404060004040800040
310
40A0004040C0004040E00040600000406020004060400040606000406080004060A0004060C0004060E00040800000408020004080400040806000408080004080A0004080C0004080E00040A0000040A0200040A0400040A0600040A0800040A0A00040A0C00040A0E00040C0000040C0200040C0400040C0600040C08000
310
40C0A00040C0C00040C0E00040E0000040E0200040E0400040E0600040E0800040E0A00040E0C00040E0E00080000000800020008000400080006000800080008000A0008000C0008000E00080200000802020008020400080206000802080008020A0008020C0008020E00080400000804020008040400080406000804080
310
008040A0008040C0008040E00080600000806020008060400080606000806080008060A0008060C0008060E00080800000808020008080400080806000808080008080A0008080C0008080E00080A0000080A0200080A0400080A0600080A0800080A0A00080A0C00080A0E00080C0000080C0200080C0400080C0600080C0
310
800080C0A00080C0C00080C0E00080E0000080E0200080E0400080E0600080E0800080E0A00080E0C00080E0E000C0000000C0002000C0004000C0006000C0008000C000A000C000C000C000E000C0200000C0202000C0204000C0206000C0208000C020A000C020C000C020E000C0400000C0402000C0404000C0406000C0
310
408000C040A000C040C000C040E000C0600000C0602000C0604000C0606000C0608000C060A000C060C000C060E000C0800000C0802000C0804000C0806000C0808000C080A000C080C000C080E000C0A00000C0A02000C0A04000C0A06000C0A08000C0A0A000C0A0C000C0A0E000C0C00000C0C02000C0C04000C0C06000
310
C0C08000C0C0A000F0FBFF00A4A0A000808080000000FF0000FF000000FFFF00FF000000FF00FF00FFFF0000FFFFFF0000000000000000000000000000000000000000000000000000000000000000000000000000000000000000000000000000000000000000000000000000000000000000000000000000000000000000
310
0000000000000000000000000000000000000000000000000000000000000000000000000000000000000000000000000000FFFFFFFFFFFFFFFFFFFFFFFFFFFFFFFFFFFFFFFFFF0000000000000000000000FF0000000000000000000000000000000000000000FF00000000000000000000FF000000000000000000000000
310
0000000000000000FF00000000000000000000FF000000000000000000000000000000000000000000FF000000000000000000FF000000000000000000000000000000000000000000FF000000000000000000FF00000000000000000000000000000000000000000000FF0000000000000000FF0000000000000000000000
310
0000000000000000000000FF0000000000000000FF0000000000000000000000000000000000000000000000FF00000000000000FF0000000000000000000000000000000000000000000000FF00000000000000FF00000000000000000000000000000000000000FFFFFFFFFFFFFFFFFFFF0000FF00000000000000000000
310
000000000000000000FFFEFDFDFDFDFDFDFDFD0000FF00000000000000000000000000000000000000FDFE00000000000000FF0000FF00000000000000000000000000000000000000FDFEFF000000000000FF0000FF00000000000000000000000000000000000000FDFEFDFDFDFDFDFDFDFD0000FF000000000000000000
310
00000000000000000000FFFFFFFFFFFFFFFFFFFF0000FF0000000000000000000000000000000000000000000000FF00000000000000FF0000000000000000000000000000000000000000000000FF00000000000000FF00000000000000000000000000000000000000000000FF0000000000000000FF0000000000000000
310
0000000000000000000000000000FF0000000000000000FF000000000000000000000000000000000000000000FF000000000000000000FF000000000000000000000000000000000000000000FF000000000000000000FF0000000000000000000000000000000000000000FF00000000000000000000FF00000000000000
310
00000000000000000000000000FF00000000000000000000FFFFFFFFFFFFFFFFFFFFFFFFFFFFFFFFFFFFFFFFFF00000000000000000000000000000000000000000000000000000000000000000000000000000000000000000000000000000000000000000000000000000000000000000000000000000000000000000000
310
0000000000000000000000000000000000000000000000000000000000000000000000000000000000000000000000000000000000000000
102
{BLKREFS
331
3852
102
}
  0
BLOCK_RECORD
  5
2ECD
330
1
100
AcDbSymbolTableRecord
100
AcDbBlockTableRecord
  2
パドル　W1立面図
340
0
310
2800000020000000200000000100080000000000000400000000000000000000000000000000000000000000000080000080000000808000800000008000800080800000C0C0C000C0DCC000F0CAA6000020400000206000002080000020A0000020C0000020E00000400000004020000040400000406000004080000040A0
310
000040C0000040E00000600000006020000060400000606000006080000060A0000060C0000060E00000800000008020000080400000806000008080000080A0000080C0000080E00000A0000000A0200000A0400000A0600000A0800000A0A00000A0C00000A0E00000C0000000C0200000C0400000C0600000C0800000C0
310
A00000C0C00000C0E00000E0000000E0200000E0400000E0600000E0800000E0A00000E0C00000E0E00040000000400020004000400040006000400080004000A0004000C0004000E00040200000402020004020400040206000402080004020A0004020C0004020E000404000004040200040404000404060004040800040
310
40A0004040C0004040E00040600000406020004060400040606000406080004060A0004060C0004060E00040800000408020004080400040806000408080004080A0004080C0004080E00040A0000040A0200040A0400040A0600040A0800040A0A00040A0C00040A0E00040C0000040C0200040C0400040C0600040C08000
310
40C0A00040C0C00040C0E00040E0000040E0200040E0400040E0600040E0800040E0A00040E0C00040E0E00080000000800020008000400080006000800080008000A0008000C0008000E00080200000802020008020400080206000802080008020A0008020C0008020E00080400000804020008040400080406000804080
310
008040A0008040C0008040E00080600000806020008060400080606000806080008060A0008060C0008060E00080800000808020008080400080806000808080008080A0008080C0008080E00080A0000080A0200080A0400080A0600080A0800080A0A00080A0C00080A0E00080C0000080C0200080C0400080C0600080C0
310
800080C0A00080C0C00080C0E00080E0000080E0200080E0400080E0600080E0800080E0A00080E0C00080E0E000C0000000C0002000C0004000C0006000C0008000C000A000C000C000C000E000C0200000C0202000C0204000C0206000C0208000C020A000C020C000C020E000C0400000C0402000C0404000C0406000C0
310
408000C040A000C040C000C040E000C0600000C0602000C0604000C0606000C0608000C060A000C060C000C060E000C0800000C0802000C0804000C0806000C0808000C080A000C080C000C080E000C0A00000C0A02000C0A04000C0A06000C0A08000C0A0A000C0A0C000C0A0E000C0C00000C0C02000C0C04000C0C06000
310
C0C08000C0C0A000F0FBFF00A4A0A000808080000000FF0000FF000000FFFF00FF000000FF00FF00FFFF0000FFFFFF000000000000000000000000000000000000000000000000000000000000000000000000000000000000000000000000FFFF000000000000000000000000000000000000000000000000000000000000
310
FFFF000000000000000000000000000000000000000000000000000000000000FFFF000000000000000000000000000000000000000000000000000000000000FFFF000000000000000000000000000000000000000000000000000000000000FFFF0000000000000000000000000000000000000000000000000000000000
310
00FFFF000000000000000000000000000000000000000000000000000000000000FFFF000000000000000000000000000000000000000000000000000000000000FFFF000000000000000000000000000000000000000000000000000000000000FFFF00000000000000000000000000000000000000000000000000000000
310
0000FFFF000000000000000000000000000000000000000000000000000000000000FFFF000000000000000000000000000000000000000000000000000000000000FFFF000000000000000000000000000000000000000000000000000000000000FDFD000000000000000000000000000000000000000000000000000000
310
00FDFDFFFFFDFD0000000000000000000000000000000000000000000000000000FD00FFFF00FD0000000000000000000000000000000000000000000000000000FD00FFFF00FD0000000000000000000000000000000000000000000000000000FD00FFFF00FD000000000000000000000000000000000000000000000000
310
000000FDFDFDFD0000000000000000000000000000000000000000000000000000000000FFFF000000000000000000000000000000000000000000000000000000000000FFFF000000000000000000000000000000000000000000000000000000000000FFFF00000000000000000000000000000000000000000000000000
310
0000000000FFFF000000000000000000000000000000000000000000000000000000000000FFFF000000000000000000000000000000000000000000000000000000000000FFFF000000000000000000000000000000000000000000000000000000000000FFFF000000000000000000000000000000000000000000000000
310
000000000000FFFF000000000000000000000000000000000000000000000000000000000000FFFF000000000000000000000000000000000000000000000000000000000000FFFF000000000000000000000000000000000000000000000000000000000000FFFF0000000000000000000000000000000000000000000000
310
00000000000000FFFF0000000000000000000000000000000000000000000000000000000000000000000000000000000000000000000000
102
{BLKREFS
331
3039
102
}
  0
BLOCK_RECORD
  5
30CC
330
1
100
AcDbSymbolTableRecord
100
AcDbBlockTableRecord
  2
*D4
340
0
  0
BLOCK_RECORD
  5
30D8
330
1
100
AcDbSymbolTableRecord
100
AcDbBlockTableRecord
  2
*D5
340
0
  0
BLOCK_RECORD
  5
30FC
330
1
100
AcDbSymbolTableRecord
100
AcDbBlockTableRecord
  2
*D6
340
0
  0
BLOCK_RECORD
  5
3185
330
1
100
AcDbSymbolTableRecord
100
AcDbBlockTableRecord
  2
PRL-100 ケース
340
0
310
2800000020000000200000000100080000000000000400000000000000000000000000000000000000000000000080000080000000808000800000008000800080800000C0C0C000C0DCC000F0CAA6000020400000206000002080000020A0000020C0000020E00000400000004020000040400000406000004080000040A0
310
000040C0000040E00000600000006020000060400000606000006080000060A0000060C0000060E00000800000008020000080400000806000008080000080A0000080C0000080E00000A0000000A0200000A0400000A0600000A0800000A0A00000A0C00000A0E00000C0000000C0200000C0400000C0600000C0800000C0
310
A00000C0C00000C0E00000E0000000E0200000E0400000E0600000E0800000E0A00000E0C00000E0E00040000000400020004000400040006000400080004000A0004000C0004000E00040200000402020004020400040206000402080004020A0004020C0004020E000404000004040200040404000404060004040800040
310
40A0004040C0004040E00040600000406020004060400040606000406080004060A0004060C0004060E00040800000408020004080400040806000408080004080A0004080C0004080E00040A0000040A0200040A0400040A0600040A0800040A0A00040A0C00040A0E00040C0000040C0200040C0400040C0600040C08000
310
40C0A00040C0C00040C0E00040E0000040E0200040E0400040E0600040E0800040E0A00040E0C00040E0E00080000000800020008000400080006000800080008000A0008000C0008000E00080200000802020008020400080206000802080008020A0008020C0008020E00080400000804020008040400080406000804080
310
008040A0008040C0008040E00080600000806020008060400080606000806080008060A0008060C0008060E00080800000808020008080400080806000808080008080A0008080C0008080E00080A0000080A0200080A0400080A0600080A0800080A0A00080A0C00080A0E00080C0000080C0200080C0400080C0600080C0
310
800080C0A00080C0C00080C0E00080E0000080E0200080E0400080E0600080E0800080E0A00080E0C00080E0E000C0000000C0002000C0004000C0006000C0008000C000A000C000C000C000E000C0200000C0202000C0204000C0206000C0208000C020A000C020C000C020E000C0400000C0402000C0404000C0406000C0
310
408000C040A000C040C000C040E000C0600000C0602000C0604000C0606000C0608000C060A000C060C000C060E000C0800000C0802000C0804000C0806000C0808000C080A000C080C000C080E000C0A00000C0A02000C0A04000C0A06000C0A08000C0A0A000C0A0C000C0A0E000C0C00000C0C02000C0C04000C0C06000
310
C0C08000C0C0A000F0FBFF00A4A0A000808080000000FF0000FF000000FFFF00FF000000FF00FF00FFFF0000FFFFFF0000000000000000000000000000000000000000000000000000000000000000000000000000000000000000000000000000000000000000000000000000000000000000000000000000000000000000
310
0000000000000000000000000000000000000000000000FFFF0000000000000000FE000000000000000000000000000000000000000000FFFF000000000000FDFDFEFDFFFF00000000000000000000000000000000FEFEFEFEFEFE00000000FFFDFEFDFFFF000000000000000000000000000000000000FFFF000000000000
310
FF00FE0000FF000000000000000000000000000000000000FFFF000000000000FF00FE0000FF000000000000000000000000000000000000FFFF000000000000FF00FE0000FDFFFFFDFFFFFFFFFF00000000000000000000FFFF00000000FFFFFDFDFEFDFDFDFFFFFDFF00000000FF000000000000000000FFFF000000FFFF
310
000000FE00FDFDFF00FDFD00000000FF000000000000000000FFFF000000FFFD000000FE00FDFDFFFFFFFD00000000FFFF0000000000000000FFFFFFFFFFFFFD000000FE00FDFDFFFFFFFF00000000FFFFFF000000FFFFFFFFFFFF0000FD00FD0000000000FDFDFF00FDFD00000000FF00FF0000FD000000FDFFFF0000FD00
310
FD0000000000FDFDFF00FDFD00000000FF00FF0000FFFDFDFDFDFFFF0000FD00FD0000000000FDFDFFFFFFFD00000000FFFFFF0000FFFD0000FDFFFF0000FD00FD0000000000FDFDFF0000FF00000000FFFF000000FFFDFDFDFDFFFF0000FD00FD0000000000FDFDFFFFFFFD00000000FF00FF0000FDFFFFFFFFFFFF0000FD
310
00FD0000000000FDFDFF00FDFD00000000FF00FF00000000000000FFFF0000FD00FD0000000000FDFDFF00FDFD00000000FF00FF00000000000000FFFFFFFFFFFFFD0000000000FDFDFFFFFFFF00000000FFFFFF00000000000000FFFF000000FFFD0000000000FDFDFFFFFFFD00000000FFFF0000000000000000FFFF0000
310
0000FF0000000000FDFDFF00FDFD00000000FF000000000000000000FFFF00000000FFFFFFFFFFFFFDFDFFFFFFFF0000FFFFFF000000000000000000FFFF0000000000000000000000FFFFFFFFFFFFFF000000000000000000000000FFFF00000000000000000000000000000000000000000000000000000000FEFEFEFEFE
310
FE00000000000000000000000000000000000000000000000000000000FFFF000000000000000000000000000000000000000000000000000000000000FFFF00000000000000000000000000000000000000000000000000000000000000000000000000000000000000000000000000000000000000000000000000000000
310
0000000000000000000000000000000000000000000000000000000000000000000000000000000000000000000000000000000000000000
  0
BLOCK_RECORD
  5
3308
330
1
100
AcDbSymbolTableRecord
100
AcDbBlockTableRecord
  2
A$C480F1F2B
340
0
102
{BLKREFS
331
3853
102
}
  0
BLOCK_RECORD
  5
38F4
330
1
100
AcDbSymbolTableRecord
100
AcDbBlockTableRecord
  2
*D9
340
0
  0
BLOCK_RECORD
  5
3900
330
1
100
AcDbSymbolTableRecord
100
AcDbBlockTableRecord
  2
*D10
340
0
  0
BLOCK_RECORD
  5
3924
330
1
100
AcDbSymbolTableRecord
100
AcDbBlockTableRecord
  2
*D13
340
0
  0
BLOCK_RECORD
  5
3930
330
1
100
AcDbSymbolTableRecord
100
AcDbBlockTableRecord
  2
*D14
340
0
  0
BLOCK_RECORD
  5
3954
330
1
100
AcDbSymbolTableRecord
100
AcDbBlockTableRecord
  2
*D15
340
0
  0
BLOCK_RECORD
  5
3960
330
1
100
AcDbSymbolTableRecord
100
AcDbBlockTableRecord
  2
*D16
340
0
  0
BLOCK_RECORD
  5
397A
330
1
100
AcDbSymbolTableRecord
100
AcDbBlockTableRecord
  2
*D17
340
0
  0
BLOCK_RECORD
  5
3988
330
1
100
AcDbSymbolTableRecord
100
AcDbBlockTableRecord
  2
*D18
340
0
  0
ENDTAB
  0
ENDSEC
  0
SECTION
  2
BLOCKS
  0
BLOCK
  5
1B
330
1A
100
AcDbEntity
  8
0
100
AcDbBlockBegin
  2
*MODEL_SPACE
 70
     0
 10
0.0
 20
0.0
 30
0.0
  3
*MODEL_SPACE
  1
*MODEL_SPACE
  0
ENDBLK
  5
1C
330
1A
100
AcDbEntity
  8
0
100
AcDbBlockEnd
  0
BLOCK
  5
28FD
330
28FB
100
AcDbEntity
 67
     1
  8
0
 48
10.0
100
AcDbBlockBegin
  2
*Paper_Space
 70
     0
 10
0.0
 20
0.0
 30
0.0
  3
*Paper_Space
  1
*Paper_Space
  0
ENDBLK
  5
28FE
330
28FB
100
AcDbEntity
 67
     1
  8
0
 48
10.0
100
AcDbBlockEnd
  0
BLOCK
  5
2A33
330
2A32
100
AcDbEntity
  8
0
100
AcDbBlockBegin
  2
A3横用　タイトル
 70
     0
 10
0.0
 20
0.0
 30
0.0
  3
A3横用　タイトル
  1
A3横用　タイトル
  0
LINE
  5
2A34
330
2A32
100
AcDbEntity
  8
図枠細線
  6
Continuous
 62
   252
100
AcDbLine
 10
205.098414535793
 20
33.525959753527
 30
0.0
 11
305.098414535793
 21
33.525959753527
 31
0.0
  0
LINE
  5
2A35
330
2A32
100
AcDbEntity
  8
図枠太線
  6
Continuous
 62
   251
100
AcDbLine
 10
205.098414535793
 20
23.525959753527
 30
0.0
 11
305.098414535793
 21
23.525959753527
 31
0.0
  0
LINE
  5
2A36
330
2A32
100
AcDbEntity
  8
図枠細線
  6
Continuous
100
AcDbLine
 10
5.098414535793
 20
23.525959753527
 30
0.0
 11
105.098414535793
 21
23.525959753527
 31
0.0
  0
LINE
  5
2A37
330
2A32
100
AcDbEntity
  8
図枠細線
  6
Continuous
 62
   252
100
AcDbLine
 10
5.098414535793
 20
36.725957753527
 30
0.0
 11
105.098414535793
 21
36.725957753527
 31
0.0
  0
LINE
  5
2A38
330
2A32
100
AcDbEntity
  8
図枠細線
  6
Continuous
 62
   252
100
AcDbLine
 10
5.098414535793
 20
30.125957753527
 30
0.0
 11
105.098414535793
 21
30.125957753527
 31
0.0
  0
LINE
  5
2A39
330
2A32
100
AcDbEntity
  8
図枠細線
  6
Continuous
 62
   252
100
AcDbLine
 10
5.098414535793
 20
16.725959753527
 30
0.0
 11
105.098414535793
 21
16.725959753527
 31
0.0
  0
LINE
  5
2A3A
330
2A32
100
AcDbEntity
  8
図枠細線
  6
Continuous
 62
   252
100
AcDbLine
 10
5.098414535793
 20
10.125959753527
 30
0.0
 11
105.098414535793
 21
10.125959753527
 31
0.0
  0
LINE
  5
2A3B
330
2A32
100
AcDbEntity
  8
図枠細線
  6
Continuous
100
AcDbLine
 10
105.098414535793
 20
23.525961753527
 30
0.0
 11
205.098414535793
 21
23.525959753527
 31
0.0
  0
LINE
  5
2A3C
330
2A32
100
AcDbEntity
  8
図枠細線
  6
Continuous
 62
   252
100
AcDbLine
 10
138.398414535793
 20
43.525959753527
 30
0.0
 11
138.398414535793
 21
18.525957753527
 31
0.0
  0
LINE
  5
2A3D
330
2A32
100
AcDbEntity
  8
図枠細線
  6
Continuous
 62
   252
100
AcDbLine
 10
171.698414535793
 20
43.525959753527
 30
0.0
 11
171.698414535793
 21
18.525957753527
 31
0.0
  0
LINE
  5
2A3E
330
2A32
100
AcDbEntity
  8
図枠細線
  6
Continuous
 62
   252
100
AcDbLine
 10
305.098414535793
 20
23.525959753527
 30
0.0
 11
405.098414535793
 21
23.525959753527
 31
0.0
  0
TEXT
  5
2A3F
330
2A32
100
AcDbEntity
  8
図枠ロゴマーク
  6
Continuous
 62
   253
100
AcDbText
 10
206.102509212755
 20
13.294257570546
 30
0.0
 40
7.0
  1
東和制電工業株式会社
 50
0.016555220185
 41
1.186384129432
  7
EXCADSTD
 72
     5
 11
303.544188309143
 21
13.322412672217
 31
0.0
100
AcDbText
  0
MTEXT
  5
2A40
330
2A32
100
AcDbEntity
  8
図枠細線
100
AcDbMText
 10
6.356764112375
 20
41.976594175478
 30
0.0
 40
2.5
 41
49.938282706292
 71
     1
 72
     5
  1
{\Fmonotxt.shx,bigfont.shx|c128;図暦　CHANGE　NOTICE}
 73
     1
 44
1.0
  0
MTEXT
  5
2A41
330
2A32
100
AcDbEntity
  8
図枠細線
 48
10.0
100
AcDbMText
 10
306.544114926828
 20
41.701835800934
 30
0.0
 40
2.5
 41
28.002809618823
 71
     1
 72
     5
  1
{\Fmonotxt.shx,bigfont.shx|c128;名称　TITLE}
 73
     1
 44
1.0
  0
MTEXT
  5
2A42
330
2A32
100
AcDbEntity
  8
図枠細線
 48
10.0
100
AcDbMText
 10
307.329617114284
 20
21.606206797226
 30
0.0
 40
2.5
 41
24.385612216707
 71
     1
 72
     5
  1
{\Fmonotxt.shx,bigfont.shx|c128;図面番号\PDRG.　No.}
 73
     1
 44
1.0
  0
MTEXT
  5
2A43
330
2A32
100
AcDbEntity
  8
図枠細線
 48
10.0
100
AcDbMText
 10
173.726349404609
 20
21.73680662198
 30
0.0
 40
2.5
 41
25.735090160813
 71
     1
 72
     5
  1
{\Fmonotxt.shx,bigfont.shx|c128;日付 DATE}
 73
     1
 44
1.0
  0
MTEXT
  5
2A44
330
2A32
100
AcDbEntity
  8
図枠細線
 48
10.0
100
AcDbMText
 10
173.48708833982
 20
41.621592044998
 30
0.0
 40
2.5
 41
24.983741184205
 71
     1
 72
     5
  1
{\Fmonotxt.shx,bigfont.shx|c128;製図　DRAWN}
 73
     1
 44
1.0
  0
MTEXT
  5
2A45
330
2A32
100
AcDbEntity
  8
図枠細線
 48
10.0
100
AcDbMText
 10
139.28009927741
 20
21.866713069868
 30
0.0
 40
2.5
 41
22.629632913243
 71
     1
 72
     5
  1
{\Fmonotxt.shx,bigfont.shx|c128;尺度　SCALE}
 73
     1
 44
1.0
  0
MTEXT
  5
2A46
330
2A32
100
AcDbEntity
  8
図枠細線
 48
10.0
100
AcDbMText
 10
139.910091179835
 20
41.311840415554
 30
0.0
 40
2.5
 41
28.998753428368
 71
     1
 72
     5
  1
{\Fmonotxt.shx,bigfont.shx|c128;検図  CHECKED}
 73
     1
 44
1.0
  0
MTEXT
  5
2A47
330
2A32
100
AcDbEntity
  8
図枠細線
 48
10.0
100
AcDbMText
 10
114.253294667728
 20
21.916124850174
 30
0.0
 40
3.0
 41
19.692400475383
 71
     1
 72
     5
  1
{\Fmonotxt.shx,bigfont.shx|c128;第三角法}
 73
     1
 44
1.0
  0
MTEXT
  5
2A48
330
2A32
100
AcDbEntity
  8
図枠細線
 48
10.0
100
AcDbMText
 10
108.986959929915
 20
15.282880185837
 30
0.0
 40
2.5
 41
27.954882823547
 71
     1
 72
     5
  1
{\Fmonotxt.shx,bigfont.shx|c128;THIRD ANGLE\PPROJECTION}
 73
     1
 44
1.0
  0
MTEXT
  5
2A49
330
2A32
100
AcDbEntity
  8
図枠細線
 48
10.0
100
AcDbMText
 10
106.319432640184
 20
41.511437145487
 30
0.0
 40
2.5
 41
28.233595265074
 71
     1
 72
     5
  1
{\Fmonotxt.shx,bigfont.shx|c128;承認 APPROVED}
 73
     1
 44
1.0
  0
LINE
  5
2A4A
330
2A32
100
AcDbEntity
  8
図枠太線
  6
Continuous
 62
   251
100
AcDbLine
 10
5.098414535793
 20
3.525959753527
 30
0.0
 11
405.098414535793
 21
3.525959753527
 31
0.0
  0
LINE
  5
2A4B
330
2A32
100
AcDbEntity
  8
図枠太線
 48
10.0
100
AcDbLine
 10
5.098414535793
 20
3.525959753527
 30
0.0
 11
5.098414535793
 21
43.525959753527
 31
0.0
  0
LINE
  5
2A4C
330
2A32
100
AcDbEntity
  8
図枠太線
  6
Continuous
 62
   251
100
AcDbLine
 10
105.098414535793
 20
3.525959753527
 30
0.0
 11
105.098414535793
 21
43.525959753527
 31
0.0
  0
LINE
  5
2A4D
330
2A32
100
AcDbEntity
  8
図枠細線
  6
Continuous
 62
   252
100
AcDbLine
 10
138.398414535793
 20
3.525959753527
 30
0.0
 11
138.398414535793
 21
18.525957753527
 31
0.0
  0
LINE
  5
2A4E
330
2A32
100
AcDbEntity
  8
図枠細線
  6
Continuous
 62
   252
100
AcDbLine
 10
171.698414535793
 20
3.525959753527
 30
0.0
 11
171.698414535793
 21
18.525957753527
 31
0.0
  0
LINE
  5
2A4F
330
2A32
100
AcDbEntity
  8
図枠太線
  6
Continuous
 62
   251
100
AcDbLine
 10
205.098414535793
 20
3.525959753527
 30
0.0
 11
205.098414535793
 21
43.525959753527
 31
0.0
  0
LINE
  5
2A50
330
2A32
100
AcDbEntity
  8
図枠太線
 48
10.0
100
AcDbLine
 10
405.098414535793
 20
43.525959753527
 30
0.0
 11
405.098414535793
 21
3.525959753527
 31
0.0
  0
TEXT
  5
2A51
330
2A32
100
AcDbEntity
  8
図枠細線
  6
Continuous
 62
   252
100
AcDbText
 10
208.519754474572
 20
6.482358407285
 30
0.0
 40
3.5
  1
ＴＯＷＡ　ＳＥＩＤＥＮ　ＩＮＤＵＳＴＲＩＡＬ　ＣＯ．，ＬＴＤ．
 41
0.746656297509
  7
EXCADSTD
 72
     5
 11
303.295327171727
 21
6.482358407285
 31
0.0
100
AcDbText
  0
LINE
  5
2A52
330
2A32
100
AcDbEntity
  8
図枠太線
  6
Continuous
 62
   251
100
AcDbLine
 10
305.098414535793
 20
3.525959753527
 30
0.0
 11
305.098414535793
 21
43.525959753527
 31
0.0
  0
ENDBLK
  5
2A53
330
2A32
100
AcDbEntity
  8
0
100
AcDbBlockEnd
  0
BLOCK
  5
2AF8
330
2AF4
100
AcDbEntity
  8
0
 48
10.0
100
AcDbBlockBegin
  2
_Open30
 70
     0
 10
0.0
 20
0.0
 30
0.0
  3
_Open30
  1
_Open30
  0
LINE
  5
2AF5
330
2AF4
100
AcDbEntity
  8
0
  6
ByBlock
 62
     0
370
    -2
100
AcDbLine
 10
-1.0
 20
0.26794919
 30
0.0
 11
0.0
 21
0.0
 31
0.0
  0
LINE
  5
2AF6
330
2AF4
100
AcDbEntity
  8
0
  6
ByBlock
 62
     0
370
    -2
100
AcDbLine
 10
0.0
 20
0.0
 30
0.0
 11
-1.0
 21
-0.26794919
 31
0.0
  0
LINE
  5
2AF7
330
2AF4
100
AcDbEntity
  8
0
  6
ByBlock
 62
     0
370
    -2
100
AcDbLine
 10
0.0
 20
0.0
 30
0.0
 11
-1.0
 21
0.0
 31
0.0
  0
ENDBLK
  5
2AF9
330
2AF4
100
AcDbEntity
  8
0
 48
10.0
100
AcDbBlockEnd
  0
BLOCK
  5
2EB6
330
2EB5
100
AcDbEntity
  8
0
 48
10.0
100
AcDbBlockBegin
  2
パドル　W1
 70
     0
 10
0.0
 20
0.0
 30
0.0
  3
パドル　W1
  1
パドル　W1
  0
LINE
  5
2EB7
330
2EB5
100
AcDbEntity
  8
中心線
 48
10.0
100
AcDbLine
 10
124.6832879095
 20
220.674073777677
 30
0.0
 11
131.9189439095
 21
220.674073777677
 31
0.0
  0
LINE
  5
2EB8
330
2EB5
100
AcDbEntity
  8
外形線
 48
10.0
100
AcDbLine
 10
58.3011159095
 20
260.651761921811
 30
0.0
 11
58.3011159095
 21
180.651761921811
 31
0.0
  0
LINE
  5
2EB9
330
2EB5
100
AcDbEntity
  8
外形線
 48
10.0
100
AcDbLine
 10
58.3011159095
 20
180.651761921811
 30
0.0
 11
123.3011159095
 21
180.651761921811
 31
0.0
  0
LINE
  5
2EBA
330
2EB5
100
AcDbEntity
  8
外形線
 48
10.0
100
AcDbLine
 10
138.3011159095
 20
208.651761921811
 30
0.0
 11
138.3011159095
 21
212.376811207105
 31
0.0
  0
LINE
  5
2EBB
330
2EB5
100
AcDbEntity
  8
外形線
 48
10.0
100
AcDbLine
 10
123.3011159095
 20
260.651761921811
 30
0.0
 11
58.3011159095
 21
260.651761921811
 31
0.0
  0
LINE
  5
2EBC
330
2EB5
100
AcDbEntity
  8
外形線
 48
10.0
100
AcDbLine
 10
138.3011159095
 20
232.651761921811
 30
0.0
 11
123.3011159095
 21
260.651761921811
 31
0.0
  0
LINE
  5
2EBD
330
2EB5
100
AcDbEntity
  8
外形線
 48
10.0
100
AcDbLine
 10
138.3011159095
 20
208.651761921811
 30
0.0
 11
123.3011159095
 21
180.651761921811
 31
0.0
  0
LINE
  5
2EBE
330
2EB5
100
AcDbEntity
  8
外形線
 48
10.0
100
AcDbLine
 10
153.3011159095
 20
212.376811207105
 30
0.0
 11
153.3011159095
 21
228.941629207105
 31
0.0
  0
LINE
  5
2EBF
330
2EB5
100
AcDbEntity
  8
外形線
100
AcDbLine
 10
125.0147379095
 20
212.376811207105
 30
0.0
 11
153.3011159095
 21
212.376811207105
 31
0.0
  0
LINE
  5
2EC0
330
2EB5
100
AcDbEntity
  8
細線
100
AcDbLine
 10
153.2891519095
 20
216.518045207105
 30
0.0
 11
124.6692799095
 21
216.518045207105
 31
0.0
  0
LINE
  5
2EC1
330
2EB5
100
AcDbEntity
  8
外形線
100
AcDbLine
 10
125.0147379095
 20
228.941629207105
 30
0.0
 11
123.3011159095
 21
227.228007207105
 31
0.0
  0
ARC
  5
2EC2
330
2EB5
100
AcDbEntity
  8
細線
100
AcDbCircle
 10
126.4810479095
 20
227.420755207105
 30
0.0
 40
3.18575
100
AcDbArc
 50
183.469852255156
 51
235.339263082109
  0
LINE
  5
2EC3
330
2EB5
100
AcDbEntity
  8
細線
100
AcDbLine
 10
153.2891519095
 20
224.800395207105
 30
0.0
 11
124.6692799095
 21
224.800395207105
 31
0.0
  0
ARC
  5
2EC4
330
2EB5
100
AcDbEntity
  8
細線
100
AcDbCircle
 10
126.4810479095
 20
213.897685207105
 30
0.0
 40
3.18575
100
AcDbArc
 50
124.660776613574
 51
176.530130144749
  0
LINE
  5
2EC5
330
2EB5
100
AcDbEntity
  8
外形線
100
AcDbLine
 10
123.3011159095
 20
227.228007207105
 30
0.0
 11
123.3011159095
 21
214.090433207105
 31
0.0
  0
CIRCLE
  5
2EC6
330
2EB5
100
AcDbEntity
  8
外形線
100
AcDbCircle
 10
128.3011159095
 20
220.674073777677
 30
0.0
 40
2.28479
  0
ARC
  5
2EC7
330
2EB5
100
AcDbEntity
  8
細線
100
AcDbCircle
 10
130.2525019095
 20
220.659219207105
 30
0.0
 40
6.951389999999999
100
AcDbArc
 50
143.43540034864
 51
216.564582051267
  0
LINE
  5
2EC8
330
2EB5
100
AcDbEntity
  8
中心線
 48
10.0
100
AcDbLine
 10
128.3011159095
 20
224.291901777677
 30
0.0
 11
128.3011159095
 21
217.056245777676
 31
0.0
  0
LINE
  5
2EC9
330
2EB5
100
AcDbEntity
  8
外形線
100
AcDbLine
 10
125.0147379095
 20
212.376811207105
 30
0.0
 11
123.3011159095
 21
214.090433207105
 31
0.0
  0
LINE
  5
2ECA
330
2EB5
100
AcDbEntity
  8
外形線
100
AcDbLine
 10
125.0147379095
 20
228.941629207105
 30
0.0
 11
153.3011159095
 21
228.941629207105
 31
0.0
  0
LINE
  5
2ECB
330
2EB5
100
AcDbEntity
  8
外形線
 48
10.0
100
AcDbLine
 10
138.3011159095
 20
228.941629207105
 30
0.0
 11
138.3011159095
 21
232.651761921811
 31
0.0
  0
ENDBLK
  5
2ECC
330
2EB5
100
AcDbEntity
  8
0
 48
10.0
100
AcDbBlockEnd
  0
BLOCK
  5
2ECE
330
2ECD
100
AcDbEntity
  8
0
 48
10.0
100
AcDbBlockBegin
  2
パドル　W1立面図
 70
     0
 10
0.0
 20
0.0
 30
0.0
  3
パドル　W1立面図
  1
パドル　W1立面図
  0
LINE
  5
2ECF
330
2ECD
100
AcDbEntity
  8
外形線
 48
10.0
100
AcDbLine
 10
-4.385455455444
 20
189.61846140322
 30
0.0
 11
-7.241459969979
 21
189.61846140322
 31
0.0
  0
LINE
  5
2ED0
330
2ECD
100
AcDbEntity
  8
外形線
 48
10.0
100
AcDbLine
 10
-4.385455455444
 20
269.61846140322
 30
0.0
 11
-7.241459969979
 21
269.61846140322
 31
0.0
  0
LINE
  5
2ED1
330
2ECD
100
AcDbEntity
  8
外形線
 48
10.0
100
AcDbLine
 10
-4.385455455444
 20
189.61846140322
 30
0.0
 11
-4.385455455444
 21
269.61846140322
 31
0.0
  0
LINE
  5
2ED2
330
2ECD
100
AcDbEntity
  8
外形線
 48
10.0
100
AcDbLine
 10
-7.241459969979
 20
269.61846140322
 30
0.0
 11
-7.241459969979
 21
189.61846140322
 31
0.0
  0
LINE
  5
2ED3
330
2ECD
100
AcDbEntity
  8
外形線
100
AcDbLine
 10
-4.385468503734
 20
237.376935973808
 30
0.0
 11
1.606659496266
 21
233.917433973808
 31
0.0
  0
ARC
  5
2ED4
330
2ECD
100
AcDbEntity
  8
細線
100
AcDbCircle
 10
-5.813446503734
 20
229.633375973808
 30
0.0
 40
8.568
100
AcDbArc
 50
279.594007516002
 51
80.406014579591
  0
LINE
  5
2ED5
330
2ECD
100
AcDbEntity
  8
外形線
100
AcDbLine
 10
1.606659496266
 20
233.917433973808
 30
0.0
 11
1.606659496266
 21
225.349439973808
 31
0.0
  0
LINE
  5
2ED6
330
2ECD
100
AcDbEntity
  8
外形線
100
AcDbLine
 10
-4.385468503734
 20
221.889815973808
 30
0.0
 11
1.606659496266
 21
225.349439973808
 31
0.0
  0
ARC
  5
2ED7
330
2ECD
100
AcDbEntity
  8
細線
100
AcDbCircle
 10
-5.813446503734
 20
229.633375973808
 30
0.0
 40
7.458525999999999
100
AcDbArc
 50
281.037746568172
 51
78.962275527419
  0
LINE
  5
2ED8
330
2ECD
100
AcDbEntity
  8
外形線
100
AcDbLine
 10
-7.241454503734
 20
221.889845973808
 30
0.0
 11
-13.233550503734
 21
225.349439973808
 31
0.0
  0
LINE
  5
2ED9
330
2ECD
100
AcDbEntity
  8
外形線
100
AcDbLine
 10
-13.233550503734
 20
225.349439973808
 30
0.0
 11
-13.233550503734
 21
233.917433973808
 31
0.0
  0
LINE
  5
2EDA
330
2ECD
100
AcDbEntity
  8
外形線
100
AcDbLine
 10
-7.241454503734
 20
237.376905973808
 30
0.0
 11
-13.233550503734
 21
233.917433973808
 31
0.0
  0
ARC
  5
2EDB
330
2ECD
100
AcDbEntity
  8
細線
100
AcDbCircle
 10
-5.813446503734
 20
229.633375973808
 30
0.0
 40
7.458525999999999
100
AcDbArc
 50
101.038013199227
 51
258.962026496458
  0
ARC
  5
2EDC
330
2ECD
100
AcDbEntity
  8
細線
100
AcDbCircle
 10
-5.813446503734
 20
229.633375973808
 30
0.0
 40
8.568
100
AcDbArc
 50
99.594159555498
 51
260.405880140189
  0
ENDBLK
  5
2EDD
330
2ECD
100
AcDbEntity
  8
0
 48
10.0
100
AcDbBlockEnd
  0
BLOCK
  5
30D6
330
30CC
100
AcDbEntity
  8
0
 48
10.0
100
AcDbBlockBegin
  2
*D4
 70
     1
 10
0.0
 20
0.0
 30
0.0
  3
*D4
  1
*D4
  0
LINE
  5
3BC2
330
30CC
100
AcDbEntity
  8
寸法線
 62
     0
 48
10.0
370
    -2
100
AcDbLine
 10
-226.134559137892
 20
902.128530933505
 30
0.0
 11
-226.027115783113
 21
901.512835452349
 31
0.0
  0
LINE
  5
3BC3
330
30CC
100
AcDbEntity
  8
寸法線
 62
     0
 48
10.0
370
    -2
100
AcDbLine
 10
-73.442079811638
 20
928.774482918774
 30
0.0
 11
-73.334636456858
 21
928.158787437619
 31
0.0
  0
LINE
  5
3BC4
330
30CC
100
AcDbEntity
  8
寸法線
 62
     0
 48
10.0
370
    -2
100
AcDbLine
 10
-220.33132587359
 20
903.775682620539
 30
0.0
 11
-79.460199785497
 21
928.358722194046
 31
0.0
  0
INSERT
  5
3BC5
330
30CC
100
AcDbEntity
  8
寸法線
 62
     0
 48
10.0
370
    -2
100
AcDbBlockReference
  2
_Open30
 10
-226.242002492671
 20
902.744226414658
 30
0.0
 41
6.0
 42
6.0
 43
6.0
 50
189.898852315621
  0
INSERT
  5
3BC6
330
30CC
100
AcDbEntity
  8
寸法線
 62
     0
 48
10.0
370
    -2
100
AcDbBlockReference
  2
_Open30
 10
-73.549523166417
 20
929.390178399927
 30
0.0
 41
6.0
 42
6.0
 43
6.0
 50
9.898852315621
  0
MTEXT
  5
3BC7
330
30CC
100
AcDbEntity
  8
寸法線
 62
     0
 48
10.0
100
AcDbMText
 10
-104.818696167968
 20
928.628373477172
 30
0.0
 40
8.0
 41
0.0
 71
     5
 72
     1
  1
\A1;φ155
 11
0.9851127698468048
 21
0.1719093676468983
 31
0.0
 73
     1
 44
1.0
  0
POINT
  5
3BC8
330
30CC
100
AcDbEntity
  8
DEFPOINTS
 62
     0
 48
10.0
100
AcDbPoint
 10
-226.242002492672
 20
902.744226414659
 30
0.0
  0
POINT
  5
3BC9
330
30CC
100
AcDbEntity
  8
DEFPOINTS
 62
     0
 48
10.0
100
AcDbPoint
 10
-73.549523166417
 20
929.390178399928
 30
0.0
  0
POINT
  5
3BCA
330
30CC
100
AcDbEntity
  8
DEFPOINTS
 62
     0
 48
10.0
100
AcDbPoint
 10
-73.549523166417
 20
929.390178399927
 30
0.0
  0
ENDBLK
  5
30D7
330
30CC
100
AcDbEntity
  8
0
 48
10.0
100
AcDbBlockEnd
  0
BLOCK
  5
30E2
330
30D8
100
AcDbEntity
  8
0
 48
10.0
100
AcDbBlockBegin
  2
*D5
 70
     1
 10
0.0
 20
0.0
 30
0.0
  3
*D5
  1
*D5
  0
LINE
  5
3BB9
330
30D8
100
AcDbEntity
  8
寸法線
 62
     0
 48
10.0
370
    -2
100
AcDbLine
 10
-208.284979397122
 20
887.508287013625
 30
0.0
 11
-208.015782808502
 21
886.944231877423
 31
0.0
  0
LINE
  5
3BBA
330
30D8
100
AcDbEntity
  8
寸法線
 62
     0
 48
10.0
370
    -2
100
AcDbLine
 10
-90.961511892383
 20
943.501177052617
 30
0.0
 11
-90.692315303763
 21
942.937121916415
 31
0.0
  0
LINE
  5
3BBB
330
30D8
100
AcDbEntity
  8
寸法線
 62
     0
 48
10.0
370
    -2
100
AcDbLine
 10
-203.139246678203
 20
890.656629400573
 30
0.0
 11
-96.64563778854
 21
941.480944938072
 31
0.0
  0
INSERT
  5
3BBC
330
30D8
100
AcDbEntity
  8
寸法線
 62
     0
 48
10.0
370
    -2
100
AcDbBlockReference
  2
_Open30
 10
-208.554175985741
 20
888.072342149827
 30
0.0
 41
6.0
 42
6.0
 43
6.0
 50
205.512915306565
  0
INSERT
  5
3BBD
330
30D8
100
AcDbEntity
  8
寸法線
 62
     0
 48
10.0
370
    -2
100
AcDbBlockReference
  2
_Open30
 10
-91.230708481002
 20
944.065232188818
 30
0.0
 41
6.0
 42
6.0
 43
6.0
 50
25.512915306565
  0
MTEXT
  5
3BBE
330
30D8
100
AcDbEntity
  8
寸法線
 62
     0
 48
10.0
100
AcDbMText
 10
-109.995072682061
 20
940.234617605487
 30
0.0
 40
8.0
 41
0.0
 71
     5
 72
     1
  1
\A1;φ130
 11
0.9024882179229283
 21
0.4307145417910766
 31
0.0
 73
     1
 44
1.0
  0
POINT
  5
3BBF
330
30D8
100
AcDbEntity
  8
DEFPOINTS
 62
     0
 48
10.0
100
AcDbPoint
 10
-208.554175985741
 20
888.072342149827
 30
0.0
  0
POINT
  5
3BC0
330
30D8
100
AcDbEntity
  8
DEFPOINTS
 62
     0
 48
10.0
100
AcDbPoint
 10
-91.230708481002
 20
944.065232188818
 30
0.0
  0
POINT
  5
3BC1
330
30D8
100
AcDbEntity
  8
DEFPOINTS
 62
     0
 48
10.0
100
AcDbPoint
 10
-91.230708481002
 20
944.065232188818
 30
0.0
  0
ENDBLK
  5
30E3
330
30D8
100
AcDbEntity
  8
0
 48
10.0
100
AcDbBlockEnd
  0
BLOCK
  5
3108
330
30FC
100
AcDbEntity
  8
0
 48
10.0
100
AcDbBlockBegin
  2
*D6
 70
     1
 10
0.0
 20
0.0
 30
0.0
  3
*D6
  1
*D6
  0
LINE
  5
3B76
330
30FC
100
AcDbEntity
  8
寸法線
 62
     0
 48
10.0
370
    -2
100
AcDbLine
 10
-151.314221295789
 20
885.60844567877
 30
0.0
 11
-151.314221295789
 21
886.238005824116
 31
0.0
  0
LINE
  5
3B77
330
30FC
100
AcDbEntity
  8
寸法線
 62
     0
 48
10.0
370
    -2
100
AcDbLine
 10
-148.458216781254
 20
885.60844567877
 30
0.0
 11
-148.458216781254
 21
886.238005824116
 31
0.0
  0
LINE
  5
3B78
330
30FC
100
AcDbEntity
  8
寸法線
 62
     0
 48
10.0
370
    -2
100
AcDbLine
 10
-157.314221295789
 20
884.988005824116
 30
0.0
 11
-163.314221295789
 21
884.988005824116
 31
0.0
  0
LINE
  5
3B79
330
30FC
100
AcDbEntity
  8
寸法線
 62
     0
 48
10.0
370
    -2
100
AcDbLine
 10
-142.458216781254
 20
884.988005824116
 30
0.0
 11
-125.276845931356
 21
884.988005824116
 31
0.0
  0
LINE
  5
3B7A
330
30FC
100
AcDbEntity
  8
寸法線
 62
     0
 48
10.0
370
    -2
100
AcDbLine
 10
-151.314221295789
 20
884.988005824116
 30
0.0
 11
-148.458216781254
 21
884.988005824116
 31
0.0
  0
INSERT
  5
3B7B
330
30FC
100
AcDbEntity
  8
寸法線
 62
     0
 48
10.0
370
    -2
100
AcDbBlockReference
  2
_Open30
 10
-151.314221295789
 20
884.988005824116
 30
0.0
 41
6.0
 42
6.0
 43
6.0
  0
INSERT
  5
3B7C
330
30FC
100
AcDbEntity
  8
寸法線
 62
     0
 48
10.0
370
    -2
100
AcDbBlockReference
  2
_Open30
 10
-148.458216781254
 20
884.988005824116
 30
0.0
 41
6.0
 42
6.0
 43
6.0
 50
180.0
  0
MTEXT
  5
3B7D
330
30FC
100
AcDbEntity
  8
寸法線
 62
     0
 48
10.0
100
AcDbMText
 10
-130.867531356305
 20
889.613005824116
 30
0.0
 40
8.0
 41
0.0
 71
     5
 72
     1
  1
\A1;1.5
 73
     1
 44
1.0
  0
POINT
  5
3B7E
330
30FC
100
AcDbEntity
  8
DEFPOINTS
 62
     0
 48
10.0
100
AcDbPoint
 10
-151.314221295789
 20
884.98344567877
 30
0.0
  0
POINT
  5
3B7F
330
30FC
100
AcDbEntity
  8
DEFPOINTS
 62
     0
 48
10.0
100
AcDbPoint
 10
-148.458216781254
 20
884.98344567877
 30
0.0
  0
POINT
  5
3B80
330
30FC
100
AcDbEntity
  8
DEFPOINTS
 62
     0
 48
10.0
100
AcDbPoint
 10
-148.458216781254
 20
884.988005824116
 30
0.0
  0
ENDBLK
  5
3109
330
30FC
100
AcDbEntity
  8
0
 48
10.0
100
AcDbBlockEnd
  0
BLOCK
  5
3186
330
3185
100
AcDbEntity
  8
0
 48
10.0
100
AcDbBlockBegin
  2
PRL-100 ケース
 70
     0
 10
0.0
 20
0.0
 30
0.0
  3
PRL-100 ケース
  1
PRL-100 ケース
  0
ARC
  5
3187
330
3185
100
AcDbEntity
  8
細線
100
AcDbCircle
 10
-2866.31607772969
 20
752.770649344789
 30
0.0
 40
36.766532
100
AcDbArc
 50
68.885514212384
 51
115.211785839405
  0
LINE
  5
3188
330
3185
100
AcDbEntity
  8
外形線
100
AcDbLine
 10
-2880.92594172969
 20
759.253621344789
 30
0.0
 11
-2852.93704972969
 21
759.253621344789
 31
0.0
  0
LINE
  5
3189
330
3185
100
AcDbEntity
  8
外形線
100
AcDbLine
 10
-2879.49796372969
 20
754.112813344789
 30
0.0
 11
-2854.36514972969
 21
754.112813344789
 31
0.0
  0
ARC
  5
318A
330
3185
100
AcDbEntity
  8
細線
100
AcDbCircle
 10
-2866.93155772969
 20
768.649495344789
 30
0.0
 40
14.53669
100
AcDbArc
 50
244.3907930338
 51
295.609209213942
  0
LINE
  5
318B
330
3185
100
AcDbEntity
  8
外形線
100
AcDbLine
 10
-2878.12638172969
 20
763.537647344789
 30
0.0
 11
-2855.72391572969
 21
763.537647344789
 31
0.0
  0
LINE
  5
318C
330
3185
100
AcDbEntity
  8
外形線
100
AcDbLine
 10
-2890.145893750616
 20
873.587239344789
 30
0.0
 11
-2853.07157172969
 21
875.666829344789
 31
0.0
  0
LINE
  5
318D
330
3185
100
AcDbEntity
  8
外形線
100
AcDbLine
 10
-2933.93155772969
 20
752.470783344789
 30
0.0
 11
-2933.93155772969
 21
907.470783344789
 31
0.0
  0
LINE
  5
318E
330
3185
100
AcDbEntity
  8
外形線
100
AcDbLine
 10
-2923.93155772969
 20
907.470783344789
 30
0.0
 11
-2923.93155772969
 21
752.470783344789
 31
0.0
  0
LINE
  5
318F
330
3185
100
AcDbEntity
  8
細線
100
AcDbLine
 10
-2906.224385750616
 20
852.818807344789
 30
0.0
 11
-2906.224385750616
 21
807.122761344789
 31
0.0
  0
LINE
  5
3190
330
3185
100
AcDbEntity
  8
細線
100
AcDbLine
 10
-2893.943501750616
 20
869.098011344789
 30
0.0
 11
-2893.943501750616
 21
790.843617344789
 31
0.0
  0
LINE
  5
3191
330
3185
100
AcDbEntity
  8
外形線
100
AcDbLine
 10
-2883.19437372969
 20
783.503987344789
 30
0.0
 11
-2880.95926772969
 21
766.031269344789
 31
0.0
  0
LINE
  5
3192
330
3185
100
AcDbEntity
  8
中心線
 48
10.0
100
AcDbLine
 10
-2944.21661474548
 20
764.970783344789
 30
0.0
 11
-2911.612778792372
 21
764.970783344789
 31
0.0
  0
LINE
  5
3193
330
3185
100
AcDbEntity
  8
外形線
100
AcDbLine
 10
-2933.93155772969
 20
752.470783344789
 30
0.0
 11
-2923.93155772969
 21
752.470783344789
 31
0.0
  0
LINE
  5
3194
330
3185
100
AcDbEntity
  8
外形線
100
AcDbLine
 10
-2880.92594172969
 20
759.253621344789
 30
0.0
 11
-2880.92594172969
 21
755.540853344789
 31
0.0
  0
LINE
  5
3195
330
3185
100
AcDbEntity
  8
細線
100
AcDbLine
 10
-2873.21475972969
 20
755.540853344789
 30
0.0
 11
-2873.21475972969
 21
759.253621344789
 31
0.0
  0
LINE
  5
3196
330
3185
100
AcDbEntity
  8
外形線
100
AcDbLine
 10
-2880.92594172969
 20
755.540853344789
 30
0.0
 11
-2879.49796372969
 21
754.112813344789
 31
0.0
  0
ARC
  5
3197
330
3185
100
AcDbEntity
  8
細線
100
AcDbCircle
 10
-2880.35391972969
 20
772.415731344789
 30
0.0
 40
18.322924
100
AcDbArc
 50
272.67766208363
 51
292.93154825417
  0
ARC
  5
3198
330
3185
100
AcDbEntity
  8
外形線
100
AcDbCircle
 10
-2878.12638172969
 20
766.393635344789
 30
0.0
 40
2.856
100
AcDbArc
 50
187.289418100615
 51
270.0
  0
LINE
  5
3199
330
3185
100
AcDbEntity
  8
外形線
100
AcDbLine
 10
-2876.35636172969
 20
759.253621344789
 30
0.0
 11
-2876.35636172969
 21
763.537617344789
 31
0.0
  0
LINE
  5
319A
330
3185
100
AcDbEntity
  8
細線
100
AcDbLine
 10
-2874.07157172969
 20
763.537617344789
 30
0.0
 11
-2874.07157172969
 21
759.253621344789
 31
0.0
  0
LWPOLYLINE
  5
319B
330
3185
100
AcDbEntity
  8
外形線
100
AcDbPolyline
 90
       67
 70
     0
 43
0.0
 10
-2890.145893750616
 20
786.354329344789
 10
-2890.186654669536
 20
786.366077023327
 10
-2890.301838572774
 20
786.400458633809
 10
-2890.480797180054
 20
786.456182038531
 10
-2890.7128822111
 20
786.531955099793
 10
-2890.987445385636
 20
786.626485679891
 10
-2891.293838423382
 20
786.738481641127
 10
-2891.621413044066
 20
786.866650845797
 10
-2891.959520967408
 20
787.009701156199
 10
-2892.29751391313
 20
787.166340434633
 10
-2892.62474360096
 20
787.335276543397
 10
-2892.930561750616
 20
787.515217344789
 10
-2893.2750874832
 20
787.757196572383
 10
-2893.573198691538
 20
788.013376036193
 10
-2893.829948065176
 20
788.282363927155
 10
-2894.050388293662
 20
788.562768436207
 10
-2894.239572066538
 20
788.853197754285
 10
-2894.402552073354
 20
789.152260072327
 10
-2894.544381003654
 20
789.458563581269
 10
-2894.670111546984
 20
789.770716472049
 10
-2894.78479639289
 20
790.087326935605
 10
-2894.89348823092
 20
790.407003162873
 10
-2895.001239750616
 20
790.728353344789
 10
-2895.22891206995
 20
791.376818244103
 10
-2895.472319393242
 20
792.025524444673
 10
-2895.73051137667
 20
792.673568483095
 10
-2896.002537676416
 20
793.320046895967
 10
-2896.287447948658
 20
793.964056219885
 10
-2896.584291849578
 20
794.604692991447
 10
-2896.892119035354
 20
795.241053747247
 10
-2897.209979162166
 20
795.872235023887
 10
-2897.536921886194
 20
796.497333357957
 10
-2897.871996863618
 20
797.115445286059
 10
-2898.214253750616
 20
797.725667344789
 10
-2898.47254642542
 20
798.173784867737
 10
-2898.73316272561
 20
798.618573878527
 10
-2898.994985373496
 20
799.061561306953
 10
-2899.256897091384
 20
799.504274082811
 10
-2899.517780601584
 20
799.948239135899
 10
-2899.776518626406
 20
800.394983396009
 10
-2900.031993888156
 20
800.846033792941
 10
-2900.283089109143
 20
801.302917256489
 10
-2900.528687011676
 20
801.767160716449
 10
-2900.767670318066
 20
802.240291102617
 10
-2900.998921750616
 20
802.723835344789
 10
-2901.160354231022
 20
803.077093722977
 10
-2901.322307525548
 20
803.431578565659
 10
-2901.489857039888
 20
803.782370504911
 10
-2901.66807817973
 20
804.124550172811
 10
-2901.862046350762
 20
804.453198201437
 10
-2902.076836958679
 20
804.763395222867
 10
-2902.317525409164
 20
805.050221869177
 10
-2902.589187107912
 20
805.308758772447
 10
-2902.89689746061
 20
805.534086564755
 10
-2903.245731872948
 20
805.721285878175
 10
-2903.640765750616
 20
805.865437344789
 10
-2904.079618849998
 20
805.962928468561
 10
-2904.55284462682
 20
806.019843776871
 10
-2905.044394260766
 20
806.042776345407
 10
-2905.538218931518
 20
806.038319249863
 10
-2906.018269818758
 20
806.013065565927
 10
-2906.468498102166
 20
805.973608369291
 10
-2906.872854961426
 20
805.926540735645
 10
-2907.21529157622
 20
805.878455740683
 10
-2907.479759126228
 20
805.835946460091
 10
-2907.650208791134
 20
805.805605969563
 10
-2907.710591750616
 20
805.794027344789
  0
ARC
  5
319C
330
3185
100
AcDbEntity
  8
外形線
100
AcDbCircle
 10
-2886.02725972969
 20
783.141561344789
 30
0.0
 40
2.856
100
AcDbArc
 50
7.289398252773
 51
86.905894590757
  0
LINE
  5
319D
330
3185
100
AcDbEntity
  8
外形線
100
AcDbLine
 10
-2890.145893750616
 20
786.354329344789
 30
0.0
 11
-2885.873104035988
 21
785.993397949873
 31
0.0
  0
LINE
  5
319E
330
3185
100
AcDbEntity
  8
外形線
100
AcDbLine
 10
-2907.710591750616
 20
805.794027344789
 30
0.0
 11
-2922.276385750616
 21
803.794759344789
 31
0.0
  0
ARC
  5
319F
330
3185
100
AcDbEntity
  8
外形線
100
AcDbCircle
 10
-2921.157977750616
 20
801.251789344789
 30
0.0
 40
2.778136
100
AcDbArc
 50
113.741117770861
 51
176.718232188895
  0
LINE
  5
31A0
330
3185
100
AcDbEntity
  8
外形線
100
AcDbLine
 10
-2959.53153372969
 20
841.670856344789
 30
0.0
 11
-2956.15963321196
 21
844.821980344789
 31
0.0
  0
LINE
  5
31A1
330
3185
100
AcDbEntity
  8
細線
100
AcDbLine
 10
-2939.35782772969
 20
844.821980344789
 30
0.0
 11
-2939.35782772969
 21
815.119586344789
 31
0.0
  0
ARC
  5
31A2
330
3185
100
AcDbEntity
  8
細線
100
AcDbCircle
 10
-2949.669256764438
 20
829.970782344789
 30
0.0
 40
9.86227696525272
100
AcDbArc
 50
131.155220883625
 51
228.844779116375
  0
LINE
  5
31A3
330
3185
100
AcDbEntity
  8
外形線
100
AcDbLine
 10
-2959.53153372969
 20
841.670856344789
 30
0.0
 11
-2959.53153372969
 21
818.270710344789
 31
0.0
  0
LINE
  5
31A4
330
3185
100
AcDbEntity
  8
細線
100
AcDbLine
 10
-2939.35782772969
 20
822.545183344789
 30
0.0
 11
-2956.15963321196
 21
822.545183344789
 31
0.0
  0
LINE
  5
31A5
330
3185
100
AcDbEntity
  8
外形線
100
AcDbLine
 10
-2956.15963525558
 20
815.119586344789
 30
0.0
 11
-2933.93155772969
 21
815.119586344789
 31
0.0
  0
LINE
  5
31A6
330
3185
100
AcDbEntity
  8
外形線
100
AcDbLine
 10
-2959.53153372969
 20
818.270710344789
 30
0.0
 11
-2956.00040572969
 21
814.970782344789
 31
0.0
  0
ARC
  5
31A7
330
3185
100
AcDbEntity
  8
細線
100
AcDbCircle
 10
-2951.938149287948
 20
815.747892766997
 30
0.0
 40
8.00150521587242
100
AcDbArc
 50
121.842510322088
 51
161.621519846141
  0
LINE
  5
31A8
330
3185
100
AcDbEntity
  8
細線
100
AcDbLine
 10
-2939.35782772969
 20
837.396381344789
 30
0.0
 11
-2956.15963321196
 21
837.396381344789
 31
0.0
  0
ARC
  5
31A9
330
3185
100
AcDbEntity
  8
細線
100
AcDbCircle
 10
-2951.938149287948
 20
844.193671922581
 30
0.0
 40
8.00150521587242
100
AcDbArc
 50
198.378480153859
 51
238.157489677912
  0
LINE
  5
31AA
330
3185
100
AcDbEntity
  8
外形線
100
AcDbLine
 10
-2956.15963321196
 20
844.821980344789
 30
0.0
 11
-2933.93155772969
 21
844.821980344789
 31
0.0
  0
LWPOLYLINE
  5
31AB
330
3185
100
AcDbEntity
  8
外形線
100
AcDbPolyline
 90
       67
 70
     0
 43
0.0
 10
-2890.145893750616
 20
873.587239344789
 10
-2890.186654606264
 20
873.575491590821
 10
-2890.301838344996
 20
873.541109784219
 10
-2890.4807967245
 20
873.485386107949
 10
-2890.712881502462
 20
873.409612744965
 10
-2890.987444436566
 20
873.315081878231
 10
-2891.2938372845
 20
873.203085690703
 10
-2891.621411803948
 20
873.074916365345
 10
-2891.959519752598
 20
872.931866085115
 10
-2892.297512888136
 20
872.775227032971
 10
-2892.624742968248
 20
872.606291391877
 10
-2892.930561750616
 20
872.426351344789
 10
-2893.275080074904
 20
872.184380214897
 10
-2893.573186651598
 20
871.928210025463
 10
-2893.829933738582
 20
871.659232392877
 10
-2894.050373593738
 20
871.378838933519
 10
-2894.239558474946
 20
871.088421263775
 10
-2894.402540640086
 20
870.789371000033
 10
-2894.54437234704
 20
870.483079758675
 10
-2894.67010585369
 20
870.170939156087
 10
-2894.784793417916
 20
869.854340808653
 10
-2894.893487297596
 20
869.534676332759
 10
-2895.001239750616
 20
869.213337344789
 10
-2895.228919299172
 20
868.564866108155
 10
-2895.472329835476
 20
867.916150979021
 10
-2895.7305218725
 20
867.268095967635
 10
-2896.002545923208
 20
866.621605084239
 10
-2896.28745250057
 20
865.977582339079
 10
-2896.58429211755
 20
865.336931742399
 10
-2896.89211528712
 20
864.700557304447
 10
-2897.209972522242
 20
864.069363035465
 10
-2897.536914335888
 20
863.444252945697
 10
-2897.871991241024
 20
862.826131045391
 10
-2898.214253750616
 20
862.215901344789
 10
-2898.47254477014
 20
861.767794599653
 10
-2898.733161212218
 20
861.323017333245
 10
-2898.994985310452
 20
860.880042314457
 10
-2899.25689929845
 20
860.437342312171
 10
-2899.517785409816
 20
859.993390095277
 10
-2899.776525878154
 20
859.546658432661
 10
-2900.03200293707
 20
859.095620093209
 10
-2900.283098820169
 20
858.638747845811
 10
-2900.528695761056
 20
858.174514459349
 10
-2900.767675993338
 20
857.701392702713
 10
-2900.998921750616
 20
857.217855344789
 10
-2901.16035494029
 20
856.864585967801
 10
-2901.322307433096
 20
856.510088950181
 10
-2901.489855091102
 20
856.159284045757
 10
-2901.668073776378
 20
855.817091008361
 10
-2901.86203935099
 20
855.488429591815
 10
-2902.076827677012
 20
855.178219549949
 10
-2902.317514616508
 20
854.891380636591
 10
-2902.589176031546
 20
854.632832605569
 10
-2902.8968877842
 20
854.407495210709
 10
-2903.245725736534
 20
854.220288205841
 10
-2903.640765750616
 20
854.076131344789
 10
-2904.07961724097
 20
853.978639102299
 10
-2904.552842020198
 20
853.921723100385
 10
-2905.044391171436
 20
853.898790196233
 10
-2905.538215777826
 20
853.903247247031
 10
-2906.018266922511
 20
853.928501109961
 10
-2906.468495688628
 20
853.967958642211
 10
-2906.872853159318
 20
854.015026700969
 10
-2907.215290417722
 20
854.063112143419
 10
-2907.47975854698
 20
854.105621826749
 10
-2907.65020863023
 20
854.135962608143
 10
-2907.710591750616
 20
854.147541344789
  0
LINE
  5
31AC
330
3185
100
AcDbEntity
  8
外形線
100
AcDbLine
 10
-2907.710591750616
 20
854.147541344789
 30
0.0
 11
-2922.276385750616
 21
856.146809344789
 31
0.0
  0
ARC
  5
31AD
330
3185
100
AcDbEntity
  8
外形線
100
AcDbCircle
 10
-2921.157977750616
 20
858.689901344789
 30
0.0
 40
2.778136
100
AcDbArc
 50
183.281807506792
 51
246.258864629059
  0
LINE
  5
31AE
330
3185
100
AcDbEntity
  8
中心線
 48
10.0
370
    -3
100
AcDbLine
 10
-2944.086052498169
 20
894.970783344789
 30
0.0
 11
-2911.482216545061
 21
894.970783344789
 31
0.0
  0
LINE
  5
31AF
330
3185
100
AcDbEntity
  8
外形線
100
AcDbLine
 10
-2933.93155772969
 20
907.470783344789
 30
0.0
 11
-2923.93155772969
 21
907.470783344789
 31
0.0
  0
LINE
  5
31B0
330
3185
100
AcDbEntity
  8
外形線
100
AcDbLine
 10
-2828.22440372969
 20
880.970783344789
 30
0.0
 11
-2824.51163572969
 21
878.522785344789
 31
0.0
  0
LINE
  5
31B1
330
3185
100
AcDbEntity
  8
細線
100
AcDbLine
 10
-2828.22440372969
 20
875.666829344789
 30
0.0
 11
-2828.22440372969
 21
880.970783344789
 31
0.0
  0
LINE
  5
31B2
330
3185
100
AcDbEntity
  8
外形線
100
AcDbLine
 10
-2853.07157172969
 20
875.666829344789
 30
0.0
 11
-2850.21561572969
 21
880.970783344789
 31
0.0
  0
LINE
  5
31B3
330
3185
100
AcDbEntity
  8
細線
100
AcDbLine
 10
-2850.21561572969
 20
880.970783344789
 30
0.0
 11
-2850.21561572969
 21
778.970783344789
 31
0.0
  0
LINE
  5
31B4
330
3185
100
AcDbEntity
  8
外形線
100
AcDbLine
 10
-2845.93155772969
 20
880.970783344789
 30
0.0
 11
-2845.93155772969
 21
778.970783344789
 31
0.0
  0
LINE
  5
31B5
330
3185
100
AcDbEntity
  8
外形線
100
AcDbLine
 10
-2843.93241172969
 20
778.970783344789
 30
0.0
 11
-2843.93241172969
 21
880.970783344789
 31
0.0
  0
LINE
  5
31B6
330
3185
100
AcDbEntity
  8
外形線
100
AcDbLine
 10
-2793.66678772969
 20
829.970783344789
 30
0.0
 11
-2793.66678772969
 21
787.482503344789
 31
0.0
  0
LINE
  5
31B7
330
3185
100
AcDbEntity
  8
外形線
100
AcDbLine
 10
-2783.95633772969
 20
806.551595344789
 30
0.0
 11
-2783.95633772969
 21
823.973225344789
 31
0.0
  0
LINE
  5
31B8
330
3185
100
AcDbEntity
  8
細線
100
AcDbLine
 10
-2828.22440372969
 20
825.686849344789
 30
0.0
 11
-2828.22440372969
 21
807.122761344789
 31
0.0
  0
LINE
  5
31B9
330
3185
100
AcDbEntity
  8
細線
100
AcDbLine
 10
-2853.07157172969
 20
875.666829344789
 30
0.0
 11
-2853.07157172969
 21
786.963093344789
 31
0.0
  0
LINE
  5
31BA
330
3185
100
AcDbEntity
  8
細線
100
AcDbLine
 10
-2824.51163572969
 20
878.522785344789
 30
0.0
 11
-2824.51163572969
 21
781.418781344789
 31
0.0
  0
LINE
  5
31BB
330
3185
100
AcDbEntity
  8
外形線
100
AcDbLine
 10
-2851.284784319098
 20
778.102677183965
 30
0.0
 11
-2852.89286581957
 21
766.016949260083
 31
0.0
  0
LINE
  5
31BC
330
3185
100
AcDbEntity
  8
中心線
 48
10.0
100
AcDbLine
 10
-2866.93155772969
 20
803.629963344789
 30
0.0
 11
-2866.93155772969
 21
748.027669344789
 31
0.0
  0
LINE
  5
31BD
330
3185
100
AcDbEntity
  8
細線
100
AcDbLine
 10
-2860.64835372969
 20
755.540853344789
 30
0.0
 11
-2860.64835372969
 21
759.253621344789
 31
0.0
  0
LINE
  5
31BE
330
3185
100
AcDbEntity
  8
外形線
100
AcDbLine
 10
-2852.93704972969
 20
759.253621344789
 30
0.0
 11
-2852.93704972969
 21
755.540853344789
 31
0.0
  0
ARC
  5
31BF
330
3185
100
AcDbEntity
  8
細線
100
AcDbCircle
 10
-2853.50919372969
 20
772.415731344789
 30
0.0
 40
18.322924
100
AcDbArc
 50
247.068453993571
 51
267.322397459894
  0
LINE
  5
31C0
330
3185
100
AcDbEntity
  8
外形線
100
AcDbLine
 10
-2852.93704972969
 20
755.540853344789
 30
0.0
 11
-2854.36514972969
 21
754.112813344789
 31
0.0
  0
ARC
  5
31C1
330
3185
100
AcDbEntity
  8
外形線
100
AcDbCircle
 10
-2855.72391572969
 20
766.393635344789
 30
0.0
 40
2.856
100
AcDbArc
 50
270.0
 51
352.421011277475
  0
LINE
  5
31C2
330
3185
100
AcDbEntity
  8
外形線
100
AcDbLine
 10
-2857.50675172969
 20
759.253621344789
 30
0.0
 11
-2857.50675172969
 21
763.537617344789
 31
0.0
  0
LINE
  5
31C3
330
3185
100
AcDbEntity
  8
細線
100
AcDbLine
 10
-2859.79154172969
 20
763.537617344789
 30
0.0
 11
-2859.79154172969
 21
759.253621344789
 31
0.0
  0
LINE
  5
31C4
330
3185
100
AcDbEntity
  8
外形線
100
AcDbLine
 10
-2824.51163572969
 20
781.418781344789
 30
0.0
 11
-2798.29740172969
 21
782.632467344789
 31
0.0
  0
LINE
  5
31C5
330
3185
100
AcDbEntity
  8
細線
100
AcDbLine
 10
-2828.22440372969
 20
799.126057344789
 30
0.0
 11
-2828.22440372969
 21
787.701985344789
 31
0.0
  0
LINE
  5
31C6
330
3185
100
AcDbEntity
  8
外形線
100
AcDbLine
 10
-2850.293520471686
 20
778.970783344789
 30
0.0
 11
-2828.22440372969
 21
778.970783344789
 31
0.0
  0
ARC
  5
31C7
330
3185
100
AcDbEntity
  8
外形線
100
AcDbCircle
 10
-2850.293520471686
 20
777.970783344789
 30
0.0
 40
1.0
100
AcDbArc
 50
90.0
 51
172.420956229591
  0
LINE
  5
31C8
330
3185
100
AcDbEntity
  8
細線
100
AcDbLine
 10
-2850.21561572969
 20
778.970783344789
 30
0.0
 11
-2853.07157172969
 21
787.068767895563
 31
0.0
  0
ARC
  5
31C9
330
3185
100
AcDbEntity
  8
外形線
100
AcDbCircle
 10
-2826.238319729689
 20
785.988363344789
 30
0.0
 40
1.714446
100
AcDbArc
 50
271.804703586974
 51
88.195318508605
  0
LINE
  5
31CA
330
3185
100
AcDbEntity
  8
外形線
100
AcDbLine
 10
-2826.18430372969
 20
784.274861344789
 30
0.0
 11
-2843.93241172969
 21
784.274861344789
 31
0.0
  0
LINE
  5
31CB
330
3185
100
AcDbEntity
  8
外形線
100
AcDbLine
 10
-2826.18430372969
 20
787.701985344789
 30
0.0
 11
-2843.93241172969
 21
787.701985344789
 31
0.0
  0
LINE
  5
31CC
330
3185
100
AcDbEntity
  8
外形線
100
AcDbLine
 10
-2824.51163572969
 20
781.418781344789
 30
0.0
 11
-2828.22440372969
 21
778.970783344789
 31
0.0
  0
LINE
  5
31CD
330
3185
100
AcDbEntity
  8
細線
100
AcDbLine
 10
-2828.22440372969
 20
784.274861344789
 30
0.0
 11
-2828.22440372969
 21
778.970783344789
 31
0.0
  0
LINE
  5
31CE
330
3185
100
AcDbEntity
  8
外形線
100
AcDbLine
 10
-2843.93241172969
 20
807.122761344789
 30
0.0
 11
-2828.22440372969
 21
807.122761344789
 31
0.0
  0
LINE
  5
31CF
330
3185
100
AcDbEntity
  8
外形線
100
AcDbLine
 10
-2843.93241172969
 20
799.126057344789
 30
0.0
 11
-2828.13529372969
 21
799.126057344789
 31
0.0
  0
ARC
  5
31D0
330
3185
100
AcDbEntity
  8
外形線
100
AcDbCircle
 10
-2828.55045372969
 20
803.120321344789
 30
0.0
 40
4.015794000000001
100
AcDbArc
 50
275.934583374273
 51
85.343077308664
  0
ARC
  5
31D1
330
3185
100
AcDbEntity
  8
外形線
100
AcDbCircle
 10
-2798.52201172969
 20
787.482503344789
 30
0.0
 40
4.8552
100
AcDbArc
 50
272.650733067261
 51
359.999982399901
  0
LINE
  5
31D2
330
3185
100
AcDbEntity
  8
外形線
100
AcDbLine
 10
-2791.58798972969
 20
804.552449344789
 30
0.0
 11
-2785.95560572969
 21
804.552449344789
 31
0.0
  0
LINE
  5
31D3
330
3185
100
AcDbEntity
  8
外形線
100
AcDbLine
 10
-2793.66678772969
 20
796.841267344789
 30
0.0
 11
-2785.86783772969
 21
796.841267344789
 31
0.0
  0
LINE
  5
31D4
330
3185
100
AcDbEntity
  8
外形線
100
AcDbLine
 10
-2791.58805172969
 20
800.554035344789
 30
0.0
 11
-2785.61795972969
 21
800.554035344789
 31
0.0
  0
ARC
  5
31D5
330
3185
100
AcDbEntity
  8
外形線
100
AcDbCircle
 10
-2791.66629772969
 20
802.553273344789
 30
0.0
 40
2.000724
100
AcDbArc
 50
87.757023395436
 51
272.242959004484
  0
ARC
  5
31D6
330
3185
100
AcDbEntity
  8
外形線
100
AcDbCircle
 10
-2785.95560572969
 20
806.551595344789
 30
0.0
 40
1.9992
100
AcDbArc
 50
270.0
 51
359.999982399901
  0
ARC
  5
31D7
330
3185
100
AcDbEntity
  8
外形線
100
AcDbCircle
 10
-2785.81851972969
 20
798.702717344789
 30
0.0
 40
1.86215
100
AcDbArc
 50
268.482178628784
 51
83.815801009983
  0
LINE
  5
31D8
330
3185
100
AcDbEntity
  8
外形線
100
AcDbLine
 10
-2783.95633772969
 20
853.389973344789
 30
0.0
 11
-2783.95633772969
 21
835.968343344789
 31
0.0
  0
LINE
  5
31D9
330
3185
100
AcDbEntity
  8
細線
100
AcDbLine
 10
-2828.22440372969
 20
834.254841344789
 30
0.0
 11
-2828.22440372969
 21
852.818807344789
 31
0.0
  0
LINE
  5
31DA
330
3185
100
AcDbEntity
  8
外形線
100
AcDbLine
 10
-2793.66678772969
 20
829.970783344789
 30
0.0
 11
-2793.66678772969
 21
872.459187344789
 31
0.0
  0
ARC
  5
31DB
330
3185
100
AcDbEntity
  8
外形線
100
AcDbCircle
 10
-2829.51151372969
 20
830.553303344789
 30
0.0
 40
5.033766
100
AcDbArc
 50
284.815257311476
 51
353.355849216014
  0
LINE
  5
31DC
330
3185
100
AcDbEntity
  8
外形線
100
AcDbLine
 10
-2843.93241172969
 20
825.686849344789
 30
0.0
 11
-2828.22440372969
 21
825.686849344789
 31
0.0
  0
ARC
  5
31DD
330
3185
100
AcDbEntity
  8
外形線
100
AcDbCircle
 10
-2829.51151372969
 20
829.388387344789
 30
0.0
 40
5.033766
100
AcDbArc
 50
6.644133183896
 51
75.184725088441
  0
LINE
  5
31DE
330
3185
100
AcDbEntity
  8
外形線
100
AcDbLine
 10
-2843.93241172969
 20
834.254841344789
 30
0.0
 11
-2828.22440372969
 21
834.254841344789
 31
0.0
  0
ARC
  5
31DF
330
3185
100
AcDbEntity
  8
外形線
100
AcDbCircle
 10
-2791.51236772969
 20
828.118001344789
 30
0.0
 40
2.15556
100
AcDbArc
 50
181.910948686163
 51
264.487402289583
  0
ARC
  5
31E0
330
3185
100
AcDbEntity
  8
外形線
100
AcDbCircle
 10
-2785.95560572969
 20
823.973225344789
 30
0.0
 40
1.9992
100
AcDbArc
 50
0.0
 51
89.999981276021
  0
LINE
  5
31E1
330
3185
100
AcDbEntity
  8
外形線
100
AcDbLine
 10
-2791.71939972969
 20
825.972493344789
 30
0.0
 11
-2785.95560572969
 21
825.972493344789
 31
0.0
  0
LINE
  5
31E2
330
3185
100
AcDbEntity
  8
外形線
100
AcDbLine
 10
-2791.71939972969
 20
833.969197344789
 30
0.0
 11
-2785.95560572969
 21
833.969197344789
 31
0.0
  0
ARC
  5
31E3
330
3185
100
AcDbEntity
  8
外形線
100
AcDbCircle
 10
-2791.51236772969
 20
831.823689344789
 30
0.0
 40
2.15556
100
AcDbArc
 50
95.512637406103
 51
178.08903371374
  0
ARC
  5
31E4
330
3185
100
AcDbEntity
  8
外形線
100
AcDbCircle
 10
-2785.95560572969
 20
835.968343344789
 30
0.0
 40
1.9992
100
AcDbArc
 50
270.0
 51
359.999982399908
  0
LINE
  5
31E5
330
3185
100
AcDbEntity
  8
外形線
100
AcDbLine
 10
-2824.51163572969
 20
878.522785344789
 30
0.0
 11
-2798.29740172969
 21
877.309163344789
 31
0.0
  0
LINE
  5
31E6
330
3185
100
AcDbEntity
  8
細線
100
AcDbLine
 10
-2828.22440372969
 20
860.815633344789
 30
0.0
 11
-2828.22440372969
 21
872.239583344789
 31
0.0
  0
LINE
  5
31E7
330
3185
100
AcDbEntity
  8
外形線
100
AcDbLine
 10
-2843.93241172969
 20
860.815633344789
 30
0.0
 11
-2828.13529372969
 21
860.815633344789
 31
0.0
  0
LINE
  5
31E8
330
3185
100
AcDbEntity
  8
外形線
100
AcDbLine
 10
-2843.93241172969
 20
852.818807344789
 30
0.0
 11
-2828.22440372969
 21
852.818807344789
 31
0.0
  0
ARC
  5
31E9
330
3185
100
AcDbEntity
  8
外形線
100
AcDbCircle
 10
-2828.55045372969
 20
856.821369344789
 30
0.0
 40
4.015794000000001
100
AcDbArc
 50
274.656944786914
 51
84.065438721313
  0
ARC
  5
31EA
330
3185
100
AcDbEntity
  8
外形線
100
AcDbCircle
 10
-2826.238319729689
 20
873.953205344789
 30
0.0
 40
1.714446
100
AcDbArc
 50
271.804703586974
 51
88.195318508605
  0
LINE
  5
31EB
330
3185
100
AcDbEntity
  8
外形線
100
AcDbLine
 10
-2826.18430372969
 20
875.666829344789
 30
0.0
 11
-2843.93241172969
 21
875.666829344789
 31
0.0
  0
LINE
  5
31EC
330
3185
100
AcDbEntity
  8
外形線
100
AcDbLine
 10
-2826.18430372969
 20
872.239583344789
 30
0.0
 11
-2843.93241172969
 21
872.239583344789
 31
0.0
  0
ARC
  5
31ED
330
3185
100
AcDbEntity
  8
外形線
100
AcDbCircle
 10
-2785.81851972969
 20
861.238973344789
 30
0.0
 40
1.86215
100
AcDbArc
 50
276.18422108563
 51
91.517843466792
  0
LINE
  5
31EE
330
3185
100
AcDbEntity
  8
外形線
100
AcDbLine
 10
-2791.58805172969
 20
859.387531344789
 30
0.0
 11
-2785.61795972969
 21
859.387531344789
 31
0.0
  0
LINE
  5
31EF
330
3185
100
AcDbEntity
  8
外形線
100
AcDbLine
 10
-2791.58805172969
 20
855.389241344789
 30
0.0
 11
-2785.95560572969
 21
855.389241344789
 31
0.0
  0
ARC
  5
31F0
330
3185
100
AcDbEntity
  8
外形線
100
AcDbCircle
 10
-2791.66757972969
 20
857.388387344789
 30
0.0
 40
2.000726
100
AcDbArc
 50
87.722187561485
 51
272.27785213419
  0
ARC
  5
31F1
330
3185
100
AcDbEntity
  8
外形線
100
AcDbCircle
 10
-2785.95560572969
 20
853.389973344789
 30
0.0
 40
1.9992
100
AcDbArc
 50
0.0
 51
89.999981276021
  0
LINE
  5
31F2
330
3185
100
AcDbEntity
  8
外形線
100
AcDbLine
 10
-2793.66678772969
 20
863.100423344789
 30
0.0
 11
-2785.86783772969
 21
863.100423344789
 31
0.0
  0
ARC
  5
31F3
330
3185
100
AcDbEntity
  8
外形線
100
AcDbCircle
 10
-2798.52201172969
 20
872.459187344789
 30
0.0
 40
4.8552
100
AcDbArc
 50
0.0
 51
87.349306628423
  0
LINE
  5
31F4
330
3185
100
AcDbEntity
  8
外形線
100
AcDbLine
 10
-2850.21561572969
 20
880.970783344789
 30
0.0
 11
-2828.22440372969
 21
880.970783344789
 31
0.0
  0
ENDBLK
  5
31F5
330
3185
100
AcDbEntity
  8
0
 48
10.0
100
AcDbBlockEnd
  0
BLOCK
  5
3309
330
3308
100
AcDbEntity
  8
0
 48
10.0
100
AcDbBlockBegin
  2
A$C480F1F2B
 70
     0
 10
0.0
 20
0.0
 30
0.0
  3
A$C480F1F2B
  1
A$C480F1F2B
  0
LINE
  5
330A
330
3308
100
AcDbEntity
  8
外形線
100
AcDbLine
 10
8.500001501512
 20
2.385002184348
 30
0.0
 11
8.500001501512
 21
14.179664684348
 31
0.0
  0
ARC
  5
330B
330
3308
100
AcDbEntity
  8
細線
100
AcDbCircle
 10
1.216144001512
 20
8.282372184348
 30
0.0
 40
7.2838425
100
AcDbArc
 50
326.010120640452
 51
33.98932849733
  0
ARC
  5
330C
330
3308
100
AcDbEntity
  8
細線
100
AcDbCircle
 10
4.911364001511
 20
1.275229684348
 30
0.0
 40
3.7563025
100
AcDbArc
 50
17.184150191555
 51
51.38761061704
  0
LINE
  5
330D
330
3308
100
AcDbEntity
  8
細線
100
AcDbLine
 10
2.000001501511
 20
4.210487184348
 30
0.0
 11
7.255442473881
 21
4.210487184348
 31
0.0
  0
LINE
  5
330E
330
3308
100
AcDbEntity
  8
外形線
100
AcDbLine
 10
2.000001501511
 20
16.564818684348
 30
0.0
 11
2.000001501511
 21
0.000000684348
 31
0.0
  0
LINE
  5
330F
330
3308
100
AcDbEntity
  8
外形線
100
AcDbLine
 10
0.000001501512
 20
16.564818684348
 30
0.0
 11
0.000001501512
 21
0.000000684348
 31
0.0
  0
LINE
  5
3310
330
3308
100
AcDbEntity
  8
外形線
100
AcDbLine
 10
6.114929777464
 20
0.000000684348
 30
0.0
 11
8.499926501511
 21
2.385079684348
 31
0.0
  0
LINE
  5
3311
330
3308
100
AcDbEntity
  8
外形線
100
AcDbLine
 10
0.000001501512
 20
0.000000684348
 30
0.0
 11
6.114929777464
 21
0.000000684348
 31
0.0
  0
ARC
  5
3312
330
3308
100
AcDbEntity
  8
細線
100
AcDbCircle
 10
4.911364001511
 20
15.289437184348
 30
0.0
 40
3.7563025
100
AcDbArc
 50
308.612371782873
 51
342.81588950412
  0
LINE
  5
3313
330
3308
100
AcDbEntity
  8
細線
100
AcDbLine
 10
2.000001501511
 20
12.354369684348
 30
0.0
 11
7.25548242852
 21
12.354369684348
 31
0.0
  0
LINE
  5
3314
330
3308
100
AcDbEntity
  8
外形線
100
AcDbLine
 10
6.11493439904
 20
16.564818684348
 30
0.0
 11
8.499926501511
 21
14.179664684348
 31
0.0
  0
LINE
  5
3315
330
3308
100
AcDbEntity
  8
外形線
100
AcDbLine
 10
0.000001501512
 20
16.564818684348
 30
0.0
 11
6.11493439904
 21
16.564818684348
 31
0.0
  0
ENDBLK
  5
3316
330
3308
100
AcDbEntity
  8
0
 48
10.0
100
AcDbBlockEnd
  0
BLOCK
  5
38FE
330
38F4
100
AcDbEntity
  8
0
 62
     1
 48
10.0
100
AcDbBlockBegin
  2
*D9
 70
     1
 10
0.0
 20
0.0
 30
0.0
  3
*D9
  1
*D9
  0
LINE
  5
3B62
330
38F4
100
AcDbEntity
  8
寸法線
 62
     0
 48
10.0
370
    -2
100
AcDbLine
 10
38.162389197733
 20
875.442202407294
 30
0.0
 11
38.162389197733
 21
795.644230045997
 31
0.0
  0
LINE
  5
3B63
330
38F4
100
AcDbEntity
  8
寸法線
 62
     0
 48
10.0
370
    -2
100
AcDbLine
 10
188.162389197733
 20
837.942202407294
 30
0.0
 11
188.162389197733
 21
795.644230045997
 31
0.0
  0
LINE
  5
3B64
330
38F4
100
AcDbEntity
  8
寸法線
 62
     0
 48
10.0
370
    -2
100
AcDbLine
 10
44.162389197733
 20
796.894230045997
 30
0.0
 11
182.162389197733
 21
796.894230045997
 31
0.0
  0
INSERT
  5
3B65
330
38F4
100
AcDbEntity
  8
寸法線
 62
     0
 48
10.0
370
    -2
100
AcDbBlockReference
  2
_Open30
 10
38.162389197733
 20
796.894230045997
 30
0.0
 41
6.0
 42
6.0
 43
6.0
 50
180.0
  0
INSERT
  5
3B66
330
38F4
100
AcDbEntity
  8
寸法線
 62
     0
 48
10.0
370
    -2
100
AcDbBlockReference
  2
_Open30
 10
188.162389197733
 20
796.894230045997
 30
0.0
 41
6.0
 42
6.0
 43
6.0
  0
MTEXT
  5
3B67
330
38F4
100
AcDbEntity
  8
寸法線
 62
     0
 48
10.0
100
AcDbMText
 10
113.162389197733
 20
801.519230045997
 30
0.0
 40
8.0
 41
0.0
 71
     5
 72
     1
  1
\A1;150
 73
     1
 44
1.0
  0
POINT
  5
3B68
330
38F4
100
AcDbEntity
  8
DEFPOINTS
 62
     0
 48
10.0
100
AcDbPoint
 10
38.162389197733
 20
876.067202407294
 30
0.0
  0
POINT
  5
3B69
330
38F4
100
AcDbEntity
  8
DEFPOINTS
 62
     0
 48
10.0
100
AcDbPoint
 10
188.162389197733
 20
838.567202407294
 30
0.0
  0
POINT
  5
3B6A
330
38F4
100
AcDbEntity
  8
DEFPOINTS
 62
     0
 48
10.0
100
AcDbPoint
 10
188.162389197733
 20
796.894230045997
 30
0.0
  0
ENDBLK
  5
38FF
330
38F4
100
AcDbEntity
  8
0
 62
     1
 48
10.0
100
AcDbBlockEnd
  0
BLOCK
  5
390A
330
3900
100
AcDbEntity
  8
0
 62
     1
 48
10.0
100
AcDbBlockBegin
  2
*D10
 70
     1
 10
0.0
 20
0.0
 30
0.0
  3
*D10
  1
*D10
  0
LINE
  5
3B59
330
3900
100
AcDbEntity
  8
寸法線
 62
     0
 48
10.0
370
    -2
100
AcDbLine
 10
188.162389197733
 20
837.942202407294
 30
0.0
 11
188.162389197733
 21
795.644230045997
 31
0.0
  0
LINE
  5
3B5A
330
3900
100
AcDbEntity
  8
寸法線
 62
     0
 48
10.0
370
    -2
100
AcDbLine
 10
338.137577197733
 20
814.722029266848
 30
0.0
 11
338.137577197733
 21
795.644230045997
 31
0.0
  0
LINE
  5
3B5B
330
3900
100
AcDbEntity
  8
寸法線
 62
     0
 48
10.0
370
    -2
100
AcDbLine
 10
194.162389197733
 20
796.894230045997
 30
0.0
 11
332.137577197733
 21
796.894230045997
 31
0.0
  0
INSERT
  5
3B5C
330
3900
100
AcDbEntity
  8
寸法線
 62
     0
 48
10.0
370
    -2
100
AcDbBlockReference
  2
_Open30
 10
188.162389197733
 20
796.894230045997
 30
0.0
 41
6.0
 42
6.0
 43
6.0
 50
180.0
  0
INSERT
  5
3B5D
330
3900
100
AcDbEntity
  8
寸法線
 62
     0
 48
10.0
370
    -2
100
AcDbBlockReference
  2
_Open30
 10
338.137577197733
 20
796.894230045997
 30
0.0
 41
6.0
 42
6.0
 43
6.0
  0
MTEXT
  5
3B5E
330
3900
100
AcDbEntity
  8
寸法線
 62
     0
 48
10.0
100
AcDbMText
 10
263.149983197733
 20
801.519230045997
 30
0.0
 40
8.0
 41
0.0
 71
     5
 72
     1
  1
\A1;150
 73
     1
 44
1.0
  0
POINT
  5
3B5F
330
3900
100
AcDbEntity
  8
DEFPOINTS
 62
     0
 48
10.0
100
AcDbPoint
 10
188.162389197733
 20
838.567202407294
 30
0.0
  0
POINT
  5
3B60
330
3900
100
AcDbEntity
  8
DEFPOINTS
 62
     0
 48
10.0
100
AcDbPoint
 10
338.137577197733
 20
815.347029266848
 30
0.0
  0
POINT
  5
3B61
330
3900
100
AcDbEntity
  8
DEFPOINTS
 62
     0
 48
10.0
100
AcDbPoint
 10
338.137577197733
 20
796.894230045997
 30
0.0
  0
ENDBLK
  5
390B
330
3900
100
AcDbEntity
  8
0
 62
     1
 48
10.0
100
AcDbBlockEnd
  0
BLOCK
  5
392E
330
3924
100
AcDbEntity
  8
0
 62
     1
 48
10.0
100
AcDbBlockBegin
  2
*D13
 70
     1
 10
0.0
 20
0.0
 30
0.0
  3
*D13
  1
*D13
  0
LINE
  5
3BA6
330
3924
100
AcDbEntity
  8
寸法線
 62
     0
 48
10.0
370
    -2
100
AcDbLine
 10
338.137577197733
 20
884.174136407294
 30
0.0
 11
338.137577197733
 21
815.347029266848
 31
0.0
  0
LINE
  5
3BA7
330
3924
100
AcDbEntity
  8
寸法線
 62
     0
 48
10.0
370
    -2
100
AcDbLine
 10
255.167682965816
 20
834.833970013585
 30
0.0
 11
255.167682965816
 21
815.347029266848
 31
0.0
  0
LINE
  5
3BA8
330
3924
100
AcDbEntity
  8
寸法線
 62
     0
 48
10.0
370
    -2
100
AcDbLine
 10
332.137577197733
 20
816.597029266848
 30
0.0
 11
261.167682965816
 21
816.597029266848
 31
0.0
  0
INSERT
  5
3BA9
330
3924
100
AcDbEntity
  8
寸法線
 62
     0
 48
10.0
370
    -2
100
AcDbBlockReference
  2
_Open30
 10
338.137577197733
 20
816.597029266848
 30
0.0
 41
6.0
 42
6.0
 43
6.0
  0
INSERT
  5
3BAA
330
3924
100
AcDbEntity
  8
寸法線
 62
     0
 48
10.0
370
    -2
100
AcDbBlockReference
  2
_Open30
 10
255.167682965816
 20
816.597029266848
 30
0.0
 41
6.0
 42
6.0
 43
6.0
 50
180.0
  0
MTEXT
  5
3BAB
330
3924
100
AcDbEntity
  8
寸法線
 62
     0
 48
10.0
100
AcDbMText
 10
296.652630081775
 20
821.222029266848
 30
0.0
 40
8.0
 41
0.0
 71
     5
 72
     1
  1
\A1;83
 73
     1
 44
1.0
  0
POINT
  5
3BAC
330
3924
100
AcDbEntity
  8
DEFPOINTS
 62
     0
 48
10.0
100
AcDbPoint
 10
338.137577197733
 20
884.799136407294
 30
0.0
  0
POINT
  5
3BAD
330
3924
100
AcDbEntity
  8
DEFPOINTS
 62
     0
 48
10.0
100
AcDbPoint
 10
255.167682965816
 20
835.458970013585
 30
0.0
  0
POINT
  5
3BAE
330
3924
100
AcDbEntity
  8
DEFPOINTS
 62
     0
 48
10.0
100
AcDbPoint
 10
255.167682965816
 20
816.597029266848
 30
0.0
  0
ENDBLK
  5
392F
330
3924
100
AcDbEntity
  8
0
 62
     1
 48
10.0
100
AcDbBlockEnd
  0
BLOCK
  5
393A
330
3930
100
AcDbEntity
  8
0
 62
     1
 48
10.0
100
AcDbBlockBegin
  2
*D14
 70
     1
 10
0.0
 20
0.0
 30
0.0
  3
*D14
  1
*D14
  0
LINE
  5
3B35
330
3930
100
AcDbEntity
  8
寸法線
 62
     0
 48
10.0
370
    -2
100
AcDbLine
 10
294.494543197733
 20
967.067202407294
 30
0.0
 11
364.862308980614
 21
967.067202407294
 31
0.0
  0
LINE
  5
3B36
330
3930
100
AcDbEntity
  8
寸法線
 62
     0
 48
10.0
370
    -2
100
AcDbLine
 10
294.494543197733
 20
865.067202407294
 30
0.0
 11
364.862308980614
 21
865.067202407294
 31
0.0
  0
LINE
  5
3B37
330
3930
100
AcDbEntity
  8
寸法線
 62
     0
 48
10.0
370
    -2
100
AcDbLine
 10
363.612308980614
 20
961.067202407294
 30
0.0
 11
363.612308980614
 21
871.067202407294
 31
0.0
  0
INSERT
  5
3B38
330
3930
100
AcDbEntity
  8
寸法線
 62
     0
 48
10.0
370
    -2
100
AcDbBlockReference
  2
_Open30
 10
363.612308980614
 20
967.067202407294
 30
0.0
 41
6.0
 42
6.0
 43
6.0
 50
90.0
  0
INSERT
  5
3B39
330
3930
100
AcDbEntity
  8
寸法線
 62
     0
 48
10.0
370
    -2
100
AcDbBlockReference
  2
_Open30
 10
363.612308980614
 20
865.067202407294
 30
0.0
 41
6.0
 42
6.0
 43
6.0
 50
270.0
  0
MTEXT
  5
3B3A
330
3930
100
AcDbEntity
  8
寸法線
 62
     0
 48
10.0
100
AcDbMText
 10
358.986521579039
 20
915.455202907294
 30
0.0
 40
8.0
 41
0.0
 71
     5
 72
     1
  1
\A1;φ102
 11
6.123031769111886E-17
 21
1.0
 31
0.0
 73
     1
 44
1.0
  0
POINT
  5
3B3B
330
3930
100
AcDbEntity
  8
DEFPOINTS
 62
     0
 48
10.0
100
AcDbPoint
 10
293.869543197733
 20
967.067202407294
 30
0.0
  0
POINT
  5
3B3C
330
3930
100
AcDbEntity
  8
DEFPOINTS
 62
     0
 48
10.0
100
AcDbPoint
 10
293.869543197733
 20
865.067202407294
 30
0.0
  0
POINT
  5
3B3D
330
3930
100
AcDbEntity
  8
DEFPOINTS
 62
     0
 48
10.0
100
AcDbPoint
 10
363.612308980614
 20
865.067202407294
 30
0.0
  0
ENDBLK
  5
393B
330
3930
100
AcDbEntity
  8
0
 62
     1
 48
10.0
100
AcDbBlockEnd
  0
BLOCK
  5
395E
330
3954
100
AcDbEntity
  8
0
 62
     1
 48
10.0
100
AcDbBlockBegin
  2
*D15
 70
     1
 10
0.0
 20
0.0
 30
0.0
  3
*D15
  1
*D15
  0
LINE
  5
3B2C
330
3954
100
AcDbEntity
  8
寸法線
 62
     0
 48
10.0
370
    -2
100
AcDbLine
 10
37.537389197733
 20
956.067202407294
 30
0.0
 11
14.953147908528
 21
956.067202407294
 31
0.0
  0
LINE
  5
3B2D
330
3954
100
AcDbEntity
  8
寸法線
 62
     0
 48
10.0
370
    -2
100
AcDbLine
 10
37.537389197733
 20
876.067202407294
 30
0.0
 11
14.953147908528
 21
876.067202407294
 31
0.0
  0
LINE
  5
3B2E
330
3954
100
AcDbEntity
  8
寸法線
 62
     0
 48
10.0
370
    -2
100
AcDbLine
 10
16.203147908528
 20
950.067202407294
 30
0.0
 11
16.203147908528
 21
882.067202407294
 31
0.0
  0
INSERT
  5
3B2F
330
3954
100
AcDbEntity
  8
寸法線
 62
     0
 48
10.0
370
    -2
100
AcDbBlockReference
  2
_Open30
 10
16.203147908528
 20
956.067202407294
 30
0.0
 41
6.0
 42
6.0
 43
6.0
 50
90.0
  0
INSERT
  5
3B30
330
3954
100
AcDbEntity
  8
寸法線
 62
     0
 48
10.0
370
    -2
100
AcDbBlockReference
  2
_Open30
 10
16.203147908528
 20
876.067202407294
 30
0.0
 41
6.0
 42
6.0
 43
6.0
 50
270.0
  0
MTEXT
  5
3B31
330
3954
100
AcDbEntity
  8
寸法線
 62
     0
 48
10.0
100
AcDbMText
 10
11.578147908528
 20
916.067202407294
 30
0.0
 40
8.0
 41
0.0
 71
     5
 72
     1
  1
\A1;80
 11
6.123031769111886E-17
 21
1.0
 31
0.0
 73
     1
 44
1.0
  0
POINT
  5
3B32
330
3954
100
AcDbEntity
  8
DEFPOINTS
 62
     0
 48
10.0
100
AcDbPoint
 10
38.162389197733
 20
956.067202407294
 30
0.0
  0
POINT
  5
3B33
330
3954
100
AcDbEntity
  8
DEFPOINTS
 62
     0
 48
10.0
100
AcDbPoint
 10
38.162389197733
 20
876.067202407294
 30
0.0
  0
POINT
  5
3B34
330
3954
100
AcDbEntity
  8
DEFPOINTS
 62
     0
 48
10.0
100
AcDbPoint
 10
16.203147908528
 20
876.067202407294
 30
0.0
  0
ENDBLK
  5
395F
330
3954
100
AcDbEntity
  8
0
 62
     1
 48
10.0
100
AcDbBlockEnd
  0
BLOCK
  5
396A
330
3960
100
AcDbEntity
  8
0
 62
     1
 48
10.0
100
AcDbBlockBegin
  2
*D16
 70
     1
 10
0.0
 20
0.0
 30
0.0
  3
*D16
  1
*D16
  0
LINE
  5
3B23
330
3960
100
AcDbEntity
  8
寸法線
 62
     0
 48
10.0
370
    -2
100
AcDbLine
 10
38.162389197733
 20
875.442202407294
 30
0.0
 11
38.162389197733
 21
856.291145221722
 31
0.0
  0
LINE
  5
3B24
330
3960
100
AcDbEntity
  8
寸法線
 62
     0
 48
10.0
370
    -2
100
AcDbLine
 10
118.162389197733
 20
903.442202407294
 30
0.0
 11
118.162389197733
 21
856.291145221722
 31
0.0
  0
LINE
  5
3B25
330
3960
100
AcDbEntity
  8
寸法線
 62
     0
 48
10.0
370
    -2
100
AcDbLine
 10
44.162389197733
 20
857.541145221722
 30
0.0
 11
112.162389197733
 21
857.541145221722
 31
0.0
  0
INSERT
  5
3B26
330
3960
100
AcDbEntity
  8
寸法線
 62
     0
 48
10.0
370
    -2
100
AcDbBlockReference
  2
_Open30
 10
38.162389197733
 20
857.541145221722
 30
0.0
 41
6.0
 42
6.0
 43
6.0
 50
180.0
  0
INSERT
  5
3B27
330
3960
100
AcDbEntity
  8
寸法線
 62
     0
 48
10.0
370
    -2
100
AcDbBlockReference
  2
_Open30
 10
118.162389197733
 20
857.541145221722
 30
0.0
 41
6.0
 42
6.0
 43
6.0
  0
MTEXT
  5
3B28
330
3960
100
AcDbEntity
  8
寸法線
 62
     0
 48
10.0
100
AcDbMText
 10
78.162389197733
 20
862.166145221722
 30
0.0
 40
8.0
 41
0.0
 71
     5
 72
     1
  1
\A1;80
 73
     1
 44
1.0
  0
POINT
  5
3B29
330
3960
100
AcDbEntity
  8
DEFPOINTS
 62
     0
 48
10.0
100
AcDbPoint
 10
38.162389197733
 20
876.067202407294
 30
0.0
  0
POINT
  5
3B2A
330
3960
100
AcDbEntity
  8
DEFPOINTS
 62
     0
 48
10.0
100
AcDbPoint
 10
118.162389197733
 20
904.067202407294
 30
0.0
  0
POINT
  5
3B2B
330
3960
100
AcDbEntity
  8
DEFPOINTS
 62
     0
 48
10.0
100
AcDbPoint
 10
118.162389197733
 20
857.541145221722
 30
0.0
  0
ENDBLK
  5
396B
330
3960
100
AcDbEntity
  8
0
 62
     1
 48
10.0
100
AcDbBlockEnd
  0
BLOCK
  5
3986
330
397A
100
AcDbEntity
  8
0
 62
     1
 48
10.0
100
AcDbBlockBegin
  2
*D17
 70
     1
 10
0.0
 20
0.0
 30
0.0
  3
*D17
  1
*D17
  0
LINE
  5
3B18
330
397A
100
AcDbEntity
  8
寸法線
 62
     0
 48
10.0
370
    -2
100
AcDbLine
 10
188.162389197733
 20
837.942202407294
 30
0.0
 11
188.162389197733
 21
815.347029266848
 31
0.0
  0
LINE
  5
3B19
330
397A
100
AcDbEntity
  8
寸法線
 62
     0
 48
10.0
370
    -2
100
AcDbLine
 10
198.162389197733
 20
837.942202407294
 30
0.0
 11
198.162389197733
 21
815.347029266848
 31
0.0
  0
LINE
  5
3B1A
330
397A
100
AcDbEntity
  8
寸法線
 62
     0
 48
10.0
370
    -2
100
AcDbLine
 10
182.162389197733
 20
816.597029266848
 30
0.0
 11
176.162389197733
 21
816.597029266848
 31
0.0
  0
LINE
  5
3B1B
330
397A
100
AcDbEntity
  8
寸法線
 62
     0
 48
10.0
370
    -2
100
AcDbLine
 10
204.162389197733
 20
816.597029266848
 30
0.0
 11
210.162389197733
 21
816.597029266848
 31
0.0
  0
LINE
  5
3B1C
330
397A
100
AcDbEntity
  8
寸法線
 62
     0
 48
10.0
370
    -2
100
AcDbLine
 10
188.162389197733
 20
816.597029266848
 30
0.0
 11
198.162389197733
 21
816.597029266848
 31
0.0
  0
INSERT
  5
3B1D
330
397A
100
AcDbEntity
  8
寸法線
 62
     0
 48
10.0
370
    -2
100
AcDbBlockReference
  2
_Open30
 10
188.162389197733
 20
816.597029266848
 30
0.0
 41
6.0
 42
6.0
 43
6.0
  0
INSERT
  5
3B1E
330
397A
100
AcDbEntity
  8
寸法線
 62
     0
 48
10.0
370
    -2
100
AcDbBlockReference
  2
_Open30
 10
198.162389197733
 20
816.597029266848
 30
0.0
 41
6.0
 42
6.0
 43
6.0
 50
180.0
  0
MTEXT
  5
3B1F
330
397A
100
AcDbEntity
  8
寸法線
 62
     0
 48
10.0
100
AcDbMText
 10
193.162389197733
 20
821.222029266848
 30
0.0
 40
8.0
 41
0.0
 71
     5
 72
     1
  1
\A1;10
 73
     1
 44
1.0
  0
POINT
  5
3B20
330
397A
100
AcDbEntity
  8
DEFPOINTS
 62
     0
 48
10.0
100
AcDbPoint
 10
188.162389197733
 20
838.567202407294
 30
0.0
  0
POINT
  5
3B21
330
397A
100
AcDbEntity
  8
DEFPOINTS
 62
     0
 48
10.0
100
AcDbPoint
 10
198.162389197733
 20
838.567202407294
 30
0.0
  0
POINT
  5
3B22
330
397A
100
AcDbEntity
  8
DEFPOINTS
 62
     0
 48
10.0
100
AcDbPoint
 10
198.162389197733
 20
816.597029266848
 30
0.0
  0
ENDBLK
  5
3987
330
397A
100
AcDbEntity
  8
0
 62
     1
 48
10.0
100
AcDbBlockEnd
  0
BLOCK
  5
3994
330
3988
100
AcDbEntity
  8
0
 62
     1
 48
10.0
100
AcDbBlockBegin
  2
*D18
 70
     1
 10
0.0
 20
0.0
 30
0.0
  3
*D18
  1
*D18
  0
LINE
  5
3B6B
330
3988
100
AcDbEntity
  8
寸法線
 62
     0
 48
10.0
370
    -2
100
AcDbLine
 10
156.702255803471
 20
921.074658192588
 30
0.0
 11
157.327255803472
 21
921.074658192588
 31
0.0
  0
LINE
  5
3B6C
330
3988
100
AcDbEntity
  8
寸法線
 62
     0
 48
10.0
370
    -2
100
AcDbLine
 10
156.702255803471
 20
911.074735692588
 30
0.0
 11
157.327255803472
 21
911.074735692588
 31
0.0
  0
LINE
  5
3B6D
330
3988
100
AcDbEntity
  8
寸法線
 62
     0
 48
10.0
370
    -2
100
AcDbLine
 10
156.077255803472
 20
905.074735692588
 30
0.0
 11
156.077255803472
 21
899.074735692588
 31
0.0
  0
LINE
  5
3B6E
330
3988
100
AcDbEntity
  8
寸法線
 62
     0
 48
10.0
370
    -2
100
AcDbLine
 10
156.077255803472
 20
927.074658192588
 30
0.0
 11
156.077255803472
 21
950.730957405186
 31
0.0
  0
LINE
  5
3B6F
330
3988
100
AcDbEntity
  8
寸法線
 62
     0
 48
10.0
370
    -2
100
AcDbLine
 10
156.077255803472
 20
911.074735692588
 30
0.0
 11
156.077255803472
 21
921.074658192588
 31
0.0
  0
INSERT
  5
3B70
330
3988
100
AcDbEntity
  8
寸法線
 62
     0
 48
10.0
370
    -2
100
AcDbBlockReference
  2
_Open30
 10
156.077255803472
 20
911.074735692588
 30
0.0
 41
6.0
 42
6.0
 43
6.0
 50
90.0
  0
INSERT
  5
3B71
330
3988
100
AcDbEntity
  8
寸法線
 62
     0
 48
10.0
370
    -2
100
AcDbBlockReference
  2
_Open30
 10
156.077255803472
 20
921.074658192588
 30
0.0
 41
6.0
 42
6.0
 43
6.0
 50
270.0
  0
MTEXT
  5
3B72
330
3988
100
AcDbEntity
  8
寸法線
 62
     0
 48
10.0
100
AcDbMText
 10
151.452255803471
 20
941.902807798887
 30
0.0
 40
8.0
 41
0.0
 71
     5
 72
     1
  1
\A1;φ10
 11
6.123031769111886E-17
 21
1.0
 31
0.0
 73
     1
 44
1.0
  0
POINT
  5
3B73
330
3988
100
AcDbEntity
  8
DEFPOINTS
 62
     0
 48
10.0
100
AcDbPoint
 10
156.077255803471
 20
921.074658192588
 30
0.0
  0
POINT
  5
3B74
330
3988
100
AcDbEntity
  8
DEFPOINTS
 62
     0
 48
10.0
100
AcDbPoint
 10
156.077255803471
 20
911.074735692588
 30
0.0
  0
POINT
  5
3B75
330
3988
100
AcDbEntity
  8
DEFPOINTS
 62
     0
 48
10.0
100
AcDbPoint
 10
156.077255803472
 20
911.074735692588
 30
0.0
  0
ENDBLK
  5
3995
330
3988
100
AcDbEntity
  8
0
 62
     1
 48
10.0
100
AcDbBlockEnd
  0
ENDSEC
  0
SECTION
  2
ENTITIES
  0
LEADER
  5
2FF6
330
1A
100
AcDbEntity
  8
寸法線
 48
10.0
100
AcDbLeader
  3
ISO-25
 76
     3
 10
312.815062937117
 20
963.913984387077
 30
0.0
 10
344.53485925984
 20
1031.122159730841
 30
0.0
 10
355.915864032713
 20
1031.122159730841
 30
0.0
1001
ACAD
1000
DSTYLE
1002
{
1070
   147
1040
0.625
1070
    77
1070
     0
1070
    41
1040
6.0
1070
    47
1040
0.1
1070
    48
1040
0.1
1070
    73
1070
     0
1070
   140
1040
5.0
1070
   271
1070
     1
1070
   272
1070
     1
1070
   341
1005
2AF4
1070
   342
1005
2AF4
1002
}
  0
MTEXT
  5
2FF8
330
1A
100
AcDbEntity
  8
寸法線
 48
10.0
100
AcDbMText
 10
291.564358748909
 20
1041.096240936113
 30
0.0
 40
8.0
 41
38.931165525765
 71
     1
 72
     5
  1
O-RING
 73
     1
 44
1.0
  0
LEADER
  5
2FF9
330
1A
100
AcDbEntity
  8
寸法線
 48
10.0
100
AcDbLeader
  3
ISO-25
 76
     3
 10
277.667978934194
 20
967.067202407294
 30
0.0
 10
290.299421797748
 20
1031.122159730841
 30
0.0
 10
301.566828297599
 20
1031.122159730841
 30
0.0
1001
ACAD
1000
DSTYLE
1002
{
1070
   147
1040
0.625
1070
    77
1070
     0
1070
    41
1040
6.0
1070
    47
1040
0.1
1070
    48
1040
0.1
1070
    73
1070
     0
1070
   140
1040
5.0
1070
   271
1070
     1
1070
   272
1070
     1
1070
   341
1005
2AF4
1070
   342
1005
2AF4
1002
}
  0
LEADER
  5
2FFA
330
1A
100
AcDbEntity
  8
寸法線
 48
10.0
100
AcDbLeader
  3
ISO-25
 76
     3
 10
193.162389197733
 20
993.567124907294
 30
0.0
 10
212.239008661963
 20
1031.122159730841
 30
0.0
 10
199.648309983194
 20
1031.122159730841
 30
0.0
1001
ACAD
1000
DSTYLE
1002
{
1070
   147
1040
0.625
1070
    77
1070
     0
1070
    41
1040
6.0
1070
    47
1040
0.1
1070
    48
1040
0.1
1070
    73
1070
     0
1070
   140
1040
5.0
1070
   271
1070
     1
1070
   272
1070
     1
1070
   341
1005
2AF4
1070
   342
1005
2AF4
1002
}
  0
MTEXT
  5
2FFB
330
1A
100
AcDbEntity
  8
寸法線
 48
10.0
100
AcDbMText
 10
171.124494152145
 20
1066.635591551099
 30
0.0
 40
8.0
 41
48.29118704016
 71
     1
 72
     5
  1
FLANGE\PALUMINUM\PCASTING
 73
     1
 44
1.0
  0
LEADER
  5
2FFC
330
1A
100
AcDbEntity
  8
寸法線
 48
10.0
100
AcDbLeader
  3
ISO-25
 76
     3
 10
176.991025364383
 20
931.078309406224
 30
0.0
 10
141.143705870073
 20
1031.122159730841
 30
0.0
 10
130.430197746965
 20
1031.122159730841
 30
0.0
1001
ACAD
1000
DSTYLE
1002
{
1070
   147
1040
0.625
1070
    77
1070
     0
1070
    41
1040
6.0
1070
    47
1040
0.1
1070
    48
1040
0.1
1070
    73
1070
     0
1070
   140
1040
5.0
1070
   271
1070
     1
1070
   272
1070
     1
1070
   341
1005
2AF4
1070
   342
1005
2AF4
1002
}
  0
MTEXT
  5
2FFD
330
1A
100
AcDbEntity
  8
寸法線
 48
10.0
100
AcDbMText
 10
115.44291123683
 20
1040.618710675292
 30
0.0
 40
8.0
 41
17.617431142437
 71
     1
 72
     5
  1
BsBM
 73
     1
 44
1.0
  0
MTEXT
  5
2FFE
330
1A
100
AcDbEntity
  8
寸法線
 48
10.0
100
AcDbMText
 10
65.550384784833
 20
1040.700076374102
 30
0.0
 40
8.0
 41
0.0
 71
     1
 72
     5
  1
SUS304
 73
     1
 44
1.0
  0
LEADER
  5
2FFF
330
1A
100
AcDbEntity
  8
寸法線
 48
10.0
100
AcDbLeader
  3
ISO-25
 76
     3
 10
152.112401197733
 20
921.074658192588
 30
0.0
 10
101.837206017828
 20
1031.126088622206
 30
0.0
 10
88.386604726438
 20
1031.12215973084
 30
0.0
1001
ACAD
1000
DSTYLE
1002
{
1070
   147
1040
0.625
1070
    77
1070
     0
1070
    41
1040
6.0
1070
    47
1040
0.1
1070
    48
1040
0.1
1070
    73
1070
     0
1070
   140
1040
5.0
1070
   271
1070
     1
1070
   272
1070
     1
1070
   341
1005
2AF4
1070
   342
1005
2AF4
1002
}
  0
MTEXT
  5
3001
330
1A
100
AcDbEntity
  8
寸法線
 48
10.0
100
AcDbMText
 10
-4.435075466649
 20
1041.020298240731
 30
0.0
 40
8.0
 41
0.0
 71
     1
 72
     5
  1
SUS304
 73
     1
 44
1.0
  0
LEADER
  5
3002
330
1A
100
AcDbEntity
  8
寸法線
 48
10.0
100
AcDbLeader
  3
ISO-25
 76
     3
 10
70.662389197733
 20
956.067202407294
 30
0.0
 10
31.893807299354
 20
1031.122159730841
 30
0.0
 10
18.857583465161
 20
1031.122159730841
 30
0.0
1001
ACAD
1000
DSTYLE
1002
{
1070
   147
1040
0.625
1070
    77
1070
     0
1070
    41
1040
6.0
1070
    47
1040
0.1
1070
    48
1040
0.1
1070
    73
1070
     0
1070
   140
1040
5.0
1070
   271
1070
     1
1070
   272
1070
     1
1070
   341
1005
2AF4
1070
   342
1005
2AF4
1002
}
  0
LEADER
  5
3003
330
1A
100
AcDbEntity
  8
寸法線
 48
10.0
100
AcDbLeader
  3
ISO-25
 76
     3
 10
264.585749123298
 20
847.891622198208
 30
0.0
 10
290.357151564915
 20
835.245340627154
 30
0.0
 10
323.003623296507
 20
835.245340627154
 30
0.0
1001
ACAD
1000
DSTYLE
1002
{
1070
   147
1040
0.625
1070
    77
1070
     0
1070
    41
1040
6.0
1070
    47
1040
0.1
1070
    48
1040
0.1
1070
    73
1070
     0
1070
   140
1040
5.0
1070
   271
1070
     1
1070
   272
1070
     1
1070
   341
1005
2AF4
1070
   342
1005
2AF4
1002
}
  0
MTEXT
  5
3004
330
1A
100
AcDbEntity
  8
寸法線
 48
10.0
100
AcDbMText
 10
290.380265606072
 20
857.982612215372
 30
0.0
 40
8.0
 41
65.843230169923
 71
     1
 72
     5
  1
CONDUIT\PG 1/2"
 73
     1
 44
1.0
  0
LINE
  5
300C
330
1A
100
AcDbEntity
  8
下書線
 48
10.0
100
AcDbLine
 10
-15.88457855607
 20
1031.122159730841
 30
0.0
 11
394.427118376567
 21
1031.122159730841
 31
0.0
  0
MTEXT
  5
300D
330
1A
100
AcDbEntity
  8
寸法線
 48
10.0
100
AcDbMText
 10
-248.998529822843
 20
841.38162665802
 30
0.0
 40
8.0
 41
29.949871932836
 71
     1
 72
     5
  1
15DIA\P4HOLES
 73
     1
 44
1.0
  0
LEADER
  5
300E
330
1A
100
AcDbEntity
  8
寸法線
 48
10.0
100
AcDbLeader
  3
ISO-25
 76
     3
 10
-198.257729912509
 20
862.605261630169
 30
0.0
 10
-213.757091734761
 20
818.902896589033
 30
0.0
 10
-249.595323027103
 20
818.902896589033
 30
0.0
1001
ACAD
1000
DSTYLE
1002
{
1070
   147
1040
0.625
1070
    77
1070
     0
1070
    41
1040
6.0
1070
    47
1040
0.1
1070
    48
1040
0.1
1070
    73
1070
     0
1070
   140
1040
5.0
1070
   271
1070
     1
1070
   272
1070
     1
1070
   341
1005
2AF4
1070
   342
1005
2AF4
1002
}
  0
DIMENSION
  5
300F
330
1A
100
AcDbEntity
  8
寸法線
 48
10.0
100
AcDbDimension
  2
*D4
 10
-73.549523166417
 20
929.390178399927
 30
0.0
 11
-104.023615342601
 21
924.072226916631
 31
0.0
 70
   161
  1
φ<>
 71
     5
 42
155.0
  3
ISO-25
100
AcDbAlignedDimension
 13
-226.242002492672
 23
902.744226414659
 33
0.0
 14
-73.549523166417
 24
929.390178399928
 34
0.0
1001
ACAD
1000
DSTYLE
1002
{
1070
    41
1040
6.0
1070
    47
1040
0.1
1070
    48
1040
0.1
1070
    73
1070
     0
1070
   140
1040
8.0
1070
   271
1070
     1
1070
   272
1070
     1
1070
   341
1005
2AF4
1070
   342
1005
2AF4
1002
}
  0
DIMENSION
  5
3010
330
1A
100
AcDbEntity
  8
寸法線
 48
10.0
100
AcDbDimension
  2
*D5
 10
-91.230708481002
 20
944.065232188818
 30
0.0
 11
-108.003017926277
 21
936.060609597593
 31
0.0
 70
   161
  1
φ<>
 71
     5
 42
129.999999085593
  3
ISO-25
100
AcDbAlignedDimension
 13
-208.554175985741
 23
888.072342149827
 33
0.0
 14
-91.230708481002
 24
944.065232188818
 34
0.0
1001
ACAD
1000
DSTYLE
1002
{
1070
    41
1040
6.0
1070
    47
1040
0.1
1070
    48
1040
0.1
1070
    73
1070
     0
1070
   140
1040
8.0
1070
   271
1070
     1
1070
   272
1070
     1
1070
   341
1005
2AF4
1070
   342
1005
2AF4
1002
}
  0
LINE
  5
3011
330
1A
100
AcDbEntity
  8
下書線
 48
10.0
100
AcDbLine
 10
52.759926430584
 20
916.067202407294
 30
0.0
 11
-99.514348356255
 21
916.067202407294
 31
0.0
  0
LINE
  5
3012
330
1A
100
AcDbEntity
  8
中心線
 48
10.0
100
AcDbLine
 10
-149.886207829544
 20
822.566549907294
 30
0.0
 11
-149.886207829544
 21
1009.567854907294
 31
0.0
  0
LINE
  5
3013
330
1A
100
AcDbEntity
  8
中心線
 48
10.0
100
AcDbLine
 10
-56.385555329544
 20
916.067202407294
 30
0.0
 11
-243.386860329544
 21
916.067202407294
 31
0.0
  0
LINE
  5
3014
330
1A
100
AcDbEntity
  8
中心線
 48
10.0
100
AcDbLine
 10
-204.875099964274
 20
971.046539542023
 30
0.0
 11
-186.840308410023
 21
953.011747987772
 31
0.0
  0
LINE
  5
3015
330
1A
100
AcDbEntity
  8
中心線
 48
10.0
100
AcDbLine
 10
-112.951217829544
 20
953.011747407294
 30
0.0
 11
-94.916426275294
 21
971.046538961544
 31
0.0
  0
LINE
  5
3016
330
1A
100
AcDbEntity
  8
中心線
 48
10.0
100
AcDbLine
 10
-204.875099383795
 20
861.087865853043
 30
0.0
 11
-186.840307829544
 21
879.122657407294
 31
0.0
  0
LINE
  5
3017
330
1A
100
AcDbEntity
  8
中心線
 48
10.0
100
AcDbLine
 10
-112.951217829544
 20
879.122657407294
 30
0.0
 11
-94.916426275294
 21
861.087865853043
 31
0.0
  0
CIRCLE
  5
3018
330
1A
100
AcDbEntity
  8
中心線
 48
10.0
100
AcDbCircle
 10
-149.895762829544
 20
916.075744907294
 30
0.0
 40
65.0
  0
CIRCLE
  5
3019
330
1A
100
AcDbEntity
  8
外形線
100
AcDbCircle
 10
-195.85770360667
 20
870.105261630169
 30
0.0
 40
7.5
  0
CIRCLE
  5
301A
330
1A
100
AcDbEntity
  8
外形線
100
AcDbCircle
 10
-195.85770360667
 20
962.029143184419
 30
0.0
 40
7.5
  0
CIRCLE
  5
301B
330
1A
100
AcDbEntity
  8
外形線
100
AcDbCircle
 10
-103.933822052419
 20
870.105261630169
 30
0.0
 40
7.5
  0
CIRCLE
  5
301C
330
1A
100
AcDbEntity
  8
外形線
100
AcDbCircle
 10
-103.933822052419
 20
962.029143184419
 30
0.0
 40
7.5
  0
CIRCLE
  5
301D
330
1A
100
AcDbEntity
  8
外形線
100
AcDbCircle
 10
-149.895762829544
 20
916.067202407294
 30
0.0
 40
77.5
  0
ARC
  5
301E
330
1A
100
AcDbEntity
  8
細線
100
AcDbCircle
 10
-149.895762829544
 20
916.075744907294
 30
0.0
 40
12.9903725
100
AcDbArc
 50
96.076026806057
 51
263.923955593852
  0
ARC
  5
301F
330
1A
100
AcDbEntity
  8
細線
100
AcDbCircle
 10
-149.895762829544
 20
916.075744907294
 30
0.0
 40
12.9903725
100
AcDbArc
 50
276.0760466539
 51
83.923993041786
  0
ARC
  5
3020
330
1A
100
AcDbEntity
  8
外形線
100
AcDbCircle
 10
-149.895762829544
 20
916.067202407294
 30
0.0
 40
15.0
100
AcDbArc
 50
95.259561947989
 51
264.740477747692
  0
LINE
  5
3021
330
1A
100
AcDbEntity
  8
外形線
100
AcDbLine
 10
-151.270772829544
 20
930.273362407294
 30
0.0
 11
-162.886142829544
 21
923.567202407294
 31
0.0
  0
ARC
  5
3022
330
1A
100
AcDbEntity
  8
外形線
100
AcDbCircle
 10
-149.895762829544
 20
916.067202407294
 30
0.0
 40
15.0
100
AcDbArc
 50
275.259524500062
 51
84.740457899851
  0
LINE
  5
3023
330
1A
100
AcDbEntity
  8
外形線
100
AcDbLine
 10
-148.520755329544
 20
930.273362407294
 30
0.0
 11
-136.905385329544
 21
923.567202407294
 31
0.0
  0
LINE
  5
3024
330
1A
100
AcDbEntity
  8
外形線
100
AcDbLine
 10
-151.270772829544
 20
901.861039907294
 30
0.0
 11
-162.886142829544
 21
908.567202407294
 31
0.0
  0
LINE
  5
3025
330
1A
100
AcDbEntity
  8
外形線
100
AcDbLine
 10
-148.520755329544
 20
901.861039907294
 30
0.0
 11
-136.905385329544
 21
908.567202407294
 31
0.0
  0
LINE
  5
3026
330
1A
100
AcDbEntity
  8
外形線
100
AcDbLine
 10
-162.886142829544
 20
908.567202407294
 30
0.0
 11
-162.886142829544
 21
923.567202407294
 31
0.0
  0
LINE
  5
3027
330
1A
100
AcDbEntity
  8
外形線
100
AcDbLine
 10
-136.905385329544
 20
923.567202407294
 30
0.0
 11
-136.905385329544
 21
908.567202407294
 31
0.0
  0
INSERT
  5
3039
330
1A
100
AcDbEntity
  8
外形線
100
AcDbBlockReference
  2
パドル　W1立面図
 10
-144.07276132581
 20
686.438386578832
 30
0.0
  0
DIMENSION
  5
303A
330
1A
100
AcDbEntity
  8
寸法線
 48
10.0
100
AcDbDimension
  2
*D6
 10
-148.458216781254
 20
884.988005824116
 30
0.0
 11
-130.867531356305
 21
889.613005824116
 31
0.0
 70
    32
  1
1.5
 71
     5
 42
2.856004514535
  3
ISO-25
100
AcDbAlignedDimension
 13
-151.314221295789
 23
884.98344567877
 33
0.0
 14
-148.458216781254
 24
884.98344567877
 34
0.0
100
AcDbRotatedDimension
1001
ACAD
1000
DSTYLE
1002
{
1070
    41
1040
6.0
1070
    47
1040
0.1
1070
    48
1040
0.1
1070
    73
1070
     0
1070
   140
1040
8.0
1070
   271
1070
     1
1070
   272
1070
     1
1070
   341
1005
2AF4
1070
   342
1005
2AF4
1002
}
  0
CIRCLE
  5
303F
330
1A
100
AcDbEntity
  8
寸法線
100
AcDbCircle
 10
-214.72135571667
 20
675.425712755581
 30
0.0
 40
3.0
  0
CIRCLE
  5
3040
330
1A
100
AcDbEntity
  8
寸法線
100
AcDbCircle
 10
-214.72135571667
 20
675.425712755581
 30
0.0
 40
1.599998
  0
CIRCLE
  5
3041
330
1A
100
AcDbEntity
  8
寸法線
100
AcDbCircle
 10
-175.02293171667
 20
675.425712755581
 30
0.0
 40
3.0
  0
CIRCLE
  5
3042
330
1A
100
AcDbEntity
  8
寸法線
100
AcDbCircle
 10
-175.02293171667
 20
675.425712755581
 30
0.0
 40
1.599998
  0
CIRCLE
  5
3043
330
1A
100
AcDbEntity
  8
寸法線
100
AcDbCircle
 10
-195.01499771667
 20
675.425712755581
 30
0.0
 40
3.0
  0
CIRCLE
  5
3044
330
1A
100
AcDbEntity
  8
寸法線
100
AcDbCircle
 10
-195.01499771667
 20
675.425712755581
 30
0.0
 40
1.599998
  0
CIRCLE
  5
3045
330
1A
100
AcDbEntity
  8
寸法線
100
AcDbCircle
 10
-235.42734971667
 20
675.425712755581
 30
0.0
 40
3.0
  0
CIRCLE
  5
3046
330
1A
100
AcDbEntity
  8
寸法線
100
AcDbCircle
 10
-235.42734971667
 20
675.425712755581
 30
0.0
 40
1.599998
  0
CIRCLE
  5
3047
330
1A
100
AcDbEntity
  8
寸法線
100
AcDbCircle
 10
-256.13334371667
 20
675.425712755581
 30
0.0
 40
3.0
  0
CIRCLE
  5
304C
330
1A
100
AcDbEntity
  8
寸法線
100
AcDbCircle
 10
-175.01536371667
 20
745.146904755581
 30
0.0
 40
9.177798
  0
LINE
  5
304D
330
1A
100
AcDbEntity
  8
寸法線
100
AcDbLine
 10
-195.01499771667
 20
739.63048675558
 30
0.0
 11
-193.41495971667
 21
754.25127475558
 31
0.0
  0
LINE
  5
304E
330
1A
100
AcDbEntity
  8
寸法線
100
AcDbLine
 10
-235.42734971667
 20
739.63048675558
 30
0.0
 11
-241.68137771667
 21
754.25127475558
 31
0.0
  0
CIRCLE
  5
304F
330
1A
100
AcDbEntity
  8
寸法線
100
AcDbCircle
 10
-195.01499771667
 20
754.25127475558
 30
0.0
 40
1.600006
  0
LINE
  5
3050
330
1A
100
AcDbEntity
  8
寸法線
100
AcDbLine
 10
-195.01499771667
 20
775.55767075558
 30
0.0
 11
-195.01499771667
 21
755.85125075558
 31
0.0
  0
CIRCLE
  5
3051
330
1A
100
AcDbEntity
  8
寸法線
100
AcDbCircle
 10
-227.57334571667
 20
754.25127475558
 30
0.0
 40
1.600006
  0
LINE
  5
3052
330
1A
100
AcDbEntity
  8
寸法線
100
AcDbLine
 10
-227.57334571667
 20
775.55767075558
 30
0.0
 11
-227.57334571667
 21
755.85125075558
 31
0.0
  0
CIRCLE
  5
3053
330
1A
100
AcDbEntity
  8
寸法線
100
AcDbCircle
 10
-243.28135371667
 20
754.25127475558
 30
0.0
 40
1.600006
  0
CIRCLE
  5
3057
330
1A
100
AcDbEntity
  8
寸法線
100
AcDbCircle
 10
-195.01499771667
 20
738.030510755581
 30
0.0
 40
1.600006
  0
LINE
  5
3058
330
1A
100
AcDbEntity
  8
寸法線
100
AcDbLine
 10
-195.01499771667
 20
736.43047475558
 30
0.0
 11
-195.01499771667
 21
678.425712755581
 31
0.0
  0
CIRCLE
  5
3059
330
1A
100
AcDbEntity
  8
寸法線
100
AcDbCircle
 10
-256.13334371667
 20
675.425712755581
 30
0.0
 40
1.599998
  0
LINE
  5
305A
330
1A
100
AcDbEntity
  8
寸法線
100
AcDbLine
 10
-175.02293171667
 20
735.94023875558
 30
0.0
 11
-175.02293171667
 21
678.425712755581
 31
0.0
  0
LINE
  5
305B
330
1A
100
AcDbEntity
  8
寸法線
100
AcDbLine
 10
-214.72135571667
 20
775.55767075558
 30
0.0
 11
-214.72135571667
 21
678.425712755581
 31
0.0
  0
LINE
  5
305C
330
1A
100
AcDbEntity
  8
寸法線
100
AcDbLine
 10
-235.42734971667
 20
736.43047475558
 30
0.0
 11
-235.42734971667
 21
678.425712755581
 31
0.0
  0
CIRCLE
  5
305D
330
1A
100
AcDbEntity
  8
寸法線
100
AcDbCircle
 10
-235.42734971667
 20
738.030510755581
 30
0.0
 40
1.600006
  0
LINE
  5
305E
330
1A
100
AcDbEntity
  8
寸法線
100
AcDbLine
 10
-175.02293171667
 20
775.55767075558
 30
0.0
 11
-175.02293171667
 21
754.32470075558
 31
0.0
  0
TEXT
  5
305F
330
1A
100
AcDbEntity
  8
寸法線
100
AcDbText
 10
-181.02427371667
 20
738.92412675558
 30
0.0
 40
12.0
  1
Ｍ
 41
1.071428571429
  7
EXCADSTD
 72
     5
 11
-169.02427371667
 21
738.92412675558
 31
0.0
100
AcDbText
  0
LINE
  5
3062
330
1A
100
AcDbEntity
  8
寸法線
100
AcDbLine
 10
-195.01499771667
 20
775.55767075558
 30
0.0
 11
-175.02293171667
 21
775.55767075558
 31
0.0
  0
LINE
  5
3063
330
1A
100
AcDbEntity
  8
寸法線
100
AcDbLine
 10
-227.57334571667
 20
775.55767075558
 30
0.0
 11
-214.72135571667
 21
775.55767075558
 31
0.0
  0
LINE
  5
3064
330
1A
100
AcDbEntity
  8
寸法線
100
AcDbLine
 10
-243.28135371667
 20
775.55767075558
 30
0.0
 11
-243.28135371667
 21
755.85125075558
 31
0.0
  0
LINE
  5
3065
330
1A
100
AcDbEntity
  8
寸法線
100
AcDbLine
 10
-256.13334371667
 20
775.55767075558
 30
0.0
 11
-243.28135371667
 21
775.55767075558
 31
0.0
  0
LINE
  5
3066
330
1A
100
AcDbEntity
  8
寸法線
100
AcDbLine
 10
-256.13334371667
 20
678.425712755581
 30
0.0
 11
-256.13334371667
 21
775.55767075558
 31
0.0
  0
MTEXT
  5
32DC
330
1A
100
AcDbEntity
  8
寸法線
 48
10.0
100
AcDbMText
 10
231.969534675661
 20
1053.651095212798
 30
0.0
 40
8.0
 41
46.212924374617
 71
     1
 72
     5
  1
ALUMINUM\PCASTING
 73
     1
 44
1.0
  0
LEADER
  5
32DD
330
1A
100
AcDbEntity
  8
寸法線
 48
10.0
100
AcDbLeader
  3
ISO-25
 76
     3
 10
250.48521418727
 20
960.723453407294
 30
0.0
 10
232.577919779649
 20
1031.12215973084
 30
0.0
 10
242.859614316502
 20
1031.12215973084
 30
0.0
1001
ACAD
1000
DSTYLE
1002
{
1070
   147
1040
0.625
1070
    77
1070
     0
1070
    41
1040
6.0
1070
    47
1040
0.1
1070
    48
1040
0.1
1070
    73
1070
     0
1070
   140
1040
5.0
1070
   271
1070
     1
1070
   272
1070
     1
1070
   341
1005
2AF4
1070
   342
1005
2AF4
1002
}
  0
MTEXT
  5
32F3
330
1A
100
AcDbEntity
  8
寸法線
 48
10.0
100
AcDbMText
 10
-197.514657576758
 20
651.132369529332
 30
0.0
 40
6.0
 41
22.662715674224
 71
     1
 72
     5
  1
POWER\PSUPPLY
 73
     1
 44
1.0
  0
MTEXT
  5
344A
330
1A
100
AcDbEntity
  8
寸法線
 48
10.0
100
AcDbMText
 10
345.392177529856
 20
1055.657837693091
 30
0.0
 40
8.0
 41
46.212924374617
 71
     1
 72
     5
  1
ALUMINUM\PCASTING
 73
     1
 44
1.0
  0
MTEXT
  5
3467
102
{ACAD_XDICTIONARY
360
3CD2
102
}
330
1A
100
AcDbEntity
  8
寸法線
 48
10.0
100
AcDbMText
 10
-144.247334626343
 20
701.669459817354
 30
0.0
 40
8.0
 41
86.351503502276
 71
     1
 72
     5
  1
REVOLUTION\PTORQUE\PMICRO SWITCH\P\PCOLOR
 73
     1
 44
1.0
1001
AcadAnnotative
1000
AnnotativeData
1002
{
1070
     1
1070
     0
1002
}
  0
MTEXT
  5
3468
102
{ACAD_XDICTIONARY
360
3CD5
102
}
330
1A
100
AcDbEntity
  8
寸法線
 48
10.0
100
AcDbMText
 10
-62.213406896095
 20
701.669459817354
 30
0.0
 40
8.0
 41
104.818953793733
 71
     1
 72
     5
  1
:1RPM\P:about10.0N・cm\P:RESISTIVE LOAD\P 5amp 250V AC\P:10YR7.5/14
 73
     1
 44
1.0
1001
AcadAnnotative
1000
AnnotativeData
1002
{
1070
     1
1070
     0
1002
}
  0
MTEXT
  5
3477
330
1A
100
AcDbEntity
  8
寸法線
 48
10.0
100
AcDbMText
 10
-267.289945157064
 20
681.913808421666
 30
0.0
 40
8.0
 41
34.320635907425
 71
     1
 72
     5
  1
GREEN
 11
3.061515884555943E-16
 21
1.0
 31
0.0
 73
     1
 44
1.0
  0
MTEXT
  5
3478
330
1A
100
AcDbEntity
  8
寸法線
 48
10.0
100
AcDbMText
 10
-245.977886013678
 20
681.913808421666
 30
0.0
 40
8.0
 41
34.320635907425
 71
     1
 72
     5
  1
YELLOW
 11
2.832749226161502E-16
 21
1.0
 31
0.0
 73
     1
 44
1.0
  0
MTEXT
  5
3479
330
1A
100
AcDbEntity
  8
寸法線
 48
10.0
100
AcDbMText
 10
-225.34239805407
 20
681.913808421666
 30
0.0
 40
8.0
 41
34.320635907425
 71
     1
 72
     5
  1
RED
 11
2.832749226161502E-16
 21
1.0
 31
0.0
 73
     1
 44
1.0
  0
DIMENSION
  5
3833
330
1A
100
AcDbEntity
  8
寸法線
 48
10.0
100
AcDbDimension
  2
*D18
 10
156.077255803472
 20
911.074735692588
 30
0.0
 11
156.077255803471
 21
941.902807798887
 31
0.0
 70
   160
  1
φ<>
 71
     5
 42
9.9999225
  3
ISO-25
100
AcDbAlignedDimension
 13
156.077255803471
 23
921.074658192588
 33
0.0
 14
156.077255803471
 24
911.074735692588
 34
0.0
 50
90.0
100
AcDbRotatedDimension
1001
ACAD
1000
DSTYLE
1002
{
1070
    41
1040
6.0
1070
    47
1040
0.1
1070
    48
1040
0.1
1070
    73
1070
     0
1070
   140
1040
8.0
1070
   271
1070
     1
1070
   272
1070
     1
1070
   341
1005
2AF4
1070
   342
1005
2AF4
1002
}
  0
DIMENSION
  5
3834
330
1A
100
AcDbEntity
  8
寸法線
 48
10.0
100
AcDbDimension
  2
*D9
 10
188.162389197733
 20
796.894230045997
 30
0.0
 11
113.162389197733
 21
801.519230045997
 31
0.0
 70
    32
 71
     5
 42
150.0
  3
ISO-25
100
AcDbAlignedDimension
 13
38.162389197733
 23
876.067202407294
 33
0.0
 14
188.162389197733
 24
838.567202407294
 34
0.0
100
AcDbRotatedDimension
1001
ACAD
1000
DSTYLE
1002
{
1070
    41
1040
6.0
1070
    47
1040
0.1
1070
    48
1040
0.1
1070
    73
1070
     0
1070
   140
1040
8.0
1070
   271
1070
     1
1070
   272
1070
     1
1070
   341
1005
2AF4
1070
   342
1005
2AF4
1002
}
  0
DIMENSION
  5
3835
330
1A
100
AcDbEntity
  8
寸法線
 48
10.0
100
AcDbDimension
  2
*D10
 10
338.137577197733
 20
796.894230045997
 30
0.0
 11
263.149983197733
 21
801.519230045997
 31
0.0
 70
    32
 71
     5
 42
149.975188
  3
ISO-25
100
AcDbAlignedDimension
 13
188.162389197733
 23
838.567202407294
 33
0.0
 14
338.137577197733
 24
815.347029266848
 34
0.0
100
AcDbRotatedDimension
1001
ACAD
1000
DSTYLE
1002
{
1070
    41
1040
6.0
1070
    47
1040
0.1
1070
    48
1040
0.1
1070
    73
1070
     0
1070
   140
1040
8.0
1070
   271
1070
     1
1070
   272
1070
     1
1070
   341
1005
2AF4
1070
   342
1005
2AF4
1002
}
  0
DIMENSION
  5
3838
330
1A
100
AcDbEntity
  8
寸法線
 48
10.0
100
AcDbDimension
  2
*D13
 10
255.167682965816
 20
816.597029266848
 30
0.0
 11
296.652630081775
 21
821.222029266848
 31
0.0
 70
    32
 71
     5
 42
82.969894231917
  3
ISO-25
100
AcDbAlignedDimension
 13
338.137577197733
 23
884.799136407294
 33
0.0
 14
255.167682965816
 24
835.458970013585
 34
0.0
100
AcDbRotatedDimension
1001
ACAD
1000
DSTYLE
1002
{
1070
    41
1040
6.0
1070
    47
1040
0.1
1070
    48
1040
0.1
1070
    73
1070
     0
1070
   140
1040
8.0
1070
   271
1070
     1
1070
   272
1070
     1
1070
   341
1005
2AF4
1070
   342
1005
2AF4
1002
}
  0
DIMENSION
  5
3839
330
1A
100
AcDbEntity
  8
寸法線
 48
10.0
100
AcDbDimension
  2
*D14
 10
363.612308980614
 20
865.067202407294
 30
0.0
 11
363.612308980614
 21
915.455202907294
 31
0.0
 70
   160
  1
φ102
 71
     5
 42
102.0
  3
ISO-25
100
AcDbAlignedDimension
 13
293.869543197733
 23
967.067202407294
 33
0.0
 14
293.869543197733
 24
865.067202407294
 34
0.0
 50
90.0
100
AcDbRotatedDimension
1001
ACAD
1000
DSTYLE
1002
{
1070
    41
1040
6.0
1070
    47
1040
0.1
1070
    48
1040
0.1
1070
    73
1070
     0
1070
   140
1040
8.0
1070
   271
1070
     1
1070
   272
1070
     1
1070
   341
1005
2AF4
1070
   342
1005
2AF4
1002
}
  0
LINE
  5
384A
330
1A
100
AcDbEntity
  8
中心線
 48
10.0
100
AcDbLine
 10
337.768424543731
 20
916.067202407294
 30
0.0
 11
24.549638779049
 21
916.067202407294
 31
0.0
  0
LINE
  5
384B
330
1A
100
AcDbEntity
  8
外形線
100
AcDbLine
 10
133.162389197733
 20
924.218620692588
 30
0.0
 11
133.162389197733
 21
907.930700692588
 31
0.0
  0
LINE
  5
384C
330
1A
100
AcDbEntity
  8
外形線
100
AcDbLine
 10
141.662389197734
 20
911.074735692588
 30
0.0
 11
164.162389197733
 21
911.074735692588
 31
0.0
  0
LINE
  5
384D
330
1A
100
AcDbEntity
  8
外形線
100
AcDbLine
 10
141.662389197734
 20
921.074658192588
 30
0.0
 11
164.162389197733
 21
921.074658192588
 31
0.0
  0
DIMENSION
  5
384E
330
1A
100
AcDbEntity
  8
寸法線
 48
10.0
100
AcDbDimension
  2
*D15
 10
16.203147908528
 20
876.067202407294
 30
0.0
 11
11.578147908528
 21
916.067202407294
 31
0.0
 70
    32
 71
     5
 42
80.0
  3
ISO-25
100
AcDbAlignedDimension
 13
38.162389197733
 23
956.067202407294
 33
0.0
 14
38.162389197733
 24
876.067202407294
 34
0.0
 50
90.0
100
AcDbRotatedDimension
1001
ACAD
1000
DSTYLE
1002
{
1070
    41
1040
6.0
1070
    47
1040
0.1
1070
    48
1040
0.1
1070
    73
1070
     0
1070
   140
1040
8.0
1070
   271
1070
     1
1070
   272
1070
     1
1070
   341
1005
2AF4
1070
   342
1005
2AF4
1002
}
  0
DIMENSION
  5
384F
330
1A
100
AcDbEntity
  8
寸法線
 48
10.0
100
AcDbDimension
  2
*D16
 10
118.162389197733
 20
857.541145221722
 30
0.0
 11
78.162389197733
 21
862.166145221722
 31
0.0
 70
    32
 71
     5
 42
80.0
  3
ISO-25
100
AcDbAlignedDimension
 13
38.162389197733
 23
876.067202407294
 33
0.0
 14
118.162389197733
 24
904.067202407294
 34
0.0
100
AcDbRotatedDimension
1001
ACAD
1000
DSTYLE
1002
{
1070
    41
1040
6.0
1070
    47
1040
0.1
1070
    48
1040
0.1
1070
    73
1070
     0
1070
   140
1040
8.0
1070
   271
1070
     1
1070
   272
1070
     1
1070
   341
1005
2AF4
1070
   342
1005
2AF4
1002
}
  0
INSERT
  5
3852
330
1A
100
AcDbEntity
  8
外形線
 48
10.0
100
AcDbBlockReference
  2
パドル　W1
 10
-20.138726711767
 20
695.415440485483
 30
0.0
  0
INSERT
  5
3853
330
1A
100
AcDbEntity
  8
外形線
 48
10.0
100
AcDbBlockReference
  2
A$C480F1F2B
 10
133.162387696221
 20
907.79225100824
 30
0.0
  0
DIMENSION
  5
3855
330
1A
100
AcDbEntity
  8
寸法線
 48
10.0
100
AcDbDimension
  2
*D17
 10
198.162389197733
 20
816.597029266848
 30
0.0
 11
193.162389197733
 21
816.597029266848
 31
0.0
 70
   160
 71
     5
 42
10.0
  3
ISO-25
100
AcDbAlignedDimension
 13
188.162389197733
 23
838.567202407294
 33
0.0
 14
198.162389197733
 24
838.567202407294
 34
0.0
100
AcDbRotatedDimension
1001
ACAD
1000
DSTYLE
1002
{
1070
    41
1040
6.0
1070
    47
1040
0.1
1070
    48
1040
0.1
1070
    73
1070
     0
1070
   140
1040
8.0
1070
   271
1070
     1
1070
   272
1070
     1
1070
   341
1005
2AF4
1070
   342
1005
2AF4
1002
}
  0
LINE
  5
385A
330
1A
100
AcDbEntity
  8
中心線
  6
CENTER
 48
10.0
100
AcDbLine
 10
183.15990175548
 20
981.067202407294
 30
0.0
 11
203.162389197733
 21
981.067202407294
 31
0.0
  0
LINE
  5
385B
330
1A
100
AcDbEntity
  8
外形線
100
AcDbLine
 10
218.508883136536
 20
891.067202407294
 30
0.0
 11
201.162389197733
 21
891.067202407294
 31
0.0
  0
ARC
  5
385C
330
1A
100
AcDbEntity
  8
外形線
100
AcDbCircle
 10
201.162389197733
 20
888.067202407294
 30
0.0
 40
3.0
100
AcDbArc
 50
90.0
 51
180.0
  0
LINE
  5
385D
330
1A
100
AcDbEntity
  8
外形線
100
AcDbLine
 10
197.162389197733
 20
838.567202407294
 30
0.0
 11
188.662389197733
 21
838.567202407294
 31
0.0
  0
LINE
  5
385E
330
1A
100
AcDbEntity
  8
外形線
100
AcDbLine
 10
197.162389197733
 20
838.567202407294
 30
0.0
 11
198.162389197733
 21
839.567202407294
 31
0.0
  0
LINE
  5
385F
330
1A
100
AcDbEntity
  8
外形線
100
AcDbLine
 10
188.662389197733
 20
838.567202407294
 30
0.0
 11
188.162389197733
 21
839.067202407294
 31
0.0
  0
LINE
  5
3860
330
1A
100
AcDbEntity
  8
外形線
100
AcDbLine
 10
188.662389197733
 20
993.567202407294
 30
0.0
 11
188.162389197733
 21
993.067202407294
 31
0.0
  0
LINE
  5
3861
330
1A
100
AcDbEntity
  8
外形線
100
AcDbLine
 10
188.162389197733
 20
839.067202407294
 30
0.0
 11
188.162389197733
 21
993.067202407294
 31
0.0
  0
LINE
  5
3862
330
1A
100
AcDbEntity
  8
外形線
100
AcDbLine
 10
197.162389197733
 20
993.567202407294
 30
0.0
 11
198.162389197733
 21
992.567202407294
 31
0.0
  0
LINE
  5
3863
330
1A
100
AcDbEntity
  8
外形線
100
AcDbLine
 10
197.162389197733
 20
993.567202407294
 30
0.0
 11
188.662389197733
 21
993.567202407294
 31
0.0
  0
ARC
  5
3864
330
1A
100
AcDbEntity
  8
外形線
100
AcDbCircle
 10
201.162389197733
 20
944.067202407294
 30
0.0
 40
3.0
100
AcDbArc
 50
180.0
 51
270.0
  0
LINE
  5
3865
330
1A
100
AcDbEntity
  8
外形線
100
AcDbLine
 10
198.162389197733
 20
839.567202407294
 30
0.0
 11
198.162389197733
 21
992.567202407294
 31
0.0
  0
LINE
  5
3866
330
1A
100
AcDbEntity
  8
外形線
100
AcDbLine
 10
276.162389197733
 20
865.567202407294
 30
0.0
 11
276.162389197733
 21
869.027202407294
 31
0.0
  0
LINE
  5
3867
330
1A
100
AcDbEntity
  8
外形線
100
AcDbLine
 10
276.162389197733
 20
963.107202407294
 30
0.0
 11
276.162389197733
 21
966.567202407294
 31
0.0
  0
LINE
  5
3868
330
1A
100
AcDbEntity
  8
外形線
100
AcDbLine
 10
275.662389197733
 20
967.067202407294
 30
0.0
 11
271.162389197733
 21
967.067202407294
 31
0.0
  0
LINE
  5
3869
330
1A
100
AcDbEntity
  8
外形線
100
AcDbLine
 10
271.162389197733
 20
967.067202407294
 30
0.0
 11
268.162389197733
 21
962.067202407294
 31
0.0
  0
LINE
  5
386A
330
1A
100
AcDbEntity
  8
外形線
100
AcDbLine
 10
268.162389197733
 20
962.067202407294
 30
0.0
 11
233.706584724761
 21
960.152991047685
 31
0.0
  0
LINE
  5
386B
330
1A
100
AcDbEntity
  8
外形線
100
AcDbLine
 10
275.662389197733
 20
865.067202407294
 30
0.0
 11
270.162389197733
 21
865.067202407294
 31
0.0
  0
LINE
  5
386C
330
1A
100
AcDbEntity
  8
外形線
100
AcDbLine
 10
243.044082917682
 20
850.067202407294
 30
0.0
 11
267.29128301395
 21
850.067202407294
 31
0.0
  0
LINE
  5
386D
330
1A
100
AcDbEntity
  8
外形線
100
AcDbLine
 10
270.162389197733
 20
865.067202407294
 30
0.0
 11
269.286853329663
 21
851.934164386246
 31
0.0
  0
LINE
  5
386E
330
1A
100
AcDbEntity
  8
外形線
100
AcDbLine
 10
239.900346487002
 20
870.752125749206
 30
0.0
 11
241.047795104519
 21
851.945403527913
 31
0.0
  0
LINE
  5
386F
330
1A
100
AcDbEntity
  8
外形線
100
AcDbLine
 10
238.957672600043
 20
871.689686662721
 30
0.0
 11
233.706584724761
 21
871.981413766903
 31
0.0
  0
LINE
  5
3870
330
1A
100
AcDbEntity
  8
中心線
  6
CENTER
 48
10.0
100
AcDbLine
 10
255.167682965816
 20
835.458970013585
 30
0.0
 11
255.167682965816
 21
879.789424629516
 31
0.0
  0
LINE
  5
3871
330
1A
100
AcDbEntity
  8
外形線
100
AcDbLine
 10
231.336528074536
 20
958.759588962232
 30
0.0
 11
221.045349845629
 21
942.46522343313
 31
0.0
  0
LINE
  5
3872
330
1A
100
AcDbEntity
  8
外形線
100
AcDbLine
 10
218.508883136536
 20
941.067202407294
 30
0.0
 11
201.162389197733
 21
941.067202407294
 31
0.0
  0
LINE
  5
3873
330
1A
100
AcDbEntity
  8
外形線
100
AcDbLine
 10
231.336528074536
 20
873.374815852356
 30
0.0
 11
221.045349845629
 21
889.669181381458
 31
0.0
  0
ARC
  5
3874
330
1A
100
AcDbEntity
  8
外形線
100
AcDbCircle
 10
218.508883136536
 20
944.067202407294
 30
0.0
 40
3.0
100
AcDbArc
 50
270.0
 51
327.724355685421
  0
ARC
  5
3875
330
1A
100
AcDbEntity
  8
外形線
100
AcDbCircle
 10
218.508883136536
 20
888.067202407294
 30
0.0
 40
3.0
100
AcDbArc
 50
32.275644314579
 51
90.0
  0
ARC
  5
3876
330
1A
100
AcDbEntity
  8
外形線
100
AcDbCircle
 10
233.872994783629
 20
957.157609988068
 30
0.0
 40
3.0
100
AcDbArc
 50
93.179830119865
 51
147.724355685421
  0
ARC
  5
3877
330
1A
100
AcDbEntity
  8
外形線
100
AcDbCircle
 10
233.872994783629
 20
874.97679482652
 30
0.0
 40
3.0
100
AcDbArc
 50
212.275644314579
 51
266.820169880135
  0
ARC
  5
3878
330
1A
100
AcDbEntity
  8
外形線
100
AcDbCircle
 10
238.902202580421
 20
870.691226309516
 30
0.0
 40
1.0
100
AcDbArc
 50
3.491441283454
 51
86.820169880137
  0
ARC
  5
3879
330
1A
100
AcDbEntity
  8
外形線
100
AcDbCircle
 10
267.29128301395
 20
852.067202407294
 30
0.0
 40
2.0
100
AcDbArc
 50
270.0
 51
356.185925165712
  0
ARC
  5
387A
330
1A
100
AcDbEntity
  8
外形線
100
AcDbCircle
 10
243.044082917682
 20
852.067202407294
 30
0.0
 40
2.0
100
AcDbArc
 50
183.491441283454
 51
270.0
  0
LINE
  5
387B
330
1A
100
AcDbEntity
  8
外形線
100
AcDbLine
 10
275.662389197733
 20
967.067202407294
 30
0.0
 11
276.162389197733
 21
966.567202407294
 31
0.0
  0
LINE
  5
387C
330
1A
100
AcDbEntity
  8
外形線
100
AcDbLine
 10
275.662389197733
 20
865.067202407294
 30
0.0
 11
276.162389197733
 21
865.567202407294
 31
0.0
  0
LINE
  5
387D
330
1A
100
AcDbEntity
  8
外形線
100
AcDbLine
 10
241.173298965816
 20
845.783176407294
 30
0.0
 11
269.162190965817
 21
845.783176407294
 31
0.0
  0
LINE
  5
387E
330
1A
100
AcDbEntity
  8
外形線
100
AcDbLine
 10
242.601276965816
 20
840.642368407294
 30
0.0
 11
267.734090965817
 21
840.642368407294
 31
0.0
  0
ARC
  5
387F
330
1A
100
AcDbEntity
  8
細線
100
AcDbCircle
 10
255.167682965816
 20
855.179050407294
 30
0.0
 40
14.53669
100
AcDbArc
 50
244.390793033802
 51
295.609209213939
  0
LINE
  5
3880
330
1A
100
AcDbEntity
  8
外形線
100
AcDbLine
 10
241.173298965816
 20
845.783176407294
 30
0.0
 11
241.173298965816
 21
842.070408407294
 31
0.0
  0
LINE
  5
3881
330
1A
100
AcDbEntity
  8
細線
100
AcDbLine
 10
248.884480965816
 20
842.070408407294
 30
0.0
 11
248.884480965816
 21
845.783176407294
 31
0.0
  0
LINE
  5
3882
330
1A
100
AcDbEntity
  8
外形線
100
AcDbLine
 10
241.173298965816
 20
842.070408407294
 30
0.0
 11
242.601276965816
 21
840.642368407294
 31
0.0
  0
ARC
  5
3883
330
1A
100
AcDbEntity
  8
細線
100
AcDbCircle
 10
241.745320965816
 20
858.945286407294
 30
0.0
 40
18.322924
100
AcDbArc
 50
272.67766208363
 51
292.93154825417
  0
LINE
  5
3884
330
1A
100
AcDbEntity
  8
外形線
100
AcDbLine
 10
245.742878965817
 20
845.783176407294
 30
0.0
 11
245.742878965817
 21
850.067172407294
 31
0.0
  0
LINE
  5
3885
330
1A
100
AcDbEntity
  8
細線
100
AcDbLine
 10
248.027668965816
 20
850.067172407294
 30
0.0
 11
248.027668965816
 21
845.783176407294
 31
0.0
  0
LINE
  5
3886
330
1A
100
AcDbEntity
  8
外形線
100
AcDbLine
 10
164.162389197733
 20
927.767276407294
 30
0.0
 11
164.162389197733
 21
904.367130407294
 31
0.0
  0
LINE
  5
3887
330
1A
100
AcDbEntity
  8
外形線
100
AcDbLine
 10
293.869543197733
 20
967.067202407294
 30
0.0
 11
297.582311197733
 21
964.619204407294
 31
0.0
  0
LINE
  5
3888
330
1A
100
AcDbEntity
  8
細線
100
AcDbLine
 10
293.869543197733
 20
961.763248407294
 30
0.0
 11
293.869543197733
 21
967.067202407294
 31
0.0
  0
LINE
  5
3889
330
1A
100
AcDbEntity
  8
外形線
100
AcDbLine
 10
276.162389197733
 20
967.067202407294
 30
0.0
 11
276.162389197733
 21
865.067202407294
 31
0.0
  0
LINE
  5
388A
330
1A
100
AcDbEntity
  8
外形線
100
AcDbLine
 10
278.161535197733
 20
865.067202407294
 30
0.0
 11
278.161535197733
 21
967.067202407294
 31
0.0
  0
LINE
  5
388B
330
1A
100
AcDbEntity
  8
外形線
100
AcDbLine
 10
328.427159197734
 20
916.067202407294
 30
0.0
 11
328.427159197734
 21
873.578922407294
 31
0.0
  0
LINE
  5
388C
330
1A
100
AcDbEntity
  8
外形線
100
AcDbLine
 10
338.137609197733
 20
892.648014407294
 30
0.0
 11
338.137609197733
 21
910.069644407294
 31
0.0
  0
LINE
  5
388D
330
1A
100
AcDbEntity
  8
細線
100
AcDbLine
 10
293.869543197733
 20
911.783268407294
 30
0.0
 11
293.869543197733
 21
893.219180407294
 31
0.0
  0
LINE
  5
388E
330
1A
100
AcDbEntity
  8
細線
100
AcDbLine
 10
297.582311197733
 20
964.619204407294
 30
0.0
 11
297.582311197733
 21
867.515200407294
 31
0.0
  0
LINE
  5
388F
330
1A
100
AcDbEntity
  8
細線
100
AcDbLine
 10
261.450886965816
 20
842.070408407294
 30
0.0
 11
261.450886965816
 21
845.783176407294
 31
0.0
  0
LINE
  5
3890
330
1A
100
AcDbEntity
  8
外形線
100
AcDbLine
 10
269.162190965817
 20
845.783176407294
 30
0.0
 11
269.162190965817
 21
842.070408407294
 31
0.0
  0
ARC
  5
3891
330
1A
100
AcDbEntity
  8
細線
100
AcDbCircle
 10
268.590046965816
 20
858.945286407294
 30
0.0
 40
18.322924
100
AcDbArc
 50
247.068453993571
 51
267.322397459893
  0
LINE
  5
3892
330
1A
100
AcDbEntity
  8
外形線
100
AcDbLine
 10
269.162190965817
 20
842.070408407294
 30
0.0
 11
267.734090965817
 21
840.642368407294
 31
0.0
  0
LINE
  5
3893
330
1A
100
AcDbEntity
  8
外形線
100
AcDbLine
 10
264.592488965816
 20
845.783176407294
 30
0.0
 11
264.592488965816
 21
850.067172407294
 31
0.0
  0
LINE
  5
3894
330
1A
100
AcDbEntity
  8
細線
100
AcDbLine
 10
262.307698965816
 20
850.067172407294
 30
0.0
 11
262.307698965816
 21
845.783176407294
 31
0.0
  0
LINE
  5
3895
330
1A
100
AcDbEntity
  8
外形線
100
AcDbLine
 10
297.582311197733
 20
867.515200407294
 30
0.0
 11
323.796545197733
 21
868.728886407294
 31
0.0
  0
LINE
  5
3896
330
1A
100
AcDbEntity
  8
細線
100
AcDbLine
 10
293.869543197733
 20
885.222476407294
 30
0.0
 11
293.869543197733
 21
873.798404407294
 31
0.0
  0
LINE
  5
3897
330
1A
100
AcDbEntity
  8
外形線
100
AcDbLine
 10
276.162389197733
 20
865.067202407294
 30
0.0
 11
293.869543197733
 21
865.067202407294
 31
0.0
  0
ARC
  5
3898
330
1A
100
AcDbEntity
  8
外形線
100
AcDbCircle
 10
295.855627197734
 20
872.084782407294
 30
0.0
 40
1.714446
100
AcDbArc
 50
271.804703586973
 51
88.195318508605
  0
LINE
  5
3899
330
1A
100
AcDbEntity
  8
外形線
100
AcDbLine
 10
295.909643197733
 20
870.371280407294
 30
0.0
 11
278.161535197733
 21
870.371280407294
 31
0.0
  0
LINE
  5
389A
330
1A
100
AcDbEntity
  8
外形線
100
AcDbLine
 10
295.909643197733
 20
873.798404407294
 30
0.0
 11
278.161535197733
 21
873.798404407294
 31
0.0
  0
LINE
  5
389B
330
1A
100
AcDbEntity
  8
外形線
100
AcDbLine
 10
297.582311197733
 20
867.515200407294
 30
0.0
 11
293.869543197733
 21
865.067202407294
 31
0.0
  0
LINE
  5
389C
330
1A
100
AcDbEntity
  8
細線
100
AcDbLine
 10
293.869543197733
 20
870.371280407294
 30
0.0
 11
293.869543197733
 21
865.067202407294
 31
0.0
  0
LINE
  5
389D
330
1A
100
AcDbEntity
  8
外形線
100
AcDbLine
 10
278.161535197733
 20
893.219180407294
 30
0.0
 11
293.869543197733
 21
893.219180407294
 31
0.0
  0
LINE
  5
389E
330
1A
100
AcDbEntity
  8
外形線
100
AcDbLine
 10
278.161535197733
 20
885.222476407294
 30
0.0
 11
293.958653197733
 21
885.222476407294
 31
0.0
  0
ARC
  5
389F
330
1A
100
AcDbEntity
  8
外形線
100
AcDbCircle
 10
293.543493197733
 20
889.216740407294
 30
0.0
 40
4.015794000000001
100
AcDbArc
 50
275.934583374273
 51
85.343077308665
  0
ARC
  5
38A0
330
1A
100
AcDbEntity
  8
外形線
100
AcDbCircle
 10
323.571935197733
 20
873.578922407294
 30
0.0
 40
4.8552
100
AcDbArc
 50
272.650733067261
 51
359.999982399895
  0
LINE
  5
38A1
330
1A
100
AcDbEntity
  8
外形線
100
AcDbLine
 10
330.505957197733
 20
890.648868407294
 30
0.0
 11
336.138341197733
 21
890.648868407294
 31
0.0
  0
LINE
  5
38A2
330
1A
100
AcDbEntity
  8
外形線
100
AcDbLine
 10
328.427159197734
 20
882.937686407294
 30
0.0
 11
336.226109197733
 21
882.937686407294
 31
0.0
  0
LINE
  5
38A3
330
1A
100
AcDbEntity
  8
外形線
100
AcDbLine
 10
330.505895197733
 20
886.650454407294
 30
0.0
 11
336.475987197733
 21
886.650454407294
 31
0.0
  0
ARC
  5
38A4
330
1A
100
AcDbEntity
  8
外形線
100
AcDbCircle
 10
330.427649197733
 20
888.649692407294
 30
0.0
 40
2.000724
100
AcDbArc
 50
87.757023395436
 51
272.242959004484
  0
ARC
  5
38A5
330
1A
100
AcDbEntity
  8
外形線
100
AcDbCircle
 10
336.138341197733
 20
892.648014407294
 30
0.0
 40
1.9992
100
AcDbArc
 50
270.0
 51
359.999982399895
  0
ARC
  5
38A6
330
1A
100
AcDbEntity
  8
外形線
100
AcDbCircle
 10
336.275427197733
 20
884.799136407294
 30
0.0
 40
1.86215
100
AcDbArc
 50
268.482178628784
 51
83.815801009983
  0
LINE
  5
38A7
330
1A
100
AcDbEntity
  8
外形線
100
AcDbLine
 10
338.137609197733
 20
939.486392407294
 30
0.0
 11
338.137609197733
 21
922.064762407294
 31
0.0
  0
LINE
  5
38A8
330
1A
100
AcDbEntity
  8
細線
100
AcDbLine
 10
293.869543197733
 20
920.351260407294
 30
0.0
 11
293.869543197733
 21
938.915226407294
 31
0.0
  0
LINE
  5
38A9
330
1A
100
AcDbEntity
  8
外形線
100
AcDbLine
 10
328.427159197734
 20
916.067202407294
 30
0.0
 11
328.427159197734
 21
958.555606407294
 31
0.0
  0
ARC
  5
38AA
330
1A
100
AcDbEntity
  8
外形線
100
AcDbCircle
 10
292.582433197733
 20
916.649722407294
 30
0.0
 40
5.033766
100
AcDbArc
 50
284.815257311479
 51
353.355849216007
  0
LINE
  5
38AB
330
1A
100
AcDbEntity
  8
外形線
100
AcDbLine
 10
278.161535197733
 20
911.783268407294
 30
0.0
 11
293.869543197733
 21
911.783268407294
 31
0.0
  0
ARC
  5
38AC
330
1A
100
AcDbEntity
  8
外形線
100
AcDbCircle
 10
292.582433197733
 20
915.484806407294
 30
0.0
 40
5.033766
100
AcDbArc
 50
6.644133183896
 51
75.184725088441
  0
LINE
  5
38AD
330
1A
100
AcDbEntity
  8
外形線
100
AcDbLine
 10
278.161535197733
 20
920.351260407294
 30
0.0
 11
293.869543197733
 21
920.351260407294
 31
0.0
  0
ARC
  5
38AE
330
1A
100
AcDbEntity
  8
外形線
100
AcDbCircle
 10
330.581579197733
 20
914.214420407294
 30
0.0
 40
2.15556
100
AcDbArc
 50
181.910948686156
 51
264.487402289583
  0
ARC
  5
38AF
330
1A
100
AcDbEntity
  8
外形線
100
AcDbCircle
 10
336.138341197733
 20
910.069644407294
 30
0.0
 40
1.9992
100
AcDbArc
 50
0.0
 51
89.999981276021
  0
LINE
  5
38B0
330
1A
100
AcDbEntity
  8
外形線
100
AcDbLine
 10
330.374547197733
 20
912.068912407294
 30
0.0
 11
336.138341197733
 21
912.068912407294
 31
0.0
  0
LINE
  5
38B1
330
1A
100
AcDbEntity
  8
外形線
100
AcDbLine
 10
330.374547197733
 20
920.065616407294
 30
0.0
 11
336.138341197733
 21
920.065616407294
 31
0.0
  0
ARC
  5
38B2
330
1A
100
AcDbEntity
  8
外形線
100
AcDbCircle
 10
330.581579197733
 20
917.920108407294
 30
0.0
 40
2.15556
100
AcDbArc
 50
95.512637406103
 51
178.089033713734
  0
ARC
  5
38B3
330
1A
100
AcDbEntity
  8
外形線
100
AcDbCircle
 10
336.138341197733
 20
922.064762407294
 30
0.0
 40
1.9992
100
AcDbArc
 50
270.0
 51
359.999982399908
  0
LINE
  5
38B4
330
1A
100
AcDbEntity
  8
外形線
100
AcDbLine
 10
297.582311197733
 20
964.619204407294
 30
0.0
 11
323.796545197733
 21
963.405582407294
 31
0.0
  0
LINE
  5
38B5
330
1A
100
AcDbEntity
  8
細線
100
AcDbLine
 10
293.869543197733
 20
946.912052407294
 30
0.0
 11
293.869543197733
 21
958.336002407294
 31
0.0
  0
LINE
  5
38B6
330
1A
100
AcDbEntity
  8
外形線
100
AcDbLine
 10
278.161535197733
 20
946.912052407294
 30
0.0
 11
293.958653197733
 21
946.912052407294
 31
0.0
  0
LINE
  5
38B7
330
1A
100
AcDbEntity
  8
外形線
100
AcDbLine
 10
278.161535197733
 20
938.915226407294
 30
0.0
 11
293.869543197733
 21
938.915226407294
 31
0.0
  0
ARC
  5
38B8
330
1A
100
AcDbEntity
  8
外形線
100
AcDbCircle
 10
293.543493197733
 20
942.917788407294
 30
0.0
 40
4.015794000000001
100
AcDbArc
 50
274.656944786914
 51
84.065438721313
  0
ARC
  5
38B9
330
1A
100
AcDbEntity
  8
外形線
100
AcDbCircle
 10
295.855627197734
 20
960.049624407294
 30
0.0
 40
1.714446
100
AcDbArc
 50
271.804703586973
 51
88.195318508605
  0
LINE
  5
38BA
330
1A
100
AcDbEntity
  8
外形線
100
AcDbLine
 10
295.909643197733
 20
961.763248407294
 30
0.0
 11
278.161535197733
 21
961.763248407294
 31
0.0
  0
LINE
  5
38BB
330
1A
100
AcDbEntity
  8
外形線
100
AcDbLine
 10
295.909643197733
 20
958.336002407294
 30
0.0
 11
278.161535197733
 21
958.336002407294
 31
0.0
  0
ARC
  5
38BC
330
1A
100
AcDbEntity
  8
外形線
100
AcDbCircle
 10
336.275427197733
 20
947.335392407294
 30
0.0
 40
1.86215
100
AcDbArc
 50
276.18422108563
 51
91.517843466792
  0
LINE
  5
38BD
330
1A
100
AcDbEntity
  8
外形線
100
AcDbLine
 10
330.505895197733
 20
945.483950407294
 30
0.0
 11
336.475987197733
 21
945.483950407294
 31
0.0
  0
LINE
  5
38BE
330
1A
100
AcDbEntity
  8
外形線
100
AcDbLine
 10
330.505895197733
 20
941.485660407294
 30
0.0
 11
336.138341197733
 21
941.485660407294
 31
0.0
  0
ARC
  5
38BF
330
1A
100
AcDbEntity
  8
外形線
100
AcDbCircle
 10
330.426367197733
 20
943.484806407294
 30
0.0
 40
2.000726
100
AcDbArc
 50
87.722187561486
 51
272.27785213419
  0
ARC
  5
38C0
330
1A
100
AcDbEntity
  8
外形線
100
AcDbCircle
 10
336.138341197733
 20
939.486392407294
 30
0.0
 40
1.9992
100
AcDbArc
 50
0.0
 51
89.999981276021
  0
LINE
  5
38C1
330
1A
100
AcDbEntity
  8
外形線
100
AcDbLine
 10
328.427159197734
 20
949.196842407294
 30
0.0
 11
336.226109197733
 21
949.196842407294
 31
0.0
  0
ARC
  5
38C2
330
1A
100
AcDbEntity
  8
外形線
100
AcDbCircle
 10
323.571935197733
 20
958.555606407294
 30
0.0
 40
4.8552
100
AcDbArc
 50
0.0
 51
87.349306628423
  0
LINE
  5
38C3
330
1A
100
AcDbEntity
  8
外形線
100
AcDbLine
 10
276.162389197733
 20
967.067202407294
 30
0.0
 11
293.869543197733
 21
967.067202407294
 31
0.0
  0
LINE
  5
38C4
330
1A
100
AcDbEntity
  8
細線
 48
10.0
100
AcDbLine
 10
232.303446030861
 20
956.48385226826
 30
0.0
 11
232.303446030861
 21
875.963068130131
 31
0.0
  0
LINE
  5
38C5
330
1A
100
AcDbEntity
  8
細線
 48
10.0
100
AcDbLine
 10
219.259169100361
 20
939.454652450751
 30
0.0
 11
219.259169100361
 21
892.571794200361
 31
0.0
  0
LINE
  5
38C6
330
1A
100
AcDbEntity
  8
細線
 48
10.0
100
AcDbLine
 10
271.162389197733
 20
967.067202407294
 30
0.0
 11
271.162389197733
 21
865.067202407294
 31
0.0
  0
LINE
  5
38C7
330
1A
100
AcDbEntity
  8
細線
 48
10.0
100
AcDbLine
 10
268.162389197733
 20
962.067202407294
 30
0.0
 11
268.162389197733
 21
872.404291930682
 31
0.0
  0
ARC
  5
38C8
330
1A
100
AcDbEntity
  8
細線
 48
10.0
100
AcDbCircle
 10
255.167682965816
 20
843.43251184074
 30
0.0
 40
31.75258149558497
100
AcDbArc
 50
65.842344967625
 51
118.22770450657
  0
LINE
  5
38C9
330
1A
100
AcDbEntity
  8
細線
 48
10.0
100
AcDbLine
 10
268.162389197733
 20
872.404291930682
 30
0.0
 11
271.162389197733
 21
865.067202407294
 31
0.0
  0
LINE
  5
38CA
330
1A
100
AcDbEntity
  8
中心線
  6
CENTER
 48
10.0
100
AcDbLine
 10
183.15990175548
 20
851.067202407294
 30
0.0
 11
203.162389197733
 21
851.067202407294
 31
0.0
  0
LINE
  5
38CB
330
1A
100
AcDbEntity
  8
外形線
100
AcDbLine
 10
188.162389197733
 20
931.067202407294
 30
0.0
 11
183.662389197733
 21
931.067202407294
 31
0.0
  0
LINE
  5
38CC
330
1A
100
AcDbEntity
  8
外形線
100
AcDbLine
 10
183.662389197733
 20
931.067202407294
 30
0.0
 11
183.162389197733
 21
930.567202407294
 31
0.0
  0
LINE
  5
38CD
330
1A
100
AcDbEntity
  8
外形線
100
AcDbLine
 10
183.162389197733
 20
931.078309406224
 30
0.0
 11
183.162389197733
 21
901.056095408364
 31
0.0
  0
LINE
  5
38CE
330
1A
100
AcDbEntity
  8
外形線
100
AcDbLine
 10
183.162389197733
 20
901.567202407294
 30
0.0
 11
183.662389197733
 21
901.067202407294
 31
0.0
  0
LINE
  5
38CF
330
1A
100
AcDbEntity
  8
外形線
100
AcDbLine
 10
183.662389197733
 20
901.067202407294
 30
0.0
 11
188.162389197733
 21
901.067202407294
 31
0.0
  0
LINE
  5
38D0
330
1A
100
AcDbEntity
  8
外形線
100
AcDbLine
 10
188.162389197733
 20
901.067202407294
 30
0.0
 11
188.162389197733
 21
901.067202407294
 31
0.0
  0
LINE
  5
38D1
330
1A
100
AcDbEntity
  8
外形線
100
AcDbLine
 10
164.162389197733
 20
903.067202407294
 30
0.0
 11
165.849908338793
 21
901.056095408364
 31
0.0
  0
LINE
  5
38D2
330
1A
100
AcDbEntity
  8
外形線
100
AcDbLine
 10
164.162389197733
 20
929.067202407294
 30
0.0
 11
165.849908338793
 21
931.078309406224
 31
0.0
  0
LINE
  5
38D3
330
1A
100
AcDbEntity
  8
外形線
100
AcDbLine
 10
183.162389197733
 20
931.078309406224
 30
0.0
 11
165.849908338793
 21
931.078309406224
 31
0.0
  0
LINE
  5
38D4
330
1A
100
AcDbEntity
  8
外形線
100
AcDbLine
 10
183.162389197733
 20
901.056095408364
 30
0.0
 11
165.849908338793
 21
901.056095408364
 31
0.0
  0
LINE
  5
38D5
330
1A
100
AcDbEntity
  8
外形線
100
AcDbLine
 10
164.162389197733
 20
929.067202407294
 30
0.0
 11
164.162389197733
 21
903.067202407294
 31
0.0
  0
LINE
  5
38D6
330
1A
100
AcDbEntity
  8
細線
100
AcDbLine
 10
183.162389197733
 20
923.572755906759
 30
0.0
 11
165.323502364934
 21
923.572755906759
 31
0.0
  0
ARC
  5
38D7
330
1A
100
AcDbEntity
  8
細線
100
AcDbCircle
 10
189.001276030532
 20
916.067202407294
 30
0.0
 40
24.83888683279929
100
AcDbArc
 50
162.412046226009
 51
197.587953773991
  0
ARC
  5
38D8
330
1A
100
AcDbEntity
  8
細線
100
AcDbCircle
 10
188.889348496753
 20
931.422714460882
 30
0.0
 40
24.8389
100
AcDbArc
 50
185.441626111183
 51
198.423299304877
  0
LINE
  5
38D9
330
1A
100
AcDbEntity
  8
細線
100
AcDbLine
 10
183.162389197733
 20
908.561648907829
 30
0.0
 11
165.323502364934
 21
908.561648907829
 31
0.0
  0
ARC
  5
38DA
330
1A
100
AcDbEntity
  8
細線
100
AcDbCircle
 10
188.889348496753
 20
900.711690353706
 30
0.0
 40
24.8389
100
AcDbArc
 50
161.576700695123
 51
174.558373888817
  0
MTEXT
  5
3C8C
102
{ACAD_XDICTIONARY
360
3C8D
102
}
330
1A
100
AcDbEntity
  8
寸法線
 48
10.0
100
AcDbMText
 10
-256.085740061918
 20
669.101411288111
 30
0.0
 40
6.0
 41
49.50078544177
 71
     1
 72
     5
  1
L　　C　　 H
 73
     1
 44
1.0
1001
AcadAnnotative
1000
AnnotativeData
1002
{
1070
     1
1070
     0
1002
}
  0
MTEXT
  5
3CB8
102
{ACAD_XDICTIONARY
360
3CB9
102
}
330
1A
100
AcDbEntity
  8
寸法線
 48
10.0
100
AcDbMText
 10
-206.068124725868
 20
668.570658115703
 30
0.0
 40
6.0
 41
101.805806042976
 71
     1
 72
     5
  1
100/110 0
 73
     1
 44
1.0
1001
AcadAnnotative
1000
AnnotativeData
1002
{
1070
     1
1070
     0
1002
}
  0
MTEXT
  5
3CC1
102
{ACAD_XDICTIONARY
360
3CC2
102
}
330
1A
100
AcDbEntity
  8
寸法線
 48
10.0
100
AcDbMText
 10
-210.934144961397
 20
660.740874590002
 30
0.0
 40
6.0
 41
101.805806042976
 71
     1
 72
     5
  1
(200/220 0)
 73
     1
 44
1.0
1001
AcadAnnotative
1000
AnnotativeData
1002
{
1070
     1
1070
     0
1002
}
  0
LINE
  5
3CCA
330
1A
100
AcDbEntity
  8
寸法線
 62
     1
 48
10.0
100
AcDbLine
 10
-146.040140750645
 20
756.000866595875
 30
0.0
 11
62.4749588048
 21
756.000866595875
 31
0.0
  0
LINE
  5
3CCB
330
1A
100
AcDbEntity
  8
寸法線
 62
     1
 48
10.0
100
AcDbLine
 10
-146.040140750645
 20
742.739317831628
 30
0.0
 11
62.4749588048
 21
742.739317831628
 31
0.0
  0
LINE
  5
3CCC
330
1A
100
AcDbEntity
  8
寸法線
 62
     1
 48
10.0
100
AcDbLine
 10
-146.040140750645
 20
729.477769067381
 30
0.0
 11
62.4749588048
 21
729.477769067381
 31
0.0
  0
LINE
  5
3CCD
330
1A
100
AcDbEntity
  8
寸法線
 62
     1
 48
10.0
100
AcDbLine
 10
-146.040140750645
 20
769.002384992195
 30
0.0
 11
62.4749588048
 21
769.002384992195
 31
0.0
  0
LINE
  5
3CCE
330
1A
100
AcDbEntity
  8
寸法線
 62
     1
 48
10.0
100
AcDbLine
 10
-113.276314391918
 20
769.002384992195
 30
0.0
 11
-113.276314391918
 21
729.477769067381
 31
0.0
  0
LINE
  5
3CCF
330
1A
100
AcDbEntity
  8
寸法線
 62
     1
 48
10.0
100
AcDbLine
 10
-146.040140750645
 20
769.002384992195
 30
0.0
 11
-146.040140750645
 21
729.477769067381
 31
0.0
  0
LINE
  5
3CD0
330
1A
100
AcDbEntity
  8
寸法線
 62
     1
 48
10.0
100
AcDbLine
 10
-30.504560805281
 20
769.002384992195
 30
0.0
 11
-30.504560805281
 21
729.477769067381
 31
0.0
  0
LINE
  5
3CD1
330
1A
100
AcDbEntity
  8
寸法線
 62
     1
 48
10.0
100
AcDbLine
 10
62.4749588048
 20
769.002384992195
 30
0.0
 11
62.4749588048
 21
729.477769067381
 31
0.0
  0
TEXT
  5
3D6D
330
1A
100
AcDbEntity
  8
寸法線
100
AcDbText
 10
-94.301920900815
 20
716.62669522565
 30
0.0
 40
8.0
  1
○
 41
1.034482758621
  7
EXCADSTD
 72
     5
 11
-86.301920900815
 21
716.62669522565
 31
0.0
100
AcDbText
  0
LINE
  5
3D6E
330
1A
100
AcDbEntity
  8
寸法線
100
AcDbLine
 10
-115.602304900815
 20
720.70958122565
 30
0.0
 11
-98.300944900815
 21
720.70958122565
 31
0.0
  0
TEXT
  5
3D6F
330
1A
100
AcDbEntity
  8
寸法線
100
AcDbText
 10
-84.133031173595
 20
716.72673122565
 30
0.0
 40
8.0
  1
(Required length)
100
AcDbText
  0
LWPOLYLINE
  5
3D70
330
1A
100
AcDbEntity
  8
寸法線
100
AcDbPolyline
 90
        3
 70
     0
 43
0.0
 10
-125.308286900815
 20
727.96956522565
 10
-125.308286900815
 20
720.70958122565
 10
-115.042266900815
 20
720.70958122565
  0
LINE
  5
3D71
330
1A
100
AcDbEntity
  8
寸法線
100
AcDbLine
 10
-123.755372630199
 20
722.174010267916
 30
0.0
 11
-125.308286900815
 21
727.96956522565
 31
0.0
  0
LINE
  5
3D72
330
1A
100
AcDbEntity
  8
寸法線
100
AcDbLine
 10
-125.308286900815
 20
727.96956522565
 30
0.0
 11
-126.861201171431
 21
722.174010267916
 31
0.0
  0
TEXT
  5
3DCE
330
1A
100
AcDbEntity
  8
寸法線
100
AcDbText
 10
-196.796570969625
 20
677.551873622193
 30
0.0
 40
8.0
  1
WHITE(BLACK)
 50
90.0
 41
0.838818834022
 72
     5
 11
-196.796570969625
 21
732.913916667629
 31
0.0
100
AcDbText
  0
TEXT
  5
3DCF
330
1A
100
AcDbEntity
  8
寸法線
100
AcDbText
 10
-176.784398481661
 20
677.551873622193
 30
0.0
 40
8.0
  1
WHITE(BLACK)
 50
90.0
 41
0.838818834022
 72
     5
 11
-176.784398481661
 21
732.913916667629
 31
0.0
100
AcDbText
  0
MTEXT
  5
3E60
102
{ACAD_XDICTIONARY
360
3E61
102
}
330
1A
100
AcDbEntity
  8
寸法線
 48
10.0
100
AcDbMText
 10
-143.017772011492
 20
766.141386231918
 30
0.0
 40
8.0
 41
226.341524583173
 71
     1
 72
     5
  1
       POWER SUPPLY LEAD WIRE COLOR\P        100/110V AC      WHITE・WHITE\P        200/220V AC     BLACK・BLACK
 73
     1
 44
1.0
1001
AcadAnnotative
1000
AnnotativeData
1002
{
1070
     1
1070
     0
1002
}
  0
LINE
  5
3F0D
330
1A
100
AcDbEntity
  8
寸法線
 48
10.0
100
AcDbLine
 10
-146.040140750645
 20
756.000866595875
 30
0.0
 11
-113.276314391918
 21
769.002384992195
 31
0.0
  0
VIEWPORT
  5
2902
102
{ACAD_XDICTIONARY
360
3FB6
102
}
330
28FB
100
AcDbEntity
 67
     1
  8
0
 48
10.0
100
AcDbViewport
 10
230.993487615925
 20
127.322940582927
 30
0.0
 40
599.012697647832
 41
301.831107029535
 68
     1
 69
     1
 12
230.993487615925
 22
127.322940582927
 13
0.0
 23
0.0
 14
10.0
 24
10.0
 15
10.0
 25
10.0
 16
0.0
 26
0.0
 36
1.0
 17
0.0
 27
0.0
 37
0.0
 42
50.0
 43
0.0
 44
0.0
 45
301.831107029535
 50
0.0
 51
0.0
 72
   100
 90
    32800
  1

281
     0
 71
     1
 74
     0
110
0.0
120
0.0
130
0.0
111
1.0
121
0.0
131
0.0
112
0.0
122
1.0
132
0.0
 79
     0
146
0.0
170
     0
  0
VIEWPORT
  5
2904
102
{ACAD_XDICTIONARY
360
3FB8
102
}
330
28FB
100
AcDbEntity
 67
     1
  8
図枠太線
 48
10.0
100
AcDbViewport
 10
204.746305129083
 20
162.617583436752
 30
0.0
 40
400.0
 41
240.0
 68
     2
 69
     2
 12
69.750981462704
 22
858.488236949447
 13
0.0
 23
0.0
 14
1.0
 24
1.0
 15
0.0
 25
0.0
 16
0.0
 26
0.0
 36
1.0
 17
0.0
 27
0.0
 37
0.0
 42
50.0
 43
0.0
 44
0.0
 45
480.000001325868
 50
0.0
 51
0.0
 72
   100
 90
    32768
  1

281
     0
 71
     1
 74
     0
110
0.0
120
0.0
130
0.0
111
1.0
121
0.0
131
0.0
112
0.0
122
1.0
132
0.0
 79
     0
146
0.0
170
     0
  0
INSERT
  5
2A59
330
28FB
100
AcDbEntity
 67
     1
  8
図枠太線
100
AcDbBlockReference
  2
A3横用　タイトル
 10
-0.352109406709
 20
-0.908376316775
 30
0.0
  0
MTEXT
  5
2E5D
330
28FB
100
AcDbEntity
 67
     1
  8
寸法線
 48
10.0
100
AcDbMText
 10
149.717021038353
 20
14.703584610768
 30
0.0
 40
7.0
 41
15.363556412778
 71
     1
 72
     5
  1
1:2
 73
     1
 44
1.0
  0
MTEXT
  5
2E60
330
28FB
100
AcDbEntity
 67
     1
  8
寸法線
 48
10.0
100
AcDbMText
 10
360.585074534211
 20
38.91334239667
 30
0.0
 40
5.0
 41
43.047199206047
 71
     1
 72
     5
  1
PADDLE TYPE\PLEVEL SWITCH
 73
     1
 44
1.0
  0
MTEXT
  5
2E61
330
28FB
100
AcDbEntity
 67
     1
  8
寸法線
 48
10.0
100
AcDbMText
 10
315.211359759691
 20
34.438929255247
 30
0.0
 40
7.0
 41
41.045003631856
 71
     1
 72
     5
  1
PRL-100
 73
     1
 44
1.0
  0
MTEXT
  5
2E62
102
{ACAD_XDICTIONARY
360
3DD9
102
}
330
28FB
100
AcDbEntity
 67
     1
  8
寸法線
 48
10.0
100
AcDbMText
 10
341.90889404113
 20
16.655413996259
 30
0.0
 40
8.0
 41
38.04171107615
 71
     1
 72
     5
  1
HR-10841
 73
     1
 44
1.0
1001
AcadAnnotative
1000
AnnotativeData
1002
{
1070
     1
1070
     0
1002
}
  0
MTEXT
  5
3486
102
{ACAD_XDICTIONARY
360
3DD6
102
}
330
28FB
100
AcDbEntity
 67
     1
  8
寸法線
 48
10.0
100
AcDbMText
 10
377.578732928367
 20
51.979683722791
 30
0.0
 40
5.0
 41
20.024459373141
 71
     1
 72
     5
  1
Q'ty: 
 73
     1
 44
1.0
1001
AcadAnnotative
1000
AnnotativeData
1002
{
1070
     1
1070
     0
1002
}
  0
MTEXT
  5
36B0
102
{ACAD_XDICTIONARY
360
3DD0
102
}
330
28FB
100
AcDbEntity
 67
     1
  8
寸法線
 48
10.0
100
AcDbMText
 10
181.386136578711
 20
33.586453035674
 30
0.0
 40
4.5
 41
23.879746689072
 71
     1
 72
     5
  1
ohno
 73
     1
 44
1.0
1001
AcadAnnotative
1000
AnnotativeData
1002
{
1070
     1
1070
     0
1002
}
  0
MTEXT
  5
36B1
102
{ACAD_XDICTIONARY
360
3DD3
102
}
330
28FB
100
AcDbEntity
 67
     1
  8
寸法線
 48
10.0
100
AcDbMText
 10
174.85582844433
 20
13.729118394965
 30
0.0
 40
4.0
 41
32.052538367454
 71
     1
 72
     5
  1
Feb,29,2016
 73
     1
 44
1.0
1001
AcadAnnotative
1000
AnnotativeData
1002
{
1070
     1
1070
     0
1002
}
  0
ENDSEC
  0
SECTION
  2
OBJECTS
  0
DICTIONARY
  5
C
330
0
100
AcDbDictionary
281
     1
  3
ACAD_COLOR
350
2948
  3
ACAD_DETAILVIEWSTYLE
350
3D39
  3
ACAD_GROUP
350
D
  3
ACAD_LAYOUT
350
2816
  3
ACAD_MATERIAL
350
2947
  3
ACAD_MLEADERSTYLE
350
3C0C
  3
ACAD_MLINESTYLE
350
E
  3
ACAD_PLOTSETTINGS
350
2817
  3
ACAD_PLOTSTYLENAME
350
2814
  3
ACAD_SCALELIST
350
3BE5
  3
ACAD_SECTIONVIEWSTYLE
350
3D3A
  3
ACAD_TABLESTYLE
350
3C0A
  3
ACAD_VISUALSTYLE
350
3BCC
  3
ACDB_RECOMPOSE_DATA
350
3FF7
  3
AcDbVariableDictionary
350
3CF6
  0
DICTIONARY
  5
3FBA
330
8
100
AcDbDictionary
280
     1
281
     1
  3
ACAD_XREC_ROUNDTRIP
360
3FBB
  0
DICTIONARY
  5
29EA
330
2
100
AcDbDictionary
280
     1
281
     1
  3
ACAD_LAYERFILTERS
360
2B0C
  3
ACAD_LAYERSTATES
360
29EB
  0
DICTIONARY
  5
3CD2
330
3467
100
AcDbDictionary
280
     1
281
     1
  3
AcDbContextDataManager
360
3CD3
  0
DICTIONARY
  5
3CD5
330
3468
100
AcDbDictionary
280
     1
281
     1
  3
AcDbContextDataManager
360
3CD6
  0
DICTIONARY
  5
3C8D
330
3C8C
100
AcDbDictionary
280
     1
281
     1
  3
AcDbContextDataManager
360
3C8E
  0
DICTIONARY
  5
3CB9
330
3CB8
100
AcDbDictionary
280
     1
281
     1
  3
AcDbContextDataManager
360
3CBA
  0
DICTIONARY
  5
3CC2
330
3CC1
100
AcDbDictionary
280
     1
281
     1
  3
AcDbContextDataManager
360
3CC3
  0
DICTIONARY
  5
3E61
330
3E60
100
AcDbDictionary
280
     1
281
     1
  3
AcDbContextDataManager
360
3E62
  0
DICTIONARY
  5
3FB6
330
2902
100
AcDbDictionary
280
     1
281
     1
  3
ACAD_XREC_ROUNDTRIP
360
3FB7
  0
DICTIONARY
  5
3FB8
330
2904
100
AcDbDictionary
280
     1
281
     1
  3
ACAD_XREC_ROUNDTRIP
360
3FB9
  0
DICTIONARY
  5
3DD9
330
2E62
100
AcDbDictionary
280
     1
281
     1
  3
AcDbContextDataManager
360
3DDA
  0
DICTIONARY
  5
3DD6
330
3486
100
AcDbDictionary
280
     1
281
     1
  3
AcDbContextDataManager
360
3DD7
  0
DICTIONARY
  5
3DD0
330
36B0
100
AcDbDictionary
280
     1
281
     1
  3
AcDbContextDataManager
360
3DD1
  0
DICTIONARY
  5
3DD3
330
36B1
100
AcDbDictionary
280
     1
281
     1
  3
AcDbContextDataManager
360
3DD4
  0
DICTIONARY
  5
2948
102
{ACAD_REACTORS
330
C
102
}
330
C
100
AcDbDictionary
281
     1
  0
DICTIONARY
  5
3D39
102
{ACAD_REACTORS
330
C
102
}
330
C
100
AcDbDictionary
281
     1
  0
DICTIONARY
  5
D
102
{ACAD_REACTORS
330
C
102
}
330
C
100
AcDbDictionary
281
     1
  0
DICTIONARY
  5
2816
102
{ACAD_REACTORS
330
C
102
}
330
C
100
AcDbDictionary
281
     1
  3
A3横
350
28FC
  3
Model
350
2818
  0
DICTIONARY
  5
2947
102
{ACAD_REACTORS
330
C
102
}
330
C
100
AcDbDictionary
281
     1
  3
ByBlock
350
3C08
  3
ByLayer
350
3C07
  3
Global
350
3C09
  0
DICTIONARY
  5
3C0C
102
{ACAD_REACTORS
330
C
102
}
330
C
100
AcDbDictionary
281
     1
  3
Standard
350
3C0D
  0
DICTIONARY
  5
E
102
{ACAD_REACTORS
330
C
102
}
330
C
100
AcDbDictionary
281
     1
  3
STANDARD
350
13
  0
DICTIONARY
  5
2817
102
{ACAD_REACTORS
330
C
102
}
330
C
100
AcDbDictionary
281
     1
  0
ACDBDICTIONARYWDFLT
  5
2814
102
{ACAD_REACTORS
330
C
102
}
330
C
100
AcDbDictionary
281
     1
  3
Normal
350
2815
100
AcDbDictionaryWithDefault
340
2815
  0
DICTIONARY
  5
3BE5
102
{ACAD_REACTORS
330
C
102
}
330
C
100
AcDbDictionary
281
     1
  3
A0
350
3BE6
  3
A1
350
3BE7
  3
A2
350
3BE8
  3
A3
350
3BE9
  3
A4
350
3BEA
  3
A5
350
3BEB
  3
A6
350
3BEC
  3
A7
350
3BED
  3
A8
350
3BEE
  3
A9
350
3BEF
  3
B0
350
3BF0
  3
B1
350
3BF1
  3
B2
350
3BF2
  3
B3
350
3BF3
  3
B4
350
3BF4
  3
B5
350
3BF5
  3
B6
350
3BF6
  3
B7
350
3BF7
  3
B8
350
3BF8
  3
B9
350
3BF9
  3
C0
350
3BFA
  3
C1
350
3BFB
  3
C2
350
3BFC
  3
C3
350
3BFD
  3
C4
350
3BFE
  3
C5
350
3BFF
  3
C6
350
3C00
  3
C7
350
3C01
  3
C8
350
3C02
  3
C9
350
3C03
  3
D0
350
3C04
  3
D1
350
3C05
  3
D2
350
3C06
  0
DICTIONARY
  5
3D3A
102
{ACAD_REACTORS
330
C
102
}
330
C
100
AcDbDictionary
281
     1
  0
DICTIONARY
  5
3C0A
102
{ACAD_REACTORS
330
C
102
}
330
C
100
AcDbDictionary
281
     1
  3
Standard
350
3C0B
  0
DICTIONARY
  5
3BCC
102
{ACAD_REACTORS
330
C
102
}
330
C
100
AcDbDictionary
281
     1
  3
2dWireframe
350
3BD1
  3
Basic
350
3BD4
  3
Brighten
350
3BD8
  3
ColorChange
350
3BDC
  3
Conceptual
350
3BD6
  3
Dim
350
3BD7
  3
EdgeColorOff
350
3BDF
  3
Facepattern
350
3BDB
  3
Flat
350
3BCD
  3
FlatWithEdges
350
3BCE
  3
Gouraud
350
3BCF
  3
GouraudWithEdges
350
3BD0
  3
Hidden
350
3BD3
  3
JitterOff
350
3BDD
  3
Linepattern
350
3BDA
  3
OverhangOff
350
3BDE
  3
Realistic
350
3BD5
  3
Shaded
350
3BE4
  3
Shaded with edges
350
3BE3
  3
Shades of Gray
350
3BE0
  3
Sketchy
350
3BE1
  3
Thicken
350
3BD9
  3
Wireframe
350
3BD2
  3
X-Ray
350
3BE2
  0
XRECORD
  5
3FF7
102
{ACAD_REACTORS
330
C
102
}
330
C
100
AcDbXrecord
280
     1
 90
        1
330
3C0B
  0
DICTIONARY
  5
3CF6
102
{ACAD_REACTORS
330
C
102
}
330
C
100
AcDbDictionary
281
     1
  3
CANNOSCALE
350
3CF7
  3
CMLEADERSTYLE
350
3D36
  3
CTABLESTYLE
350
3D35
  3
MSLTSCALE
350
3D37
  3
XCLIPFRAME
350
3D38
  0
XRECORD
  5
3FBB
102
{ACAD_REACTORS
330
3FBA
102
}
330
3FBA
100
AcDbXrecord
280
     1
102
VTR_0.000_0.000_1.000_1.000_VISUALSTYLE
340
3BD1
102
VTR_0.000_0.000_1.000_1.000_GRIDDISPLAY
 70
     3
102
VTR_0.000_0.000_1.000_1.000_GRIDMAJOR
 70
     5
102
VTR_0.000_0.000_1.000_1.000_DEFAULTLIGHTING
280
     1
102
VTR_0.000_0.000_1.000_1.000_DEFAULTLIGHTINGTYPE
 70
     1
102
VTR_0.000_0.000_1.000_1.000_BRIGHTNESS
141
0.0
102
VTR_0.000_0.000_1.000_1.000_CONTRAST
142
0.0
  0
DICTIONARY
  5
2B0C
102
{ACAD_REACTORS
330
29EA
102
}
330
29EA
100
AcDbDictionary
281
     1
  0
DICTIONARY
  5
29EB
102
{ACAD_REACTORS
330
29EA
102
}
330
29EA
100
AcDbDictionary
281
     1
  0
DICTIONARY
  5
3CD3
102
{ACAD_REACTORS
330
3CD2
102
}
330
3CD2
100
AcDbDictionary
281
     1
  3
ACDB_ANNOTATIONSCALES
350
3CD4
  0
DICTIONARY
  5
3CD6
102
{ACAD_REACTORS
330
3CD5
102
}
330
3CD5
100
AcDbDictionary
281
     1
  3
ACDB_ANNOTATIONSCALES
350
3CD7
  0
DICTIONARY
  5
3C8E
102
{ACAD_REACTORS
330
3C8D
102
}
330
3C8D
100
AcDbDictionary
281
     1
  3
ACDB_ANNOTATIONSCALES
350
3C8F
  0
DICTIONARY
  5
3CBA
102
{ACAD_REACTORS
330
3CB9
102
}
330
3CB9
100
AcDbDictionary
281
     1
  3
ACDB_ANNOTATIONSCALES
350
3CBB
  0
DICTIONARY
  5
3CC3
102
{ACAD_REACTORS
330
3CC2
102
}
330
3CC2
100
AcDbDictionary
281
     1
  3
ACDB_ANNOTATIONSCALES
350
3CC4
  0
DICTIONARY
  5
3E62
102
{ACAD_REACTORS
330
3E61
102
}
330
3E61
100
AcDbDictionary
281
     1
  3
ACDB_ANNOTATIONSCALES
350
3E63
  0
XRECORD
  5
3FB7
102
{ACAD_REACTORS
330
3FB6
102
}
330
3FB6
100
AcDbXrecord
280
     1
102
VISUALSTYLE
340
3BD1
102
GRIDDISPLAY
 70
     0
102
GRIDMAJOR
 70
     5
102
DEFAULTLIGHTING
280
     1
102
DEFAULTLIGHTINGTYPE
 70
     1
102
BRIGHTNESS
141
0.0
102
CONTRAST
142
0.0
102
SUNID
360
0
  0
XRECORD
  5
3FB9
102
{ACAD_REACTORS
330
3FB8
102
}
330
3FB8
100
AcDbXrecord
280
     1
102
VISUALSTYLE
340
3BD1
102
GRIDDISPLAY
 70
     0
102
GRIDMAJOR
 70
     5
102
DEFAULTLIGHTING
280
     1
102
DEFAULTLIGHTINGTYPE
 70
     1
102
BRIGHTNESS
141
0.0
102
CONTRAST
142
0.0
  0
DICTIONARY
  5
3DDA
102
{ACAD_REACTORS
330
3DD9
102
}
330
3DD9
100
AcDbDictionary
281
     1
  3
ACDB_ANNOTATIONSCALES
350
3DDB
  0
DICTIONARY
  5
3DD7
102
{ACAD_REACTORS
330
3DD6
102
}
330
3DD6
100
AcDbDictionary
281
     1
  3
ACDB_ANNOTATIONSCALES
350
3DD8
  0
DICTIONARY
  5
3DD1
102
{ACAD_REACTORS
330
3DD0
102
}
330
3DD0
100
AcDbDictionary
281
     1
  3
ACDB_ANNOTATIONSCALES
350
3DD2
  0
DICTIONARY
  5
3DD4
102
{ACAD_REACTORS
330
3DD3
102
}
330
3DD3
100
AcDbDictionary
281
     1
  3
ACDB_ANNOTATIONSCALES
350
3DD5
  0
LAYOUT
  5
28FC
102
{ACAD_REACTORS
330
2816
102
}
330
2816
100
AcDbPlotSettings
  1

  2
Ho152
  4
User256
  6

 40
4.900083065033
 41
4.900057315826
 42
4.900085449219
 43
4.900085449219
 44
210.015670776367
 45
297.010650634766
 46
0.0
 47
0.0
 48
0.0
 49
0.0
140
0.0
141
0.0
142
1.0
143
1.43
 70
   736
 72
     1
 73
     1
 74
     5
  7
TOWA.ctb
 75
     0
 76
     1
 77
     2
 78
   300
147
1.0
148
0.0
149
0.0
100
AcDbLayout
  1
A3横
 70
     1
 71
     1
 10
-7.007122192383
 20
-7.007118782997
 11
417.718108215332
 21
293.315290427208
 12
0.0
 22
0.0
 32
0.0
 14
4.746305129083
 24
2.617583436752
 34
0.0
 15
404.746305129083
 25
282.617583436752
 35
0.0
146
0.0
 13
0.0
 23
0.0
 33
0.0
 16
1.0
 26
0.0
 36
0.0
 17
0.0
 27
1.0
 37
0.0
 76
     0
330
28FB
331
2902
  0
LAYOUT
  5
2818
102
{ACAD_REACTORS
330
2816
102
}
330
2816
100
AcDbPlotSettings
  1

  2
EPSON LP-8000S
  4

  6

 40
0.0
 41
0.0
 42
0.0
 43
0.0
 44
0.0
 45
0.0
 46
0.0
 47
0.0
 48
0.0
 49
0.0
140
0.0
141
0.0
142
1.0
143
1.0
 70
  1712
 72
     0
 73
     0
 74
     0
  7
TOWA.ctb
 75
     0
 76
     0
 77
     2
 78
   300
147
1.0
148
0.0
149
0.0
100
AcDbLayout
  1
Model
 70
     1
 71
     0
 10
0.0
 20
0.0
 11
12.0
 21
9.0
 12
0.0
 22
0.0
 32
0.0
 14
-266.889945157064
 24
635.419869529332
 34
0.0
 15
394.427118376567
 25
1066.2355915511
 35
0.0
146
0.0
 13
0.0
 23
0.0
 33
0.0
 16
1.0
 26
0.0
 36
0.0
 17
0.0
 27
1.0
 37
0.0
 76
     0
330
1A
331
3BCB
  0
MATERIAL
  5
3C08
102
{ACAD_REACTORS
330
2947
102
}
102
{ACAD_XDICTIONARY
360
3FBE
102
}
330
2947
100
AcDbMaterial
  1
ByBlock
  0
MATERIAL
  5
3C07
102
{ACAD_REACTORS
330
2947
102
}
102
{ACAD_XDICTIONARY
360
3FBC
102
}
330
2947
100
AcDbMaterial
  1
ByLayer
  0
MATERIAL
  5
3C09
102
{ACAD_REACTORS
330
2947
102
}
102
{ACAD_XDICTIONARY
360
3FC0
102
}
330
2947
100
AcDbMaterial
  1
Global
  0
MLEADERSTYLE
  5
3C0D
102
{ACAD_REACTORS
330
3C0C
102
}
102
{ACAD_XDICTIONARY
360
3FF5
102
}
330
3C0C
100
AcDbMLeaderStyle
170
     2
171
     1
172
     0
 90
        2
 40
0.0
 41
0.0
173
     1
 91
-1056964608
340
14
 92
       -2
290
     1
 42
2.0
291
     1
 43
8.0
  3
Standard
341
0
 44
4.0
300

342
10
174
     1
178
     6
175
     1
176
     0
 93
-1056964608
 45
4.0
292
     0
297
     0
 46
4.0
343
0
 94
-1056964608
 47
1.0
 49
1.0
140
1.0
293
     1
141
0.0
294
     1
177
     0
142
1.0
295
     0
296
     0
143
3.75
1001
ACAD_MLEADERVER
1070
     2
  0
MLINESTYLE
  5
13
102
{ACAD_REACTORS
330
E
102
}
330
E
100
AcDbMlineStyle
  2
STANDARD
 70
     0
  3

 62
     0
 51
90.0
 52
90.0
 71
     2
 49
0.5
 62
   256
  6
BYLAYER
 49
-0.5
 62
   256
  6
BYLAYER
  0
ACDBPLACEHOLDER
  5
2815
102
{ACAD_REACTORS
330
2814
102
}
330
2814
  0
SCALE
  5
3BE6
102
{ACAD_REACTORS
330
3BE5
102
}
330
3BE5
100
AcDbScale
 70
     0
300
1:1
140
1.0
141
1.0
290
     1
  0
SCALE
  5
3BE7
102
{ACAD_REACTORS
330
3BE5
102
}
330
3BE5
100
AcDbScale
 70
     0
300
1:2
140
1.0
141
2.0
290
     0
  0
SCALE
  5
3BE8
102
{ACAD_REACTORS
330
3BE5
102
}
330
3BE5
100
AcDbScale
 70
     0
300
1:4
140
1.0
141
4.0
290
     0
  0
SCALE
  5
3BE9
102
{ACAD_REACTORS
330
3BE5
102
}
330
3BE5
100
AcDbScale
 70
     0
300
1:5
140
1.0
141
5.0
290
     0
  0
SCALE
  5
3BEA
102
{ACAD_REACTORS
330
3BE5
102
}
330
3BE5
100
AcDbScale
 70
     0
300
1:8
140
1.0
141
8.0
290
     0
  0
SCALE
  5
3BEB
102
{ACAD_REACTORS
330
3BE5
102
}
330
3BE5
100
AcDbScale
 70
     0
300
1:10
140
1.0
141
10.0
290
     0
  0
SCALE
  5
3BEC
102
{ACAD_REACTORS
330
3BE5
102
}
330
3BE5
100
AcDbScale
 70
     0
300
1:16
140
1.0
141
16.0
290
     0
  0
SCALE
  5
3BED
102
{ACAD_REACTORS
330
3BE5
102
}
330
3BE5
100
AcDbScale
 70
     0
300
1:20
140
1.0
141
20.0
290
     0
  0
SCALE
  5
3BEE
102
{ACAD_REACTORS
330
3BE5
102
}
330
3BE5
100
AcDbScale
 70
     0
300
1:30
140
1.0
141
30.0
290
     0
  0
SCALE
  5
3BEF
102
{ACAD_REACTORS
330
3BE5
102
}
330
3BE5
100
AcDbScale
 70
     0
300
1:40
140
1.0
141
40.0
290
     0
  0
SCALE
  5
3BF0
102
{ACAD_REACTORS
330
3BE5
102
}
330
3BE5
100
AcDbScale
 70
     0
300
1:50
140
1.0
141
50.0
290
     0
  0
SCALE
  5
3BF1
102
{ACAD_REACTORS
330
3BE5
102
}
330
3BE5
100
AcDbScale
 70
     0
300
1:100
140
1.0
141
100.0
290
     0
  0
SCALE
  5
3BF2
102
{ACAD_REACTORS
330
3BE5
102
}
330
3BE5
100
AcDbScale
 70
     0
300
2:1
140
2.0
141
1.0
290
     0
  0
SCALE
  5
3BF3
102
{ACAD_REACTORS
330
3BE5
102
}
330
3BE5
100
AcDbScale
 70
     0
300
4:1
140
4.0
141
1.0
290
     0
  0
SCALE
  5
3BF4
102
{ACAD_REACTORS
330
3BE5
102
}
330
3BE5
100
AcDbScale
 70
     0
300
8:1
140
8.0
141
1.0
290
     0
  0
SCALE
  5
3BF5
102
{ACAD_REACTORS
330
3BE5
102
}
330
3BE5
100
AcDbScale
 70
     0
300
10:1
140
10.0
141
1.0
290
     0
  0
SCALE
  5
3BF6
102
{ACAD_REACTORS
330
3BE5
102
}
330
3BE5
100
AcDbScale
 70
     0
300
100:1
140
100.0
141
1.0
290
     0
  0
SCALE
  5
3BF7
102
{ACAD_REACTORS
330
3BE5
102
}
330
3BE5
100
AcDbScale
 70
     0
300
1/128" = 1'-0"
140
0.0078125
141
12.0
290
     0
  0
SCALE
  5
3BF8
102
{ACAD_REACTORS
330
3BE5
102
}
330
3BE5
100
AcDbScale
 70
     0
300
1/64" = 1'-0"
140
0.015625
141
12.0
290
     0
  0
SCALE
  5
3BF9
102
{ACAD_REACTORS
330
3BE5
102
}
330
3BE5
100
AcDbScale
 70
     0
300
1/32" = 1'-0"
140
0.03125
141
12.0
290
     0
  0
SCALE
  5
3BFA
102
{ACAD_REACTORS
330
3BE5
102
}
330
3BE5
100
AcDbScale
 70
     0
300
1/16" = 1'-0"
140
0.0625
141
12.0
290
     0
  0
SCALE
  5
3BFB
102
{ACAD_REACTORS
330
3BE5
102
}
330
3BE5
100
AcDbScale
 70
     0
300
3/32" = 1'-0"
140
0.09375
141
12.0
290
     0
  0
SCALE
  5
3BFC
102
{ACAD_REACTORS
330
3BE5
102
}
330
3BE5
100
AcDbScale
 70
     0
300
1/8" = 1'-0"
140
0.125
141
12.0
290
     0
  0
SCALE
  5
3BFD
102
{ACAD_REACTORS
330
3BE5
102
}
330
3BE5
100
AcDbScale
 70
     0
300
3/16" = 1'-0"
140
0.1875
141
12.0
290
     0
  0
SCALE
  5
3BFE
102
{ACAD_REACTORS
330
3BE5
102
}
330
3BE5
100
AcDbScale
 70
     0
300
1/4" = 1'-0"
140
0.25
141
12.0
290
     0
  0
SCALE
  5
3BFF
102
{ACAD_REACTORS
330
3BE5
102
}
330
3BE5
100
AcDbScale
 70
     0
300
3/8" = 1'-0"
140
0.375
141
12.0
290
     0
  0
SCALE
  5
3C00
102
{ACAD_REACTORS
330
3BE5
102
}
330
3BE5
100
AcDbScale
 70
     0
300
1/2" = 1'-0"
140
0.5
141
12.0
290
     0
  0
SCALE
  5
3C01
102
{ACAD_REACTORS
330
3BE5
102
}
330
3BE5
100
AcDbScale
 70
     0
300
3/4" = 1'-0"
140
0.75
141
12.0
290
     0
  0
SCALE
  5
3C02
102
{ACAD_REACTORS
330
3BE5
102
}
330
3BE5
100
AcDbScale
 70
     0
300
1" = 1'-0"
140
1.0
141
12.0
290
     0
  0
SCALE
  5
3C03
102
{ACAD_REACTORS
330
3BE5
102
}
330
3BE5
100
AcDbScale
 70
     0
300
1-1/2" = 1'-0"
140
1.5
141
12.0
290
     0
  0
SCALE
  5
3C04
102
{ACAD_REACTORS
330
3BE5
102
}
330
3BE5
100
AcDbScale
 70
     0
300
3" = 1'-0"
140
3.0
141
12.0
290
     0
  0
SCALE
  5
3C05
102
{ACAD_REACTORS
330
3BE5
102
}
330
3BE5
100
AcDbScale
 70
     0
300
6" = 1'-0"
140
6.0
141
12.0
290
     0
  0
SCALE
  5
3C06
102
{ACAD_REACTORS
330
3BE5
102
}
330
3BE5
100
AcDbScale
 70
     0
300
1'-0" = 1'-0"
140
12.0
141
12.0
290
     0
  0
TABLESTYLE
  5
3C0B
102
{ACAD_REACTORS
330
3C0A
102
}
102
{ACAD_XDICTIONARY
360
3FF2
102
}
330
3C0A
100
AcDbTableStyle
  3
Standard
 70
     0
 71
     0
 40
0.06
 41
0.06
280
     0
281
     0
  7
STANDARD
140
4.5
170
     2
 62
     0
 63
   257
283
     0
274
    -2
284
     1
 64
     0
275
    -2
285
     1
 65
     0
276
    -2
286
     1
 66
     0
277
    -2
287
     1
 67
     0
278
    -2
288
     1
 68
     0
279
    -2
289
     1
 69
     0
  7
STANDARD
140
6.0
170
     5
 62
     0
 63
   257
283
     0
274
    -2
284
     1
 64
     0
275
    -2
285
     1
 65
     0
276
    -2
286
     1
 66
     0
277
    -2
287
     1
 67
     0
278
    -2
288
     1
 68
     0
279
    -2
289
     1
 69
     0
  7
STANDARD
140
4.5
170
     5
 62
     0
 63
   257
283
     0
274
    -2
284
     1
 64
     0
275
    -2
285
     1
 65
     0
276
    -2
286
     1
 66
     0
277
    -2
287
     1
 67
     0
278
    -2
288
     1
 68
     0
279
    -2
289
     1
 69
     0
  0
VISUALSTYLE
  5
3BD1
102
{ACAD_REACTORS
330
3BCC
102
}
102
{ACAD_XDICTIONARY
360
3FCA
102
}
330
3BCC
100
AcDbVisualStyle
  2
2dWireframe
 70
     4
 71
     0
 72
     2
 73
     0
 90
        0
 40
0.6
 41
30.0
 62
     5
 63
     7
421
 16777215
 74
     1
 91
        4
 64
     7
 65
   257
 75
     1
175
     1
 42
1.0
 92
        0
 66
   257
 43
1.0
 76
     1
 77
     6
 78
     2
 67
     7
 79
     5
170
     0
171
     0
290
     0
174
     0
 93
        1
 44
0.0
173
     0
291
     0
 45
0.0
1001
ACAD
1000
AcDbSavedByObjectVersion
1070
     0
  0
VISUALSTYLE
  5
3BD4
102
{ACAD_REACTORS
330
3BCC
102
}
102
{ACAD_XDICTIONARY
360
3FD0
102
}
330
3BCC
100
AcDbVisualStyle
  2
Basic
 70
     7
 71
     1
 72
     0
 73
     1
 90
        0
 40
0.6
 41
30.0
 62
     5
 63
     7
421
 16777215
 74
     0
 91
        4
 64
     7
 65
   257
 75
     1
175
     1
 42
1.0
 92
        8
 66
     7
 43
1.0
 76
     1
 77
     6
 78
     2
 67
     7
 79
     5
170
     0
171
     0
290
     0
174
     0
 93
        1
 44
0.0
173
     0
291
     1
 45
0.0
1001
ACAD
1000
AcDbSavedByObjectVersion
1070
     0
  0
VISUALSTYLE
  5
3BD8
102
{ACAD_REACTORS
330
3BCC
102
}
102
{ACAD_XDICTIONARY
360
3FD8
102
}
330
3BCC
100
AcDbVisualStyle
  2
Brighten
 70
    12
 71
     2
 72
     2
 73
     0
 90
        0
 40
0.6
 41
30.0
 62
     5
 63
     7
421
 16777215
 74
     1
 91
        4
 64
     7
 65
   257
 75
     1
175
     1
 42
1.0
 92
        8
 66
     7
 43
1.0
 76
     1
 77
     6
 78
     2
 67
     7
 79
     5
170
     0
171
     0
290
     0
174
     0
 93
        1
 44
50.0
173
     0
291
     1
 45
0.0
1001
ACAD
1000
AcDbSavedByObjectVersion
1070
     0
  0
VISUALSTYLE
  5
3BDC
102
{ACAD_REACTORS
330
3BCC
102
}
102
{ACAD_XDICTIONARY
360
3FE0
102
}
330
3BCC
100
AcDbVisualStyle
  2
ColorChange
 70
    16
 71
     2
 72
     2
 73
     3
 90
        0
 40
0.6
 41
30.0
 62
     5
 63
     8
421
  8421504
 74
     1
 91
        4
 64
     7
 65
   257
 75
     1
175
     1
 42
1.0
 92
        8
 66
     8
424
  8421504
 43
1.0
 76
     1
 77
     6
 78
     2
 67
     7
 79
     5
170
     0
171
     0
290
     0
174
     0
 93
        1
 44
0.0
173
     0
291
     1
 45
0.0
1001
ACAD
1000
AcDbSavedByObjectVersion
1070
     0
  0
VISUALSTYLE
  5
3BD6
102
{ACAD_REACTORS
330
3BCC
102
}
102
{ACAD_XDICTIONARY
360
3FD4
102
}
330
3BCC
100
AcDbVisualStyle
  2
Conceptual
 70
     9
 71
     3
 72
     2
 73
     0
 90
        0
 40
0.6
 41
30.0
 62
     5
 63
     7
421
 16777215
 74
     2
 91
        2
 64
     7
 65
   257
 75
     1
175
     1
 42
179.0
 92
        8
 66
     7
 43
1.0
 76
     1
 77
     6
 78
     2
 67
     7
 79
     3
170
     0
171
     0
290
     0
174
     0
 93
        1
 44
0.0
173
     0
291
     0
 45
0.0
1001
ACAD
1000
AcDbSavedByObjectVersion
1070
     0
  0
VISUALSTYLE
  5
3BD7
102
{ACAD_REACTORS
330
3BCC
102
}
102
{ACAD_XDICTIONARY
360
3FD6
102
}
330
3BCC
100
AcDbVisualStyle
  2
Dim
 70
    11
 71
     2
 72
     2
 73
     0
 90
        0
 40
0.6
 41
30.0
 62
     5
 63
     7
421
 16777215
 74
     1
 91
        4
 64
     7
 65
   257
 75
     1
175
     1
 42
1.0
 92
        8
 66
     7
 43
1.0
 76
     1
 77
     6
 78
     2
 67
     7
 79
     5
170
     0
171
     0
290
     0
174
     0
 93
        1
 44
-50.0
173
     0
291
     1
 45
0.0
1001
ACAD
1000
AcDbSavedByObjectVersion
1070
     0
  0
VISUALSTYLE
  5
3BDF
102
{ACAD_REACTORS
330
3BCC
102
}
102
{ACAD_XDICTIONARY
360
3FE6
102
}
330
3BCC
100
AcDbVisualStyle
  2
EdgeColorOff
 70
    22
 71
     2
 72
     2
 73
     0
 90
        0
 40
0.6
 41
30.0
 62
     5
 63
     7
421
 16777215
 74
     1
 91
        4
 64
     7
 65
   257
 75
     1
175
     1
 42
1.0
 92
        8
 66
     7
 43
1.0
 76
     1
 77
     6
 78
     2
 67
     7
 79
     5
170
     0
171
     0
290
     0
174
     0
 93
        1
 44
0.0
173
     0
291
     1
 45
0.0
1001
ACAD
1000
AcDbSavedByObjectVersion
1070
     0
  0
VISUALSTYLE
  5
3BDB
102
{ACAD_REACTORS
330
3BCC
102
}
102
{ACAD_XDICTIONARY
360
3FDE
102
}
330
3BCC
100
AcDbVisualStyle
  2
Facepattern
 70
    15
 71
     2
 72
     2
 73
     0
 90
        0
 40
0.6
 41
30.0
 62
     5
 63
     7
421
 16777215
 74
     1
 91
        4
 64
     7
 65
   257
 75
     1
175
     1
 42
1.0
 92
        8
 66
     7
 43
1.0
 76
     1
 77
     6
 78
     2
 67
     7
 79
     5
170
     0
171
     0
290
     0
174
     0
 93
        1
 44
0.0
173
     0
291
     1
 45
0.0
1001
ACAD
1000
AcDbSavedByObjectVersion
1070
     0
  0
VISUALSTYLE
  5
3BCD
102
{ACAD_REACTORS
330
3BCC
102
}
102
{ACAD_XDICTIONARY
360
3FC2
102
}
330
3BCC
100
AcDbVisualStyle
  2
Flat
 70
     0
 71
     2
 72
     1
 73
     1
 90
        2
 40
0.6
 41
30.0
 62
     5
 63
     7
421
 16777215
 74
     0
 91
        0
 64
     7
 65
   257
 75
     1
175
     1
 42
1.0
 92
        8
 66
     7
 43
1.0
 76
     1
 77
     6
 78
     2
 67
     7
 79
     5
170
     0
171
     0
290
     0
174
     0
 93
       13
 44
0.0
173
     0
291
     1
 45
0.0
1001
ACAD
1000
AcDbSavedByObjectVersion
1070
     0
  0
VISUALSTYLE
  5
3BCE
102
{ACAD_REACTORS
330
3BCC
102
}
102
{ACAD_XDICTIONARY
360
3FC4
102
}
330
3BCC
100
AcDbVisualStyle
  2
FlatWithEdges
 70
     1
 71
     2
 72
     1
 73
     1
 90
        2
 40
0.6
 41
30.0
 62
     5
 63
     7
421
 16777215
 74
     1
 91
        0
 64
     7
 65
   257
 75
     1
175
     1
 42
1.0
 92
        0
 66
   257
 43
1.0
 76
     1
 77
     6
 78
     2
 67
     7
 79
     5
170
     0
171
     0
290
     0
174
     0
 93
       13
 44
0.0
173
     0
291
     1
 45
0.0
1001
ACAD
1000
AcDbSavedByObjectVersion
1070
     0
  0
VISUALSTYLE
  5
3BCF
102
{ACAD_REACTORS
330
3BCC
102
}
102
{ACAD_XDICTIONARY
360
3FC6
102
}
330
3BCC
100
AcDbVisualStyle
  2
Gouraud
 70
     2
 71
     2
 72
     2
 73
     1
 90
        2
 40
0.6
 41
30.0
 62
     5
 63
     7
421
 16777215
 74
     0
 91
        0
 64
     7
 65
   257
 75
     1
175
     1
 42
1.0
 92
        0
 66
     7
 43
1.0
 76
     1
 77
     6
 78
     2
 67
     7
 79
     5
170
     0
171
     0
290
     0
174
     0
 93
       13
 44
0.0
173
     0
291
     1
 45
0.0
1001
ACAD
1000
AcDbSavedByObjectVersion
1070
     0
  0
VISUALSTYLE
  5
3BD0
102
{ACAD_REACTORS
330
3BCC
102
}
102
{ACAD_XDICTIONARY
360
3FC8
102
}
330
3BCC
100
AcDbVisualStyle
  2
GouraudWithEdges
 70
     3
 71
     2
 72
     2
 73
     1
 90
        2
 40
0.6
 41
30.0
 62
     5
 63
     7
421
 16777215
 74
     1
 91
        0
 64
     7
 65
   257
 75
     1
175
     1
 42
1.0
 92
        0
 66
   257
 43
1.0
 76
     1
 77
     6
 78
     2
 67
     7
 79
     5
170
     0
171
     0
290
     0
174
     0
 93
       13
 44
0.0
173
     0
291
     1
 45
0.0
1001
ACAD
1000
AcDbSavedByObjectVersion
1070
     0
  0
VISUALSTYLE
  5
3BD3
102
{ACAD_REACTORS
330
3BCC
102
}
102
{ACAD_XDICTIONARY
360
3FCE
102
}
330
3BCC
100
AcDbVisualStyle
  2
Hidden
 70
     6
 71
     1
 72
     2
 73
     2
 90
        0
 40
0.6
 41
30.0
 62
     5
 63
     7
421
 16777215
 74
     2
 91
        2
 64
     7
 65
   257
 75
     2
175
     1
 42
40.0
 92
        0
 66
   257
 43
1.0
 76
     1
 77
     6
 78
     2
 67
     7
 79
     3
170
     0
171
     0
290
     0
174
     0
 93
        1
 44
0.0
173
     0
291
     0
 45
0.0
1001
ACAD
1000
AcDbSavedByObjectVersion
1070
     0
  0
VISUALSTYLE
  5
3BDD
102
{ACAD_REACTORS
330
3BCC
102
}
102
{ACAD_XDICTIONARY
360
3FE2
102
}
330
3BCC
100
AcDbVisualStyle
  2
JitterOff
 70
    20
 71
     2
 72
     2
 73
     0
 90
        0
 40
0.6
 41
30.0
 62
     5
 63
     7
421
 16777215
 74
     1
 91
        4
 64
     7
 65
   257
 75
     1
175
     1
 42
1.0
 92
       10
 66
     7
 43
1.0
 76
     1
 77
     6
 78
     2
 67
     7
 79
     5
170
     0
171
     0
290
     0
174
     0
 93
        1
 44
0.0
173
     0
291
     1
 45
0.0
1001
ACAD
1000
AcDbSavedByObjectVersion
1070
     0
  0
VISUALSTYLE
  5
3BDA
102
{ACAD_REACTORS
330
3BCC
102
}
102
{ACAD_XDICTIONARY
360
3FDC
102
}
330
3BCC
100
AcDbVisualStyle
  2
Linepattern
 70
    14
 71
     2
 72
     2
 73
     0
 90
        0
 40
0.6
 41
30.0
 62
     5
 63
     7
421
 16777215
 74
     1
 91
        4
 64
     7
 65
   257
 75
     7
175
     7
 42
1.0
 92
        8
 66
     7
 43
1.0
 76
     1
 77
     6
 78
     2
 67
     7
 79
     5
170
     0
171
     0
290
     0
174
     0
 93
        1
 44
0.0
173
     0
291
     1
 45
0.0
1001
ACAD
1000
AcDbSavedByObjectVersion
1070
     0
  0
VISUALSTYLE
  5
3BDE
102
{ACAD_REACTORS
330
3BCC
102
}
102
{ACAD_XDICTIONARY
360
3FE4
102
}
330
3BCC
100
AcDbVisualStyle
  2
OverhangOff
 70
    21
 71
     2
 72
     2
 73
     0
 90
        0
 40
0.6
 41
30.0
 62
     5
 63
     7
421
 16777215
 74
     1
 91
        4
 64
     7
 65
   257
 75
     1
175
     1
 42
1.0
 92
        9
 66
     7
 43
1.0
 76
     1
 77
     6
 78
     2
 67
     7
 79
     5
170
     0
171
     0
290
     0
174
     0
 93
        1
 44
0.0
173
     0
291
     1
 45
0.0
1001
ACAD
1000
AcDbSavedByObjectVersion
1070
     0
  0
VISUALSTYLE
  5
3BD5
102
{ACAD_REACTORS
330
3BCC
102
}
102
{ACAD_XDICTIONARY
360
3FD2
102
}
330
3BCC
100
AcDbVisualStyle
  2
Realistic
 70
     8
 71
     2
 72
     3
 73
     0
 90
        2
 40
0.6
 41
30.0
 62
     5
 63
     7
421
 16777215
 74
     0
 91
        0
 64
     7
 65
   257
 75
     1
175
     1
 42
1.0
 92
        8
 66
   257
 43
1.0
 76
     1
 77
     6
 78
     2
 67
     7
 79
     3
170
     0
171
     0
290
     0
174
     0
 93
       13
 44
0.0
173
     0
291
     0
 45
0.0
1001
ACAD
1000
AcDbSavedByObjectVersion
1070
     0
  0
VISUALSTYLE
  5
3BE4
102
{ACAD_REACTORS
330
3BCC
102
}
102
{ACAD_XDICTIONARY
360
3FF0
102
}
330
3BCC
100
AcDbVisualStyle
  2
Shaded
 70
    27
 71
     2
 72
     2
 73
     1
 90
        2
 40
0.6
 41
30.0
 62
     5
 63
     7
421
 16777215
 74
     0
 91
        4
 64
     7
 65
   257
 75
     1
175
     1
 42
1.0
 92
        8
 66
   257
 43
1.0
 76
     1
 77
     6
 78
     2
 67
     8
425
  7895160
 79
     3
170
     0
171
     0
290
     0
174
     0
 93
        5
 44
0.0
173
     0
291
     0
 45
0.0
1001
ACAD
1000
AcDbSavedByObjectVersion
1070
     0
  0
VISUALSTYLE
  5
3BE3
102
{ACAD_REACTORS
330
3BCC
102
}
102
{ACAD_XDICTIONARY
360
3FEE
102
}
330
3BCC
100
AcDbVisualStyle
  2
Shaded with edges
 70
    26
 71
     2
 72
     2
 73
     1
 90
        2
 40
0.6
 41
30.0
 62
     5
 63
     7
421
 16777215
 74
     1
 91
       10
 64
     7
 65
   257
 75
     2
175
     1
 42
1.0
 92
        8
 66
   257
 43
1.0
 76
     1
 77
     6
 78
     2
 67
     7
 79
     3
170
     0
171
     0
290
     0
174
     0
 93
        5
 44
0.0
173
     0
291
     0
 45
0.0
1001
ACAD
1000
AcDbSavedByObjectVersion
1070
     0
  0
VISUALSTYLE
  5
3BE0
102
{ACAD_REACTORS
330
3BCC
102
}
102
{ACAD_XDICTIONARY
360
3FE8
102
}
330
3BCC
100
AcDbVisualStyle
  2
Shades of Gray
 70
    23
 71
     2
 72
     2
 73
     3
 90
        0
 40
0.6
 41
30.0
 62
     5
 63
     7
421
 16777215
 74
     2
 91
        2
 64
     7
 65
     7
 75
     1
175
     1
 42
40.0
 92
        8
 66
     7
 43
1.0
 76
     1
 77
     6
 78
     2
 67
     7
 79
     3
170
     0
171
     0
290
     0
174
     0
 93
        1
 44
0.0
173
     0
291
     0
 45
0.0
1001
ACAD
1000
AcDbSavedByObjectVersion
1070
     0
  0
VISUALSTYLE
  5
3BE1
102
{ACAD_REACTORS
330
3BCC
102
}
102
{ACAD_XDICTIONARY
360
3FEA
102
}
330
3BCC
100
AcDbVisualStyle
  2
Sketchy
 70
    24
 71
     1
 72
     2
 73
     2
 90
        0
 40
0.6
 41
30.0
 62
     5
 63
     7
421
 16777215
 74
     2
 91
        2
 64
     7
 65
     7
 75
     1
175
     1
 42
40.0
 92
       11
 66
     7
 43
1.0
 76
     1
 77
     6
 78
     2
 67
     7
 79
     6
170
     0
171
     0
290
     0
174
     0
 93
        1
 44
0.0
173
     0
291
     0
 45
0.0
1001
ACAD
1000
AcDbSavedByObjectVersion
1070
     0
  0
VISUALSTYLE
  5
3BD9
102
{ACAD_REACTORS
330
3BCC
102
}
102
{ACAD_XDICTIONARY
360
3FDA
102
}
330
3BCC
100
AcDbVisualStyle
  2
Thicken
 70
    13
 71
     2
 72
     2
 73
     0
 90
        0
 40
0.6
 41
30.0
 62
     5
 63
     7
421
 16777215
 74
     1
 91
        4
 64
     7
 65
   257
 75
     1
175
     1
 42
1.0
 92
       12
 66
     7
 43
1.0
 76
     1
 77
     6
 78
     2
 67
     7
 79
     5
170
     0
171
     0
290
     0
174
     0
 93
        1
 44
0.0
173
     0
291
     1
 45
0.0
1001
ACAD
1000
AcDbSavedByObjectVersion
1070
     0
  0
VISUALSTYLE
  5
3BD2
102
{ACAD_REACTORS
330
3BCC
102
}
102
{ACAD_XDICTIONARY
360
3FCC
102
}
330
3BCC
100
AcDbVisualStyle
  2
Wireframe
 70
     5
 71
     0
 72
     2
 73
     0
 90
        0
 40
0.6
 41
30.0
 62
     5
 63
     7
421
 16777215
 74
     1
 91
        4
 64
     7
 65
   257
 75
     1
175
     1
 42
1.0
 92
        0
 66
   257
 43
1.0
 76
     1
 77
     6
 78
     2
 67
     7
 79
     3
170
     0
171
     0
290
     0
174
     0
 93
        1
 44
0.0
173
     0
291
     0
 45
0.0
1001
ACAD
1000
AcDbSavedByObjectVersion
1070
     0
  0
VISUALSTYLE
  5
3BE2
102
{ACAD_REACTORS
330
3BCC
102
}
102
{ACAD_XDICTIONARY
360
3FEC
102
}
330
3BCC
100
AcDbVisualStyle
  2
X-Ray
 70
    25
 71
     2
 72
     2
 73
     1
 90
        1
 40
0.5
 41
30.0
 62
     5
 63
     7
421
 16777215
 74
     1
 91
        0
 64
     7
 65
   257
 75
     1
175
     1
 42
1.0
 92
        8
 66
     7
 43
1.0
 76
     1
 77
     6
 78
     2
 67
     7
 79
     3
170
     0
171
     0
290
     0
174
     0
 93
       13
 44
0.0
173
     0
291
     0
 45
0.0
1001
ACAD
1000
AcDbSavedByObjectVersion
1070
     0
  0
DICTIONARYVAR
  5
3CF7
102
{ACAD_REACTORS
330
3CF6
102
}
330
3CF6
100
DictionaryVariables
280
     0
  1
1:1
  0
DICTIONARYVAR
  5
3D36
102
{ACAD_REACTORS
330
3CF6
102
}
330
3CF6
100
DictionaryVariables
280
     0
  1
Standard
  0
DICTIONARYVAR
  5
3D35
102
{ACAD_REACTORS
330
3CF6
102
}
330
3CF6
100
DictionaryVariables
280
     0
  1
Standard
  0
DICTIONARYVAR
  5
3D37
102
{ACAD_REACTORS
330
3CF6
102
}
330
3CF6
100
DictionaryVariables
280
     0
  1
0
  0
DICTIONARYVAR
  5
3D38
102
{ACAD_REACTORS
330
3CF6
102
}
330
3CF6
100
DictionaryVariables
280
     0
  1
0
  0
DICTIONARY
  5
3CD4
102
{ACAD_REACTORS
330
3CD3
102
}
330
3CD3
100
AcDbDictionary
281
     1
  0
DICTIONARY
  5
3CD7
102
{ACAD_REACTORS
330
3CD6
102
}
330
3CD6
100
AcDbDictionary
281
     1
  0
DICTIONARY
  5
3C8F
102
{ACAD_REACTORS
330
3C8E
102
}
330
3C8E
100
AcDbDictionary
281
     1
  0
DICTIONARY
  5
3CBB
102
{ACAD_REACTORS
330
3CBA
102
}
330
3CBA
100
AcDbDictionary
281
     1
  0
DICTIONARY
  5
3CC4
102
{ACAD_REACTORS
330
3CC3
102
}
330
3CC3
100
AcDbDictionary
281
     1
  0
DICTIONARY
  5
3E63
102
{ACAD_REACTORS
330
3E62
102
}
330
3E62
100
AcDbDictionary
281
     1
  0
DICTIONARY
  5
3DDB
102
{ACAD_REACTORS
330
3DDA
102
}
330
3DDA
100
AcDbDictionary
281
     1
  0
DICTIONARY
  5
3DD8
102
{ACAD_REACTORS
330
3DD7
102
}
330
3DD7
100
AcDbDictionary
281
     1
  0
DICTIONARY
  5
3DD2
102
{ACAD_REACTORS
330
3DD1
102
}
330
3DD1
100
AcDbDictionary
281
     1
  0
DICTIONARY
  5
3DD5
102
{ACAD_REACTORS
330
3DD4
102
}
330
3DD4
100
AcDbDictionary
281
     1
  0
DICTIONARY
  5
3FBE
330
3C08
100
AcDbDictionary
280
     1
281
     1
  3
ACAD_XREC_ROUNDTRIP
360
3FBF
  0
DICTIONARY
  5
3FBC
330
3C07
100
AcDbDictionary
280
     1
281
     1
  3
ACAD_XREC_ROUNDTRIP
360
3FBD
  0
DICTIONARY
  5
3FC0
330
3C09
100
AcDbDictionary
280
     1
281
     1
  3
ACAD_XREC_ROUNDTRIP
360
3FC1
  0
DICTIONARY
  5
3FF5
330
3C0D
100
AcDbDictionary
280
     1
281
     1
  3
ACAD_XREC_ROUNDTRIP
360
3FF6
  0
DICTIONARY
  5
3FF2
330
3C0B
100
AcDbDictionary
280
     1
281
     1
  3
ACAD_ROUNDTRIP_2008_TABLESTYLE_CELLSTYLEMAP
360
3FF4
  3
ACAD_XREC_ROUNDTRIP
360
3FF3
  0
DICTIONARY
  5
3FCA
330
3BD1
100
AcDbDictionary
280
     1
281
     1
  3
ACAD_XREC_ROUNDTRIP
360
3FCB
  0
DICTIONARY
  5
3FD0
330
3BD4
100
AcDbDictionary
280
     1
281
     1
  3
ACAD_XREC_ROUNDTRIP
360
3FD1
  0
DICTIONARY
  5
3FD8
330
3BD8
100
AcDbDictionary
280
     1
281
     1
  3
ACAD_XREC_ROUNDTRIP
360
3FD9
  0
DICTIONARY
  5
3FE0
330
3BDC
100
AcDbDictionary
280
     1
281
     1
  3
ACAD_XREC_ROUNDTRIP
360
3FE1
  0
DICTIONARY
  5
3FD4
330
3BD6
100
AcDbDictionary
280
     1
281
     1
  3
ACAD_XREC_ROUNDTRIP
360
3FD5
  0
DICTIONARY
  5
3FD6
330
3BD7
100
AcDbDictionary
280
     1
281
     1
  3
ACAD_XREC_ROUNDTRIP
360
3FD7
  0
DICTIONARY
  5
3FE6
330
3BDF
100
AcDbDictionary
280
     1
281
     1
  3
ACAD_XREC_ROUNDTRIP
360
3FE7
  0
DICTIONARY
  5
3FDE
330
3BDB
100
AcDbDictionary
280
     1
281
     1
  3
ACAD_XREC_ROUNDTRIP
360
3FDF
  0
DICTIONARY
  5
3FC2
330
3BCD
100
AcDbDictionary
280
     1
281
     1
  3
ACAD_XREC_ROUNDTRIP
360
3FC3
  0
DICTIONARY
  5
3FC4
330
3BCE
100
AcDbDictionary
280
     1
281
     1
  3
ACAD_XREC_ROUNDTRIP
360
3FC5
  0
DICTIONARY
  5
3FC6
330
3BCF
100
AcDbDictionary
280
     1
281
     1
  3
ACAD_XREC_ROUNDTRIP
360
3FC7
  0
DICTIONARY
  5
3FC8
330
3BD0
100
AcDbDictionary
280
     1
281
     1
  3
ACAD_XREC_ROUNDTRIP
360
3FC9
  0
DICTIONARY
  5
3FCE
330
3BD3
100
AcDbDictionary
280
     1
281
     1
  3
ACAD_XREC_ROUNDTRIP
360
3FCF
  0
DICTIONARY
  5
3FE2
330
3BDD
100
AcDbDictionary
280
     1
281
     1
  3
ACAD_XREC_ROUNDTRIP
360
3FE3
  0
DICTIONARY
  5
3FDC
330
3BDA
100
AcDbDictionary
280
     1
281
     1
  3
ACAD_XREC_ROUNDTRIP
360
3FDD
  0
DICTIONARY
  5
3FE4
330
3BDE
100
AcDbDictionary
280
     1
281
     1
  3
ACAD_XREC_ROUNDTRIP
360
3FE5
  0
DICTIONARY
  5
3FD2
330
3BD5
100
AcDbDictionary
280
     1
281
     1
  3
ACAD_XREC_ROUNDTRIP
360
3FD3
  0
DICTIONARY
  5
3FF0
330
3BE4
100
AcDbDictionary
280
     1
281
     1
  3
ACAD_XREC_ROUNDTRIP
360
3FF1
  0
DICTIONARY
  5
3FEE
330
3BE3
100
AcDbDictionary
280
     1
281
     1
  3
ACAD_XREC_ROUNDTRIP
360
3FEF
  0
DICTIONARY
  5
3FE8
330
3BE0
100
AcDbDictionary
280
     1
281
     1
  3
ACAD_XREC_ROUNDTRIP
360
3FE9
  0
DICTIONARY
  5
3FEA
330
3BE1
100
AcDbDictionary
280
     1
281
     1
  3
ACAD_XREC_ROUNDTRIP
360
3FEB
  0
DICTIONARY
  5
3FDA
330
3BD9
100
AcDbDictionary
280
     1
281
     1
  3
ACAD_XREC_ROUNDTRIP
360
3FDB
  0
DICTIONARY
  5
3FCC
330
3BD2
100
AcDbDictionary
280
     1
281
     1
  3
ACAD_XREC_ROUNDTRIP
360
3FCD
  0
DICTIONARY
  5
3FEC
330
3BE2
100
AcDbDictionary
280
     1
281
     1
  3
ACAD_XREC_ROUNDTRIP
360
3FED
  0
XRECORD
  5
3FBF
102
{ACAD_REACTORS
330
3FBE
102
}
330
3FBE
100
AcDbXrecord
280
     1
102
MATERIAL
148
0.0
149
0.0
149
0.0
 93
        0
 94
      127
282
     0
 72
     1
 77
     1
171
     1
175
     1
179
     1
273
     0
  0
XRECORD
  5
3FBD
102
{ACAD_REACTORS
330
3FBC
102
}
330
3FBC
100
AcDbXrecord
280
     1
102
MATERIAL
148
0.0
149
0.0
149
0.0
 93
        0
 94
      127
282
     0
 72
     1
 77
     1
171
     1
175
     1
179
     1
273
     0
  0
XRECORD
  5
3FC1
102
{ACAD_REACTORS
330
3FC0
102
}
330
3FC0
100
AcDbXrecord
280
     1
102
MATERIAL
148
0.0
149
0.0
149
0.0
 93
        0
 94
      127
282
     0
 72
     1
 77
     1
171
     1
175
     1
179
     1
273
     0
  0
XRECORD
  5
3FF6
102
{ACAD_REACTORS
330
3FF5
102
}
330
3FF5
100
AcDbXrecord
280
     1
102
ACAD_ROUNDTRIP_2010_MLEADER_STYLE
  0
CELLSTYLEMAP
  5
3FF4
102
{ACAD_REACTORS
330
3FF2
102
}
330
3FF2
100
AcDbCellStyleMap
 90
        3
300
CELLSTYLE
  1
TABLEFORMAT_BEGIN
 90
        5
170
     1
 91
        0
 92
        0
 62
   257
 93
        1
300
CONTENTFORMAT
  1
CONTENTFORMAT_BEGIN
 90
        0
 91
        0
 92
        4
 93
        0
300

 40
0.0
140
1.0
 94
        5
 62
     0
340
10
144
6.0
309
CONTENTFORMAT_END
171
     1
301
MARGIN
  1
CELLMARGIN_BEGIN
 40
1.5
 40
1.5
 40
1.5
 40
1.5
 40
1.5
 40
1.5
309
CELLMARGIN_END
 94
        6
 95
        1
302
GRIDFORMAT
  1
GRIDFORMAT_BEGIN
 90
        0
 91
        1
 62
     0
 92
       -2
340
14
 93
        0
 40
0.045
309
GRIDFORMAT_END
 95
        2
302
GRIDFORMAT
  1
GRIDFORMAT_BEGIN
 90
        0
 91
        1
 62
     0
 92
       -2
340
14
 93
        0
 40
0.045
309
GRIDFORMAT_END
 95
        4
302
GRIDFORMAT
  1
GRIDFORMAT_BEGIN
 90
        0
 91
        1
 62
     0
 92
       -2
340
14
 93
        0
 40
0.045
309
GRIDFORMAT_END
 95
        8
302
GRIDFORMAT
  1
GRIDFORMAT_BEGIN
 90
        0
 91
        1
 62
     0
 92
       -2
340
14
 93
        0
 40
0.045
309
GRIDFORMAT_END
 95
       16
302
GRIDFORMAT
  1
GRIDFORMAT_BEGIN
 90
        0
 91
        1
 62
     0
 92
       -2
340
14
 93
        0
 40
0.045
309
GRIDFORMAT_END
 95
       32
302
GRIDFORMAT
  1
GRIDFORMAT_BEGIN
 90
        0
 91
        1
 62
     0
 92
       -2
340
14
 93
        0
 40
0.045
309
GRIDFORMAT_END
309
TABLEFORMAT_END
  1
CELLSTYLE_BEGIN
 90
        1
 91
        1
300
_TITLE
309
CELLSTYLE_END
300
CELLSTYLE
  1
TABLEFORMAT_BEGIN
 90
        5
170
     1
 91
        0
 92
        0
 62
   257
 93
        1
300
CONTENTFORMAT
  1
CONTENTFORMAT_BEGIN
 90
        0
 91
        0
 92
        4
 93
        0
300

 40
0.0
140
1.0
 94
        5
 62
     0
340
10
144
4.5
309
CONTENTFORMAT_END
171
     1
301
MARGIN
  1
CELLMARGIN_BEGIN
 40
1.5
 40
1.5
 40
1.5
 40
1.5
 40
1.5
 40
1.5
309
CELLMARGIN_END
 94
        6
 95
        1
302
GRIDFORMAT
  1
GRIDFORMAT_BEGIN
 90
        0
 91
        1
 62
     0
 92
       -2
340
14
 93
        0
 40
0.045
309
GRIDFORMAT_END
 95
        2
302
GRIDFORMAT
  1
GRIDFORMAT_BEGIN
 90
        0
 91
        1
 62
     0
 92
       -2
340
14
 93
        0
 40
0.045
309
GRIDFORMAT_END
 95
        4
302
GRIDFORMAT
  1
GRIDFORMAT_BEGIN
 90
        0
 91
        1
 62
     0
 92
       -2
340
14
 93
        0
 40
0.045
309
GRIDFORMAT_END
 95
        8
302
GRIDFORMAT
  1
GRIDFORMAT_BEGIN
 90
        0
 91
        1
 62
     0
 92
       -2
340
14
 93
        0
 40
0.045
309
GRIDFORMAT_END
 95
       16
302
GRIDFORMAT
  1
GRIDFORMAT_BEGIN
 90
        0
 91
        1
 62
     0
 92
       -2
340
14
 93
        0
 40
0.045
309
GRIDFORMAT_END
 95
       32
302
GRIDFORMAT
  1
GRIDFORMAT_BEGIN
 90
        0
 91
        1
 62
     0
 92
       -2
340
14
 93
        0
 40
0.045
309
GRIDFORMAT_END
309
TABLEFORMAT_END
  1
CELLSTYLE_BEGIN
 90
        2
 91
        1
300
_HEADER
309
CELLSTYLE_END
300
CELLSTYLE
  1
TABLEFORMAT_BEGIN
 90
        5
170
     1
 91
        0
 92
        0
 62
   257
 93
        1
300
CONTENTFORMAT
  1
CONTENTFORMAT_BEGIN
 90
        0
 91
        0
 92
        4
 93
        0
300

 40
0.0
140
1.0
 94
        2
 62
     0
340
10
144
4.5
309
CONTENTFORMAT_END
171
     1
301
MARGIN
  1
CELLMARGIN_BEGIN
 40
1.5
 40
1.5
 40
1.5
 40
1.5
 40
1.5
 40
1.5
309
CELLMARGIN_END
 94
        6
 95
        1
302
GRIDFORMAT
  1
GRIDFORMAT_BEGIN
 90
        0
 91
        1
 62
     0
 92
       -2
340
14
 93
        0
 40
0.045
309
GRIDFORMAT_END
 95
        2
302
GRIDFORMAT
  1
GRIDFORMAT_BEGIN
 90
        0
 91
        1
 62
     0
 92
       -2
340
14
 93
        0
 40
0.045
309
GRIDFORMAT_END
 95
        4
302
GRIDFORMAT
  1
GRIDFORMAT_BEGIN
 90
        0
 91
        1
 62
     0
 92
       -2
340
14
 93
        0
 40
0.045
309
GRIDFORMAT_END
 95
        8
302
GRIDFORMAT
  1
GRIDFORMAT_BEGIN
 90
        0
 91
        1
 62
     0
 92
       -2
340
14
 93
        0
 40
0.045
309
GRIDFORMAT_END
 95
       16
302
GRIDFORMAT
  1
GRIDFORMAT_BEGIN
 90
        0
 91
        1
 62
     0
 92
       -2
340
14
 93
        0
 40
0.045
309
GRIDFORMAT_END
 95
       32
302
GRIDFORMAT
  1
GRIDFORMAT_BEGIN
 90
        0
 91
        1
 62
     0
 92
       -2
340
14
 93
        0
 40
0.045
309
GRIDFORMAT_END
309
TABLEFORMAT_END
  1
CELLSTYLE_BEGIN
 90
        3
 91
        2
300
_DATA
309
CELLSTYLE_END
  0
XRECORD
  5
3FF3
102
{ACAD_REACTORS
330
3FF2
102
}
330
3FF2
100
AcDbXrecord
280
     1
102
ACAD_ROUNDTRIP_PRE2007_TABLESTYLE
 90
        4
 91
        0
  1

 92
        4
 93
        0
  2

 94
        4
 95
        0
  3

  0
XRECORD
  5
3FCB
102
{ACAD_REACTORS
330
3FCA
102
}
330
3FCA
100
AcDbXrecord
280
     1
102
RTVSPropertyOp0
 70
     1
102
RTVSPropertyOp1
 70
     1
102
RTVSPropertyOp2
 70
     1
102
RTVSPropertyOp3
 70
     1
102
RTVSPropertyOp4
 70
     1
102
RTVSPropertyOp5
 70
     1
102
RTVSPropertyOp6
 70
     1
102
RTVSPropertyOp7
 70
     1
102
RTVSPropertyOp8
 70
     1
102
RTVSPropertyOp9
 70
     1
102
RTVSPropertyOp10
 70
     1
102
RTVSPropertyOp11
 70
     1
102
RTVSPropertyOp12
 70
     1
102
RTVSPropertyOp13
 70
     1
102
RTVSPropertyOp14
 70
     1
102
RTVSPropertyOp15
 70
     1
102
RTVSPropertyOp16
 70
     1
102
RTVSPropertyOp17
 70
     1
102
RTVSPropertyOp18
 70
     1
102
RTVSPropertyOp19
 70
     1
102
RTVSPropertyOp20
 70
     1
102
RTVSPropertyOp21
 70
     1
102
RTVSPropertyOp22
 70
     1
102
RTVSPropertyOp23
 70
     1
102
RTVSPropertyOp24
 70
     1
102
RTVSPropertyOp25
 70
     1
102
RTVSPropertyOp26
 70
     1
102
RTVSPropertyOp27
 70
     1
102
RTVSPropertyOp28
 70
     1
102
RTVSPropertyOp29
 70
     1
102
RTVSPropertyOp30
 70
     1
102
RTVSPropertyOp31
 70
     1
102
RTVSPropertyOp32
 70
     1
102
RTVSPropertyOp33
 70
     1
102
RTVSPropertyOp34
 70
     1
102
RTVSPropertyOp35
 70
     1
102
RTVSPropertyOp36
 70
     1
102
RTVSPropertyOp37
 70
     1
102
RTVSPropertyOp38
 70
     1
102
RTVSPropertyOp39
 70
     1
102
RTVSPropertyOp40
 70
     1
102
RTVSPropertyOp41
 70
     1
102
RTVSPropertyOp42
 70
     1
102
RTVSPropertyOp43
 70
     1
102
RTVSPropertyOp44
 70
     1
102
RTVSPropertyOp45
 70
     1
102
RTVSPropertyOp46
 70
     1
102
RTVSPropertyOp47
 70
     1
102
RTVSPropertyOp48
 70
     1
102
RTVSPropertyOp49
 70
     1
102
RTVSPropertyOp50
 70
     1
102
RTVSPropertyOp51
 70
     0
102
RTVSPropertyOp52
 70
     0
102
RTVSPropertyOp53
 70
     1
102
RTVSPropertyOp54
 70
     1
102
RTVSPropertyOp55
 70
     1
102
RTVSPropertyOp56
 70
     1
102
RTVSPropertyOp57
 70
     1
102
RTVSPost2010Prop28
280
     1
102
RTVSPost2010PropOp28
 70
     1
102
RTVSPost2010Prop29
280
     1
102
RTVSPost2010PropOp29
 70
     1
102
RTVSPost2010Prop30
280
     0
102
RTVSPost2010PropOp30
 70
     1
102
RTVSPost2010Prop31
280
     0
102
RTVSPost2010PropOp31
 70
     1
102
RTVSPost2010Prop32
280
     0
102
RTVSPost2010PropOp32
 70
     1
102
RTVSPost2010Prop33
280
     0
102
RTVSPost2010PropOp33
 70
     1
102
RTVSPost2010Prop34
280
     0
102
RTVSPost2010PropOp34
 70
     1
102
RTVSPost2010Prop35
280
     0
102
RTVSPost2010PropOp35
 70
     1
102
RTVSPost2010Prop36
280
     0
102
RTVSPost2010PropOp36
 70
     1
102
RTVSPost2010Prop37
 90
       50
102
RTVSPost2010PropOp37
 70
     1
102
RTVSPost2010Prop38
140
0.0
102
RTVSPost2010PropOp38
 70
     1
102
RTVSPost2010Prop39
140
1.0
102
RTVSPost2010PropOp39
 70
     1
102
RTVSPost2010Prop40
 90
        0
102
RTVSPost2010PropOp40
 70
     1
102
RTVSPost2010Prop41ColorIndex
 90
       18
102
RTVSPost2010Prop41ColorRGB
 90
        0
102
RTVSPost2010PropOp41
 70
     1
102
RTVSPost2010Prop42
 90
       50
102
RTVSPost2010PropOp42
 70
     1
102
RTVSPost2010Prop43
 90
        3
102
RTVSPost2010PropOp43
 70
     1
102
RTVSPost2010Prop44ColorIndex
 90
        5
102
RTVSPost2010Prop44ColorRGB
 90
      255
102
RTVSPost2010PropOp44
 70
     1
102
RTVSPost2010Prop45
280
     0
102
RTVSPost2010PropOp45
 70
     1
102
RTVSPost2010Prop46
 90
       50
102
RTVSPost2010PropOp46
 70
     1
102
RTVSPost2010Prop47
 90
       50
102
RTVSPost2010PropOp47
 70
     1
102
RTVSPost2010Prop48
 90
       50
102
RTVSPost2010PropOp48
 70
     1
102
RTVSPost2010Prop49
280
     0
102
RTVSPost2010PropOp49
 70
     1
102
RTVSPost2010Prop50
 90
       50
102
RTVSPost2010PropOp50
 70
     1
102
RTVSPost2010Prop51ColorIndex
 90
      256
102
RTVSPost2010Prop51ColorRGB
 90
-16777216
102
RTVSPost2010PropOp51
 70
     0
102
RTVSPost2010Prop52
140
1.0
102
RTVSPost2010PropOp52
 70
     0
102
RTVSPost2010Prop53
 90
        2
102
RTVSPost2010PropOp53
 70
     1
102
RTVSPost2010Prop54
  1
strokes_ogs.tif
102
RTVSPost2010PropOp54
 70
     1
102
RTVSPost2010Prop55
280
     0
102
RTVSPost2010PropOp55
 70
     1
102
RTVSPost2010Prop56
140
1.0
102
RTVSPost2010PropOp56
 70
     1
102
RTVSPost2010Prop57
140
1.0
102
RTVSPost2010PropOp57
 70
     1
  0
XRECORD
  5
3FD1
102
{ACAD_REACTORS
330
3FD0
102
}
330
3FD0
100
AcDbXrecord
280
     1
102
RTVSPropertyOp0
 70
     1
102
RTVSPropertyOp1
 70
     1
102
RTVSPropertyOp2
 70
     1
102
RTVSPropertyOp3
 70
     1
102
RTVSPropertyOp4
 70
     1
102
RTVSPropertyOp5
 70
     1
102
RTVSPropertyOp6
 70
     1
102
RTVSPropertyOp7
 70
     1
102
RTVSPropertyOp8
 70
     1
102
RTVSPropertyOp9
 70
     1
102
RTVSPropertyOp10
 70
     1
102
RTVSPropertyOp11
 70
     1
102
RTVSPropertyOp12
 70
     1
102
RTVSPropertyOp13
 70
     1
102
RTVSPropertyOp14
 70
     1
102
RTVSPropertyOp15
 70
     1
102
RTVSPropertyOp16
 70
     1
102
RTVSPropertyOp17
 70
     1
102
RTVSPropertyOp18
 70
     1
102
RTVSPropertyOp19
 70
     1
102
RTVSPropertyOp20
 70
     1
102
RTVSPropertyOp21
 70
     1
102
RTVSPropertyOp22
 70
     1
102
RTVSPropertyOp23
 70
     1
102
RTVSPropertyOp24
 70
     1
102
RTVSPropertyOp25
 70
     1
102
RTVSPropertyOp26
 70
     1
102
RTVSPropertyOp27
 70
     1
102
RTVSPropertyOp28
 70
     1
102
RTVSPropertyOp29
 70
     1
102
RTVSPropertyOp30
 70
     1
102
RTVSPropertyOp31
 70
     1
102
RTVSPropertyOp32
 70
     1
102
RTVSPropertyOp33
 70
     1
102
RTVSPropertyOp34
 70
     1
102
RTVSPropertyOp35
 70
     1
102
RTVSPropertyOp36
 70
     1
102
RTVSPropertyOp37
 70
     1
102
RTVSPropertyOp38
 70
     1
102
RTVSPropertyOp39
 70
     1
102
RTVSPropertyOp40
 70
     1
102
RTVSPropertyOp41
 70
     1
102
RTVSPropertyOp42
 70
     1
102
RTVSPropertyOp43
 70
     1
102
RTVSPropertyOp44
 70
     1
102
RTVSPropertyOp45
 70
     1
102
RTVSPropertyOp46
 70
     1
102
RTVSPropertyOp47
 70
     1
102
RTVSPropertyOp48
 70
     1
102
RTVSPropertyOp49
 70
     1
102
RTVSPropertyOp50
 70
     1
102
RTVSPropertyOp51
 70
     0
102
RTVSPropertyOp52
 70
     0
102
RTVSPropertyOp53
 70
     1
102
RTVSPropertyOp54
 70
     1
102
RTVSPropertyOp55
 70
     1
102
RTVSPropertyOp56
 70
     1
102
RTVSPropertyOp57
 70
     1
102
RTVSPost2010Prop28
280
     0
102
RTVSPost2010PropOp28
 70
     1
102
RTVSPost2010Prop29
280
     1
102
RTVSPost2010PropOp29
 70
     1
102
RTVSPost2010Prop30
280
     1
102
RTVSPost2010PropOp30
 70
     1
102
RTVSPost2010Prop31
280
     0
102
RTVSPost2010PropOp31
 70
     1
102
RTVSPost2010Prop32
280
     0
102
RTVSPost2010PropOp32
 70
     1
102
RTVSPost2010Prop33
280
     0
102
RTVSPost2010PropOp33
 70
     1
102
RTVSPost2010Prop34
280
     0
102
RTVSPost2010PropOp34
 70
     1
102
RTVSPost2010Prop35
280
     0
102
RTVSPost2010PropOp35
 70
     1
102
RTVSPost2010Prop36
280
     0
102
RTVSPost2010PropOp36
 70
     1
102
RTVSPost2010Prop37
 90
       50
102
RTVSPost2010PropOp37
 70
     1
102
RTVSPost2010Prop38
140
0.0
102
RTVSPost2010PropOp38
 70
     1
102
RTVSPost2010Prop39
140
1.0
102
RTVSPost2010PropOp39
 70
     1
102
RTVSPost2010Prop40
 90
        0
102
RTVSPost2010PropOp40
 70
     1
102
RTVSPost2010Prop41ColorIndex
 90
       18
102
RTVSPost2010Prop41ColorRGB
 90
        0
102
RTVSPost2010PropOp41
 70
     1
102
RTVSPost2010Prop42
 90
       50
102
RTVSPost2010PropOp42
 70
     1
102
RTVSPost2010Prop43
 90
        3
102
RTVSPost2010PropOp43
 70
     1
102
RTVSPost2010Prop44ColorIndex
 90
        5
102
RTVSPost2010Prop44ColorRGB
 90
      255
102
RTVSPost2010PropOp44
 70
     1
102
RTVSPost2010Prop45
280
     0
102
RTVSPost2010PropOp45
 70
     1
102
RTVSPost2010Prop46
 90
       50
102
RTVSPost2010PropOp46
 70
     1
102
RTVSPost2010Prop47
 90
       50
102
RTVSPost2010PropOp47
 70
     1
102
RTVSPost2010Prop48
 90
       50
102
RTVSPost2010PropOp48
 70
     1
102
RTVSPost2010Prop49
280
     0
102
RTVSPost2010PropOp49
 70
     1
102
RTVSPost2010Prop50
 90
       50
102
RTVSPost2010PropOp50
 70
     1
102
RTVSPost2010Prop51ColorIndex
 90
      256
102
RTVSPost2010Prop51ColorRGB
 90
-16777216
102
RTVSPost2010PropOp51
 70
     0
102
RTVSPost2010Prop52
140
1.0
102
RTVSPost2010PropOp52
 70
     0
102
RTVSPost2010Prop53
 90
        2
102
RTVSPost2010PropOp53
 70
     1
102
RTVSPost2010Prop54
  1
strokes_ogs.tif
102
RTVSPost2010PropOp54
 70
     1
102
RTVSPost2010Prop55
280
     0
102
RTVSPost2010PropOp55
 70
     1
102
RTVSPost2010Prop56
140
1.0
102
RTVSPost2010PropOp56
 70
     1
102
RTVSPost2010Prop57
140
1.0
102
RTVSPost2010PropOp57
 70
     1
  0
XRECORD
  5
3FD9
102
{ACAD_REACTORS
330
3FD8
102
}
330
3FD8
100
AcDbXrecord
280
     1
102
RTVSPropertyOp0
 70
     1
102
RTVSPropertyOp1
 70
     1
102
RTVSPropertyOp2
 70
     1
102
RTVSPropertyOp3
 70
     1
102
RTVSPropertyOp4
 70
     1
102
RTVSPropertyOp5
 70
     1
102
RTVSPropertyOp6
 70
     1
102
RTVSPropertyOp7
 70
     1
102
RTVSPropertyOp8
 70
     1
102
RTVSPropertyOp9
 70
     1
102
RTVSPropertyOp10
 70
     1
102
RTVSPropertyOp11
 70
     1
102
RTVSPropertyOp12
 70
     1
102
RTVSPropertyOp13
 70
     1
102
RTVSPropertyOp14
 70
     1
102
RTVSPropertyOp15
 70
     1
102
RTVSPropertyOp16
 70
     1
102
RTVSPropertyOp17
 70
     1
102
RTVSPropertyOp18
 70
     1
102
RTVSPropertyOp19
 70
     1
102
RTVSPropertyOp20
 70
     1
102
RTVSPropertyOp21
 70
     1
102
RTVSPropertyOp22
 70
     1
102
RTVSPropertyOp23
 70
     1
102
RTVSPropertyOp24
 70
     1
102
RTVSPropertyOp25
 70
     1
102
RTVSPropertyOp26
 70
     1
102
RTVSPropertyOp27
 70
     1
102
RTVSPropertyOp28
 70
     1
102
RTVSPropertyOp29
 70
     1
102
RTVSPropertyOp30
 70
     1
102
RTVSPropertyOp31
 70
     1
102
RTVSPropertyOp32
 70
     1
102
RTVSPropertyOp33
 70
     1
102
RTVSPropertyOp34
 70
     1
102
RTVSPropertyOp35
 70
     1
102
RTVSPropertyOp36
 70
     1
102
RTVSPropertyOp37
 70
     1
102
RTVSPropertyOp38
 70
     1
102
RTVSPropertyOp39
 70
     1
102
RTVSPropertyOp40
 70
     1
102
RTVSPropertyOp41
 70
     1
102
RTVSPropertyOp42
 70
     1
102
RTVSPropertyOp43
 70
     1
102
RTVSPropertyOp44
 70
     1
102
RTVSPropertyOp45
 70
     1
102
RTVSPropertyOp46
 70
     1
102
RTVSPropertyOp47
 70
     1
102
RTVSPropertyOp48
 70
     1
102
RTVSPropertyOp49
 70
     1
102
RTVSPropertyOp50
 70
     1
102
RTVSPropertyOp51
 70
     0
102
RTVSPropertyOp52
 70
     0
102
RTVSPropertyOp53
 70
     1
102
RTVSPropertyOp54
 70
     1
102
RTVSPropertyOp55
 70
     1
102
RTVSPropertyOp56
 70
     1
102
RTVSPropertyOp57
 70
     1
102
RTVSPost2010Prop28
280
     0
102
RTVSPost2010PropOp28
 70
     1
102
RTVSPost2010Prop29
280
     1
102
RTVSPost2010PropOp29
 70
     1
102
RTVSPost2010Prop30
280
     1
102
RTVSPost2010PropOp30
 70
     1
102
RTVSPost2010Prop31
280
     0
102
RTVSPost2010PropOp31
 70
     1
102
RTVSPost2010Prop32
280
     0
102
RTVSPost2010PropOp32
 70
     1
102
RTVSPost2010Prop33
280
     0
102
RTVSPost2010PropOp33
 70
     1
102
RTVSPost2010Prop34
280
     0
102
RTVSPost2010PropOp34
 70
     1
102
RTVSPost2010Prop35
280
     0
102
RTVSPost2010PropOp35
 70
     1
102
RTVSPost2010Prop36
280
     0
102
RTVSPost2010PropOp36
 70
     1
102
RTVSPost2010Prop37
 90
       50
102
RTVSPost2010PropOp37
 70
     1
102
RTVSPost2010Prop38
140
0.0
102
RTVSPost2010PropOp38
 70
     1
102
RTVSPost2010Prop39
140
1.0
102
RTVSPost2010PropOp39
 70
     1
102
RTVSPost2010Prop40
 90
        0
102
RTVSPost2010PropOp40
 70
     1
102
RTVSPost2010Prop41ColorIndex
 90
       18
102
RTVSPost2010Prop41ColorRGB
 90
        0
102
RTVSPost2010PropOp41
 70
     1
102
RTVSPost2010Prop42
 90
       50
102
RTVSPost2010PropOp42
 70
     1
102
RTVSPost2010Prop43
 90
        3
102
RTVSPost2010PropOp43
 70
     1
102
RTVSPost2010Prop44ColorIndex
 90
        5
102
RTVSPost2010Prop44ColorRGB
 90
      255
102
RTVSPost2010PropOp44
 70
     1
102
RTVSPost2010Prop45
280
     0
102
RTVSPost2010PropOp45
 70
     1
102
RTVSPost2010Prop46
 90
       50
102
RTVSPost2010PropOp46
 70
     1
102
RTVSPost2010Prop47
 90
       50
102
RTVSPost2010PropOp47
 70
     1
102
RTVSPost2010Prop48
 90
       50
102
RTVSPost2010PropOp48
 70
     1
102
RTVSPost2010Prop49
280
     0
102
RTVSPost2010PropOp49
 70
     1
102
RTVSPost2010Prop50
 90
       50
102
RTVSPost2010PropOp50
 70
     1
102
RTVSPost2010Prop51ColorIndex
 90
      256
102
RTVSPost2010Prop51ColorRGB
 90
-16777216
102
RTVSPost2010PropOp51
 70
     0
102
RTVSPost2010Prop52
140
1.0
102
RTVSPost2010PropOp52
 70
     0
102
RTVSPost2010Prop53
 90
        2
102
RTVSPost2010PropOp53
 70
     1
102
RTVSPost2010Prop54
  1
strokes_ogs.tif
102
RTVSPost2010PropOp54
 70
     1
102
RTVSPost2010Prop55
280
     0
102
RTVSPost2010PropOp55
 70
     1
102
RTVSPost2010Prop56
140
1.0
102
RTVSPost2010PropOp56
 70
     1
102
RTVSPost2010Prop57
140
1.0
102
RTVSPost2010PropOp57
 70
     1
  0
XRECORD
  5
3FE1
102
{ACAD_REACTORS
330
3FE0
102
}
330
3FE0
100
AcDbXrecord
280
     1
102
RTVSPropertyOp0
 70
     1
102
RTVSPropertyOp1
 70
     1
102
RTVSPropertyOp2
 70
     1
102
RTVSPropertyOp3
 70
     1
102
RTVSPropertyOp4
 70
     1
102
RTVSPropertyOp5
 70
     1
102
RTVSPropertyOp6
 70
     1
102
RTVSPropertyOp7
 70
     1
102
RTVSPropertyOp8
 70
     1
102
RTVSPropertyOp9
 70
     1
102
RTVSPropertyOp10
 70
     1
102
RTVSPropertyOp11
 70
     1
102
RTVSPropertyOp12
 70
     1
102
RTVSPropertyOp13
 70
     1
102
RTVSPropertyOp14
 70
     1
102
RTVSPropertyOp15
 70
     1
102
RTVSPropertyOp16
 70
     1
102
RTVSPropertyOp17
 70
     1
102
RTVSPropertyOp18
 70
     1
102
RTVSPropertyOp19
 70
     1
102
RTVSPropertyOp20
 70
     1
102
RTVSPropertyOp21
 70
     1
102
RTVSPropertyOp22
 70
     1
102
RTVSPropertyOp23
 70
     1
102
RTVSPropertyOp24
 70
     1
102
RTVSPropertyOp25
 70
     1
102
RTVSPropertyOp26
 70
     1
102
RTVSPropertyOp27
 70
     1
102
RTVSPropertyOp28
 70
     1
102
RTVSPropertyOp29
 70
     1
102
RTVSPropertyOp30
 70
     1
102
RTVSPropertyOp31
 70
     1
102
RTVSPropertyOp32
 70
     1
102
RTVSPropertyOp33
 70
     1
102
RTVSPropertyOp34
 70
     1
102
RTVSPropertyOp35
 70
     1
102
RTVSPropertyOp36
 70
     1
102
RTVSPropertyOp37
 70
     1
102
RTVSPropertyOp38
 70
     1
102
RTVSPropertyOp39
 70
     1
102
RTVSPropertyOp40
 70
     1
102
RTVSPropertyOp41
 70
     1
102
RTVSPropertyOp42
 70
     1
102
RTVSPropertyOp43
 70
     1
102
RTVSPropertyOp44
 70
     1
102
RTVSPropertyOp45
 70
     1
102
RTVSPropertyOp46
 70
     1
102
RTVSPropertyOp47
 70
     1
102
RTVSPropertyOp48
 70
     1
102
RTVSPropertyOp49
 70
     1
102
RTVSPropertyOp50
 70
     1
102
RTVSPropertyOp51
 70
     0
102
RTVSPropertyOp52
 70
     0
102
RTVSPropertyOp53
 70
     1
102
RTVSPropertyOp54
 70
     1
102
RTVSPropertyOp55
 70
     1
102
RTVSPropertyOp56
 70
     1
102
RTVSPropertyOp57
 70
     1
102
RTVSPost2010Prop28
280
     0
102
RTVSPost2010PropOp28
 70
     1
102
RTVSPost2010Prop29
280
     1
102
RTVSPost2010PropOp29
 70
     1
102
RTVSPost2010Prop30
280
     1
102
RTVSPost2010PropOp30
 70
     1
102
RTVSPost2010Prop31
280
     0
102
RTVSPost2010PropOp31
 70
     1
102
RTVSPost2010Prop32
280
     0
102
RTVSPost2010PropOp32
 70
     1
102
RTVSPost2010Prop33
280
     0
102
RTVSPost2010PropOp33
 70
     1
102
RTVSPost2010Prop34
280
     0
102
RTVSPost2010PropOp34
 70
     1
102
RTVSPost2010Prop35
280
     0
102
RTVSPost2010PropOp35
 70
     1
102
RTVSPost2010Prop36
280
     0
102
RTVSPost2010PropOp36
 70
     1
102
RTVSPost2010Prop37
 90
       50
102
RTVSPost2010PropOp37
 70
     1
102
RTVSPost2010Prop38
140
0.0
102
RTVSPost2010PropOp38
 70
     1
102
RTVSPost2010Prop39
140
1.0
102
RTVSPost2010PropOp39
 70
     1
102
RTVSPost2010Prop40
 90
        0
102
RTVSPost2010PropOp40
 70
     1
102
RTVSPost2010Prop41ColorIndex
 90
       18
102
RTVSPost2010Prop41ColorRGB
 90
        0
102
RTVSPost2010PropOp41
 70
     1
102
RTVSPost2010Prop42
 90
       50
102
RTVSPost2010PropOp42
 70
     1
102
RTVSPost2010Prop43
 90
        3
102
RTVSPost2010PropOp43
 70
     1
102
RTVSPost2010Prop44ColorIndex
 90
        5
102
RTVSPost2010Prop44ColorRGB
 90
      255
102
RTVSPost2010PropOp44
 70
     1
102
RTVSPost2010Prop45
280
     0
102
RTVSPost2010PropOp45
 70
     1
102
RTVSPost2010Prop46
 90
       50
102
RTVSPost2010PropOp46
 70
     1
102
RTVSPost2010Prop47
 90
       50
102
RTVSPost2010PropOp47
 70
     1
102
RTVSPost2010Prop48
 90
       50
102
RTVSPost2010PropOp48
 70
     1
102
RTVSPost2010Prop49
280
     0
102
RTVSPost2010PropOp49
 70
     1
102
RTVSPost2010Prop50
 90
       50
102
RTVSPost2010PropOp50
 70
     1
102
RTVSPost2010Prop51ColorIndex
 90
      256
102
RTVSPost2010Prop51ColorRGB
 90
-16777216
102
RTVSPost2010PropOp51
 70
     0
102
RTVSPost2010Prop52
140
1.0
102
RTVSPost2010PropOp52
 70
     0
102
RTVSPost2010Prop53
 90
        2
102
RTVSPost2010PropOp53
 70
     1
102
RTVSPost2010Prop54
  1
strokes_ogs.tif
102
RTVSPost2010PropOp54
 70
     1
102
RTVSPost2010Prop55
280
     0
102
RTVSPost2010PropOp55
 70
     1
102
RTVSPost2010Prop56
140
1.0
102
RTVSPost2010PropOp56
 70
     1
102
RTVSPost2010Prop57
140
1.0
102
RTVSPost2010PropOp57
 70
     1
  0
XRECORD
  5
3FD5
102
{ACAD_REACTORS
330
3FD4
102
}
330
3FD4
100
AcDbXrecord
280
     1
102
RTVSPropertyOp0
 70
     1
102
RTVSPropertyOp1
 70
     1
102
RTVSPropertyOp2
 70
     1
102
RTVSPropertyOp3
 70
     1
102
RTVSPropertyOp4
 70
     1
102
RTVSPropertyOp5
 70
     1
102
RTVSPropertyOp6
 70
     1
102
RTVSPropertyOp7
 70
     1
102
RTVSPropertyOp8
 70
     1
102
RTVSPropertyOp9
 70
     1
102
RTVSPropertyOp10
 70
     1
102
RTVSPropertyOp11
 70
     1
102
RTVSPropertyOp12
 70
     1
102
RTVSPropertyOp13
 70
     1
102
RTVSPropertyOp14
 70
     1
102
RTVSPropertyOp15
 70
     1
102
RTVSPropertyOp16
 70
     1
102
RTVSPropertyOp17
 70
     1
102
RTVSPropertyOp18
 70
     1
102
RTVSPropertyOp19
 70
     1
102
RTVSPropertyOp20
 70
     1
102
RTVSPropertyOp21
 70
     1
102
RTVSPropertyOp22
 70
     1
102
RTVSPropertyOp23
 70
     1
102
RTVSPropertyOp24
 70
     1
102
RTVSPropertyOp25
 70
     1
102
RTVSPropertyOp26
 70
     1
102
RTVSPropertyOp27
 70
     1
102
RTVSPropertyOp28
 70
     1
102
RTVSPropertyOp29
 70
     1
102
RTVSPropertyOp30
 70
     1
102
RTVSPropertyOp31
 70
     1
102
RTVSPropertyOp32
 70
     1
102
RTVSPropertyOp33
 70
     1
102
RTVSPropertyOp34
 70
     1
102
RTVSPropertyOp35
 70
     1
102
RTVSPropertyOp36
 70
     1
102
RTVSPropertyOp37
 70
     1
102
RTVSPropertyOp38
 70
     1
102
RTVSPropertyOp39
 70
     1
102
RTVSPropertyOp40
 70
     1
102
RTVSPropertyOp41
 70
     1
102
RTVSPropertyOp42
 70
     1
102
RTVSPropertyOp43
 70
     1
102
RTVSPropertyOp44
 70
     1
102
RTVSPropertyOp45
 70
     1
102
RTVSPropertyOp46
 70
     1
102
RTVSPropertyOp47
 70
     1
102
RTVSPropertyOp48
 70
     1
102
RTVSPropertyOp49
 70
     1
102
RTVSPropertyOp50
 70
     1
102
RTVSPropertyOp51
 70
     0
102
RTVSPropertyOp52
 70
     0
102
RTVSPropertyOp53
 70
     1
102
RTVSPropertyOp54
 70
     1
102
RTVSPropertyOp55
 70
     1
102
RTVSPropertyOp56
 70
     1
102
RTVSPropertyOp57
 70
     1
102
RTVSPost2010Prop28
280
     0
102
RTVSPost2010PropOp28
 70
     1
102
RTVSPost2010Prop29
280
     1
102
RTVSPost2010PropOp29
 70
     1
102
RTVSPost2010Prop30
280
     1
102
RTVSPost2010PropOp30
 70
     1
102
RTVSPost2010Prop31
280
     0
102
RTVSPost2010PropOp31
 70
     1
102
RTVSPost2010Prop32
280
     0
102
RTVSPost2010PropOp32
 70
     1
102
RTVSPost2010Prop33
280
     0
102
RTVSPost2010PropOp33
 70
     1
102
RTVSPost2010Prop34
280
     0
102
RTVSPost2010PropOp34
 70
     1
102
RTVSPost2010Prop35
280
     0
102
RTVSPost2010PropOp35
 70
     1
102
RTVSPost2010Prop36
280
     0
102
RTVSPost2010PropOp36
 70
     1
102
RTVSPost2010Prop37
 90
       50
102
RTVSPost2010PropOp37
 70
     1
102
RTVSPost2010Prop38
140
0.0
102
RTVSPost2010PropOp38
 70
     1
102
RTVSPost2010Prop39
140
1.0
102
RTVSPost2010PropOp39
 70
     1
102
RTVSPost2010Prop40
 90
        0
102
RTVSPost2010PropOp40
 70
     1
102
RTVSPost2010Prop41ColorIndex
 90
       18
102
RTVSPost2010Prop41ColorRGB
 90
        0
102
RTVSPost2010PropOp41
 70
     1
102
RTVSPost2010Prop42
 90
       50
102
RTVSPost2010PropOp42
 70
     1
102
RTVSPost2010Prop43
 90
        3
102
RTVSPost2010PropOp43
 70
     1
102
RTVSPost2010Prop44ColorIndex
 90
        5
102
RTVSPost2010Prop44ColorRGB
 90
      255
102
RTVSPost2010PropOp44
 70
     1
102
RTVSPost2010Prop45
280
     0
102
RTVSPost2010PropOp45
 70
     1
102
RTVSPost2010Prop46
 90
       50
102
RTVSPost2010PropOp46
 70
     1
102
RTVSPost2010Prop47
 90
       50
102
RTVSPost2010PropOp47
 70
     1
102
RTVSPost2010Prop48
 90
       50
102
RTVSPost2010PropOp48
 70
     1
102
RTVSPost2010Prop49
280
     0
102
RTVSPost2010PropOp49
 70
     1
102
RTVSPost2010Prop50
 90
       50
102
RTVSPost2010PropOp50
 70
     1
102
RTVSPost2010Prop51ColorIndex
 90
      256
102
RTVSPost2010Prop51ColorRGB
 90
-16777216
102
RTVSPost2010PropOp51
 70
     0
102
RTVSPost2010Prop52
140
1.0
102
RTVSPost2010PropOp52
 70
     0
102
RTVSPost2010Prop53
 90
        2
102
RTVSPost2010PropOp53
 70
     1
102
RTVSPost2010Prop54
  1
strokes_ogs.tif
102
RTVSPost2010PropOp54
 70
     1
102
RTVSPost2010Prop55
280
     0
102
RTVSPost2010PropOp55
 70
     1
102
RTVSPost2010Prop56
140
1.0
102
RTVSPost2010PropOp56
 70
     1
102
RTVSPost2010Prop57
140
1.0
102
RTVSPost2010PropOp57
 70
     1
  0
XRECORD
  5
3FD7
102
{ACAD_REACTORS
330
3FD6
102
}
330
3FD6
100
AcDbXrecord
280
     1
102
RTVSPropertyOp0
 70
     1
102
RTVSPropertyOp1
 70
     1
102
RTVSPropertyOp2
 70
     1
102
RTVSPropertyOp3
 70
     1
102
RTVSPropertyOp4
 70
     1
102
RTVSPropertyOp5
 70
     1
102
RTVSPropertyOp6
 70
     1
102
RTVSPropertyOp7
 70
     1
102
RTVSPropertyOp8
 70
     1
102
RTVSPropertyOp9
 70
     1
102
RTVSPropertyOp10
 70
     1
102
RTVSPropertyOp11
 70
     1
102
RTVSPropertyOp12
 70
     1
102
RTVSPropertyOp13
 70
     1
102
RTVSPropertyOp14
 70
     1
102
RTVSPropertyOp15
 70
     1
102
RTVSPropertyOp16
 70
     1
102
RTVSPropertyOp17
 70
     1
102
RTVSPropertyOp18
 70
     1
102
RTVSPropertyOp19
 70
     1
102
RTVSPropertyOp20
 70
     1
102
RTVSPropertyOp21
 70
     1
102
RTVSPropertyOp22
 70
     1
102
RTVSPropertyOp23
 70
     1
102
RTVSPropertyOp24
 70
     1
102
RTVSPropertyOp25
 70
     1
102
RTVSPropertyOp26
 70
     1
102
RTVSPropertyOp27
 70
     1
102
RTVSPropertyOp28
 70
     1
102
RTVSPropertyOp29
 70
     1
102
RTVSPropertyOp30
 70
     1
102
RTVSPropertyOp31
 70
     1
102
RTVSPropertyOp32
 70
     1
102
RTVSPropertyOp33
 70
     1
102
RTVSPropertyOp34
 70
     1
102
RTVSPropertyOp35
 70
     1
102
RTVSPropertyOp36
 70
     1
102
RTVSPropertyOp37
 70
     1
102
RTVSPropertyOp38
 70
     1
102
RTVSPropertyOp39
 70
     1
102
RTVSPropertyOp40
 70
     1
102
RTVSPropertyOp41
 70
     1
102
RTVSPropertyOp42
 70
     1
102
RTVSPropertyOp43
 70
     1
102
RTVSPropertyOp44
 70
     1
102
RTVSPropertyOp45
 70
     1
102
RTVSPropertyOp46
 70
     1
102
RTVSPropertyOp47
 70
     1
102
RTVSPropertyOp48
 70
     1
102
RTVSPropertyOp49
 70
     1
102
RTVSPropertyOp50
 70
     1
102
RTVSPropertyOp51
 70
     0
102
RTVSPropertyOp52
 70
     0
102
RTVSPropertyOp53
 70
     1
102
RTVSPropertyOp54
 70
     1
102
RTVSPropertyOp55
 70
     1
102
RTVSPropertyOp56
 70
     1
102
RTVSPropertyOp57
 70
     1
102
RTVSPost2010Prop28
280
     0
102
RTVSPost2010PropOp28
 70
     1
102
RTVSPost2010Prop29
280
     1
102
RTVSPost2010PropOp29
 70
     1
102
RTVSPost2010Prop30
280
     1
102
RTVSPost2010PropOp30
 70
     1
102
RTVSPost2010Prop31
280
     0
102
RTVSPost2010PropOp31
 70
     1
102
RTVSPost2010Prop32
280
     0
102
RTVSPost2010PropOp32
 70
     1
102
RTVSPost2010Prop33
280
     0
102
RTVSPost2010PropOp33
 70
     1
102
RTVSPost2010Prop34
280
     0
102
RTVSPost2010PropOp34
 70
     1
102
RTVSPost2010Prop35
280
     0
102
RTVSPost2010PropOp35
 70
     1
102
RTVSPost2010Prop36
280
     0
102
RTVSPost2010PropOp36
 70
     1
102
RTVSPost2010Prop37
 90
       50
102
RTVSPost2010PropOp37
 70
     1
102
RTVSPost2010Prop38
140
0.0
102
RTVSPost2010PropOp38
 70
     1
102
RTVSPost2010Prop39
140
1.0
102
RTVSPost2010PropOp39
 70
     1
102
RTVSPost2010Prop40
 90
        0
102
RTVSPost2010PropOp40
 70
     1
102
RTVSPost2010Prop41ColorIndex
 90
       18
102
RTVSPost2010Prop41ColorRGB
 90
        0
102
RTVSPost2010PropOp41
 70
     1
102
RTVSPost2010Prop42
 90
       50
102
RTVSPost2010PropOp42
 70
     1
102
RTVSPost2010Prop43
 90
        3
102
RTVSPost2010PropOp43
 70
     1
102
RTVSPost2010Prop44ColorIndex
 90
        5
102
RTVSPost2010Prop44ColorRGB
 90
      255
102
RTVSPost2010PropOp44
 70
     1
102
RTVSPost2010Prop45
280
     0
102
RTVSPost2010PropOp45
 70
     1
102
RTVSPost2010Prop46
 90
       50
102
RTVSPost2010PropOp46
 70
     1
102
RTVSPost2010Prop47
 90
       50
102
RTVSPost2010PropOp47
 70
     1
102
RTVSPost2010Prop48
 90
       50
102
RTVSPost2010PropOp48
 70
     1
102
RTVSPost2010Prop49
280
     0
102
RTVSPost2010PropOp49
 70
     1
102
RTVSPost2010Prop50
 90
       50
102
RTVSPost2010PropOp50
 70
     1
102
RTVSPost2010Prop51ColorIndex
 90
      256
102
RTVSPost2010Prop51ColorRGB
 90
-16777216
102
RTVSPost2010PropOp51
 70
     0
102
RTVSPost2010Prop52
140
1.0
102
RTVSPost2010PropOp52
 70
     0
102
RTVSPost2010Prop53
 90
        2
102
RTVSPost2010PropOp53
 70
     1
102
RTVSPost2010Prop54
  1
strokes_ogs.tif
102
RTVSPost2010PropOp54
 70
     1
102
RTVSPost2010Prop55
280
     0
102
RTVSPost2010PropOp55
 70
     1
102
RTVSPost2010Prop56
140
1.0
102
RTVSPost2010PropOp56
 70
     1
102
RTVSPost2010Prop57
140
1.0
102
RTVSPost2010PropOp57
 70
     1
  0
XRECORD
  5
3FE7
102
{ACAD_REACTORS
330
3FE6
102
}
330
3FE6
100
AcDbXrecord
280
     1
102
RTVSPropertyOp0
 70
     0
102
RTVSPropertyOp1
 70
     0
102
RTVSPropertyOp2
 70
     0
102
RTVSPropertyOp3
 70
     0
102
RTVSPropertyOp4
 70
     0
102
RTVSPropertyOp5
 70
     0
102
RTVSPropertyOp6
 70
     0
102
RTVSPropertyOp7
 70
     0
102
RTVSPropertyOp8
 70
     0
102
RTVSPropertyOp9
 70
     0
102
RTVSPropertyOp10
 70
     0
102
RTVSPropertyOp11
 70
     0
102
RTVSPropertyOp12
 70
     0
102
RTVSPropertyOp13
 70
     0
102
RTVSPropertyOp14
 70
     2
102
RTVSPropertyOp15
 70
     0
102
RTVSPropertyOp16
 70
     0
102
RTVSPropertyOp17
 70
     0
102
RTVSPropertyOp18
 70
     0
102
RTVSPropertyOp19
 70
     0
102
RTVSPropertyOp20
 70
     0
102
RTVSPropertyOp21
 70
     0
102
RTVSPropertyOp22
 70
     0
102
RTVSPropertyOp23
 70
     0
102
RTVSPropertyOp24
 70
     0
102
RTVSPropertyOp25
 70
     0
102
RTVSPropertyOp26
 70
     0
102
RTVSPropertyOp27
 70
     0
102
RTVSPropertyOp28
 70
     0
102
RTVSPropertyOp29
 70
     0
102
RTVSPropertyOp30
 70
     0
102
RTVSPropertyOp31
 70
     0
102
RTVSPropertyOp32
 70
     0
102
RTVSPropertyOp33
 70
     0
102
RTVSPropertyOp34
 70
     0
102
RTVSPropertyOp35
 70
     0
102
RTVSPropertyOp36
 70
     0
102
RTVSPropertyOp37
 70
     0
102
RTVSPropertyOp38
 70
     0
102
RTVSPropertyOp39
 70
     0
102
RTVSPropertyOp40
 70
     0
102
RTVSPropertyOp41
 70
     0
102
RTVSPropertyOp42
 70
     0
102
RTVSPropertyOp43
 70
     0
102
RTVSPropertyOp44
 70
     0
102
RTVSPropertyOp45
 70
     0
102
RTVSPropertyOp46
 70
     0
102
RTVSPropertyOp47
 70
     0
102
RTVSPropertyOp48
 70
     0
102
RTVSPropertyOp49
 70
     0
102
RTVSPropertyOp50
 70
     0
102
RTVSPropertyOp51
 70
     0
102
RTVSPropertyOp52
 70
     0
102
RTVSPropertyOp53
 70
     0
102
RTVSPropertyOp54
 70
     0
102
RTVSPropertyOp55
 70
     0
102
RTVSPropertyOp56
 70
     0
102
RTVSPropertyOp57
 70
     0
102
RTVSPost2010Prop28
280
     0
102
RTVSPost2010PropOp28
 70
     0
102
RTVSPost2010Prop29
280
     1
102
RTVSPost2010PropOp29
 70
     0
102
RTVSPost2010Prop30
280
     1
102
RTVSPost2010PropOp30
 70
     0
102
RTVSPost2010Prop31
280
     0
102
RTVSPost2010PropOp31
 70
     0
102
RTVSPost2010Prop32
280
     0
102
RTVSPost2010PropOp32
 70
     0
102
RTVSPost2010Prop33
280
     0
102
RTVSPost2010PropOp33
 70
     0
102
RTVSPost2010Prop34
280
     0
102
RTVSPost2010PropOp34
 70
     0
102
RTVSPost2010Prop35
280
     0
102
RTVSPost2010PropOp35
 70
     0
102
RTVSPost2010Prop36
280
     0
102
RTVSPost2010PropOp36
 70
     0
102
RTVSPost2010Prop37
 90
       50
102
RTVSPost2010PropOp37
 70
     0
102
RTVSPost2010Prop38
140
0.0
102
RTVSPost2010PropOp38
 70
     0
102
RTVSPost2010Prop39
140
1.0
102
RTVSPost2010PropOp39
 70
     0
102
RTVSPost2010Prop40
 90
        0
102
RTVSPost2010PropOp40
 70
     0
102
RTVSPost2010Prop41ColorIndex
 90
       18
102
RTVSPost2010Prop41ColorRGB
 90
        0
102
RTVSPost2010PropOp41
 70
     0
102
RTVSPost2010Prop42
 90
       50
102
RTVSPost2010PropOp42
 70
     0
102
RTVSPost2010Prop43
 90
        3
102
RTVSPost2010PropOp43
 70
     0
102
RTVSPost2010Prop44ColorIndex
 90
        5
102
RTVSPost2010Prop44ColorRGB
 90
      255
102
RTVSPost2010PropOp44
 70
     0
102
RTVSPost2010Prop45
280
     0
102
RTVSPost2010PropOp45
 70
     0
102
RTVSPost2010Prop46
 90
       50
102
RTVSPost2010PropOp46
 70
     0
102
RTVSPost2010Prop47
 90
       50
102
RTVSPost2010PropOp47
 70
     0
102
RTVSPost2010Prop48
 90
       50
102
RTVSPost2010PropOp48
 70
     0
102
RTVSPost2010Prop49
280
     0
102
RTVSPost2010PropOp49
 70
     0
102
RTVSPost2010Prop50
 90
       50
102
RTVSPost2010PropOp50
 70
     0
102
RTVSPost2010Prop51ColorIndex
 90
      256
102
RTVSPost2010Prop51ColorRGB
 90
-16777216
102
RTVSPost2010PropOp51
 70
     0
102
RTVSPost2010Prop52
140
1.0
102
RTVSPost2010PropOp52
 70
     0
102
RTVSPost2010Prop53
 90
        2
102
RTVSPost2010PropOp53
 70
     0
102
RTVSPost2010Prop54
  1
strokes_ogs.tif
102
RTVSPost2010PropOp54
 70
     0
102
RTVSPost2010Prop55
280
     0
102
RTVSPost2010PropOp55
 70
     0
102
RTVSPost2010Prop56
140
1.0
102
RTVSPost2010PropOp56
 70
     0
102
RTVSPost2010Prop57
140
1.0
102
RTVSPost2010PropOp57
 70
     0
  0
XRECORD
  5
3FDF
102
{ACAD_REACTORS
330
3FDE
102
}
330
3FDE
100
AcDbXrecord
280
     1
102
RTVSPropertyOp0
 70
     1
102
RTVSPropertyOp1
 70
     1
102
RTVSPropertyOp2
 70
     1
102
RTVSPropertyOp3
 70
     1
102
RTVSPropertyOp4
 70
     1
102
RTVSPropertyOp5
 70
     1
102
RTVSPropertyOp6
 70
     1
102
RTVSPropertyOp7
 70
     1
102
RTVSPropertyOp8
 70
     1
102
RTVSPropertyOp9
 70
     1
102
RTVSPropertyOp10
 70
     1
102
RTVSPropertyOp11
 70
     1
102
RTVSPropertyOp12
 70
     1
102
RTVSPropertyOp13
 70
     1
102
RTVSPropertyOp14
 70
     1
102
RTVSPropertyOp15
 70
     1
102
RTVSPropertyOp16
 70
     1
102
RTVSPropertyOp17
 70
     1
102
RTVSPropertyOp18
 70
     1
102
RTVSPropertyOp19
 70
     1
102
RTVSPropertyOp20
 70
     1
102
RTVSPropertyOp21
 70
     1
102
RTVSPropertyOp22
 70
     1
102
RTVSPropertyOp23
 70
     1
102
RTVSPropertyOp24
 70
     1
102
RTVSPropertyOp25
 70
     1
102
RTVSPropertyOp26
 70
     1
102
RTVSPropertyOp27
 70
     1
102
RTVSPropertyOp28
 70
     1
102
RTVSPropertyOp29
 70
     1
102
RTVSPropertyOp30
 70
     1
102
RTVSPropertyOp31
 70
     1
102
RTVSPropertyOp32
 70
     1
102
RTVSPropertyOp33
 70
     1
102
RTVSPropertyOp34
 70
     1
102
RTVSPropertyOp35
 70
     1
102
RTVSPropertyOp36
 70
     1
102
RTVSPropertyOp37
 70
     1
102
RTVSPropertyOp38
 70
     1
102
RTVSPropertyOp39
 70
     1
102
RTVSPropertyOp40
 70
     1
102
RTVSPropertyOp41
 70
     1
102
RTVSPropertyOp42
 70
     1
102
RTVSPropertyOp43
 70
     1
102
RTVSPropertyOp44
 70
     1
102
RTVSPropertyOp45
 70
     1
102
RTVSPropertyOp46
 70
     1
102
RTVSPropertyOp47
 70
     1
102
RTVSPropertyOp48
 70
     1
102
RTVSPropertyOp49
 70
     1
102
RTVSPropertyOp50
 70
     1
102
RTVSPropertyOp51
 70
     0
102
RTVSPropertyOp52
 70
     0
102
RTVSPropertyOp53
 70
     1
102
RTVSPropertyOp54
 70
     1
102
RTVSPropertyOp55
 70
     1
102
RTVSPropertyOp56
 70
     1
102
RTVSPropertyOp57
 70
     1
102
RTVSPost2010Prop28
280
     0
102
RTVSPost2010PropOp28
 70
     1
102
RTVSPost2010Prop29
280
     1
102
RTVSPost2010PropOp29
 70
     1
102
RTVSPost2010Prop30
280
     1
102
RTVSPost2010PropOp30
 70
     1
102
RTVSPost2010Prop31
280
     0
102
RTVSPost2010PropOp31
 70
     1
102
RTVSPost2010Prop32
280
     0
102
RTVSPost2010PropOp32
 70
     1
102
RTVSPost2010Prop33
280
     0
102
RTVSPost2010PropOp33
 70
     1
102
RTVSPost2010Prop34
280
     0
102
RTVSPost2010PropOp34
 70
     1
102
RTVSPost2010Prop35
280
     0
102
RTVSPost2010PropOp35
 70
     1
102
RTVSPost2010Prop36
280
     0
102
RTVSPost2010PropOp36
 70
     1
102
RTVSPost2010Prop37
 90
       50
102
RTVSPost2010PropOp37
 70
     1
102
RTVSPost2010Prop38
140
0.0
102
RTVSPost2010PropOp38
 70
     1
102
RTVSPost2010Prop39
140
1.0
102
RTVSPost2010PropOp39
 70
     1
102
RTVSPost2010Prop40
 90
        0
102
RTVSPost2010PropOp40
 70
     1
102
RTVSPost2010Prop41ColorIndex
 90
       18
102
RTVSPost2010Prop41ColorRGB
 90
        0
102
RTVSPost2010PropOp41
 70
     1
102
RTVSPost2010Prop42
 90
       50
102
RTVSPost2010PropOp42
 70
     1
102
RTVSPost2010Prop43
 90
        3
102
RTVSPost2010PropOp43
 70
     1
102
RTVSPost2010Prop44ColorIndex
 90
        5
102
RTVSPost2010Prop44ColorRGB
 90
      255
102
RTVSPost2010PropOp44
 70
     1
102
RTVSPost2010Prop45
280
     0
102
RTVSPost2010PropOp45
 70
     1
102
RTVSPost2010Prop46
 90
       50
102
RTVSPost2010PropOp46
 70
     1
102
RTVSPost2010Prop47
 90
       50
102
RTVSPost2010PropOp47
 70
     1
102
RTVSPost2010Prop48
 90
       50
102
RTVSPost2010PropOp48
 70
     1
102
RTVSPost2010Prop49
280
     0
102
RTVSPost2010PropOp49
 70
     1
102
RTVSPost2010Prop50
 90
       50
102
RTVSPost2010PropOp50
 70
     1
102
RTVSPost2010Prop51ColorIndex
 90
      256
102
RTVSPost2010Prop51ColorRGB
 90
-16777216
102
RTVSPost2010PropOp51
 70
     0
102
RTVSPost2010Prop52
140
1.0
102
RTVSPost2010PropOp52
 70
     0
102
RTVSPost2010Prop53
 90
        2
102
RTVSPost2010PropOp53
 70
     1
102
RTVSPost2010Prop54
  1
strokes_ogs.tif
102
RTVSPost2010PropOp54
 70
     1
102
RTVSPost2010Prop55
280
     0
102
RTVSPost2010PropOp55
 70
     1
102
RTVSPost2010Prop56
140
1.0
102
RTVSPost2010PropOp56
 70
     1
102
RTVSPost2010Prop57
140
1.0
102
RTVSPost2010PropOp57
 70
     1
  0
XRECORD
  5
3FC3
102
{ACAD_REACTORS
330
3FC2
102
}
330
3FC2
100
AcDbXrecord
280
     1
102
RTVSPropertyOp0
 70
     1
102
RTVSPropertyOp1
 70
     1
102
RTVSPropertyOp2
 70
     1
102
RTVSPropertyOp3
 70
     1
102
RTVSPropertyOp4
 70
     1
102
RTVSPropertyOp5
 70
     1
102
RTVSPropertyOp6
 70
     1
102
RTVSPropertyOp7
 70
     1
102
RTVSPropertyOp8
 70
     1
102
RTVSPropertyOp9
 70
     1
102
RTVSPropertyOp10
 70
     1
102
RTVSPropertyOp11
 70
     1
102
RTVSPropertyOp12
 70
     1
102
RTVSPropertyOp13
 70
     1
102
RTVSPropertyOp14
 70
     1
102
RTVSPropertyOp15
 70
     1
102
RTVSPropertyOp16
 70
     1
102
RTVSPropertyOp17
 70
     1
102
RTVSPropertyOp18
 70
     1
102
RTVSPropertyOp19
 70
     1
102
RTVSPropertyOp20
 70
     1
102
RTVSPropertyOp21
 70
     1
102
RTVSPropertyOp22
 70
     1
102
RTVSPropertyOp23
 70
     1
102
RTVSPropertyOp24
 70
     1
102
RTVSPropertyOp25
 70
     1
102
RTVSPropertyOp26
 70
     1
102
RTVSPropertyOp27
 70
     1
102
RTVSPropertyOp28
 70
     1
102
RTVSPropertyOp29
 70
     1
102
RTVSPropertyOp30
 70
     1
102
RTVSPropertyOp31
 70
     1
102
RTVSPropertyOp32
 70
     1
102
RTVSPropertyOp33
 70
     1
102
RTVSPropertyOp34
 70
     1
102
RTVSPropertyOp35
 70
     1
102
RTVSPropertyOp36
 70
     1
102
RTVSPropertyOp37
 70
     1
102
RTVSPropertyOp38
 70
     1
102
RTVSPropertyOp39
 70
     1
102
RTVSPropertyOp40
 70
     1
102
RTVSPropertyOp41
 70
     1
102
RTVSPropertyOp42
 70
     1
102
RTVSPropertyOp43
 70
     1
102
RTVSPropertyOp44
 70
     1
102
RTVSPropertyOp45
 70
     1
102
RTVSPropertyOp46
 70
     1
102
RTVSPropertyOp47
 70
     1
102
RTVSPropertyOp48
 70
     1
102
RTVSPropertyOp49
 70
     1
102
RTVSPropertyOp50
 70
     1
102
RTVSPropertyOp51
 70
     0
102
RTVSPropertyOp52
 70
     0
102
RTVSPropertyOp53
 70
     1
102
RTVSPropertyOp54
 70
     1
102
RTVSPropertyOp55
 70
     1
102
RTVSPropertyOp56
 70
     1
102
RTVSPropertyOp57
 70
     1
102
RTVSPost2010Prop28
280
     0
102
RTVSPost2010PropOp28
 70
     1
102
RTVSPost2010Prop29
280
     1
102
RTVSPost2010PropOp29
 70
     1
102
RTVSPost2010Prop30
280
     1
102
RTVSPost2010PropOp30
 70
     1
102
RTVSPost2010Prop31
280
     0
102
RTVSPost2010PropOp31
 70
     1
102
RTVSPost2010Prop32
280
     0
102
RTVSPost2010PropOp32
 70
     1
102
RTVSPost2010Prop33
280
     0
102
RTVSPost2010PropOp33
 70
     1
102
RTVSPost2010Prop34
280
     0
102
RTVSPost2010PropOp34
 70
     1
102
RTVSPost2010Prop35
280
     0
102
RTVSPost2010PropOp35
 70
     1
102
RTVSPost2010Prop36
280
     0
102
RTVSPost2010PropOp36
 70
     1
102
RTVSPost2010Prop37
 90
       50
102
RTVSPost2010PropOp37
 70
     1
102
RTVSPost2010Prop38
140
0.0
102
RTVSPost2010PropOp38
 70
     1
102
RTVSPost2010Prop39
140
1.0
102
RTVSPost2010PropOp39
 70
     1
102
RTVSPost2010Prop40
 90
        0
102
RTVSPost2010PropOp40
 70
     1
102
RTVSPost2010Prop41ColorIndex
 90
       18
102
RTVSPost2010Prop41ColorRGB
 90
        0
102
RTVSPost2010PropOp41
 70
     1
102
RTVSPost2010Prop42
 90
       50
102
RTVSPost2010PropOp42
 70
     1
102
RTVSPost2010Prop43
 90
        3
102
RTVSPost2010PropOp43
 70
     1
102
RTVSPost2010Prop44ColorIndex
 90
        5
102
RTVSPost2010Prop44ColorRGB
 90
      255
102
RTVSPost2010PropOp44
 70
     1
102
RTVSPost2010Prop45
280
     0
102
RTVSPost2010PropOp45
 70
     1
102
RTVSPost2010Prop46
 90
       50
102
RTVSPost2010PropOp46
 70
     1
102
RTVSPost2010Prop47
 90
       50
102
RTVSPost2010PropOp47
 70
     1
102
RTVSPost2010Prop48
 90
       50
102
RTVSPost2010PropOp48
 70
     1
102
RTVSPost2010Prop49
280
     0
102
RTVSPost2010PropOp49
 70
     1
102
RTVSPost2010Prop50
 90
       50
102
RTVSPost2010PropOp50
 70
     1
102
RTVSPost2010Prop51ColorIndex
 90
      256
102
RTVSPost2010Prop51ColorRGB
 90
-16777216
102
RTVSPost2010PropOp51
 70
     0
102
RTVSPost2010Prop52
140
1.0
102
RTVSPost2010PropOp52
 70
     0
102
RTVSPost2010Prop53
 90
        2
102
RTVSPost2010PropOp53
 70
     1
102
RTVSPost2010Prop54
  1
strokes_ogs.tif
102
RTVSPost2010PropOp54
 70
     1
102
RTVSPost2010Prop55
280
     0
102
RTVSPost2010PropOp55
 70
     1
102
RTVSPost2010Prop56
140
1.0
102
RTVSPost2010PropOp56
 70
     1
102
RTVSPost2010Prop57
140
1.0
102
RTVSPost2010PropOp57
 70
     1
  0
XRECORD
  5
3FC5
102
{ACAD_REACTORS
330
3FC4
102
}
330
3FC4
100
AcDbXrecord
280
     1
102
RTVSPropertyOp0
 70
     1
102
RTVSPropertyOp1
 70
     1
102
RTVSPropertyOp2
 70
     1
102
RTVSPropertyOp3
 70
     1
102
RTVSPropertyOp4
 70
     1
102
RTVSPropertyOp5
 70
     1
102
RTVSPropertyOp6
 70
     1
102
RTVSPropertyOp7
 70
     1
102
RTVSPropertyOp8
 70
     1
102
RTVSPropertyOp9
 70
     1
102
RTVSPropertyOp10
 70
     1
102
RTVSPropertyOp11
 70
     1
102
RTVSPropertyOp12
 70
     1
102
RTVSPropertyOp13
 70
     1
102
RTVSPropertyOp14
 70
     1
102
RTVSPropertyOp15
 70
     1
102
RTVSPropertyOp16
 70
     1
102
RTVSPropertyOp17
 70
     1
102
RTVSPropertyOp18
 70
     1
102
RTVSPropertyOp19
 70
     1
102
RTVSPropertyOp20
 70
     1
102
RTVSPropertyOp21
 70
     1
102
RTVSPropertyOp22
 70
     1
102
RTVSPropertyOp23
 70
     1
102
RTVSPropertyOp24
 70
     1
102
RTVSPropertyOp25
 70
     1
102
RTVSPropertyOp26
 70
     1
102
RTVSPropertyOp27
 70
     1
102
RTVSPropertyOp28
 70
     1
102
RTVSPropertyOp29
 70
     1
102
RTVSPropertyOp30
 70
     1
102
RTVSPropertyOp31
 70
     1
102
RTVSPropertyOp32
 70
     1
102
RTVSPropertyOp33
 70
     1
102
RTVSPropertyOp34
 70
     1
102
RTVSPropertyOp35
 70
     1
102
RTVSPropertyOp36
 70
     1
102
RTVSPropertyOp37
 70
     1
102
RTVSPropertyOp38
 70
     1
102
RTVSPropertyOp39
 70
     1
102
RTVSPropertyOp40
 70
     1
102
RTVSPropertyOp41
 70
     1
102
RTVSPropertyOp42
 70
     1
102
RTVSPropertyOp43
 70
     1
102
RTVSPropertyOp44
 70
     1
102
RTVSPropertyOp45
 70
     1
102
RTVSPropertyOp46
 70
     1
102
RTVSPropertyOp47
 70
     1
102
RTVSPropertyOp48
 70
     1
102
RTVSPropertyOp49
 70
     1
102
RTVSPropertyOp50
 70
     1
102
RTVSPropertyOp51
 70
     0
102
RTVSPropertyOp52
 70
     0
102
RTVSPropertyOp53
 70
     1
102
RTVSPropertyOp54
 70
     1
102
RTVSPropertyOp55
 70
     1
102
RTVSPropertyOp56
 70
     1
102
RTVSPropertyOp57
 70
     1
102
RTVSPost2010Prop28
280
     0
102
RTVSPost2010PropOp28
 70
     1
102
RTVSPost2010Prop29
280
     1
102
RTVSPost2010PropOp29
 70
     1
102
RTVSPost2010Prop30
280
     1
102
RTVSPost2010PropOp30
 70
     1
102
RTVSPost2010Prop31
280
     0
102
RTVSPost2010PropOp31
 70
     1
102
RTVSPost2010Prop32
280
     0
102
RTVSPost2010PropOp32
 70
     1
102
RTVSPost2010Prop33
280
     0
102
RTVSPost2010PropOp33
 70
     1
102
RTVSPost2010Prop34
280
     0
102
RTVSPost2010PropOp34
 70
     1
102
RTVSPost2010Prop35
280
     0
102
RTVSPost2010PropOp35
 70
     1
102
RTVSPost2010Prop36
280
     0
102
RTVSPost2010PropOp36
 70
     1
102
RTVSPost2010Prop37
 90
       50
102
RTVSPost2010PropOp37
 70
     1
102
RTVSPost2010Prop38
140
0.0
102
RTVSPost2010PropOp38
 70
     1
102
RTVSPost2010Prop39
140
1.0
102
RTVSPost2010PropOp39
 70
     1
102
RTVSPost2010Prop40
 90
        0
102
RTVSPost2010PropOp40
 70
     1
102
RTVSPost2010Prop41ColorIndex
 90
       18
102
RTVSPost2010Prop41ColorRGB
 90
        0
102
RTVSPost2010PropOp41
 70
     1
102
RTVSPost2010Prop42
 90
       50
102
RTVSPost2010PropOp42
 70
     1
102
RTVSPost2010Prop43
 90
        3
102
RTVSPost2010PropOp43
 70
     1
102
RTVSPost2010Prop44ColorIndex
 90
        5
102
RTVSPost2010Prop44ColorRGB
 90
      255
102
RTVSPost2010PropOp44
 70
     1
102
RTVSPost2010Prop45
280
     0
102
RTVSPost2010PropOp45
 70
     1
102
RTVSPost2010Prop46
 90
       50
102
RTVSPost2010PropOp46
 70
     1
102
RTVSPost2010Prop47
 90
       50
102
RTVSPost2010PropOp47
 70
     1
102
RTVSPost2010Prop48
 90
       50
102
RTVSPost2010PropOp48
 70
     1
102
RTVSPost2010Prop49
280
     0
102
RTVSPost2010PropOp49
 70
     1
102
RTVSPost2010Prop50
 90
       50
102
RTVSPost2010PropOp50
 70
     1
102
RTVSPost2010Prop51ColorIndex
 90
      256
102
RTVSPost2010Prop51ColorRGB
 90
-16777216
102
RTVSPost2010PropOp51
 70
     0
102
RTVSPost2010Prop52
140
1.0
102
RTVSPost2010PropOp52
 70
     0
102
RTVSPost2010Prop53
 90
        2
102
RTVSPost2010PropOp53
 70
     1
102
RTVSPost2010Prop54
  1
strokes_ogs.tif
102
RTVSPost2010PropOp54
 70
     1
102
RTVSPost2010Prop55
280
     0
102
RTVSPost2010PropOp55
 70
     1
102
RTVSPost2010Prop56
140
1.0
102
RTVSPost2010PropOp56
 70
     1
102
RTVSPost2010Prop57
140
1.0
102
RTVSPost2010PropOp57
 70
     1
  0
XRECORD
  5
3FC7
102
{ACAD_REACTORS
330
3FC6
102
}
330
3FC6
100
AcDbXrecord
280
     1
102
RTVSPropertyOp0
 70
     1
102
RTVSPropertyOp1
 70
     1
102
RTVSPropertyOp2
 70
     1
102
RTVSPropertyOp3
 70
     1
102
RTVSPropertyOp4
 70
     1
102
RTVSPropertyOp5
 70
     1
102
RTVSPropertyOp6
 70
     1
102
RTVSPropertyOp7
 70
     1
102
RTVSPropertyOp8
 70
     1
102
RTVSPropertyOp9
 70
     1
102
RTVSPropertyOp10
 70
     1
102
RTVSPropertyOp11
 70
     1
102
RTVSPropertyOp12
 70
     1
102
RTVSPropertyOp13
 70
     1
102
RTVSPropertyOp14
 70
     1
102
RTVSPropertyOp15
 70
     1
102
RTVSPropertyOp16
 70
     1
102
RTVSPropertyOp17
 70
     1
102
RTVSPropertyOp18
 70
     1
102
RTVSPropertyOp19
 70
     1
102
RTVSPropertyOp20
 70
     1
102
RTVSPropertyOp21
 70
     1
102
RTVSPropertyOp22
 70
     1
102
RTVSPropertyOp23
 70
     1
102
RTVSPropertyOp24
 70
     1
102
RTVSPropertyOp25
 70
     1
102
RTVSPropertyOp26
 70
     1
102
RTVSPropertyOp27
 70
     1
102
RTVSPropertyOp28
 70
     1
102
RTVSPropertyOp29
 70
     1
102
RTVSPropertyOp30
 70
     1
102
RTVSPropertyOp31
 70
     1
102
RTVSPropertyOp32
 70
     1
102
RTVSPropertyOp33
 70
     1
102
RTVSPropertyOp34
 70
     1
102
RTVSPropertyOp35
 70
     1
102
RTVSPropertyOp36
 70
     1
102
RTVSPropertyOp37
 70
     1
102
RTVSPropertyOp38
 70
     1
102
RTVSPropertyOp39
 70
     1
102
RTVSPropertyOp40
 70
     1
102
RTVSPropertyOp41
 70
     1
102
RTVSPropertyOp42
 70
     1
102
RTVSPropertyOp43
 70
     1
102
RTVSPropertyOp44
 70
     1
102
RTVSPropertyOp45
 70
     1
102
RTVSPropertyOp46
 70
     1
102
RTVSPropertyOp47
 70
     1
102
RTVSPropertyOp48
 70
     1
102
RTVSPropertyOp49
 70
     1
102
RTVSPropertyOp50
 70
     1
102
RTVSPropertyOp51
 70
     0
102
RTVSPropertyOp52
 70
     0
102
RTVSPropertyOp53
 70
     1
102
RTVSPropertyOp54
 70
     1
102
RTVSPropertyOp55
 70
     1
102
RTVSPropertyOp56
 70
     1
102
RTVSPropertyOp57
 70
     1
102
RTVSPost2010Prop28
280
     0
102
RTVSPost2010PropOp28
 70
     1
102
RTVSPost2010Prop29
280
     1
102
RTVSPost2010PropOp29
 70
     1
102
RTVSPost2010Prop30
280
     1
102
RTVSPost2010PropOp30
 70
     1
102
RTVSPost2010Prop31
280
     0
102
RTVSPost2010PropOp31
 70
     1
102
RTVSPost2010Prop32
280
     0
102
RTVSPost2010PropOp32
 70
     1
102
RTVSPost2010Prop33
280
     0
102
RTVSPost2010PropOp33
 70
     1
102
RTVSPost2010Prop34
280
     0
102
RTVSPost2010PropOp34
 70
     1
102
RTVSPost2010Prop35
280
     0
102
RTVSPost2010PropOp35
 70
     1
102
RTVSPost2010Prop36
280
     0
102
RTVSPost2010PropOp36
 70
     1
102
RTVSPost2010Prop37
 90
       50
102
RTVSPost2010PropOp37
 70
     1
102
RTVSPost2010Prop38
140
0.0
102
RTVSPost2010PropOp38
 70
     1
102
RTVSPost2010Prop39
140
1.0
102
RTVSPost2010PropOp39
 70
     1
102
RTVSPost2010Prop40
 90
        0
102
RTVSPost2010PropOp40
 70
     1
102
RTVSPost2010Prop41ColorIndex
 90
       18
102
RTVSPost2010Prop41ColorRGB
 90
        0
102
RTVSPost2010PropOp41
 70
     1
102
RTVSPost2010Prop42
 90
       50
102
RTVSPost2010PropOp42
 70
     1
102
RTVSPost2010Prop43
 90
        3
102
RTVSPost2010PropOp43
 70
     1
102
RTVSPost2010Prop44ColorIndex
 90
        5
102
RTVSPost2010Prop44ColorRGB
 90
      255
102
RTVSPost2010PropOp44
 70
     1
102
RTVSPost2010Prop45
280
     0
102
RTVSPost2010PropOp45
 70
     1
102
RTVSPost2010Prop46
 90
       50
102
RTVSPost2010PropOp46
 70
     1
102
RTVSPost2010Prop47
 90
       50
102
RTVSPost2010PropOp47
 70
     1
102
RTVSPost2010Prop48
 90
       50
102
RTVSPost2010PropOp48
 70
     1
102
RTVSPost2010Prop49
280
     0
102
RTVSPost2010PropOp49
 70
     1
102
RTVSPost2010Prop50
 90
       50
102
RTVSPost2010PropOp50
 70
     1
102
RTVSPost2010Prop51ColorIndex
 90
      256
102
RTVSPost2010Prop51ColorRGB
 90
-16777216
102
RTVSPost2010PropOp51
 70
     0
102
RTVSPost2010Prop52
140
1.0
102
RTVSPost2010PropOp52
 70
     0
102
RTVSPost2010Prop53
 90
        2
102
RTVSPost2010PropOp53
 70
     1
102
RTVSPost2010Prop54
  1
strokes_ogs.tif
102
RTVSPost2010PropOp54
 70
     1
102
RTVSPost2010Prop55
280
     0
102
RTVSPost2010PropOp55
 70
     1
102
RTVSPost2010Prop56
140
1.0
102
RTVSPost2010PropOp56
 70
     1
102
RTVSPost2010Prop57
140
1.0
102
RTVSPost2010PropOp57
 70
     1
  0
XRECORD
  5
3FC9
102
{ACAD_REACTORS
330
3FC8
102
}
330
3FC8
100
AcDbXrecord
280
     1
102
RTVSPropertyOp0
 70
     1
102
RTVSPropertyOp1
 70
     1
102
RTVSPropertyOp2
 70
     1
102
RTVSPropertyOp3
 70
     1
102
RTVSPropertyOp4
 70
     1
102
RTVSPropertyOp5
 70
     1
102
RTVSPropertyOp6
 70
     1
102
RTVSPropertyOp7
 70
     1
102
RTVSPropertyOp8
 70
     1
102
RTVSPropertyOp9
 70
     1
102
RTVSPropertyOp10
 70
     1
102
RTVSPropertyOp11
 70
     1
102
RTVSPropertyOp12
 70
     1
102
RTVSPropertyOp13
 70
     1
102
RTVSPropertyOp14
 70
     1
102
RTVSPropertyOp15
 70
     1
102
RTVSPropertyOp16
 70
     1
102
RTVSPropertyOp17
 70
     1
102
RTVSPropertyOp18
 70
     1
102
RTVSPropertyOp19
 70
     1
102
RTVSPropertyOp20
 70
     1
102
RTVSPropertyOp21
 70
     1
102
RTVSPropertyOp22
 70
     1
102
RTVSPropertyOp23
 70
     1
102
RTVSPropertyOp24
 70
     1
102
RTVSPropertyOp25
 70
     1
102
RTVSPropertyOp26
 70
     1
102
RTVSPropertyOp27
 70
     1
102
RTVSPropertyOp28
 70
     1
102
RTVSPropertyOp29
 70
     1
102
RTVSPropertyOp30
 70
     1
102
RTVSPropertyOp31
 70
     1
102
RTVSPropertyOp32
 70
     1
102
RTVSPropertyOp33
 70
     1
102
RTVSPropertyOp34
 70
     1
102
RTVSPropertyOp35
 70
     1
102
RTVSPropertyOp36
 70
     1
102
RTVSPropertyOp37
 70
     1
102
RTVSPropertyOp38
 70
     1
102
RTVSPropertyOp39
 70
     1
102
RTVSPropertyOp40
 70
     1
102
RTVSPropertyOp41
 70
     1
102
RTVSPropertyOp42
 70
     1
102
RTVSPropertyOp43
 70
     1
102
RTVSPropertyOp44
 70
     1
102
RTVSPropertyOp45
 70
     1
102
RTVSPropertyOp46
 70
     1
102
RTVSPropertyOp47
 70
     1
102
RTVSPropertyOp48
 70
     1
102
RTVSPropertyOp49
 70
     1
102
RTVSPropertyOp50
 70
     1
102
RTVSPropertyOp51
 70
     0
102
RTVSPropertyOp52
 70
     0
102
RTVSPropertyOp53
 70
     1
102
RTVSPropertyOp54
 70
     1
102
RTVSPropertyOp55
 70
     1
102
RTVSPropertyOp56
 70
     1
102
RTVSPropertyOp57
 70
     1
102
RTVSPost2010Prop28
280
     0
102
RTVSPost2010PropOp28
 70
     1
102
RTVSPost2010Prop29
280
     1
102
RTVSPost2010PropOp29
 70
     1
102
RTVSPost2010Prop30
280
     1
102
RTVSPost2010PropOp30
 70
     1
102
RTVSPost2010Prop31
280
     0
102
RTVSPost2010PropOp31
 70
     1
102
RTVSPost2010Prop32
280
     0
102
RTVSPost2010PropOp32
 70
     1
102
RTVSPost2010Prop33
280
     0
102
RTVSPost2010PropOp33
 70
     1
102
RTVSPost2010Prop34
280
     0
102
RTVSPost2010PropOp34
 70
     1
102
RTVSPost2010Prop35
280
     0
102
RTVSPost2010PropOp35
 70
     1
102
RTVSPost2010Prop36
280
     0
102
RTVSPost2010PropOp36
 70
     1
102
RTVSPost2010Prop37
 90
       50
102
RTVSPost2010PropOp37
 70
     1
102
RTVSPost2010Prop38
140
0.0
102
RTVSPost2010PropOp38
 70
     1
102
RTVSPost2010Prop39
140
1.0
102
RTVSPost2010PropOp39
 70
     1
102
RTVSPost2010Prop40
 90
        0
102
RTVSPost2010PropOp40
 70
     1
102
RTVSPost2010Prop41ColorIndex
 90
       18
102
RTVSPost2010Prop41ColorRGB
 90
        0
102
RTVSPost2010PropOp41
 70
     1
102
RTVSPost2010Prop42
 90
       50
102
RTVSPost2010PropOp42
 70
     1
102
RTVSPost2010Prop43
 90
        3
102
RTVSPost2010PropOp43
 70
     1
102
RTVSPost2010Prop44ColorIndex
 90
        5
102
RTVSPost2010Prop44ColorRGB
 90
      255
102
RTVSPost2010PropOp44
 70
     1
102
RTVSPost2010Prop45
280
     0
102
RTVSPost2010PropOp45
 70
     1
102
RTVSPost2010Prop46
 90
       50
102
RTVSPost2010PropOp46
 70
     1
102
RTVSPost2010Prop47
 90
       50
102
RTVSPost2010PropOp47
 70
     1
102
RTVSPost2010Prop48
 90
       50
102
RTVSPost2010PropOp48
 70
     1
102
RTVSPost2010Prop49
280
     0
102
RTVSPost2010PropOp49
 70
     1
102
RTVSPost2010Prop50
 90
       50
102
RTVSPost2010PropOp50
 70
     1
102
RTVSPost2010Prop51ColorIndex
 90
      256
102
RTVSPost2010Prop51ColorRGB
 90
-16777216
102
RTVSPost2010PropOp51
 70
     0
102
RTVSPost2010Prop52
140
1.0
102
RTVSPost2010PropOp52
 70
     0
102
RTVSPost2010Prop53
 90
        2
102
RTVSPost2010PropOp53
 70
     1
102
RTVSPost2010Prop54
  1
strokes_ogs.tif
102
RTVSPost2010PropOp54
 70
     1
102
RTVSPost2010Prop55
280
     0
102
RTVSPost2010PropOp55
 70
     1
102
RTVSPost2010Prop56
140
1.0
102
RTVSPost2010PropOp56
 70
     1
102
RTVSPost2010Prop57
140
1.0
102
RTVSPost2010PropOp57
 70
     1
  0
XRECORD
  5
3FCF
102
{ACAD_REACTORS
330
3FCE
102
}
330
3FCE
100
AcDbXrecord
280
     1
102
RTVSPropertyOp0
 70
     1
102
RTVSPropertyOp1
 70
     1
102
RTVSPropertyOp2
 70
     1
102
RTVSPropertyOp3
 70
     1
102
RTVSPropertyOp4
 70
     1
102
RTVSPropertyOp5
 70
     1
102
RTVSPropertyOp6
 70
     1
102
RTVSPropertyOp7
 70
     1
102
RTVSPropertyOp8
 70
     1
102
RTVSPropertyOp9
 70
     1
102
RTVSPropertyOp10
 70
     1
102
RTVSPropertyOp11
 70
     1
102
RTVSPropertyOp12
 70
     1
102
RTVSPropertyOp13
 70
     1
102
RTVSPropertyOp14
 70
     1
102
RTVSPropertyOp15
 70
     1
102
RTVSPropertyOp16
 70
     1
102
RTVSPropertyOp17
 70
     1
102
RTVSPropertyOp18
 70
     1
102
RTVSPropertyOp19
 70
     1
102
RTVSPropertyOp20
 70
     1
102
RTVSPropertyOp21
 70
     1
102
RTVSPropertyOp22
 70
     1
102
RTVSPropertyOp23
 70
     1
102
RTVSPropertyOp24
 70
     1
102
RTVSPropertyOp25
 70
     1
102
RTVSPropertyOp26
 70
     1
102
RTVSPropertyOp27
 70
     1
102
RTVSPropertyOp28
 70
     1
102
RTVSPropertyOp29
 70
     1
102
RTVSPropertyOp30
 70
     1
102
RTVSPropertyOp31
 70
     1
102
RTVSPropertyOp32
 70
     1
102
RTVSPropertyOp33
 70
     1
102
RTVSPropertyOp34
 70
     1
102
RTVSPropertyOp35
 70
     1
102
RTVSPropertyOp36
 70
     1
102
RTVSPropertyOp37
 70
     1
102
RTVSPropertyOp38
 70
     1
102
RTVSPropertyOp39
 70
     1
102
RTVSPropertyOp40
 70
     1
102
RTVSPropertyOp41
 70
     1
102
RTVSPropertyOp42
 70
     1
102
RTVSPropertyOp43
 70
     1
102
RTVSPropertyOp44
 70
     1
102
RTVSPropertyOp45
 70
     1
102
RTVSPropertyOp46
 70
     1
102
RTVSPropertyOp47
 70
     1
102
RTVSPropertyOp48
 70
     1
102
RTVSPropertyOp49
 70
     1
102
RTVSPropertyOp50
 70
     1
102
RTVSPropertyOp51
 70
     0
102
RTVSPropertyOp52
 70
     0
102
RTVSPropertyOp53
 70
     1
102
RTVSPropertyOp54
 70
     1
102
RTVSPropertyOp55
 70
     1
102
RTVSPropertyOp56
 70
     1
102
RTVSPropertyOp57
 70
     1
102
RTVSPost2010Prop28
280
     0
102
RTVSPost2010PropOp28
 70
     1
102
RTVSPost2010Prop29
280
     1
102
RTVSPost2010PropOp29
 70
     1
102
RTVSPost2010Prop30
280
     1
102
RTVSPost2010PropOp30
 70
     1
102
RTVSPost2010Prop31
280
     0
102
RTVSPost2010PropOp31
 70
     1
102
RTVSPost2010Prop32
280
     0
102
RTVSPost2010PropOp32
 70
     1
102
RTVSPost2010Prop33
280
     0
102
RTVSPost2010PropOp33
 70
     1
102
RTVSPost2010Prop34
280
     0
102
RTVSPost2010PropOp34
 70
     1
102
RTVSPost2010Prop35
280
     0
102
RTVSPost2010PropOp35
 70
     1
102
RTVSPost2010Prop36
280
     0
102
RTVSPost2010PropOp36
 70
     1
102
RTVSPost2010Prop37
 90
       50
102
RTVSPost2010PropOp37
 70
     1
102
RTVSPost2010Prop38
140
0.0
102
RTVSPost2010PropOp38
 70
     1
102
RTVSPost2010Prop39
140
1.0
102
RTVSPost2010PropOp39
 70
     1
102
RTVSPost2010Prop40
 90
        0
102
RTVSPost2010PropOp40
 70
     1
102
RTVSPost2010Prop41ColorIndex
 90
       18
102
RTVSPost2010Prop41ColorRGB
 90
        0
102
RTVSPost2010PropOp41
 70
     1
102
RTVSPost2010Prop42
 90
       50
102
RTVSPost2010PropOp42
 70
     1
102
RTVSPost2010Prop43
 90
        3
102
RTVSPost2010PropOp43
 70
     1
102
RTVSPost2010Prop44ColorIndex
 90
        5
102
RTVSPost2010Prop44ColorRGB
 90
      255
102
RTVSPost2010PropOp44
 70
     1
102
RTVSPost2010Prop45
280
     0
102
RTVSPost2010PropOp45
 70
     1
102
RTVSPost2010Prop46
 90
       50
102
RTVSPost2010PropOp46
 70
     1
102
RTVSPost2010Prop47
 90
       50
102
RTVSPost2010PropOp47
 70
     1
102
RTVSPost2010Prop48
 90
       50
102
RTVSPost2010PropOp48
 70
     1
102
RTVSPost2010Prop49
280
     0
102
RTVSPost2010PropOp49
 70
     1
102
RTVSPost2010Prop50
 90
       50
102
RTVSPost2010PropOp50
 70
     1
102
RTVSPost2010Prop51ColorIndex
 90
      256
102
RTVSPost2010Prop51ColorRGB
 90
-16777216
102
RTVSPost2010PropOp51
 70
     0
102
RTVSPost2010Prop52
140
1.0
102
RTVSPost2010PropOp52
 70
     0
102
RTVSPost2010Prop53
 90
        2
102
RTVSPost2010PropOp53
 70
     1
102
RTVSPost2010Prop54
  1
strokes_ogs.tif
102
RTVSPost2010PropOp54
 70
     1
102
RTVSPost2010Prop55
280
     0
102
RTVSPost2010PropOp55
 70
     1
102
RTVSPost2010Prop56
140
1.0
102
RTVSPost2010PropOp56
 70
     1
102
RTVSPost2010Prop57
140
1.0
102
RTVSPost2010PropOp57
 70
     1
  0
XRECORD
  5
3FE3
102
{ACAD_REACTORS
330
3FE2
102
}
330
3FE2
100
AcDbXrecord
280
     1
102
RTVSPropertyOp0
 70
     0
102
RTVSPropertyOp1
 70
     0
102
RTVSPropertyOp2
 70
     0
102
RTVSPropertyOp3
 70
     0
102
RTVSPropertyOp4
 70
     0
102
RTVSPropertyOp5
 70
     0
102
RTVSPropertyOp6
 70
     0
102
RTVSPropertyOp7
 70
     0
102
RTVSPropertyOp8
 70
     0
102
RTVSPropertyOp9
 70
     0
102
RTVSPropertyOp10
 70
     0
102
RTVSPropertyOp11
 70
     0
102
RTVSPropertyOp12
 70
     0
102
RTVSPropertyOp13
 70
     0
102
RTVSPropertyOp14
 70
     2
102
RTVSPropertyOp15
 70
     0
102
RTVSPropertyOp16
 70
     0
102
RTVSPropertyOp17
 70
     0
102
RTVSPropertyOp18
 70
     0
102
RTVSPropertyOp19
 70
     0
102
RTVSPropertyOp20
 70
     0
102
RTVSPropertyOp21
 70
     0
102
RTVSPropertyOp22
 70
     0
102
RTVSPropertyOp23
 70
     0
102
RTVSPropertyOp24
 70
     0
102
RTVSPropertyOp25
 70
     0
102
RTVSPropertyOp26
 70
     0
102
RTVSPropertyOp27
 70
     0
102
RTVSPropertyOp28
 70
     0
102
RTVSPropertyOp29
 70
     0
102
RTVSPropertyOp30
 70
     0
102
RTVSPropertyOp31
 70
     0
102
RTVSPropertyOp32
 70
     0
102
RTVSPropertyOp33
 70
     0
102
RTVSPropertyOp34
 70
     0
102
RTVSPropertyOp35
 70
     0
102
RTVSPropertyOp36
 70
     0
102
RTVSPropertyOp37
 70
     0
102
RTVSPropertyOp38
 70
     0
102
RTVSPropertyOp39
 70
     0
102
RTVSPropertyOp40
 70
     0
102
RTVSPropertyOp41
 70
     0
102
RTVSPropertyOp42
 70
     0
102
RTVSPropertyOp43
 70
     0
102
RTVSPropertyOp44
 70
     0
102
RTVSPropertyOp45
 70
     0
102
RTVSPropertyOp46
 70
     0
102
RTVSPropertyOp47
 70
     0
102
RTVSPropertyOp48
 70
     0
102
RTVSPropertyOp49
 70
     0
102
RTVSPropertyOp50
 70
     0
102
RTVSPropertyOp51
 70
     0
102
RTVSPropertyOp52
 70
     0
102
RTVSPropertyOp53
 70
     0
102
RTVSPropertyOp54
 70
     0
102
RTVSPropertyOp55
 70
     0
102
RTVSPropertyOp56
 70
     0
102
RTVSPropertyOp57
 70
     0
102
RTVSPost2010Prop28
280
     0
102
RTVSPost2010PropOp28
 70
     0
102
RTVSPost2010Prop29
280
     1
102
RTVSPost2010PropOp29
 70
     0
102
RTVSPost2010Prop30
280
     1
102
RTVSPost2010PropOp30
 70
     0
102
RTVSPost2010Prop31
280
     0
102
RTVSPost2010PropOp31
 70
     0
102
RTVSPost2010Prop32
280
     0
102
RTVSPost2010PropOp32
 70
     0
102
RTVSPost2010Prop33
280
     0
102
RTVSPost2010PropOp33
 70
     0
102
RTVSPost2010Prop34
280
     0
102
RTVSPost2010PropOp34
 70
     0
102
RTVSPost2010Prop35
280
     0
102
RTVSPost2010PropOp35
 70
     0
102
RTVSPost2010Prop36
280
     0
102
RTVSPost2010PropOp36
 70
     0
102
RTVSPost2010Prop37
 90
       50
102
RTVSPost2010PropOp37
 70
     0
102
RTVSPost2010Prop38
140
0.0
102
RTVSPost2010PropOp38
 70
     0
102
RTVSPost2010Prop39
140
1.0
102
RTVSPost2010PropOp39
 70
     0
102
RTVSPost2010Prop40
 90
        0
102
RTVSPost2010PropOp40
 70
     0
102
RTVSPost2010Prop41ColorIndex
 90
       18
102
RTVSPost2010Prop41ColorRGB
 90
        0
102
RTVSPost2010PropOp41
 70
     0
102
RTVSPost2010Prop42
 90
       50
102
RTVSPost2010PropOp42
 70
     0
102
RTVSPost2010Prop43
 90
        3
102
RTVSPost2010PropOp43
 70
     0
102
RTVSPost2010Prop44ColorIndex
 90
        5
102
RTVSPost2010Prop44ColorRGB
 90
      255
102
RTVSPost2010PropOp44
 70
     0
102
RTVSPost2010Prop45
280
     0
102
RTVSPost2010PropOp45
 70
     0
102
RTVSPost2010Prop46
 90
       50
102
RTVSPost2010PropOp46
 70
     0
102
RTVSPost2010Prop47
 90
       50
102
RTVSPost2010PropOp47
 70
     0
102
RTVSPost2010Prop48
 90
       50
102
RTVSPost2010PropOp48
 70
     0
102
RTVSPost2010Prop49
280
     0
102
RTVSPost2010PropOp49
 70
     0
102
RTVSPost2010Prop50
 90
       50
102
RTVSPost2010PropOp50
 70
     0
102
RTVSPost2010Prop51ColorIndex
 90
      256
102
RTVSPost2010Prop51ColorRGB
 90
-16777216
102
RTVSPost2010PropOp51
 70
     0
102
RTVSPost2010Prop52
140
1.0
102
RTVSPost2010PropOp52
 70
     0
102
RTVSPost2010Prop53
 90
        2
102
RTVSPost2010PropOp53
 70
     0
102
RTVSPost2010Prop54
  1
strokes_ogs.tif
102
RTVSPost2010PropOp54
 70
     0
102
RTVSPost2010Prop55
280
     0
102
RTVSPost2010PropOp55
 70
     0
102
RTVSPost2010Prop56
140
1.0
102
RTVSPost2010PropOp56
 70
     0
102
RTVSPost2010Prop57
140
1.0
102
RTVSPost2010PropOp57
 70
     0
  0
XRECORD
  5
3FDD
102
{ACAD_REACTORS
330
3FDC
102
}
330
3FDC
100
AcDbXrecord
280
     1
102
RTVSPropertyOp0
 70
     1
102
RTVSPropertyOp1
 70
     1
102
RTVSPropertyOp2
 70
     1
102
RTVSPropertyOp3
 70
     1
102
RTVSPropertyOp4
 70
     1
102
RTVSPropertyOp5
 70
     1
102
RTVSPropertyOp6
 70
     1
102
RTVSPropertyOp7
 70
     1
102
RTVSPropertyOp8
 70
     1
102
RTVSPropertyOp9
 70
     1
102
RTVSPropertyOp10
 70
     1
102
RTVSPropertyOp11
 70
     1
102
RTVSPropertyOp12
 70
     1
102
RTVSPropertyOp13
 70
     1
102
RTVSPropertyOp14
 70
     1
102
RTVSPropertyOp15
 70
     1
102
RTVSPropertyOp16
 70
     1
102
RTVSPropertyOp17
 70
     1
102
RTVSPropertyOp18
 70
     1
102
RTVSPropertyOp19
 70
     1
102
RTVSPropertyOp20
 70
     1
102
RTVSPropertyOp21
 70
     1
102
RTVSPropertyOp22
 70
     1
102
RTVSPropertyOp23
 70
     1
102
RTVSPropertyOp24
 70
     1
102
RTVSPropertyOp25
 70
     1
102
RTVSPropertyOp26
 70
     1
102
RTVSPropertyOp27
 70
     1
102
RTVSPropertyOp28
 70
     1
102
RTVSPropertyOp29
 70
     1
102
RTVSPropertyOp30
 70
     1
102
RTVSPropertyOp31
 70
     1
102
RTVSPropertyOp32
 70
     1
102
RTVSPropertyOp33
 70
     1
102
RTVSPropertyOp34
 70
     1
102
RTVSPropertyOp35
 70
     1
102
RTVSPropertyOp36
 70
     1
102
RTVSPropertyOp37
 70
     1
102
RTVSPropertyOp38
 70
     1
102
RTVSPropertyOp39
 70
     1
102
RTVSPropertyOp40
 70
     1
102
RTVSPropertyOp41
 70
     1
102
RTVSPropertyOp42
 70
     1
102
RTVSPropertyOp43
 70
     1
102
RTVSPropertyOp44
 70
     1
102
RTVSPropertyOp45
 70
     1
102
RTVSPropertyOp46
 70
     1
102
RTVSPropertyOp47
 70
     1
102
RTVSPropertyOp48
 70
     1
102
RTVSPropertyOp49
 70
     1
102
RTVSPropertyOp50
 70
     1
102
RTVSPropertyOp51
 70
     0
102
RTVSPropertyOp52
 70
     0
102
RTVSPropertyOp53
 70
     1
102
RTVSPropertyOp54
 70
     1
102
RTVSPropertyOp55
 70
     1
102
RTVSPropertyOp56
 70
     1
102
RTVSPropertyOp57
 70
     1
102
RTVSPost2010Prop28
280
     0
102
RTVSPost2010PropOp28
 70
     1
102
RTVSPost2010Prop29
280
     1
102
RTVSPost2010PropOp29
 70
     1
102
RTVSPost2010Prop30
280
     1
102
RTVSPost2010PropOp30
 70
     1
102
RTVSPost2010Prop31
280
     0
102
RTVSPost2010PropOp31
 70
     1
102
RTVSPost2010Prop32
280
     0
102
RTVSPost2010PropOp32
 70
     1
102
RTVSPost2010Prop33
280
     0
102
RTVSPost2010PropOp33
 70
     1
102
RTVSPost2010Prop34
280
     0
102
RTVSPost2010PropOp34
 70
     1
102
RTVSPost2010Prop35
280
     0
102
RTVSPost2010PropOp35
 70
     1
102
RTVSPost2010Prop36
280
     0
102
RTVSPost2010PropOp36
 70
     1
102
RTVSPost2010Prop37
 90
       50
102
RTVSPost2010PropOp37
 70
     1
102
RTVSPost2010Prop38
140
0.0
102
RTVSPost2010PropOp38
 70
     1
102
RTVSPost2010Prop39
140
1.0
102
RTVSPost2010PropOp39
 70
     1
102
RTVSPost2010Prop40
 90
        0
102
RTVSPost2010PropOp40
 70
     1
102
RTVSPost2010Prop41ColorIndex
 90
       18
102
RTVSPost2010Prop41ColorRGB
 90
        0
102
RTVSPost2010PropOp41
 70
     1
102
RTVSPost2010Prop42
 90
       50
102
RTVSPost2010PropOp42
 70
     1
102
RTVSPost2010Prop43
 90
        3
102
RTVSPost2010PropOp43
 70
     1
102
RTVSPost2010Prop44ColorIndex
 90
        5
102
RTVSPost2010Prop44ColorRGB
 90
      255
102
RTVSPost2010PropOp44
 70
     1
102
RTVSPost2010Prop45
280
     0
102
RTVSPost2010PropOp45
 70
     1
102
RTVSPost2010Prop46
 90
       50
102
RTVSPost2010PropOp46
 70
     1
102
RTVSPost2010Prop47
 90
       50
102
RTVSPost2010PropOp47
 70
     1
102
RTVSPost2010Prop48
 90
       50
102
RTVSPost2010PropOp48
 70
     1
102
RTVSPost2010Prop49
280
     0
102
RTVSPost2010PropOp49
 70
     1
102
RTVSPost2010Prop50
 90
       50
102
RTVSPost2010PropOp50
 70
     1
102
RTVSPost2010Prop51ColorIndex
 90
      256
102
RTVSPost2010Prop51ColorRGB
 90
-16777216
102
RTVSPost2010PropOp51
 70
     0
102
RTVSPost2010Prop52
140
1.0
102
RTVSPost2010PropOp52
 70
     0
102
RTVSPost2010Prop53
 90
        2
102
RTVSPost2010PropOp53
 70
     1
102
RTVSPost2010Prop54
  1
strokes_ogs.tif
102
RTVSPost2010PropOp54
 70
     1
102
RTVSPost2010Prop55
280
     0
102
RTVSPost2010PropOp55
 70
     1
102
RTVSPost2010Prop56
140
1.0
102
RTVSPost2010PropOp56
 70
     1
102
RTVSPost2010Prop57
140
1.0
102
RTVSPost2010PropOp57
 70
     1
  0
XRECORD
  5
3FE5
102
{ACAD_REACTORS
330
3FE4
102
}
330
3FE4
100
AcDbXrecord
280
     1
102
RTVSPropertyOp0
 70
     0
102
RTVSPropertyOp1
 70
     0
102
RTVSPropertyOp2
 70
     0
102
RTVSPropertyOp3
 70
     0
102
RTVSPropertyOp4
 70
     0
102
RTVSPropertyOp5
 70
     0
102
RTVSPropertyOp6
 70
     0
102
RTVSPropertyOp7
 70
     0
102
RTVSPropertyOp8
 70
     0
102
RTVSPropertyOp9
 70
     0
102
RTVSPropertyOp10
 70
     0
102
RTVSPropertyOp11
 70
     0
102
RTVSPropertyOp12
 70
     0
102
RTVSPropertyOp13
 70
     0
102
RTVSPropertyOp14
 70
     2
102
RTVSPropertyOp15
 70
     0
102
RTVSPropertyOp16
 70
     0
102
RTVSPropertyOp17
 70
     0
102
RTVSPropertyOp18
 70
     0
102
RTVSPropertyOp19
 70
     0
102
RTVSPropertyOp20
 70
     0
102
RTVSPropertyOp21
 70
     0
102
RTVSPropertyOp22
 70
     0
102
RTVSPropertyOp23
 70
     0
102
RTVSPropertyOp24
 70
     0
102
RTVSPropertyOp25
 70
     0
102
RTVSPropertyOp26
 70
     0
102
RTVSPropertyOp27
 70
     0
102
RTVSPropertyOp28
 70
     0
102
RTVSPropertyOp29
 70
     0
102
RTVSPropertyOp30
 70
     0
102
RTVSPropertyOp31
 70
     0
102
RTVSPropertyOp32
 70
     0
102
RTVSPropertyOp33
 70
     0
102
RTVSPropertyOp34
 70
     0
102
RTVSPropertyOp35
 70
     0
102
RTVSPropertyOp36
 70
     0
102
RTVSPropertyOp37
 70
     0
102
RTVSPropertyOp38
 70
     0
102
RTVSPropertyOp39
 70
     0
102
RTVSPropertyOp40
 70
     0
102
RTVSPropertyOp41
 70
     0
102
RTVSPropertyOp42
 70
     0
102
RTVSPropertyOp43
 70
     0
102
RTVSPropertyOp44
 70
     0
102
RTVSPropertyOp45
 70
     0
102
RTVSPropertyOp46
 70
     0
102
RTVSPropertyOp47
 70
     0
102
RTVSPropertyOp48
 70
     0
102
RTVSPropertyOp49
 70
     0
102
RTVSPropertyOp50
 70
     0
102
RTVSPropertyOp51
 70
     0
102
RTVSPropertyOp52
 70
     0
102
RTVSPropertyOp53
 70
     0
102
RTVSPropertyOp54
 70
     0
102
RTVSPropertyOp55
 70
     0
102
RTVSPropertyOp56
 70
     0
102
RTVSPropertyOp57
 70
     0
102
RTVSPost2010Prop28
280
     0
102
RTVSPost2010PropOp28
 70
     0
102
RTVSPost2010Prop29
280
     1
102
RTVSPost2010PropOp29
 70
     0
102
RTVSPost2010Prop30
280
     1
102
RTVSPost2010PropOp30
 70
     0
102
RTVSPost2010Prop31
280
     0
102
RTVSPost2010PropOp31
 70
     0
102
RTVSPost2010Prop32
280
     0
102
RTVSPost2010PropOp32
 70
     0
102
RTVSPost2010Prop33
280
     0
102
RTVSPost2010PropOp33
 70
     0
102
RTVSPost2010Prop34
280
     0
102
RTVSPost2010PropOp34
 70
     0
102
RTVSPost2010Prop35
280
     0
102
RTVSPost2010PropOp35
 70
     0
102
RTVSPost2010Prop36
280
     0
102
RTVSPost2010PropOp36
 70
     0
102
RTVSPost2010Prop37
 90
       50
102
RTVSPost2010PropOp37
 70
     0
102
RTVSPost2010Prop38
140
0.0
102
RTVSPost2010PropOp38
 70
     0
102
RTVSPost2010Prop39
140
1.0
102
RTVSPost2010PropOp39
 70
     0
102
RTVSPost2010Prop40
 90
        0
102
RTVSPost2010PropOp40
 70
     0
102
RTVSPost2010Prop41ColorIndex
 90
       18
102
RTVSPost2010Prop41ColorRGB
 90
        0
102
RTVSPost2010PropOp41
 70
     0
102
RTVSPost2010Prop42
 90
       50
102
RTVSPost2010PropOp42
 70
     0
102
RTVSPost2010Prop43
 90
        3
102
RTVSPost2010PropOp43
 70
     0
102
RTVSPost2010Prop44ColorIndex
 90
        5
102
RTVSPost2010Prop44ColorRGB
 90
      255
102
RTVSPost2010PropOp44
 70
     0
102
RTVSPost2010Prop45
280
     0
102
RTVSPost2010PropOp45
 70
     0
102
RTVSPost2010Prop46
 90
       50
102
RTVSPost2010PropOp46
 70
     0
102
RTVSPost2010Prop47
 90
       50
102
RTVSPost2010PropOp47
 70
     0
102
RTVSPost2010Prop48
 90
       50
102
RTVSPost2010PropOp48
 70
     0
102
RTVSPost2010Prop49
280
     0
102
RTVSPost2010PropOp49
 70
     0
102
RTVSPost2010Prop50
 90
       50
102
RTVSPost2010PropOp50
 70
     0
102
RTVSPost2010Prop51ColorIndex
 90
      256
102
RTVSPost2010Prop51ColorRGB
 90
-16777216
102
RTVSPost2010PropOp51
 70
     0
102
RTVSPost2010Prop52
140
1.0
102
RTVSPost2010PropOp52
 70
     0
102
RTVSPost2010Prop53
 90
        2
102
RTVSPost2010PropOp53
 70
     0
102
RTVSPost2010Prop54
  1
strokes_ogs.tif
102
RTVSPost2010PropOp54
 70
     0
102
RTVSPost2010Prop55
280
     0
102
RTVSPost2010PropOp55
 70
     0
102
RTVSPost2010Prop56
140
1.0
102
RTVSPost2010PropOp56
 70
     0
102
RTVSPost2010Prop57
140
1.0
102
RTVSPost2010PropOp57
 70
     0
  0
XRECORD
  5
3FD3
102
{ACAD_REACTORS
330
3FD2
102
}
330
3FD2
100
AcDbXrecord
280
     1
102
RTVSPropertyOp0
 70
     1
102
RTVSPropertyOp1
 70
     1
102
RTVSPropertyOp2
 70
     1
102
RTVSPropertyOp3
 70
     1
102
RTVSPropertyOp4
 70
     1
102
RTVSPropertyOp5
 70
     1
102
RTVSPropertyOp6
 70
     1
102
RTVSPropertyOp7
 70
     1
102
RTVSPropertyOp8
 70
     1
102
RTVSPropertyOp9
 70
     1
102
RTVSPropertyOp10
 70
     1
102
RTVSPropertyOp11
 70
     1
102
RTVSPropertyOp12
 70
     1
102
RTVSPropertyOp13
 70
     1
102
RTVSPropertyOp14
 70
     1
102
RTVSPropertyOp15
 70
     1
102
RTVSPropertyOp16
 70
     1
102
RTVSPropertyOp17
 70
     1
102
RTVSPropertyOp18
 70
     1
102
RTVSPropertyOp19
 70
     1
102
RTVSPropertyOp20
 70
     1
102
RTVSPropertyOp21
 70
     1
102
RTVSPropertyOp22
 70
     1
102
RTVSPropertyOp23
 70
     1
102
RTVSPropertyOp24
 70
     1
102
RTVSPropertyOp25
 70
     1
102
RTVSPropertyOp26
 70
     1
102
RTVSPropertyOp27
 70
     1
102
RTVSPropertyOp28
 70
     1
102
RTVSPropertyOp29
 70
     1
102
RTVSPropertyOp30
 70
     1
102
RTVSPropertyOp31
 70
     1
102
RTVSPropertyOp32
 70
     1
102
RTVSPropertyOp33
 70
     1
102
RTVSPropertyOp34
 70
     1
102
RTVSPropertyOp35
 70
     1
102
RTVSPropertyOp36
 70
     1
102
RTVSPropertyOp37
 70
     1
102
RTVSPropertyOp38
 70
     1
102
RTVSPropertyOp39
 70
     1
102
RTVSPropertyOp40
 70
     1
102
RTVSPropertyOp41
 70
     1
102
RTVSPropertyOp42
 70
     1
102
RTVSPropertyOp43
 70
     1
102
RTVSPropertyOp44
 70
     1
102
RTVSPropertyOp45
 70
     1
102
RTVSPropertyOp46
 70
     1
102
RTVSPropertyOp47
 70
     1
102
RTVSPropertyOp48
 70
     1
102
RTVSPropertyOp49
 70
     1
102
RTVSPropertyOp50
 70
     1
102
RTVSPropertyOp51
 70
     0
102
RTVSPropertyOp52
 70
     0
102
RTVSPropertyOp53
 70
     1
102
RTVSPropertyOp54
 70
     1
102
RTVSPropertyOp55
 70
     1
102
RTVSPropertyOp56
 70
     1
102
RTVSPropertyOp57
 70
     1
102
RTVSPost2010Prop28
280
     0
102
RTVSPost2010PropOp28
 70
     1
102
RTVSPost2010Prop29
280
     1
102
RTVSPost2010PropOp29
 70
     1
102
RTVSPost2010Prop30
280
     1
102
RTVSPost2010PropOp30
 70
     1
102
RTVSPost2010Prop31
280
     0
102
RTVSPost2010PropOp31
 70
     1
102
RTVSPost2010Prop32
280
     0
102
RTVSPost2010PropOp32
 70
     1
102
RTVSPost2010Prop33
280
     0
102
RTVSPost2010PropOp33
 70
     1
102
RTVSPost2010Prop34
280
     0
102
RTVSPost2010PropOp34
 70
     1
102
RTVSPost2010Prop35
280
     0
102
RTVSPost2010PropOp35
 70
     1
102
RTVSPost2010Prop36
280
     0
102
RTVSPost2010PropOp36
 70
     1
102
RTVSPost2010Prop37
 90
       50
102
RTVSPost2010PropOp37
 70
     1
102
RTVSPost2010Prop38
140
0.0
102
RTVSPost2010PropOp38
 70
     1
102
RTVSPost2010Prop39
140
1.0
102
RTVSPost2010PropOp39
 70
     1
102
RTVSPost2010Prop40
 90
        0
102
RTVSPost2010PropOp40
 70
     1
102
RTVSPost2010Prop41ColorIndex
 90
       18
102
RTVSPost2010Prop41ColorRGB
 90
        0
102
RTVSPost2010PropOp41
 70
     1
102
RTVSPost2010Prop42
 90
       50
102
RTVSPost2010PropOp42
 70
     1
102
RTVSPost2010Prop43
 90
        3
102
RTVSPost2010PropOp43
 70
     1
102
RTVSPost2010Prop44ColorIndex
 90
        5
102
RTVSPost2010Prop44ColorRGB
 90
      255
102
RTVSPost2010PropOp44
 70
     1
102
RTVSPost2010Prop45
280
     0
102
RTVSPost2010PropOp45
 70
     1
102
RTVSPost2010Prop46
 90
       50
102
RTVSPost2010PropOp46
 70
     1
102
RTVSPost2010Prop47
 90
       50
102
RTVSPost2010PropOp47
 70
     1
102
RTVSPost2010Prop48
 90
       50
102
RTVSPost2010PropOp48
 70
     1
102
RTVSPost2010Prop49
280
     0
102
RTVSPost2010PropOp49
 70
     1
102
RTVSPost2010Prop50
 90
       50
102
RTVSPost2010PropOp50
 70
     1
102
RTVSPost2010Prop51ColorIndex
 90
      256
102
RTVSPost2010Prop51ColorRGB
 90
-16777216
102
RTVSPost2010PropOp51
 70
     0
102
RTVSPost2010Prop52
140
1.0
102
RTVSPost2010PropOp52
 70
     0
102
RTVSPost2010Prop53
 90
        2
102
RTVSPost2010PropOp53
 70
     1
102
RTVSPost2010Prop54
  1
strokes_ogs.tif
102
RTVSPost2010PropOp54
 70
     1
102
RTVSPost2010Prop55
280
     0
102
RTVSPost2010PropOp55
 70
     1
102
RTVSPost2010Prop56
140
1.0
102
RTVSPost2010PropOp56
 70
     1
102
RTVSPost2010Prop57
140
1.0
102
RTVSPost2010PropOp57
 70
     1
  0
XRECORD
  5
3FF1
102
{ACAD_REACTORS
330
3FF0
102
}
330
3FF0
100
AcDbXrecord
280
     1
102
RTVSPropertyOp0
 70
     1
102
RTVSPropertyOp1
 70
     1
102
RTVSPropertyOp2
 70
     1
102
RTVSPropertyOp3
 70
     1
102
RTVSPropertyOp4
 70
     1
102
RTVSPropertyOp5
 70
     1
102
RTVSPropertyOp6
 70
     1
102
RTVSPropertyOp7
 70
     1
102
RTVSPropertyOp8
 70
     1
102
RTVSPropertyOp9
 70
     1
102
RTVSPropertyOp10
 70
     1
102
RTVSPropertyOp11
 70
     1
102
RTVSPropertyOp12
 70
     1
102
RTVSPropertyOp13
 70
     1
102
RTVSPropertyOp14
 70
     1
102
RTVSPropertyOp15
 70
     1
102
RTVSPropertyOp16
 70
     1
102
RTVSPropertyOp17
 70
     1
102
RTVSPropertyOp18
 70
     1
102
RTVSPropertyOp19
 70
     1
102
RTVSPropertyOp20
 70
     1
102
RTVSPropertyOp21
 70
     1
102
RTVSPropertyOp22
 70
     1
102
RTVSPropertyOp23
 70
     1
102
RTVSPropertyOp24
 70
     1
102
RTVSPropertyOp25
 70
     1
102
RTVSPropertyOp26
 70
     1
102
RTVSPropertyOp27
 70
     1
102
RTVSPropertyOp28
 70
     1
102
RTVSPropertyOp29
 70
     1
102
RTVSPropertyOp30
 70
     1
102
RTVSPropertyOp31
 70
     1
102
RTVSPropertyOp32
 70
     1
102
RTVSPropertyOp33
 70
     1
102
RTVSPropertyOp34
 70
     1
102
RTVSPropertyOp35
 70
     1
102
RTVSPropertyOp36
 70
     1
102
RTVSPropertyOp37
 70
     1
102
RTVSPropertyOp38
 70
     1
102
RTVSPropertyOp39
 70
     1
102
RTVSPropertyOp40
 70
     1
102
RTVSPropertyOp41
 70
     1
102
RTVSPropertyOp42
 70
     1
102
RTVSPropertyOp43
 70
     1
102
RTVSPropertyOp44
 70
     1
102
RTVSPropertyOp45
 70
     1
102
RTVSPropertyOp46
 70
     1
102
RTVSPropertyOp47
 70
     1
102
RTVSPropertyOp48
 70
     1
102
RTVSPropertyOp49
 70
     1
102
RTVSPropertyOp50
 70
     1
102
RTVSPropertyOp51
 70
     0
102
RTVSPropertyOp52
 70
     0
102
RTVSPropertyOp53
 70
     1
102
RTVSPropertyOp54
 70
     1
102
RTVSPropertyOp55
 70
     1
102
RTVSPropertyOp56
 70
     1
102
RTVSPropertyOp57
 70
     1
102
RTVSPost2010Prop28
280
     0
102
RTVSPost2010PropOp28
 70
     1
102
RTVSPost2010Prop29
280
     1
102
RTVSPost2010PropOp29
 70
     1
102
RTVSPost2010Prop30
280
     1
102
RTVSPost2010PropOp30
 70
     1
102
RTVSPost2010Prop31
280
     0
102
RTVSPost2010PropOp31
 70
     1
102
RTVSPost2010Prop32
280
     0
102
RTVSPost2010PropOp32
 70
     1
102
RTVSPost2010Prop33
280
     0
102
RTVSPost2010PropOp33
 70
     1
102
RTVSPost2010Prop34
280
     0
102
RTVSPost2010PropOp34
 70
     1
102
RTVSPost2010Prop35
280
     0
102
RTVSPost2010PropOp35
 70
     1
102
RTVSPost2010Prop36
280
     0
102
RTVSPost2010PropOp36
 70
     1
102
RTVSPost2010Prop37
 90
       50
102
RTVSPost2010PropOp37
 70
     1
102
RTVSPost2010Prop38
140
0.0
102
RTVSPost2010PropOp38
 70
     1
102
RTVSPost2010Prop39
140
1.0
102
RTVSPost2010PropOp39
 70
     1
102
RTVSPost2010Prop40
 90
        0
102
RTVSPost2010PropOp40
 70
     1
102
RTVSPost2010Prop41ColorIndex
 90
       18
102
RTVSPost2010Prop41ColorRGB
 90
        0
102
RTVSPost2010PropOp41
 70
     1
102
RTVSPost2010Prop42
 90
       50
102
RTVSPost2010PropOp42
 70
     1
102
RTVSPost2010Prop43
 90
        3
102
RTVSPost2010PropOp43
 70
     1
102
RTVSPost2010Prop44ColorIndex
 90
        5
102
RTVSPost2010Prop44ColorRGB
 90
      255
102
RTVSPost2010PropOp44
 70
     1
102
RTVSPost2010Prop45
280
     0
102
RTVSPost2010PropOp45
 70
     1
102
RTVSPost2010Prop46
 90
       50
102
RTVSPost2010PropOp46
 70
     1
102
RTVSPost2010Prop47
 90
       50
102
RTVSPost2010PropOp47
 70
     1
102
RTVSPost2010Prop48
 90
       50
102
RTVSPost2010PropOp48
 70
     1
102
RTVSPost2010Prop49
280
     0
102
RTVSPost2010PropOp49
 70
     1
102
RTVSPost2010Prop50
 90
       50
102
RTVSPost2010PropOp50
 70
     1
102
RTVSPost2010Prop51ColorIndex
 90
      256
102
RTVSPost2010Prop51ColorRGB
 90
-16777216
102
RTVSPost2010PropOp51
 70
     0
102
RTVSPost2010Prop52
140
1.0
102
RTVSPost2010PropOp52
 70
     0
102
RTVSPost2010Prop53
 90
        2
102
RTVSPost2010PropOp53
 70
     1
102
RTVSPost2010Prop54
  1
strokes_ogs.tif
102
RTVSPost2010PropOp54
 70
     1
102
RTVSPost2010Prop55
280
     0
102
RTVSPost2010PropOp55
 70
     1
102
RTVSPost2010Prop56
140
1.0
102
RTVSPost2010PropOp56
 70
     1
102
RTVSPost2010Prop57
140
1.0
102
RTVSPost2010PropOp57
 70
     1
  0
XRECORD
  5
3FEF
102
{ACAD_REACTORS
330
3FEE
102
}
330
3FEE
100
AcDbXrecord
280
     1
102
RTVSPropertyOp0
 70
     1
102
RTVSPropertyOp1
 70
     1
102
RTVSPropertyOp2
 70
     1
102
RTVSPropertyOp3
 70
     1
102
RTVSPropertyOp4
 70
     1
102
RTVSPropertyOp5
 70
     1
102
RTVSPropertyOp6
 70
     1
102
RTVSPropertyOp7
 70
     1
102
RTVSPropertyOp8
 70
     1
102
RTVSPropertyOp9
 70
     1
102
RTVSPropertyOp10
 70
     1
102
RTVSPropertyOp11
 70
     1
102
RTVSPropertyOp12
 70
     1
102
RTVSPropertyOp13
 70
     1
102
RTVSPropertyOp14
 70
     1
102
RTVSPropertyOp15
 70
     1
102
RTVSPropertyOp16
 70
     1
102
RTVSPropertyOp17
 70
     1
102
RTVSPropertyOp18
 70
     1
102
RTVSPropertyOp19
 70
     1
102
RTVSPropertyOp20
 70
     1
102
RTVSPropertyOp21
 70
     1
102
RTVSPropertyOp22
 70
     1
102
RTVSPropertyOp23
 70
     1
102
RTVSPropertyOp24
 70
     1
102
RTVSPropertyOp25
 70
     1
102
RTVSPropertyOp26
 70
     1
102
RTVSPropertyOp27
 70
     1
102
RTVSPropertyOp28
 70
     1
102
RTVSPropertyOp29
 70
     1
102
RTVSPropertyOp30
 70
     1
102
RTVSPropertyOp31
 70
     1
102
RTVSPropertyOp32
 70
     1
102
RTVSPropertyOp33
 70
     1
102
RTVSPropertyOp34
 70
     1
102
RTVSPropertyOp35
 70
     1
102
RTVSPropertyOp36
 70
     1
102
RTVSPropertyOp37
 70
     1
102
RTVSPropertyOp38
 70
     1
102
RTVSPropertyOp39
 70
     1
102
RTVSPropertyOp40
 70
     1
102
RTVSPropertyOp41
 70
     1
102
RTVSPropertyOp42
 70
     1
102
RTVSPropertyOp43
 70
     1
102
RTVSPropertyOp44
 70
     1
102
RTVSPropertyOp45
 70
     1
102
RTVSPropertyOp46
 70
     1
102
RTVSPropertyOp47
 70
     1
102
RTVSPropertyOp48
 70
     1
102
RTVSPropertyOp49
 70
     1
102
RTVSPropertyOp50
 70
     1
102
RTVSPropertyOp51
 70
     0
102
RTVSPropertyOp52
 70
     0
102
RTVSPropertyOp53
 70
     1
102
RTVSPropertyOp54
 70
     1
102
RTVSPropertyOp55
 70
     1
102
RTVSPropertyOp56
 70
     1
102
RTVSPropertyOp57
 70
     1
102
RTVSPost2010Prop28
280
     0
102
RTVSPost2010PropOp28
 70
     1
102
RTVSPost2010Prop29
280
     1
102
RTVSPost2010PropOp29
 70
     1
102
RTVSPost2010Prop30
280
     1
102
RTVSPost2010PropOp30
 70
     1
102
RTVSPost2010Prop31
280
     0
102
RTVSPost2010PropOp31
 70
     1
102
RTVSPost2010Prop32
280
     0
102
RTVSPost2010PropOp32
 70
     1
102
RTVSPost2010Prop33
280
     0
102
RTVSPost2010PropOp33
 70
     1
102
RTVSPost2010Prop34
280
     0
102
RTVSPost2010PropOp34
 70
     1
102
RTVSPost2010Prop35
280
     0
102
RTVSPost2010PropOp35
 70
     1
102
RTVSPost2010Prop36
280
     0
102
RTVSPost2010PropOp36
 70
     1
102
RTVSPost2010Prop37
 90
       50
102
RTVSPost2010PropOp37
 70
     1
102
RTVSPost2010Prop38
140
0.0
102
RTVSPost2010PropOp38
 70
     1
102
RTVSPost2010Prop39
140
1.0
102
RTVSPost2010PropOp39
 70
     1
102
RTVSPost2010Prop40
 90
        0
102
RTVSPost2010PropOp40
 70
     1
102
RTVSPost2010Prop41ColorIndex
 90
       18
102
RTVSPost2010Prop41ColorRGB
 90
        0
102
RTVSPost2010PropOp41
 70
     1
102
RTVSPost2010Prop42
 90
       50
102
RTVSPost2010PropOp42
 70
     1
102
RTVSPost2010Prop43
 90
        3
102
RTVSPost2010PropOp43
 70
     1
102
RTVSPost2010Prop44ColorIndex
 90
        5
102
RTVSPost2010Prop44ColorRGB
 90
      255
102
RTVSPost2010PropOp44
 70
     1
102
RTVSPost2010Prop45
280
     0
102
RTVSPost2010PropOp45
 70
     1
102
RTVSPost2010Prop46
 90
       50
102
RTVSPost2010PropOp46
 70
     1
102
RTVSPost2010Prop47
 90
       50
102
RTVSPost2010PropOp47
 70
     1
102
RTVSPost2010Prop48
 90
       50
102
RTVSPost2010PropOp48
 70
     1
102
RTVSPost2010Prop49
280
     0
102
RTVSPost2010PropOp49
 70
     1
102
RTVSPost2010Prop50
 90
       50
102
RTVSPost2010PropOp50
 70
     1
102
RTVSPost2010Prop51ColorIndex
 90
      256
102
RTVSPost2010Prop51ColorRGB
 90
-16777216
102
RTVSPost2010PropOp51
 70
     0
102
RTVSPost2010Prop52
140
1.0
102
RTVSPost2010PropOp52
 70
     0
102
RTVSPost2010Prop53
 90
        2
102
RTVSPost2010PropOp53
 70
     1
102
RTVSPost2010Prop54
  1
strokes_ogs.tif
102
RTVSPost2010PropOp54
 70
     1
102
RTVSPost2010Prop55
280
     0
102
RTVSPost2010PropOp55
 70
     1
102
RTVSPost2010Prop56
140
1.0
102
RTVSPost2010PropOp56
 70
     1
102
RTVSPost2010Prop57
140
1.0
102
RTVSPost2010PropOp57
 70
     1
  0
XRECORD
  5
3FE9
102
{ACAD_REACTORS
330
3FE8
102
}
330
3FE8
100
AcDbXrecord
280
     1
102
RTVSPropertyOp0
 70
     1
102
RTVSPropertyOp1
 70
     1
102
RTVSPropertyOp2
 70
     1
102
RTVSPropertyOp3
 70
     1
102
RTVSPropertyOp4
 70
     1
102
RTVSPropertyOp5
 70
     1
102
RTVSPropertyOp6
 70
     1
102
RTVSPropertyOp7
 70
     1
102
RTVSPropertyOp8
 70
     1
102
RTVSPropertyOp9
 70
     1
102
RTVSPropertyOp10
 70
     1
102
RTVSPropertyOp11
 70
     1
102
RTVSPropertyOp12
 70
     1
102
RTVSPropertyOp13
 70
     1
102
RTVSPropertyOp14
 70
     1
102
RTVSPropertyOp15
 70
     1
102
RTVSPropertyOp16
 70
     1
102
RTVSPropertyOp17
 70
     1
102
RTVSPropertyOp18
 70
     1
102
RTVSPropertyOp19
 70
     1
102
RTVSPropertyOp20
 70
     1
102
RTVSPropertyOp21
 70
     1
102
RTVSPropertyOp22
 70
     1
102
RTVSPropertyOp23
 70
     1
102
RTVSPropertyOp24
 70
     1
102
RTVSPropertyOp25
 70
     1
102
RTVSPropertyOp26
 70
     1
102
RTVSPropertyOp27
 70
     1
102
RTVSPropertyOp28
 70
     1
102
RTVSPropertyOp29
 70
     1
102
RTVSPropertyOp30
 70
     1
102
RTVSPropertyOp31
 70
     1
102
RTVSPropertyOp32
 70
     1
102
RTVSPropertyOp33
 70
     1
102
RTVSPropertyOp34
 70
     1
102
RTVSPropertyOp35
 70
     1
102
RTVSPropertyOp36
 70
     1
102
RTVSPropertyOp37
 70
     1
102
RTVSPropertyOp38
 70
     1
102
RTVSPropertyOp39
 70
     1
102
RTVSPropertyOp40
 70
     1
102
RTVSPropertyOp41
 70
     1
102
RTVSPropertyOp42
 70
     1
102
RTVSPropertyOp43
 70
     1
102
RTVSPropertyOp44
 70
     1
102
RTVSPropertyOp45
 70
     1
102
RTVSPropertyOp46
 70
     1
102
RTVSPropertyOp47
 70
     1
102
RTVSPropertyOp48
 70
     1
102
RTVSPropertyOp49
 70
     1
102
RTVSPropertyOp50
 70
     1
102
RTVSPropertyOp51
 70
     0
102
RTVSPropertyOp52
 70
     0
102
RTVSPropertyOp53
 70
     1
102
RTVSPropertyOp54
 70
     1
102
RTVSPropertyOp55
 70
     1
102
RTVSPropertyOp56
 70
     1
102
RTVSPropertyOp57
 70
     1
102
RTVSPost2010Prop28
280
     0
102
RTVSPost2010PropOp28
 70
     1
102
RTVSPost2010Prop29
280
     1
102
RTVSPost2010PropOp29
 70
     1
102
RTVSPost2010Prop30
280
     1
102
RTVSPost2010PropOp30
 70
     1
102
RTVSPost2010Prop31
280
     0
102
RTVSPost2010PropOp31
 70
     1
102
RTVSPost2010Prop32
280
     0
102
RTVSPost2010PropOp32
 70
     1
102
RTVSPost2010Prop33
280
     0
102
RTVSPost2010PropOp33
 70
     1
102
RTVSPost2010Prop34
280
     0
102
RTVSPost2010PropOp34
 70
     1
102
RTVSPost2010Prop35
280
     0
102
RTVSPost2010PropOp35
 70
     1
102
RTVSPost2010Prop36
280
     0
102
RTVSPost2010PropOp36
 70
     1
102
RTVSPost2010Prop37
 90
       50
102
RTVSPost2010PropOp37
 70
     1
102
RTVSPost2010Prop38
140
0.0
102
RTVSPost2010PropOp38
 70
     1
102
RTVSPost2010Prop39
140
1.0
102
RTVSPost2010PropOp39
 70
     1
102
RTVSPost2010Prop40
 90
        0
102
RTVSPost2010PropOp40
 70
     1
102
RTVSPost2010Prop41ColorIndex
 90
       18
102
RTVSPost2010Prop41ColorRGB
 90
        0
102
RTVSPost2010PropOp41
 70
     1
102
RTVSPost2010Prop42
 90
       50
102
RTVSPost2010PropOp42
 70
     1
102
RTVSPost2010Prop43
 90
        3
102
RTVSPost2010PropOp43
 70
     1
102
RTVSPost2010Prop44ColorIndex
 90
        5
102
RTVSPost2010Prop44ColorRGB
 90
      255
102
RTVSPost2010PropOp44
 70
     1
102
RTVSPost2010Prop45
280
     0
102
RTVSPost2010PropOp45
 70
     1
102
RTVSPost2010Prop46
 90
       50
102
RTVSPost2010PropOp46
 70
     1
102
RTVSPost2010Prop47
 90
       50
102
RTVSPost2010PropOp47
 70
     1
102
RTVSPost2010Prop48
 90
       50
102
RTVSPost2010PropOp48
 70
     1
102
RTVSPost2010Prop49
280
     0
102
RTVSPost2010PropOp49
 70
     1
102
RTVSPost2010Prop50
 90
       50
102
RTVSPost2010PropOp50
 70
     1
102
RTVSPost2010Prop51ColorIndex
 90
      256
102
RTVSPost2010Prop51ColorRGB
 90
-16777216
102
RTVSPost2010PropOp51
 70
     0
102
RTVSPost2010Prop52
140
1.0
102
RTVSPost2010PropOp52
 70
     0
102
RTVSPost2010Prop53
 90
        2
102
RTVSPost2010PropOp53
 70
     1
102
RTVSPost2010Prop54
  1
strokes_ogs.tif
102
RTVSPost2010PropOp54
 70
     1
102
RTVSPost2010Prop55
280
     0
102
RTVSPost2010PropOp55
 70
     1
102
RTVSPost2010Prop56
140
1.0
102
RTVSPost2010PropOp56
 70
     1
102
RTVSPost2010Prop57
140
1.0
102
RTVSPost2010PropOp57
 70
     1
  0
XRECORD
  5
3FEB
102
{ACAD_REACTORS
330
3FEA
102
}
330
3FEA
100
AcDbXrecord
280
     1
102
RTVSPropertyOp0
 70
     1
102
RTVSPropertyOp1
 70
     1
102
RTVSPropertyOp2
 70
     1
102
RTVSPropertyOp3
 70
     1
102
RTVSPropertyOp4
 70
     1
102
RTVSPropertyOp5
 70
     1
102
RTVSPropertyOp6
 70
     1
102
RTVSPropertyOp7
 70
     1
102
RTVSPropertyOp8
 70
     1
102
RTVSPropertyOp9
 70
     1
102
RTVSPropertyOp10
 70
     1
102
RTVSPropertyOp11
 70
     1
102
RTVSPropertyOp12
 70
     1
102
RTVSPropertyOp13
 70
     1
102
RTVSPropertyOp14
 70
     1
102
RTVSPropertyOp15
 70
     1
102
RTVSPropertyOp16
 70
     1
102
RTVSPropertyOp17
 70
     1
102
RTVSPropertyOp18
 70
     1
102
RTVSPropertyOp19
 70
     1
102
RTVSPropertyOp20
 70
     1
102
RTVSPropertyOp21
 70
     1
102
RTVSPropertyOp22
 70
     1
102
RTVSPropertyOp23
 70
     1
102
RTVSPropertyOp24
 70
     1
102
RTVSPropertyOp25
 70
     1
102
RTVSPropertyOp26
 70
     1
102
RTVSPropertyOp27
 70
     1
102
RTVSPropertyOp28
 70
     1
102
RTVSPropertyOp29
 70
     1
102
RTVSPropertyOp30
 70
     1
102
RTVSPropertyOp31
 70
     1
102
RTVSPropertyOp32
 70
     1
102
RTVSPropertyOp33
 70
     1
102
RTVSPropertyOp34
 70
     1
102
RTVSPropertyOp35
 70
     1
102
RTVSPropertyOp36
 70
     1
102
RTVSPropertyOp37
 70
     1
102
RTVSPropertyOp38
 70
     1
102
RTVSPropertyOp39
 70
     1
102
RTVSPropertyOp40
 70
     1
102
RTVSPropertyOp41
 70
     1
102
RTVSPropertyOp42
 70
     1
102
RTVSPropertyOp43
 70
     1
102
RTVSPropertyOp44
 70
     1
102
RTVSPropertyOp45
 70
     1
102
RTVSPropertyOp46
 70
     1
102
RTVSPropertyOp47
 70
     1
102
RTVSPropertyOp48
 70
     1
102
RTVSPropertyOp49
 70
     1
102
RTVSPropertyOp50
 70
     1
102
RTVSPropertyOp51
 70
     0
102
RTVSPropertyOp52
 70
     0
102
RTVSPropertyOp53
 70
     1
102
RTVSPropertyOp54
 70
     1
102
RTVSPropertyOp55
 70
     1
102
RTVSPropertyOp56
 70
     1
102
RTVSPropertyOp57
 70
     1
102
RTVSPost2010Prop28
280
     0
102
RTVSPost2010PropOp28
 70
     1
102
RTVSPost2010Prop29
280
     1
102
RTVSPost2010PropOp29
 70
     1
102
RTVSPost2010Prop30
280
     1
102
RTVSPost2010PropOp30
 70
     1
102
RTVSPost2010Prop31
280
     0
102
RTVSPost2010PropOp31
 70
     1
102
RTVSPost2010Prop32
280
     0
102
RTVSPost2010PropOp32
 70
     1
102
RTVSPost2010Prop33
280
     0
102
RTVSPost2010PropOp33
 70
     1
102
RTVSPost2010Prop34
280
     0
102
RTVSPost2010PropOp34
 70
     1
102
RTVSPost2010Prop35
280
     0
102
RTVSPost2010PropOp35
 70
     1
102
RTVSPost2010Prop36
280
     0
102
RTVSPost2010PropOp36
 70
     1
102
RTVSPost2010Prop37
 90
       50
102
RTVSPost2010PropOp37
 70
     1
102
RTVSPost2010Prop38
140
0.0
102
RTVSPost2010PropOp38
 70
     1
102
RTVSPost2010Prop39
140
1.0
102
RTVSPost2010PropOp39
 70
     1
102
RTVSPost2010Prop40
 90
        0
102
RTVSPost2010PropOp40
 70
     1
102
RTVSPost2010Prop41ColorIndex
 90
       18
102
RTVSPost2010Prop41ColorRGB
 90
        0
102
RTVSPost2010PropOp41
 70
     1
102
RTVSPost2010Prop42
 90
       50
102
RTVSPost2010PropOp42
 70
     1
102
RTVSPost2010Prop43
 90
        3
102
RTVSPost2010PropOp43
 70
     1
102
RTVSPost2010Prop44ColorIndex
 90
        5
102
RTVSPost2010Prop44ColorRGB
 90
      255
102
RTVSPost2010PropOp44
 70
     1
102
RTVSPost2010Prop45
280
     0
102
RTVSPost2010PropOp45
 70
     1
102
RTVSPost2010Prop46
 90
       50
102
RTVSPost2010PropOp46
 70
     1
102
RTVSPost2010Prop47
 90
       50
102
RTVSPost2010PropOp47
 70
     1
102
RTVSPost2010Prop48
 90
       50
102
RTVSPost2010PropOp48
 70
     1
102
RTVSPost2010Prop49
280
     0
102
RTVSPost2010PropOp49
 70
     1
102
RTVSPost2010Prop50
 90
       50
102
RTVSPost2010PropOp50
 70
     1
102
RTVSPost2010Prop51ColorIndex
 90
      256
102
RTVSPost2010Prop51ColorRGB
 90
-16777216
102
RTVSPost2010PropOp51
 70
     0
102
RTVSPost2010Prop52
140
1.0
102
RTVSPost2010PropOp52
 70
     0
102
RTVSPost2010Prop53
 90
        2
102
RTVSPost2010PropOp53
 70
     1
102
RTVSPost2010Prop54
  1
strokes_ogs.tif
102
RTVSPost2010PropOp54
 70
     1
102
RTVSPost2010Prop55
280
     0
102
RTVSPost2010PropOp55
 70
     1
102
RTVSPost2010Prop56
140
1.0
102
RTVSPost2010PropOp56
 70
     1
102
RTVSPost2010Prop57
140
1.0
102
RTVSPost2010PropOp57
 70
     1
  0
XRECORD
  5
3FDB
102
{ACAD_REACTORS
330
3FDA
102
}
330
3FDA
100
AcDbXrecord
280
     1
102
RTVSPropertyOp0
 70
     1
102
RTVSPropertyOp1
 70
     1
102
RTVSPropertyOp2
 70
     1
102
RTVSPropertyOp3
 70
     1
102
RTVSPropertyOp4
 70
     1
102
RTVSPropertyOp5
 70
     1
102
RTVSPropertyOp6
 70
     1
102
RTVSPropertyOp7
 70
     1
102
RTVSPropertyOp8
 70
     1
102
RTVSPropertyOp9
 70
     1
102
RTVSPropertyOp10
 70
     1
102
RTVSPropertyOp11
 70
     1
102
RTVSPropertyOp12
 70
     1
102
RTVSPropertyOp13
 70
     1
102
RTVSPropertyOp14
 70
     1
102
RTVSPropertyOp15
 70
     1
102
RTVSPropertyOp16
 70
     1
102
RTVSPropertyOp17
 70
     1
102
RTVSPropertyOp18
 70
     1
102
RTVSPropertyOp19
 70
     1
102
RTVSPropertyOp20
 70
     1
102
RTVSPropertyOp21
 70
     1
102
RTVSPropertyOp22
 70
     1
102
RTVSPropertyOp23
 70
     1
102
RTVSPropertyOp24
 70
     1
102
RTVSPropertyOp25
 70
     1
102
RTVSPropertyOp26
 70
     1
102
RTVSPropertyOp27
 70
     1
102
RTVSPropertyOp28
 70
     1
102
RTVSPropertyOp29
 70
     1
102
RTVSPropertyOp30
 70
     1
102
RTVSPropertyOp31
 70
     1
102
RTVSPropertyOp32
 70
     1
102
RTVSPropertyOp33
 70
     1
102
RTVSPropertyOp34
 70
     1
102
RTVSPropertyOp35
 70
     1
102
RTVSPropertyOp36
 70
     1
102
RTVSPropertyOp37
 70
     1
102
RTVSPropertyOp38
 70
     1
102
RTVSPropertyOp39
 70
     1
102
RTVSPropertyOp40
 70
     1
102
RTVSPropertyOp41
 70
     1
102
RTVSPropertyOp42
 70
     1
102
RTVSPropertyOp43
 70
     1
102
RTVSPropertyOp44
 70
     1
102
RTVSPropertyOp45
 70
     1
102
RTVSPropertyOp46
 70
     1
102
RTVSPropertyOp47
 70
     1
102
RTVSPropertyOp48
 70
     1
102
RTVSPropertyOp49
 70
     1
102
RTVSPropertyOp50
 70
     1
102
RTVSPropertyOp51
 70
     0
102
RTVSPropertyOp52
 70
     0
102
RTVSPropertyOp53
 70
     1
102
RTVSPropertyOp54
 70
     1
102
RTVSPropertyOp55
 70
     1
102
RTVSPropertyOp56
 70
     1
102
RTVSPropertyOp57
 70
     1
102
RTVSPost2010Prop28
280
     0
102
RTVSPost2010PropOp28
 70
     1
102
RTVSPost2010Prop29
280
     1
102
RTVSPost2010PropOp29
 70
     1
102
RTVSPost2010Prop30
280
     1
102
RTVSPost2010PropOp30
 70
     1
102
RTVSPost2010Prop31
280
     0
102
RTVSPost2010PropOp31
 70
     1
102
RTVSPost2010Prop32
280
     0
102
RTVSPost2010PropOp32
 70
     1
102
RTVSPost2010Prop33
280
     0
102
RTVSPost2010PropOp33
 70
     1
102
RTVSPost2010Prop34
280
     0
102
RTVSPost2010PropOp34
 70
     1
102
RTVSPost2010Prop35
280
     0
102
RTVSPost2010PropOp35
 70
     1
102
RTVSPost2010Prop36
280
     0
102
RTVSPost2010PropOp36
 70
     1
102
RTVSPost2010Prop37
 90
       50
102
RTVSPost2010PropOp37
 70
     1
102
RTVSPost2010Prop38
140
0.0
102
RTVSPost2010PropOp38
 70
     1
102
RTVSPost2010Prop39
140
1.0
102
RTVSPost2010PropOp39
 70
     1
102
RTVSPost2010Prop40
 90
        0
102
RTVSPost2010PropOp40
 70
     1
102
RTVSPost2010Prop41ColorIndex
 90
       18
102
RTVSPost2010Prop41ColorRGB
 90
        0
102
RTVSPost2010PropOp41
 70
     1
102
RTVSPost2010Prop42
 90
       50
102
RTVSPost2010PropOp42
 70
     1
102
RTVSPost2010Prop43
 90
        3
102
RTVSPost2010PropOp43
 70
     1
102
RTVSPost2010Prop44ColorIndex
 90
        5
102
RTVSPost2010Prop44ColorRGB
 90
      255
102
RTVSPost2010PropOp44
 70
     1
102
RTVSPost2010Prop45
280
     0
102
RTVSPost2010PropOp45
 70
     1
102
RTVSPost2010Prop46
 90
       50
102
RTVSPost2010PropOp46
 70
     1
102
RTVSPost2010Prop47
 90
       50
102
RTVSPost2010PropOp47
 70
     1
102
RTVSPost2010Prop48
 90
       50
102
RTVSPost2010PropOp48
 70
     1
102
RTVSPost2010Prop49
280
     0
102
RTVSPost2010PropOp49
 70
     1
102
RTVSPost2010Prop50
 90
       50
102
RTVSPost2010PropOp50
 70
     1
102
RTVSPost2010Prop51ColorIndex
 90
      256
102
RTVSPost2010Prop51ColorRGB
 90
-16777216
102
RTVSPost2010PropOp51
 70
     0
102
RTVSPost2010Prop52
140
1.0
102
RTVSPost2010PropOp52
 70
     0
102
RTVSPost2010Prop53
 90
        2
102
RTVSPost2010PropOp53
 70
     1
102
RTVSPost2010Prop54
  1
strokes_ogs.tif
102
RTVSPost2010PropOp54
 70
     1
102
RTVSPost2010Prop55
280
     0
102
RTVSPost2010PropOp55
 70
     1
102
RTVSPost2010Prop56
140
1.0
102
RTVSPost2010PropOp56
 70
     1
102
RTVSPost2010Prop57
140
1.0
102
RTVSPost2010PropOp57
 70
     1
  0
XRECORD
  5
3FCD
102
{ACAD_REACTORS
330
3FCC
102
}
330
3FCC
100
AcDbXrecord
280
     1
102
RTVSPropertyOp0
 70
     1
102
RTVSPropertyOp1
 70
     1
102
RTVSPropertyOp2
 70
     1
102
RTVSPropertyOp3
 70
     1
102
RTVSPropertyOp4
 70
     1
102
RTVSPropertyOp5
 70
     1
102
RTVSPropertyOp6
 70
     1
102
RTVSPropertyOp7
 70
     1
102
RTVSPropertyOp8
 70
     1
102
RTVSPropertyOp9
 70
     1
102
RTVSPropertyOp10
 70
     1
102
RTVSPropertyOp11
 70
     1
102
RTVSPropertyOp12
 70
     1
102
RTVSPropertyOp13
 70
     1
102
RTVSPropertyOp14
 70
     1
102
RTVSPropertyOp15
 70
     1
102
RTVSPropertyOp16
 70
     1
102
RTVSPropertyOp17
 70
     1
102
RTVSPropertyOp18
 70
     1
102
RTVSPropertyOp19
 70
     1
102
RTVSPropertyOp20
 70
     1
102
RTVSPropertyOp21
 70
     1
102
RTVSPropertyOp22
 70
     1
102
RTVSPropertyOp23
 70
     1
102
RTVSPropertyOp24
 70
     1
102
RTVSPropertyOp25
 70
     1
102
RTVSPropertyOp26
 70
     1
102
RTVSPropertyOp27
 70
     1
102
RTVSPropertyOp28
 70
     1
102
RTVSPropertyOp29
 70
     1
102
RTVSPropertyOp30
 70
     1
102
RTVSPropertyOp31
 70
     1
102
RTVSPropertyOp32
 70
     1
102
RTVSPropertyOp33
 70
     1
102
RTVSPropertyOp34
 70
     1
102
RTVSPropertyOp35
 70
     1
102
RTVSPropertyOp36
 70
     1
102
RTVSPropertyOp37
 70
     1
102
RTVSPropertyOp38
 70
     1
102
RTVSPropertyOp39
 70
     1
102
RTVSPropertyOp40
 70
     1
102
RTVSPropertyOp41
 70
     1
102
RTVSPropertyOp42
 70
     1
102
RTVSPropertyOp43
 70
     1
102
RTVSPropertyOp44
 70
     1
102
RTVSPropertyOp45
 70
     1
102
RTVSPropertyOp46
 70
     1
102
RTVSPropertyOp47
 70
     1
102
RTVSPropertyOp48
 70
     1
102
RTVSPropertyOp49
 70
     1
102
RTVSPropertyOp50
 70
     1
102
RTVSPropertyOp51
 70
     0
102
RTVSPropertyOp52
 70
     0
102
RTVSPropertyOp53
 70
     1
102
RTVSPropertyOp54
 70
     1
102
RTVSPropertyOp55
 70
     1
102
RTVSPropertyOp56
 70
     1
102
RTVSPropertyOp57
 70
     1
102
RTVSPost2010Prop28
280
     0
102
RTVSPost2010PropOp28
 70
     1
102
RTVSPost2010Prop29
280
     1
102
RTVSPost2010PropOp29
 70
     1
102
RTVSPost2010Prop30
280
     1
102
RTVSPost2010PropOp30
 70
     1
102
RTVSPost2010Prop31
280
     0
102
RTVSPost2010PropOp31
 70
     1
102
RTVSPost2010Prop32
280
     0
102
RTVSPost2010PropOp32
 70
     1
102
RTVSPost2010Prop33
280
     0
102
RTVSPost2010PropOp33
 70
     1
102
RTVSPost2010Prop34
280
     0
102
RTVSPost2010PropOp34
 70
     1
102
RTVSPost2010Prop35
280
     0
102
RTVSPost2010PropOp35
 70
     1
102
RTVSPost2010Prop36
280
     0
102
RTVSPost2010PropOp36
 70
     1
102
RTVSPost2010Prop37
 90
       50
102
RTVSPost2010PropOp37
 70
     1
102
RTVSPost2010Prop38
140
0.0
102
RTVSPost2010PropOp38
 70
     1
102
RTVSPost2010Prop39
140
1.0
102
RTVSPost2010PropOp39
 70
     1
102
RTVSPost2010Prop40
 90
        0
102
RTVSPost2010PropOp40
 70
     1
102
RTVSPost2010Prop41ColorIndex
 90
       18
102
RTVSPost2010Prop41ColorRGB
 90
        0
102
RTVSPost2010PropOp41
 70
     1
102
RTVSPost2010Prop42
 90
       50
102
RTVSPost2010PropOp42
 70
     1
102
RTVSPost2010Prop43
 90
        3
102
RTVSPost2010PropOp43
 70
     1
102
RTVSPost2010Prop44ColorIndex
 90
        5
102
RTVSPost2010Prop44ColorRGB
 90
      255
102
RTVSPost2010PropOp44
 70
     1
102
RTVSPost2010Prop45
280
     0
102
RTVSPost2010PropOp45
 70
     1
102
RTVSPost2010Prop46
 90
       50
102
RTVSPost2010PropOp46
 70
     1
102
RTVSPost2010Prop47
 90
       50
102
RTVSPost2010PropOp47
 70
     1
102
RTVSPost2010Prop48
 90
       50
102
RTVSPost2010PropOp48
 70
     1
102
RTVSPost2010Prop49
280
     0
102
RTVSPost2010PropOp49
 70
     1
102
RTVSPost2010Prop50
 90
       50
102
RTVSPost2010PropOp50
 70
     1
102
RTVSPost2010Prop51ColorIndex
 90
      256
102
RTVSPost2010Prop51ColorRGB
 90
-16777216
102
RTVSPost2010PropOp51
 70
     0
102
RTVSPost2010Prop52
140
1.0
102
RTVSPost2010PropOp52
 70
     0
102
RTVSPost2010Prop53
 90
        2
102
RTVSPost2010PropOp53
 70
     1
102
RTVSPost2010Prop54
  1
strokes_ogs.tif
102
RTVSPost2010PropOp54
 70
     1
102
RTVSPost2010Prop55
280
     0
102
RTVSPost2010PropOp55
 70
     1
102
RTVSPost2010Prop56
140
1.0
102
RTVSPost2010PropOp56
 70
     1
102
RTVSPost2010Prop57
140
1.0
102
RTVSPost2010PropOp57
 70
     1
  0
XRECORD
  5
3FED
102
{ACAD_REACTORS
330
3FEC
102
}
330
3FEC
100
AcDbXrecord
280
     1
102
RTVSPropertyOp0
 70
     1
102
RTVSPropertyOp1
 70
     1
102
RTVSPropertyOp2
 70
     1
102
RTVSPropertyOp3
 70
     1
102
RTVSPropertyOp4
 70
     1
102
RTVSPropertyOp5
 70
     1
102
RTVSPropertyOp6
 70
     1
102
RTVSPropertyOp7
 70
     1
102
RTVSPropertyOp8
 70
     1
102
RTVSPropertyOp9
 70
     1
102
RTVSPropertyOp10
 70
     1
102
RTVSPropertyOp11
 70
     1
102
RTVSPropertyOp12
 70
     1
102
RTVSPropertyOp13
 70
     1
102
RTVSPropertyOp14
 70
     1
102
RTVSPropertyOp15
 70
     1
102
RTVSPropertyOp16
 70
     1
102
RTVSPropertyOp17
 70
     1
102
RTVSPropertyOp18
 70
     1
102
RTVSPropertyOp19
 70
     1
102
RTVSPropertyOp20
 70
     1
102
RTVSPropertyOp21
 70
     1
102
RTVSPropertyOp22
 70
     1
102
RTVSPropertyOp23
 70
     1
102
RTVSPropertyOp24
 70
     1
102
RTVSPropertyOp25
 70
     1
102
RTVSPropertyOp26
 70
     1
102
RTVSPropertyOp27
 70
     1
102
RTVSPropertyOp28
 70
     1
102
RTVSPropertyOp29
 70
     1
102
RTVSPropertyOp30
 70
     1
102
RTVSPropertyOp31
 70
     1
102
RTVSPropertyOp32
 70
     1
102
RTVSPropertyOp33
 70
     1
102
RTVSPropertyOp34
 70
     1
102
RTVSPropertyOp35
 70
     1
102
RTVSPropertyOp36
 70
     1
102
RTVSPropertyOp37
 70
     1
102
RTVSPropertyOp38
 70
     1
102
RTVSPropertyOp39
 70
     1
102
RTVSPropertyOp40
 70
     1
102
RTVSPropertyOp41
 70
     1
102
RTVSPropertyOp42
 70
     1
102
RTVSPropertyOp43
 70
     1
102
RTVSPropertyOp44
 70
     1
102
RTVSPropertyOp45
 70
     1
102
RTVSPropertyOp46
 70
     1
102
RTVSPropertyOp47
 70
     1
102
RTVSPropertyOp48
 70
     1
102
RTVSPropertyOp49
 70
     1
102
RTVSPropertyOp50
 70
     1
102
RTVSPropertyOp51
 70
     0
102
RTVSPropertyOp52
 70
     0
102
RTVSPropertyOp53
 70
     1
102
RTVSPropertyOp54
 70
     1
102
RTVSPropertyOp55
 70
     1
102
RTVSPropertyOp56
 70
     1
102
RTVSPropertyOp57
 70
     1
102
RTVSPost2010Prop28
280
     0
102
RTVSPost2010PropOp28
 70
     1
102
RTVSPost2010Prop29
280
     1
102
RTVSPost2010PropOp29
 70
     1
102
RTVSPost2010Prop30
280
     1
102
RTVSPost2010PropOp30
 70
     1
102
RTVSPost2010Prop31
280
     0
102
RTVSPost2010PropOp31
 70
     1
102
RTVSPost2010Prop32
280
     0
102
RTVSPost2010PropOp32
 70
     1
102
RTVSPost2010Prop33
280
     0
102
RTVSPost2010PropOp33
 70
     1
102
RTVSPost2010Prop34
280
     0
102
RTVSPost2010PropOp34
 70
     1
102
RTVSPost2010Prop35
280
     0
102
RTVSPost2010PropOp35
 70
     1
102
RTVSPost2010Prop36
280
     0
102
RTVSPost2010PropOp36
 70
     1
102
RTVSPost2010Prop37
 90
       50
102
RTVSPost2010PropOp37
 70
     1
102
RTVSPost2010Prop38
140
0.0
102
RTVSPost2010PropOp38
 70
     1
102
RTVSPost2010Prop39
140
1.0
102
RTVSPost2010PropOp39
 70
     1
102
RTVSPost2010Prop40
 90
        0
102
RTVSPost2010PropOp40
 70
     1
102
RTVSPost2010Prop41ColorIndex
 90
       18
102
RTVSPost2010Prop41ColorRGB
 90
        0
102
RTVSPost2010PropOp41
 70
     1
102
RTVSPost2010Prop42
 90
       50
102
RTVSPost2010PropOp42
 70
     1
102
RTVSPost2010Prop43
 90
        3
102
RTVSPost2010PropOp43
 70
     1
102
RTVSPost2010Prop44ColorIndex
 90
        5
102
RTVSPost2010Prop44ColorRGB
 90
      255
102
RTVSPost2010PropOp44
 70
     1
102
RTVSPost2010Prop45
280
     0
102
RTVSPost2010PropOp45
 70
     1
102
RTVSPost2010Prop46
 90
       50
102
RTVSPost2010PropOp46
 70
     1
102
RTVSPost2010Prop47
 90
       50
102
RTVSPost2010PropOp47
 70
     1
102
RTVSPost2010Prop48
 90
       50
102
RTVSPost2010PropOp48
 70
     1
102
RTVSPost2010Prop49
280
     0
102
RTVSPost2010PropOp49
 70
     1
102
RTVSPost2010Prop50
 90
       50
102
RTVSPost2010PropOp50
 70
     1
102
RTVSPost2010Prop51ColorIndex
 90
      256
102
RTVSPost2010Prop51ColorRGB
 90
-16777216
102
RTVSPost2010PropOp51
 70
     0
102
RTVSPost2010Prop52
140
1.0
102
RTVSPost2010PropOp52
 70
     0
102
RTVSPost2010Prop53
 90
        2
102
RTVSPost2010PropOp53
 70
     1
102
RTVSPost2010Prop54
  1
strokes_ogs.tif
102
RTVSPost2010PropOp54
 70
     1
102
RTVSPost2010Prop55
280
     0
102
RTVSPost2010PropOp55
 70
     1
102
RTVSPost2010Prop56
140
1.0
102
RTVSPost2010PropOp56
 70
     1
102
RTVSPost2010Prop57
140
1.0
102
RTVSPost2010PropOp57
 70
     1
  0
ENDSEC
  0
SECTION
  2
THUMBNAILIMAGE
 90
    17448
310
28000000800000008000000001000800000000000000000000000000000000000000000000000000FFFFFF000000FF0000FFFF0000FF0000FFFF0000FF000000FF00FF000000000080808000C0C0C0000000FF007F7FFF000000A5005252A50000007F003F3F7F0000004C0026264C000000260013132600003FFF007F9FFF
310
000029A5005267A500001F7F003F4F7F0000134C00262F4C000009260013172600007FFF007FBFFF000052A500527CA500003F7F003F5F7F0000264C0026394C0000132600131C260000BFFF007FDFFF00007CA5005291A500005F7F003F6F7F0000394C0026424C00001C26001321260000FFFF007FFFFF0000A5A50052A5
310
A500007F7F003F7F7F00004C4C00264C4C00002626001326260000FFBF007FFFDF0000A57C0052A59100007F5F003F7F6F00004C3900264C420000261C001326210000FF7F007FFFBF0000A5520052A57C00007F3F003F7F5F00004C2600264C39000026130013261C0000FF3F007FFF9F0000A5290052A56700007F1F003F
310
7F4F00004C1300264C2F00002609001326170000FF00007FFF7F0000A5000052A55200007F00003F7F3F00004C0000264C260000260000132613003FFF00009FFF7F0029A5000067A552001F7F00004F7F3F00134C00002F4C260009260000172613007FFF0000BFFF7F0052A500007CA552003F7F00005F7F3F00264C0000
310
394C2600132600001C261300BFFF0000DFFF7F007CA5000091A552005F7F00006F7F3F00394C0000424C26001C26000021261300FFFF0000FFFF7F00A5A50000A5A552007F7F00007F7F3F004C4C00004C4C26002626000026261300FFBF0000FFDF7F00A57C0000A59152007F5F00007F6F3F004C3900004C422600261C00
310
0026211300FF7F0000FFBF7F00A5520000A57C52007F3F00007F5F3F004C2600004C39260026130000261C1300FF3F0000FF9F7F00A5290000A56752007F1F00007F4F3F004C1300004C2F26002609000026171300FF000000FF7F7F00A5000000A55252007F0000007F3F3F004C0000004C2626002600000026131300FF00
310
3F00FF7F9F00A5002900A55267007F001F007F3F4F004C0013004C262F002600090026131700FF007F00FF7FBF00A5005200A5527C007F003F007F3F5F004C0026004C2639002600130026131C00FF00BF00FF7FDF00A5007C00A55291007F005F007F3F6F004C0039004C26420026001C0026132100FF00FF00FF7FFF00A5
310
00A500A552A5007F007F007F3F7F004C004C004C264C002600260026132600BF00FF00DF7FFF007C00A5009152A5005F007F006F3F7F0039004C0042264C001C002600211326007F00FF00BF7FFF005200A5007C52A5003F007F005F3F7F0026004C0039264C00130026001C1326003F00FF009F7FFF002900A5006752A500
310
1F007F004F3F7F0013004C002F264C000900260017132600000000002D2D2D005B5B5B0089898900B7B7B700B3B3B30000000000000000000000000000000000000000000000000000000000000000000000000000000000000000000000000000000000000000000000000000000000000000000000000000000000000000
310
00000000000000000000000000000000000000000000000000000000000000000000000000000000000000000000000000000000000000000000000000000000000000000000000000000000000000000000000000000000000000000000000000000000000000000000000000000000000000000000000000000000000000
310
00000000000000000000000000000000000000000000000000000000000000000000000000000000000000000000000000000000000000000000000000000000000000000000000000000000000000000000000000000000000000000000000000000000000000000000000000000000000000000000000000000000000000
310
00000000000000000000000000000000000000000000000000000000000000000000000000000000000000000000000000000000000000000000000000000000000000000000000000000000000000000000000000000000000000000000000000000000000000000000000000000000000000000000000000000000000000
310
00000000000000000000000000000000000000000000000000000000000000000000000000000000000000000000000000000000000000000000000000000000000000000000000000000000000000000000000000000000000000000000000000000000000000000000000000000000000000000000000000000000000000
310
00000000000000000000000000000000000000000000000000000000000000000000000000000000000000000000000000000000000000000000000000000000000000000000000000000000000000000000000000000000000000000000000000000000000000000000000000000000000000000000000000000000000000
310
00000000000000000000000000000000000000000000000000000000000000000000000000000000000000000000000000000000000000000000000000000000000000000000000000000000000000000000000000000000000000000000000000000000000000000000000000000000000000000000000000000000000000
310
00000000000000000000000000000000000000000000000000000000000000000000000000000000000000000000000000000000000000000000000000000000000000000000000000000000000000000000000000000000000000000000000000000000000000000000000000000000000000000000000000000000000000
310
00000000000000000000000000000000000000000000000000000000000000000000000000000000000000000000000000000000000000000000000000000000000000000000000000000000000000000000000000000000000000000000000000000000000000000000000000000000000000000000000000000000000000
310
00000000000000000000000000000000000000000000000000000000000000000000000000000000000000000000000000000000000000000000000000000000000000000000000000000000000000000000000000000000000000000000000000000000000000000000000000000000000000000000000000000000000000
310
00000000000000000000000000000000000000000000000000000000000000000000000000000000000000000000000000000000000000000000000000000000000000000000000000000000000000000000000000000000000000000000000000000000000000000000000000000000000000000000000000000000000000
310
00000000000000000000000000000000000000000000000000000000000000000000000000000000000000000000000000000000000000000000000000000000000000000000000000000000000000000000000000000000000000000000000000000000000000000000000000000000000000000000000000000000000000
310
00000000000000000000000000000000000000000000000000000000000000000000000000000000000000000000000000000000000000000000000000000000000000000000000000000000000000000000000000000000000000000000000000000000000000000000000000000000000000000000000000000000000000
310
00000000000000000000000000000000000000000000000000000000000000000000000000000000000000000000000000000000000000000000000000000000000000000000000000000000000000000000000000000000000000000000000000000000000000000000000000000000000000000000000000000000000000
310
00000000000000000000000000000000000000000000000000000000000000000000000000000000000000000000000000000000000000000000000000000000000000000000000000000000000000000000000000000000000000000000000000000000000000000000000000000000000000000000000000000000000000
310
00000000000000000000000000000000000000000000000000000000000000000000000000000000000000000000000000000000000000000000000000000000000000000000000000000000000000000000000000000000000000000000000000000000000000000000000000000000000000000000000000000000000000
310
00000000000000000000000000000000000000000000000000000000000000000000000000000000000000000000000000000000000000000000000000000000000000000000000000000000000000000000000000000000000000000000000000000000000000000000000000000000000000000000000000000000000000
310
00000000000000000000000000000000000000000000000000000000000000000000000000000000000000000000000000000000000000000000000000000000000000000000000000000000000000000000000000000000000000000000000000000000000000000000000000000000000000000000000000000000000000
310
00000000000000000000000000000000000000000000000000000000000000000000000000000000000000000000000000000000000000000000000000000000000000000000000000000000000000000000000000000000000000000000000000000000000000000000000000000000000000000000000000000000000000
310
00000000000000000000000000000000000000000000000000000000000000000000000000000000000000000000000000000000000000000000000000000000000000000000000000000000000000000000000000000000000000000000000000000000000000000000000000000000000000000000000000000000000000
310
00000000000000000000000000000000000000000000000000000000000000000000000000000000000000000000000000000000000000000000000000000000000000000000000000000000000000000000000000000000000000000000000000000000000000000000000000000000000000000000000000000000000000
310
00000000000000000000000000000000000000000000000000000000000000000000000000000000000000000000000000000000000000000000000000000000000000000000000000000000000000000000000000000000000000000000000000000000000000000000000000000000000000000000000000000000000000
310
00000000000000000000000000000000000000000000000000000000000000000000000000000000000000000000000000000000000000000000000000000000000000000000000000000000000000000000000000000000000000000000000000000000000000000000000000000000000000000000000000000000000000
310
00000000000000000000000000000000000000000000000000000000000000000000000000000000000000000000000000000000000000000000000000000000000000000000000000000000000000000000000000000000000000000000000000000000000000000000000000000000000000000000000000000000000000
310
00000000000000000000000000000000000000000000000000000000000000000000000000000000000000000000000000000000000000000000000000000000000000000000000000000000000000000000000000000000000000000000000000000000000000000000000000000000000000000000000000000000000000
310
00000000000000000000000000000000000000000000000000000000000000000000000000000000000000000000000000000000000000000000000000000000000000000000000000000000000000000000000000000000000000000000000000000000000000000000000000000000000000000000000000000000000000
310
00000000000000000000000000000000000000000000000000000000000000000000000000000000000000000000000000000000000000000000000000000000000000000000000000000000000000000000000000000000000000000000000000000000000000000000000000000000000000000000000000000000000000
310
00000000000000000000000000000000000000000000000000000000000000000000000000000000000000000000000000000000000000000000000000000000000000000000000000000000000000000000000000000000000000000000000000000000000000000000000000000000000000000000000000000000000000
310
00000000000000000000000000000000000000000000000000000000000000000000000000000000000000000000000000000000000000000000000000000000000000000000000000000000000000000000000000000000000000000000000000000000000000000000000000000000000000000000000000000000000000
310
00000000000000000000000000000000000000000000000000000000000000000000000000000000000000000000000000000000000000000000000000000000000000000000000000000000000000000000000000000000000000000000000000000000000000000000000000000000000000000000000000000000000000
310
00000000000000000000000000000000000000000000000000000000000000000000000000000000000000000000000000000000000000000000000000000000000000000000000000000000000000000000000000000000000000000000000000000000000000000000000000000000000000000000000000000000000000
310
00000000000000000000000000000000000000000000000000000000000000000000000000000000000000000000000000000000000000000000000000000000000000000000000000000000000000000000000000000000000000000000000000000000000000000000000000000000000000000000000000000000000000
310
00000000000000000000000000000000000000000000000000000000000000000000000000000000000000000000000000000000000000000000000000000000000000000000000000000000000000000000000000000000000000000000000000000000000000000000000000000000000000000000000000000000000000
310
00000000000000000000000000000000000000000000000000000000000000000000000000000000000000000000000000000000000000000000000000000000000000000000000000000000000000000000000000000000000000000000000000000000000000000000000000000000000000000000000000000000000000
310
00000000000000000000000000000000000000000000000000000000000000000000000000000000000000000000000000000000000000000000000000000000000000000000000000000000000000000000000000000000000000000000000707070707070707070707070707070707070707070707070707070707070707
310
07070707070707070707070707070707070707070707070707070707070707070707070707070707070707070707070707070707070707070707070700000000000000000000000000000000000000000000000000000000000000000000000007000000000000000000000000000000000000000000000000000000000000
310
00000000000000000000000000000000000000000000000000000000000000000000000000000000000000000000000000000000000000000000000007000000000000000000000000000000000000000000000000000000000000000000000000070007FBFBFBFBFBFBFBFBFBFBFBFBFBFBFBFBFBFBFBFBFBFBFBFBFBFBFB
310
FBFCFBFBFBFBFBFBFCFBFBFBFBFBFBFBFBFBFBFBFBFBFBFBFBFBFBFBFBFBFBFBFBFBFBFBFBFBFBFBFBFBFBFBFBFBFBFBFBFBFBFBFBFBFBFBFBFB07070007000000000000000000000000000000000000000000000000000000000000000000000000070007FB0000000000000000000000000000000000000000FBFCFCFCFC
310
FCFCFC000000000000FC000000000000FBFCFCFCFCFCFCFCFCFCFCFCFCFCFCFCFCFCFCFCFCFCFB0000000000000000000000000000000000000000FB070007000000000000000000000000000000000000000000000000000000000000000000000000070000FBFCFCFCFCFCFCFCFCFCFCFCFCFCFCFCFCFCFCFCFCFBFCFCFC
310
FCFCFCFC000001010000FC01010101010101FCFCFC00FCFDFCFC00FCFC00FCFCFC00FCFCFDFCFCFB0000000000000001010100010101010101000000FB070007000000000000000000000000000000000000000000000000000000000000000000000000070000FBFCFCFCFCFCFCFCFCFCFCFCFCFCFCFCFCFCFCFCFCFBFCFC
310
FCFCFCFCFC000000000000FC000000010100FBFDFDFDFDFD00FDFDFDFD00FDFDFDFDFD00FDFDFDFDFBFCFCFCFC00000001010100000101000001000000FB000007000000000000000000000000000000000000000000000000000000000000000000000000070007FB0000000000000000000000000000000000000000FB00
310
FCFCFCFC00FCFCFCFCFCFC0000FCFCFCFC0000FBFDFDFDFDFDFDFDFDFDFDFDFDFDFD00FDFD00FDFDFDFBFCFCFC0000000000000000000000000000000000FB000007000000000000000000000000000000000000000000000000000000000000000000000000070007FBFCFCFCFCFCFCFCFCFCFCFCFCFCFCFCFCFCFCFCFCFB
310
FCFCFCFCFCFCFCFCFCFCFCFCFCFCFCFCFCFCFCFCFBFBFBFBFBFBFBFBFBFBFBFBFBFBFBFBFBFBFBFBFBFBFBFCFCFCFCFCFCFCFCFCFCFC010101010101010101FB070007000000000000000000000000000000000000000000000000000000000000000000000000070000FBFCFCFCFCFCFCFCFCFCFCFCFCFCFCFCFCFCFCFCFC
310
FB000000000000FC000000000000FC000101010100FB000000000000000000000000000000000000000000FB000101010100010101000001010100010101010101070007000000000000000000000000000000000000000000000000000000000000000000000000070000FBFCFCFCFCFCFCFCFCFCFCFCFCFCFCFCFCFCFCFC
310
FCFB000000000000FC000000000000FC000101010100FBFCFCFCFCFCFCFCFCFCFCFCFCFCFCFCFCFCFCFCFCFCFB0001010100000101010000010101010100010101FB000007000000000000000000000000000000000000000000000000000000000000000000000000070007FBFCFCFCFCFCFCFCFCFC000000000000000000
310
0000FBFCFCFCFCFCFCFCFCFCFCFCFCFCFCFCFCFCFCFC00FB000000000000000000000000000000000000000000FBFCFCFCFC00000000000000000101010100010101FB000007000000000000000000000000000000000000000000000000000000000000000000000000070007FCFCFBFCFCFBFCFCFCFBFBFBFBFBFBFBFBFB
310
FBFBFBFBFBFBFBFBFBFBFCFBFBFBFBFBFBFCFBFBFBFBFBFBFBFBFBFBFBFBFBFBFBFBFBFBFBFBFBFBFBFBFBFBFBFBFBFCFCFCFCFBFBFBFBFBFBFBFBFBFBFBFBFBFBFBFBFB070007000000000000000000000000000000000000000000000000000000000000000000000000070000FB00000000000000000000000000000000
310
0000000000000000000000000000000000000000000000000000000000000000000000000000000000000000000000000000000000000000000000000000010101010000FB070007000000000000000000000000000000000000000000000000000000000000000000000000070000FB000000000000000000000000000101
310
010100000101010000000000010101010101010000000000000000000000000000000000000000000000000000000000000000000000000000000000000000010101000000FB000007000000000000000000000000000000000000000000000000000000000000000000000000070007FB0000000000000000000000000001
310
01010000000101010100000000010101010000000000000000000000000000000000000000000000000000000000000000000000000000000000000000000000000000000000FB000007000000000000000000000000000000000000000000000000000000000000000000000000070007FB00000000000000000000000101
310
0101010100000000000000000000000101010101010101000000000000000000000000000000000000000000000000000000000000000000000000000000000000000000000000FB070007000000000000000000000000000000000000000000000000000000000000000000000000070000FB000000000000000100010001
310
010101010000000101010101010100010101010101010101010000000000000000000000000000000000000000000000000000000000000000000000000000000000000000000000FB070007000000000000000000000000000000000000000000000000000000000000000000000000070000FB0000000000000101010100
310
01010101010100000101010001010101010100000101000101010000000000000000000000000000000000000000000000000000000000000000000000000000000000000000000000FB000007000000000000000000000000000000000000000000000000000000000000000000000000070007FB00000000000101010101
310
0101010101010000000101010100000000010101010101010101000000000000000000000000000000000000000000000000000000000000000000000000000000000000000000000000FB000007000000000000000000000000000000000000000000000000000000000000000000000000070007FB000000000001010101
310
010101010101010000000101010101010100010101010000000000000000000000000000000000000000000000000000000000000000000000000000000000000000000000000000000000FB070007000000000000000000000000000000000000000000000000000000000000000000000000070000FB0000000000010101
310
01010001010101010000000101010101010000000101010000000000000000000000000000000000000000000000000000000000000000000000000000000000000000000000000000000000FB070007000000000000000000000000000000000000000000000000000000000000000000000000070000FB00000000000001
310
0101010001010101010000000000000000010100010101010101010100000000000000000000000000000000000000000000000000000000000000000000000000000000000000000000000000FB000007000000000000000000000000000000000000000000000000000000000000000000000000070007FB000000000000
310
000100010001010101010000000000010100010101010101010101010000000000000000000000000000000000000000000000000000000000000000000000000000000000000000000000000000FB000007000000000000000000000000000000000000000000000000000000000000000000000000070007FB0000000000
310
00000100010001010100010000010101010101010101010101010101010101010101010100000000000000000000000000000000000000000000000000000000000000000000000000000000000000FB070007000000000000000000000000000000000000000000000000000000000000000000000000070000FB00000000
310
0000000100010001000101010100010101010101010101010101010101010101010101010101000000000000000000000000000000000000000000000000000000000000000000000000000000000000FB070007000000000000000000000000000000000000000000000000000000000000000000000000070007FB000000
310
000000000101010101000100010100010000000101010001010101000101010101010101010001000000000000000000000000000000000000000000000000000000000000000000000000000000000000FB000007000000000000000000000000000000000000000000000000000000000000000000000000070007FB0000
310
00000000000101000101000100010000010101010101010101010101010101010101010101010101000000000000000000000000000000000000000000000000000000000000000000000000000000000000FB070007000000000000000000000000000000000000000000000000000000000000000000000000070000FB00
310
0000000000000101000101000100010000010101010101010101010101010101010101010101010101000000000000000000000000000000000000000000000000000000000000000000000000000000000000FB070007000000000000000000000000000000000000000000000000000000000000000000000000070000FB
310
000000000000000101000101000101010000000000000000000000000000000000000000000000000000000000000000000000000000000000000000000000000000000000000000000000000000000000000000FB000007000000000000000000000000000000000000000000000000000000000000000000000000070007
310
FB000000000000000000000000000000000000000000000000000000000000000000000000000000000000000000000000000000000000000000000000000000000000000000000000000000000000000000000000FB0000070000000000000000000000000000000000000000000000000000000000000000000000000700
310
07FB000000000000000000000000000000000000000000000000000000000000000000000000000001010101010101010101010101010101010101010101010101010101010101010100000000000000000000000000FB07000700000000000000000000000000000000000000000000000000000000000000000000000007
310
0000FB000000000000000000000000000000000000000000000000000000000000000000000000000001000000000000000101000000000000010000000000000001010000000000000100000000000000000000000000FB070007000000000000000000000000000000000000000000000000000000000000000000000000
310
070000FB000000000000000001010101000000000000000000000000000000000000000000000000000001000000000000000000000000000001010101000000000101010101010101010100000000000000000000000000FB0000070000000000000000000000000000000000000000000000000000000000000000000000
310
00070007FB000000000000000101010101000000000000040000000000000000000000000000000000000001000000000000000000000000000000010100000000000100000001010000000100000000000000000000000000FB00000700000000000000000000000000000000000000000000000000000000000000000000
310
0000070007FB000000000000000001010100010000000000040000000000000000000000000000000000000001000000000000000000000000000000070700000000000400000001010101000100000000000000000000000000FB070007000000000000000000000000000000000000000000000000000000000000000000
310
000000070000FB000000000000000001010100010000000707070000000000000000000000000000000000000001000000000000000000000000000000070700000000070607070101000001000100000000000000000000000000FB0700070000000000000000000000000000000000000000000000000000000000000000
310
00000000070000FB000000000000000000000000010107070404040707070700000000000000000000000000000001010101010101010001000000000000040400000000060406000001010101010100000000000000000000000000FB00000700000000000000000000000000000000000000000000000000000000000000
310
0000000000070007FB000000000000000000000000070707040000040000040707000000000000000000000000000001000000010100000101000000000000070700000000070400070701010101010101010100000000000000000000FB000007000000000000000000000000000000000000000000000000000000000000
310
000000000000070007FB000000000000000000000000070407000000070000000707070000000000000000000000010107070707070707000001000000000000070700000007070606060706070707070100000100000000000000000000FB0700070000000000000000000000000000000000000000000000000000000000
310
00000000000000070000FB000000000000000000000007000700000001010101000407000700000000000000000000010007000000000000000701000000000000070700000706000000060707060000070700000100000000000000000000FB07000700000000000000000000000000000000000000000000000000000000
310
0000000000000000070000FB000000000000000000000007040100000001070001000004000007000000000000000000010007000000000000000701000000000000070707070706000000060700060000070700000100000000000000000000FB000007000000000000000000000000000000000000000000000000000000
310
000000000000000000070007FB000000000000000000000107010001010000070000000000000007000000000000000000010007000000000000000007000000070007070700060006000000060706060000070700010100000000000000000000FB0000070000000000000000000000000000000000000000000000000000
310
00000000000000000000070007FB000000000000000000000704000101010106070600000000000407000000000000000001010007000000000000070606070707070606060700060006000000060707070000070700010100000000000000000000FB07000700000000000000000000000000000000000000000000000000
310
0000000000000000000000070000FB000000000000000000040704040404040706060607010404040407040402020202020201010207040404040404040706060607070606060704060406040404060706070004070700010100000000000000000000FB070007000000000000000000000000000000000000000000000000
310
000000000000000000000000070000FB000000000000000000000704000000000007060700010101040107000000000000000000010007000000000000070707070701060007070700060006000000060706060000070700010100000000000000000000FB0000070000000000000000000000000000000000000000000000
310
00000000000000000000000000070007FB000000000000000000000007000000000000070000010101000007000000000000000000010007000000000000000700000001010001070707060006000000060707060000070700000100000000000000000000FB00000700000000000000000000000000000000000000000000
310
0000000000000000000000000000070007FB000000000000000000000007040000000000070000000101040007000000000000000001010007000000000000000700000101010001070700000006000000060706060000070700000100000000000000000000FB070007000000000000000000000000000000000000000000
310
000000000000000000000000000000070000FB000000000000000000000000070707000000070000000707000700000000000000000000010107070707070707070000000100000100070700000006070100060707070000070000000100000000000000000000FB0700070000000000000000000000000000000000000000
310
00000000000000000000000000000000070000FB000000000000000000000000070707000000000000000707070000000000000000000000000000000001000000000000010000000100070700000000000707060707070707010101010100000000000000000000FB00000700000000000000000000000000000000000000
310
0000000000000000000000000000000000070007FB000000000000000000000000040704040404040004040007000000000000000000000000000000000100000000000000010000010000070700000000000100000100000001000000000000000000000000000000FB000007000000000000000000000000000000000000
310
000000000000000000000000000000000000070007FB000000000000000000000000000007070000040407070700000000000000000000000000000000000100000000000001000000010000070700000000010000000100000000010000000000000000000000000000FB0700070000000000000000000000000000000000
310
00000000000000000000000000000000000000070000FB000000000000000000000000000000000707070700000000000000000000000000000000000000010000000000000001000000010000070700000000010000000100000000010000000000000000000000000000FB07000700000000000000000000000000000000
310
0000000000000000000000000000000000000000070000FB000000000000000000000000000000000000040000000000000000000000000000000000000000010000000000000100000001000000000100000000010000000100000000000100000000000000000000000000FB000007000000000000000000000000000000
310
000000000000000000000000000000000000000000070007FB000000000000000000000000000000000000000000000000000000000000000000000000000001000000000000000100000001000000000001000000010000000001000000000100000000000000000000000000FB0000070000000000000000000000000000
310
00000000000000000000000000000000000000000000070007FB000000000000000000000000000000000000000000000000000000000000000000000000000001000000000000010000000100000000000001000001000000000001000000000001000000000000000000000000FB07000700000000000000000000000000
310
0000000000000000000000000000000000000000000000070000FB000000000000000000000000000000000000000000000000000000000000000002020202020202020202020202020202020202020202020202020201010101010202020202020201010101010000000000000000FB070007000000000000000000000000
310
000000000000000000000000000000000000000000000000070000FB000000000000000000000000000000000000000000000000000000000000000000010101010000000000010101000101010100000101000101000000010101010001010101000001010101010000000000000000FB0000070000000000000000000000
310
00000000000000000000000000000000000000000000000000070007FB000000000000000000000000000000000000000000000000000000000000000000000000000000000000000000000000000000000101010101010001010101010000000000000001010101010100000000000000FB00000700000000000000000000
310
0000000000000000000000000000000000000000000000000000070007FB000000000000000000000000000000000000000000000000000000000000000000000000000000000000000000000000000000000101010101000000000000000000000000000001000101010100000000000000FB070007000000000000000000
310
000000000000000000000000000000000000000000000000000000070000FB000000000000000000000000000000000000000000000000000000000000000000000000000000000000000000000000000000000100010000000000000000000000000000000000000000000000000000000000FB0700070000000000000000
310
00000000000000000000000000000000000000000000000000000000070000FB000000000000000000000000000000000000000000000000000000000000000000000000000000000000000000000000000000000000000000000000000000000000000000000000000000000000000000000000FB00000700000000000000
310
0000000000000000000000000000000000000000000000000000000000070007FB000000000000000000000000000000000000000000000000000000000000000000000000000000000000000000000000000000000000000000000000000000000000000000000000000000000000000000000000FB000007000000000000
310
000000000000000000000000000000000000000000000000000000000000070007FBFBFBFBFBFBFBFBFBFBFBFBFBFBFBFBFBFBFBFBFBFBFBFBFBFBFBFBFBFBFBFBFBFBFBFBFBFBFBFBFBFBFBFBFBFBFBFBFBFBFBFBFBFBFBFBFBFBFBFBFBFBFBFBFBFBFBFBFBFBFBFBFBFBFBFBFBFBFBFBFBFBFBFBFBFB0700070000000000
310
00000000000000000000000000000000000000000000000000000000000000070007070000070700000707000007070000070700000707000007070000070700000707000007070000070707000007070000070700000707000007070000070700000707000007070000070700000707000007070000070707000700000000
310
00000000000000000000000000000000000000000000000000000000000000000707070707070707070707070707070707070707070707070707070707070707070707070707070707070707070707070707070707070707070707070707070707070707070707070707070707070707070707070707070707070707000000
310
00000000000000000000000000000000000000000000000000000000000000000000000000000000000000000000000000000000000000000000000000000000000000000000000000000000000000000000000000000000000000000000000000000000000000000000000000000000000000000000000000000000000000
310
00000000000000000000000000000000000000000000000000000000000000000000000000000000000000000000000000000000000000000000000000000000000000000000000000000000000000000000000000000000000000000000000000000000000000000000000000000000000000000000000000000000000000
310
00000000000000000000000000000000000000000000000000000000000000000000000000000000000000000000000000000000000000000000000000000000000000000000000000000000000000000000000000000000000000000000000000000000000000000000000000000000000000000000000000000000000000
310
00000000000000000000000000000000000000000000000000000000000000000000000000000000000000000000000000000000000000000000000000000000000000000000000000000000000000000000000000000000000000000000000000000000000000000000000000000000000000000000000000000000000000
310
00000000000000000000000000000000000000000000000000000000000000000000000000000000000000000000000000000000000000000000000000000000000000000000000000000000000000000000000000000000000000000000000000000000000000000000000000000000000000000000000000000000000000
310
00000000000000000000000000000000000000000000000000000000000000000000000000000000000000000000000000000000000000000000000000000000000000000000000000000000000000000000000000000000000000000000000000000000000000000000000000000000000000000000000000000000000000
310
00000000000000000000000000000000000000000000000000000000000000000000000000000000000000000000000000000000000000000000000000000000000000000000000000000000000000000000000000000000000000000000000000000000000000000000000000000000000000000000000000000000000000
310
00000000000000000000000000000000000000000000000000000000000000000000000000000000000000000000000000000000000000000000000000000000000000000000000000000000000000000000000000000000000000000000000000000000000000000000000000000000000000000000000000000000000000
310
00000000000000000000000000000000000000000000000000000000000000000000000000000000000000000000000000000000000000000000000000000000000000000000000000000000000000000000000000000000000000000000000000000000000000000000000000000000000000000000000000000000000000
310
00000000000000000000000000000000000000000000000000000000000000000000000000000000000000000000000000000000000000000000000000000000000000000000000000000000000000000000000000000000000000000000000000000000000000000000000000000000000000000000000000000000000000
310
00000000000000000000000000000000000000000000000000000000000000000000000000000000000000000000000000000000000000000000000000000000000000000000000000000000000000000000000000000000000000000000000000000000000000000000000000000000000000000000000000000000000000
310
00000000000000000000000000000000000000000000000000000000000000000000000000000000000000000000000000000000000000000000000000000000000000000000000000000000000000000000000000000000000000000000000000000000000000000000000000000000000000000000000000000000000000
310
00000000000000000000000000000000000000000000000000000000000000000000000000000000000000000000000000000000000000000000000000000000000000000000000000000000000000000000000000000000000000000000000000000000000000000000000000000000000000000000000000000000000000
310
00000000000000000000000000000000000000000000000000000000000000000000000000000000000000000000000000000000000000000000000000000000000000000000000000000000000000000000000000000000000000000000000000000000000000000000000000000000000000000000000000000000000000
310
00000000000000000000000000000000000000000000000000000000000000000000000000000000000000000000000000000000000000000000000000000000000000000000000000000000000000000000000000000000000000000000000000000000000000000000000000000000000000000000000000000000000000
310
00000000000000000000000000000000000000000000000000000000000000000000000000000000000000000000000000000000000000000000000000000000000000000000000000000000000000000000000000000000000000000000000000000000000000000000000000000000000000000000000000000000000000
310
00000000000000000000000000000000000000000000000000000000000000000000000000000000000000000000000000000000000000000000000000000000000000000000000000000000000000000000000000000000000000000000000000000000000000000000000000000000000000000000000000000000000000
310
00000000000000000000000000000000000000000000000000000000000000000000000000000000000000000000000000000000000000000000000000000000000000000000000000000000000000000000000000000000000000000000000000000000000000000000000000000000000000000000000000000000000000
310
00000000000000000000000000000000000000000000000000000000000000000000000000000000000000000000000000000000000000000000000000000000000000000000000000000000000000000000000000000000000000000000000000000000000000000000000000000000000000000000000000000000000000
310
00000000000000000000000000000000000000000000000000000000000000000000000000000000000000000000000000000000000000000000000000000000000000000000000000000000000000000000000000000000000000000000000000000000000000000000000000000000000000000000000000000000000000
310
00000000000000000000000000000000000000000000000000000000000000000000000000000000000000000000000000000000000000000000000000000000000000000000000000000000000000000000000000000000000000000000000000000000000000000000000000000000000000000000000000000000000000
310
00000000000000000000000000000000000000000000000000000000000000000000000000000000000000000000000000000000000000000000000000000000000000000000000000000000000000000000000000000000000000000000000000000000000000000000000000000000000000000000000000000000000000
310
00000000000000000000000000000000000000000000000000000000000000000000000000000000000000000000000000000000000000000000000000000000000000000000000000000000000000000000000000000000000000000000000000000000000000000000000000000000000000000000000000000000000000
310
00000000000000000000000000000000000000000000000000000000000000000000000000000000000000000000000000000000000000000000000000000000000000000000000000000000000000000000000000000000000000000000000000000000000000000000000000000000000000000000000000000000000000
310
00000000000000000000000000000000000000000000000000000000000000000000000000000000000000000000000000000000000000000000000000000000000000000000000000000000000000000000000000000000000000000000000000000000000000000000000000000000000000000000000000000000000000
310
00000000000000000000000000000000000000000000000000000000000000000000000000000000000000000000000000000000000000000000000000000000000000000000000000000000000000000000000000000000000000000000000000000000000000000000000000000000000000000000000000000000000000
310
00000000000000000000000000000000000000000000000000000000000000000000000000000000000000000000000000000000000000000000000000000000000000000000000000000000000000000000000000000000000000000000000000000000000000000000000000000000000000000000000000000000000000
310
00000000000000000000000000000000000000000000000000000000000000000000000000000000000000000000000000000000000000000000000000000000000000000000000000000000000000000000000000000000000000000000000000000000000000000000000000000000000000000000000000000000000000
310
00000000000000000000000000000000000000000000000000000000000000000000000000000000000000000000000000000000000000000000000000000000000000000000000000000000000000000000000000000000000000000000000000000000000000000000000000000000000000000000000000000000000000
310
00000000000000000000000000000000000000000000000000000000000000000000000000000000000000000000000000
  0
ENDSEC
  0
EOF
