  0
SECTION
  2
HEADER
  9
$ACADVER
  1
AC1018
  9
$ACADMAINTVER
 70
     0
  9
$DWGCODEPAGE
  3
ANSI_932
  9
$LASTSAVEDBY
  1
y-ohno
  9
$INSBASE
 10
0.0
 20
0.0
 30
0.0
  9
$EXTMIN
 10
872.627264861032
 20
-75.328942845523
 30
0.0
  9
$EXTMAX
 10
1175.470422115103
 20
352.282926125258
 30
0.0
  9
$LIMMIN
 10
-360.747566795242
 20
4.457354754526
  9
$LIMMAX
 10
-162.153696144267
 20
287.675440264018
  9
$ORTHOMODE
 70
     0
  9
$REGENMODE
 70
     1
  9
$FILLMODE
 70
     1
  9
$QTEXTMODE
 70
     0
  9
$MIRRTEXT
 70
     1
  9
$LTSCALE
 40
1.0
  9
$ATTMODE
 70
     1
  9
$TEXTSIZE
 40
2.333873885063
  9
$TRACEWID
 40
1.0
  9
$TEXTSTYLE
  7
STANDARD
  9
$CLAYER
  8
寸法線
  9
$CELTYPE
  6
BYLAYER
  9
$CECOLOR
 62
   256
  9
$CELTSCALE
 40
10.0
  9
$DISPSILH
 70
     0
  9
$DIMSCALE
 40
1.0
  9
$DIMASZ
 40
4.3
  9
$DIMEXO
 40
0.625
  9
$DIMDLI
 40
3.75
  9
$DIMRND
 40
0.0
  9
$DIMDLE
 40
0.0
  9
$DIMEXE
 40
1.25
  9
$DIMTP
 40
0.1
  9
$DIMTM
 40
0.1
  9
$DIMTXT
 40
3.6
  9
$DIMCEN
 40
2.5
  9
$DIMTSZ
 40
0.0
  9
$DIMTOL
 70
     0
  9
$DIMLIM
 70
     0
  9
$DIMTIH
 70
     0
  9
$DIMTOH
 70
     0
  9
$DIMSE1
 70
     0
  9
$DIMSE2
 70
     0
  9
$DIMTAD
 70
     1
  9
$DIMZIN
 70
     8
  9
$DIMBLK
  1
Open30
  9
$DIMASO
 70
     1
  9
$DIMSHO
 70
     1
  9
$DIMPOST
  1

  9
$DIMAPOST
  1

  9
$DIMALT
 70
     0
  9
$DIMALTD
 70
     2
  9
$DIMALTF
 40
0.0394
  9
$DIMLFAC
 40
1.0
  9
$DIMTOFL
 70
     1
  9
$DIMTVP
 40
1.0
  9
$DIMTIX
 70
     0
  9
$DIMSOXD
 70
     0
  9
$DIMSAH
 70
     0
  9
$DIMBLK1
  1

  9
$DIMBLK2
  1

  9
$DIMSTYLE
  2
ISO-25
  9
$DIMCLRD
 70
     0
  9
$DIMCLRE
 70
     0
  9
$DIMCLRT
 70
     0
  9
$DIMTFAC
 40
1.0
  9
$DIMGAP
 40
0.625
  9
$DIMJUST
 70
     0
  9
$DIMSD1
 70
     0
  9
$DIMSD2
 70
     0
  9
$DIMTOLJ
 70
     1
  9
$DIMTZIN
 70
     0
  9
$DIMALTZ
 70
     0
  9
$DIMALTTZ
 70
     0
  9
$DIMUPT
 70
     0
  9
$DIMDEC
 70
     1
  9
$DIMTDEC
 70
     1
  9
$DIMALTU
 70
     2
  9
$DIMALTTD
 70
     2
  9
$DIMTXSTY
  7
STANDARD
  9
$DIMAUNIT
 70
     0
  9
$DIMADEC
 70
     0
  9
$DIMALTRND
 40
0.0
  9
$DIMAZIN
 70
     0
  9
$DIMDSEP
 70
    46
  9
$DIMATFIT
 70
     3
  9
$DIMFRAC
 70
     0
  9
$DIMLDRBLK
  1
Open30
  9
$DIMLUNIT
 70
     2
  9
$DIMLWD
 70
    -2
  9
$DIMLWE
 70
    -2
  9
$DIMTMOVE
 70
     0
  9
$LUNITS
 70
     2
  9
$LUPREC
 70
     4
  9
$SKETCHINC
 40
1.0
  9
$FILLETRAD
 40
6.5
  9
$AUNITS
 70
     0
  9
$AUPREC
 70
     0
  9
$MENU
  1
.
  9
$ELEVATION
 40
0.0
  9
$PELEVATION
 40
0.0
  9
$THICKNESS
 40
0.0
  9
$LIMCHECK
 70
     0
  9
$CHAMFERA
 40
10.0
  9
$CHAMFERB
 40
10.0
  9
$CHAMFERC
 40
20.0
  9
$CHAMFERD
 40
0.0
  9
$SKPOLY
 70
     0
  9
$TDCREATE
 40
2450576.597302431
  9
$TDUCREATE
 40
2450576.222302431
  9
$TDUPDATE
 40
2457529.564199502
  9
$TDUUPDATE
 40
2457529.189199502
  9
$TDINDWG
 40
1.0313238889
  9
$TDUSRTIMER
 40
1.0313238889
  9
$USRTIMER
 70
     1
  9
$ANGBASE
 50
0.0
  9
$ANGDIR
 70
     0
  9
$PDMODE
 70
     0
  9
$PDSIZE
 40
0.0
  9
$PLINEWID
 40
0.0
  9
$SPLFRAME
 70
     0
  9
$SPLINETYPE
 70
     6
  9
$SPLINESEGS
 70
     8
  9
$HANDSEED
  5
3CCE
  9
$SURFTAB1
 70
     6
  9
$SURFTAB2
 70
     6
  9
$SURFTYPE
 70
     6
  9
$SURFU
 70
     6
  9
$SURFV
 70
     6
  9
$UCSBASE
  2

  9
$UCSNAME
  2

  9
$UCSORG
 10
0.0
 20
0.0
 30
0.0
  9
$UCSXDIR
 10
1.0
 20
0.0
 30
0.0
  9
$UCSYDIR
 10
0.0
 20
1.0
 30
0.0
  9
$UCSORTHOREF
  2

  9
$UCSORTHOVIEW
 70
     0
  9
$UCSORGTOP
 10
0.0
 20
0.0
 30
0.0
  9
$UCSORGBOTTOM
 10
0.0
 20
0.0
 30
0.0
  9
$UCSORGLEFT
 10
0.0
 20
0.0
 30
0.0
  9
$UCSORGRIGHT
 10
0.0
 20
0.0
 30
0.0
  9
$UCSORGFRONT
 10
0.0
 20
0.0
 30
0.0
  9
$UCSORGBACK
 10
0.0
 20
0.0
 30
0.0
  9
$PUCSBASE
  2

  9
$PUCSNAME
  2

  9
$PUCSORG
 10
0.0
 20
0.0
 30
0.0
  9
$PUCSXDIR
 10
1.0
 20
0.0
 30
0.0
  9
$PUCSYDIR
 10
0.0
 20
1.0
 30
0.0
  9
$PUCSORTHOREF
  2

  9
$PUCSORTHOVIEW
 70
     0
  9
$PUCSORGTOP
 10
0.0
 20
0.0
 30
0.0
  9
$PUCSORGBOTTOM
 10
0.0
 20
0.0
 30
0.0
  9
$PUCSORGLEFT
 10
0.0
 20
0.0
 30
0.0
  9
$PUCSORGRIGHT
 10
0.0
 20
0.0
 30
0.0
  9
$PUCSORGFRONT
 10
0.0
 20
0.0
 30
0.0
  9
$PUCSORGBACK
 10
0.0
 20
0.0
 30
0.0
  9
$USERI1
 70
     0
  9
$USERI2
 70
     0
  9
$USERI3
 70
     0
  9
$USERI4
 70
     0
  9
$USERI5
 70
     0
  9
$USERR1
 40
0.0
  9
$USERR2
 40
0.0
  9
$USERR3
 40
0.0
  9
$USERR4
 40
0.0
  9
$USERR5
 40
0.0
  9
$WORLDVIEW
 70
     1
  9
$SHADEDGE
 70
     3
  9
$SHADEDIF
 70
    70
  9
$TILEMODE
 70
     0
  9
$MAXACTVP
 70
    16
  9
$PINSBASE
 10
0.0
 20
0.0
 30
0.0
  9
$PLIMCHECK
 70
     0
  9
$PEXTMIN
 10
7.843451901197
 20
2.161110131738
 30
0.0
  9
$PEXTMAX
 10
197.847066687274
 20
282.160335911262
 30
0.0
  9
$PLIMMIN
 10
-4.857749938965
 20
-4.900062561035
  9
$PLIMMAX
 10
205.115577697754
 20
292.068260192871
  9
$UNITMODE
 70
     0
  9
$VISRETAIN
 70
     0
  9
$PLINEGEN
 70
     0
  9
$PSLTSCALE
 70
     1
  9
$TREEDEPTH
 70
  3020
  9
$CMLSTYLE
  2
STANDARD
  9
$CMLJUST
 70
     0
  9
$CMLSCALE
 40
1.0
  9
$PROXYGRAPHICS
 70
     1
  9
$MEASUREMENT
 70
     1
  9
$CELWEIGHT
370
    -1
  9
$ENDCAPS
280
     0
  9
$JOINSTYLE
280
     0
  9
$LWDISPLAY
290
     0
  9
$INSUNITS
 70
     0
  9
$HYPERLINKBASE
  1

  9
$STYLESHEET
  1

  9
$XEDIT
290
     1
  9
$CEPSNTYPE
380
     0
  9
$PSTYLEMODE
290
     1
  9
$FINGERPRINTGUID
  2
{23698909-1D67-4744-B0E2-8DE11E3ED422}
  9
$VERSIONGUID
  2
{AE7581D5-CA25-44F8-8746-2455B360701A}
  9
$EXTNAMES
290
     1
  9
$PSVPSCALE
 40
0.25
  9
$OLESTARTUP
290
     0
  9
$SORTENTS
280
   127
  9
$INDEXCTL
280
     0
  9
$HIDETEXT
280
     0
  9
$XCLIPFRAME
290
     0
  9
$HALOGAP
280
     0
  9
$OBSCOLOR
 70
   257
  9
$OBSLTYPE
280
     0
  9
$INTERSECTIONDISPLAY
280
     0
  9
$INTERSECTIONCOLOR
 70
   257
  9
$DIMASSOC
280
     1
  9
$PROJECTNAME
  1

  0
ENDSEC
  0
SECTION
  2
CLASSES
  0
CLASS
  1
ACDBDICTIONARYWDFLT
  2
AcDbDictionaryWithDefault
  3
ObjectDBX Classes
 90
        0
 91
        5
280
     0
281
     0
  0
CLASS
  1
ACDBPLACEHOLDER
  2
AcDbPlaceHolder
  3
ObjectDBX Classes
 90
        0
 91
        1
280
     0
281
     0
  0
CLASS
  1
LAYOUT
  2
AcDbLayout
  3
ObjectDBX Classes
 90
        0
 91
        1
280
     0
281
     0
  0
CLASS
  1
VISUALSTYLE
  2
AcDbVisualStyle
  3
ObjectDBX Classes
 90
     4095
 91
        5
280
     0
281
     0
  0
CLASS
  1
SCALE
  2
AcDbScale
  3
ObjectDBX Classes
 90
     1153
 91
        5
280
     0
281
     0
  0
CLASS
  1
MATERIAL
  2
AcDbMaterial
  3
ObjectDBX Classes
 90
     1153
 91
        5
280
     0
281
     0
  0
CLASS
  1
TABLESTYLE
  2
AcDbTableStyle
  3
ObjectDBX Classes
 90
     4095
 91
        5
280
     0
281
     0
  0
CLASS
  1
MLEADERSTYLE
  2
AcDbMLeaderStyle
  3
ACDB_MLEADERSTYLE_CLASS
 90
     4095
 91
        5
280
     0
281
     0
  0
CLASS
  1
SUN
  2
AcDbSun
  3
SCENEOE
 90
     1153
 91
        5
280
     0
281
     0
  0
CLASS
  1
DICTIONARYVAR
  2
AcDbDictionaryVar
  3
ObjectDBX Classes
 90
        0
 91
        4
280
     0
281
     0
  0
CLASS
  1
CELLSTYLEMAP
  2
AcDbCellStyleMap
  3
ObjectDBX Classes
 90
     1152
 91
        4
280
     0
281
     0
  0
ENDSEC
  0
SECTION
  2
TABLES
  0
TABLE
  2
VPORT
  5
8
102
{ACAD_XDICTIONARY
360
3C90
102
}
330
0
100
AcDbSymbolTable
 70
     6
  0
VPORT
  5
3AA2
330
8
100
AcDbSymbolTableRecord
100
AcDbViewportTableRecord
  2
*Active
 70
     0
 10
0.0
 20
0.0
 11
1.0
 21
1.0
 12
1058.786575594178
 22
86.369641874196
 13
0.0
 23
0.0
 14
1.0
 24
1.0
 15
0.0
 25
0.0
 16
0.0
 26
0.0
 36
1.0
 17
0.0
 27
0.0
 37
0.0
 40
540.490301066176
 41
1.405303030303
 42
50.0
 43
0.0
 44
0.0
 50
0.0
 51
0.0
 71
    16
 72
   100
 73
     1
 74
     0
 75
     0
 76
     0
 77
     0
 78
     0
281
     0
 65
     1
110
0.0
120
0.0
130
0.0
111
1.0
121
0.0
131
0.0
112
0.0
122
1.0
132
0.0
 79
     0
146
0.0
  0
ENDTAB
  0
TABLE
  2
LTYPE
  5
5
330
0
100
AcDbSymbolTable
 70
     3
  0
LTYPE
  5
14
330
5
100
AcDbSymbolTableRecord
100
AcDbLinetypeTableRecord
  2
BYBLOCK
 70
     0
  3

 72
    65
 73
     0
 40
0.0
  0
LTYPE
  5
15
330
5
100
AcDbSymbolTableRecord
100
AcDbLinetypeTableRecord
  2
BYLAYER
 70
     0
  3

 72
    65
 73
     0
 40
0.0
  0
LTYPE
  5
16
330
5
100
AcDbSymbolTableRecord
100
AcDbLinetypeTableRecord
  2
CONTINUOUS
 70
     0
  3
Solid line
 72
    65
 73
     0
 40
0.0
  0
LTYPE
  5
1EC
330
5
100
AcDbSymbolTableRecord
100
AcDbLinetypeTableRecord
  2
CENTER
 70
     0
  3
____ _ ____ _ ____ _ ____ _ ____ _ ____ _ ____ 
 72
    65
 73
     4
 40
2.0
 49
1.25
 74
     0
 49
-0.25
 74
     0
 49
0.25
 74
     0
 49
-0.25
 74
     0
  0
LTYPE
  5
1ED
330
5
100
AcDbSymbolTableRecord
100
AcDbLinetypeTableRecord
  2
DASHED
 70
     0
  3
__ __ __ __ __ __ __ __ __ __ __ __ __ __ __ __
 72
    65
 73
     2
 40
0.75
 49
0.5
 74
     0
 49
-0.25
 74
     0
  0
ENDTAB
  0
TABLE
  2
LAYER
  5
2
102
{ACAD_XDICTIONARY
360
29EA
102
}
330
0
100
AcDbSymbolTable
 70
    12
  0
LAYER
  5
F
330
2
100
AcDbSymbolTableRecord
100
AcDbLayerTableRecord
  2
0
 70
     0
 62
     7
  6
CONTINUOUS
370
    -3
390
2815
  0
LAYER
  5
61
330
2
100
AcDbSymbolTableRecord
100
AcDbLayerTableRecord
  2
図枠太線
 70
     0
 62
   251
  6
CONTINUOUS
370
    -3
390
2815
  0
LAYER
  5
62
330
2
100
AcDbSymbolTableRecord
100
AcDbLayerTableRecord
  2
図枠細線
 70
     0
 62
   252
  6
CONTINUOUS
370
    -3
390
2815
  0
LAYER
  5
63
330
2
100
AcDbSymbolTableRecord
100
AcDbLayerTableRecord
  2
図枠ロゴマーク
 70
     0
 62
   253
  6
CONTINUOUS
370
    -3
390
2815
  0
LAYER
  5
1F4
330
2
100
AcDbSymbolTableRecord
100
AcDbLayerTableRecord
  2
DEFPOINTS
 70
     0
 62
     7
  6
CONTINUOUS
290
     0
370
    -3
390
2815
  0
LAYER
  5
2AA2
330
2
100
AcDbSymbolTableRecord
100
AcDbLayerTableRecord
  2
下書線
 70
     0
 62
     2
  6
CONTINUOUS
290
     0
370
    -3
390
2815
  0
LAYER
  5
2B1F
330
2
100
AcDbSymbolTableRecord
100
AcDbLayerTableRecord
  2
外形線
 70
     0
 62
     7
  6
CONTINUOUS
370
    -3
390
2815
  0
LAYER
  5
2B20
330
2
100
AcDbSymbolTableRecord
100
AcDbLayerTableRecord
  2
寸法線
 70
     0
 62
     1
  6
CONTINUOUS
370
    -3
390
2815
  0
LAYER
  5
2B21
330
2
100
AcDbSymbolTableRecord
100
AcDbLayerTableRecord
  2
中心線
 70
     0
 62
     4
  6
CENTER
370
    -3
390
2815
  0
LAYER
  5
2B22
330
2
100
AcDbSymbolTableRecord
100
AcDbLayerTableRecord
  2
隠れ線
 70
     0
 62
     3
  6
DASHED
370
    -3
390
2815
  0
LAYER
  5
2B23
330
2
100
AcDbSymbolTableRecord
100
AcDbLayerTableRecord
  2
細線
 70
     0
 62
     6
  6
CONTINUOUS
370
    -3
390
2815
  0
LAYER
  5
2B24
330
2
100
AcDbSymbolTableRecord
100
AcDbLayerTableRecord
  2
太線
 70
     0
 62
   190
  6
CONTINUOUS
370
    -3
390
2815
  0
ENDTAB
  0
TABLE
  2
STYLE
  5
3
330
0
100
AcDbSymbolTable
 70
     2
  0
STYLE
  5
10
330
3
100
AcDbSymbolTableRecord
100
AcDbTextStyleTableRecord
  2
STANDARD
 70
     0
 40
0.0
 41
1.0
 50
0.0
 71
     0
 42
2.333873885063
  3
ISOCP
  4
bigfont.shx
  0
STYLE
  5
64
330
3
100
AcDbSymbolTableRecord
100
AcDbTextStyleTableRecord
  2
EXCADSTD
 70
     0
 40
0.0
 41
1.0
 50
0.0
 71
     0
 42
0.2
  3
monotxt
  4
bigfont
  0
ENDTAB
  0
TABLE
  2
VIEW
  5
6
330
0
100
AcDbSymbolTable
 70
     0
  0
ENDTAB
  0
TABLE
  2
UCS
  5
7
330
0
100
AcDbSymbolTable
 70
     0
  0
ENDTAB
  0
TABLE
  2
APPID
  5
9
330
0
100
AcDbSymbolTable
 70
     3
  0
APPID
  5
11
330
9
100
AcDbSymbolTableRecord
100
AcDbRegAppTableRecord
  2
ACAD
 70
     0
  0
APPID
  5
3AEB
330
9
100
AcDbSymbolTableRecord
100
AcDbRegAppTableRecord
  2
AcadAnnotative
 70
     0
  0
APPID
  5
3BCE
330
9
100
AcDbSymbolTableRecord
100
AcDbRegAppTableRecord
  2
ACAD_MLEADERVER
 70
     0
  0
ENDTAB
  0
TABLE
  2
DIMSTYLE
  5
A
330
0
100
AcDbSymbolTable
 70
     5
100
AcDbDimStyleTable
  0
DIMSTYLE
105
1D
330
A
100
AcDbSymbolTableRecord
100
AcDbDimStyleTableRecord
  2
STANDARD
 70
     0
178
     0
340
10
  0
DIMSTYLE
105
24
102
{ACAD_REACTORS
330
38A1
330
38A3
330
38A4
330
3940
330
3944
102
}
330
A
100
AcDbSymbolTableRecord
100
AcDbDimStyleTableRecord
  2
ISO-25
 70
     0
 41
2.5
 42
0.625
 43
3.75
 44
1.25
 74
     0
 77
     1
 78
     8
140
2.5
141
2.5
143
0.0394
145
1.0
147
0.625
172
     1
178
     0
340
10
  0
DIMSTYLE
105
3759
330
A
100
AcDbSymbolTableRecord
100
AcDbDimStyleTableRecord
  2
文字5ｐｔ
 70
     0
 41
6.0
 42
0.625
 43
3.75
 44
1.25
 47
0.1
 48
0.1
 73
     0
 74
     0
 77
     1
 78
     8
140
5.0
141
2.5
143
0.0394
145
1.0
147
0.625
172
     1
178
     0
271
     1
272
     1
340
10
341
2AEB
342
2AEB
  0
DIMSTYLE
105
375A
330
A
100
AcDbSymbolTableRecord
100
AcDbDimStyleTableRecord
  2
文字8ｐｔ
 70
     0
 41
6.0
 42
0.625
 43
3.75
 44
1.25
 47
0.1
 48
0.1
 73
     0
 74
     0
 77
     1
 78
     8
140
8.0
141
2.5
143
0.0394
145
1.0
147
0.625
172
     1
178
     0
271
     1
272
     1
340
10
341
2AEB
342
2AEB
  0
DIMSTYLE
105
375B
330
A
100
AcDbSymbolTableRecord
100
AcDbDimStyleTableRecord
  2
文字10ｐｔ
 70
     0
 41
6.0
 42
0.625
 43
3.75
 44
1.25
 47
0.1
 48
0.1
 73
     0
 74
     0
 77
     1
 78
     8
140
10.0
141
2.5
143
0.0394
145
1.0
147
0.625
172
     1
178
     0
271
     1
272
     1
340
10
341
2AEB
342
2AEB
  0
ENDTAB
  0
TABLE
  2
BLOCK_RECORD
  5
1
330
0
100
AcDbSymbolTable
 70
    19
  0
BLOCK_RECORD
  5
1A
330
1
100
AcDbSymbolTableRecord
100
AcDbBlockTableRecord
  2
*MODEL_SPACE
340
2818
  0
BLOCK_RECORD
  5
2963
330
1
100
AcDbSymbolTableRecord
100
AcDbBlockTableRecord
  2
*PAPER_SPACE
340
2994
  0
BLOCK_RECORD
  5
29F4
330
1
100
AcDbSymbolTableRecord
100
AcDbBlockTableRecord
  2
A4縦用　タイトル
340
0
310
2800000020000000200000000100080000000000000400000000000000000000000000000000000000000000000080000080000000808000800000008000800080800000C0C0C000C0DCC000F0CAA6000020400000206000002080000020A0000020C0000020E00000400000004020000040400000406000004080000040A0
310
000040C0000040E00000600000006020000060400000606000006080000060A0000060C0000060E00000800000008020000080400000806000008080000080A0000080C0000080E00000A0000000A0200000A0400000A0600000A0800000A0A00000A0C00000A0E00000C0000000C0200000C0400000C0600000C0800000C0
310
A00000C0C00000C0E00000E0000000E0200000E0400000E0600000E0800000E0A00000E0C00000E0E00040000000400020004000400040006000400080004000A0004000C0004000E00040200000402020004020400040206000402080004020A0004020C0004020E000404000004040200040404000404060004040800040
310
40A0004040C0004040E00040600000406020004060400040606000406080004060A0004060C0004060E00040800000408020004080400040806000408080004080A0004080C0004080E00040A0000040A0200040A0400040A0600040A0800040A0A00040A0C00040A0E00040C0000040C0200040C0400040C0600040C08000
310
40C0A00040C0C00040C0E00040E0000040E0200040E0400040E0600040E0800040E0A00040E0C00040E0E00080000000800020008000400080006000800080008000A0008000C0008000E00080200000802020008020400080206000802080008020A0008020C0008020E00080400000804020008040400080406000804080
310
008040A0008040C0008040E00080600000806020008060400080606000806080008060A0008060C0008060E00080800000808020008080400080806000808080008080A0008080C0008080E00080A0000080A0200080A0400080A0600080A0800080A0A00080A0C00080A0E00080C0000080C0200080C0400080C0600080C0
310
800080C0A00080C0C00080C0E00080E0000080E0200080E0400080E0600080E0800080E0A00080E0C00080E0E000C0000000C0002000C0004000C0006000C0008000C000A000C000C000C000E000C0200000C0202000C0204000C0206000C0208000C020A000C020C000C020E000C0400000C0402000C0404000C0406000C0
310
408000C040A000C040C000C040E000C0600000C0602000C0604000C0606000C0608000C060A000C060C000C060E000C0800000C0802000C0804000C0806000C0808000C080A000C080C000C080E000C0A00000C0A02000C0A04000C0A06000C0A08000C0A0A000C0A0C000C0A0E000C0C00000C0C02000C0C04000C0C06000
310
C0C08000C0C0A000F0FBFF00A4A0A000808080000000FF0000FF000000FFFF00FF000000FF00FF00FFFF0000FFFFFF0000000000000000000000000000000000000000000000000000000000000000000000000000000000000000000000000000000000000000000000000000000000000000000000000000000000000000
310
00000000000000000000000000000000000000000000000000000000000000000000000000000000000000000000000000000000000000000000000000000000000000000000000000000000000000000000000000000000000000000000000000000000000000000000000000000000000000000000000000000000000000
310
00000000000000000000000000000000000000000000000000000000000000000000000000000000000000000000000000000000000000000000000000000000000000000000000000000000000000000000000000000000000000000000000000000000000000000000000000000000000000000000000000000000000000
310
0000000000000000000000000000000000000000000000000000000000000000000000000000000000000000000000000000000000000000000000000000000000000000000000000000000000000000000000005B5B5B5B5B5BA45B5BA45B5B5B5B5B5B5B5B5B5B5B5B5B5B5B5B5B5B5B5B0000A4A4A45BA4A4A40000A400
310
005BA4A4A4A4A4A4A45B00000000000000005B0000A4A4A45BA4A4A4A4A4A4A4A45BF7F7F7F7F7F7F7A4A4A4A4A4A4A4A4A45B0000A4A4A45BA4A4A4A400A400005B000000000000005B00000000000000005B0000A4A4A4A4A4A4A4A4A4A4A4A45BA4A4A4A4A4A4A4A4A4A4A400000000005B00005BA4A4A4A400A4A400A4
310
A4005B00000000000000A4A4A4A400000000005B0000000000000000000000000000000000000000000000000000000000000000000000000000000000000000000000000000000000000000000000000000000000000000000000000000000000000000000000000000000000000000000000000000000000000000000000
310
00000000000000000000000000000000000000000000000000000000000000000000000000000000000000000000000000000000000000000000000000000000000000000000000000000000000000000000000000000000000000000000000000000000000000000000000000000000000000000000000000000000000000
310
00000000000000000000000000000000000000000000000000000000000000000000000000000000000000000000000000000000000000000000000000000000000000000000000000000000000000000000000000000000000000000000000000000000000000000000000000000000000000000000000000000000000000
310
0000000000000000000000000000000000000000000000000000000000000000000000000000000000000000000000000000000000000000
102
{BLKREFS
331
2A23
102
}
1001
ACAD
1000
DesignCenter Data
1002
{
1070
     1
1070
     4
1002
}
  0
BLOCK_RECORD
  5
2AEB
330
1
100
AcDbSymbolTableRecord
100
AcDbBlockTableRecord
  2
_Open30
340
0
102
{BLKREFS
331
3A9A
331
3A9B
331
3A91
331
3A92
331
3A88
331
3A89
331
3A7F
331
3A80
331
3A76
331
3A77
102
}
  0
BLOCK_RECORD
  5
3954
330
1
100
AcDbSymbolTableRecord
100
AcDbBlockTableRecord
  2
*D14
340
0
  0
BLOCK_RECORD
  5
3960
330
1
100
AcDbSymbolTableRecord
100
AcDbBlockTableRecord
  2
*D15
340
0
  0
BLOCK_RECORD
  5
396C
330
1
100
AcDbSymbolTableRecord
100
AcDbBlockTableRecord
  2
*D16
340
0
  0
BLOCK_RECORD
  5
3978
330
1
100
AcDbSymbolTableRecord
100
AcDbBlockTableRecord
  2
*D17
340
0
  0
BLOCK_RECORD
  5
3984
330
1
100
AcDbSymbolTableRecord
100
AcDbBlockTableRecord
  2
*D18
340
0
  0
ENDTAB
  0
ENDSEC
  0
SECTION
  2
BLOCKS
  0
BLOCK
  5
1B
330
1A
100
AcDbEntity
  8
0
100
AcDbBlockBegin
  2
*MODEL_SPACE
 70
     0
 10
0.0
 20
0.0
 30
0.0
  3
*MODEL_SPACE
  1
*MODEL_SPACE
  0
ENDBLK
  5
1C
330
1A
100
AcDbEntity
  8
0
100
AcDbBlockEnd
  0
BLOCK
  5
2964
330
2963
100
AcDbEntity
 67
     1
  8
0
100
AcDbBlockBegin
  2
*PAPER_SPACE
 70
     0
 10
0.0
 20
0.0
 30
0.0
  3
*PAPER_SPACE
  1
*PAPER_SPACE
  0
ENDBLK
  5
2993
330
2963
100
AcDbEntity
 67
     1
  8
0
100
AcDbBlockEnd
  0
BLOCK
  5
29F5
330
29F4
100
AcDbEntity
  8
0
100
AcDbBlockBegin
  2
A4縦用　タイトル
 70
     0
 10
0.0
 20
0.0
 30
0.0
  3
A4縦用　タイトル
  1
A4縦用　タイトル
  0
LINE
  5
29F6
330
29F4
100
AcDbEntity
  8
図枠太線
  6
Continuous
 62
   251
100
AcDbLine
 10
2.368253864267
 20
4.525433224584
 30
0.0
 11
192.368245864267
 21
4.525433224584
 31
0.0
  0
LINE
  5
29F7
330
29F4
100
AcDbEntity
  8
図枠太線
  6
Continuous
 62
   251
100
AcDbLine
 10
78.368245864267
 20
19.525431224584
 30
0.0
 11
135.368253864267
 21
19.525431224584
 31
0.0
  0
LINE
  5
29F8
330
29F4
100
AcDbEntity
  8
図枠細線
  6
Continuous
 62
   252
100
AcDbLine
 10
78.368253864267
 20
27.025431224584
 30
0.0
 11
135.368253864267
 21
27.025431224584
 31
0.0
  0
TEXT
  5
29F9
330
29F4
100
AcDbEntity
  8
図枠ロゴマーク
  6
Continuous
 62
   253
100
AcDbText
 10
80.617009864267
 20
11.117825224584
 30
0.0
 40
7.0
  1
東和制電工業株式会社
 41
0.639204545455
  7
EXCADSTD
 72
     5
 11
133.117009864267
 21
11.117825224584
 31
0.0
100
AcDbText
  0
TEXT
  5
29FA
330
29F4
100
AcDbEntity
  8
図枠細線
  6
Continuous
 62
   252
100
AcDbText
 10
80.579549864267
 20
6.172924224584
 30
0.0
 40
3.5
  1
ＴＯＷＡ　ＳＥＩＤＥＮ　ＩＮＤＵＳＴＲＩＡＬ　ＣＯ．，ＬＴＤ．
 41
0.414568012377
  7
EXCADSTD
 72
     5
 11
133.202049568628
 21
6.172924224584
 31
0.0
100
AcDbText
  0
LINE
  5
29FB
330
29F4
100
AcDbEntity
  8
図枠太線
  6
Continuous
 62
   251
100
AcDbLine
 10
2.368253864267
 20
4.525433224584
 30
0.0
 11
2.368253864267
 21
34.525431224584
 31
0.0
  0
TEXT
  5
29FC
330
29F4
100
AcDbEntity
  8
図枠細線
  6
Continuous
 62
   252
100
AcDbText
 10
22.504308136501
 20
12.279133224584
 30
0.0
 40
2.0
  1
ＴＨＩＲＤ　ＡＮＧＬＥ
 41
0.691099486738
  7
EXCADSTD
 72
     5
 11
40.104308398762
 21
12.279133224584
 31
0.0
100
AcDbText
  0
TEXT
  5
29FD
330
29F4
100
AcDbEntity
  8
図枠細線
  6
Continuous
 62
   252
100
AcDbText
 10
22.429384136501
 20
9.357144224584
 30
0.0
 40
2.0
  1
ＰＲＯＪＥＣＴＩＯＮ
 41
0.754285710199
  7
EXCADSTD
 72
     5
 11
40.029384041134
 21
9.357144224584
 31
0.0
100
AcDbText
  0
LINE
  5
29FE
330
29F4
100
AcDbEntity
  8
図枠細線
  6
Continuous
100
AcDbLine
 10
22.368253864267
 20
19.525433224584
 30
0.0
 11
78.368253864267
 21
19.525431224584
 31
0.0
  0
TEXT
  5
29FF
330
29F4
100
AcDbEntity
  8
図枠細線
  6
Continuous
 62
   252
100
AcDbText
 10
22.868253864267
 20
17.025433224584
 30
0.0
 40
2.0
  1
第三角法
 41
1.102941176471
  7
EXCADSTD
 72
     5
 11
32.868253864267
 21
17.025433224584
 31
0.0
100
AcDbText
  0
TEXT
  5
2A00
330
29F4
100
AcDbEntity
  8
図枠細線
  6
Continuous
 62
   252
100
AcDbText
 10
22.868253864267
 20
29.525433224584
 30
0.0
 40
2.0
  1
ＡＰＰＲＯＶＥＤ
 41
0.695652184279
  7
EXCADSTD
 72
     5
 11
35.668254055002
 21
29.525433224584
 31
0.0
100
AcDbText
  0
LINE
  5
2A01
330
29F4
100
AcDbEntity
  8
図枠細線
  6
Continuous
 62
   252
100
AcDbLine
 10
2.368253864267
 20
9.525433224584
 30
0.0
 11
22.368253864267
 21
9.525433224584
 31
0.0
  0
LINE
  5
2A02
330
29F4
100
AcDbEntity
  8
図枠細線
  6
Continuous
 62
   252
100
AcDbLine
 10
2.368253864267
 20
14.525431224584
 30
0.0
 11
22.368253864267
 21
14.525431224584
 31
0.0
  0
LINE
  5
2A03
330
29F4
100
AcDbEntity
  8
図枠細線
  6
Continuous
 62
   252
100
AcDbLine
 10
2.368253864267
 20
24.525431224584
 30
0.0
 11
22.368253864267
 21
24.525431224584
 31
0.0
  0
LINE
  5
2A04
330
29F4
100
AcDbEntity
  8
図枠細線
  6
Continuous
 62
   252
100
AcDbLine
 10
2.368253864267
 20
29.525431224584
 30
0.0
 11
22.368253864267
 21
29.525431224584
 31
0.0
  0
LINE
  5
2A05
330
29F4
100
AcDbEntity
  8
図枠細線
  6
Continuous
100
AcDbLine
 10
2.368253864267
 20
19.525433224584
 30
0.0
 11
22.368253864267
 21
19.525433224584
 31
0.0
  0
TEXT
  5
2A06
330
29F4
100
AcDbEntity
  8
図枠細線
  6
Continuous
 62
   252
100
AcDbText
 10
2.868253864267
 20
32.025433224584
 30
0.0
 40
2.0
  1
ＮＯＴＥ
 41
0.923076923077
  7
EXCADSTD
 72
     5
 11
10.868253864267
 21
32.025433224584
 31
0.0
100
AcDbText
  0
LINE
  5
2A07
330
29F4
100
AcDbEntity
  8
図枠太線
  6
Continuous
 62
   251
100
AcDbLine
 10
22.368253864267
 20
4.525433224584
 30
0.0
 11
22.368253864267
 21
34.525431224584
 31
0.0
  0
TEXT
  5
2A08
330
29F4
100
AcDbEntity
  8
図枠細線
  6
Continuous
 62
   252
100
AcDbText
 10
22.868253864267
 20
32.025433224584
 30
0.0
 40
2.0
  1
承認
 41
1.171875
  7
EXCADSTD
 72
     5
 11
27.868253864267
 21
32.025433224584
 31
0.0
100
AcDbText
  0
TEXT
  5
2A09
330
29F4
100
AcDbEntity
  8
図枠細線
  6
Continuous
 62
   252
100
AcDbText
 10
60.711709035982
 20
32.025433224584
 30
0.0
 40
2.0
  1
製図
 41
1.209677419355
  7
EXCADSTD
 72
     5
 11
65.711709035982
 21
32.025433224584
 31
0.0
100
AcDbText
  0
TEXT
  5
2A0A
330
29F4
100
AcDbEntity
  8
図枠細線
  6
Continuous
 62
   252
100
AcDbText
 10
60.711709035982
 20
29.525433224584
 30
0.0
 40
2.0
  1
ＤＲＡＷＮ
 41
0.882352941176
  7
EXCADSTD
 72
     5
 11
70.711709035982
 21
29.525433224584
 31
0.0
100
AcDbText
  0
TEXT
  5
2A0B
330
29F4
100
AcDbEntity
  8
図枠細線
  6
Continuous
 62
   252
100
AcDbText
 10
60.834891743877
 20
17.025433224584
 30
0.0
 40
2.0
  1
日付
 41
1.171875
  7
EXCADSTD
 72
     5
 11
65.834891743877
 21
17.025433224584
 31
0.0
100
AcDbText
  0
TEXT
  5
2A0C
330
29F4
100
AcDbEntity
  8
図枠細線
  6
Continuous
 62
   252
100
AcDbText
 10
47.333660864267
 20
17.025433224584
 30
0.0
 40
2.0
  1
ＳＣＡＬＥ
 41
0.903614457831
  7
EXCADSTD
 72
     5
 11
57.333660864267
 21
17.025433224584
 31
0.0
100
AcDbText
  0
TEXT
  5
2A0D
330
29F4
100
AcDbEntity
  8
図枠細線
  6
Continuous
 62
   252
100
AcDbText
 10
42.281425990082
 20
29.525433224584
 30
0.0
 40
2.0
  1
ＣＨＥＣＫＥＤ
 41
0.831249989569
  7
EXCADSTD
 72
     5
 11
55.581425823189
 21
29.525433224584
 31
0.0
100
AcDbText
  0
LINE
  5
2A0E
330
29F4
100
AcDbEntity
  8
図枠細線
  6
Continuous
 62
   252
100
AcDbLine
 10
40.968253864267
 20
34.525431224584
 30
0.0
 11
40.968253864267
 21
19.525431224584
 31
0.0
  0
LINE
  5
2A0F
330
29F4
100
AcDbEntity
  8
図枠細線
  6
Continuous
 62
   252
100
AcDbLine
 10
40.968253864267
 20
4.525433224584
 30
0.0
 11
40.968253864267
 21
19.525431224584
 31
0.0
  0
TEXT
  5
2A10
330
29F4
100
AcDbEntity
  8
図枠細線
  6
Continuous
 62
   252
100
AcDbText
 10
41.961173864267
 20
17.025433224584
 30
0.0
 40
2.0
  1
尺度
 41
1.171875
  7
EXCADSTD
 72
     5
 11
46.961173864267
 21
17.025433224584
 31
0.0
100
AcDbText
  0
TEXT
  5
2A11
330
29F4
100
AcDbEntity
  8
図枠細線
  6
Continuous
 62
   252
100
AcDbText
 10
42.281425990082
 20
32.025433224584
 30
0.0
 40
2.0
  1
検図
 41
1.209677419355
  7
EXCADSTD
 72
     5
 11
47.281425990082
 21
32.025433224584
 31
0.0
100
AcDbText
  0
LINE
  5
2A12
330
29F4
100
AcDbEntity
  8
図枠細線
  6
Continuous
 62
   252
100
AcDbLine
 10
59.768253864267
 20
34.525431224584
 30
0.0
 11
59.768253864267
 21
19.525431224584
 31
0.0
  0
LINE
  5
2A13
330
29F4
100
AcDbEntity
  8
図枠細線
  6
Continuous
 62
   252
100
AcDbLine
 10
59.768253864267
 20
4.525433224584
 30
0.0
 11
59.768253864267
 21
19.525431224584
 31
0.0
  0
LINE
  5
2A14
330
29F4
100
AcDbEntity
  8
図枠太線
  6
Continuous
 62
   251
100
AcDbLine
 10
78.368253864267
 20
4.525433224584
 30
0.0
 11
78.368253864267
 21
34.525431224584
 31
0.0
  0
TEXT
  5
2A15
330
29F4
100
AcDbEntity
  8
図枠細線
  6
Continuous
 62
   252
100
AcDbText
 10
66.334891743877
 20
17.025433224584
 30
0.0
 40
2.0
  1
ＤＡＴＥ
 41
0.923076923077
  7
EXCADSTD
 72
     5
 11
74.334891743877
 21
17.025433224584
 31
0.0
100
AcDbText
  0
LINE
  5
2A16
330
29F4
100
AcDbEntity
  8
図枠細線
  6
Continuous
 62
   252
100
AcDbLine
 10
135.368253864267
 20
19.525431224584
 30
0.0
 11
192.368245864267
 21
19.525431224584
 31
0.0
  0
TEXT
  5
2A17
330
29F4
100
AcDbEntity
  8
図枠細線
  6
Continuous
 62
   252
100
AcDbText
 10
141.868253864267
 20
32.025433224584
 30
0.0
 40
2.0
  1
ＴＩＴＬＥ
 41
0.903614457831
  7
EXCADSTD
 72
     5
 11
151.868253864267
 21
32.025433224584
 31
0.0
100
AcDbText
  0
LINE
  5
2A18
330
29F4
100
AcDbEntity
  8
図枠太線
  6
Continuous
 62
   251
100
AcDbLine
 10
135.368253864267
 20
4.525433224584
 30
0.0
 11
135.368253864267
 21
34.525431224584
 31
0.0
  0
TEXT
  5
2A19
330
29F4
100
AcDbEntity
  8
図枠細線
  6
Continuous
 62
   252
100
AcDbText
 10
135.868253864267
 20
17.025433224584
 30
0.0
 40
2.0
  1
図面番号
 41
1.102941176471
  7
EXCADSTD
 72
     5
 11
145.868253864267
 21
17.025433224584
 31
0.0
100
AcDbText
  0
TEXT
  5
2A1A
330
29F4
100
AcDbEntity
  8
図枠細線
  6
Continuous
 62
   252
100
AcDbText
 10
135.868253864267
 20
32.025433224584
 30
0.0
 40
2.0
  1
名称
 41
1.171875
  7
EXCADSTD
 72
     5
 11
140.868253864267
 21
32.025433224584
 31
0.0
100
AcDbText
  0
TEXT
  5
2A1B
330
29F4
100
AcDbEntity
  8
図枠細線
  6
Continuous
 62
   252
100
AcDbText
 10
146.868253864267
 20
17.025433224584
 30
0.0
 40
2.0
  1
ＤＲＧ．ＮＯ．
 41
0.9375
  7
EXCADSTD
 72
     5
 11
160.868253864267
 21
17.025433224584
 31
0.0
100
AcDbText
  0
LINE
  5
2A1C
330
29F4
100
AcDbEntity
  8
図枠太線
  6
Continuous
 62
   251
100
AcDbLine
 10
192.368245864267
 20
4.525433224584
 30
0.0
 11
192.368245864267
 21
34.525431224584
 31
0.0
  0
ENDBLK
  5
2A1D
330
29F4
100
AcDbEntity
  8
0
100
AcDbBlockEnd
  0
BLOCK
  5
2AEF
330
2AEB
100
AcDbEntity
  8
0
 48
10.0
100
AcDbBlockBegin
  2
_Open30
 70
     0
 10
0.0
 20
0.0
 30
0.0
  3
_Open30
  1
_Open30
  0
LINE
  5
2AEC
330
2AEB
100
AcDbEntity
  8
0
  6
ByBlock
 62
     0
370
    -2
100
AcDbLine
 10
-1.0
 20
0.26794919
 30
0.0
 11
0.0
 21
0.0
 31
0.0
  0
LINE
  5
2AED
330
2AEB
100
AcDbEntity
  8
0
  6
ByBlock
 62
     0
370
    -2
100
AcDbLine
 10
0.0
 20
0.0
 30
0.0
 11
-1.0
 21
-0.26794919
 31
0.0
  0
LINE
  5
2AEE
330
2AEB
100
AcDbEntity
  8
0
  6
ByBlock
 62
     0
370
    -2
100
AcDbLine
 10
0.0
 20
0.0
 30
0.0
 11
-1.0
 21
0.0
 31
0.0
  0
ENDBLK
  5
2AF0
330
2AEB
100
AcDbEntity
  8
0
 48
10.0
100
AcDbBlockEnd
  0
BLOCK
  5
395E
330
3954
100
AcDbEntity
  8
0
 48
10.0
100
AcDbBlockBegin
  2
*D14
 70
     1
 10
0.0
 20
0.0
 30
0.0
  3
*D14
  1
*D14
  0
LINE
  5
3A97
330
3954
100
AcDbEntity
  8
寸法線
 62
     0
 48
10.0
370
    -2
100
AcDbLine
 10
1079.359517882532
 20
185.478202159295
 30
0.0
 11
1126.008267048923
 21
185.478202159295
 31
0.0
  0
LINE
  5
3A98
330
3954
100
AcDbEntity
  8
寸法線
 62
     0
 48
10.0
370
    -2
100
AcDbLine
 10
1080.662078388873
 20
200.478202159295
 30
0.0
 11
1126.008267048923
 21
200.478202159295
 31
0.0
  0
LINE
  5
3A99
330
3954
100
AcDbEntity
  8
寸法線
 62
     0
 48
10.0
370
    -2
100
AcDbLine
 10
1124.758267048923
 20
191.478202159295
 30
0.0
 11
1124.758267048923
 21
194.478202159295
 31
0.0
  0
INSERT
  5
3A9A
330
3954
100
AcDbEntity
  8
寸法線
 62
     0
 48
10.0
370
    -2
100
AcDbBlockReference
  2
_Open30
 10
1124.758267048923
 20
185.478202159295
 30
0.0
 41
6.0
 42
6.0
 43
6.0
 50
270.0
  0
INSERT
  5
3A9B
330
3954
100
AcDbEntity
  8
寸法線
 62
     0
 48
10.0
370
    -2
100
AcDbBlockReference
  2
_Open30
 10
1124.758267048923
 20
200.478202159295
 30
0.0
 41
6.0
 42
6.0
 43
6.0
 50
90.0
  0
MTEXT
  5
3A9C
330
3954
100
AcDbEntity
  8
寸法線
 62
     0
 48
10.0
100
AcDbMText
 10
1120.133267048923
 20
192.978202159295
 30
0.0
 40
8.0
 41
0.0
 71
     5
 72
     1
  1
\A1;15
 11
6.123031769111886E-17
 21
1.0
 31
0.0
 73
     1
 44
1.0
  0
POINT
  5
3A9D
330
3954
100
AcDbEntity
  8
DEFPOINTS
 62
     0
 48
10.0
100
AcDbPoint
 10
1078.734517882532
 20
185.478202159295
 30
0.0
  0
POINT
  5
3A9E
330
3954
100
AcDbEntity
  8
DEFPOINTS
 62
     0
 48
10.0
100
AcDbPoint
 10
1080.037078388873
 20
200.478202159295
 30
0.0
  0
POINT
  5
3A9F
330
3954
100
AcDbEntity
  8
DEFPOINTS
 62
     0
 48
10.0
100
AcDbPoint
 10
1124.758267048923
 20
200.478202159295
 30
0.0
  0
ENDBLK
  5
395F
330
3954
100
AcDbEntity
  8
0
 48
10.0
100
AcDbBlockEnd
  0
BLOCK
  5
396A
330
3960
100
AcDbEntity
  8
0
 48
10.0
100
AcDbBlockBegin
  2
*D15
 70
     1
 10
0.0
 20
0.0
 30
0.0
  3
*D15
  1
*D15
  0
LINE
  5
3A8E
330
3960
100
AcDbEntity
  8
寸法線
 62
     0
 48
10.0
370
    -2
100
AcDbLine
 10
1082.398821114746
 20
200.478202159295
 30
0.0
 11
1146.415025235352
 21
200.478202159295
 31
0.0
  0
LINE
  5
3A8F
330
3960
100
AcDbEntity
  8
寸法線
 62
     0
 48
10.0
370
    -2
100
AcDbLine
 10
1077.62277515666
 20
140.478202159295
 30
0.0
 11
1146.415025235352
 21
140.478202159295
 31
0.0
  0
LINE
  5
3A90
330
3960
100
AcDbEntity
  8
寸法線
 62
     0
 48
10.0
370
    -2
100
AcDbLine
 10
1145.165025235352
 20
194.478202159295
 30
0.0
 11
1145.165025235352
 21
146.478202159295
 31
0.0
  0
INSERT
  5
3A91
330
3960
100
AcDbEntity
  8
寸法線
 62
     0
 48
10.0
370
    -2
100
AcDbBlockReference
  2
_Open30
 10
1145.165025235352
 20
200.478202159295
 30
0.0
 41
6.0
 42
6.0
 43
6.0
 50
90.0
  0
INSERT
  5
3A92
330
3960
100
AcDbEntity
  8
寸法線
 62
     0
 48
10.0
370
    -2
100
AcDbBlockReference
  2
_Open30
 10
1145.165025235352
 20
140.478202159295
 30
0.0
 41
6.0
 42
6.0
 43
6.0
 50
270.0
  0
MTEXT
  5
3A93
330
3960
100
AcDbEntity
  8
寸法線
 62
     0
 48
10.0
100
AcDbMText
 10
1140.540025235352
 20
170.478202159295
 30
0.0
 40
8.0
 41
0.0
 71
     5
 72
     1
  1
\A1;60
 11
6.123031769111886E-17
 21
1.0
 31
0.0
 73
     1
 44
1.0
  0
POINT
  5
3A94
330
3960
100
AcDbEntity
  8
DEFPOINTS
 62
     0
 48
10.0
100
AcDbPoint
 10
1081.773821114746
 20
200.478202159295
 30
0.0
  0
POINT
  5
3A95
330
3960
100
AcDbEntity
  8
DEFPOINTS
 62
     0
 48
10.0
100
AcDbPoint
 10
1076.99777515666
 20
140.478202159295
 30
0.0
  0
POINT
  5
3A96
330
3960
100
AcDbEntity
  8
DEFPOINTS
 62
     0
 48
10.0
100
AcDbPoint
 10
1145.165025235352
 20
140.478202159295
 30
0.0
  0
ENDBLK
  5
396B
330
3960
100
AcDbEntity
  8
0
 48
10.0
100
AcDbBlockEnd
  0
BLOCK
  5
3976
330
396C
100
AcDbEntity
  8
0
 48
10.0
100
AcDbBlockBegin
  2
*D16
 70
     1
 10
0.0
 20
0.0
 30
0.0
  3
*D16
  1
*D16
  0
LINE
  5
3A85
330
396C
100
AcDbEntity
  8
寸法線
 62
     0
 48
10.0
370
    -2
100
AcDbLine
 10
1020.514089923721
 20
139.853202159295
 30
0.0
 11
1020.514089923721
 21
114.99097057995
 31
0.0
  0
LINE
  5
3A86
330
396C
100
AcDbEntity
  8
寸法線
 62
     0
 48
10.0
370
    -2
100
AcDbLine
 10
1074.514089923721
 20
139.853202159295
 30
0.0
 11
1074.514089923721
 21
114.99097057995
 31
0.0
  0
LINE
  5
3A87
330
396C
100
AcDbEntity
  8
寸法線
 62
     0
 48
10.0
370
    -2
100
AcDbLine
 10
1026.514089923721
 20
116.24097057995
 30
0.0
 11
1068.514089923721
 21
116.24097057995
 31
0.0
  0
INSERT
  5
3A88
330
396C
100
AcDbEntity
  8
寸法線
 62
     0
 48
10.0
370
    -2
100
AcDbBlockReference
  2
_Open30
 10
1020.514089923721
 20
116.24097057995
 30
0.0
 41
6.0
 42
6.0
 43
6.0
 50
180.0
  0
INSERT
  5
3A89
330
396C
100
AcDbEntity
  8
寸法線
 62
     0
 48
10.0
370
    -2
100
AcDbBlockReference
  2
_Open30
 10
1074.514089923721
 20
116.24097057995
 30
0.0
 41
6.0
 42
6.0
 43
6.0
  0
MTEXT
  5
3A8A
330
396C
100
AcDbEntity
  8
寸法線
 62
     0
 48
10.0
100
AcDbMText
 10
1047.514089923721
 20
120.86597057995
 30
0.0
 40
8.0
 41
0.0
 71
     5
 72
     1
  1
\A1;φ54
 73
     1
 44
1.0
  0
POINT
  5
3A8B
330
396C
100
AcDbEntity
  8
DEFPOINTS
 62
     0
 48
10.0
100
AcDbPoint
 10
1020.514089923721
 20
140.478202159295
 30
0.0
  0
POINT
  5
3A8C
330
396C
100
AcDbEntity
  8
DEFPOINTS
 62
     0
 48
10.0
100
AcDbPoint
 10
1074.514089923721
 20
140.478202159295
 30
0.0
  0
POINT
  5
3A8D
330
396C
100
AcDbEntity
  8
DEFPOINTS
 62
     0
 48
10.0
100
AcDbPoint
 10
1074.514089923721
 20
116.24097057995
 30
0.0
  0
ENDBLK
  5
3977
330
396C
100
AcDbEntity
  8
0
 48
10.0
100
AcDbBlockEnd
  0
BLOCK
  5
3982
330
3978
100
AcDbEntity
  8
0
 48
10.0
100
AcDbBlockBegin
  2
*D17
 70
     1
 10
0.0
 20
0.0
 30
0.0
  3
*D17
  1
*D17
  0
LINE
  5
3A7C
330
3978
100
AcDbEntity
  8
寸法線
 62
     0
 48
10.0
370
    -2
100
AcDbLine
 10
1047.514089923724
 20
323.518925361773
 30
0.0
 11
1047.514089923724
 21
345.316259458591
 31
0.0
  0
LINE
  5
3A7D
330
3978
100
AcDbEntity
  8
寸法線
 62
     0
 48
10.0
370
    -2
100
AcDbLine
 10
958.514089923724
 20
280.946363327284
 30
0.0
 11
958.514089923724
 21
345.316259458591
 31
0.0
  0
LINE
  5
3A7E
330
3978
100
AcDbEntity
  8
寸法線
 62
     0
 48
10.0
370
    -2
100
AcDbLine
 10
1041.514089923724
 20
344.066259458591
 30
0.0
 11
964.514089923724
 21
344.066259458591
 31
0.0
  0
INSERT
  5
3A7F
330
3978
100
AcDbEntity
  8
寸法線
 62
     0
 48
10.0
370
    -2
100
AcDbBlockReference
  2
_Open30
 10
1047.514089923724
 20
344.066259458591
 30
0.0
 41
6.0
 42
6.0
 43
6.0
  0
INSERT
  5
3A80
330
3978
100
AcDbEntity
  8
寸法線
 62
     0
 48
10.0
370
    -2
100
AcDbBlockReference
  2
_Open30
 10
958.514089923724
 20
344.066259458591
 30
0.0
 41
6.0
 42
6.0
 43
6.0
 50
180.0
  0
MTEXT
  5
3A81
330
3978
100
AcDbEntity
  8
寸法線
 62
     0
 48
10.0
100
AcDbMText
 10
1003.014089923724
 20
348.691259458591
 30
0.0
 40
8.0
 41
0.0
 71
     5
 72
     1
  1
\A1;84
 73
     1
 44
1.0
  0
POINT
  5
3A82
330
3978
100
AcDbEntity
  8
DEFPOINTS
 62
     0
 48
10.0
100
AcDbPoint
 10
1047.514089923724
 20
322.893925361773
 30
0.0
  0
POINT
  5
3A83
330
3978
100
AcDbEntity
  8
DEFPOINTS
 62
     0
 48
10.0
100
AcDbPoint
 10
958.514089923724
 20
280.321363327284
 30
0.0
  0
POINT
  5
3A84
330
3978
100
AcDbEntity
  8
DEFPOINTS
 62
     0
 48
10.0
100
AcDbPoint
 10
958.514089923724
 20
344.066259458591
 30
0.0
  0
ENDBLK
  5
3983
330
3978
100
AcDbEntity
  8
0
 48
10.0
100
AcDbBlockEnd
  0
BLOCK
  5
398E
330
3984
100
AcDbEntity
  8
0
 48
10.0
100
AcDbBlockBegin
  2
*D18
 70
     1
 10
0.0
 20
0.0
 30
0.0
  3
*D18
  1
*D18
  0
LINE
  5
3A73
330
3984
100
AcDbEntity
  8
寸法線
 62
     0
 48
10.0
370
    -2
100
AcDbLine
 10
1092.440783990968
 20
322.894678866278
 30
0.0
 11
1146.415025235352
 21
322.894678866278
 31
0.0
  0
LINE
  5
3A74
330
3984
100
AcDbEntity
  8
寸法線
 62
     0
 48
10.0
370
    -2
100
AcDbLine
 10
1080.889089923724
 20
221.778202159295
 30
0.0
 11
1146.415025235352
 21
221.778202159295
 31
0.0
  0
LINE
  5
3A75
330
3984
100
AcDbEntity
  8
寸法線
 62
     0
 48
10.0
370
    -2
100
AcDbLine
 10
1145.165025235352
 20
316.894678866278
 30
0.0
 11
1145.165025235352
 21
227.778202159295
 31
0.0
  0
INSERT
  5
3A76
330
3984
100
AcDbEntity
  8
寸法線
 62
     0
 48
10.0
370
    -2
100
AcDbBlockReference
  2
_Open30
 10
1145.165025235352
 20
322.894678866278
 30
0.0
 41
6.0
 42
6.0
 43
6.0
 50
90.0
  0
INSERT
  5
3A77
330
3984
100
AcDbEntity
  8
寸法線
 62
     0
 48
10.0
370
    -2
100
AcDbBlockReference
  2
_Open30
 10
1145.165025235352
 20
221.778202159295
 30
0.0
 41
6.0
 42
6.0
 43
6.0
 50
270.0
  0
MTEXT
  5
3A78
330
3984
100
AcDbEntity
  8
寸法線
 62
     0
 48
10.0
100
AcDbMText
 10
1140.540025235352
 20
272.336440512787
 30
0.0
 40
8.0
 41
0.0
 71
     5
 72
     1
  1
\A1;100
 11
6.123031769111886E-17
 21
1.0
 31
0.0
 73
     1
 44
1.0
  0
POINT
  5
3A79
330
3984
100
AcDbEntity
  8
DEFPOINTS
 62
     0
 48
10.0
100
AcDbPoint
 10
1091.815783990968
 20
322.894678866278
 30
0.0
  0
POINT
  5
3A7A
330
3984
100
AcDbEntity
  8
DEFPOINTS
 62
     0
 48
10.0
100
AcDbPoint
 10
1080.264089923724
 20
221.778202159295
 30
0.0
  0
POINT
  5
3A7B
330
3984
100
AcDbEntity
  8
DEFPOINTS
 62
     0
 48
10.0
100
AcDbPoint
 10
1145.165025235352
 20
221.778202159295
 30
0.0
  0
ENDBLK
  5
398F
330
3984
100
AcDbEntity
  8
0
 48
10.0
100
AcDbBlockEnd
  0
ENDSEC
  0
SECTION
  2
ENTITIES
  0
MTEXT
  5
385A
330
1A
100
AcDbEntity
  8
寸法線
 48
10.0
100
AcDbMText
 10
1044.175473246283
 20
64.776127957469
 30
0.0
 40
13.0
 41
108.531174991122
 71
     5
 72
     1
  1
1{\H0.6154x;  }2{\H0.6154x;  }3{\H0.6154x;  }4{\H0.6154x;  }5{\H0.6154x;  }6
 73
     1
 44
1.0
  0
CIRCLE
  5
385B
330
1A
100
AcDbEntity
  8
外形線
 48
10.0
100
AcDbCircle
 10
1000.566576312752
 20
19.332205305952
 30
0.0
 40
4.8
  0
LINE
  5
385C
330
1A
100
AcDbEntity
  8
外形線
 48
10.0
100
AcDbLine
 10
1004.589109149587
 20
16.713192213853
 30
0.0
 11
997.947563220654
 21
23.354738142787
 31
0.0
  0
LINE
  5
385D
330
1A
100
AcDbEntity
  8
外形線
 48
10.0
100
AcDbLine
 10
1003.185589404852
 20
15.309672469117
 30
0.0
 11
996.544043475918
 21
21.951218398051
 31
0.0
  0
CIRCLE
  5
385E
330
1A
100
AcDbEntity
  8
外形線
 48
10.0
100
AcDbCircle
 10
1000.566576312753
 20
40.559389122444
 30
0.0
 40
2.8
  0
CIRCLE
  5
385F
330
1A
100
AcDbEntity
  8
細線
 48
10.0
100
AcDbCircle
 10
1000.566576312753
 20
40.559389122444
 30
0.0
 40
2.0
  0
LINE
  5
3860
330
1A
100
AcDbEntity
  8
外形線
 48
10.0
100
AcDbLine
 10
994.366576312753
 20
52.559389122444
 30
0.0
 11
994.366576312753
 21
28.559389122444
 31
0.0
  0
LINE
  5
3861
330
1A
100
AcDbEntity
  8
外形線
 48
10.0
100
AcDbLine
 10
991.566576312753
 20
52.559389122444
 30
0.0
 11
991.566576312753
 21
4.559389122444
 31
0.0
  0
CIRCLE
  5
3862
330
1A
100
AcDbEntity
  8
細線
 48
10.0
100
AcDbCircle
 10
1090.566576312753
 20
40.559389122444
 30
0.0
 40
2.0
  0
CIRCLE
  5
3863
330
1A
100
AcDbEntity
  8
外形線
 48
10.0
100
AcDbCircle
 10
1090.566576312753
 20
40.559389122444
 30
0.0
 40
2.8
  0
LINE
  5
3864
330
1A
100
AcDbEntity
  8
外形線
 48
10.0
100
AcDbLine
 10
1087.947563220654
 20
15.309672469117
 30
0.0
 11
1094.589109149588
 21
21.951218398051
 31
0.0
  0
LINE
  5
3865
330
1A
100
AcDbEntity
  8
外形線
 48
10.0
100
AcDbLine
 10
1086.544043475918
 20
16.713192213852
 30
0.0
 11
1093.185589404852
 21
23.354738142786
 31
0.0
  0
CIRCLE
  5
3866
330
1A
100
AcDbEntity
  8
外形線
 48
10.0
100
AcDbCircle
 10
1090.566576312753
 20
19.332205305952
 30
0.0
 40
4.8
  0
LINE
  5
3867
330
1A
100
AcDbEntity
  8
外形線
 48
10.0
100
AcDbLine
 10
1096.766576312753
 20
52.559389122444
 30
0.0
 11
1096.766576312753
 21
28.559389122444
 31
0.0
  0
LINE
  5
3868
330
1A
100
AcDbEntity
  8
外形線
 48
10.0
100
AcDbLine
 10
1099.566576312753
 20
52.559389122444
 30
0.0
 11
1099.566576312753
 21
4.559389122444
 31
0.0
  0
LINE
  5
3869
330
1A
100
AcDbEntity
  8
外形線
 48
10.0
100
AcDbLine
 10
991.566576312753
 20
4.559389122444
 30
0.0
 11
1099.566576312753
 21
4.559389122444
 31
0.0
  0
LINE
  5
386A
330
1A
100
AcDbEntity
  8
外形線
 48
10.0
100
AcDbLine
 10
1045.566576312753
 20
4.559389122444
 30
0.0
 11
1045.566576312753
 21
52.559389122444
 31
0.0
  0
LINE
  5
386B
330
1A
100
AcDbEntity
  8
外形線
 48
10.0
100
AcDbLine
 10
991.566576312753
 20
52.559389122444
 30
0.0
 11
1099.566576312753
 21
52.559389122444
 31
0.0
  0
LINE
  5
386C
330
1A
100
AcDbEntity
  8
外形線
 48
10.0
100
AcDbLine
 10
991.566576312753
 20
28.559389122444
 30
0.0
 11
1099.566576312753
 21
28.559389122444
 31
0.0
  0
LINE
  5
386D
330
1A
100
AcDbEntity
  8
外形線
 48
10.0
100
AcDbLine
 10
991.566576312753
 20
10.159389122444
 30
0.0
 11
1099.566576312753
 21
10.159389122444
 31
0.0
  0
LINE
  5
386E
330
1A
100
AcDbEntity
  8
外形線
 48
10.0
100
AcDbLine
 10
1042.766576312753
 20
52.559389122444
 30
0.0
 11
1042.766576312753
 21
28.559389122444
 31
0.0
  0
LINE
  5
386F
330
1A
100
AcDbEntity
  8
外形線
 48
10.0
100
AcDbLine
 10
1048.366576312753
 20
52.559389122444
 30
0.0
 11
1048.366576312753
 21
28.559389122444
 31
0.0
  0
CIRCLE
  5
3870
330
1A
100
AcDbEntity
  8
細線
 48
10.0
100
AcDbCircle
 10
1018.566576312753
 20
40.559389122444
 30
0.0
 40
2.0
  0
CIRCLE
  5
3871
330
1A
100
AcDbEntity
  8
細線
 48
10.0
100
AcDbCircle
 10
1036.566576312753
 20
40.559389122444
 30
0.0
 40
2.0
  0
CIRCLE
  5
3872
330
1A
100
AcDbEntity
  8
細線
 48
10.0
100
AcDbCircle
 10
1072.566576312753
 20
40.559389122444
 30
0.0
 40
2.0
  0
CIRCLE
  5
3873
330
1A
100
AcDbEntity
  8
細線
 48
10.0
100
AcDbCircle
 10
1054.566576312753
 20
40.559389122444
 30
0.0
 40
2.0
  0
CIRCLE
  5
3874
330
1A
100
AcDbEntity
  8
外形線
 48
10.0
100
AcDbCircle
 10
1018.566576312753
 20
40.559389122444
 30
0.0
 40
2.8
  0
CIRCLE
  5
3875
330
1A
100
AcDbEntity
  8
外形線
 48
10.0
100
AcDbCircle
 10
1036.566576312753
 20
40.559389122444
 30
0.0
 40
2.8
  0
CIRCLE
  5
3876
330
1A
100
AcDbEntity
  8
外形線
 48
10.0
100
AcDbCircle
 10
1072.566576312753
 20
40.559389122444
 30
0.0
 40
2.8
  0
CIRCLE
  5
3877
330
1A
100
AcDbEntity
  8
外形線
 48
10.0
100
AcDbCircle
 10
1054.566576312753
 20
40.559389122444
 30
0.0
 40
2.8
  0
LINE
  5
3878
330
1A
100
AcDbEntity
  8
下書線
 48
10.0
100
AcDbLine
 10
1000.566576312753
 20
40.559389122444
 30
0.0
 11
1090.566576312753
 21
40.559389122444
 31
0.0
  0
CIRCLE
  5
3879
330
1A
100
AcDbEntity
  8
外形線
 48
10.0
100
AcDbCircle
 10
1072.566576312753
 20
19.332205305952
 30
0.0
 40
4.8
  0
LINE
  5
387A
330
1A
100
AcDbEntity
  8
外形線
 48
10.0
100
AcDbLine
 10
1068.544043475918
 20
16.713192213852
 30
0.0
 11
1075.185589404852
 21
23.354738142786
 31
0.0
  0
LINE
  5
387B
330
1A
100
AcDbEntity
  8
外形線
 48
10.0
100
AcDbLine
 10
1069.947563220654
 20
15.309672469117
 30
0.0
 11
1076.589109149588
 21
21.951218398051
 31
0.0
  0
LINE
  5
387C
330
1A
100
AcDbEntity
  8
外形線
 48
10.0
100
AcDbLine
 10
1051.947563220654
 20
15.309672469117
 30
0.0
 11
1058.589109149588
 21
21.951218398051
 31
0.0
  0
LINE
  5
387D
330
1A
100
AcDbEntity
  8
外形線
 48
10.0
100
AcDbLine
 10
1050.544043475918
 20
16.713192213852
 30
0.0
 11
1057.185589404852
 21
23.354738142786
 31
0.0
  0
CIRCLE
  5
387E
330
1A
100
AcDbEntity
  8
外形線
 48
10.0
100
AcDbCircle
 10
1054.566576312753
 20
19.332205305952
 30
0.0
 40
4.8
  0
CIRCLE
  5
387F
330
1A
100
AcDbEntity
  8
外形線
 48
10.0
100
AcDbCircle
 10
1036.566576312752
 20
19.332205305952
 30
0.0
 40
4.8
  0
LINE
  5
3880
330
1A
100
AcDbEntity
  8
外形線
 48
10.0
100
AcDbLine
 10
1040.589109149587
 20
16.713192213852
 30
0.0
 11
1033.947563220654
 21
23.354738142786
 31
0.0
  0
LINE
  5
3881
330
1A
100
AcDbEntity
  8
外形線
 48
10.0
100
AcDbLine
 10
1039.185589404852
 20
15.309672469117
 30
0.0
 11
1032.544043475918
 21
21.951218398051
 31
0.0
  0
LINE
  5
3882
330
1A
100
AcDbEntity
  8
外形線
 48
10.0
100
AcDbLine
 10
1021.185589404852
 20
15.309672469117
 30
0.0
 11
1014.544043475918
 21
21.951218398051
 31
0.0
  0
LINE
  5
3883
330
1A
100
AcDbEntity
  8
外形線
 48
10.0
100
AcDbLine
 10
1022.589109149587
 20
16.713192213853
 30
0.0
 11
1015.947563220654
 21
23.354738142787
 31
0.0
  0
CIRCLE
  5
3884
330
1A
100
AcDbEntity
  8
外形線
 48
10.0
100
AcDbCircle
 10
1018.566576312752
 20
19.332205305952
 30
0.0
 40
4.8
  0
MTEXT
  5
3885
102
{ACAD_XDICTIONARY
360
3B6B
102
}
330
1A
100
AcDbEntity
  8
寸法線
 48
10.0
100
AcDbMText
 10
973.799994215367
 20
-62.664776178857
 30
0.0
 40
8.0
 41
212.893474758074
 71
     5
 72
     1
  1
Loop current test terminal\P（10mV=1mA）
 73
     1
 44
1.0
1001
AcadAnnotative
1000
AnnotativeData
1002
{
1070
     1
1070
     0
1002
}
  0
LINE
  5
3886
330
1A
100
AcDbEntity
  8
寸法線
 48
10.0
100
AcDbLine
 10
1000.566576312752
 20
14.532205305952
 30
0.0
 11
965.244794132443
 21
-22.044656364268
 31
0.0
  0
LINE
  5
3887
330
1A
100
AcDbEntity
  8
寸法線
 48
10.0
100
AcDbLine
 10
1018.594734517484
 20
14.532287898797
 30
0.0
 11
985.244794132443
 21
-22.044656364268
 31
0.0
  0
LINE
  5
3888
330
1A
100
AcDbEntity
  8
外形線
 48
10.0
100
AcDbLine
 10
955.244794132443
 20
-22.044656364268
 30
0.0
 11
995.244794132442
 21
-22.044656364268
 31
0.0
  0
MTEXT
  5
3889
330
1A
100
AcDbEntity
  8
寸法線
 48
10.0
100
AcDbMText
 10
976.215287292386
 20
-31.685853282871
 30
0.0
 40
10.0
 41
44.86228651634
 71
     5
 72
     1
  1
U- U+
 73
     1
 44
1.0
  0
LINE
  5
388A
330
1A
100
AcDbEntity
  8
外形線
 48
10.0
100
AcDbLine
 10
955.244794132443
 20
-42.044656364268
 30
0.0
 11
995.244794132442
 21
-42.044656364268
 31
0.0
  0
LINE
  5
388B
330
1A
100
AcDbEntity
  8
外形線
 48
10.0
100
AcDbLine
 10
975.244794132442
 20
-42.044656364268
 30
0.0
 11
975.244794132442
 21
-22.044656364268
 31
0.0
  0
LINE
  5
388C
330
1A
100
AcDbEntity
  8
外形線
 48
10.0
100
AcDbLine
 10
995.244794132442
 20
-42.044656364268
 30
0.0
 11
995.244794132442
 21
-22.044656364268
 31
0.0
  0
LINE
  5
388D
330
1A
100
AcDbEntity
  8
外形線
 48
10.0
100
AcDbLine
 10
955.244794132442
 20
-22.044656364268
 30
0.0
 11
955.244794132443
 21
-42.044656364268
 31
0.0
  0
MTEXT
  5
388E
102
{ACAD_XDICTIONARY
360
3B6E
102
}
330
1A
100
AcDbEntity
  8
寸法線
 48
10.0
100
AcDbMText
 10
1052.41958878177
 20
-51.99810951219
 30
0.0
 40
8.0
 41
153.449412413161
 71
     1
 72
     1
  1
4-20mA loop current\Pand power supply（HART）
 73
     1
 44
1.0
1001
AcadAnnotative
1000
AnnotativeData
1002
{
1070
     1
1070
     0
1002
}
  0
MTEXT
  5
388F
330
1A
100
AcDbEntity
  8
寸法線
 48
10.0
100
AcDbMText
 10
1076.222487173324
 20
-31.685853282871
 30
0.0
 40
10.0
 41
33.394742934292
 71
     5
 72
     1
  1
I-  I+
 73
     1
 44
1.0
  0
LINE
  5
3890
330
1A
100
AcDbEntity
  8
外形線
 48
10.0
100
AcDbLine
 10
1054.806333655135
 20
-22.044656364268
 30
0.0
 11
1054.806333655135
 21
-42.044656364268
 31
0.0
  0
LINE
  5
3891
330
1A
100
AcDbEntity
  8
外形線
 48
10.0
100
AcDbLine
 10
1094.806333655135
 20
-42.044656364268
 30
0.0
 11
1094.806333655135
 21
-22.044656364268
 31
0.0
  0
LINE
  5
3892
330
1A
100
AcDbEntity
  8
外形線
 48
10.0
100
AcDbLine
 10
1054.806333655135
 20
-22.044656364268
 30
0.0
 11
1094.806333655135
 21
-22.044656364268
 31
0.0
  0
LINE
  5
3893
330
1A
100
AcDbEntity
  8
外形線
 48
10.0
100
AcDbLine
 10
1074.806333655135
 20
-42.044656364268
 30
0.0
 11
1074.806333655135
 21
-22.044656364268
 31
0.0
  0
LINE
  5
3894
330
1A
100
AcDbEntity
  8
外形線
 48
10.0
100
AcDbLine
 10
1054.806333655135
 20
-42.044656364268
 30
0.0
 11
1094.806333655135
 21
-42.044656364268
 31
0.0
  0
LINE
  5
3895
330
1A
100
AcDbEntity
  8
寸法線
 48
10.0
100
AcDbLine
 10
1036.566576312752
 20
14.532205305952
 30
0.0
 11
1084.806333655135
 21
-22.044656364268
 31
0.0
  0
LINE
  5
3896
330
1A
100
AcDbEntity
  8
寸法線
 48
10.0
100
AcDbLine
 10
1018.566786604505
 20
14.532205310559
 30
0.0
 11
1064.806333655135
 21
-22.044656364268
 31
0.0
  0
LINE
  5
3897
330
1A
100
AcDbEntity
  8
外形線
 48
10.0
100
AcDbLine
 10
1079.439089923721
 20
198.118202159295
 30
0.0
 11
1079.439089923721
 21
200.478202159295
 31
0.0
  0
LINE
  5
3898
330
1A
100
AcDbEntity
  8
外形線
 48
10.0
100
AcDbLine
 10
1017.714089923721
 20
200.478202159295
 30
0.0
 11
1077.314089923721
 21
200.478202159295
 31
0.0
  0
LINE
  5
3899
330
1A
100
AcDbEntity
  8
外形線
 48
10.0
100
AcDbLine
 10
1015.589089923721
 20
198.118202159295
 30
0.0
 11
1079.439089923721
 21
198.118202159295
 31
0.0
  0
LINE
  5
389A
330
1A
100
AcDbEntity
  8
外形線
 48
10.0
100
AcDbLine
 10
1015.589089923721
 20
200.478202159295
 30
0.0
 11
1079.439089923721
 21
200.478202159295
 31
0.0
  0
LINE
  5
389B
330
1A
100
AcDbEntity
  8
外形線
 48
10.0
100
AcDbLine
 10
1015.589089923721
 20
198.118202159295
 30
0.0
 11
1079.439089923721
 21
198.118202159295
 31
0.0
  0
LINE
  5
389C
330
1A
100
AcDbEntity
  8
外形線
 48
10.0
100
AcDbLine
 10
1017.714089923721
 20
198.118202159295
 30
0.0
 11
1077.314089923721
 21
198.118202159295
 31
0.0
  0
LINE
  5
389D
330
1A
100
AcDbEntity
  8
外形線
 48
10.0
100
AcDbLine
 10
1015.589089923721
 20
198.118202159295
 30
0.0
 11
1015.589089923721
 21
200.478202159295
 31
0.0
  0
LINE
  5
389E
330
1A
100
AcDbEntity
  8
外形線
 48
10.0
100
AcDbLine
 10
1020.514089923721
 20
185.478202159295
 30
0.0
 11
1020.514089923721
 21
153.478202159295
 31
0.0
  0
LINE
  5
389F
330
1A
100
AcDbEntity
  8
細線
 48
10.0
100
AcDbLine
 10
1019.189089923721
 20
198.118202159295
 30
0.0
 11
1019.189089923721
 21
185.478202159295
 31
0.0
  0
LINE
  5
38A0
330
1A
100
AcDbEntity
  8
外形線
 48
10.0
100
AcDbLine
 10
1017.714089923721
 20
198.118202159295
 30
0.0
 11
1017.714089923721
 21
185.478202159295
 31
0.0
  0
DIMENSION
  5
38A1
330
1A
100
AcDbEntity
  8
寸法線
 48
10.0
100
AcDbDimension
  2
*D14
 10
1124.758267048923
 20
200.478202159295
 30
0.0
 11
1124.758267048923
 21
192.978202159295
 31
0.0
 70
   160
 71
     5
 42
15.0
  3
ISO-25
100
AcDbAlignedDimension
 13
1078.734517882532
 23
185.478202159295
 33
0.0
 14
1080.037078388873
 24
200.478202159295
 34
0.0
 50
90.0
100
AcDbRotatedDimension
1001
ACAD
1000
DSTYLE
1002
{
1070
    41
1040
6.0
1070
    47
1040
0.1
1070
    48
1040
0.1
1070
    73
1070
     0
1070
   140
1040
8.0
1070
   271
1070
     1
1070
   272
1070
     1
1070
   341
1005
2AEB
1070
   342
1005
2AEB
1002
}
  0
LINE
  5
38A2
330
1A
100
AcDbEntity
  8
外形線
 48
10.0
100
AcDbLine
 10
1020.514089923721
 20
185.478202159295
 30
0.0
 11
1020.514089923721
 21
140.478202159295
 31
0.0
  0
DIMENSION
  5
38A3
330
1A
100
AcDbEntity
  8
寸法線
 48
10.0
100
AcDbDimension
  2
*D15
 10
1145.165025235352
 20
140.478202159295
 30
0.0
 11
1145.165025235352
 21
170.478202159295
 31
0.0
 70
   160
 71
     5
 42
60.0
  3
ISO-25
100
AcDbAlignedDimension
 13
1081.773821114746
 23
200.478202159295
 33
0.0
 14
1076.99777515666
 24
140.478202159295
 34
0.0
 50
90.0
100
AcDbRotatedDimension
1001
ACAD
1000
DSTYLE
1002
{
1070
    41
1040
6.0
1070
    47
1040
0.1
1070
    48
1040
0.1
1070
    73
1070
     0
1070
   140
1040
8.0
1070
   271
1070
     1
1070
   272
1070
     1
1070
   341
1005
2AEB
1070
   342
1005
2AEB
1002
}
  0
DIMENSION
  5
38A4
330
1A
100
AcDbEntity
  8
寸法線
 48
10.0
100
AcDbDimension
  2
*D16
 10
1074.514089923721
 20
116.24097057995
 30
0.0
 11
1047.514089923721
 21
120.86597057995
 31
0.0
 70
    32
  1
φ<>
 71
     5
 42
54.0
  3
ISO-25
100
AcDbAlignedDimension
 13
1020.514089923721
 23
140.478202159295
 33
0.0
 14
1074.514089923721
 24
140.478202159295
 34
0.0
100
AcDbRotatedDimension
1001
ACAD
1000
DSTYLE
1002
{
1070
    41
1040
6.0
1070
    47
1040
0.1
1070
    48
1040
0.1
1070
    73
1070
     0
1070
   140
1040
8.0
1070
   271
1070
     1
1070
   272
1070
     1
1070
   341
1005
2AEB
1070
   342
1005
2AEB
1002
}
  0
LINE
  5
38A5
330
1A
100
AcDbEntity
  8
外形線
 48
10.0
100
AcDbLine
 10
1020.514089923722
 20
140.478202159295
 30
0.0
 11
1074.514089923722
 21
140.478202159295
 31
0.0
  0
LINE
  5
38A6
330
1A
100
AcDbEntity
  8
外形線
 48
10.0
100
AcDbLine
 10
1074.514089923721
 20
185.478202159295
 30
0.0
 11
1020.514089923721
 21
185.478202159295
 31
0.0
  0
LINE
  5
38A7
330
1A
100
AcDbEntity
  8
外形線
 48
10.0
100
AcDbLine
 10
1017.714089923721
 20
185.478202159295
 30
0.0
 11
1077.314089923721
 21
185.478202159295
 31
0.0
  0
MTEXT
  5
38A8
330
1A
100
AcDbEntity
  8
寸法線
 48
10.0
100
AcDbMText
 10
996.62799926068
 20
163.754703038398
 30
0.0
 40
8.0
 41
86.8602
 71
     9
 72
     1
  1
G2"
 73
     1
 44
1.0
  0
LINE
  5
38A9
330
1A
100
AcDbEntity
  8
外形線
 48
10.0
100
AcDbLine
 10
1074.514089923721
 20
140.478202159295
 30
0.0
 11
1074.514089923721
 21
185.478202159295
 31
0.0
  0
LINE
  5
38AA
330
1A
100
AcDbEntity
  8
細線
 48
10.0
100
AcDbLine
 10
1075.839089923721
 20
198.118202159295
 30
0.0
 11
1075.839089923721
 21
185.478202159295
 31
0.0
  0
LINE
  5
38AB
330
1A
100
AcDbEntity
  8
外形線
 48
10.0
100
AcDbLine
 10
1077.314089923721
 20
198.118202159295
 30
0.0
 11
1077.314089923721
 21
185.478202159295
 31
0.0
  0
LEADER
  5
38AC
330
1A
100
AcDbEntity
  8
寸法線
 48
10.0
100
AcDbLeader
  3
ISO-25
 76
     3
 10
1017.948435677614
 20
192.978202159295
 30
0.0
 10
994.936561153216
 20
163.386877047597
 30
0.0
 10
987.121207499916
 20
163.386877047597
 30
0.0
1001
ACAD
1000
DSTYLE
1002
{
1070
   147
1040
0.625
1070
    77
1070
     0
1070
    41
1040
6.0
1070
    47
1040
0.1
1070
    48
1040
0.1
1070
    73
1070
     0
1070
   140
1040
5.0
1070
   271
1070
     1
1070
   272
1070
     1
1070
   341
1005
2AEB
1070
   342
1005
2AEB
1002
}
  0
CIRCLE
  5
38AD
330
1A
100
AcDbEntity
  8
外形線
 48
10.0
100
AcDbCircle
 10
1006.53536210523
 20
271.717770328929
 30
0.0
 40
11.70308925871734
  0
LINE
  5
38AE
330
1A
100
AcDbEntity
  8
外形線
 48
10.0
100
AcDbLine
 10
999.831989819581
 20
266.68317004688
 30
0.0
 11
1001.500761823182
 21
265.01439804328
 31
0.0
  0
LINE
  5
38AF
330
1A
100
AcDbEntity
  8
外形線
 48
10.0
100
AcDbLine
 10
1013.238734390879
 20
276.752370610977
 30
0.0
 11
1011.569962387278
 21
278.421142614577
 31
0.0
  0
LINE
  5
38B0
330
1A
100
AcDbEntity
  8
外形線
 48
10.0
100
AcDbLine
 10
1011.569962387278
 20
278.421142614577
 30
0.0
 11
999.831989819581
 21
266.68317004688
 31
0.0
  0
LINE
  5
38B1
330
1A
100
AcDbEntity
  8
外形線
 48
10.0
100
AcDbLine
 10
1013.238734390879
 20
276.752370610977
 30
0.0
 11
1001.500761823182
 21
265.01439804328
 31
0.0
  0
LEADER
  5
38B2
330
1A
100
AcDbEntity
  8
寸法線
 48
10.0
100
AcDbLeader
  3
ISO-25
 76
     3
 10
999.010150959436
 20
262.549089006819
 30
0.0
 10
946.080880886801
 20
206.5803962978
 30
0.0
 10
890.817733485612
 20
206.5803962978
 30
0.0
1001
ACAD
1000
DSTYLE
1002
{
1070
   147
1040
0.625
1070
    77
1070
     0
1070
    41
1040
4.3
1070
    47
1040
0.1
1070
    48
1040
0.1
1070
    73
1070
     0
1070
   140
1040
5.0
1070
   271
1070
     1
1070
   272
1070
     1
1070
   341
1005
2AEB
1070
   342
1005
2AEB
1002
}
  0
MTEXT
  5
38B3
330
1A
100
AcDbEntity
  8
寸法線
 48
10.0
100
AcDbMText
 10
891.54899014799
 20
215.105604200329
 30
0.0
 40
8.0
 41
59.667384603024
 71
     1
 72
     5
  1
2×NPT 1/2"
 73
     1
 44
1.0
  0
LEADER
  5
38B4
330
1A
100
AcDbEntity
  8
寸法線
 48
10.0
100
AcDbLeader
  3
ISO-25
 76
     3
 10
960.259611867311
 20
258.345333817371
 30
0.0
 10
927.214658061907
 20
233.243810977244
 30
0.0
 10
892.495175163672
 20
233.243810977244
 30
0.0
1001
ACAD
1000
DSTYLE
1002
{
1070
   147
1040
0.625
1070
    77
1070
     0
1070
    41
1040
4.3
1070
    47
1040
0.1
1070
    48
1040
0.1
1070
    73
1070
     0
1070
   140
1040
5.0
1070
   271
1070
     1
1070
   272
1070
     1
1070
   341
1005
2AEB
1070
   342
1005
2AEB
1002
}
  0
MTEXT
  5
38B5
102
{ACAD_XDICTIONARY
360
3B71
102
}
330
1A
100
AcDbEntity
  8
寸法線
 48
10.0
100
AcDbMText
 10
872.627264861032
 20
255.55874011847
 30
0.0
 40
8.0
 41
62.781735328636
 71
     1
 72
     5
  1
Code lock\P　　2×M20
 73
     1
 44
1.0
1001
AcadAnnotative
1000
AnnotativeData
1002
{
1070
     1
1070
     0
1002
}
  0
ARC
  5
38B6
330
1A
100
AcDbEntity
  8
外形線
100
AcDbCircle
 10
1094.651483850422
 20
285.416010657952
 30
0.0
 40
2.073556783584
100
AcDbArc
 50
313.908268091568
 51
0.0
  0
LINE
  5
38B7
330
1A
100
AcDbEntity
  8
外形線
100
AcDbLine
 10
1096.089507507476
 20
283.922114511461
 30
0.0
 11
1095.207551548586
 21
283.073144162121
 31
0.0
  0
ARC
  5
38B8
330
1A
100
AcDbEntity
  8
外形線
100
AcDbCircle
 10
1096.645575205642
 20
281.579248015632
 30
0.0
 40
2.073556783584
100
AcDbArc
 50
133.90826809156
 51
180.0
  0
LINE
  5
38B9
330
1A
100
AcDbEntity
  8
外形線
100
AcDbLine
 10
1096.725040634006
 20
289.717770328933
 30
0.0
 11
1096.725040634006
 21
285.416010657951
 31
0.0
  0
ARC
  5
38BA
330
1A
100
AcDbEntity
  8
外形線
100
AcDbCircle
 10
1016.50260552012
 20
285.151052868079
 30
0.0
 40
1.2441340701504
100
AcDbArc
 50
180.0
 51
232.769032034322
  0
ARC
  5
38BB
330
1A
100
AcDbEntity
  8
外形線
100
AcDbCircle
 10
1019.44306175109
 20
281.159259600695
 30
0.0
 40
1.2441340701504
100
AcDbArc
 50
0.0
 51
52.76903203433
  0
LINE
  5
38BC
330
1A
100
AcDbEntity
  8
外形線
100
AcDbLine
 10
1015.258471449968
 20
289.717770328932
 30
0.0
 11
1015.258471449968
 21
285.151052868079
 31
0.0
  0
LINE
  5
38BD
330
1A
100
AcDbEntity
  8
細線
100
AcDbLine
 10
1094.572018422056
 20
281.579248015631
 30
0.0
 11
1021.356661923724
 21
281.579248015631
 31
0.0
  0
LINE
  5
38BE
330
1A
100
AcDbEntity
  8
外形線
100
AcDbLine
 10
978.654089923724
 20
287.26777855229
 30
0.0
 11
984.584089923724
 21
287.26777855229
 31
0.0
  0
LINE
  5
38BF
330
1A
100
AcDbEntity
  8
外形線
100
AcDbLine
 10
984.584089923724
 20
285.194221768707
 30
0.0
 11
986.264089923724
 21
285.194221768707
 31
0.0
  0
LINE
  5
38C0
330
1A
100
AcDbEntity
  8
外形線
100
AcDbLine
 10
978.654089923724
 20
278.455162222058
 30
0.0
 11
984.584089923724
 21
278.455162222058
 31
0.0
  0
LINE
  5
38C1
330
1A
100
AcDbEntity
  8
外形線
100
AcDbLine
 10
978.654089923724
 20
281.047108201538
 30
0.0
 11
984.584089923724
 21
281.047108201538
 31
0.0
  0
LINE
  5
38C2
330
1A
100
AcDbEntity
  8
外形線
100
AcDbLine
 10
976.686227116766
 20
282.602275789226
 30
0.0
 11
975.854089923724
 21
283.465935053658
 31
0.0
  0
LINE
  5
38C3
330
1A
100
AcDbEntity
  8
外形線
100
AcDbLine
 10
976.686227116766
 20
282.602275789226
 30
0.0
 11
975.854089923724
 21
282.602275789226
 31
0.0
  0
LINE
  5
38C4
330
1A
100
AcDbEntity
  8
外形線
100
AcDbLine
 10
975.854089923724
 20
282.602275789226
 30
0.0
 11
978.654089923724
 21
282.602275789226
 31
0.0
  0
LINE
  5
38C5
330
1A
100
AcDbEntity
  8
外形線
100
AcDbLine
 10
978.654089923724
 20
264.977043128763
 30
0.0
 11
984.584089923724
 21
264.977043128763
 31
0.0
  0
LINE
  5
38C6
330
1A
100
AcDbEntity
  8
外形線
100
AcDbLine
 10
978.654089923724
 20
262.385097149282
 30
0.0
 11
984.584089923724
 21
262.385097149282
 31
0.0
  0
LINE
  5
38C7
330
1A
100
AcDbEntity
  8
外形線
100
AcDbLine
 10
976.686227116766
 20
260.829929561594
 30
0.0
 11
975.854089923724
 21
260.829929561594
 31
0.0
  0
LINE
  5
38C8
330
1A
100
AcDbEntity
  8
外形線
100
AcDbLine
 10
976.686227116766
 20
260.829929561594
 30
0.0
 11
975.854089923724
 21
259.966270297162
 31
0.0
  0
LINE
  5
38C9
330
1A
100
AcDbEntity
  8
外形線
100
AcDbLine
 10
975.854089923724
 20
260.829929561594
 30
0.0
 11
978.654089923724
 21
260.829929561594
 31
0.0
  0
LINE
  5
38CA
330
1A
100
AcDbEntity
  8
外形線
100
AcDbLine
 10
978.654089923724
 20
256.16442679853
 30
0.0
 11
984.584089923724
 21
256.16442679853
 31
0.0
  0
LINE
  5
38CB
330
1A
100
AcDbEntity
  8
外形線
100
AcDbLine
 10
984.584089923724
 20
258.237983582114
 30
0.0
 11
985.10247911962
 21
258.237983582114
 31
0.0
  0
LINE
  5
38CC
330
1A
100
AcDbEntity
  8
外形線
100
AcDbLine
 10
984.584089923724
 20
258.237983582114
 30
0.0
 11
986.264089923724
 21
258.237983582114
 31
0.0
  0
LINE
  5
38CD
330
1A
100
AcDbEntity
  8
細線
100
AcDbLine
 10
976.686227116766
 20
260.829929561594
 30
0.0
 11
976.686227116766
 21
282.602275789226
 31
0.0
  0
LINE
  5
38CE
330
1A
100
AcDbEntity
  8
外形線
100
AcDbLine
 10
978.654089923724
 20
287.26777855229
 30
0.0
 11
978.654089923724
 21
256.16442679853
 31
0.0
  0
LINE
  5
38CF
330
1A
100
AcDbEntity
  8
外形線
100
AcDbLine
 10
984.584089923724
 20
287.26777855229
 30
0.0
 11
984.584089923724
 21
256.16442679853
 31
0.0
  0
LINE
  5
38D0
330
1A
100
AcDbEntity
  8
外形線
100
AcDbLine
 10
975.854089923724
 20
287.26777855229
 30
0.0
 11
975.854089923724
 21
256.16442679853
 31
0.0
  0
LINE
  5
38D1
330
1A
100
AcDbEntity
  8
外形線
100
AcDbLine
 10
963.304089923724
 20
285.505255286244
 30
0.0
 11
964.962935350592
 21
287.26777855229
 31
0.0
  0
LINE
  5
38D2
330
1A
100
AcDbEntity
  8
外形線
100
AcDbLine
 10
964.962935350592
 20
278.455162222058
 30
0.0
 11
964.962935350592
 21
281.047108201538
 31
0.0
  0
ARC
  5
38D3
330
1A
100
AcDbEntity
  8
外形線
100
AcDbCircle
 10
967.889510380844
 20
284.157443376914
 30
0.0
 40
4.2707173063642
100
AcDbArc
 50
133.256487111676
 51
226.743512888324
  0
ARC
  5
38D4
330
1A
100
AcDbEntity
  8
外形線
100
AcDbCircle
 10
963.697981882684
 20
280.321363327284
 30
0.0
 40
5.183891958959999
100
AcDbArc
 50
94.357752857952
 51
180.0
  0
LINE
  5
38D5
330
1A
100
AcDbEntity
  8
外形線
100
AcDbLine
 10
964.962935350592
 20
264.977043128762
 30
0.0
 11
964.962935350592
 21
262.385097149282
 31
0.0
  0
LINE
  5
38D6
330
1A
100
AcDbEntity
  8
外形線
100
AcDbLine
 10
963.304089923724
 20
257.926950064576
 30
0.0
 11
964.962935350592
 21
256.16442679853
 31
0.0
  0
ARC
  5
38D7
330
1A
100
AcDbEntity
  8
外形線
100
AcDbCircle
 10
967.889510380844
 20
259.274761973906
 30
0.0
 40
4.2707173063642
100
AcDbArc
 50
133.256487111667
 51
226.743512888325
  0
ARC
  5
38D8
330
1A
100
AcDbEntity
  8
外形線
100
AcDbCircle
 10
963.697981882684
 20
263.110842023536
 30
0.0
 40
5.183891958959999
100
AcDbArc
 50
180.0
 51
265.642247142048
  0
LINE
  5
38D9
330
1A
100
AcDbEntity
  8
外形線
100
AcDbLine
 10
958.514089923724
 20
280.321363327284
 30
0.0
 11
958.514089923724
 21
263.110842023536
 31
0.0
  0
LINE
  5
38DA
330
1A
100
AcDbEntity
  8
外形線
100
AcDbLine
 10
963.304089923724
 20
285.505255286244
 30
0.0
 11
963.304089923724
 21
257.926950064576
 31
0.0
  0
ARC
  5
38DB
330
1A
100
AcDbEntity
  8
外形線
100
AcDbCircle
 10
981.24702505383
 20
271.716102675411
 30
0.0
 40
17.62346450152246
100
AcDbArc
 50
157.518115682491
 51
202.481884317509
  0
LINE
  5
38DC
330
1A
100
AcDbEntity
  8
外形線
100
AcDbLine
 10
975.854089923724
 20
256.16442679853
 30
0.0
 11
964.962935350588
 21
256.16442679853
 31
0.0
  0
LINE
  5
38DD
330
1A
100
AcDbEntity
  8
外形線
100
AcDbLine
 10
964.962935350592
 20
264.977043128762
 30
0.0
 11
975.854089923724
 21
264.977043128763
 31
0.0
  0
LINE
  5
38DE
330
1A
100
AcDbEntity
  8
外形線
100
AcDbLine
 10
964.962935350592
 20
262.385097149282
 30
0.0
 11
975.854089923724
 21
262.385097149282
 31
0.0
  0
LINE
  5
38DF
330
1A
100
AcDbEntity
  8
外形線
100
AcDbLine
 10
964.962935350592
 20
278.455162222058
 30
0.0
 11
975.854089923724
 21
278.455162222058
 31
0.0
  0
LINE
  5
38E0
330
1A
100
AcDbEntity
  8
外形線
100
AcDbLine
 10
975.854089923724
 20
287.26777855229
 30
0.0
 11
964.96293535059
 21
287.26777855229
 31
0.0
  0
LINE
  5
38E1
330
1A
100
AcDbEntity
  8
外形線
100
AcDbLine
 10
964.962935350592
 20
281.047108201538
 30
0.0
 11
975.854089923724
 21
281.047108201538
 31
0.0
  0
ARC
  5
38E2
330
1A
100
AcDbEntity
  8
外形線
100
AcDbCircle
 10
1014.764089923724
 20
222.378202159295
 30
0.0
 40
0.6
100
AcDbArc
 50
180.0
 51
270.0
  0
ARC
  5
38E3
330
1A
100
AcDbEntity
  8
外形線
100
AcDbCircle
 10
1080.264089923724
 20
222.378202159295
 30
0.0
 40
0.6
100
AcDbArc
 50
270.0
 51
0.0
  0
LINE
  5
38E4
330
1A
100
AcDbEntity
  8
外形線
100
AcDbLine
 10
987.17508600483
 20
252.803438940785
 30
0.0
 11
1001.207127823058
 21
239.724932135425
 31
0.0
  0
LINE
  5
38E5
330
1A
100
AcDbEntity
  8
外形線
100
AcDbLine
 10
1003.27550895326
 20
242.275663592383
 30
0.0
 11
1014.164089923725
 21
227.278202159285
 31
0.0
  0
LINE
  5
38E6
330
1A
100
AcDbEntity
  8
外形線
100
AcDbLine
 10
1091.521694237782
 20
242.275663592383
 30
0.0
 11
1080.864089923724
 21
227.278202159285
 31
0.0
  0
LINE
  5
38E7
330
1A
100
AcDbEntity
  8
外形線
100
AcDbLine
 10
1080.864089923725
 20
222.378202159295
 30
0.0
 11
1080.864089923724
 21
227.278202159285
 31
0.0
  0
LINE
  5
38E8
330
1A
100
AcDbEntity
  8
外形線
100
AcDbLine
 10
1014.164089923725
 20
222.378202159295
 30
0.0
 11
1014.164089923725
 21
227.278202159285
 31
0.0
  0
LINE
  5
38E9
330
1A
100
AcDbEntity
  8
外形線
100
AcDbLine
 10
1080.864089923724
 20
227.278202159285
 30
0.0
 11
1014.164089923725
 21
227.278202159285
 31
0.0
  0
LINE
  5
38EA
330
1A
100
AcDbEntity
  8
外形線
100
AcDbLine
 10
1020.195799621902
 20
282.149842904791
 30
0.0
 11
1015.749867649306
 21
284.160469563982
 31
0.0
  0
ARC
  5
38EB
330
1A
100
AcDbEntity
  8
外形線
100
AcDbCircle
 10
1002.621341385432
 20
241.139145697799
 30
0.0
 40
2.0
100
AcDbArc
 50
225.0
 51
270.0
  0
LWPOLYLINE
  5
38EC
330
1A
100
AcDbEntity
  8
外形線
100
AcDbPolyline
 90
       18
 70
     0
 43
0.0
 10
1076.374672320107
 20
300.500265603569
 10
1076.298232058152
 20
299.546885685828
 10
1076.071514353724
 20
298.625971977733
 10
1075.70223980633
 20
297.768885091097
 10
1075.202983617788
 20
297.004812091885
 10
1074.590747358806
 20
296.359772569679
 10
1073.886380000886
 20
295.855732571767
 10
1073.113867929606
 20
295.509856575751
 10
1072.29951811703
 20
295.333922973839
 10
1071.471062269318
 20
295.333922973839
 10
1070.656712456742
 20
295.509856575751
 10
1069.884200385462
 20
295.855732571767
 10
1069.179833027542
 20
296.359772569679
 10
1068.56759676856
 20
297.004812091885
 10
1068.068340580016
 20
297.768885091097
 10
1067.699066032624
 20
298.625971977733
 10
1067.472348328195
 20
299.546885685828
 10
1067.39590806624
 20
300.500265603569
  0
LWPOLYLINE
  5
38ED
330
1A
100
AcDbEntity
  8
外形線
100
AcDbPolyline
 90
        8
 70
     0
 43
0.0
 10
1075.808933447756
 20
300.500265603569
 10
1075.732464585354
 20
299.509806930321
 10
1075.50566302786
 20
298.553089759071
 10
1075.136255120062
 20
297.662706135519
 10
1074.636825311966
 20
296.868988350777
 10
1074.024387450106
 20
296.198975625099
 10
1073.319805174634
 20
295.675492975147
 10
1072.547081167228
 20
295.316373644609
  0
LWPOLYLINE
  5
38EE
330
1A
100
AcDbEntity
  8
外形線
100
AcDbPolyline
 90
        8
 70
     0
 43
0.0
 10
1091.58555757217
 20
300.500265603569
 10
1091.52747586763
 20
299.491409857227
 10
1091.35544763821
 20
298.521060494037
 10
1091.076038921662
 20
297.626254171127
 10
1090.6999142943
 20
296.841144190631
 10
1090.241429821462
 20
296.195696923691
 10
1089.71808510985
 20
295.714548042809
 10
1089.149855376
 20
295.416062218281
  0
LWPOLYLINE
  5
38EF
330
1A
100
AcDbEntity
  8
外形線
100
AcDbPolyline
 90
       18
 70
     0
 43
0.0
 10
1092.402736335254
 20
300.500265603569
 10
1092.350915872542
 20
299.546843007165
 10
1092.197219168116
 20
298.625888073778
 10
1091.946880178904
 20
297.7687628191
 10
1091.608423898936
 20
297.004655615667
 10
1091.193376050892
 20
296.359587217853
 10
1090.715870591442
 20
295.855524656269
 10
1090.192168396304
 20
295.509633176891
 10
1089.640103515622
 20
295.333691699199
 10
1089.078475856776
 20
295.333691699199
 10
1088.526410976094
 20
295.509633176891
 10
1088.002708780956
 20
295.855524656269
 10
1087.525203321506
 20
296.359587217853
 10
1087.110155473464
 20
297.004655615667
 10
1086.771699193494
 20
297.768762819099
 10
1086.521360204282
 20
298.625888073777
 10
1086.367663499856
 20
299.546843007165
 10
1086.315843037146
 20
300.500265603569
  0
ARC
  5
38F0
330
1A
100
AcDbEntity
  8
外形線
100
AcDbCircle
 10
1089.292401159877
 20
319.784343690901
 30
0.0
 40
3.110335175376
100
AcDbArc
 50
0.0
 51
90.0
  0
ARC
  5
38F1
330
1A
100
AcDbEntity
  8
外形線
100
AcDbCircle
 10
1089.512000788585
 20
317.710786907318
 30
0.0
 40
2.073556783584
100
AcDbArc
 50
0.0
 51
90.0
  0
ARC
  5
38F2
330
1A
100
AcDbEntity
  8
外形線
100
AcDbCircle
 10
1091.815783990968
 20
318.74756529911
 30
0.0
 40
4.147113567168
100
AcDbArc
 50
2.999999999999
 51
90.0
  0
ARC
  5
38F3
330
1A
100
AcDbEntity
  8
外形線
100
AcDbCircle
 10
1097.163964401536
 20
294.279595252818
 30
0.0
 40
1.036778391792
100
AcDbArc
 50
59.999999999992
 51
90.0
  0
LINE
  5
38F4
330
1A
100
AcDbEntity
  8
外形線
100
AcDbLine
 10
1097.163964401536
 20
289.717770328933
 30
0.0
 11
1097.682353597432
 21
290.23615952483
 31
0.0
  0
LINE
  5
38F5
330
1A
100
AcDbEntity
  8
外形線
100
AcDbLine
 10
1097.682353597432
 20
290.23615952483
 30
0.0
 11
1097.682353597432
 21
295.177471678204
 31
0.0
  0
LINE
  5
38F6
330
1A
100
AcDbEntity
  8
外形線
100
AcDbLine
 10
1092.402736335254
 20
300.500265603569
 30
0.0
 11
1092.402736335254
 21
319.784343690901
 31
0.0
  0
LINE
  5
38F7
330
1A
100
AcDbEntity
  8
外形線
100
AcDbLine
 10
1091.58555757217
 20
300.500265603569
 30
0.0
 11
1091.58555757217
 21
317.710786907318
 31
0.0
  0
LINE
  5
38F8
330
1A
100
AcDbEntity
  8
外形線
100
AcDbLine
 10
1097.163964401536
 20
295.316373644609
 30
0.0
 11
1095.957214083124
 21
318.964608453294
 31
0.0
  0
ARC
  5
38F9
330
1A
100
AcDbEntity
  8
外形線
100
AcDbCircle
 10
1083.20550786177
 20
319.784343690901
 30
0.0
 40
3.110335175376
100
AcDbArc
 50
0.0
 51
90.0
  0
ARC
  5
38FA
330
1A
100
AcDbEntity
  8
外形線
100
AcDbCircle
 10
1074.253765860067
 20
318.229176103213
 30
0.0
 40
1.555167587688
100
AcDbArc
 50
0.0
 51
90.0
  0
LINE
  5
38FB
330
1A
100
AcDbEntity
  8
外形線
100
AcDbLine
 10
1071.365802578618
 20
322.483804796948
 30
0.0
 11
1069.321590416852
 21
319.784343690901
 31
0.0
  0
ARC
  5
38FC
330
1A
100
AcDbEntity
  8
外形線
100
AcDbCircle
 10
1066.359129674448
 20
321.857900474485
 30
0.0
 40
1.036778391792
100
AcDbArc
 50
0.0
 51
90.0
  0
ARC
  5
38FD
330
1A
100
AcDbEntity
  8
外形線
100
AcDbCircle
 10
1072.192333408537
 20
321.857900474485
 30
0.0
 40
1.036778391792
100
AcDbArc
 50
90.0
 51
142.864563529723
  0
LINE
  5
38FE
330
1A
100
AcDbEntity
  8
外形線
100
AcDbLine
 10
1074.253765860067
 20
319.784343690901
 30
0.0
 11
1067.39590806624
 21
319.784343690901
 31
0.0
  0
ARC
  5
38FF
330
1A
100
AcDbEntity
  8
外形線
100
AcDbCircle
 10
1073.264337144732
 20
319.784343690901
 30
0.0
 40
3.110335175376
100
AcDbArc
 50
0.0
 51
90.0
  0
ARC
  5
3900
330
1A
100
AcDbEntity
  8
外形線
100
AcDbCircle
 10
1053.619271946272
 20
321.857900474485
 30
0.0
 40
1.036778391792
100
AcDbArc
 50
90.0
 51
180.0
  0
LINE
  5
3901
330
1A
100
AcDbEntity
  8
外形線
100
AcDbLine
 10
1052.582493554479
 20
319.784343690901
 30
0.0
 11
1047.398601595522
 21
319.784343690901
 31
0.0
  0
ARC
  5
3902
330
1A
100
AcDbEntity
  8
外形線
100
AcDbCircle
 10
1041.177931244769
 20
321.857900474485
 30
0.0
 40
1.036778391792
100
AcDbArc
 50
0.0
 51
90.0
  0
LINE
  5
3903
330
1A
100
AcDbEntity
  8
外形線
100
AcDbLine
 10
1042.21470963656
 20
319.784343690901
 30
0.0
 11
1047.398601595522
 21
319.784343690901
 31
0.0
  0
LINE
  5
3904
330
1A
100
AcDbEntity
  8
外形線
100
AcDbLine
 10
1066.359129674448
 20
322.894678866277
 30
0.0
 11
1053.619271946272
 21
322.894678866277
 31
0.0
  0
ARC
  5
3905
330
1A
100
AcDbEntity
  8
外形線
100
AcDbCircle
 10
1047.398601595522
 20
300.500265603569
 30
0.0
 40
5.183891958959999
100
AcDbArc
 50
270.0
 51
0.0
  0
ARC
  5
3906
330
1A
100
AcDbEntity
  8
外形線
100
AcDbCircle
 10
1047.398601595522
 20
300.500265603569
 30
0.0
 40
5.183891958959999
100
AcDbArc
 50
180.0
 51
270.0
  0
LINE
  5
3907
330
1A
100
AcDbEntity
  8
外形線
100
AcDbLine
 10
1042.21470963656
 20
300.500265603569
 30
0.0
 11
1042.21470963656
 21
321.857900474485
 31
0.0
  0
LINE
  5
3908
330
1A
100
AcDbEntity
  8
外形線
100
AcDbLine
 10
1052.58249355448
 20
300.500265603569
 30
0.0
 11
1052.582493554479
 21
321.857900474485
 31
0.0
  0
LINE
  5
3909
330
1A
100
AcDbEntity
  8
外形線
100
AcDbLine
 10
1086.315843037146
 20
300.500265603571
 30
0.0
 11
1086.315843037146
 21
319.784343690901
 31
0.0
  0
LINE
  5
390A
330
1A
100
AcDbEntity
  8
外形線
100
AcDbLine
 10
1076.374672320107
 20
300.500265603569
 30
0.0
 11
1076.374672320107
 21
319.784343690901
 31
0.0
  0
LINE
  5
390B
330
1A
100
AcDbEntity
  8
外形線
100
AcDbLine
 10
1075.808933447756
 20
300.500265603569
 30
0.0
 11
1075.808933447756
 21
318.229176103213
 31
0.0
  0
LINE
  5
390C
330
1A
100
AcDbEntity
  8
外形線
100
AcDbLine
 10
1067.39590806624
 20
300.500265603571
 30
0.0
 11
1067.39590806624
 21
321.857900474485
 31
0.0
  0
LINE
  5
390D
330
1A
100
AcDbEntity
  8
外形線
100
AcDbLine
 10
1097.163964401536
 20
295.316373644609
 30
0.0
 11
1047.398601595522
 21
295.316373644609
 31
0.0
  0
LINE
  5
390E
330
1A
100
AcDbEntity
  8
外形線
100
AcDbLine
 10
1072.192333408537
 20
322.894678866277
 30
0.0
 11
1091.815783990968
 21
322.894678866277
 31
0.0
  0
LINE
  5
390F
330
1A
100
AcDbEntity
  8
外形線
100
AcDbLine
 10
1089.512000788586
 20
319.784343690901
 30
0.0
 11
1086.315843037146
 21
319.784343690901
 31
0.0
  0
LINE
  5
3910
330
1A
100
AcDbEntity
  8
外形線
100
AcDbLine
 10
1092.370973376892
 20
242.717770328926
 30
0.0
 11
1093.535240030264
 21
242.717770328926
 31
0.0
  0
LINE
  5
3911
330
1A
100
AcDbEntity
  8
外形線
100
AcDbLine
 10
1094.572018422056
 20
243.754548720717
 30
0.0
 11
1094.572018422056
 21
281.579248015631
 31
0.0
  0
LINE
  5
3912
330
1A
100
AcDbEntity
  8
外形線
100
AcDbLine
 10
1023.431400612424
 20
322.483804796947
 30
0.0
 11
1025.47561277419
 21
319.784343690901
 31
0.0
  0
ARC
  5
3913
330
1A
100
AcDbEntity
  8
外形線
100
AcDbCircle
 10
1022.604869782504
 20
321.857900474485
 30
0.0
 40
1.036778391792
100
AcDbArc
 50
37.135436470256
 51
90.0
  0
ARC
  5
3914
330
1A
100
AcDbEntity
  8
外形線
100
AcDbCircle
 10
1028.438073516594
 20
321.857900474485
 30
0.0
 40
1.036778391792
100
AcDbArc
 50
90.0
 51
180.0
  0
ARC
  5
3915
330
1A
100
AcDbEntity
  8
外形線
100
AcDbCircle
 10
1021.53286604631
 20
319.784343690901
 30
0.0
 40
3.110335175376
100
AcDbArc
 50
90.0
 51
180.0
  0
LINE
  5
3916
330
1A
100
AcDbEntity
  8
外形線
100
AcDbLine
 10
1020.543437330974
 20
319.784343690901
 30
0.0
 11
1027.401295124802
 21
319.784343690901
 31
0.0
  0
ARC
  5
3917
330
1A
100
AcDbEntity
  8
外形線
100
AcDbCircle
 10
1020.543437330974
 20
318.229176103213
 30
0.0
 40
1.555167587688
100
AcDbArc
 50
90.0
 51
180.0
  0
ARC
  5
3918
330
1A
100
AcDbEntity
  8
外形線
100
AcDbCircle
 10
1011.591695329271
 20
319.784343690901
 30
0.0
 40
3.110335175376
100
AcDbArc
 50
90.0
 51
180.0
  0
ARC
  5
3919
330
1A
100
AcDbEntity
  8
外形線
100
AcDbCircle
 10
1005.504802031163
 20
319.784343690901
 30
0.0
 40
3.110335175376
100
AcDbArc
 50
90.0
 51
180.0
  0
LINE
  5
391A
330
1A
100
AcDbEntity
  8
外形線
100
AcDbLine
 10
1005.285202402456
 20
319.784343690901
 30
0.0
 11
1008.481360153896
 21
319.784343690901
 31
0.0
  0
ARC
  5
391B
330
1A
100
AcDbEntity
  8
外形線
100
AcDbCircle
 10
1005.285202402455
 20
317.710786907317
 30
0.0
 40
2.073556783584
100
AcDbArc
 50
90.0
 51
180.0
  0
LINE
  5
391C
330
1A
100
AcDbEntity
  8
外形線
100
AcDbLine
 10
1022.604869782504
 20
322.894678866277
 30
0.0
 11
1002.981419200073
 21
322.894678866276
 31
0.0
  0
ARC
  5
391D
330
1A
100
AcDbEntity
  8
外形線
100
AcDbCircle
 10
1002.981419200073
 20
318.747565299109
 30
0.0
 40
4.147113567168
100
AcDbArc
 50
90.0
 51
177.000000000001
  0
LWPOLYLINE
  5
391E
330
1A
100
AcDbEntity
  8
外形線
100
AcDbPolyline
 90
       18
 70
     0
 43
0.0
 10
1018.422530870934
 20
300.500265603569
 10
1018.49897113289
 20
299.546885685827
 10
1018.725688837318
 20
298.625971977733
 10
1019.094963384712
 20
297.768885091097
 10
1019.594219573254
 20
297.004812091885
 10
1020.206455832236
 20
296.359772569679
 10
1020.910823190156
 20
295.855732571767
 10
1021.683335261436
 20
295.509856575751
 10
1022.497685074012
 20
295.333922973839
 10
1023.326140921724
 20
295.333922973839
 10
1024.1404907343
 20
295.509856575751
 10
1024.91300280558
 20
295.855732571767
 10
1025.6173701635
 20
296.359772569679
 10
1026.229606422482
 20
297.004812091885
 10
1026.728862611026
 20
297.768885091097
 10
1027.098137158418
 20
298.625971977733
 10
1027.324854862846
 20
299.546885685827
 10
1027.401295124802
 20
300.500265603569
  0
LWPOLYLINE
  5
391F
330
1A
100
AcDbEntity
  8
外形線
100
AcDbPolyline
 90
        8
 70
     0
 43
0.0
 10
1018.988269743286
 20
300.500265603569
 10
1019.064738605688
 20
299.509806930321
 10
1019.291540163182
 20
298.553089759071
 10
1019.66094807098
 20
297.662706135519
 10
1020.160377879076
 20
296.868988350777
 10
1020.772815740936
 20
296.198975625099
 10
1021.477398016408
 20
295.675492975147
 10
1022.250122023814
 20
295.316373644609
  0
LWPOLYLINE
  5
3920
330
1A
100
AcDbEntity
  8
外形線
100
AcDbPolyline
 90
        8
 70
     0
 43
0.0
 10
1003.211645618872
 20
300.500265603568
 10
1003.269727323412
 20
299.491409857227
 10
1003.441755552832
 20
298.521060494037
 10
1003.72116426938
 20
297.626254171127
 10
1004.097288896742
 20
296.84114419063
 10
1004.555773369582
 20
296.195696923691
 10
1005.079118081192
 20
295.714548042809
 10
1005.647347815042
 20
295.416062218281
  0
LWPOLYLINE
  5
3921
330
1A
100
AcDbEntity
  8
外形線
100
AcDbPolyline
 90
       18
 70
     0
 43
0.0
 10
1002.394466855788
 20
300.500265603568
 10
1002.4462873185
 20
299.546843007165
 10
1002.599984022926
 20
298.625888073777
 10
1002.850323012138
 20
297.768762819099
 10
1003.188779292106
 20
297.004655615667
 10
1003.60382714015
 20
296.359587217852
 10
1004.0813325996
 20
295.855524656269
 10
1004.605034794738
 20
295.509633176891
 10
1005.15709967542
 20
295.333691699199
 10
1005.718727334266
 20
295.333691699199
 10
1006.270792214948
 20
295.509633176891
 10
1006.794494410086
 20
295.855524656269
 10
1007.271999869536
 20
296.359587217852
 10
1007.68704771758
 20
297.004655615667
 10
1008.025503997548
 20
297.768762819099
 10
1008.27584298676
 20
298.625888073777
 10
1008.429539691186
 20
299.546843007165
 10
1008.481360153896
 20
300.500265603568
  0
ARC
  5
3922
330
1A
100
AcDbEntity
  8
外形線
100
AcDbCircle
 10
997.633238789504
 20
294.279595252817
 30
0.0
 40
1.036778391792
100
AcDbArc
 50
90.0
 51
120.0
  0
LINE
  5
3923
330
1A
100
AcDbEntity
  8
外形線
100
AcDbLine
 10
997.633238789504
 20
289.717770328932
 30
0.0
 11
997.114849593608
 21
290.236159524827
 31
0.0
  0
LINE
  5
3924
330
1A
100
AcDbEntity
  8
外形線
100
AcDbLine
 10
997.114849593608
 20
290.236159524827
 30
0.0
 11
997.114849593608
 21
295.177471678203
 31
0.0
  0
LINE
  5
3925
330
1A
100
AcDbEntity
  8
外形線
100
AcDbLine
 10
1018.422530870934
 20
300.500265603569
 30
0.0
 11
1018.422530870934
 21
319.784343690901
 31
0.0
  0
LINE
  5
3926
330
1A
100
AcDbEntity
  8
外形線
100
AcDbLine
 10
1018.988269743286
 20
300.500265603569
 30
0.0
 11
1018.988269743286
 21
318.229176103213
 31
0.0
  0
LINE
  5
3927
330
1A
100
AcDbEntity
  8
外形線
100
AcDbLine
 10
1008.481360153896
 20
300.500265603571
 30
0.0
 11
1008.481360153896
 21
319.784343690901
 31
0.0
  0
LINE
  5
3928
330
1A
100
AcDbEntity
  8
外形線
100
AcDbLine
 10
1002.394466855788
 20
300.500265603568
 30
0.0
 11
1002.394466855788
 21
319.784343690901
 31
0.0
  0
LINE
  5
3929
330
1A
100
AcDbEntity
  8
外形線
100
AcDbLine
 10
1003.211645618872
 20
300.500265603568
 30
0.0
 11
1003.211645618872
 21
317.710786907317
 31
0.0
  0
LINE
  5
392A
330
1A
100
AcDbEntity
  8
外形線
100
AcDbLine
 10
997.633238789504
 20
295.316373644608
 30
0.0
 11
998.839989107918
 21
318.964608453293
 31
0.0
  0
LINE
  5
392B
330
1A
100
AcDbEntity
  8
外形線
100
AcDbLine
 10
1027.401295124802
 20
300.500265603571
 30
0.0
 11
1027.401295124802
 21
321.857900474485
 31
0.0
  0
LINE
  5
392C
330
1A
100
AcDbEntity
  8
外形線
100
AcDbLine
 10
1002.42622981415
 20
242.717770328925
 30
0.0
 11
1001.261963160776
 21
242.717770328925
 31
0.0
  0
LINE
  5
392D
330
1A
100
AcDbEntity
  8
外形線
100
AcDbLine
 10
1000.225184768984
 20
243.754548720717
 30
0.0
 11
1000.225184768984
 21
251.644213545341
 31
0.0
  0
ARC
  5
392E
330
1A
100
AcDbEntity
  8
外形線
100
AcDbCircle
 10
989.3744250991
 20
255.002778035056
 30
0.0
 40
3.110335175376
100
AcDbArc
 50
190.752127235994
 51
225.000000000009
  0
ARC
  5
392F
330
1A
100
AcDbEntity
  8
外形線
100
AcDbCircle
 10
987.300868315516
 20
254.754548720716
 30
0.0
 40
1.036778391792
100
AcDbArc
 50
180.0
 51
270.0
  0
LINE
  5
3930
330
1A
100
AcDbEntity
  8
外形線
100
AcDbLine
 10
987.300868315516
 20
253.717770328925
 30
0.0
 11
1020.68719582124
 21
253.717770328925
 31
0.0
  0
ARC
  5
3931
330
1A
100
AcDbEntity
  8
外形線
100
AcDbCircle
 10
998.1516279854
 20
251.644213545341
 30
0.0
 40
2.073556783584
100
AcDbArc
 50
0.0
 51
90.0
  0
LINE
  5
3932
330
1A
100
AcDbEntity
  8
外形線
100
AcDbLine
 10
1020.68719582124
 20
253.717770328925
 30
0.0
 11
1020.68719582124
 21
281.159259600695
 31
0.0
  0
LINE
  5
3933
330
1A
100
AcDbEntity
  8
外形線
100
AcDbLine
 10
986.264089923724
 20
254.422512313543
 30
0.0
 11
986.264089923724
 21
288.68099193714
 31
0.0
  0
ARC
  5
3934
330
1A
100
AcDbEntity
  8
外形線
100
AcDbCircle
 10
987.300868315516
 20
288.68099193714
 30
0.0
 40
1.036778391792
100
AcDbArc
 50
90.0
 51
180.0
  0
LINE
  5
3935
330
1A
100
AcDbEntity
  8
外形線
100
AcDbLine
 10
987.300868315516
 20
289.717770328932
 30
0.0
 11
1096.725040634006
 21
289.717770328933
 31
0.0
  0
LINE
  5
3936
330
1A
100
AcDbEntity
  8
外形線
100
AcDbLine
 10
1016.52408373611
 20
284.533878369973
 30
0.0
 11
1095.092574242618
 21
284.533878369973
 31
0.0
  0
LINE
  5
3937
330
1A
100
AcDbEntity
  8
外形線
100
AcDbLine
 10
1092.370973376892
 20
242.717770328926
 30
0.0
 11
1002.42622981415
 21
242.717770328925
 31
0.0
  0
LINE
  5
3938
330
1A
100
AcDbEntity
  8
外形線
100
AcDbLine
 10
997.633238789504
 20
295.316373644608
 30
0.0
 11
1047.398601595522
 21
295.316373644609
 31
0.0
  0
LINE
  5
3939
330
1A
100
AcDbEntity
  8
外形線
100
AcDbLine
 10
1028.438073516594
 20
322.894678866277
 30
0.0
 11
1041.177931244769
 21
322.894678866277
 31
0.0
  0
LINE
  5
393A
330
1A
100
AcDbEntity
  8
外形線
100
AcDbLine
 10
1003.852584418306
 20
239.139145697799
 30
0.0
 11
1002.621341385432
 21
239.139145697799
 31
0.0
  0
ARC
  5
393B
330
1A
100
AcDbEntity
  8
外形線
100
AcDbCircle
 10
1003.852584418306
 20
236.028810522423
 30
0.0
 40
3.110335175376
100
AcDbArc
 50
35.000000000009
 51
90.0
  0
ARC
  5
393C
330
1A
100
AcDbEntity
  8
外形線
100
AcDbCircle
 10
1002.42622981415
 20
241.680991937133
 30
0.0
 40
1.036778391792
100
AcDbArc
 50
35.000000000009
 51
90.0
  0
ARC
  5
393D
330
1A
100
AcDbEntity
  8
外形線
100
AcDbCircle
 10
1001.261963160776
 20
243.754548720717
 30
0.0
 40
1.036778391792
100
AcDbArc
 50
180.0
 51
270.0
  0
ARC
  5
393E
330
1A
100
AcDbEntity
  8
外形線
100
AcDbCircle
 10
1092.370973376892
 20
241.680991937134
 30
0.0
 40
1.036778391792
100
AcDbArc
 50
90.0
 51
145.0
  0
ARC
  5
393F
330
1A
100
AcDbEntity
  8
外形線
100
AcDbCircle
 10
1093.535240030264
 20
243.754548720717
 30
0.0
 40
1.036778391792
100
AcDbArc
 50
270.0
 51
0.0
  0
DIMENSION
  5
3940
330
1A
100
AcDbEntity
  8
寸法線
 48
10.0
100
AcDbDimension
  2
*D17
 10
958.514089923724
 20
344.066259458591
 30
0.0
 11
1003.014089923724
 21
344.066259458591
 31
0.0
 70
   160
  1
84
 71
     5
 42
89.0
  3
ISO-25
100
AcDbAlignedDimension
 13
1047.514089923724
 23
322.893925361773
 33
0.0
 14
958.514089923724
 24
280.321363327284
 34
0.0
100
AcDbRotatedDimension
1001
ACAD
1000
DSTYLE
1002
{
1070
    41
1040
6.0
1070
    47
1040
0.1
1070
    48
1040
0.1
1070
    73
1070
     0
1070
   140
1040
8.0
1070
   271
1070
     1
1070
   272
1070
     1
1070
   341
1005
2AEB
1070
   342
1005
2AEB
1002
}
  0
LINE
  5
3941
330
1A
100
AcDbEntity
  8
中心線
 48
10.0
100
AcDbLine
 10
992.356661923724
 20
271.717770328928
 30
0.0
 11
954.956661923724
 21
271.717770328928
 31
0.0
  0
LINE
  5
3942
330
1A
100
AcDbEntity
  8
中心線
 48
10.0
100
AcDbLine
 10
1047.514089923726
 20
132.655724626868
 30
0.0
 11
1047.514089923724
 21
322.893925361773
 31
0.0
  0
LINE
  5
3943
330
1A
100
AcDbEntity
  8
外形線
 48
10.0
100
AcDbLine
 10
1014.764089923724
 20
221.778202159295
 30
0.0
 11
1080.264089923724
 21
221.778202159295
 31
0.0
  0
DIMENSION
  5
3944
330
1A
100
AcDbEntity
  8
寸法線
 48
10.0
100
AcDbDimension
  2
*D18
 10
1145.165025235352
 20
221.778202159295
 30
0.0
 11
1145.165025235352
 21
272.336440512787
 31
0.0
 70
   160
  1
100
 71
     5
 42
101.116476706982
  3
ISO-25
100
AcDbAlignedDimension
 13
1091.815783990968
 23
322.894678866278
 33
0.0
 14
1080.264089923724
 24
221.778202159295
 34
0.0
 50
90.0
100
AcDbRotatedDimension
1001
ACAD
1000
DSTYLE
1002
{
1070
    41
1040
6.0
1070
    47
1040
0.1
1070
    48
1040
0.1
1070
    73
1070
     0
1070
   140
1040
8.0
1070
   271
1070
     1
1070
   272
1070
     1
1070
   341
1005
2AEB
1070
   342
1005
2AEB
1002
}
  0
LINE
  5
3945
330
1A
100
AcDbEntity
  8
外形線
 48
10.0
100
AcDbLine
 10
1080.614089923724
 20
221.778202159295
 30
0.0
 11
1086.814089923725
 21
218.228202159295
 31
0.0
  0
ARC
  5
3946
330
1A
100
AcDbEntity
  8
外形線
 48
10.0
100
AcDbCircle
 10
1076.976589923725
 20
206.372722405774
 30
0.0
 40
15.40547975352145
100
AcDbArc
 50
50.314619378414
 51
129.685380621586
  0
LINE
  5
3947
330
1A
100
AcDbEntity
  8
外形線
 48
10.0
100
AcDbLine
 10
1086.814089923725
 20
204.028202159295
 30
0.0
 11
1086.814089923725
 21
218.228202159295
 31
0.0
  0
LINE
  5
3948
330
1A
100
AcDbEntity
  8
外形線
 48
10.0
100
AcDbLine
 10
1086.814089923725
 20
218.228202159295
 30
0.0
 11
1086.814089923725
 21
204.028202159295
 31
0.0
  0
ARC
  5
3949
330
1A
100
AcDbEntity
  8
外形線
 48
10.0
100
AcDbCircle
 10
1047.514089923725
 20
165.758043708591
 30
0.0
 40
56.02015845070423
100
AcDbArc
 50
69.493091256483
 51
110.506908743517
  0
LINE
  5
394A
330
1A
100
AcDbEntity
  8
外形線
 48
10.0
100
AcDbLine
 10
1067.139089923725
 20
204.028202159295
 30
0.0
 11
1067.139089923725
 21
218.228202159295
 31
0.0
  0
LINE
  5
394B
330
1A
100
AcDbEntity
  8
外形線
 48
10.0
100
AcDbLine
 10
1008.214089923724
 20
218.228202159295
 30
0.0
 11
1014.414089923725
 21
221.778202159295
 31
0.0
  0
ARC
  5
394C
330
1A
100
AcDbEntity
  8
外形線
 48
10.0
100
AcDbCircle
 10
1018.051589923724
 20
206.372722405774
 30
0.0
 40
15.40547975352081
100
AcDbArc
 50
50.314619378406
 51
129.685380621594
  0
LINE
  5
394D
330
1A
100
AcDbEntity
  8
外形線
 48
10.0
100
AcDbLine
 10
1027.889089923725
 20
204.028202159295
 30
0.0
 11
1027.889089923725
 21
218.228202159295
 31
0.0
  0
LINE
  5
394E
330
1A
100
AcDbEntity
  8
外形線
 48
10.0
100
AcDbLine
 10
1008.214089923724
 20
204.028202159295
 30
0.0
 11
1008.214089923724
 21
218.228202159295
 31
0.0
  0
LINE
  5
394F
330
1A
100
AcDbEntity
  8
外形線
 48
10.0
100
AcDbLine
 10
1008.214089923724
 20
218.228202159295
 30
0.0
 11
1008.214089923724
 21
204.028202159295
 31
0.0
  0
ARC
  5
3950
330
1A
100
AcDbEntity
  8
外形線
 48
10.0
100
AcDbCircle
 10
1076.976589923725
 20
215.883681912816
 30
0.0
 40
15.40547975352116
100
AcDbArc
 50
230.314619378406
 51
309.685380621594
  0
ARC
  5
3951
330
1A
100
AcDbEntity
  8
外形線
 48
10.0
100
AcDbCircle
 10
1018.051589923725
 20
215.883681912816
 30
0.0
 40
15.4054797535208
100
AcDbArc
 50
230.314619378406
 51
309.685380621594
  0
ARC
  5
3952
330
1A
100
AcDbEntity
  8
外形線
 48
10.0
100
AcDbCircle
 10
1047.514089923725
 20
256.498360609999
 30
0.0
 40
56.02015845070423
100
AcDbArc
 50
249.493091256475
 51
290.506908743517
  0
LINE
  5
3953
330
1A
100
AcDbEntity
  8
外形線
 48
10.0
100
AcDbLine
 10
1014.414089923725
 20
221.778202159295
 30
0.0
 11
1080.614089923724
 21
221.778202159295
 31
0.0
  0
VIEWPORT
  5
2965
102
{ACAD_XDICTIONARY
360
3C8C
102
}
330
2963
100
AcDbEntity
 67
     1
  8
0
100
AcDbViewport
 10
0.0
 20
0.0
 30
0.0
 40
282.006082714182
 41
200.672792012248
 68
     1
 69
     1
 12
96.287195132585
 22
68.09043342483
 13
0.0
 23
0.0
 14
10.0
 24
10.0
 15
10.0
 25
10.0
 16
0.0
 26
0.0
 36
1.0
 17
0.0
 27
0.0
 37
0.0
 42
50.0
 43
0.0
 44
0.0
 45
200.672792012248
 50
0.0
 51
0.0
 72
   100
 90
    32784
  1

281
     0
 71
     1
 74
     0
110
0.0
120
0.0
130
0.0
111
1.0
121
0.0
131
0.0
112
0.0
122
1.0
132
0.0
 79
     0
146
0.0
170
     0
  0
VIEWPORT
  5
2966
102
{ACAD_XDICTIONARY
360
3C8E
102
}
330
2963
100
AcDbEntity
 67
     1
  8
図枠太線
 48
10.0
100
AcDbViewport
 10
102.845259294236
 20
157.1607220215
 30
0.0
 40
190.003614786078
 41
249.999227779523
 68
     2
 69
     2
 12
1041.089023437148
 22
146.464435018836
 13
0.0
 23
0.0
 14
1.0
 24
1.0
 15
0.0
 25
0.0
 16
0.0
 26
0.0
 36
1.0
 17
0.0
 27
0.0
 37
0.0
 42
50.0
 43
0.0
 44
0.0
 45
499.998455559047
 50
0.0
 51
0.0
 72
   100
 90
    32768
  1

281
     0
 71
     1
 74
     0
110
0.0
120
0.0
130
0.0
111
1.0
121
0.0
131
0.0
112
0.0
122
1.0
132
0.0
 79
     0
146
0.0
170
     0
  0
INSERT
  5
2A23
330
2963
100
AcDbEntity
 67
     1
  8
図枠太線
100
AcDbBlockReference
  2
A4縦用　タイトル
 10
5.478820823007
 20
-2.364323092846
 30
0.0
  0
MTEXT
  5
2DA1
102
{ACAD_XDICTIONARY
360
3B74
102
}
330
2963
100
AcDbEntity
 67
     1
  8
寸法線
 48
10.0
100
AcDbMText
 10
158.449131229562
 20
12.207980540526
 30
0.0
 40
6.0
 41
28.495204767995
 71
     1
 72
     5
  1
HX-1133
 73
     1
 44
1.0
1001
AcadAnnotative
1000
AnnotativeData
1002
{
1070
     1
1070
     0
1002
}
  0
MTEXT
  5
2DA2
330
2963
100
AcDbEntity
 67
     1
  8
寸法線
 48
10.0
100
AcDbMText
 10
52.553610248465
 20
11.481638943946
 30
0.0
 40
5.0
 41
7.592808079748
 71
     1
 72
     5
  1
1:2
 73
     1
 44
1.0
  0
MTEXT
  5
2DA6
102
{ACAD_XDICTIONARY
360
3BD2
102
}
330
2963
100
AcDbEntity
 67
     1
  8
寸法線
 48
10.0
100
AcDbMText
 10
160.29922942756
 20
26.849993932799
 30
0.0
 40
5.0
 41
68.569565217391
 71
     1
 72
     5
  1
SGV-380-2
 73
     1
 44
1.0
1001
AcadAnnotative
1000
AnnotativeData
1002
{
1070
     1
1070
     0
1002
}
  0
MTEXT
  5
2DA7
102
{ACAD_XDICTIONARY
360
3B5C
102
}
330
2963
100
AcDbEntity
 67
     1
  8
寸法線
 48
10.0
100
AcDbMText
 10
143.747339828229
 20
26.392553882095
 30
0.0
 40
4.0
 41
12.314217853235
 71
     1
 72
     5
  1
Type：
 73
     1
 44
1.0
1001
AcadAnnotative
1000
AnnotativeData
1002
{
1070
     1
1070
     0
1002
}
  0
MTEXT
  5
345C
102
{ACAD_XDICTIONARY
360
3B5F
102
}
330
2963
100
AcDbEntity
 67
     1
  8
寸法線
 48
10.0
100
AcDbMText
 10
175.19922579227
 20
40.279331764088
 30
0.0
 40
4.0
 41
68.569565217391
 71
     1
 72
     5
  1
Q'ty:
 73
     1
 44
1.0
1001
AcadAnnotative
1000
AnnotativeData
1002
{
1070
     1
1070
     0
1002
}
  0
MTEXT
  5
3B52
102
{ACAD_XDICTIONARY
360
3BD5
102
}
330
2963
100
AcDbEntity
 67
     1
  8
寸法線
 48
10.0
100
AcDbMText
 10
85.604187522788
 20
29.576918655451
 30
0.0
 40
2.2
 41
170.08
 71
     1
 72
     5
  1
Ultrasonic Level Transmitter For liquids
 73
     1
 44
1.0
1001
AcadAnnotative
1000
AnnotativeData
1002
{
1070
     1
1070
     0
1002
}
  0
MTEXT
  5
3B53
330
2963
100
AcDbEntity
 67
     1
  8
寸法線
 48
10.0
100
AcDbMText
 10
86.863719922531
 20
21.478897585284
 30
0.0
 40
2.0
 41
92.516666666667
 71
     1
 72
     5
  1
Manufacture：NIVELCO Process Control Co.
 73
     1
 44
1.0
  0
MTEXT
  5
3B54
102
{ACAD_XDICTIONARY
360
3B55
102
}
330
2963
100
AcDbEntity
 67
     1
  8
寸法線
 48
10.0
100
AcDbMText
 10
66.404384797788
 20
9.394245304678
 30
0.0
 40
2.5
 41
18.68273515387
 71
     1
 72
     5
  1
May,18,2016
 73
     1
 44
1.0
1001
AcadAnnotative
1000
AnnotativeData
1002
{
1070
     1
1070
     0
1002
}
  0
MTEXT
  5
3B58
102
{ACAD_XDICTIONARY
360
3B59
102
}
330
2963
100
AcDbEntity
 67
     1
  8
寸法線
 48
10.0
100
AcDbMText
 10
69.069269574394
 20
25.28817843719
 30
0.0
 40
4.0
 41
17.153436258121
 71
     1
 72
     5
  1
ohno
 73
     1
 44
1.0
1001
AcadAnnotative
1000
AnnotativeData
1002
{
1070
     1
1070
     0
1002
}
  0
ENDSEC
  0
SECTION
  2
OBJECTS
  0
DICTIONARY
  5
C
330
0
100
AcDbDictionary
281
     1
  3
ACAD_COLOR
350
2948
  3
ACAD_DETAILVIEWSTYLE
350
3B68
  3
ACAD_GROUP
350
D
  3
ACAD_LAYOUT
350
2816
  3
ACAD_MATERIAL
350
2947
  3
ACAD_MLEADERSTYLE
350
3AE3
  3
ACAD_MLINESTYLE
350
E
  3
ACAD_PLOTSETTINGS
350
2817
  3
ACAD_PLOTSTYLENAME
350
2814
  3
ACAD_SCALELIST
350
3ABC
  3
ACAD_SECTIONVIEWSTYLE
350
3B69
  3
ACAD_TABLESTYLE
350
3AE1
  3
ACAD_VISUALSTYLE
350
3AA3
  3
ACDB_RECOMPOSE_DATA
350
3CCD
  3
AcDbVariableDictionary
350
3B62
  0
DICTIONARY
  5
3C90
330
8
100
AcDbDictionary
280
     1
281
     1
  3
ACAD_XREC_ROUNDTRIP
360
3C91
  0
DICTIONARY
  5
29EA
330
2
100
AcDbDictionary
280
     1
281
     1
  3
ACAD_LAYERFILTERS
360
2B03
  3
ACAD_LAYERSTATES
360
29EB
  0
DICTIONARY
  5
3B6B
330
3885
100
AcDbDictionary
280
     1
281
     1
  3
AcDbContextDataManager
360
3B6C
  0
DICTIONARY
  5
3B6E
330
388E
100
AcDbDictionary
280
     1
281
     1
  3
AcDbContextDataManager
360
3B6F
  0
DICTIONARY
  5
3B71
330
38B5
100
AcDbDictionary
280
     1
281
     1
  3
AcDbContextDataManager
360
3B72
  0
DICTIONARY
  5
3C8C
330
2965
100
AcDbDictionary
280
     1
281
     1
  3
ACAD_XREC_ROUNDTRIP
360
3C8D
  0
DICTIONARY
  5
3C8E
330
2966
100
AcDbDictionary
280
     1
281
     1
  3
ACAD_XREC_ROUNDTRIP
360
3C8F
  0
DICTIONARY
  5
3B74
330
2DA1
100
AcDbDictionary
280
     1
281
     1
  3
AcDbContextDataManager
360
3B75
  0
DICTIONARY
  5
3BD2
330
2DA6
100
AcDbDictionary
280
     1
281
     1
  3
AcDbContextDataManager
360
3BD3
  0
DICTIONARY
  5
3B5C
330
2DA7
100
AcDbDictionary
280
     1
281
     1
  3
AcDbContextDataManager
360
3B5D
  0
DICTIONARY
  5
3B5F
330
345C
100
AcDbDictionary
280
     1
281
     1
  3
AcDbContextDataManager
360
3B60
  0
DICTIONARY
  5
3BD5
330
3B52
100
AcDbDictionary
280
     1
281
     1
  3
AcDbContextDataManager
360
3BD6
  0
DICTIONARY
  5
3B55
330
3B54
100
AcDbDictionary
280
     1
281
     1
  3
AcDbContextDataManager
360
3B56
  0
DICTIONARY
  5
3B59
330
3B58
100
AcDbDictionary
280
     1
281
     1
  3
AcDbContextDataManager
360
3B5A
  0
DICTIONARY
  5
2948
102
{ACAD_REACTORS
330
C
102
}
330
C
100
AcDbDictionary
281
     1
  0
DICTIONARY
  5
3B68
102
{ACAD_REACTORS
330
C
102
}
330
C
100
AcDbDictionary
281
     1
  0
DICTIONARY
  5
D
102
{ACAD_REACTORS
330
C
102
}
330
C
100
AcDbDictionary
281
     1
  0
DICTIONARY
  5
2816
102
{ACAD_REACTORS
330
C
102
}
330
C
100
AcDbDictionary
281
     1
  3
A4縦
350
2994
  3
Model
350
2818
  0
DICTIONARY
  5
2947
102
{ACAD_REACTORS
330
C
102
}
330
C
100
AcDbDictionary
281
     1
  3
ByBlock
350
3ADF
  3
ByLayer
350
3ADE
  3
Global
350
3AE0
  0
DICTIONARY
  5
3AE3
102
{ACAD_REACTORS
330
C
102
}
330
C
100
AcDbDictionary
281
     1
  3
Standard
350
3AE4
  0
DICTIONARY
  5
E
102
{ACAD_REACTORS
330
C
102
}
330
C
100
AcDbDictionary
281
     1
  3
STANDARD
350
13
  0
DICTIONARY
  5
2817
102
{ACAD_REACTORS
330
C
102
}
330
C
100
AcDbDictionary
281
     1
  0
ACDBDICTIONARYWDFLT
  5
2814
102
{ACAD_REACTORS
330
C
102
}
330
C
100
AcDbDictionary
281
     1
  3
Normal
350
2815
100
AcDbDictionaryWithDefault
340
2815
  0
DICTIONARY
  5
3ABC
102
{ACAD_REACTORS
330
C
102
}
330
C
100
AcDbDictionary
281
     1
  3
A0
350
3ABD
  3
A1
350
3ABE
  3
A2
350
3ABF
  3
A3
350
3AC0
  3
A4
350
3AC1
  3
A5
350
3AC2
  3
A6
350
3AC3
  3
A7
350
3AC4
  3
A8
350
3AC5
  3
A9
350
3AC6
  3
B0
350
3AC7
  3
B1
350
3AC8
  3
B2
350
3AC9
  3
B3
350
3ACA
  3
B4
350
3ACB
  3
B5
350
3ACC
  3
B6
350
3ACD
  3
B7
350
3ACE
  3
B8
350
3ACF
  3
B9
350
3AD0
  3
C0
350
3AD1
  3
C1
350
3AD2
  3
C2
350
3AD3
  3
C3
350
3AD4
  3
C4
350
3AD5
  3
C5
350
3AD6
  3
C6
350
3AD7
  3
C7
350
3AD8
  3
C8
350
3AD9
  3
C9
350
3ADA
  3
D0
350
3ADB
  3
D1
350
3ADC
  3
D2
350
3ADD
  0
DICTIONARY
  5
3B69
102
{ACAD_REACTORS
330
C
102
}
330
C
100
AcDbDictionary
281
     1
  0
DICTIONARY
  5
3AE1
102
{ACAD_REACTORS
330
C
102
}
330
C
100
AcDbDictionary
281
     1
  3
Standard
350
3AE2
  0
DICTIONARY
  5
3AA3
102
{ACAD_REACTORS
330
C
102
}
330
C
100
AcDbDictionary
281
     1
  3
2dWireframe
350
3AA8
  3
Basic
350
3AAB
  3
Brighten
350
3AAF
  3
ColorChange
350
3AB3
  3
Conceptual
350
3AAD
  3
Dim
350
3AAE
  3
EdgeColorOff
350
3AB6
  3
Facepattern
350
3AB2
  3
Flat
350
3AA4
  3
FlatWithEdges
350
3AA5
  3
Gouraud
350
3AA6
  3
GouraudWithEdges
350
3AA7
  3
Hidden
350
3AAA
  3
JitterOff
350
3AB4
  3
Linepattern
350
3AB1
  3
OverhangOff
350
3AB5
  3
Realistic
350
3AAC
  3
Shaded
350
3ABB
  3
Shaded with edges
350
3ABA
  3
Shades of Gray
350
3AB7
  3
Sketchy
350
3AB8
  3
Thicken
350
3AB0
  3
Wireframe
350
3AA9
  3
X-Ray
350
3AB9
  0
XRECORD
  5
3CCD
102
{ACAD_REACTORS
330
C
102
}
330
C
100
AcDbXrecord
280
     1
 90
        1
330
3AE2
  0
DICTIONARY
  5
3B62
102
{ACAD_REACTORS
330
C
102
}
330
C
100
AcDbDictionary
281
     1
  3
CANNOSCALE
350
3B63
  3
CMLEADERSTYLE
350
3B65
  3
CTABLESTYLE
350
3B64
  3
MSLTSCALE
350
3B66
  3
XCLIPFRAME
350
3B67
  0
XRECORD
  5
3C91
102
{ACAD_REACTORS
330
3C90
102
}
330
3C90
100
AcDbXrecord
280
     1
102
VTR_0.000_0.000_1.000_1.000_VISUALSTYLE
340
3AA8
102
VTR_0.000_0.000_1.000_1.000_GRIDDISPLAY
 70
     3
102
VTR_0.000_0.000_1.000_1.000_GRIDMAJOR
 70
     5
102
VTR_0.000_0.000_1.000_1.000_DEFAULTLIGHTING
280
     1
102
VTR_0.000_0.000_1.000_1.000_DEFAULTLIGHTINGTYPE
 70
     1
102
VTR_0.000_0.000_1.000_1.000_BRIGHTNESS
141
0.0
102
VTR_0.000_0.000_1.000_1.000_CONTRAST
142
0.0
  0
DICTIONARY
  5
2B03
102
{ACAD_REACTORS
330
29EA
102
}
330
29EA
100
AcDbDictionary
281
     1
  0
DICTIONARY
  5
29EB
102
{ACAD_REACTORS
330
29EA
102
}
330
29EA
100
AcDbDictionary
281
     1
  0
DICTIONARY
  5
3B6C
102
{ACAD_REACTORS
330
3B6B
102
}
330
3B6B
100
AcDbDictionary
281
     1
  3
ACDB_ANNOTATIONSCALES
350
3B6D
  0
DICTIONARY
  5
3B6F
102
{ACAD_REACTORS
330
3B6E
102
}
330
3B6E
100
AcDbDictionary
281
     1
  3
ACDB_ANNOTATIONSCALES
350
3B70
  0
DICTIONARY
  5
3B72
102
{ACAD_REACTORS
330
3B71
102
}
330
3B71
100
AcDbDictionary
281
     1
  3
ACDB_ANNOTATIONSCALES
350
3B73
  0
XRECORD
  5
3C8D
102
{ACAD_REACTORS
330
3C8C
102
}
330
3C8C
100
AcDbXrecord
280
     1
102
VISUALSTYLE
340
3AA8
102
GRIDDISPLAY
 70
     0
102
GRIDMAJOR
 70
     5
102
DEFAULTLIGHTING
280
     1
102
DEFAULTLIGHTINGTYPE
 70
     1
102
BRIGHTNESS
141
0.0
102
CONTRAST
142
0.0
102
SUNID
360
0
  0
XRECORD
  5
3C8F
102
{ACAD_REACTORS
330
3C8E
102
}
330
3C8E
100
AcDbXrecord
280
     1
102
VISUALSTYLE
340
3AA8
102
GRIDDISPLAY
 70
     0
102
GRIDMAJOR
 70
     5
102
DEFAULTLIGHTING
280
     1
102
DEFAULTLIGHTINGTYPE
 70
     1
102
BRIGHTNESS
141
0.0
102
CONTRAST
142
0.0
  0
DICTIONARY
  5
3B75
102
{ACAD_REACTORS
330
3B74
102
}
330
3B74
100
AcDbDictionary
281
     1
  3
ACDB_ANNOTATIONSCALES
350
3B76
  0
DICTIONARY
  5
3BD3
102
{ACAD_REACTORS
330
3BD2
102
}
330
3BD2
100
AcDbDictionary
281
     1
  3
ACDB_ANNOTATIONSCALES
350
3BD4
  0
DICTIONARY
  5
3B5D
102
{ACAD_REACTORS
330
3B5C
102
}
330
3B5C
100
AcDbDictionary
281
     1
  3
ACDB_ANNOTATIONSCALES
350
3B5E
  0
DICTIONARY
  5
3B60
102
{ACAD_REACTORS
330
3B5F
102
}
330
3B5F
100
AcDbDictionary
281
     1
  3
ACDB_ANNOTATIONSCALES
350
3B61
  0
DICTIONARY
  5
3BD6
102
{ACAD_REACTORS
330
3BD5
102
}
330
3BD5
100
AcDbDictionary
281
     1
  3
ACDB_ANNOTATIONSCALES
350
3BD7
  0
DICTIONARY
  5
3B56
102
{ACAD_REACTORS
330
3B55
102
}
330
3B55
100
AcDbDictionary
281
     1
  3
ACDB_ANNOTATIONSCALES
350
3B57
  0
DICTIONARY
  5
3B5A
102
{ACAD_REACTORS
330
3B59
102
}
330
3B59
100
AcDbDictionary
281
     1
  3
ACDB_ANNOTATIONSCALES
350
3B5B
  0
LAYOUT
  5
2994
102
{ACAD_REACTORS
330
2816
102
}
330
2816
100
AcDbPlotSettings
  1

  2
DocuCentre 352
  4
A4
  6

 40
4.857749938965
 41
4.900062561035
 42
4.942413330078
 43
4.857757568359
 44
209.973327636719
 45
296.968322753906
 46
0.0
 47
0.0
 48
0.0
 49
0.0
140
0.0
141
0.0
142
1.0
143
1.0
 70
   688
 72
     1
 73
     0
 74
     5
  7
TOWA.ctb
 75
    16
 76
     1
 77
     2
 78
   300
147
1.0
148
0.0
149
0.0
100
AcDbLayout
  1
A4縦
 70
     1
 71
     1
 10
-4.857749938965
 20
-4.900062561035
 11
205.115577697754
 21
292.068260192871
 12
0.0
 22
0.0
 32
0.0
 14
7.843451901197
 24
2.161110131738
 34
0.0
 15
197.847066687274
 25
282.160335911262
 35
0.0
146
0.0
 13
0.0
 23
0.0
 33
0.0
 16
1.0
 26
0.0
 36
0.0
 17
0.0
 27
1.0
 37
0.0
 76
     0
330
2963
331
2965
  0
LAYOUT
  5
2818
102
{ACAD_REACTORS
330
2816
102
}
330
2816
100
AcDbPlotSettings
  1

  2
EPSON LP-8000S
  4

  6

 40
0.0
 41
0.0
 42
0.0
 43
0.0
 44
0.0
 45
0.0
 46
0.0
 47
0.0
 48
0.0
 49
0.0
140
0.0
141
0.0
142
1.0
143
1.0
 70
  1712
 72
     0
 73
     0
 74
     0
  7
TOWA.ctb
 75
     0
 76
     0
 77
     2
 78
   300
147
1.0
148
0.0
149
0.0
100
AcDbLayout
  1
Model
 70
     1
 71
     0
 10
0.0
 20
0.0
 11
12.0
 21
9.0
 12
0.0
 22
0.0
 32
0.0
 14
872.627264861032
 24
-75.328942845523
 34
0.0
 15
1175.470422115103
 25
352.282926125258
 35
0.0
146
0.0
 13
0.0
 23
0.0
 33
0.0
 16
1.0
 26
0.0
 36
0.0
 17
0.0
 27
1.0
 37
0.0
 76
     0
330
1A
331
3AA2
  0
MATERIAL
  5
3ADF
102
{ACAD_REACTORS
330
2947
102
}
102
{ACAD_XDICTIONARY
360
3C94
102
}
330
2947
100
AcDbMaterial
  1
ByBlock
  0
MATERIAL
  5
3ADE
102
{ACAD_REACTORS
330
2947
102
}
102
{ACAD_XDICTIONARY
360
3C92
102
}
330
2947
100
AcDbMaterial
  1
ByLayer
  0
MATERIAL
  5
3AE0
102
{ACAD_REACTORS
330
2947
102
}
102
{ACAD_XDICTIONARY
360
3C96
102
}
330
2947
100
AcDbMaterial
  1
Global
  0
MLEADERSTYLE
  5
3AE4
102
{ACAD_REACTORS
330
3AE3
102
}
102
{ACAD_XDICTIONARY
360
3CCB
102
}
330
3AE3
100
AcDbMLeaderStyle
170
     2
171
     1
172
     0
 90
        2
 40
0.0
 41
0.0
173
     1
 91
-1056964608
340
14
 92
       -2
290
     1
 42
2.0
291
     1
 43
8.0
  3
Standard
341
0
 44
4.0
300

342
10
174
     1
178
     6
175
     1
176
     0
 93
-1056964608
 45
4.0
292
     0
297
     0
 46
4.0
343
0
 94
-1056964608
 47
1.0
 49
1.0
140
1.0
293
     1
141
0.0
294
     1
177
     0
142
1.0
295
     0
296
     0
143
3.75
1001
ACAD_MLEADERVER
1070
     2
  0
MLINESTYLE
  5
13
102
{ACAD_REACTORS
330
E
102
}
330
E
100
AcDbMlineStyle
  2
STANDARD
 70
     0
  3

 62
     0
 51
90.0
 52
90.0
 71
     2
 49
0.5
 62
   256
  6
BYLAYER
 49
-0.5
 62
   256
  6
BYLAYER
  0
ACDBPLACEHOLDER
  5
2815
102
{ACAD_REACTORS
330
2814
102
}
330
2814
  0
SCALE
  5
3ABD
102
{ACAD_REACTORS
330
3ABC
102
}
330
3ABC
100
AcDbScale
 70
     0
300
1:1
140
1.0
141
1.0
290
     1
  0
SCALE
  5
3ABE
102
{ACAD_REACTORS
330
3ABC
102
}
330
3ABC
100
AcDbScale
 70
     0
300
1:2
140
1.0
141
2.0
290
     0
  0
SCALE
  5
3ABF
102
{ACAD_REACTORS
330
3ABC
102
}
330
3ABC
100
AcDbScale
 70
     0
300
1:4
140
1.0
141
4.0
290
     0
  0
SCALE
  5
3AC0
102
{ACAD_REACTORS
330
3ABC
102
}
330
3ABC
100
AcDbScale
 70
     0
300
1:5
140
1.0
141
5.0
290
     0
  0
SCALE
  5
3AC1
102
{ACAD_REACTORS
330
3ABC
102
}
330
3ABC
100
AcDbScale
 70
     0
300
1:8
140
1.0
141
8.0
290
     0
  0
SCALE
  5
3AC2
102
{ACAD_REACTORS
330
3ABC
102
}
330
3ABC
100
AcDbScale
 70
     0
300
1:10
140
1.0
141
10.0
290
     0
  0
SCALE
  5
3AC3
102
{ACAD_REACTORS
330
3ABC
102
}
330
3ABC
100
AcDbScale
 70
     0
300
1:16
140
1.0
141
16.0
290
     0
  0
SCALE
  5
3AC4
102
{ACAD_REACTORS
330
3ABC
102
}
330
3ABC
100
AcDbScale
 70
     0
300
1:20
140
1.0
141
20.0
290
     0
  0
SCALE
  5
3AC5
102
{ACAD_REACTORS
330
3ABC
102
}
330
3ABC
100
AcDbScale
 70
     0
300
1:30
140
1.0
141
30.0
290
     0
  0
SCALE
  5
3AC6
102
{ACAD_REACTORS
330
3ABC
102
}
330
3ABC
100
AcDbScale
 70
     0
300
1:40
140
1.0
141
40.0
290
     0
  0
SCALE
  5
3AC7
102
{ACAD_REACTORS
330
3ABC
102
}
330
3ABC
100
AcDbScale
 70
     0
300
1:50
140
1.0
141
50.0
290
     0
  0
SCALE
  5
3AC8
102
{ACAD_REACTORS
330
3ABC
102
}
330
3ABC
100
AcDbScale
 70
     0
300
1:100
140
1.0
141
100.0
290
     0
  0
SCALE
  5
3AC9
102
{ACAD_REACTORS
330
3ABC
102
}
330
3ABC
100
AcDbScale
 70
     0
300
2:1
140
2.0
141
1.0
290
     0
  0
SCALE
  5
3ACA
102
{ACAD_REACTORS
330
3ABC
102
}
330
3ABC
100
AcDbScale
 70
     0
300
4:1
140
4.0
141
1.0
290
     0
  0
SCALE
  5
3ACB
102
{ACAD_REACTORS
330
3ABC
102
}
330
3ABC
100
AcDbScale
 70
     0
300
8:1
140
8.0
141
1.0
290
     0
  0
SCALE
  5
3ACC
102
{ACAD_REACTORS
330
3ABC
102
}
330
3ABC
100
AcDbScale
 70
     0
300
10:1
140
10.0
141
1.0
290
     0
  0
SCALE
  5
3ACD
102
{ACAD_REACTORS
330
3ABC
102
}
330
3ABC
100
AcDbScale
 70
     0
300
100:1
140
100.0
141
1.0
290
     0
  0
SCALE
  5
3ACE
102
{ACAD_REACTORS
330
3ABC
102
}
330
3ABC
100
AcDbScale
 70
     0
300
1/128" = 1'-0"
140
0.0078125
141
12.0
290
     0
  0
SCALE
  5
3ACF
102
{ACAD_REACTORS
330
3ABC
102
}
330
3ABC
100
AcDbScale
 70
     0
300
1/64" = 1'-0"
140
0.015625
141
12.0
290
     0
  0
SCALE
  5
3AD0
102
{ACAD_REACTORS
330
3ABC
102
}
330
3ABC
100
AcDbScale
 70
     0
300
1/32" = 1'-0"
140
0.03125
141
12.0
290
     0
  0
SCALE
  5
3AD1
102
{ACAD_REACTORS
330
3ABC
102
}
330
3ABC
100
AcDbScale
 70
     0
300
1/16" = 1'-0"
140
0.0625
141
12.0
290
     0
  0
SCALE
  5
3AD2
102
{ACAD_REACTORS
330
3ABC
102
}
330
3ABC
100
AcDbScale
 70
     0
300
3/32" = 1'-0"
140
0.09375
141
12.0
290
     0
  0
SCALE
  5
3AD3
102
{ACAD_REACTORS
330
3ABC
102
}
330
3ABC
100
AcDbScale
 70
     0
300
1/8" = 1'-0"
140
0.125
141
12.0
290
     0
  0
SCALE
  5
3AD4
102
{ACAD_REACTORS
330
3ABC
102
}
330
3ABC
100
AcDbScale
 70
     0
300
3/16" = 1'-0"
140
0.1875
141
12.0
290
     0
  0
SCALE
  5
3AD5
102
{ACAD_REACTORS
330
3ABC
102
}
330
3ABC
100
AcDbScale
 70
     0
300
1/4" = 1'-0"
140
0.25
141
12.0
290
     0
  0
SCALE
  5
3AD6
102
{ACAD_REACTORS
330
3ABC
102
}
330
3ABC
100
AcDbScale
 70
     0
300
3/8" = 1'-0"
140
0.375
141
12.0
290
     0
  0
SCALE
  5
3AD7
102
{ACAD_REACTORS
330
3ABC
102
}
330
3ABC
100
AcDbScale
 70
     0
300
1/2" = 1'-0"
140
0.5
141
12.0
290
     0
  0
SCALE
  5
3AD8
102
{ACAD_REACTORS
330
3ABC
102
}
330
3ABC
100
AcDbScale
 70
     0
300
3/4" = 1'-0"
140
0.75
141
12.0
290
     0
  0
SCALE
  5
3AD9
102
{ACAD_REACTORS
330
3ABC
102
}
330
3ABC
100
AcDbScale
 70
     0
300
1" = 1'-0"
140
1.0
141
12.0
290
     0
  0
SCALE
  5
3ADA
102
{ACAD_REACTORS
330
3ABC
102
}
330
3ABC
100
AcDbScale
 70
     0
300
1-1/2" = 1'-0"
140
1.5
141
12.0
290
     0
  0
SCALE
  5
3ADB
102
{ACAD_REACTORS
330
3ABC
102
}
330
3ABC
100
AcDbScale
 70
     0
300
3" = 1'-0"
140
3.0
141
12.0
290
     0
  0
SCALE
  5
3ADC
102
{ACAD_REACTORS
330
3ABC
102
}
330
3ABC
100
AcDbScale
 70
     0
300
6" = 1'-0"
140
6.0
141
12.0
290
     0
  0
SCALE
  5
3ADD
102
{ACAD_REACTORS
330
3ABC
102
}
330
3ABC
100
AcDbScale
 70
     0
300
1'-0" = 1'-0"
140
12.0
141
12.0
290
     0
  0
TABLESTYLE
  5
3AE2
102
{ACAD_REACTORS
330
3AE1
102
}
102
{ACAD_XDICTIONARY
360
3CC8
102
}
330
3AE1
100
AcDbTableStyle
  3
Standard
 70
     0
 71
     0
 40
1.5
 41
1.5
280
     0
281
     0
  7
STANDARD
140
4.5
170
     2
 62
     0
 63
   257
283
     0
274
    -2
284
     1
 64
     0
275
    -2
285
     1
 65
     0
276
    -2
286
     1
 66
     0
277
    -2
287
     1
 67
     0
278
    -2
288
     1
 68
     0
279
    -2
289
     1
 69
     0
  7
STANDARD
140
6.0
170
     5
 62
     0
 63
   257
283
     0
274
    -2
284
     1
 64
     0
275
    -2
285
     1
 65
     0
276
    -2
286
     1
 66
     0
277
    -2
287
     1
 67
     0
278
    -2
288
     1
 68
     0
279
    -2
289
     1
 69
     0
  7
STANDARD
140
4.5
170
     5
 62
     0
 63
   257
283
     0
274
    -2
284
     1
 64
     0
275
    -2
285
     1
 65
     0
276
    -2
286
     1
 66
     0
277
    -2
287
     1
 67
     0
278
    -2
288
     1
 68
     0
279
    -2
289
     1
 69
     0
  0
VISUALSTYLE
  5
3AA8
102
{ACAD_REACTORS
330
3AA3
102
}
102
{ACAD_XDICTIONARY
360
3CA0
102
}
330
3AA3
100
AcDbVisualStyle
  2
2dWireframe
 70
     4
 71
     0
 72
     2
 73
     0
 90
        0
 40
0.6
 41
30.0
 62
     5
 63
     7
421
 16777215
 74
     1
 91
        4
 64
     7
 65
   257
 75
     1
175
     1
 42
1.0
 92
        0
 66
   257
 43
1.0
 76
     1
 77
     6
 78
     2
 67
     7
 79
     5
170
     0
171
     0
290
     0
174
     0
 93
        1
 44
0.0
173
     0
291
     0
 45
0.0
1001
ACAD
1000
AcDbSavedByObjectVersion
1070
     0
  0
VISUALSTYLE
  5
3AAB
102
{ACAD_REACTORS
330
3AA3
102
}
102
{ACAD_XDICTIONARY
360
3CA6
102
}
330
3AA3
100
AcDbVisualStyle
  2
Basic
 70
     7
 71
     1
 72
     0
 73
     1
 90
        0
 40
0.6
 41
30.0
 62
     5
 63
     7
421
 16777215
 74
     0
 91
        4
 64
     7
 65
   257
 75
     1
175
     1
 42
1.0
 92
        8
 66
     7
 43
1.0
 76
     1
 77
     6
 78
     2
 67
     7
 79
     5
170
     0
171
     0
290
     0
174
     0
 93
        1
 44
0.0
173
     0
291
     1
 45
0.0
1001
ACAD
1000
AcDbSavedByObjectVersion
1070
     0
  0
VISUALSTYLE
  5
3AAF
102
{ACAD_REACTORS
330
3AA3
102
}
102
{ACAD_XDICTIONARY
360
3CAE
102
}
330
3AA3
100
AcDbVisualStyle
  2
Brighten
 70
    12
 71
     2
 72
     2
 73
     0
 90
        0
 40
0.6
 41
30.0
 62
     5
 63
     7
421
 16777215
 74
     1
 91
        4
 64
     7
 65
   257
 75
     1
175
     1
 42
1.0
 92
        8
 66
     7
 43
1.0
 76
     1
 77
     6
 78
     2
 67
     7
 79
     5
170
     0
171
     0
290
     0
174
     0
 93
        1
 44
50.0
173
     0
291
     1
 45
0.0
1001
ACAD
1000
AcDbSavedByObjectVersion
1070
     0
  0
VISUALSTYLE
  5
3AB3
102
{ACAD_REACTORS
330
3AA3
102
}
102
{ACAD_XDICTIONARY
360
3CB6
102
}
330
3AA3
100
AcDbVisualStyle
  2
ColorChange
 70
    16
 71
     2
 72
     2
 73
     3
 90
        0
 40
0.6
 41
30.0
 62
     5
 63
     8
421
  8421504
 74
     1
 91
        4
 64
     7
 65
   257
 75
     1
175
     1
 42
1.0
 92
        8
 66
     8
424
  8421504
 43
1.0
 76
     1
 77
     6
 78
     2
 67
     7
 79
     5
170
     0
171
     0
290
     0
174
     0
 93
        1
 44
0.0
173
     0
291
     1
 45
0.0
1001
ACAD
1000
AcDbSavedByObjectVersion
1070
     0
  0
VISUALSTYLE
  5
3AAD
102
{ACAD_REACTORS
330
3AA3
102
}
102
{ACAD_XDICTIONARY
360
3CAA
102
}
330
3AA3
100
AcDbVisualStyle
  2
Conceptual
 70
     9
 71
     3
 72
     2
 73
     0
 90
        0
 40
0.6
 41
30.0
 62
     5
 63
     7
421
 16777215
 74
     2
 91
        2
 64
     7
 65
   257
 75
     1
175
     1
 42
179.0
 92
        8
 66
     7
 43
1.0
 76
     1
 77
     6
 78
     2
 67
     7
 79
     3
170
     0
171
     0
290
     0
174
     0
 93
        1
 44
0.0
173
     0
291
     0
 45
0.0
1001
ACAD
1000
AcDbSavedByObjectVersion
1070
     0
  0
VISUALSTYLE
  5
3AAE
102
{ACAD_REACTORS
330
3AA3
102
}
102
{ACAD_XDICTIONARY
360
3CAC
102
}
330
3AA3
100
AcDbVisualStyle
  2
Dim
 70
    11
 71
     2
 72
     2
 73
     0
 90
        0
 40
0.6
 41
30.0
 62
     5
 63
     7
421
 16777215
 74
     1
 91
        4
 64
     7
 65
   257
 75
     1
175
     1
 42
1.0
 92
        8
 66
     7
 43
1.0
 76
     1
 77
     6
 78
     2
 67
     7
 79
     5
170
     0
171
     0
290
     0
174
     0
 93
        1
 44
-50.0
173
     0
291
     1
 45
0.0
1001
ACAD
1000
AcDbSavedByObjectVersion
1070
     0
  0
VISUALSTYLE
  5
3AB6
102
{ACAD_REACTORS
330
3AA3
102
}
102
{ACAD_XDICTIONARY
360
3CBC
102
}
330
3AA3
100
AcDbVisualStyle
  2
EdgeColorOff
 70
    22
 71
     2
 72
     2
 73
     0
 90
        0
 40
0.6
 41
30.0
 62
     5
 63
     7
421
 16777215
 74
     1
 91
        4
 64
     7
 65
   257
 75
     1
175
     1
 42
1.0
 92
        8
 66
     7
 43
1.0
 76
     1
 77
     6
 78
     2
 67
     7
 79
     5
170
     0
171
     0
290
     0
174
     0
 93
        1
 44
0.0
173
     0
291
     1
 45
0.0
1001
ACAD
1000
AcDbSavedByObjectVersion
1070
     0
  0
VISUALSTYLE
  5
3AB2
102
{ACAD_REACTORS
330
3AA3
102
}
102
{ACAD_XDICTIONARY
360
3CB4
102
}
330
3AA3
100
AcDbVisualStyle
  2
Facepattern
 70
    15
 71
     2
 72
     2
 73
     0
 90
        0
 40
0.6
 41
30.0
 62
     5
 63
     7
421
 16777215
 74
     1
 91
        4
 64
     7
 65
   257
 75
     1
175
     1
 42
1.0
 92
        8
 66
     7
 43
1.0
 76
     1
 77
     6
 78
     2
 67
     7
 79
     5
170
     0
171
     0
290
     0
174
     0
 93
        1
 44
0.0
173
     0
291
     1
 45
0.0
1001
ACAD
1000
AcDbSavedByObjectVersion
1070
     0
  0
VISUALSTYLE
  5
3AA4
102
{ACAD_REACTORS
330
3AA3
102
}
102
{ACAD_XDICTIONARY
360
3C98
102
}
330
3AA3
100
AcDbVisualStyle
  2
Flat
 70
     0
 71
     2
 72
     1
 73
     1
 90
        2
 40
0.6
 41
30.0
 62
     5
 63
     7
421
 16777215
 74
     0
 91
        0
 64
     7
 65
   257
 75
     1
175
     1
 42
1.0
 92
        8
 66
     7
 43
1.0
 76
     1
 77
     6
 78
     2
 67
     7
 79
     5
170
     0
171
     0
290
     0
174
     0
 93
       13
 44
0.0
173
     0
291
     1
 45
0.0
1001
ACAD
1000
AcDbSavedByObjectVersion
1070
     0
  0
VISUALSTYLE
  5
3AA5
102
{ACAD_REACTORS
330
3AA3
102
}
102
{ACAD_XDICTIONARY
360
3C9A
102
}
330
3AA3
100
AcDbVisualStyle
  2
FlatWithEdges
 70
     1
 71
     2
 72
     1
 73
     1
 90
        2
 40
0.6
 41
30.0
 62
     5
 63
     7
421
 16777215
 74
     1
 91
        0
 64
     7
 65
   257
 75
     1
175
     1
 42
1.0
 92
        0
 66
   257
 43
1.0
 76
     1
 77
     6
 78
     2
 67
     7
 79
     5
170
     0
171
     0
290
     0
174
     0
 93
       13
 44
0.0
173
     0
291
     1
 45
0.0
1001
ACAD
1000
AcDbSavedByObjectVersion
1070
     0
  0
VISUALSTYLE
  5
3AA6
102
{ACAD_REACTORS
330
3AA3
102
}
102
{ACAD_XDICTIONARY
360
3C9C
102
}
330
3AA3
100
AcDbVisualStyle
  2
Gouraud
 70
     2
 71
     2
 72
     2
 73
     1
 90
        2
 40
0.6
 41
30.0
 62
     5
 63
     7
421
 16777215
 74
     0
 91
        0
 64
     7
 65
   257
 75
     1
175
     1
 42
1.0
 92
        0
 66
     7
 43
1.0
 76
     1
 77
     6
 78
     2
 67
     7
 79
     5
170
     0
171
     0
290
     0
174
     0
 93
       13
 44
0.0
173
     0
291
     1
 45
0.0
1001
ACAD
1000
AcDbSavedByObjectVersion
1070
     0
  0
VISUALSTYLE
  5
3AA7
102
{ACAD_REACTORS
330
3AA3
102
}
102
{ACAD_XDICTIONARY
360
3C9E
102
}
330
3AA3
100
AcDbVisualStyle
  2
GouraudWithEdges
 70
     3
 71
     2
 72
     2
 73
     1
 90
        2
 40
0.6
 41
30.0
 62
     5
 63
     7
421
 16777215
 74
     1
 91
        0
 64
     7
 65
   257
 75
     1
175
     1
 42
1.0
 92
        0
 66
   257
 43
1.0
 76
     1
 77
     6
 78
     2
 67
     7
 79
     5
170
     0
171
     0
290
     0
174
     0
 93
       13
 44
0.0
173
     0
291
     1
 45
0.0
1001
ACAD
1000
AcDbSavedByObjectVersion
1070
     0
  0
VISUALSTYLE
  5
3AAA
102
{ACAD_REACTORS
330
3AA3
102
}
102
{ACAD_XDICTIONARY
360
3CA4
102
}
330
3AA3
100
AcDbVisualStyle
  2
Hidden
 70
     6
 71
     1
 72
     2
 73
     2
 90
        0
 40
0.6
 41
30.0
 62
     5
 63
     7
421
 16777215
 74
     2
 91
        2
 64
     7
 65
   257
 75
     2
175
     1
 42
40.0
 92
        0
 66
   257
 43
1.0
 76
     1
 77
     6
 78
     2
 67
     7
 79
     3
170
     0
171
     0
290
     0
174
     0
 93
        1
 44
0.0
173
     0
291
     0
 45
0.0
1001
ACAD
1000
AcDbSavedByObjectVersion
1070
     0
  0
VISUALSTYLE
  5
3AB4
102
{ACAD_REACTORS
330
3AA3
102
}
102
{ACAD_XDICTIONARY
360
3CB8
102
}
330
3AA3
100
AcDbVisualStyle
  2
JitterOff
 70
    20
 71
     2
 72
     2
 73
     0
 90
        0
 40
0.6
 41
30.0
 62
     5
 63
     7
421
 16777215
 74
     1
 91
        4
 64
     7
 65
   257
 75
     1
175
     1
 42
1.0
 92
       10
 66
     7
 43
1.0
 76
     1
 77
     6
 78
     2
 67
     7
 79
     5
170
     0
171
     0
290
     0
174
     0
 93
        1
 44
0.0
173
     0
291
     1
 45
0.0
1001
ACAD
1000
AcDbSavedByObjectVersion
1070
     0
  0
VISUALSTYLE
  5
3AB1
102
{ACAD_REACTORS
330
3AA3
102
}
102
{ACAD_XDICTIONARY
360
3CB2
102
}
330
3AA3
100
AcDbVisualStyle
  2
Linepattern
 70
    14
 71
     2
 72
     2
 73
     0
 90
        0
 40
0.6
 41
30.0
 62
     5
 63
     7
421
 16777215
 74
     1
 91
        4
 64
     7
 65
   257
 75
     7
175
     7
 42
1.0
 92
        8
 66
     7
 43
1.0
 76
     1
 77
     6
 78
     2
 67
     7
 79
     5
170
     0
171
     0
290
     0
174
     0
 93
        1
 44
0.0
173
     0
291
     1
 45
0.0
1001
ACAD
1000
AcDbSavedByObjectVersion
1070
     0
  0
VISUALSTYLE
  5
3AB5
102
{ACAD_REACTORS
330
3AA3
102
}
102
{ACAD_XDICTIONARY
360
3CBA
102
}
330
3AA3
100
AcDbVisualStyle
  2
OverhangOff
 70
    21
 71
     2
 72
     2
 73
     0
 90
        0
 40
0.6
 41
30.0
 62
     5
 63
     7
421
 16777215
 74
     1
 91
        4
 64
     7
 65
   257
 75
     1
175
     1
 42
1.0
 92
        9
 66
     7
 43
1.0
 76
     1
 77
     6
 78
     2
 67
     7
 79
     5
170
     0
171
     0
290
     0
174
     0
 93
        1
 44
0.0
173
     0
291
     1
 45
0.0
1001
ACAD
1000
AcDbSavedByObjectVersion
1070
     0
  0
VISUALSTYLE
  5
3AAC
102
{ACAD_REACTORS
330
3AA3
102
}
102
{ACAD_XDICTIONARY
360
3CA8
102
}
330
3AA3
100
AcDbVisualStyle
  2
Realistic
 70
     8
 71
     2
 72
     3
 73
     0
 90
        2
 40
0.6
 41
30.0
 62
     5
 63
     7
421
 16777215
 74
     0
 91
        0
 64
     7
 65
   257
 75
     1
175
     1
 42
1.0
 92
        8
 66
   257
 43
1.0
 76
     1
 77
     6
 78
     2
 67
     7
 79
     3
170
     0
171
     0
290
     0
174
     0
 93
       13
 44
0.0
173
     0
291
     0
 45
0.0
1001
ACAD
1000
AcDbSavedByObjectVersion
1070
     0
  0
VISUALSTYLE
  5
3ABB
102
{ACAD_REACTORS
330
3AA3
102
}
102
{ACAD_XDICTIONARY
360
3CC6
102
}
330
3AA3
100
AcDbVisualStyle
  2
Shaded
 70
    27
 71
     2
 72
     2
 73
     1
 90
        2
 40
0.6
 41
30.0
 62
     5
 63
     7
421
 16777215
 74
     0
 91
        4
 64
     7
 65
   257
 75
     1
175
     1
 42
1.0
 92
        8
 66
   257
 43
1.0
 76
     1
 77
     6
 78
     2
 67
     8
425
  7895160
 79
     3
170
     0
171
     0
290
     0
174
     0
 93
        5
 44
0.0
173
     0
291
     0
 45
0.0
1001
ACAD
1000
AcDbSavedByObjectVersion
1070
     0
  0
VISUALSTYLE
  5
3ABA
102
{ACAD_REACTORS
330
3AA3
102
}
102
{ACAD_XDICTIONARY
360
3CC4
102
}
330
3AA3
100
AcDbVisualStyle
  2
Shaded with edges
 70
    26
 71
     2
 72
     2
 73
     1
 90
        2
 40
0.6
 41
30.0
 62
     5
 63
     7
421
 16777215
 74
     1
 91
       10
 64
     7
 65
   257
 75
     2
175
     1
 42
1.0
 92
        8
 66
   257
 43
1.0
 76
     1
 77
     6
 78
     2
 67
     7
 79
     3
170
     0
171
     0
290
     0
174
     0
 93
        5
 44
0.0
173
     0
291
     0
 45
0.0
1001
ACAD
1000
AcDbSavedByObjectVersion
1070
     0
  0
VISUALSTYLE
  5
3AB7
102
{ACAD_REACTORS
330
3AA3
102
}
102
{ACAD_XDICTIONARY
360
3CBE
102
}
330
3AA3
100
AcDbVisualStyle
  2
Shades of Gray
 70
    23
 71
     2
 72
     2
 73
     3
 90
        0
 40
0.6
 41
30.0
 62
     5
 63
     7
421
 16777215
 74
     2
 91
        2
 64
     7
 65
     7
 75
     1
175
     1
 42
40.0
 92
        8
 66
     7
 43
1.0
 76
     1
 77
     6
 78
     2
 67
     7
 79
     3
170
     0
171
     0
290
     0
174
     0
 93
        1
 44
0.0
173
     0
291
     0
 45
0.0
1001
ACAD
1000
AcDbSavedByObjectVersion
1070
     0
  0
VISUALSTYLE
  5
3AB8
102
{ACAD_REACTORS
330
3AA3
102
}
102
{ACAD_XDICTIONARY
360
3CC0
102
}
330
3AA3
100
AcDbVisualStyle
  2
Sketchy
 70
    24
 71
     1
 72
     2
 73
     2
 90
        0
 40
0.6
 41
30.0
 62
     5
 63
     7
421
 16777215
 74
     2
 91
        2
 64
     7
 65
     7
 75
     1
175
     1
 42
40.0
 92
       11
 66
     7
 43
1.0
 76
     1
 77
     6
 78
     2
 67
     7
 79
     6
170
     0
171
     0
290
     0
174
     0
 93
        1
 44
0.0
173
     0
291
     0
 45
0.0
1001
ACAD
1000
AcDbSavedByObjectVersion
1070
     0
  0
VISUALSTYLE
  5
3AB0
102
{ACAD_REACTORS
330
3AA3
102
}
102
{ACAD_XDICTIONARY
360
3CB0
102
}
330
3AA3
100
AcDbVisualStyle
  2
Thicken
 70
    13
 71
     2
 72
     2
 73
     0
 90
        0
 40
0.6
 41
30.0
 62
     5
 63
     7
421
 16777215
 74
     1
 91
        4
 64
     7
 65
   257
 75
     1
175
     1
 42
1.0
 92
       12
 66
     7
 43
1.0
 76
     1
 77
     6
 78
     2
 67
     7
 79
     5
170
     0
171
     0
290
     0
174
     0
 93
        1
 44
0.0
173
     0
291
     1
 45
0.0
1001
ACAD
1000
AcDbSavedByObjectVersion
1070
     0
  0
VISUALSTYLE
  5
3AA9
102
{ACAD_REACTORS
330
3AA3
102
}
102
{ACAD_XDICTIONARY
360
3CA2
102
}
330
3AA3
100
AcDbVisualStyle
  2
Wireframe
 70
     5
 71
     0
 72
     2
 73
     0
 90
        0
 40
0.6
 41
30.0
 62
     5
 63
     7
421
 16777215
 74
     1
 91
        4
 64
     7
 65
   257
 75
     1
175
     1
 42
1.0
 92
        0
 66
   257
 43
1.0
 76
     1
 77
     6
 78
     2
 67
     7
 79
     3
170
     0
171
     0
290
     0
174
     0
 93
        1
 44
0.0
173
     0
291
     0
 45
0.0
1001
ACAD
1000
AcDbSavedByObjectVersion
1070
     0
  0
VISUALSTYLE
  5
3AB9
102
{ACAD_REACTORS
330
3AA3
102
}
102
{ACAD_XDICTIONARY
360
3CC2
102
}
330
3AA3
100
AcDbVisualStyle
  2
X-Ray
 70
    25
 71
     2
 72
     2
 73
     1
 90
        1
 40
0.5
 41
30.0
 62
     5
 63
     7
421
 16777215
 74
     1
 91
        0
 64
     7
 65
   257
 75
     1
175
     1
 42
1.0
 92
        8
 66
     7
 43
1.0
 76
     1
 77
     6
 78
     2
 67
     7
 79
     3
170
     0
171
     0
290
     0
174
     0
 93
       13
 44
0.0
173
     0
291
     0
 45
0.0
1001
ACAD
1000
AcDbSavedByObjectVersion
1070
     0
  0
DICTIONARYVAR
  5
3B63
102
{ACAD_REACTORS
330
3B62
102
}
330
3B62
100
DictionaryVariables
280
     0
  1
1:1
  0
DICTIONARYVAR
  5
3B65
102
{ACAD_REACTORS
330
3B62
102
}
330
3B62
100
DictionaryVariables
280
     0
  1
Standard
  0
DICTIONARYVAR
  5
3B64
102
{ACAD_REACTORS
330
3B62
102
}
330
3B62
100
DictionaryVariables
280
     0
  1
Standard
  0
DICTIONARYVAR
  5
3B66
102
{ACAD_REACTORS
330
3B62
102
}
330
3B62
100
DictionaryVariables
280
     0
  1
0
  0
DICTIONARYVAR
  5
3B67
102
{ACAD_REACTORS
330
3B62
102
}
330
3B62
100
DictionaryVariables
280
     0
  1
0
  0
DICTIONARY
  5
3B6D
102
{ACAD_REACTORS
330
3B6C
102
}
330
3B6C
100
AcDbDictionary
281
     1
  0
DICTIONARY
  5
3B70
102
{ACAD_REACTORS
330
3B6F
102
}
330
3B6F
100
AcDbDictionary
281
     1
  0
DICTIONARY
  5
3B73
102
{ACAD_REACTORS
330
3B72
102
}
330
3B72
100
AcDbDictionary
281
     1
  0
DICTIONARY
  5
3B76
102
{ACAD_REACTORS
330
3B75
102
}
330
3B75
100
AcDbDictionary
281
     1
  0
DICTIONARY
  5
3BD4
102
{ACAD_REACTORS
330
3BD3
102
}
330
3BD3
100
AcDbDictionary
281
     1
  0
DICTIONARY
  5
3B5E
102
{ACAD_REACTORS
330
3B5D
102
}
330
3B5D
100
AcDbDictionary
281
     1
  0
DICTIONARY
  5
3B61
102
{ACAD_REACTORS
330
3B60
102
}
330
3B60
100
AcDbDictionary
281
     1
  0
DICTIONARY
  5
3BD7
102
{ACAD_REACTORS
330
3BD6
102
}
330
3BD6
100
AcDbDictionary
281
     1
  0
DICTIONARY
  5
3B57
102
{ACAD_REACTORS
330
3B56
102
}
330
3B56
100
AcDbDictionary
281
     1
  0
DICTIONARY
  5
3B5B
102
{ACAD_REACTORS
330
3B5A
102
}
330
3B5A
100
AcDbDictionary
281
     1
  0
DICTIONARY
  5
3C94
330
3ADF
100
AcDbDictionary
280
     1
281
     1
  3
ACAD_XREC_ROUNDTRIP
360
3C95
  0
DICTIONARY
  5
3C92
330
3ADE
100
AcDbDictionary
280
     1
281
     1
  3
ACAD_XREC_ROUNDTRIP
360
3C93
  0
DICTIONARY
  5
3C96
330
3AE0
100
AcDbDictionary
280
     1
281
     1
  3
ACAD_XREC_ROUNDTRIP
360
3C97
  0
DICTIONARY
  5
3CCB
330
3AE4
100
AcDbDictionary
280
     1
281
     1
  3
ACAD_XREC_ROUNDTRIP
360
3CCC
  0
DICTIONARY
  5
3CC8
330
3AE2
100
AcDbDictionary
280
     1
281
     1
  3
ACAD_ROUNDTRIP_2008_TABLESTYLE_CELLSTYLEMAP
360
3CCA
  3
ACAD_XREC_ROUNDTRIP
360
3CC9
  0
DICTIONARY
  5
3CA0
330
3AA8
100
AcDbDictionary
280
     1
281
     1
  3
ACAD_XREC_ROUNDTRIP
360
3CA1
  0
DICTIONARY
  5
3CA6
330
3AAB
100
AcDbDictionary
280
     1
281
     1
  3
ACAD_XREC_ROUNDTRIP
360
3CA7
  0
DICTIONARY
  5
3CAE
330
3AAF
100
AcDbDictionary
280
     1
281
     1
  3
ACAD_XREC_ROUNDTRIP
360
3CAF
  0
DICTIONARY
  5
3CB6
330
3AB3
100
AcDbDictionary
280
     1
281
     1
  3
ACAD_XREC_ROUNDTRIP
360
3CB7
  0
DICTIONARY
  5
3CAA
330
3AAD
100
AcDbDictionary
280
     1
281
     1
  3
ACAD_XREC_ROUNDTRIP
360
3CAB
  0
DICTIONARY
  5
3CAC
330
3AAE
100
AcDbDictionary
280
     1
281
     1
  3
ACAD_XREC_ROUNDTRIP
360
3CAD
  0
DICTIONARY
  5
3CBC
330
3AB6
100
AcDbDictionary
280
     1
281
     1
  3
ACAD_XREC_ROUNDTRIP
360
3CBD
  0
DICTIONARY
  5
3CB4
330
3AB2
100
AcDbDictionary
280
     1
281
     1
  3
ACAD_XREC_ROUNDTRIP
360
3CB5
  0
DICTIONARY
  5
3C98
330
3AA4
100
AcDbDictionary
280
     1
281
     1
  3
ACAD_XREC_ROUNDTRIP
360
3C99
  0
DICTIONARY
  5
3C9A
330
3AA5
100
AcDbDictionary
280
     1
281
     1
  3
ACAD_XREC_ROUNDTRIP
360
3C9B
  0
DICTIONARY
  5
3C9C
330
3AA6
100
AcDbDictionary
280
     1
281
     1
  3
ACAD_XREC_ROUNDTRIP
360
3C9D
  0
DICTIONARY
  5
3C9E
330
3AA7
100
AcDbDictionary
280
     1
281
     1
  3
ACAD_XREC_ROUNDTRIP
360
3C9F
  0
DICTIONARY
  5
3CA4
330
3AAA
100
AcDbDictionary
280
     1
281
     1
  3
ACAD_XREC_ROUNDTRIP
360
3CA5
  0
DICTIONARY
  5
3CB8
330
3AB4
100
AcDbDictionary
280
     1
281
     1
  3
ACAD_XREC_ROUNDTRIP
360
3CB9
  0
DICTIONARY
  5
3CB2
330
3AB1
100
AcDbDictionary
280
     1
281
     1
  3
ACAD_XREC_ROUNDTRIP
360
3CB3
  0
DICTIONARY
  5
3CBA
330
3AB5
100
AcDbDictionary
280
     1
281
     1
  3
ACAD_XREC_ROUNDTRIP
360
3CBB
  0
DICTIONARY
  5
3CA8
330
3AAC
100
AcDbDictionary
280
     1
281
     1
  3
ACAD_XREC_ROUNDTRIP
360
3CA9
  0
DICTIONARY
  5
3CC6
330
3ABB
100
AcDbDictionary
280
     1
281
     1
  3
ACAD_XREC_ROUNDTRIP
360
3CC7
  0
DICTIONARY
  5
3CC4
330
3ABA
100
AcDbDictionary
280
     1
281
     1
  3
ACAD_XREC_ROUNDTRIP
360
3CC5
  0
DICTIONARY
  5
3CBE
330
3AB7
100
AcDbDictionary
280
     1
281
     1
  3
ACAD_XREC_ROUNDTRIP
360
3CBF
  0
DICTIONARY
  5
3CC0
330
3AB8
100
AcDbDictionary
280
     1
281
     1
  3
ACAD_XREC_ROUNDTRIP
360
3CC1
  0
DICTIONARY
  5
3CB0
330
3AB0
100
AcDbDictionary
280
     1
281
     1
  3
ACAD_XREC_ROUNDTRIP
360
3CB1
  0
DICTIONARY
  5
3CA2
330
3AA9
100
AcDbDictionary
280
     1
281
     1
  3
ACAD_XREC_ROUNDTRIP
360
3CA3
  0
DICTIONARY
  5
3CC2
330
3AB9
100
AcDbDictionary
280
     1
281
     1
  3
ACAD_XREC_ROUNDTRIP
360
3CC3
  0
XRECORD
  5
3C95
102
{ACAD_REACTORS
330
3C94
102
}
330
3C94
100
AcDbXrecord
280
     1
102
MATERIAL
148
0.0
149
0.0
149
0.0
 93
        0
 94
      127
282
     0
 72
     1
 77
     1
171
     1
175
     1
179
     1
273
     0
  0
XRECORD
  5
3C93
102
{ACAD_REACTORS
330
3C92
102
}
330
3C92
100
AcDbXrecord
280
     1
102
MATERIAL
148
0.0
149
0.0
149
0.0
 93
        0
 94
      127
282
     0
 72
     1
 77
     1
171
     1
175
     1
179
     1
273
     0
  0
XRECORD
  5
3C97
102
{ACAD_REACTORS
330
3C96
102
}
330
3C96
100
AcDbXrecord
280
     1
102
MATERIAL
148
0.0
149
0.0
149
0.0
 93
        0
 94
      127
282
     0
 72
     1
 77
     1
171
     1
175
     1
179
     1
273
     0
  0
XRECORD
  5
3CCC
102
{ACAD_REACTORS
330
3CCB
102
}
330
3CCB
100
AcDbXrecord
280
     1
102
ACAD_ROUNDTRIP_2010_MLEADER_STYLE
  0
CELLSTYLEMAP
  5
3CCA
102
{ACAD_REACTORS
330
3CC8
102
}
330
3CC8
100
AcDbCellStyleMap
 90
        3
300
CELLSTYLE
  1
TABLEFORMAT_BEGIN
 90
        5
170
     1
 91
        0
 92
        0
 62
   257
 93
        1
300
CONTENTFORMAT
  1
CONTENTFORMAT_BEGIN
 90
        0
 91
        0
 92
        4
 93
        0
300

 40
0.0
140
1.0
 94
        5
 62
     0
340
10
144
6.0
309
CONTENTFORMAT_END
171
     1
301
MARGIN
  1
CELLMARGIN_BEGIN
 40
1.5
 40
1.5
 40
1.5
 40
1.5
 40
1.5
 40
1.5
309
CELLMARGIN_END
 94
        6
 95
        1
302
GRIDFORMAT
  1
GRIDFORMAT_BEGIN
 90
        0
 91
        1
 62
     0
 92
       -2
340
14
 93
        0
 40
0.045
309
GRIDFORMAT_END
 95
        2
302
GRIDFORMAT
  1
GRIDFORMAT_BEGIN
 90
        0
 91
        1
 62
     0
 92
       -2
340
14
 93
        0
 40
0.045
309
GRIDFORMAT_END
 95
        4
302
GRIDFORMAT
  1
GRIDFORMAT_BEGIN
 90
        0
 91
        1
 62
     0
 92
       -2
340
14
 93
        0
 40
0.045
309
GRIDFORMAT_END
 95
        8
302
GRIDFORMAT
  1
GRIDFORMAT_BEGIN
 90
        0
 91
        1
 62
     0
 92
       -2
340
14
 93
        0
 40
0.045
309
GRIDFORMAT_END
 95
       16
302
GRIDFORMAT
  1
GRIDFORMAT_BEGIN
 90
        0
 91
        1
 62
     0
 92
       -2
340
14
 93
        0
 40
0.045
309
GRIDFORMAT_END
 95
       32
302
GRIDFORMAT
  1
GRIDFORMAT_BEGIN
 90
        0
 91
        1
 62
     0
 92
       -2
340
14
 93
        0
 40
0.045
309
GRIDFORMAT_END
309
TABLEFORMAT_END
  1
CELLSTYLE_BEGIN
 90
        1
 91
        1
300
_TITLE
309
CELLSTYLE_END
300
CELLSTYLE
  1
TABLEFORMAT_BEGIN
 90
        5
170
     1
 91
        0
 92
        0
 62
   257
 93
        1
300
CONTENTFORMAT
  1
CONTENTFORMAT_BEGIN
 90
        0
 91
        0
 92
        4
 93
        0
300

 40
0.0
140
1.0
 94
        5
 62
     0
340
10
144
4.5
309
CONTENTFORMAT_END
171
     1
301
MARGIN
  1
CELLMARGIN_BEGIN
 40
1.5
 40
1.5
 40
1.5
 40
1.5
 40
1.5
 40
1.5
309
CELLMARGIN_END
 94
        6
 95
        1
302
GRIDFORMAT
  1
GRIDFORMAT_BEGIN
 90
        0
 91
        1
 62
     0
 92
       -2
340
14
 93
        0
 40
0.045
309
GRIDFORMAT_END
 95
        2
302
GRIDFORMAT
  1
GRIDFORMAT_BEGIN
 90
        0
 91
        1
 62
     0
 92
       -2
340
14
 93
        0
 40
0.045
309
GRIDFORMAT_END
 95
        4
302
GRIDFORMAT
  1
GRIDFORMAT_BEGIN
 90
        0
 91
        1
 62
     0
 92
       -2
340
14
 93
        0
 40
0.045
309
GRIDFORMAT_END
 95
        8
302
GRIDFORMAT
  1
GRIDFORMAT_BEGIN
 90
        0
 91
        1
 62
     0
 92
       -2
340
14
 93
        0
 40
0.045
309
GRIDFORMAT_END
 95
       16
302
GRIDFORMAT
  1
GRIDFORMAT_BEGIN
 90
        0
 91
        1
 62
     0
 92
       -2
340
14
 93
        0
 40
0.045
309
GRIDFORMAT_END
 95
       32
302
GRIDFORMAT
  1
GRIDFORMAT_BEGIN
 90
        0
 91
        1
 62
     0
 92
       -2
340
14
 93
        0
 40
0.045
309
GRIDFORMAT_END
309
TABLEFORMAT_END
  1
CELLSTYLE_BEGIN
 90
        2
 91
        1
300
_HEADER
309
CELLSTYLE_END
300
CELLSTYLE
  1
TABLEFORMAT_BEGIN
 90
        5
170
     1
 91
        0
 92
        0
 62
   257
 93
        1
300
CONTENTFORMAT
  1
CONTENTFORMAT_BEGIN
 90
        0
 91
        0
 92
        4
 93
        0
300

 40
0.0
140
1.0
 94
        2
 62
     0
340
10
144
4.5
309
CONTENTFORMAT_END
171
     1
301
MARGIN
  1
CELLMARGIN_BEGIN
 40
1.5
 40
1.5
 40
1.5
 40
1.5
 40
1.5
 40
1.5
309
CELLMARGIN_END
 94
        6
 95
        1
302
GRIDFORMAT
  1
GRIDFORMAT_BEGIN
 90
        0
 91
        1
 62
     0
 92
       -2
340
14
 93
        0
 40
0.045
309
GRIDFORMAT_END
 95
        2
302
GRIDFORMAT
  1
GRIDFORMAT_BEGIN
 90
        0
 91
        1
 62
     0
 92
       -2
340
14
 93
        0
 40
0.045
309
GRIDFORMAT_END
 95
        4
302
GRIDFORMAT
  1
GRIDFORMAT_BEGIN
 90
        0
 91
        1
 62
     0
 92
       -2
340
14
 93
        0
 40
0.045
309
GRIDFORMAT_END
 95
        8
302
GRIDFORMAT
  1
GRIDFORMAT_BEGIN
 90
        0
 91
        1
 62
     0
 92
       -2
340
14
 93
        0
 40
0.045
309
GRIDFORMAT_END
 95
       16
302
GRIDFORMAT
  1
GRIDFORMAT_BEGIN
 90
        0
 91
        1
 62
     0
 92
       -2
340
14
 93
        0
 40
0.045
309
GRIDFORMAT_END
 95
       32
302
GRIDFORMAT
  1
GRIDFORMAT_BEGIN
 90
        0
 91
        1
 62
     0
 92
       -2
340
14
 93
        0
 40
0.045
309
GRIDFORMAT_END
309
TABLEFORMAT_END
  1
CELLSTYLE_BEGIN
 90
        3
 91
        2
300
_DATA
309
CELLSTYLE_END
  0
XRECORD
  5
3CC9
102
{ACAD_REACTORS
330
3CC8
102
}
330
3CC8
100
AcDbXrecord
280
     1
102
ACAD_ROUNDTRIP_PRE2007_TABLESTYLE
 90
        4
 91
        0
  1

 92
        4
 93
        0
  2

 94
        4
 95
        0
  3

  0
XRECORD
  5
3CA1
102
{ACAD_REACTORS
330
3CA0
102
}
330
3CA0
100
AcDbXrecord
280
     1
102
RTVSPropertyOp0
 70
     1
102
RTVSPropertyOp1
 70
     1
102
RTVSPropertyOp2
 70
     1
102
RTVSPropertyOp3
 70
     1
102
RTVSPropertyOp4
 70
     1
102
RTVSPropertyOp5
 70
     1
102
RTVSPropertyOp6
 70
     1
102
RTVSPropertyOp7
 70
     1
102
RTVSPropertyOp8
 70
     1
102
RTVSPropertyOp9
 70
     1
102
RTVSPropertyOp10
 70
     1
102
RTVSPropertyOp11
 70
     1
102
RTVSPropertyOp12
 70
     1
102
RTVSPropertyOp13
 70
     1
102
RTVSPropertyOp14
 70
     1
102
RTVSPropertyOp15
 70
     1
102
RTVSPropertyOp16
 70
     1
102
RTVSPropertyOp17
 70
     1
102
RTVSPropertyOp18
 70
     1
102
RTVSPropertyOp19
 70
     1
102
RTVSPropertyOp20
 70
     1
102
RTVSPropertyOp21
 70
     1
102
RTVSPropertyOp22
 70
     1
102
RTVSPropertyOp23
 70
     1
102
RTVSPropertyOp24
 70
     1
102
RTVSPropertyOp25
 70
     1
102
RTVSPropertyOp26
 70
     1
102
RTVSPropertyOp27
 70
     1
102
RTVSPropertyOp28
 70
     1
102
RTVSPropertyOp29
 70
     1
102
RTVSPropertyOp30
 70
     1
102
RTVSPropertyOp31
 70
     1
102
RTVSPropertyOp32
 70
     1
102
RTVSPropertyOp33
 70
     1
102
RTVSPropertyOp34
 70
     1
102
RTVSPropertyOp35
 70
     1
102
RTVSPropertyOp36
 70
     1
102
RTVSPropertyOp37
 70
     1
102
RTVSPropertyOp38
 70
     1
102
RTVSPropertyOp39
 70
     1
102
RTVSPropertyOp40
 70
     1
102
RTVSPropertyOp41
 70
     1
102
RTVSPropertyOp42
 70
     1
102
RTVSPropertyOp43
 70
     1
102
RTVSPropertyOp44
 70
     1
102
RTVSPropertyOp45
 70
     1
102
RTVSPropertyOp46
 70
     1
102
RTVSPropertyOp47
 70
     1
102
RTVSPropertyOp48
 70
     1
102
RTVSPropertyOp49
 70
     1
102
RTVSPropertyOp50
 70
     1
102
RTVSPropertyOp51
 70
     0
102
RTVSPropertyOp52
 70
     0
102
RTVSPropertyOp53
 70
     1
102
RTVSPropertyOp54
 70
     1
102
RTVSPropertyOp55
 70
     1
102
RTVSPropertyOp56
 70
     1
102
RTVSPropertyOp57
 70
     1
102
RTVSPost2010Prop28
280
     1
102
RTVSPost2010PropOp28
 70
     1
102
RTVSPost2010Prop29
280
     1
102
RTVSPost2010PropOp29
 70
     1
102
RTVSPost2010Prop30
280
     0
102
RTVSPost2010PropOp30
 70
     1
102
RTVSPost2010Prop31
280
     0
102
RTVSPost2010PropOp31
 70
     1
102
RTVSPost2010Prop32
280
     0
102
RTVSPost2010PropOp32
 70
     1
102
RTVSPost2010Prop33
280
     0
102
RTVSPost2010PropOp33
 70
     1
102
RTVSPost2010Prop34
280
     0
102
RTVSPost2010PropOp34
 70
     1
102
RTVSPost2010Prop35
280
     0
102
RTVSPost2010PropOp35
 70
     1
102
RTVSPost2010Prop36
280
     0
102
RTVSPost2010PropOp36
 70
     1
102
RTVSPost2010Prop37
 90
       50
102
RTVSPost2010PropOp37
 70
     1
102
RTVSPost2010Prop38
140
0.0
102
RTVSPost2010PropOp38
 70
     1
102
RTVSPost2010Prop39
140
1.0
102
RTVSPost2010PropOp39
 70
     1
102
RTVSPost2010Prop40
 90
        0
102
RTVSPost2010PropOp40
 70
     1
102
RTVSPost2010Prop41ColorIndex
 90
       18
102
RTVSPost2010Prop41ColorRGB
 90
        0
102
RTVSPost2010PropOp41
 70
     1
102
RTVSPost2010Prop42
 90
       50
102
RTVSPost2010PropOp42
 70
     1
102
RTVSPost2010Prop43
 90
        3
102
RTVSPost2010PropOp43
 70
     1
102
RTVSPost2010Prop44ColorIndex
 90
        5
102
RTVSPost2010Prop44ColorRGB
 90
      255
102
RTVSPost2010PropOp44
 70
     1
102
RTVSPost2010Prop45
280
     0
102
RTVSPost2010PropOp45
 70
     1
102
RTVSPost2010Prop46
 90
       50
102
RTVSPost2010PropOp46
 70
     1
102
RTVSPost2010Prop47
 90
       50
102
RTVSPost2010PropOp47
 70
     1
102
RTVSPost2010Prop48
 90
       50
102
RTVSPost2010PropOp48
 70
     1
102
RTVSPost2010Prop49
280
     0
102
RTVSPost2010PropOp49
 70
     1
102
RTVSPost2010Prop50
 90
       50
102
RTVSPost2010PropOp50
 70
     1
102
RTVSPost2010Prop51ColorIndex
 90
      256
102
RTVSPost2010Prop51ColorRGB
 90
-16777216
102
RTVSPost2010PropOp51
 70
     0
102
RTVSPost2010Prop52
140
1.0
102
RTVSPost2010PropOp52
 70
     0
102
RTVSPost2010Prop53
 90
        2
102
RTVSPost2010PropOp53
 70
     1
102
RTVSPost2010Prop54
  1
strokes_ogs.tif
102
RTVSPost2010PropOp54
 70
     1
102
RTVSPost2010Prop55
280
     0
102
RTVSPost2010PropOp55
 70
     1
102
RTVSPost2010Prop56
140
1.0
102
RTVSPost2010PropOp56
 70
     1
102
RTVSPost2010Prop57
140
1.0
102
RTVSPost2010PropOp57
 70
     1
  0
XRECORD
  5
3CA7
102
{ACAD_REACTORS
330
3CA6
102
}
330
3CA6
100
AcDbXrecord
280
     1
102
RTVSPropertyOp0
 70
     1
102
RTVSPropertyOp1
 70
     1
102
RTVSPropertyOp2
 70
     1
102
RTVSPropertyOp3
 70
     1
102
RTVSPropertyOp4
 70
     1
102
RTVSPropertyOp5
 70
     1
102
RTVSPropertyOp6
 70
     1
102
RTVSPropertyOp7
 70
     1
102
RTVSPropertyOp8
 70
     1
102
RTVSPropertyOp9
 70
     1
102
RTVSPropertyOp10
 70
     1
102
RTVSPropertyOp11
 70
     1
102
RTVSPropertyOp12
 70
     1
102
RTVSPropertyOp13
 70
     1
102
RTVSPropertyOp14
 70
     1
102
RTVSPropertyOp15
 70
     1
102
RTVSPropertyOp16
 70
     1
102
RTVSPropertyOp17
 70
     1
102
RTVSPropertyOp18
 70
     1
102
RTVSPropertyOp19
 70
     1
102
RTVSPropertyOp20
 70
     1
102
RTVSPropertyOp21
 70
     1
102
RTVSPropertyOp22
 70
     1
102
RTVSPropertyOp23
 70
     1
102
RTVSPropertyOp24
 70
     1
102
RTVSPropertyOp25
 70
     1
102
RTVSPropertyOp26
 70
     1
102
RTVSPropertyOp27
 70
     1
102
RTVSPropertyOp28
 70
     1
102
RTVSPropertyOp29
 70
     1
102
RTVSPropertyOp30
 70
     1
102
RTVSPropertyOp31
 70
     1
102
RTVSPropertyOp32
 70
     1
102
RTVSPropertyOp33
 70
     1
102
RTVSPropertyOp34
 70
     1
102
RTVSPropertyOp35
 70
     1
102
RTVSPropertyOp36
 70
     1
102
RTVSPropertyOp37
 70
     1
102
RTVSPropertyOp38
 70
     1
102
RTVSPropertyOp39
 70
     1
102
RTVSPropertyOp40
 70
     1
102
RTVSPropertyOp41
 70
     1
102
RTVSPropertyOp42
 70
     1
102
RTVSPropertyOp43
 70
     1
102
RTVSPropertyOp44
 70
     1
102
RTVSPropertyOp45
 70
     1
102
RTVSPropertyOp46
 70
     1
102
RTVSPropertyOp47
 70
     1
102
RTVSPropertyOp48
 70
     1
102
RTVSPropertyOp49
 70
     1
102
RTVSPropertyOp50
 70
     1
102
RTVSPropertyOp51
 70
     0
102
RTVSPropertyOp52
 70
     0
102
RTVSPropertyOp53
 70
     1
102
RTVSPropertyOp54
 70
     1
102
RTVSPropertyOp55
 70
     1
102
RTVSPropertyOp56
 70
     1
102
RTVSPropertyOp57
 70
     1
102
RTVSPost2010Prop28
280
     0
102
RTVSPost2010PropOp28
 70
     1
102
RTVSPost2010Prop29
280
     1
102
RTVSPost2010PropOp29
 70
     1
102
RTVSPost2010Prop30
280
     1
102
RTVSPost2010PropOp30
 70
     1
102
RTVSPost2010Prop31
280
     0
102
RTVSPost2010PropOp31
 70
     1
102
RTVSPost2010Prop32
280
     0
102
RTVSPost2010PropOp32
 70
     1
102
RTVSPost2010Prop33
280
     0
102
RTVSPost2010PropOp33
 70
     1
102
RTVSPost2010Prop34
280
     0
102
RTVSPost2010PropOp34
 70
     1
102
RTVSPost2010Prop35
280
     0
102
RTVSPost2010PropOp35
 70
     1
102
RTVSPost2010Prop36
280
     0
102
RTVSPost2010PropOp36
 70
     1
102
RTVSPost2010Prop37
 90
       50
102
RTVSPost2010PropOp37
 70
     1
102
RTVSPost2010Prop38
140
0.0
102
RTVSPost2010PropOp38
 70
     1
102
RTVSPost2010Prop39
140
1.0
102
RTVSPost2010PropOp39
 70
     1
102
RTVSPost2010Prop40
 90
        0
102
RTVSPost2010PropOp40
 70
     1
102
RTVSPost2010Prop41ColorIndex
 90
       18
102
RTVSPost2010Prop41ColorRGB
 90
        0
102
RTVSPost2010PropOp41
 70
     1
102
RTVSPost2010Prop42
 90
       50
102
RTVSPost2010PropOp42
 70
     1
102
RTVSPost2010Prop43
 90
        3
102
RTVSPost2010PropOp43
 70
     1
102
RTVSPost2010Prop44ColorIndex
 90
        5
102
RTVSPost2010Prop44ColorRGB
 90
      255
102
RTVSPost2010PropOp44
 70
     1
102
RTVSPost2010Prop45
280
     0
102
RTVSPost2010PropOp45
 70
     1
102
RTVSPost2010Prop46
 90
       50
102
RTVSPost2010PropOp46
 70
     1
102
RTVSPost2010Prop47
 90
       50
102
RTVSPost2010PropOp47
 70
     1
102
RTVSPost2010Prop48
 90
       50
102
RTVSPost2010PropOp48
 70
     1
102
RTVSPost2010Prop49
280
     0
102
RTVSPost2010PropOp49
 70
     1
102
RTVSPost2010Prop50
 90
       50
102
RTVSPost2010PropOp50
 70
     1
102
RTVSPost2010Prop51ColorIndex
 90
      256
102
RTVSPost2010Prop51ColorRGB
 90
-16777216
102
RTVSPost2010PropOp51
 70
     0
102
RTVSPost2010Prop52
140
1.0
102
RTVSPost2010PropOp52
 70
     0
102
RTVSPost2010Prop53
 90
        2
102
RTVSPost2010PropOp53
 70
     1
102
RTVSPost2010Prop54
  1
strokes_ogs.tif
102
RTVSPost2010PropOp54
 70
     1
102
RTVSPost2010Prop55
280
     0
102
RTVSPost2010PropOp55
 70
     1
102
RTVSPost2010Prop56
140
1.0
102
RTVSPost2010PropOp56
 70
     1
102
RTVSPost2010Prop57
140
1.0
102
RTVSPost2010PropOp57
 70
     1
  0
XRECORD
  5
3CAF
102
{ACAD_REACTORS
330
3CAE
102
}
330
3CAE
100
AcDbXrecord
280
     1
102
RTVSPropertyOp0
 70
     1
102
RTVSPropertyOp1
 70
     1
102
RTVSPropertyOp2
 70
     1
102
RTVSPropertyOp3
 70
     1
102
RTVSPropertyOp4
 70
     1
102
RTVSPropertyOp5
 70
     1
102
RTVSPropertyOp6
 70
     1
102
RTVSPropertyOp7
 70
     1
102
RTVSPropertyOp8
 70
     1
102
RTVSPropertyOp9
 70
     1
102
RTVSPropertyOp10
 70
     1
102
RTVSPropertyOp11
 70
     1
102
RTVSPropertyOp12
 70
     1
102
RTVSPropertyOp13
 70
     1
102
RTVSPropertyOp14
 70
     1
102
RTVSPropertyOp15
 70
     1
102
RTVSPropertyOp16
 70
     1
102
RTVSPropertyOp17
 70
     1
102
RTVSPropertyOp18
 70
     1
102
RTVSPropertyOp19
 70
     1
102
RTVSPropertyOp20
 70
     1
102
RTVSPropertyOp21
 70
     1
102
RTVSPropertyOp22
 70
     1
102
RTVSPropertyOp23
 70
     1
102
RTVSPropertyOp24
 70
     1
102
RTVSPropertyOp25
 70
     1
102
RTVSPropertyOp26
 70
     1
102
RTVSPropertyOp27
 70
     1
102
RTVSPropertyOp28
 70
     1
102
RTVSPropertyOp29
 70
     1
102
RTVSPropertyOp30
 70
     1
102
RTVSPropertyOp31
 70
     1
102
RTVSPropertyOp32
 70
     1
102
RTVSPropertyOp33
 70
     1
102
RTVSPropertyOp34
 70
     1
102
RTVSPropertyOp35
 70
     1
102
RTVSPropertyOp36
 70
     1
102
RTVSPropertyOp37
 70
     1
102
RTVSPropertyOp38
 70
     1
102
RTVSPropertyOp39
 70
     1
102
RTVSPropertyOp40
 70
     1
102
RTVSPropertyOp41
 70
     1
102
RTVSPropertyOp42
 70
     1
102
RTVSPropertyOp43
 70
     1
102
RTVSPropertyOp44
 70
     1
102
RTVSPropertyOp45
 70
     1
102
RTVSPropertyOp46
 70
     1
102
RTVSPropertyOp47
 70
     1
102
RTVSPropertyOp48
 70
     1
102
RTVSPropertyOp49
 70
     1
102
RTVSPropertyOp50
 70
     1
102
RTVSPropertyOp51
 70
     0
102
RTVSPropertyOp52
 70
     0
102
RTVSPropertyOp53
 70
     1
102
RTVSPropertyOp54
 70
     1
102
RTVSPropertyOp55
 70
     1
102
RTVSPropertyOp56
 70
     1
102
RTVSPropertyOp57
 70
     1
102
RTVSPost2010Prop28
280
     0
102
RTVSPost2010PropOp28
 70
     1
102
RTVSPost2010Prop29
280
     1
102
RTVSPost2010PropOp29
 70
     1
102
RTVSPost2010Prop30
280
     1
102
RTVSPost2010PropOp30
 70
     1
102
RTVSPost2010Prop31
280
     0
102
RTVSPost2010PropOp31
 70
     1
102
RTVSPost2010Prop32
280
     0
102
RTVSPost2010PropOp32
 70
     1
102
RTVSPost2010Prop33
280
     0
102
RTVSPost2010PropOp33
 70
     1
102
RTVSPost2010Prop34
280
     0
102
RTVSPost2010PropOp34
 70
     1
102
RTVSPost2010Prop35
280
     0
102
RTVSPost2010PropOp35
 70
     1
102
RTVSPost2010Prop36
280
     0
102
RTVSPost2010PropOp36
 70
     1
102
RTVSPost2010Prop37
 90
       50
102
RTVSPost2010PropOp37
 70
     1
102
RTVSPost2010Prop38
140
0.0
102
RTVSPost2010PropOp38
 70
     1
102
RTVSPost2010Prop39
140
1.0
102
RTVSPost2010PropOp39
 70
     1
102
RTVSPost2010Prop40
 90
        0
102
RTVSPost2010PropOp40
 70
     1
102
RTVSPost2010Prop41ColorIndex
 90
       18
102
RTVSPost2010Prop41ColorRGB
 90
        0
102
RTVSPost2010PropOp41
 70
     1
102
RTVSPost2010Prop42
 90
       50
102
RTVSPost2010PropOp42
 70
     1
102
RTVSPost2010Prop43
 90
        3
102
RTVSPost2010PropOp43
 70
     1
102
RTVSPost2010Prop44ColorIndex
 90
        5
102
RTVSPost2010Prop44ColorRGB
 90
      255
102
RTVSPost2010PropOp44
 70
     1
102
RTVSPost2010Prop45
280
     0
102
RTVSPost2010PropOp45
 70
     1
102
RTVSPost2010Prop46
 90
       50
102
RTVSPost2010PropOp46
 70
     1
102
RTVSPost2010Prop47
 90
       50
102
RTVSPost2010PropOp47
 70
     1
102
RTVSPost2010Prop48
 90
       50
102
RTVSPost2010PropOp48
 70
     1
102
RTVSPost2010Prop49
280
     0
102
RTVSPost2010PropOp49
 70
     1
102
RTVSPost2010Prop50
 90
       50
102
RTVSPost2010PropOp50
 70
     1
102
RTVSPost2010Prop51ColorIndex
 90
      256
102
RTVSPost2010Prop51ColorRGB
 90
-16777216
102
RTVSPost2010PropOp51
 70
     0
102
RTVSPost2010Prop52
140
1.0
102
RTVSPost2010PropOp52
 70
     0
102
RTVSPost2010Prop53
 90
        2
102
RTVSPost2010PropOp53
 70
     1
102
RTVSPost2010Prop54
  1
strokes_ogs.tif
102
RTVSPost2010PropOp54
 70
     1
102
RTVSPost2010Prop55
280
     0
102
RTVSPost2010PropOp55
 70
     1
102
RTVSPost2010Prop56
140
1.0
102
RTVSPost2010PropOp56
 70
     1
102
RTVSPost2010Prop57
140
1.0
102
RTVSPost2010PropOp57
 70
     1
  0
XRECORD
  5
3CB7
102
{ACAD_REACTORS
330
3CB6
102
}
330
3CB6
100
AcDbXrecord
280
     1
102
RTVSPropertyOp0
 70
     1
102
RTVSPropertyOp1
 70
     1
102
RTVSPropertyOp2
 70
     1
102
RTVSPropertyOp3
 70
     1
102
RTVSPropertyOp4
 70
     1
102
RTVSPropertyOp5
 70
     1
102
RTVSPropertyOp6
 70
     1
102
RTVSPropertyOp7
 70
     1
102
RTVSPropertyOp8
 70
     1
102
RTVSPropertyOp9
 70
     1
102
RTVSPropertyOp10
 70
     1
102
RTVSPropertyOp11
 70
     1
102
RTVSPropertyOp12
 70
     1
102
RTVSPropertyOp13
 70
     1
102
RTVSPropertyOp14
 70
     1
102
RTVSPropertyOp15
 70
     1
102
RTVSPropertyOp16
 70
     1
102
RTVSPropertyOp17
 70
     1
102
RTVSPropertyOp18
 70
     1
102
RTVSPropertyOp19
 70
     1
102
RTVSPropertyOp20
 70
     1
102
RTVSPropertyOp21
 70
     1
102
RTVSPropertyOp22
 70
     1
102
RTVSPropertyOp23
 70
     1
102
RTVSPropertyOp24
 70
     1
102
RTVSPropertyOp25
 70
     1
102
RTVSPropertyOp26
 70
     1
102
RTVSPropertyOp27
 70
     1
102
RTVSPropertyOp28
 70
     1
102
RTVSPropertyOp29
 70
     1
102
RTVSPropertyOp30
 70
     1
102
RTVSPropertyOp31
 70
     1
102
RTVSPropertyOp32
 70
     1
102
RTVSPropertyOp33
 70
     1
102
RTVSPropertyOp34
 70
     1
102
RTVSPropertyOp35
 70
     1
102
RTVSPropertyOp36
 70
     1
102
RTVSPropertyOp37
 70
     1
102
RTVSPropertyOp38
 70
     1
102
RTVSPropertyOp39
 70
     1
102
RTVSPropertyOp40
 70
     1
102
RTVSPropertyOp41
 70
     1
102
RTVSPropertyOp42
 70
     1
102
RTVSPropertyOp43
 70
     1
102
RTVSPropertyOp44
 70
     1
102
RTVSPropertyOp45
 70
     1
102
RTVSPropertyOp46
 70
     1
102
RTVSPropertyOp47
 70
     1
102
RTVSPropertyOp48
 70
     1
102
RTVSPropertyOp49
 70
     1
102
RTVSPropertyOp50
 70
     1
102
RTVSPropertyOp51
 70
     0
102
RTVSPropertyOp52
 70
     0
102
RTVSPropertyOp53
 70
     1
102
RTVSPropertyOp54
 70
     1
102
RTVSPropertyOp55
 70
     1
102
RTVSPropertyOp56
 70
     1
102
RTVSPropertyOp57
 70
     1
102
RTVSPost2010Prop28
280
     0
102
RTVSPost2010PropOp28
 70
     1
102
RTVSPost2010Prop29
280
     1
102
RTVSPost2010PropOp29
 70
     1
102
RTVSPost2010Prop30
280
     1
102
RTVSPost2010PropOp30
 70
     1
102
RTVSPost2010Prop31
280
     0
102
RTVSPost2010PropOp31
 70
     1
102
RTVSPost2010Prop32
280
     0
102
RTVSPost2010PropOp32
 70
     1
102
RTVSPost2010Prop33
280
     0
102
RTVSPost2010PropOp33
 70
     1
102
RTVSPost2010Prop34
280
     0
102
RTVSPost2010PropOp34
 70
     1
102
RTVSPost2010Prop35
280
     0
102
RTVSPost2010PropOp35
 70
     1
102
RTVSPost2010Prop36
280
     0
102
RTVSPost2010PropOp36
 70
     1
102
RTVSPost2010Prop37
 90
       50
102
RTVSPost2010PropOp37
 70
     1
102
RTVSPost2010Prop38
140
0.0
102
RTVSPost2010PropOp38
 70
     1
102
RTVSPost2010Prop39
140
1.0
102
RTVSPost2010PropOp39
 70
     1
102
RTVSPost2010Prop40
 90
        0
102
RTVSPost2010PropOp40
 70
     1
102
RTVSPost2010Prop41ColorIndex
 90
       18
102
RTVSPost2010Prop41ColorRGB
 90
        0
102
RTVSPost2010PropOp41
 70
     1
102
RTVSPost2010Prop42
 90
       50
102
RTVSPost2010PropOp42
 70
     1
102
RTVSPost2010Prop43
 90
        3
102
RTVSPost2010PropOp43
 70
     1
102
RTVSPost2010Prop44ColorIndex
 90
        5
102
RTVSPost2010Prop44ColorRGB
 90
      255
102
RTVSPost2010PropOp44
 70
     1
102
RTVSPost2010Prop45
280
     0
102
RTVSPost2010PropOp45
 70
     1
102
RTVSPost2010Prop46
 90
       50
102
RTVSPost2010PropOp46
 70
     1
102
RTVSPost2010Prop47
 90
       50
102
RTVSPost2010PropOp47
 70
     1
102
RTVSPost2010Prop48
 90
       50
102
RTVSPost2010PropOp48
 70
     1
102
RTVSPost2010Prop49
280
     0
102
RTVSPost2010PropOp49
 70
     1
102
RTVSPost2010Prop50
 90
       50
102
RTVSPost2010PropOp50
 70
     1
102
RTVSPost2010Prop51ColorIndex
 90
      256
102
RTVSPost2010Prop51ColorRGB
 90
-16777216
102
RTVSPost2010PropOp51
 70
     0
102
RTVSPost2010Prop52
140
1.0
102
RTVSPost2010PropOp52
 70
     0
102
RTVSPost2010Prop53
 90
        2
102
RTVSPost2010PropOp53
 70
     1
102
RTVSPost2010Prop54
  1
strokes_ogs.tif
102
RTVSPost2010PropOp54
 70
     1
102
RTVSPost2010Prop55
280
     0
102
RTVSPost2010PropOp55
 70
     1
102
RTVSPost2010Prop56
140
1.0
102
RTVSPost2010PropOp56
 70
     1
102
RTVSPost2010Prop57
140
1.0
102
RTVSPost2010PropOp57
 70
     1
  0
XRECORD
  5
3CAB
102
{ACAD_REACTORS
330
3CAA
102
}
330
3CAA
100
AcDbXrecord
280
     1
102
RTVSPropertyOp0
 70
     1
102
RTVSPropertyOp1
 70
     1
102
RTVSPropertyOp2
 70
     1
102
RTVSPropertyOp3
 70
     1
102
RTVSPropertyOp4
 70
     1
102
RTVSPropertyOp5
 70
     1
102
RTVSPropertyOp6
 70
     1
102
RTVSPropertyOp7
 70
     1
102
RTVSPropertyOp8
 70
     1
102
RTVSPropertyOp9
 70
     1
102
RTVSPropertyOp10
 70
     1
102
RTVSPropertyOp11
 70
     1
102
RTVSPropertyOp12
 70
     1
102
RTVSPropertyOp13
 70
     1
102
RTVSPropertyOp14
 70
     1
102
RTVSPropertyOp15
 70
     1
102
RTVSPropertyOp16
 70
     1
102
RTVSPropertyOp17
 70
     1
102
RTVSPropertyOp18
 70
     1
102
RTVSPropertyOp19
 70
     1
102
RTVSPropertyOp20
 70
     1
102
RTVSPropertyOp21
 70
     1
102
RTVSPropertyOp22
 70
     1
102
RTVSPropertyOp23
 70
     1
102
RTVSPropertyOp24
 70
     1
102
RTVSPropertyOp25
 70
     1
102
RTVSPropertyOp26
 70
     1
102
RTVSPropertyOp27
 70
     1
102
RTVSPropertyOp28
 70
     1
102
RTVSPropertyOp29
 70
     1
102
RTVSPropertyOp30
 70
     1
102
RTVSPropertyOp31
 70
     1
102
RTVSPropertyOp32
 70
     1
102
RTVSPropertyOp33
 70
     1
102
RTVSPropertyOp34
 70
     1
102
RTVSPropertyOp35
 70
     1
102
RTVSPropertyOp36
 70
     1
102
RTVSPropertyOp37
 70
     1
102
RTVSPropertyOp38
 70
     1
102
RTVSPropertyOp39
 70
     1
102
RTVSPropertyOp40
 70
     1
102
RTVSPropertyOp41
 70
     1
102
RTVSPropertyOp42
 70
     1
102
RTVSPropertyOp43
 70
     1
102
RTVSPropertyOp44
 70
     1
102
RTVSPropertyOp45
 70
     1
102
RTVSPropertyOp46
 70
     1
102
RTVSPropertyOp47
 70
     1
102
RTVSPropertyOp48
 70
     1
102
RTVSPropertyOp49
 70
     1
102
RTVSPropertyOp50
 70
     1
102
RTVSPropertyOp51
 70
     0
102
RTVSPropertyOp52
 70
     0
102
RTVSPropertyOp53
 70
     1
102
RTVSPropertyOp54
 70
     1
102
RTVSPropertyOp55
 70
     1
102
RTVSPropertyOp56
 70
     1
102
RTVSPropertyOp57
 70
     1
102
RTVSPost2010Prop28
280
     0
102
RTVSPost2010PropOp28
 70
     1
102
RTVSPost2010Prop29
280
     1
102
RTVSPost2010PropOp29
 70
     1
102
RTVSPost2010Prop30
280
     1
102
RTVSPost2010PropOp30
 70
     1
102
RTVSPost2010Prop31
280
     0
102
RTVSPost2010PropOp31
 70
     1
102
RTVSPost2010Prop32
280
     0
102
RTVSPost2010PropOp32
 70
     1
102
RTVSPost2010Prop33
280
     0
102
RTVSPost2010PropOp33
 70
     1
102
RTVSPost2010Prop34
280
     0
102
RTVSPost2010PropOp34
 70
     1
102
RTVSPost2010Prop35
280
     0
102
RTVSPost2010PropOp35
 70
     1
102
RTVSPost2010Prop36
280
     0
102
RTVSPost2010PropOp36
 70
     1
102
RTVSPost2010Prop37
 90
       50
102
RTVSPost2010PropOp37
 70
     1
102
RTVSPost2010Prop38
140
0.0
102
RTVSPost2010PropOp38
 70
     1
102
RTVSPost2010Prop39
140
1.0
102
RTVSPost2010PropOp39
 70
     1
102
RTVSPost2010Prop40
 90
        0
102
RTVSPost2010PropOp40
 70
     1
102
RTVSPost2010Prop41ColorIndex
 90
       18
102
RTVSPost2010Prop41ColorRGB
 90
        0
102
RTVSPost2010PropOp41
 70
     1
102
RTVSPost2010Prop42
 90
       50
102
RTVSPost2010PropOp42
 70
     1
102
RTVSPost2010Prop43
 90
        3
102
RTVSPost2010PropOp43
 70
     1
102
RTVSPost2010Prop44ColorIndex
 90
        5
102
RTVSPost2010Prop44ColorRGB
 90
      255
102
RTVSPost2010PropOp44
 70
     1
102
RTVSPost2010Prop45
280
     0
102
RTVSPost2010PropOp45
 70
     1
102
RTVSPost2010Prop46
 90
       50
102
RTVSPost2010PropOp46
 70
     1
102
RTVSPost2010Prop47
 90
       50
102
RTVSPost2010PropOp47
 70
     1
102
RTVSPost2010Prop48
 90
       50
102
RTVSPost2010PropOp48
 70
     1
102
RTVSPost2010Prop49
280
     0
102
RTVSPost2010PropOp49
 70
     1
102
RTVSPost2010Prop50
 90
       50
102
RTVSPost2010PropOp50
 70
     1
102
RTVSPost2010Prop51ColorIndex
 90
      256
102
RTVSPost2010Prop51ColorRGB
 90
-16777216
102
RTVSPost2010PropOp51
 70
     0
102
RTVSPost2010Prop52
140
1.0
102
RTVSPost2010PropOp52
 70
     0
102
RTVSPost2010Prop53
 90
        2
102
RTVSPost2010PropOp53
 70
     1
102
RTVSPost2010Prop54
  1
strokes_ogs.tif
102
RTVSPost2010PropOp54
 70
     1
102
RTVSPost2010Prop55
280
     0
102
RTVSPost2010PropOp55
 70
     1
102
RTVSPost2010Prop56
140
1.0
102
RTVSPost2010PropOp56
 70
     1
102
RTVSPost2010Prop57
140
1.0
102
RTVSPost2010PropOp57
 70
     1
  0
XRECORD
  5
3CAD
102
{ACAD_REACTORS
330
3CAC
102
}
330
3CAC
100
AcDbXrecord
280
     1
102
RTVSPropertyOp0
 70
     1
102
RTVSPropertyOp1
 70
     1
102
RTVSPropertyOp2
 70
     1
102
RTVSPropertyOp3
 70
     1
102
RTVSPropertyOp4
 70
     1
102
RTVSPropertyOp5
 70
     1
102
RTVSPropertyOp6
 70
     1
102
RTVSPropertyOp7
 70
     1
102
RTVSPropertyOp8
 70
     1
102
RTVSPropertyOp9
 70
     1
102
RTVSPropertyOp10
 70
     1
102
RTVSPropertyOp11
 70
     1
102
RTVSPropertyOp12
 70
     1
102
RTVSPropertyOp13
 70
     1
102
RTVSPropertyOp14
 70
     1
102
RTVSPropertyOp15
 70
     1
102
RTVSPropertyOp16
 70
     1
102
RTVSPropertyOp17
 70
     1
102
RTVSPropertyOp18
 70
     1
102
RTVSPropertyOp19
 70
     1
102
RTVSPropertyOp20
 70
     1
102
RTVSPropertyOp21
 70
     1
102
RTVSPropertyOp22
 70
     1
102
RTVSPropertyOp23
 70
     1
102
RTVSPropertyOp24
 70
     1
102
RTVSPropertyOp25
 70
     1
102
RTVSPropertyOp26
 70
     1
102
RTVSPropertyOp27
 70
     1
102
RTVSPropertyOp28
 70
     1
102
RTVSPropertyOp29
 70
     1
102
RTVSPropertyOp30
 70
     1
102
RTVSPropertyOp31
 70
     1
102
RTVSPropertyOp32
 70
     1
102
RTVSPropertyOp33
 70
     1
102
RTVSPropertyOp34
 70
     1
102
RTVSPropertyOp35
 70
     1
102
RTVSPropertyOp36
 70
     1
102
RTVSPropertyOp37
 70
     1
102
RTVSPropertyOp38
 70
     1
102
RTVSPropertyOp39
 70
     1
102
RTVSPropertyOp40
 70
     1
102
RTVSPropertyOp41
 70
     1
102
RTVSPropertyOp42
 70
     1
102
RTVSPropertyOp43
 70
     1
102
RTVSPropertyOp44
 70
     1
102
RTVSPropertyOp45
 70
     1
102
RTVSPropertyOp46
 70
     1
102
RTVSPropertyOp47
 70
     1
102
RTVSPropertyOp48
 70
     1
102
RTVSPropertyOp49
 70
     1
102
RTVSPropertyOp50
 70
     1
102
RTVSPropertyOp51
 70
     0
102
RTVSPropertyOp52
 70
     0
102
RTVSPropertyOp53
 70
     1
102
RTVSPropertyOp54
 70
     1
102
RTVSPropertyOp55
 70
     1
102
RTVSPropertyOp56
 70
     1
102
RTVSPropertyOp57
 70
     1
102
RTVSPost2010Prop28
280
     0
102
RTVSPost2010PropOp28
 70
     1
102
RTVSPost2010Prop29
280
     1
102
RTVSPost2010PropOp29
 70
     1
102
RTVSPost2010Prop30
280
     1
102
RTVSPost2010PropOp30
 70
     1
102
RTVSPost2010Prop31
280
     0
102
RTVSPost2010PropOp31
 70
     1
102
RTVSPost2010Prop32
280
     0
102
RTVSPost2010PropOp32
 70
     1
102
RTVSPost2010Prop33
280
     0
102
RTVSPost2010PropOp33
 70
     1
102
RTVSPost2010Prop34
280
     0
102
RTVSPost2010PropOp34
 70
     1
102
RTVSPost2010Prop35
280
     0
102
RTVSPost2010PropOp35
 70
     1
102
RTVSPost2010Prop36
280
     0
102
RTVSPost2010PropOp36
 70
     1
102
RTVSPost2010Prop37
 90
       50
102
RTVSPost2010PropOp37
 70
     1
102
RTVSPost2010Prop38
140
0.0
102
RTVSPost2010PropOp38
 70
     1
102
RTVSPost2010Prop39
140
1.0
102
RTVSPost2010PropOp39
 70
     1
102
RTVSPost2010Prop40
 90
        0
102
RTVSPost2010PropOp40
 70
     1
102
RTVSPost2010Prop41ColorIndex
 90
       18
102
RTVSPost2010Prop41ColorRGB
 90
        0
102
RTVSPost2010PropOp41
 70
     1
102
RTVSPost2010Prop42
 90
       50
102
RTVSPost2010PropOp42
 70
     1
102
RTVSPost2010Prop43
 90
        3
102
RTVSPost2010PropOp43
 70
     1
102
RTVSPost2010Prop44ColorIndex
 90
        5
102
RTVSPost2010Prop44ColorRGB
 90
      255
102
RTVSPost2010PropOp44
 70
     1
102
RTVSPost2010Prop45
280
     0
102
RTVSPost2010PropOp45
 70
     1
102
RTVSPost2010Prop46
 90
       50
102
RTVSPost2010PropOp46
 70
     1
102
RTVSPost2010Prop47
 90
       50
102
RTVSPost2010PropOp47
 70
     1
102
RTVSPost2010Prop48
 90
       50
102
RTVSPost2010PropOp48
 70
     1
102
RTVSPost2010Prop49
280
     0
102
RTVSPost2010PropOp49
 70
     1
102
RTVSPost2010Prop50
 90
       50
102
RTVSPost2010PropOp50
 70
     1
102
RTVSPost2010Prop51ColorIndex
 90
      256
102
RTVSPost2010Prop51ColorRGB
 90
-16777216
102
RTVSPost2010PropOp51
 70
     0
102
RTVSPost2010Prop52
140
1.0
102
RTVSPost2010PropOp52
 70
     0
102
RTVSPost2010Prop53
 90
        2
102
RTVSPost2010PropOp53
 70
     1
102
RTVSPost2010Prop54
  1
strokes_ogs.tif
102
RTVSPost2010PropOp54
 70
     1
102
RTVSPost2010Prop55
280
     0
102
RTVSPost2010PropOp55
 70
     1
102
RTVSPost2010Prop56
140
1.0
102
RTVSPost2010PropOp56
 70
     1
102
RTVSPost2010Prop57
140
1.0
102
RTVSPost2010PropOp57
 70
     1
  0
XRECORD
  5
3CBD
102
{ACAD_REACTORS
330
3CBC
102
}
330
3CBC
100
AcDbXrecord
280
     1
102
RTVSPropertyOp0
 70
     0
102
RTVSPropertyOp1
 70
     0
102
RTVSPropertyOp2
 70
     0
102
RTVSPropertyOp3
 70
     0
102
RTVSPropertyOp4
 70
     0
102
RTVSPropertyOp5
 70
     0
102
RTVSPropertyOp6
 70
     0
102
RTVSPropertyOp7
 70
     0
102
RTVSPropertyOp8
 70
     0
102
RTVSPropertyOp9
 70
     0
102
RTVSPropertyOp10
 70
     0
102
RTVSPropertyOp11
 70
     0
102
RTVSPropertyOp12
 70
     0
102
RTVSPropertyOp13
 70
     0
102
RTVSPropertyOp14
 70
     2
102
RTVSPropertyOp15
 70
     0
102
RTVSPropertyOp16
 70
     0
102
RTVSPropertyOp17
 70
     0
102
RTVSPropertyOp18
 70
     0
102
RTVSPropertyOp19
 70
     0
102
RTVSPropertyOp20
 70
     0
102
RTVSPropertyOp21
 70
     0
102
RTVSPropertyOp22
 70
     0
102
RTVSPropertyOp23
 70
     0
102
RTVSPropertyOp24
 70
     0
102
RTVSPropertyOp25
 70
     0
102
RTVSPropertyOp26
 70
     0
102
RTVSPropertyOp27
 70
     0
102
RTVSPropertyOp28
 70
     0
102
RTVSPropertyOp29
 70
     0
102
RTVSPropertyOp30
 70
     0
102
RTVSPropertyOp31
 70
     0
102
RTVSPropertyOp32
 70
     0
102
RTVSPropertyOp33
 70
     0
102
RTVSPropertyOp34
 70
     0
102
RTVSPropertyOp35
 70
     0
102
RTVSPropertyOp36
 70
     0
102
RTVSPropertyOp37
 70
     0
102
RTVSPropertyOp38
 70
     0
102
RTVSPropertyOp39
 70
     0
102
RTVSPropertyOp40
 70
     0
102
RTVSPropertyOp41
 70
     0
102
RTVSPropertyOp42
 70
     0
102
RTVSPropertyOp43
 70
     0
102
RTVSPropertyOp44
 70
     0
102
RTVSPropertyOp45
 70
     0
102
RTVSPropertyOp46
 70
     0
102
RTVSPropertyOp47
 70
     0
102
RTVSPropertyOp48
 70
     0
102
RTVSPropertyOp49
 70
     0
102
RTVSPropertyOp50
 70
     0
102
RTVSPropertyOp51
 70
     0
102
RTVSPropertyOp52
 70
     0
102
RTVSPropertyOp53
 70
     0
102
RTVSPropertyOp54
 70
     0
102
RTVSPropertyOp55
 70
     0
102
RTVSPropertyOp56
 70
     0
102
RTVSPropertyOp57
 70
     0
102
RTVSPost2010Prop28
280
     0
102
RTVSPost2010PropOp28
 70
     0
102
RTVSPost2010Prop29
280
     1
102
RTVSPost2010PropOp29
 70
     0
102
RTVSPost2010Prop30
280
     1
102
RTVSPost2010PropOp30
 70
     0
102
RTVSPost2010Prop31
280
     0
102
RTVSPost2010PropOp31
 70
     0
102
RTVSPost2010Prop32
280
     0
102
RTVSPost2010PropOp32
 70
     0
102
RTVSPost2010Prop33
280
     0
102
RTVSPost2010PropOp33
 70
     0
102
RTVSPost2010Prop34
280
     0
102
RTVSPost2010PropOp34
 70
     0
102
RTVSPost2010Prop35
280
     0
102
RTVSPost2010PropOp35
 70
     0
102
RTVSPost2010Prop36
280
     0
102
RTVSPost2010PropOp36
 70
     0
102
RTVSPost2010Prop37
 90
       50
102
RTVSPost2010PropOp37
 70
     0
102
RTVSPost2010Prop38
140
0.0
102
RTVSPost2010PropOp38
 70
     0
102
RTVSPost2010Prop39
140
1.0
102
RTVSPost2010PropOp39
 70
     0
102
RTVSPost2010Prop40
 90
        0
102
RTVSPost2010PropOp40
 70
     0
102
RTVSPost2010Prop41ColorIndex
 90
       18
102
RTVSPost2010Prop41ColorRGB
 90
        0
102
RTVSPost2010PropOp41
 70
     0
102
RTVSPost2010Prop42
 90
       50
102
RTVSPost2010PropOp42
 70
     0
102
RTVSPost2010Prop43
 90
        3
102
RTVSPost2010PropOp43
 70
     0
102
RTVSPost2010Prop44ColorIndex
 90
        5
102
RTVSPost2010Prop44ColorRGB
 90
      255
102
RTVSPost2010PropOp44
 70
     0
102
RTVSPost2010Prop45
280
     0
102
RTVSPost2010PropOp45
 70
     0
102
RTVSPost2010Prop46
 90
       50
102
RTVSPost2010PropOp46
 70
     0
102
RTVSPost2010Prop47
 90
       50
102
RTVSPost2010PropOp47
 70
     0
102
RTVSPost2010Prop48
 90
       50
102
RTVSPost2010PropOp48
 70
     0
102
RTVSPost2010Prop49
280
     0
102
RTVSPost2010PropOp49
 70
     0
102
RTVSPost2010Prop50
 90
       50
102
RTVSPost2010PropOp50
 70
     0
102
RTVSPost2010Prop51ColorIndex
 90
      256
102
RTVSPost2010Prop51ColorRGB
 90
-16777216
102
RTVSPost2010PropOp51
 70
     0
102
RTVSPost2010Prop52
140
1.0
102
RTVSPost2010PropOp52
 70
     0
102
RTVSPost2010Prop53
 90
        2
102
RTVSPost2010PropOp53
 70
     0
102
RTVSPost2010Prop54
  1
strokes_ogs.tif
102
RTVSPost2010PropOp54
 70
     0
102
RTVSPost2010Prop55
280
     0
102
RTVSPost2010PropOp55
 70
     0
102
RTVSPost2010Prop56
140
1.0
102
RTVSPost2010PropOp56
 70
     0
102
RTVSPost2010Prop57
140
1.0
102
RTVSPost2010PropOp57
 70
     0
  0
XRECORD
  5
3CB5
102
{ACAD_REACTORS
330
3CB4
102
}
330
3CB4
100
AcDbXrecord
280
     1
102
RTVSPropertyOp0
 70
     1
102
RTVSPropertyOp1
 70
     1
102
RTVSPropertyOp2
 70
     1
102
RTVSPropertyOp3
 70
     1
102
RTVSPropertyOp4
 70
     1
102
RTVSPropertyOp5
 70
     1
102
RTVSPropertyOp6
 70
     1
102
RTVSPropertyOp7
 70
     1
102
RTVSPropertyOp8
 70
     1
102
RTVSPropertyOp9
 70
     1
102
RTVSPropertyOp10
 70
     1
102
RTVSPropertyOp11
 70
     1
102
RTVSPropertyOp12
 70
     1
102
RTVSPropertyOp13
 70
     1
102
RTVSPropertyOp14
 70
     1
102
RTVSPropertyOp15
 70
     1
102
RTVSPropertyOp16
 70
     1
102
RTVSPropertyOp17
 70
     1
102
RTVSPropertyOp18
 70
     1
102
RTVSPropertyOp19
 70
     1
102
RTVSPropertyOp20
 70
     1
102
RTVSPropertyOp21
 70
     1
102
RTVSPropertyOp22
 70
     1
102
RTVSPropertyOp23
 70
     1
102
RTVSPropertyOp24
 70
     1
102
RTVSPropertyOp25
 70
     1
102
RTVSPropertyOp26
 70
     1
102
RTVSPropertyOp27
 70
     1
102
RTVSPropertyOp28
 70
     1
102
RTVSPropertyOp29
 70
     1
102
RTVSPropertyOp30
 70
     1
102
RTVSPropertyOp31
 70
     1
102
RTVSPropertyOp32
 70
     1
102
RTVSPropertyOp33
 70
     1
102
RTVSPropertyOp34
 70
     1
102
RTVSPropertyOp35
 70
     1
102
RTVSPropertyOp36
 70
     1
102
RTVSPropertyOp37
 70
     1
102
RTVSPropertyOp38
 70
     1
102
RTVSPropertyOp39
 70
     1
102
RTVSPropertyOp40
 70
     1
102
RTVSPropertyOp41
 70
     1
102
RTVSPropertyOp42
 70
     1
102
RTVSPropertyOp43
 70
     1
102
RTVSPropertyOp44
 70
     1
102
RTVSPropertyOp45
 70
     1
102
RTVSPropertyOp46
 70
     1
102
RTVSPropertyOp47
 70
     1
102
RTVSPropertyOp48
 70
     1
102
RTVSPropertyOp49
 70
     1
102
RTVSPropertyOp50
 70
     1
102
RTVSPropertyOp51
 70
     0
102
RTVSPropertyOp52
 70
     0
102
RTVSPropertyOp53
 70
     1
102
RTVSPropertyOp54
 70
     1
102
RTVSPropertyOp55
 70
     1
102
RTVSPropertyOp56
 70
     1
102
RTVSPropertyOp57
 70
     1
102
RTVSPost2010Prop28
280
     0
102
RTVSPost2010PropOp28
 70
     1
102
RTVSPost2010Prop29
280
     1
102
RTVSPost2010PropOp29
 70
     1
102
RTVSPost2010Prop30
280
     1
102
RTVSPost2010PropOp30
 70
     1
102
RTVSPost2010Prop31
280
     0
102
RTVSPost2010PropOp31
 70
     1
102
RTVSPost2010Prop32
280
     0
102
RTVSPost2010PropOp32
 70
     1
102
RTVSPost2010Prop33
280
     0
102
RTVSPost2010PropOp33
 70
     1
102
RTVSPost2010Prop34
280
     0
102
RTVSPost2010PropOp34
 70
     1
102
RTVSPost2010Prop35
280
     0
102
RTVSPost2010PropOp35
 70
     1
102
RTVSPost2010Prop36
280
     0
102
RTVSPost2010PropOp36
 70
     1
102
RTVSPost2010Prop37
 90
       50
102
RTVSPost2010PropOp37
 70
     1
102
RTVSPost2010Prop38
140
0.0
102
RTVSPost2010PropOp38
 70
     1
102
RTVSPost2010Prop39
140
1.0
102
RTVSPost2010PropOp39
 70
     1
102
RTVSPost2010Prop40
 90
        0
102
RTVSPost2010PropOp40
 70
     1
102
RTVSPost2010Prop41ColorIndex
 90
       18
102
RTVSPost2010Prop41ColorRGB
 90
        0
102
RTVSPost2010PropOp41
 70
     1
102
RTVSPost2010Prop42
 90
       50
102
RTVSPost2010PropOp42
 70
     1
102
RTVSPost2010Prop43
 90
        3
102
RTVSPost2010PropOp43
 70
     1
102
RTVSPost2010Prop44ColorIndex
 90
        5
102
RTVSPost2010Prop44ColorRGB
 90
      255
102
RTVSPost2010PropOp44
 70
     1
102
RTVSPost2010Prop45
280
     0
102
RTVSPost2010PropOp45
 70
     1
102
RTVSPost2010Prop46
 90
       50
102
RTVSPost2010PropOp46
 70
     1
102
RTVSPost2010Prop47
 90
       50
102
RTVSPost2010PropOp47
 70
     1
102
RTVSPost2010Prop48
 90
       50
102
RTVSPost2010PropOp48
 70
     1
102
RTVSPost2010Prop49
280
     0
102
RTVSPost2010PropOp49
 70
     1
102
RTVSPost2010Prop50
 90
       50
102
RTVSPost2010PropOp50
 70
     1
102
RTVSPost2010Prop51ColorIndex
 90
      256
102
RTVSPost2010Prop51ColorRGB
 90
-16777216
102
RTVSPost2010PropOp51
 70
     0
102
RTVSPost2010Prop52
140
1.0
102
RTVSPost2010PropOp52
 70
     0
102
RTVSPost2010Prop53
 90
        2
102
RTVSPost2010PropOp53
 70
     1
102
RTVSPost2010Prop54
  1
strokes_ogs.tif
102
RTVSPost2010PropOp54
 70
     1
102
RTVSPost2010Prop55
280
     0
102
RTVSPost2010PropOp55
 70
     1
102
RTVSPost2010Prop56
140
1.0
102
RTVSPost2010PropOp56
 70
     1
102
RTVSPost2010Prop57
140
1.0
102
RTVSPost2010PropOp57
 70
     1
  0
XRECORD
  5
3C99
102
{ACAD_REACTORS
330
3C98
102
}
330
3C98
100
AcDbXrecord
280
     1
102
RTVSPropertyOp0
 70
     1
102
RTVSPropertyOp1
 70
     1
102
RTVSPropertyOp2
 70
     1
102
RTVSPropertyOp3
 70
     1
102
RTVSPropertyOp4
 70
     1
102
RTVSPropertyOp5
 70
     1
102
RTVSPropertyOp6
 70
     1
102
RTVSPropertyOp7
 70
     1
102
RTVSPropertyOp8
 70
     1
102
RTVSPropertyOp9
 70
     1
102
RTVSPropertyOp10
 70
     1
102
RTVSPropertyOp11
 70
     1
102
RTVSPropertyOp12
 70
     1
102
RTVSPropertyOp13
 70
     1
102
RTVSPropertyOp14
 70
     1
102
RTVSPropertyOp15
 70
     1
102
RTVSPropertyOp16
 70
     1
102
RTVSPropertyOp17
 70
     1
102
RTVSPropertyOp18
 70
     1
102
RTVSPropertyOp19
 70
     1
102
RTVSPropertyOp20
 70
     1
102
RTVSPropertyOp21
 70
     1
102
RTVSPropertyOp22
 70
     1
102
RTVSPropertyOp23
 70
     1
102
RTVSPropertyOp24
 70
     1
102
RTVSPropertyOp25
 70
     1
102
RTVSPropertyOp26
 70
     1
102
RTVSPropertyOp27
 70
     1
102
RTVSPropertyOp28
 70
     1
102
RTVSPropertyOp29
 70
     1
102
RTVSPropertyOp30
 70
     1
102
RTVSPropertyOp31
 70
     1
102
RTVSPropertyOp32
 70
     1
102
RTVSPropertyOp33
 70
     1
102
RTVSPropertyOp34
 70
     1
102
RTVSPropertyOp35
 70
     1
102
RTVSPropertyOp36
 70
     1
102
RTVSPropertyOp37
 70
     1
102
RTVSPropertyOp38
 70
     1
102
RTVSPropertyOp39
 70
     1
102
RTVSPropertyOp40
 70
     1
102
RTVSPropertyOp41
 70
     1
102
RTVSPropertyOp42
 70
     1
102
RTVSPropertyOp43
 70
     1
102
RTVSPropertyOp44
 70
     1
102
RTVSPropertyOp45
 70
     1
102
RTVSPropertyOp46
 70
     1
102
RTVSPropertyOp47
 70
     1
102
RTVSPropertyOp48
 70
     1
102
RTVSPropertyOp49
 70
     1
102
RTVSPropertyOp50
 70
     1
102
RTVSPropertyOp51
 70
     0
102
RTVSPropertyOp52
 70
     0
102
RTVSPropertyOp53
 70
     1
102
RTVSPropertyOp54
 70
     1
102
RTVSPropertyOp55
 70
     1
102
RTVSPropertyOp56
 70
     1
102
RTVSPropertyOp57
 70
     1
102
RTVSPost2010Prop28
280
     0
102
RTVSPost2010PropOp28
 70
     1
102
RTVSPost2010Prop29
280
     1
102
RTVSPost2010PropOp29
 70
     1
102
RTVSPost2010Prop30
280
     1
102
RTVSPost2010PropOp30
 70
     1
102
RTVSPost2010Prop31
280
     0
102
RTVSPost2010PropOp31
 70
     1
102
RTVSPost2010Prop32
280
     0
102
RTVSPost2010PropOp32
 70
     1
102
RTVSPost2010Prop33
280
     0
102
RTVSPost2010PropOp33
 70
     1
102
RTVSPost2010Prop34
280
     0
102
RTVSPost2010PropOp34
 70
     1
102
RTVSPost2010Prop35
280
     0
102
RTVSPost2010PropOp35
 70
     1
102
RTVSPost2010Prop36
280
     0
102
RTVSPost2010PropOp36
 70
     1
102
RTVSPost2010Prop37
 90
       50
102
RTVSPost2010PropOp37
 70
     1
102
RTVSPost2010Prop38
140
0.0
102
RTVSPost2010PropOp38
 70
     1
102
RTVSPost2010Prop39
140
1.0
102
RTVSPost2010PropOp39
 70
     1
102
RTVSPost2010Prop40
 90
        0
102
RTVSPost2010PropOp40
 70
     1
102
RTVSPost2010Prop41ColorIndex
 90
       18
102
RTVSPost2010Prop41ColorRGB
 90
        0
102
RTVSPost2010PropOp41
 70
     1
102
RTVSPost2010Prop42
 90
       50
102
RTVSPost2010PropOp42
 70
     1
102
RTVSPost2010Prop43
 90
        3
102
RTVSPost2010PropOp43
 70
     1
102
RTVSPost2010Prop44ColorIndex
 90
        5
102
RTVSPost2010Prop44ColorRGB
 90
      255
102
RTVSPost2010PropOp44
 70
     1
102
RTVSPost2010Prop45
280
     0
102
RTVSPost2010PropOp45
 70
     1
102
RTVSPost2010Prop46
 90
       50
102
RTVSPost2010PropOp46
 70
     1
102
RTVSPost2010Prop47
 90
       50
102
RTVSPost2010PropOp47
 70
     1
102
RTVSPost2010Prop48
 90
       50
102
RTVSPost2010PropOp48
 70
     1
102
RTVSPost2010Prop49
280
     0
102
RTVSPost2010PropOp49
 70
     1
102
RTVSPost2010Prop50
 90
       50
102
RTVSPost2010PropOp50
 70
     1
102
RTVSPost2010Prop51ColorIndex
 90
      256
102
RTVSPost2010Prop51ColorRGB
 90
-16777216
102
RTVSPost2010PropOp51
 70
     0
102
RTVSPost2010Prop52
140
1.0
102
RTVSPost2010PropOp52
 70
     0
102
RTVSPost2010Prop53
 90
        2
102
RTVSPost2010PropOp53
 70
     1
102
RTVSPost2010Prop54
  1
strokes_ogs.tif
102
RTVSPost2010PropOp54
 70
     1
102
RTVSPost2010Prop55
280
     0
102
RTVSPost2010PropOp55
 70
     1
102
RTVSPost2010Prop56
140
1.0
102
RTVSPost2010PropOp56
 70
     1
102
RTVSPost2010Prop57
140
1.0
102
RTVSPost2010PropOp57
 70
     1
  0
XRECORD
  5
3C9B
102
{ACAD_REACTORS
330
3C9A
102
}
330
3C9A
100
AcDbXrecord
280
     1
102
RTVSPropertyOp0
 70
     1
102
RTVSPropertyOp1
 70
     1
102
RTVSPropertyOp2
 70
     1
102
RTVSPropertyOp3
 70
     1
102
RTVSPropertyOp4
 70
     1
102
RTVSPropertyOp5
 70
     1
102
RTVSPropertyOp6
 70
     1
102
RTVSPropertyOp7
 70
     1
102
RTVSPropertyOp8
 70
     1
102
RTVSPropertyOp9
 70
     1
102
RTVSPropertyOp10
 70
     1
102
RTVSPropertyOp11
 70
     1
102
RTVSPropertyOp12
 70
     1
102
RTVSPropertyOp13
 70
     1
102
RTVSPropertyOp14
 70
     1
102
RTVSPropertyOp15
 70
     1
102
RTVSPropertyOp16
 70
     1
102
RTVSPropertyOp17
 70
     1
102
RTVSPropertyOp18
 70
     1
102
RTVSPropertyOp19
 70
     1
102
RTVSPropertyOp20
 70
     1
102
RTVSPropertyOp21
 70
     1
102
RTVSPropertyOp22
 70
     1
102
RTVSPropertyOp23
 70
     1
102
RTVSPropertyOp24
 70
     1
102
RTVSPropertyOp25
 70
     1
102
RTVSPropertyOp26
 70
     1
102
RTVSPropertyOp27
 70
     1
102
RTVSPropertyOp28
 70
     1
102
RTVSPropertyOp29
 70
     1
102
RTVSPropertyOp30
 70
     1
102
RTVSPropertyOp31
 70
     1
102
RTVSPropertyOp32
 70
     1
102
RTVSPropertyOp33
 70
     1
102
RTVSPropertyOp34
 70
     1
102
RTVSPropertyOp35
 70
     1
102
RTVSPropertyOp36
 70
     1
102
RTVSPropertyOp37
 70
     1
102
RTVSPropertyOp38
 70
     1
102
RTVSPropertyOp39
 70
     1
102
RTVSPropertyOp40
 70
     1
102
RTVSPropertyOp41
 70
     1
102
RTVSPropertyOp42
 70
     1
102
RTVSPropertyOp43
 70
     1
102
RTVSPropertyOp44
 70
     1
102
RTVSPropertyOp45
 70
     1
102
RTVSPropertyOp46
 70
     1
102
RTVSPropertyOp47
 70
     1
102
RTVSPropertyOp48
 70
     1
102
RTVSPropertyOp49
 70
     1
102
RTVSPropertyOp50
 70
     1
102
RTVSPropertyOp51
 70
     0
102
RTVSPropertyOp52
 70
     0
102
RTVSPropertyOp53
 70
     1
102
RTVSPropertyOp54
 70
     1
102
RTVSPropertyOp55
 70
     1
102
RTVSPropertyOp56
 70
     1
102
RTVSPropertyOp57
 70
     1
102
RTVSPost2010Prop28
280
     0
102
RTVSPost2010PropOp28
 70
     1
102
RTVSPost2010Prop29
280
     1
102
RTVSPost2010PropOp29
 70
     1
102
RTVSPost2010Prop30
280
     1
102
RTVSPost2010PropOp30
 70
     1
102
RTVSPost2010Prop31
280
     0
102
RTVSPost2010PropOp31
 70
     1
102
RTVSPost2010Prop32
280
     0
102
RTVSPost2010PropOp32
 70
     1
102
RTVSPost2010Prop33
280
     0
102
RTVSPost2010PropOp33
 70
     1
102
RTVSPost2010Prop34
280
     0
102
RTVSPost2010PropOp34
 70
     1
102
RTVSPost2010Prop35
280
     0
102
RTVSPost2010PropOp35
 70
     1
102
RTVSPost2010Prop36
280
     0
102
RTVSPost2010PropOp36
 70
     1
102
RTVSPost2010Prop37
 90
       50
102
RTVSPost2010PropOp37
 70
     1
102
RTVSPost2010Prop38
140
0.0
102
RTVSPost2010PropOp38
 70
     1
102
RTVSPost2010Prop39
140
1.0
102
RTVSPost2010PropOp39
 70
     1
102
RTVSPost2010Prop40
 90
        0
102
RTVSPost2010PropOp40
 70
     1
102
RTVSPost2010Prop41ColorIndex
 90
       18
102
RTVSPost2010Prop41ColorRGB
 90
        0
102
RTVSPost2010PropOp41
 70
     1
102
RTVSPost2010Prop42
 90
       50
102
RTVSPost2010PropOp42
 70
     1
102
RTVSPost2010Prop43
 90
        3
102
RTVSPost2010PropOp43
 70
     1
102
RTVSPost2010Prop44ColorIndex
 90
        5
102
RTVSPost2010Prop44ColorRGB
 90
      255
102
RTVSPost2010PropOp44
 70
     1
102
RTVSPost2010Prop45
280
     0
102
RTVSPost2010PropOp45
 70
     1
102
RTVSPost2010Prop46
 90
       50
102
RTVSPost2010PropOp46
 70
     1
102
RTVSPost2010Prop47
 90
       50
102
RTVSPost2010PropOp47
 70
     1
102
RTVSPost2010Prop48
 90
       50
102
RTVSPost2010PropOp48
 70
     1
102
RTVSPost2010Prop49
280
     0
102
RTVSPost2010PropOp49
 70
     1
102
RTVSPost2010Prop50
 90
       50
102
RTVSPost2010PropOp50
 70
     1
102
RTVSPost2010Prop51ColorIndex
 90
      256
102
RTVSPost2010Prop51ColorRGB
 90
-16777216
102
RTVSPost2010PropOp51
 70
     0
102
RTVSPost2010Prop52
140
1.0
102
RTVSPost2010PropOp52
 70
     0
102
RTVSPost2010Prop53
 90
        2
102
RTVSPost2010PropOp53
 70
     1
102
RTVSPost2010Prop54
  1
strokes_ogs.tif
102
RTVSPost2010PropOp54
 70
     1
102
RTVSPost2010Prop55
280
     0
102
RTVSPost2010PropOp55
 70
     1
102
RTVSPost2010Prop56
140
1.0
102
RTVSPost2010PropOp56
 70
     1
102
RTVSPost2010Prop57
140
1.0
102
RTVSPost2010PropOp57
 70
     1
  0
XRECORD
  5
3C9D
102
{ACAD_REACTORS
330
3C9C
102
}
330
3C9C
100
AcDbXrecord
280
     1
102
RTVSPropertyOp0
 70
     1
102
RTVSPropertyOp1
 70
     1
102
RTVSPropertyOp2
 70
     1
102
RTVSPropertyOp3
 70
     1
102
RTVSPropertyOp4
 70
     1
102
RTVSPropertyOp5
 70
     1
102
RTVSPropertyOp6
 70
     1
102
RTVSPropertyOp7
 70
     1
102
RTVSPropertyOp8
 70
     1
102
RTVSPropertyOp9
 70
     1
102
RTVSPropertyOp10
 70
     1
102
RTVSPropertyOp11
 70
     1
102
RTVSPropertyOp12
 70
     1
102
RTVSPropertyOp13
 70
     1
102
RTVSPropertyOp14
 70
     1
102
RTVSPropertyOp15
 70
     1
102
RTVSPropertyOp16
 70
     1
102
RTVSPropertyOp17
 70
     1
102
RTVSPropertyOp18
 70
     1
102
RTVSPropertyOp19
 70
     1
102
RTVSPropertyOp20
 70
     1
102
RTVSPropertyOp21
 70
     1
102
RTVSPropertyOp22
 70
     1
102
RTVSPropertyOp23
 70
     1
102
RTVSPropertyOp24
 70
     1
102
RTVSPropertyOp25
 70
     1
102
RTVSPropertyOp26
 70
     1
102
RTVSPropertyOp27
 70
     1
102
RTVSPropertyOp28
 70
     1
102
RTVSPropertyOp29
 70
     1
102
RTVSPropertyOp30
 70
     1
102
RTVSPropertyOp31
 70
     1
102
RTVSPropertyOp32
 70
     1
102
RTVSPropertyOp33
 70
     1
102
RTVSPropertyOp34
 70
     1
102
RTVSPropertyOp35
 70
     1
102
RTVSPropertyOp36
 70
     1
102
RTVSPropertyOp37
 70
     1
102
RTVSPropertyOp38
 70
     1
102
RTVSPropertyOp39
 70
     1
102
RTVSPropertyOp40
 70
     1
102
RTVSPropertyOp41
 70
     1
102
RTVSPropertyOp42
 70
     1
102
RTVSPropertyOp43
 70
     1
102
RTVSPropertyOp44
 70
     1
102
RTVSPropertyOp45
 70
     1
102
RTVSPropertyOp46
 70
     1
102
RTVSPropertyOp47
 70
     1
102
RTVSPropertyOp48
 70
     1
102
RTVSPropertyOp49
 70
     1
102
RTVSPropertyOp50
 70
     1
102
RTVSPropertyOp51
 70
     0
102
RTVSPropertyOp52
 70
     0
102
RTVSPropertyOp53
 70
     1
102
RTVSPropertyOp54
 70
     1
102
RTVSPropertyOp55
 70
     1
102
RTVSPropertyOp56
 70
     1
102
RTVSPropertyOp57
 70
     1
102
RTVSPost2010Prop28
280
     0
102
RTVSPost2010PropOp28
 70
     1
102
RTVSPost2010Prop29
280
     1
102
RTVSPost2010PropOp29
 70
     1
102
RTVSPost2010Prop30
280
     1
102
RTVSPost2010PropOp30
 70
     1
102
RTVSPost2010Prop31
280
     0
102
RTVSPost2010PropOp31
 70
     1
102
RTVSPost2010Prop32
280
     0
102
RTVSPost2010PropOp32
 70
     1
102
RTVSPost2010Prop33
280
     0
102
RTVSPost2010PropOp33
 70
     1
102
RTVSPost2010Prop34
280
     0
102
RTVSPost2010PropOp34
 70
     1
102
RTVSPost2010Prop35
280
     0
102
RTVSPost2010PropOp35
 70
     1
102
RTVSPost2010Prop36
280
     0
102
RTVSPost2010PropOp36
 70
     1
102
RTVSPost2010Prop37
 90
       50
102
RTVSPost2010PropOp37
 70
     1
102
RTVSPost2010Prop38
140
0.0
102
RTVSPost2010PropOp38
 70
     1
102
RTVSPost2010Prop39
140
1.0
102
RTVSPost2010PropOp39
 70
     1
102
RTVSPost2010Prop40
 90
        0
102
RTVSPost2010PropOp40
 70
     1
102
RTVSPost2010Prop41ColorIndex
 90
       18
102
RTVSPost2010Prop41ColorRGB
 90
        0
102
RTVSPost2010PropOp41
 70
     1
102
RTVSPost2010Prop42
 90
       50
102
RTVSPost2010PropOp42
 70
     1
102
RTVSPost2010Prop43
 90
        3
102
RTVSPost2010PropOp43
 70
     1
102
RTVSPost2010Prop44ColorIndex
 90
        5
102
RTVSPost2010Prop44ColorRGB
 90
      255
102
RTVSPost2010PropOp44
 70
     1
102
RTVSPost2010Prop45
280
     0
102
RTVSPost2010PropOp45
 70
     1
102
RTVSPost2010Prop46
 90
       50
102
RTVSPost2010PropOp46
 70
     1
102
RTVSPost2010Prop47
 90
       50
102
RTVSPost2010PropOp47
 70
     1
102
RTVSPost2010Prop48
 90
       50
102
RTVSPost2010PropOp48
 70
     1
102
RTVSPost2010Prop49
280
     0
102
RTVSPost2010PropOp49
 70
     1
102
RTVSPost2010Prop50
 90
       50
102
RTVSPost2010PropOp50
 70
     1
102
RTVSPost2010Prop51ColorIndex
 90
      256
102
RTVSPost2010Prop51ColorRGB
 90
-16777216
102
RTVSPost2010PropOp51
 70
     0
102
RTVSPost2010Prop52
140
1.0
102
RTVSPost2010PropOp52
 70
     0
102
RTVSPost2010Prop53
 90
        2
102
RTVSPost2010PropOp53
 70
     1
102
RTVSPost2010Prop54
  1
strokes_ogs.tif
102
RTVSPost2010PropOp54
 70
     1
102
RTVSPost2010Prop55
280
     0
102
RTVSPost2010PropOp55
 70
     1
102
RTVSPost2010Prop56
140
1.0
102
RTVSPost2010PropOp56
 70
     1
102
RTVSPost2010Prop57
140
1.0
102
RTVSPost2010PropOp57
 70
     1
  0
XRECORD
  5
3C9F
102
{ACAD_REACTORS
330
3C9E
102
}
330
3C9E
100
AcDbXrecord
280
     1
102
RTVSPropertyOp0
 70
     1
102
RTVSPropertyOp1
 70
     1
102
RTVSPropertyOp2
 70
     1
102
RTVSPropertyOp3
 70
     1
102
RTVSPropertyOp4
 70
     1
102
RTVSPropertyOp5
 70
     1
102
RTVSPropertyOp6
 70
     1
102
RTVSPropertyOp7
 70
     1
102
RTVSPropertyOp8
 70
     1
102
RTVSPropertyOp9
 70
     1
102
RTVSPropertyOp10
 70
     1
102
RTVSPropertyOp11
 70
     1
102
RTVSPropertyOp12
 70
     1
102
RTVSPropertyOp13
 70
     1
102
RTVSPropertyOp14
 70
     1
102
RTVSPropertyOp15
 70
     1
102
RTVSPropertyOp16
 70
     1
102
RTVSPropertyOp17
 70
     1
102
RTVSPropertyOp18
 70
     1
102
RTVSPropertyOp19
 70
     1
102
RTVSPropertyOp20
 70
     1
102
RTVSPropertyOp21
 70
     1
102
RTVSPropertyOp22
 70
     1
102
RTVSPropertyOp23
 70
     1
102
RTVSPropertyOp24
 70
     1
102
RTVSPropertyOp25
 70
     1
102
RTVSPropertyOp26
 70
     1
102
RTVSPropertyOp27
 70
     1
102
RTVSPropertyOp28
 70
     1
102
RTVSPropertyOp29
 70
     1
102
RTVSPropertyOp30
 70
     1
102
RTVSPropertyOp31
 70
     1
102
RTVSPropertyOp32
 70
     1
102
RTVSPropertyOp33
 70
     1
102
RTVSPropertyOp34
 70
     1
102
RTVSPropertyOp35
 70
     1
102
RTVSPropertyOp36
 70
     1
102
RTVSPropertyOp37
 70
     1
102
RTVSPropertyOp38
 70
     1
102
RTVSPropertyOp39
 70
     1
102
RTVSPropertyOp40
 70
     1
102
RTVSPropertyOp41
 70
     1
102
RTVSPropertyOp42
 70
     1
102
RTVSPropertyOp43
 70
     1
102
RTVSPropertyOp44
 70
     1
102
RTVSPropertyOp45
 70
     1
102
RTVSPropertyOp46
 70
     1
102
RTVSPropertyOp47
 70
     1
102
RTVSPropertyOp48
 70
     1
102
RTVSPropertyOp49
 70
     1
102
RTVSPropertyOp50
 70
     1
102
RTVSPropertyOp51
 70
     0
102
RTVSPropertyOp52
 70
     0
102
RTVSPropertyOp53
 70
     1
102
RTVSPropertyOp54
 70
     1
102
RTVSPropertyOp55
 70
     1
102
RTVSPropertyOp56
 70
     1
102
RTVSPropertyOp57
 70
     1
102
RTVSPost2010Prop28
280
     0
102
RTVSPost2010PropOp28
 70
     1
102
RTVSPost2010Prop29
280
     1
102
RTVSPost2010PropOp29
 70
     1
102
RTVSPost2010Prop30
280
     1
102
RTVSPost2010PropOp30
 70
     1
102
RTVSPost2010Prop31
280
     0
102
RTVSPost2010PropOp31
 70
     1
102
RTVSPost2010Prop32
280
     0
102
RTVSPost2010PropOp32
 70
     1
102
RTVSPost2010Prop33
280
     0
102
RTVSPost2010PropOp33
 70
     1
102
RTVSPost2010Prop34
280
     0
102
RTVSPost2010PropOp34
 70
     1
102
RTVSPost2010Prop35
280
     0
102
RTVSPost2010PropOp35
 70
     1
102
RTVSPost2010Prop36
280
     0
102
RTVSPost2010PropOp36
 70
     1
102
RTVSPost2010Prop37
 90
       50
102
RTVSPost2010PropOp37
 70
     1
102
RTVSPost2010Prop38
140
0.0
102
RTVSPost2010PropOp38
 70
     1
102
RTVSPost2010Prop39
140
1.0
102
RTVSPost2010PropOp39
 70
     1
102
RTVSPost2010Prop40
 90
        0
102
RTVSPost2010PropOp40
 70
     1
102
RTVSPost2010Prop41ColorIndex
 90
       18
102
RTVSPost2010Prop41ColorRGB
 90
        0
102
RTVSPost2010PropOp41
 70
     1
102
RTVSPost2010Prop42
 90
       50
102
RTVSPost2010PropOp42
 70
     1
102
RTVSPost2010Prop43
 90
        3
102
RTVSPost2010PropOp43
 70
     1
102
RTVSPost2010Prop44ColorIndex
 90
        5
102
RTVSPost2010Prop44ColorRGB
 90
      255
102
RTVSPost2010PropOp44
 70
     1
102
RTVSPost2010Prop45
280
     0
102
RTVSPost2010PropOp45
 70
     1
102
RTVSPost2010Prop46
 90
       50
102
RTVSPost2010PropOp46
 70
     1
102
RTVSPost2010Prop47
 90
       50
102
RTVSPost2010PropOp47
 70
     1
102
RTVSPost2010Prop48
 90
       50
102
RTVSPost2010PropOp48
 70
     1
102
RTVSPost2010Prop49
280
     0
102
RTVSPost2010PropOp49
 70
     1
102
RTVSPost2010Prop50
 90
       50
102
RTVSPost2010PropOp50
 70
     1
102
RTVSPost2010Prop51ColorIndex
 90
      256
102
RTVSPost2010Prop51ColorRGB
 90
-16777216
102
RTVSPost2010PropOp51
 70
     0
102
RTVSPost2010Prop52
140
1.0
102
RTVSPost2010PropOp52
 70
     0
102
RTVSPost2010Prop53
 90
        2
102
RTVSPost2010PropOp53
 70
     1
102
RTVSPost2010Prop54
  1
strokes_ogs.tif
102
RTVSPost2010PropOp54
 70
     1
102
RTVSPost2010Prop55
280
     0
102
RTVSPost2010PropOp55
 70
     1
102
RTVSPost2010Prop56
140
1.0
102
RTVSPost2010PropOp56
 70
     1
102
RTVSPost2010Prop57
140
1.0
102
RTVSPost2010PropOp57
 70
     1
  0
XRECORD
  5
3CA5
102
{ACAD_REACTORS
330
3CA4
102
}
330
3CA4
100
AcDbXrecord
280
     1
102
RTVSPropertyOp0
 70
     1
102
RTVSPropertyOp1
 70
     1
102
RTVSPropertyOp2
 70
     1
102
RTVSPropertyOp3
 70
     1
102
RTVSPropertyOp4
 70
     1
102
RTVSPropertyOp5
 70
     1
102
RTVSPropertyOp6
 70
     1
102
RTVSPropertyOp7
 70
     1
102
RTVSPropertyOp8
 70
     1
102
RTVSPropertyOp9
 70
     1
102
RTVSPropertyOp10
 70
     1
102
RTVSPropertyOp11
 70
     1
102
RTVSPropertyOp12
 70
     1
102
RTVSPropertyOp13
 70
     1
102
RTVSPropertyOp14
 70
     1
102
RTVSPropertyOp15
 70
     1
102
RTVSPropertyOp16
 70
     1
102
RTVSPropertyOp17
 70
     1
102
RTVSPropertyOp18
 70
     1
102
RTVSPropertyOp19
 70
     1
102
RTVSPropertyOp20
 70
     1
102
RTVSPropertyOp21
 70
     1
102
RTVSPropertyOp22
 70
     1
102
RTVSPropertyOp23
 70
     1
102
RTVSPropertyOp24
 70
     1
102
RTVSPropertyOp25
 70
     1
102
RTVSPropertyOp26
 70
     1
102
RTVSPropertyOp27
 70
     1
102
RTVSPropertyOp28
 70
     1
102
RTVSPropertyOp29
 70
     1
102
RTVSPropertyOp30
 70
     1
102
RTVSPropertyOp31
 70
     1
102
RTVSPropertyOp32
 70
     1
102
RTVSPropertyOp33
 70
     1
102
RTVSPropertyOp34
 70
     1
102
RTVSPropertyOp35
 70
     1
102
RTVSPropertyOp36
 70
     1
102
RTVSPropertyOp37
 70
     1
102
RTVSPropertyOp38
 70
     1
102
RTVSPropertyOp39
 70
     1
102
RTVSPropertyOp40
 70
     1
102
RTVSPropertyOp41
 70
     1
102
RTVSPropertyOp42
 70
     1
102
RTVSPropertyOp43
 70
     1
102
RTVSPropertyOp44
 70
     1
102
RTVSPropertyOp45
 70
     1
102
RTVSPropertyOp46
 70
     1
102
RTVSPropertyOp47
 70
     1
102
RTVSPropertyOp48
 70
     1
102
RTVSPropertyOp49
 70
     1
102
RTVSPropertyOp50
 70
     1
102
RTVSPropertyOp51
 70
     0
102
RTVSPropertyOp52
 70
     0
102
RTVSPropertyOp53
 70
     1
102
RTVSPropertyOp54
 70
     1
102
RTVSPropertyOp55
 70
     1
102
RTVSPropertyOp56
 70
     1
102
RTVSPropertyOp57
 70
     1
102
RTVSPost2010Prop28
280
     0
102
RTVSPost2010PropOp28
 70
     1
102
RTVSPost2010Prop29
280
     1
102
RTVSPost2010PropOp29
 70
     1
102
RTVSPost2010Prop30
280
     1
102
RTVSPost2010PropOp30
 70
     1
102
RTVSPost2010Prop31
280
     0
102
RTVSPost2010PropOp31
 70
     1
102
RTVSPost2010Prop32
280
     0
102
RTVSPost2010PropOp32
 70
     1
102
RTVSPost2010Prop33
280
     0
102
RTVSPost2010PropOp33
 70
     1
102
RTVSPost2010Prop34
280
     0
102
RTVSPost2010PropOp34
 70
     1
102
RTVSPost2010Prop35
280
     0
102
RTVSPost2010PropOp35
 70
     1
102
RTVSPost2010Prop36
280
     0
102
RTVSPost2010PropOp36
 70
     1
102
RTVSPost2010Prop37
 90
       50
102
RTVSPost2010PropOp37
 70
     1
102
RTVSPost2010Prop38
140
0.0
102
RTVSPost2010PropOp38
 70
     1
102
RTVSPost2010Prop39
140
1.0
102
RTVSPost2010PropOp39
 70
     1
102
RTVSPost2010Prop40
 90
        0
102
RTVSPost2010PropOp40
 70
     1
102
RTVSPost2010Prop41ColorIndex
 90
       18
102
RTVSPost2010Prop41ColorRGB
 90
        0
102
RTVSPost2010PropOp41
 70
     1
102
RTVSPost2010Prop42
 90
       50
102
RTVSPost2010PropOp42
 70
     1
102
RTVSPost2010Prop43
 90
        3
102
RTVSPost2010PropOp43
 70
     1
102
RTVSPost2010Prop44ColorIndex
 90
        5
102
RTVSPost2010Prop44ColorRGB
 90
      255
102
RTVSPost2010PropOp44
 70
     1
102
RTVSPost2010Prop45
280
     0
102
RTVSPost2010PropOp45
 70
     1
102
RTVSPost2010Prop46
 90
       50
102
RTVSPost2010PropOp46
 70
     1
102
RTVSPost2010Prop47
 90
       50
102
RTVSPost2010PropOp47
 70
     1
102
RTVSPost2010Prop48
 90
       50
102
RTVSPost2010PropOp48
 70
     1
102
RTVSPost2010Prop49
280
     0
102
RTVSPost2010PropOp49
 70
     1
102
RTVSPost2010Prop50
 90
       50
102
RTVSPost2010PropOp50
 70
     1
102
RTVSPost2010Prop51ColorIndex
 90
      256
102
RTVSPost2010Prop51ColorRGB
 90
-16777216
102
RTVSPost2010PropOp51
 70
     0
102
RTVSPost2010Prop52
140
1.0
102
RTVSPost2010PropOp52
 70
     0
102
RTVSPost2010Prop53
 90
        2
102
RTVSPost2010PropOp53
 70
     1
102
RTVSPost2010Prop54
  1
strokes_ogs.tif
102
RTVSPost2010PropOp54
 70
     1
102
RTVSPost2010Prop55
280
     0
102
RTVSPost2010PropOp55
 70
     1
102
RTVSPost2010Prop56
140
1.0
102
RTVSPost2010PropOp56
 70
     1
102
RTVSPost2010Prop57
140
1.0
102
RTVSPost2010PropOp57
 70
     1
  0
XRECORD
  5
3CB9
102
{ACAD_REACTORS
330
3CB8
102
}
330
3CB8
100
AcDbXrecord
280
     1
102
RTVSPropertyOp0
 70
     0
102
RTVSPropertyOp1
 70
     0
102
RTVSPropertyOp2
 70
     0
102
RTVSPropertyOp3
 70
     0
102
RTVSPropertyOp4
 70
     0
102
RTVSPropertyOp5
 70
     0
102
RTVSPropertyOp6
 70
     0
102
RTVSPropertyOp7
 70
     0
102
RTVSPropertyOp8
 70
     0
102
RTVSPropertyOp9
 70
     0
102
RTVSPropertyOp10
 70
     0
102
RTVSPropertyOp11
 70
     0
102
RTVSPropertyOp12
 70
     0
102
RTVSPropertyOp13
 70
     0
102
RTVSPropertyOp14
 70
     2
102
RTVSPropertyOp15
 70
     0
102
RTVSPropertyOp16
 70
     0
102
RTVSPropertyOp17
 70
     0
102
RTVSPropertyOp18
 70
     0
102
RTVSPropertyOp19
 70
     0
102
RTVSPropertyOp20
 70
     0
102
RTVSPropertyOp21
 70
     0
102
RTVSPropertyOp22
 70
     0
102
RTVSPropertyOp23
 70
     0
102
RTVSPropertyOp24
 70
     0
102
RTVSPropertyOp25
 70
     0
102
RTVSPropertyOp26
 70
     0
102
RTVSPropertyOp27
 70
     0
102
RTVSPropertyOp28
 70
     0
102
RTVSPropertyOp29
 70
     0
102
RTVSPropertyOp30
 70
     0
102
RTVSPropertyOp31
 70
     0
102
RTVSPropertyOp32
 70
     0
102
RTVSPropertyOp33
 70
     0
102
RTVSPropertyOp34
 70
     0
102
RTVSPropertyOp35
 70
     0
102
RTVSPropertyOp36
 70
     0
102
RTVSPropertyOp37
 70
     0
102
RTVSPropertyOp38
 70
     0
102
RTVSPropertyOp39
 70
     0
102
RTVSPropertyOp40
 70
     0
102
RTVSPropertyOp41
 70
     0
102
RTVSPropertyOp42
 70
     0
102
RTVSPropertyOp43
 70
     0
102
RTVSPropertyOp44
 70
     0
102
RTVSPropertyOp45
 70
     0
102
RTVSPropertyOp46
 70
     0
102
RTVSPropertyOp47
 70
     0
102
RTVSPropertyOp48
 70
     0
102
RTVSPropertyOp49
 70
     0
102
RTVSPropertyOp50
 70
     0
102
RTVSPropertyOp51
 70
     0
102
RTVSPropertyOp52
 70
     0
102
RTVSPropertyOp53
 70
     0
102
RTVSPropertyOp54
 70
     0
102
RTVSPropertyOp55
 70
     0
102
RTVSPropertyOp56
 70
     0
102
RTVSPropertyOp57
 70
     0
102
RTVSPost2010Prop28
280
     0
102
RTVSPost2010PropOp28
 70
     0
102
RTVSPost2010Prop29
280
     1
102
RTVSPost2010PropOp29
 70
     0
102
RTVSPost2010Prop30
280
     1
102
RTVSPost2010PropOp30
 70
     0
102
RTVSPost2010Prop31
280
     0
102
RTVSPost2010PropOp31
 70
     0
102
RTVSPost2010Prop32
280
     0
102
RTVSPost2010PropOp32
 70
     0
102
RTVSPost2010Prop33
280
     0
102
RTVSPost2010PropOp33
 70
     0
102
RTVSPost2010Prop34
280
     0
102
RTVSPost2010PropOp34
 70
     0
102
RTVSPost2010Prop35
280
     0
102
RTVSPost2010PropOp35
 70
     0
102
RTVSPost2010Prop36
280
     0
102
RTVSPost2010PropOp36
 70
     0
102
RTVSPost2010Prop37
 90
       50
102
RTVSPost2010PropOp37
 70
     0
102
RTVSPost2010Prop38
140
0.0
102
RTVSPost2010PropOp38
 70
     0
102
RTVSPost2010Prop39
140
1.0
102
RTVSPost2010PropOp39
 70
     0
102
RTVSPost2010Prop40
 90
        0
102
RTVSPost2010PropOp40
 70
     0
102
RTVSPost2010Prop41ColorIndex
 90
       18
102
RTVSPost2010Prop41ColorRGB
 90
        0
102
RTVSPost2010PropOp41
 70
     0
102
RTVSPost2010Prop42
 90
       50
102
RTVSPost2010PropOp42
 70
     0
102
RTVSPost2010Prop43
 90
        3
102
RTVSPost2010PropOp43
 70
     0
102
RTVSPost2010Prop44ColorIndex
 90
        5
102
RTVSPost2010Prop44ColorRGB
 90
      255
102
RTVSPost2010PropOp44
 70
     0
102
RTVSPost2010Prop45
280
     0
102
RTVSPost2010PropOp45
 70
     0
102
RTVSPost2010Prop46
 90
       50
102
RTVSPost2010PropOp46
 70
     0
102
RTVSPost2010Prop47
 90
       50
102
RTVSPost2010PropOp47
 70
     0
102
RTVSPost2010Prop48
 90
       50
102
RTVSPost2010PropOp48
 70
     0
102
RTVSPost2010Prop49
280
     0
102
RTVSPost2010PropOp49
 70
     0
102
RTVSPost2010Prop50
 90
       50
102
RTVSPost2010PropOp50
 70
     0
102
RTVSPost2010Prop51ColorIndex
 90
      256
102
RTVSPost2010Prop51ColorRGB
 90
-16777216
102
RTVSPost2010PropOp51
 70
     0
102
RTVSPost2010Prop52
140
1.0
102
RTVSPost2010PropOp52
 70
     0
102
RTVSPost2010Prop53
 90
        2
102
RTVSPost2010PropOp53
 70
     0
102
RTVSPost2010Prop54
  1
strokes_ogs.tif
102
RTVSPost2010PropOp54
 70
     0
102
RTVSPost2010Prop55
280
     0
102
RTVSPost2010PropOp55
 70
     0
102
RTVSPost2010Prop56
140
1.0
102
RTVSPost2010PropOp56
 70
     0
102
RTVSPost2010Prop57
140
1.0
102
RTVSPost2010PropOp57
 70
     0
  0
XRECORD
  5
3CB3
102
{ACAD_REACTORS
330
3CB2
102
}
330
3CB2
100
AcDbXrecord
280
     1
102
RTVSPropertyOp0
 70
     1
102
RTVSPropertyOp1
 70
     1
102
RTVSPropertyOp2
 70
     1
102
RTVSPropertyOp3
 70
     1
102
RTVSPropertyOp4
 70
     1
102
RTVSPropertyOp5
 70
     1
102
RTVSPropertyOp6
 70
     1
102
RTVSPropertyOp7
 70
     1
102
RTVSPropertyOp8
 70
     1
102
RTVSPropertyOp9
 70
     1
102
RTVSPropertyOp10
 70
     1
102
RTVSPropertyOp11
 70
     1
102
RTVSPropertyOp12
 70
     1
102
RTVSPropertyOp13
 70
     1
102
RTVSPropertyOp14
 70
     1
102
RTVSPropertyOp15
 70
     1
102
RTVSPropertyOp16
 70
     1
102
RTVSPropertyOp17
 70
     1
102
RTVSPropertyOp18
 70
     1
102
RTVSPropertyOp19
 70
     1
102
RTVSPropertyOp20
 70
     1
102
RTVSPropertyOp21
 70
     1
102
RTVSPropertyOp22
 70
     1
102
RTVSPropertyOp23
 70
     1
102
RTVSPropertyOp24
 70
     1
102
RTVSPropertyOp25
 70
     1
102
RTVSPropertyOp26
 70
     1
102
RTVSPropertyOp27
 70
     1
102
RTVSPropertyOp28
 70
     1
102
RTVSPropertyOp29
 70
     1
102
RTVSPropertyOp30
 70
     1
102
RTVSPropertyOp31
 70
     1
102
RTVSPropertyOp32
 70
     1
102
RTVSPropertyOp33
 70
     1
102
RTVSPropertyOp34
 70
     1
102
RTVSPropertyOp35
 70
     1
102
RTVSPropertyOp36
 70
     1
102
RTVSPropertyOp37
 70
     1
102
RTVSPropertyOp38
 70
     1
102
RTVSPropertyOp39
 70
     1
102
RTVSPropertyOp40
 70
     1
102
RTVSPropertyOp41
 70
     1
102
RTVSPropertyOp42
 70
     1
102
RTVSPropertyOp43
 70
     1
102
RTVSPropertyOp44
 70
     1
102
RTVSPropertyOp45
 70
     1
102
RTVSPropertyOp46
 70
     1
102
RTVSPropertyOp47
 70
     1
102
RTVSPropertyOp48
 70
     1
102
RTVSPropertyOp49
 70
     1
102
RTVSPropertyOp50
 70
     1
102
RTVSPropertyOp51
 70
     0
102
RTVSPropertyOp52
 70
     0
102
RTVSPropertyOp53
 70
     1
102
RTVSPropertyOp54
 70
     1
102
RTVSPropertyOp55
 70
     1
102
RTVSPropertyOp56
 70
     1
102
RTVSPropertyOp57
 70
     1
102
RTVSPost2010Prop28
280
     0
102
RTVSPost2010PropOp28
 70
     1
102
RTVSPost2010Prop29
280
     1
102
RTVSPost2010PropOp29
 70
     1
102
RTVSPost2010Prop30
280
     1
102
RTVSPost2010PropOp30
 70
     1
102
RTVSPost2010Prop31
280
     0
102
RTVSPost2010PropOp31
 70
     1
102
RTVSPost2010Prop32
280
     0
102
RTVSPost2010PropOp32
 70
     1
102
RTVSPost2010Prop33
280
     0
102
RTVSPost2010PropOp33
 70
     1
102
RTVSPost2010Prop34
280
     0
102
RTVSPost2010PropOp34
 70
     1
102
RTVSPost2010Prop35
280
     0
102
RTVSPost2010PropOp35
 70
     1
102
RTVSPost2010Prop36
280
     0
102
RTVSPost2010PropOp36
 70
     1
102
RTVSPost2010Prop37
 90
       50
102
RTVSPost2010PropOp37
 70
     1
102
RTVSPost2010Prop38
140
0.0
102
RTVSPost2010PropOp38
 70
     1
102
RTVSPost2010Prop39
140
1.0
102
RTVSPost2010PropOp39
 70
     1
102
RTVSPost2010Prop40
 90
        0
102
RTVSPost2010PropOp40
 70
     1
102
RTVSPost2010Prop41ColorIndex
 90
       18
102
RTVSPost2010Prop41ColorRGB
 90
        0
102
RTVSPost2010PropOp41
 70
     1
102
RTVSPost2010Prop42
 90
       50
102
RTVSPost2010PropOp42
 70
     1
102
RTVSPost2010Prop43
 90
        3
102
RTVSPost2010PropOp43
 70
     1
102
RTVSPost2010Prop44ColorIndex
 90
        5
102
RTVSPost2010Prop44ColorRGB
 90
      255
102
RTVSPost2010PropOp44
 70
     1
102
RTVSPost2010Prop45
280
     0
102
RTVSPost2010PropOp45
 70
     1
102
RTVSPost2010Prop46
 90
       50
102
RTVSPost2010PropOp46
 70
     1
102
RTVSPost2010Prop47
 90
       50
102
RTVSPost2010PropOp47
 70
     1
102
RTVSPost2010Prop48
 90
       50
102
RTVSPost2010PropOp48
 70
     1
102
RTVSPost2010Prop49
280
     0
102
RTVSPost2010PropOp49
 70
     1
102
RTVSPost2010Prop50
 90
       50
102
RTVSPost2010PropOp50
 70
     1
102
RTVSPost2010Prop51ColorIndex
 90
      256
102
RTVSPost2010Prop51ColorRGB
 90
-16777216
102
RTVSPost2010PropOp51
 70
     0
102
RTVSPost2010Prop52
140
1.0
102
RTVSPost2010PropOp52
 70
     0
102
RTVSPost2010Prop53
 90
        2
102
RTVSPost2010PropOp53
 70
     1
102
RTVSPost2010Prop54
  1
strokes_ogs.tif
102
RTVSPost2010PropOp54
 70
     1
102
RTVSPost2010Prop55
280
     0
102
RTVSPost2010PropOp55
 70
     1
102
RTVSPost2010Prop56
140
1.0
102
RTVSPost2010PropOp56
 70
     1
102
RTVSPost2010Prop57
140
1.0
102
RTVSPost2010PropOp57
 70
     1
  0
XRECORD
  5
3CBB
102
{ACAD_REACTORS
330
3CBA
102
}
330
3CBA
100
AcDbXrecord
280
     1
102
RTVSPropertyOp0
 70
     0
102
RTVSPropertyOp1
 70
     0
102
RTVSPropertyOp2
 70
     0
102
RTVSPropertyOp3
 70
     0
102
RTVSPropertyOp4
 70
     0
102
RTVSPropertyOp5
 70
     0
102
RTVSPropertyOp6
 70
     0
102
RTVSPropertyOp7
 70
     0
102
RTVSPropertyOp8
 70
     0
102
RTVSPropertyOp9
 70
     0
102
RTVSPropertyOp10
 70
     0
102
RTVSPropertyOp11
 70
     0
102
RTVSPropertyOp12
 70
     0
102
RTVSPropertyOp13
 70
     0
102
RTVSPropertyOp14
 70
     2
102
RTVSPropertyOp15
 70
     0
102
RTVSPropertyOp16
 70
     0
102
RTVSPropertyOp17
 70
     0
102
RTVSPropertyOp18
 70
     0
102
RTVSPropertyOp19
 70
     0
102
RTVSPropertyOp20
 70
     0
102
RTVSPropertyOp21
 70
     0
102
RTVSPropertyOp22
 70
     0
102
RTVSPropertyOp23
 70
     0
102
RTVSPropertyOp24
 70
     0
102
RTVSPropertyOp25
 70
     0
102
RTVSPropertyOp26
 70
     0
102
RTVSPropertyOp27
 70
     0
102
RTVSPropertyOp28
 70
     0
102
RTVSPropertyOp29
 70
     0
102
RTVSPropertyOp30
 70
     0
102
RTVSPropertyOp31
 70
     0
102
RTVSPropertyOp32
 70
     0
102
RTVSPropertyOp33
 70
     0
102
RTVSPropertyOp34
 70
     0
102
RTVSPropertyOp35
 70
     0
102
RTVSPropertyOp36
 70
     0
102
RTVSPropertyOp37
 70
     0
102
RTVSPropertyOp38
 70
     0
102
RTVSPropertyOp39
 70
     0
102
RTVSPropertyOp40
 70
     0
102
RTVSPropertyOp41
 70
     0
102
RTVSPropertyOp42
 70
     0
102
RTVSPropertyOp43
 70
     0
102
RTVSPropertyOp44
 70
     0
102
RTVSPropertyOp45
 70
     0
102
RTVSPropertyOp46
 70
     0
102
RTVSPropertyOp47
 70
     0
102
RTVSPropertyOp48
 70
     0
102
RTVSPropertyOp49
 70
     0
102
RTVSPropertyOp50
 70
     0
102
RTVSPropertyOp51
 70
     0
102
RTVSPropertyOp52
 70
     0
102
RTVSPropertyOp53
 70
     0
102
RTVSPropertyOp54
 70
     0
102
RTVSPropertyOp55
 70
     0
102
RTVSPropertyOp56
 70
     0
102
RTVSPropertyOp57
 70
     0
102
RTVSPost2010Prop28
280
     0
102
RTVSPost2010PropOp28
 70
     0
102
RTVSPost2010Prop29
280
     1
102
RTVSPost2010PropOp29
 70
     0
102
RTVSPost2010Prop30
280
     1
102
RTVSPost2010PropOp30
 70
     0
102
RTVSPost2010Prop31
280
     0
102
RTVSPost2010PropOp31
 70
     0
102
RTVSPost2010Prop32
280
     0
102
RTVSPost2010PropOp32
 70
     0
102
RTVSPost2010Prop33
280
     0
102
RTVSPost2010PropOp33
 70
     0
102
RTVSPost2010Prop34
280
     0
102
RTVSPost2010PropOp34
 70
     0
102
RTVSPost2010Prop35
280
     0
102
RTVSPost2010PropOp35
 70
     0
102
RTVSPost2010Prop36
280
     0
102
RTVSPost2010PropOp36
 70
     0
102
RTVSPost2010Prop37
 90
       50
102
RTVSPost2010PropOp37
 70
     0
102
RTVSPost2010Prop38
140
0.0
102
RTVSPost2010PropOp38
 70
     0
102
RTVSPost2010Prop39
140
1.0
102
RTVSPost2010PropOp39
 70
     0
102
RTVSPost2010Prop40
 90
        0
102
RTVSPost2010PropOp40
 70
     0
102
RTVSPost2010Prop41ColorIndex
 90
       18
102
RTVSPost2010Prop41ColorRGB
 90
        0
102
RTVSPost2010PropOp41
 70
     0
102
RTVSPost2010Prop42
 90
       50
102
RTVSPost2010PropOp42
 70
     0
102
RTVSPost2010Prop43
 90
        3
102
RTVSPost2010PropOp43
 70
     0
102
RTVSPost2010Prop44ColorIndex
 90
        5
102
RTVSPost2010Prop44ColorRGB
 90
      255
102
RTVSPost2010PropOp44
 70
     0
102
RTVSPost2010Prop45
280
     0
102
RTVSPost2010PropOp45
 70
     0
102
RTVSPost2010Prop46
 90
       50
102
RTVSPost2010PropOp46
 70
     0
102
RTVSPost2010Prop47
 90
       50
102
RTVSPost2010PropOp47
 70
     0
102
RTVSPost2010Prop48
 90
       50
102
RTVSPost2010PropOp48
 70
     0
102
RTVSPost2010Prop49
280
     0
102
RTVSPost2010PropOp49
 70
     0
102
RTVSPost2010Prop50
 90
       50
102
RTVSPost2010PropOp50
 70
     0
102
RTVSPost2010Prop51ColorIndex
 90
      256
102
RTVSPost2010Prop51ColorRGB
 90
-16777216
102
RTVSPost2010PropOp51
 70
     0
102
RTVSPost2010Prop52
140
1.0
102
RTVSPost2010PropOp52
 70
     0
102
RTVSPost2010Prop53
 90
        2
102
RTVSPost2010PropOp53
 70
     0
102
RTVSPost2010Prop54
  1
strokes_ogs.tif
102
RTVSPost2010PropOp54
 70
     0
102
RTVSPost2010Prop55
280
     0
102
RTVSPost2010PropOp55
 70
     0
102
RTVSPost2010Prop56
140
1.0
102
RTVSPost2010PropOp56
 70
     0
102
RTVSPost2010Prop57
140
1.0
102
RTVSPost2010PropOp57
 70
     0
  0
XRECORD
  5
3CA9
102
{ACAD_REACTORS
330
3CA8
102
}
330
3CA8
100
AcDbXrecord
280
     1
102
RTVSPropertyOp0
 70
     1
102
RTVSPropertyOp1
 70
     1
102
RTVSPropertyOp2
 70
     1
102
RTVSPropertyOp3
 70
     1
102
RTVSPropertyOp4
 70
     1
102
RTVSPropertyOp5
 70
     1
102
RTVSPropertyOp6
 70
     1
102
RTVSPropertyOp7
 70
     1
102
RTVSPropertyOp8
 70
     1
102
RTVSPropertyOp9
 70
     1
102
RTVSPropertyOp10
 70
     1
102
RTVSPropertyOp11
 70
     1
102
RTVSPropertyOp12
 70
     1
102
RTVSPropertyOp13
 70
     1
102
RTVSPropertyOp14
 70
     1
102
RTVSPropertyOp15
 70
     1
102
RTVSPropertyOp16
 70
     1
102
RTVSPropertyOp17
 70
     1
102
RTVSPropertyOp18
 70
     1
102
RTVSPropertyOp19
 70
     1
102
RTVSPropertyOp20
 70
     1
102
RTVSPropertyOp21
 70
     1
102
RTVSPropertyOp22
 70
     1
102
RTVSPropertyOp23
 70
     1
102
RTVSPropertyOp24
 70
     1
102
RTVSPropertyOp25
 70
     1
102
RTVSPropertyOp26
 70
     1
102
RTVSPropertyOp27
 70
     1
102
RTVSPropertyOp28
 70
     1
102
RTVSPropertyOp29
 70
     1
102
RTVSPropertyOp30
 70
     1
102
RTVSPropertyOp31
 70
     1
102
RTVSPropertyOp32
 70
     1
102
RTVSPropertyOp33
 70
     1
102
RTVSPropertyOp34
 70
     1
102
RTVSPropertyOp35
 70
     1
102
RTVSPropertyOp36
 70
     1
102
RTVSPropertyOp37
 70
     1
102
RTVSPropertyOp38
 70
     1
102
RTVSPropertyOp39
 70
     1
102
RTVSPropertyOp40
 70
     1
102
RTVSPropertyOp41
 70
     1
102
RTVSPropertyOp42
 70
     1
102
RTVSPropertyOp43
 70
     1
102
RTVSPropertyOp44
 70
     1
102
RTVSPropertyOp45
 70
     1
102
RTVSPropertyOp46
 70
     1
102
RTVSPropertyOp47
 70
     1
102
RTVSPropertyOp48
 70
     1
102
RTVSPropertyOp49
 70
     1
102
RTVSPropertyOp50
 70
     1
102
RTVSPropertyOp51
 70
     0
102
RTVSPropertyOp52
 70
     0
102
RTVSPropertyOp53
 70
     1
102
RTVSPropertyOp54
 70
     1
102
RTVSPropertyOp55
 70
     1
102
RTVSPropertyOp56
 70
     1
102
RTVSPropertyOp57
 70
     1
102
RTVSPost2010Prop28
280
     0
102
RTVSPost2010PropOp28
 70
     1
102
RTVSPost2010Prop29
280
     1
102
RTVSPost2010PropOp29
 70
     1
102
RTVSPost2010Prop30
280
     1
102
RTVSPost2010PropOp30
 70
     1
102
RTVSPost2010Prop31
280
     0
102
RTVSPost2010PropOp31
 70
     1
102
RTVSPost2010Prop32
280
     0
102
RTVSPost2010PropOp32
 70
     1
102
RTVSPost2010Prop33
280
     0
102
RTVSPost2010PropOp33
 70
     1
102
RTVSPost2010Prop34
280
     0
102
RTVSPost2010PropOp34
 70
     1
102
RTVSPost2010Prop35
280
     0
102
RTVSPost2010PropOp35
 70
     1
102
RTVSPost2010Prop36
280
     0
102
RTVSPost2010PropOp36
 70
     1
102
RTVSPost2010Prop37
 90
       50
102
RTVSPost2010PropOp37
 70
     1
102
RTVSPost2010Prop38
140
0.0
102
RTVSPost2010PropOp38
 70
     1
102
RTVSPost2010Prop39
140
1.0
102
RTVSPost2010PropOp39
 70
     1
102
RTVSPost2010Prop40
 90
        0
102
RTVSPost2010PropOp40
 70
     1
102
RTVSPost2010Prop41ColorIndex
 90
       18
102
RTVSPost2010Prop41ColorRGB
 90
        0
102
RTVSPost2010PropOp41
 70
     1
102
RTVSPost2010Prop42
 90
       50
102
RTVSPost2010PropOp42
 70
     1
102
RTVSPost2010Prop43
 90
        3
102
RTVSPost2010PropOp43
 70
     1
102
RTVSPost2010Prop44ColorIndex
 90
        5
102
RTVSPost2010Prop44ColorRGB
 90
      255
102
RTVSPost2010PropOp44
 70
     1
102
RTVSPost2010Prop45
280
     0
102
RTVSPost2010PropOp45
 70
     1
102
RTVSPost2010Prop46
 90
       50
102
RTVSPost2010PropOp46
 70
     1
102
RTVSPost2010Prop47
 90
       50
102
RTVSPost2010PropOp47
 70
     1
102
RTVSPost2010Prop48
 90
       50
102
RTVSPost2010PropOp48
 70
     1
102
RTVSPost2010Prop49
280
     0
102
RTVSPost2010PropOp49
 70
     1
102
RTVSPost2010Prop50
 90
       50
102
RTVSPost2010PropOp50
 70
     1
102
RTVSPost2010Prop51ColorIndex
 90
      256
102
RTVSPost2010Prop51ColorRGB
 90
-16777216
102
RTVSPost2010PropOp51
 70
     0
102
RTVSPost2010Prop52
140
1.0
102
RTVSPost2010PropOp52
 70
     0
102
RTVSPost2010Prop53
 90
        2
102
RTVSPost2010PropOp53
 70
     1
102
RTVSPost2010Prop54
  1
strokes_ogs.tif
102
RTVSPost2010PropOp54
 70
     1
102
RTVSPost2010Prop55
280
     0
102
RTVSPost2010PropOp55
 70
     1
102
RTVSPost2010Prop56
140
1.0
102
RTVSPost2010PropOp56
 70
     1
102
RTVSPost2010Prop57
140
1.0
102
RTVSPost2010PropOp57
 70
     1
  0
XRECORD
  5
3CC7
102
{ACAD_REACTORS
330
3CC6
102
}
330
3CC6
100
AcDbXrecord
280
     1
102
RTVSPropertyOp0
 70
     1
102
RTVSPropertyOp1
 70
     1
102
RTVSPropertyOp2
 70
     1
102
RTVSPropertyOp3
 70
     1
102
RTVSPropertyOp4
 70
     1
102
RTVSPropertyOp5
 70
     1
102
RTVSPropertyOp6
 70
     1
102
RTVSPropertyOp7
 70
     1
102
RTVSPropertyOp8
 70
     1
102
RTVSPropertyOp9
 70
     1
102
RTVSPropertyOp10
 70
     1
102
RTVSPropertyOp11
 70
     1
102
RTVSPropertyOp12
 70
     1
102
RTVSPropertyOp13
 70
     1
102
RTVSPropertyOp14
 70
     1
102
RTVSPropertyOp15
 70
     1
102
RTVSPropertyOp16
 70
     1
102
RTVSPropertyOp17
 70
     1
102
RTVSPropertyOp18
 70
     1
102
RTVSPropertyOp19
 70
     1
102
RTVSPropertyOp20
 70
     1
102
RTVSPropertyOp21
 70
     1
102
RTVSPropertyOp22
 70
     1
102
RTVSPropertyOp23
 70
     1
102
RTVSPropertyOp24
 70
     1
102
RTVSPropertyOp25
 70
     1
102
RTVSPropertyOp26
 70
     1
102
RTVSPropertyOp27
 70
     1
102
RTVSPropertyOp28
 70
     1
102
RTVSPropertyOp29
 70
     1
102
RTVSPropertyOp30
 70
     1
102
RTVSPropertyOp31
 70
     1
102
RTVSPropertyOp32
 70
     1
102
RTVSPropertyOp33
 70
     1
102
RTVSPropertyOp34
 70
     1
102
RTVSPropertyOp35
 70
     1
102
RTVSPropertyOp36
 70
     1
102
RTVSPropertyOp37
 70
     1
102
RTVSPropertyOp38
 70
     1
102
RTVSPropertyOp39
 70
     1
102
RTVSPropertyOp40
 70
     1
102
RTVSPropertyOp41
 70
     1
102
RTVSPropertyOp42
 70
     1
102
RTVSPropertyOp43
 70
     1
102
RTVSPropertyOp44
 70
     1
102
RTVSPropertyOp45
 70
     1
102
RTVSPropertyOp46
 70
     1
102
RTVSPropertyOp47
 70
     1
102
RTVSPropertyOp48
 70
     1
102
RTVSPropertyOp49
 70
     1
102
RTVSPropertyOp50
 70
     1
102
RTVSPropertyOp51
 70
     0
102
RTVSPropertyOp52
 70
     0
102
RTVSPropertyOp53
 70
     1
102
RTVSPropertyOp54
 70
     1
102
RTVSPropertyOp55
 70
     1
102
RTVSPropertyOp56
 70
     1
102
RTVSPropertyOp57
 70
     1
102
RTVSPost2010Prop28
280
     0
102
RTVSPost2010PropOp28
 70
     1
102
RTVSPost2010Prop29
280
     1
102
RTVSPost2010PropOp29
 70
     1
102
RTVSPost2010Prop30
280
     1
102
RTVSPost2010PropOp30
 70
     1
102
RTVSPost2010Prop31
280
     0
102
RTVSPost2010PropOp31
 70
     1
102
RTVSPost2010Prop32
280
     0
102
RTVSPost2010PropOp32
 70
     1
102
RTVSPost2010Prop33
280
     0
102
RTVSPost2010PropOp33
 70
     1
102
RTVSPost2010Prop34
280
     0
102
RTVSPost2010PropOp34
 70
     1
102
RTVSPost2010Prop35
280
     0
102
RTVSPost2010PropOp35
 70
     1
102
RTVSPost2010Prop36
280
     0
102
RTVSPost2010PropOp36
 70
     1
102
RTVSPost2010Prop37
 90
       50
102
RTVSPost2010PropOp37
 70
     1
102
RTVSPost2010Prop38
140
0.0
102
RTVSPost2010PropOp38
 70
     1
102
RTVSPost2010Prop39
140
1.0
102
RTVSPost2010PropOp39
 70
     1
102
RTVSPost2010Prop40
 90
        0
102
RTVSPost2010PropOp40
 70
     1
102
RTVSPost2010Prop41ColorIndex
 90
       18
102
RTVSPost2010Prop41ColorRGB
 90
        0
102
RTVSPost2010PropOp41
 70
     1
102
RTVSPost2010Prop42
 90
       50
102
RTVSPost2010PropOp42
 70
     1
102
RTVSPost2010Prop43
 90
        3
102
RTVSPost2010PropOp43
 70
     1
102
RTVSPost2010Prop44ColorIndex
 90
        5
102
RTVSPost2010Prop44ColorRGB
 90
      255
102
RTVSPost2010PropOp44
 70
     1
102
RTVSPost2010Prop45
280
     0
102
RTVSPost2010PropOp45
 70
     1
102
RTVSPost2010Prop46
 90
       50
102
RTVSPost2010PropOp46
 70
     1
102
RTVSPost2010Prop47
 90
       50
102
RTVSPost2010PropOp47
 70
     1
102
RTVSPost2010Prop48
 90
       50
102
RTVSPost2010PropOp48
 70
     1
102
RTVSPost2010Prop49
280
     0
102
RTVSPost2010PropOp49
 70
     1
102
RTVSPost2010Prop50
 90
       50
102
RTVSPost2010PropOp50
 70
     1
102
RTVSPost2010Prop51ColorIndex
 90
      256
102
RTVSPost2010Prop51ColorRGB
 90
-16777216
102
RTVSPost2010PropOp51
 70
     0
102
RTVSPost2010Prop52
140
1.0
102
RTVSPost2010PropOp52
 70
     0
102
RTVSPost2010Prop53
 90
        2
102
RTVSPost2010PropOp53
 70
     1
102
RTVSPost2010Prop54
  1
strokes_ogs.tif
102
RTVSPost2010PropOp54
 70
     1
102
RTVSPost2010Prop55
280
     0
102
RTVSPost2010PropOp55
 70
     1
102
RTVSPost2010Prop56
140
1.0
102
RTVSPost2010PropOp56
 70
     1
102
RTVSPost2010Prop57
140
1.0
102
RTVSPost2010PropOp57
 70
     1
  0
XRECORD
  5
3CC5
102
{ACAD_REACTORS
330
3CC4
102
}
330
3CC4
100
AcDbXrecord
280
     1
102
RTVSPropertyOp0
 70
     1
102
RTVSPropertyOp1
 70
     1
102
RTVSPropertyOp2
 70
     1
102
RTVSPropertyOp3
 70
     1
102
RTVSPropertyOp4
 70
     1
102
RTVSPropertyOp5
 70
     1
102
RTVSPropertyOp6
 70
     1
102
RTVSPropertyOp7
 70
     1
102
RTVSPropertyOp8
 70
     1
102
RTVSPropertyOp9
 70
     1
102
RTVSPropertyOp10
 70
     1
102
RTVSPropertyOp11
 70
     1
102
RTVSPropertyOp12
 70
     1
102
RTVSPropertyOp13
 70
     1
102
RTVSPropertyOp14
 70
     1
102
RTVSPropertyOp15
 70
     1
102
RTVSPropertyOp16
 70
     1
102
RTVSPropertyOp17
 70
     1
102
RTVSPropertyOp18
 70
     1
102
RTVSPropertyOp19
 70
     1
102
RTVSPropertyOp20
 70
     1
102
RTVSPropertyOp21
 70
     1
102
RTVSPropertyOp22
 70
     1
102
RTVSPropertyOp23
 70
     1
102
RTVSPropertyOp24
 70
     1
102
RTVSPropertyOp25
 70
     1
102
RTVSPropertyOp26
 70
     1
102
RTVSPropertyOp27
 70
     1
102
RTVSPropertyOp28
 70
     1
102
RTVSPropertyOp29
 70
     1
102
RTVSPropertyOp30
 70
     1
102
RTVSPropertyOp31
 70
     1
102
RTVSPropertyOp32
 70
     1
102
RTVSPropertyOp33
 70
     1
102
RTVSPropertyOp34
 70
     1
102
RTVSPropertyOp35
 70
     1
102
RTVSPropertyOp36
 70
     1
102
RTVSPropertyOp37
 70
     1
102
RTVSPropertyOp38
 70
     1
102
RTVSPropertyOp39
 70
     1
102
RTVSPropertyOp40
 70
     1
102
RTVSPropertyOp41
 70
     1
102
RTVSPropertyOp42
 70
     1
102
RTVSPropertyOp43
 70
     1
102
RTVSPropertyOp44
 70
     1
102
RTVSPropertyOp45
 70
     1
102
RTVSPropertyOp46
 70
     1
102
RTVSPropertyOp47
 70
     1
102
RTVSPropertyOp48
 70
     1
102
RTVSPropertyOp49
 70
     1
102
RTVSPropertyOp50
 70
     1
102
RTVSPropertyOp51
 70
     0
102
RTVSPropertyOp52
 70
     0
102
RTVSPropertyOp53
 70
     1
102
RTVSPropertyOp54
 70
     1
102
RTVSPropertyOp55
 70
     1
102
RTVSPropertyOp56
 70
     1
102
RTVSPropertyOp57
 70
     1
102
RTVSPost2010Prop28
280
     0
102
RTVSPost2010PropOp28
 70
     1
102
RTVSPost2010Prop29
280
     1
102
RTVSPost2010PropOp29
 70
     1
102
RTVSPost2010Prop30
280
     1
102
RTVSPost2010PropOp30
 70
     1
102
RTVSPost2010Prop31
280
     0
102
RTVSPost2010PropOp31
 70
     1
102
RTVSPost2010Prop32
280
     0
102
RTVSPost2010PropOp32
 70
     1
102
RTVSPost2010Prop33
280
     0
102
RTVSPost2010PropOp33
 70
     1
102
RTVSPost2010Prop34
280
     0
102
RTVSPost2010PropOp34
 70
     1
102
RTVSPost2010Prop35
280
     0
102
RTVSPost2010PropOp35
 70
     1
102
RTVSPost2010Prop36
280
     0
102
RTVSPost2010PropOp36
 70
     1
102
RTVSPost2010Prop37
 90
       50
102
RTVSPost2010PropOp37
 70
     1
102
RTVSPost2010Prop38
140
0.0
102
RTVSPost2010PropOp38
 70
     1
102
RTVSPost2010Prop39
140
1.0
102
RTVSPost2010PropOp39
 70
     1
102
RTVSPost2010Prop40
 90
        0
102
RTVSPost2010PropOp40
 70
     1
102
RTVSPost2010Prop41ColorIndex
 90
       18
102
RTVSPost2010Prop41ColorRGB
 90
        0
102
RTVSPost2010PropOp41
 70
     1
102
RTVSPost2010Prop42
 90
       50
102
RTVSPost2010PropOp42
 70
     1
102
RTVSPost2010Prop43
 90
        3
102
RTVSPost2010PropOp43
 70
     1
102
RTVSPost2010Prop44ColorIndex
 90
        5
102
RTVSPost2010Prop44ColorRGB
 90
      255
102
RTVSPost2010PropOp44
 70
     1
102
RTVSPost2010Prop45
280
     0
102
RTVSPost2010PropOp45
 70
     1
102
RTVSPost2010Prop46
 90
       50
102
RTVSPost2010PropOp46
 70
     1
102
RTVSPost2010Prop47
 90
       50
102
RTVSPost2010PropOp47
 70
     1
102
RTVSPost2010Prop48
 90
       50
102
RTVSPost2010PropOp48
 70
     1
102
RTVSPost2010Prop49
280
     0
102
RTVSPost2010PropOp49
 70
     1
102
RTVSPost2010Prop50
 90
       50
102
RTVSPost2010PropOp50
 70
     1
102
RTVSPost2010Prop51ColorIndex
 90
      256
102
RTVSPost2010Prop51ColorRGB
 90
-16777216
102
RTVSPost2010PropOp51
 70
     0
102
RTVSPost2010Prop52
140
1.0
102
RTVSPost2010PropOp52
 70
     0
102
RTVSPost2010Prop53
 90
        2
102
RTVSPost2010PropOp53
 70
     1
102
RTVSPost2010Prop54
  1
strokes_ogs.tif
102
RTVSPost2010PropOp54
 70
     1
102
RTVSPost2010Prop55
280
     0
102
RTVSPost2010PropOp55
 70
     1
102
RTVSPost2010Prop56
140
1.0
102
RTVSPost2010PropOp56
 70
     1
102
RTVSPost2010Prop57
140
1.0
102
RTVSPost2010PropOp57
 70
     1
  0
XRECORD
  5
3CBF
102
{ACAD_REACTORS
330
3CBE
102
}
330
3CBE
100
AcDbXrecord
280
     1
102
RTVSPropertyOp0
 70
     1
102
RTVSPropertyOp1
 70
     1
102
RTVSPropertyOp2
 70
     1
102
RTVSPropertyOp3
 70
     1
102
RTVSPropertyOp4
 70
     1
102
RTVSPropertyOp5
 70
     1
102
RTVSPropertyOp6
 70
     1
102
RTVSPropertyOp7
 70
     1
102
RTVSPropertyOp8
 70
     1
102
RTVSPropertyOp9
 70
     1
102
RTVSPropertyOp10
 70
     1
102
RTVSPropertyOp11
 70
     1
102
RTVSPropertyOp12
 70
     1
102
RTVSPropertyOp13
 70
     1
102
RTVSPropertyOp14
 70
     1
102
RTVSPropertyOp15
 70
     1
102
RTVSPropertyOp16
 70
     1
102
RTVSPropertyOp17
 70
     1
102
RTVSPropertyOp18
 70
     1
102
RTVSPropertyOp19
 70
     1
102
RTVSPropertyOp20
 70
     1
102
RTVSPropertyOp21
 70
     1
102
RTVSPropertyOp22
 70
     1
102
RTVSPropertyOp23
 70
     1
102
RTVSPropertyOp24
 70
     1
102
RTVSPropertyOp25
 70
     1
102
RTVSPropertyOp26
 70
     1
102
RTVSPropertyOp27
 70
     1
102
RTVSPropertyOp28
 70
     1
102
RTVSPropertyOp29
 70
     1
102
RTVSPropertyOp30
 70
     1
102
RTVSPropertyOp31
 70
     1
102
RTVSPropertyOp32
 70
     1
102
RTVSPropertyOp33
 70
     1
102
RTVSPropertyOp34
 70
     1
102
RTVSPropertyOp35
 70
     1
102
RTVSPropertyOp36
 70
     1
102
RTVSPropertyOp37
 70
     1
102
RTVSPropertyOp38
 70
     1
102
RTVSPropertyOp39
 70
     1
102
RTVSPropertyOp40
 70
     1
102
RTVSPropertyOp41
 70
     1
102
RTVSPropertyOp42
 70
     1
102
RTVSPropertyOp43
 70
     1
102
RTVSPropertyOp44
 70
     1
102
RTVSPropertyOp45
 70
     1
102
RTVSPropertyOp46
 70
     1
102
RTVSPropertyOp47
 70
     1
102
RTVSPropertyOp48
 70
     1
102
RTVSPropertyOp49
 70
     1
102
RTVSPropertyOp50
 70
     1
102
RTVSPropertyOp51
 70
     0
102
RTVSPropertyOp52
 70
     0
102
RTVSPropertyOp53
 70
     1
102
RTVSPropertyOp54
 70
     1
102
RTVSPropertyOp55
 70
     1
102
RTVSPropertyOp56
 70
     1
102
RTVSPropertyOp57
 70
     1
102
RTVSPost2010Prop28
280
     0
102
RTVSPost2010PropOp28
 70
     1
102
RTVSPost2010Prop29
280
     1
102
RTVSPost2010PropOp29
 70
     1
102
RTVSPost2010Prop30
280
     1
102
RTVSPost2010PropOp30
 70
     1
102
RTVSPost2010Prop31
280
     0
102
RTVSPost2010PropOp31
 70
     1
102
RTVSPost2010Prop32
280
     0
102
RTVSPost2010PropOp32
 70
     1
102
RTVSPost2010Prop33
280
     0
102
RTVSPost2010PropOp33
 70
     1
102
RTVSPost2010Prop34
280
     0
102
RTVSPost2010PropOp34
 70
     1
102
RTVSPost2010Prop35
280
     0
102
RTVSPost2010PropOp35
 70
     1
102
RTVSPost2010Prop36
280
     0
102
RTVSPost2010PropOp36
 70
     1
102
RTVSPost2010Prop37
 90
       50
102
RTVSPost2010PropOp37
 70
     1
102
RTVSPost2010Prop38
140
0.0
102
RTVSPost2010PropOp38
 70
     1
102
RTVSPost2010Prop39
140
1.0
102
RTVSPost2010PropOp39
 70
     1
102
RTVSPost2010Prop40
 90
        0
102
RTVSPost2010PropOp40
 70
     1
102
RTVSPost2010Prop41ColorIndex
 90
       18
102
RTVSPost2010Prop41ColorRGB
 90
        0
102
RTVSPost2010PropOp41
 70
     1
102
RTVSPost2010Prop42
 90
       50
102
RTVSPost2010PropOp42
 70
     1
102
RTVSPost2010Prop43
 90
        3
102
RTVSPost2010PropOp43
 70
     1
102
RTVSPost2010Prop44ColorIndex
 90
        5
102
RTVSPost2010Prop44ColorRGB
 90
      255
102
RTVSPost2010PropOp44
 70
     1
102
RTVSPost2010Prop45
280
     0
102
RTVSPost2010PropOp45
 70
     1
102
RTVSPost2010Prop46
 90
       50
102
RTVSPost2010PropOp46
 70
     1
102
RTVSPost2010Prop47
 90
       50
102
RTVSPost2010PropOp47
 70
     1
102
RTVSPost2010Prop48
 90
       50
102
RTVSPost2010PropOp48
 70
     1
102
RTVSPost2010Prop49
280
     0
102
RTVSPost2010PropOp49
 70
     1
102
RTVSPost2010Prop50
 90
       50
102
RTVSPost2010PropOp50
 70
     1
102
RTVSPost2010Prop51ColorIndex
 90
      256
102
RTVSPost2010Prop51ColorRGB
 90
-16777216
102
RTVSPost2010PropOp51
 70
     0
102
RTVSPost2010Prop52
140
1.0
102
RTVSPost2010PropOp52
 70
     0
102
RTVSPost2010Prop53
 90
        2
102
RTVSPost2010PropOp53
 70
     1
102
RTVSPost2010Prop54
  1
strokes_ogs.tif
102
RTVSPost2010PropOp54
 70
     1
102
RTVSPost2010Prop55
280
     0
102
RTVSPost2010PropOp55
 70
     1
102
RTVSPost2010Prop56
140
1.0
102
RTVSPost2010PropOp56
 70
     1
102
RTVSPost2010Prop57
140
1.0
102
RTVSPost2010PropOp57
 70
     1
  0
XRECORD
  5
3CC1
102
{ACAD_REACTORS
330
3CC0
102
}
330
3CC0
100
AcDbXrecord
280
     1
102
RTVSPropertyOp0
 70
     1
102
RTVSPropertyOp1
 70
     1
102
RTVSPropertyOp2
 70
     1
102
RTVSPropertyOp3
 70
     1
102
RTVSPropertyOp4
 70
     1
102
RTVSPropertyOp5
 70
     1
102
RTVSPropertyOp6
 70
     1
102
RTVSPropertyOp7
 70
     1
102
RTVSPropertyOp8
 70
     1
102
RTVSPropertyOp9
 70
     1
102
RTVSPropertyOp10
 70
     1
102
RTVSPropertyOp11
 70
     1
102
RTVSPropertyOp12
 70
     1
102
RTVSPropertyOp13
 70
     1
102
RTVSPropertyOp14
 70
     1
102
RTVSPropertyOp15
 70
     1
102
RTVSPropertyOp16
 70
     1
102
RTVSPropertyOp17
 70
     1
102
RTVSPropertyOp18
 70
     1
102
RTVSPropertyOp19
 70
     1
102
RTVSPropertyOp20
 70
     1
102
RTVSPropertyOp21
 70
     1
102
RTVSPropertyOp22
 70
     1
102
RTVSPropertyOp23
 70
     1
102
RTVSPropertyOp24
 70
     1
102
RTVSPropertyOp25
 70
     1
102
RTVSPropertyOp26
 70
     1
102
RTVSPropertyOp27
 70
     1
102
RTVSPropertyOp28
 70
     1
102
RTVSPropertyOp29
 70
     1
102
RTVSPropertyOp30
 70
     1
102
RTVSPropertyOp31
 70
     1
102
RTVSPropertyOp32
 70
     1
102
RTVSPropertyOp33
 70
     1
102
RTVSPropertyOp34
 70
     1
102
RTVSPropertyOp35
 70
     1
102
RTVSPropertyOp36
 70
     1
102
RTVSPropertyOp37
 70
     1
102
RTVSPropertyOp38
 70
     1
102
RTVSPropertyOp39
 70
     1
102
RTVSPropertyOp40
 70
     1
102
RTVSPropertyOp41
 70
     1
102
RTVSPropertyOp42
 70
     1
102
RTVSPropertyOp43
 70
     1
102
RTVSPropertyOp44
 70
     1
102
RTVSPropertyOp45
 70
     1
102
RTVSPropertyOp46
 70
     1
102
RTVSPropertyOp47
 70
     1
102
RTVSPropertyOp48
 70
     1
102
RTVSPropertyOp49
 70
     1
102
RTVSPropertyOp50
 70
     1
102
RTVSPropertyOp51
 70
     0
102
RTVSPropertyOp52
 70
     0
102
RTVSPropertyOp53
 70
     1
102
RTVSPropertyOp54
 70
     1
102
RTVSPropertyOp55
 70
     1
102
RTVSPropertyOp56
 70
     1
102
RTVSPropertyOp57
 70
     1
102
RTVSPost2010Prop28
280
     0
102
RTVSPost2010PropOp28
 70
     1
102
RTVSPost2010Prop29
280
     1
102
RTVSPost2010PropOp29
 70
     1
102
RTVSPost2010Prop30
280
     1
102
RTVSPost2010PropOp30
 70
     1
102
RTVSPost2010Prop31
280
     0
102
RTVSPost2010PropOp31
 70
     1
102
RTVSPost2010Prop32
280
     0
102
RTVSPost2010PropOp32
 70
     1
102
RTVSPost2010Prop33
280
     0
102
RTVSPost2010PropOp33
 70
     1
102
RTVSPost2010Prop34
280
     0
102
RTVSPost2010PropOp34
 70
     1
102
RTVSPost2010Prop35
280
     0
102
RTVSPost2010PropOp35
 70
     1
102
RTVSPost2010Prop36
280
     0
102
RTVSPost2010PropOp36
 70
     1
102
RTVSPost2010Prop37
 90
       50
102
RTVSPost2010PropOp37
 70
     1
102
RTVSPost2010Prop38
140
0.0
102
RTVSPost2010PropOp38
 70
     1
102
RTVSPost2010Prop39
140
1.0
102
RTVSPost2010PropOp39
 70
     1
102
RTVSPost2010Prop40
 90
        0
102
RTVSPost2010PropOp40
 70
     1
102
RTVSPost2010Prop41ColorIndex
 90
       18
102
RTVSPost2010Prop41ColorRGB
 90
        0
102
RTVSPost2010PropOp41
 70
     1
102
RTVSPost2010Prop42
 90
       50
102
RTVSPost2010PropOp42
 70
     1
102
RTVSPost2010Prop43
 90
        3
102
RTVSPost2010PropOp43
 70
     1
102
RTVSPost2010Prop44ColorIndex
 90
        5
102
RTVSPost2010Prop44ColorRGB
 90
      255
102
RTVSPost2010PropOp44
 70
     1
102
RTVSPost2010Prop45
280
     0
102
RTVSPost2010PropOp45
 70
     1
102
RTVSPost2010Prop46
 90
       50
102
RTVSPost2010PropOp46
 70
     1
102
RTVSPost2010Prop47
 90
       50
102
RTVSPost2010PropOp47
 70
     1
102
RTVSPost2010Prop48
 90
       50
102
RTVSPost2010PropOp48
 70
     1
102
RTVSPost2010Prop49
280
     0
102
RTVSPost2010PropOp49
 70
     1
102
RTVSPost2010Prop50
 90
       50
102
RTVSPost2010PropOp50
 70
     1
102
RTVSPost2010Prop51ColorIndex
 90
      256
102
RTVSPost2010Prop51ColorRGB
 90
-16777216
102
RTVSPost2010PropOp51
 70
     0
102
RTVSPost2010Prop52
140
1.0
102
RTVSPost2010PropOp52
 70
     0
102
RTVSPost2010Prop53
 90
        2
102
RTVSPost2010PropOp53
 70
     1
102
RTVSPost2010Prop54
  1
strokes_ogs.tif
102
RTVSPost2010PropOp54
 70
     1
102
RTVSPost2010Prop55
280
     0
102
RTVSPost2010PropOp55
 70
     1
102
RTVSPost2010Prop56
140
1.0
102
RTVSPost2010PropOp56
 70
     1
102
RTVSPost2010Prop57
140
1.0
102
RTVSPost2010PropOp57
 70
     1
  0
XRECORD
  5
3CB1
102
{ACAD_REACTORS
330
3CB0
102
}
330
3CB0
100
AcDbXrecord
280
     1
102
RTVSPropertyOp0
 70
     1
102
RTVSPropertyOp1
 70
     1
102
RTVSPropertyOp2
 70
     1
102
RTVSPropertyOp3
 70
     1
102
RTVSPropertyOp4
 70
     1
102
RTVSPropertyOp5
 70
     1
102
RTVSPropertyOp6
 70
     1
102
RTVSPropertyOp7
 70
     1
102
RTVSPropertyOp8
 70
     1
102
RTVSPropertyOp9
 70
     1
102
RTVSPropertyOp10
 70
     1
102
RTVSPropertyOp11
 70
     1
102
RTVSPropertyOp12
 70
     1
102
RTVSPropertyOp13
 70
     1
102
RTVSPropertyOp14
 70
     1
102
RTVSPropertyOp15
 70
     1
102
RTVSPropertyOp16
 70
     1
102
RTVSPropertyOp17
 70
     1
102
RTVSPropertyOp18
 70
     1
102
RTVSPropertyOp19
 70
     1
102
RTVSPropertyOp20
 70
     1
102
RTVSPropertyOp21
 70
     1
102
RTVSPropertyOp22
 70
     1
102
RTVSPropertyOp23
 70
     1
102
RTVSPropertyOp24
 70
     1
102
RTVSPropertyOp25
 70
     1
102
RTVSPropertyOp26
 70
     1
102
RTVSPropertyOp27
 70
     1
102
RTVSPropertyOp28
 70
     1
102
RTVSPropertyOp29
 70
     1
102
RTVSPropertyOp30
 70
     1
102
RTVSPropertyOp31
 70
     1
102
RTVSPropertyOp32
 70
     1
102
RTVSPropertyOp33
 70
     1
102
RTVSPropertyOp34
 70
     1
102
RTVSPropertyOp35
 70
     1
102
RTVSPropertyOp36
 70
     1
102
RTVSPropertyOp37
 70
     1
102
RTVSPropertyOp38
 70
     1
102
RTVSPropertyOp39
 70
     1
102
RTVSPropertyOp40
 70
     1
102
RTVSPropertyOp41
 70
     1
102
RTVSPropertyOp42
 70
     1
102
RTVSPropertyOp43
 70
     1
102
RTVSPropertyOp44
 70
     1
102
RTVSPropertyOp45
 70
     1
102
RTVSPropertyOp46
 70
     1
102
RTVSPropertyOp47
 70
     1
102
RTVSPropertyOp48
 70
     1
102
RTVSPropertyOp49
 70
     1
102
RTVSPropertyOp50
 70
     1
102
RTVSPropertyOp51
 70
     0
102
RTVSPropertyOp52
 70
     0
102
RTVSPropertyOp53
 70
     1
102
RTVSPropertyOp54
 70
     1
102
RTVSPropertyOp55
 70
     1
102
RTVSPropertyOp56
 70
     1
102
RTVSPropertyOp57
 70
     1
102
RTVSPost2010Prop28
280
     0
102
RTVSPost2010PropOp28
 70
     1
102
RTVSPost2010Prop29
280
     1
102
RTVSPost2010PropOp29
 70
     1
102
RTVSPost2010Prop30
280
     1
102
RTVSPost2010PropOp30
 70
     1
102
RTVSPost2010Prop31
280
     0
102
RTVSPost2010PropOp31
 70
     1
102
RTVSPost2010Prop32
280
     0
102
RTVSPost2010PropOp32
 70
     1
102
RTVSPost2010Prop33
280
     0
102
RTVSPost2010PropOp33
 70
     1
102
RTVSPost2010Prop34
280
     0
102
RTVSPost2010PropOp34
 70
     1
102
RTVSPost2010Prop35
280
     0
102
RTVSPost2010PropOp35
 70
     1
102
RTVSPost2010Prop36
280
     0
102
RTVSPost2010PropOp36
 70
     1
102
RTVSPost2010Prop37
 90
       50
102
RTVSPost2010PropOp37
 70
     1
102
RTVSPost2010Prop38
140
0.0
102
RTVSPost2010PropOp38
 70
     1
102
RTVSPost2010Prop39
140
1.0
102
RTVSPost2010PropOp39
 70
     1
102
RTVSPost2010Prop40
 90
        0
102
RTVSPost2010PropOp40
 70
     1
102
RTVSPost2010Prop41ColorIndex
 90
       18
102
RTVSPost2010Prop41ColorRGB
 90
        0
102
RTVSPost2010PropOp41
 70
     1
102
RTVSPost2010Prop42
 90
       50
102
RTVSPost2010PropOp42
 70
     1
102
RTVSPost2010Prop43
 90
        3
102
RTVSPost2010PropOp43
 70
     1
102
RTVSPost2010Prop44ColorIndex
 90
        5
102
RTVSPost2010Prop44ColorRGB
 90
      255
102
RTVSPost2010PropOp44
 70
     1
102
RTVSPost2010Prop45
280
     0
102
RTVSPost2010PropOp45
 70
     1
102
RTVSPost2010Prop46
 90
       50
102
RTVSPost2010PropOp46
 70
     1
102
RTVSPost2010Prop47
 90
       50
102
RTVSPost2010PropOp47
 70
     1
102
RTVSPost2010Prop48
 90
       50
102
RTVSPost2010PropOp48
 70
     1
102
RTVSPost2010Prop49
280
     0
102
RTVSPost2010PropOp49
 70
     1
102
RTVSPost2010Prop50
 90
       50
102
RTVSPost2010PropOp50
 70
     1
102
RTVSPost2010Prop51ColorIndex
 90
      256
102
RTVSPost2010Prop51ColorRGB
 90
-16777216
102
RTVSPost2010PropOp51
 70
     0
102
RTVSPost2010Prop52
140
1.0
102
RTVSPost2010PropOp52
 70
     0
102
RTVSPost2010Prop53
 90
        2
102
RTVSPost2010PropOp53
 70
     1
102
RTVSPost2010Prop54
  1
strokes_ogs.tif
102
RTVSPost2010PropOp54
 70
     1
102
RTVSPost2010Prop55
280
     0
102
RTVSPost2010PropOp55
 70
     1
102
RTVSPost2010Prop56
140
1.0
102
RTVSPost2010PropOp56
 70
     1
102
RTVSPost2010Prop57
140
1.0
102
RTVSPost2010PropOp57
 70
     1
  0
XRECORD
  5
3CA3
102
{ACAD_REACTORS
330
3CA2
102
}
330
3CA2
100
AcDbXrecord
280
     1
102
RTVSPropertyOp0
 70
     1
102
RTVSPropertyOp1
 70
     1
102
RTVSPropertyOp2
 70
     1
102
RTVSPropertyOp3
 70
     1
102
RTVSPropertyOp4
 70
     1
102
RTVSPropertyOp5
 70
     1
102
RTVSPropertyOp6
 70
     1
102
RTVSPropertyOp7
 70
     1
102
RTVSPropertyOp8
 70
     1
102
RTVSPropertyOp9
 70
     1
102
RTVSPropertyOp10
 70
     1
102
RTVSPropertyOp11
 70
     1
102
RTVSPropertyOp12
 70
     1
102
RTVSPropertyOp13
 70
     1
102
RTVSPropertyOp14
 70
     1
102
RTVSPropertyOp15
 70
     1
102
RTVSPropertyOp16
 70
     1
102
RTVSPropertyOp17
 70
     1
102
RTVSPropertyOp18
 70
     1
102
RTVSPropertyOp19
 70
     1
102
RTVSPropertyOp20
 70
     1
102
RTVSPropertyOp21
 70
     1
102
RTVSPropertyOp22
 70
     1
102
RTVSPropertyOp23
 70
     1
102
RTVSPropertyOp24
 70
     1
102
RTVSPropertyOp25
 70
     1
102
RTVSPropertyOp26
 70
     1
102
RTVSPropertyOp27
 70
     1
102
RTVSPropertyOp28
 70
     1
102
RTVSPropertyOp29
 70
     1
102
RTVSPropertyOp30
 70
     1
102
RTVSPropertyOp31
 70
     1
102
RTVSPropertyOp32
 70
     1
102
RTVSPropertyOp33
 70
     1
102
RTVSPropertyOp34
 70
     1
102
RTVSPropertyOp35
 70
     1
102
RTVSPropertyOp36
 70
     1
102
RTVSPropertyOp37
 70
     1
102
RTVSPropertyOp38
 70
     1
102
RTVSPropertyOp39
 70
     1
102
RTVSPropertyOp40
 70
     1
102
RTVSPropertyOp41
 70
     1
102
RTVSPropertyOp42
 70
     1
102
RTVSPropertyOp43
 70
     1
102
RTVSPropertyOp44
 70
     1
102
RTVSPropertyOp45
 70
     1
102
RTVSPropertyOp46
 70
     1
102
RTVSPropertyOp47
 70
     1
102
RTVSPropertyOp48
 70
     1
102
RTVSPropertyOp49
 70
     1
102
RTVSPropertyOp50
 70
     1
102
RTVSPropertyOp51
 70
     0
102
RTVSPropertyOp52
 70
     0
102
RTVSPropertyOp53
 70
     1
102
RTVSPropertyOp54
 70
     1
102
RTVSPropertyOp55
 70
     1
102
RTVSPropertyOp56
 70
     1
102
RTVSPropertyOp57
 70
     1
102
RTVSPost2010Prop28
280
     0
102
RTVSPost2010PropOp28
 70
     1
102
RTVSPost2010Prop29
280
     1
102
RTVSPost2010PropOp29
 70
     1
102
RTVSPost2010Prop30
280
     1
102
RTVSPost2010PropOp30
 70
     1
102
RTVSPost2010Prop31
280
     0
102
RTVSPost2010PropOp31
 70
     1
102
RTVSPost2010Prop32
280
     0
102
RTVSPost2010PropOp32
 70
     1
102
RTVSPost2010Prop33
280
     0
102
RTVSPost2010PropOp33
 70
     1
102
RTVSPost2010Prop34
280
     0
102
RTVSPost2010PropOp34
 70
     1
102
RTVSPost2010Prop35
280
     0
102
RTVSPost2010PropOp35
 70
     1
102
RTVSPost2010Prop36
280
     0
102
RTVSPost2010PropOp36
 70
     1
102
RTVSPost2010Prop37
 90
       50
102
RTVSPost2010PropOp37
 70
     1
102
RTVSPost2010Prop38
140
0.0
102
RTVSPost2010PropOp38
 70
     1
102
RTVSPost2010Prop39
140
1.0
102
RTVSPost2010PropOp39
 70
     1
102
RTVSPost2010Prop40
 90
        0
102
RTVSPost2010PropOp40
 70
     1
102
RTVSPost2010Prop41ColorIndex
 90
       18
102
RTVSPost2010Prop41ColorRGB
 90
        0
102
RTVSPost2010PropOp41
 70
     1
102
RTVSPost2010Prop42
 90
       50
102
RTVSPost2010PropOp42
 70
     1
102
RTVSPost2010Prop43
 90
        3
102
RTVSPost2010PropOp43
 70
     1
102
RTVSPost2010Prop44ColorIndex
 90
        5
102
RTVSPost2010Prop44ColorRGB
 90
      255
102
RTVSPost2010PropOp44
 70
     1
102
RTVSPost2010Prop45
280
     0
102
RTVSPost2010PropOp45
 70
     1
102
RTVSPost2010Prop46
 90
       50
102
RTVSPost2010PropOp46
 70
     1
102
RTVSPost2010Prop47
 90
       50
102
RTVSPost2010PropOp47
 70
     1
102
RTVSPost2010Prop48
 90
       50
102
RTVSPost2010PropOp48
 70
     1
102
RTVSPost2010Prop49
280
     0
102
RTVSPost2010PropOp49
 70
     1
102
RTVSPost2010Prop50
 90
       50
102
RTVSPost2010PropOp50
 70
     1
102
RTVSPost2010Prop51ColorIndex
 90
      256
102
RTVSPost2010Prop51ColorRGB
 90
-16777216
102
RTVSPost2010PropOp51
 70
     0
102
RTVSPost2010Prop52
140
1.0
102
RTVSPost2010PropOp52
 70
     0
102
RTVSPost2010Prop53
 90
        2
102
RTVSPost2010PropOp53
 70
     1
102
RTVSPost2010Prop54
  1
strokes_ogs.tif
102
RTVSPost2010PropOp54
 70
     1
102
RTVSPost2010Prop55
280
     0
102
RTVSPost2010PropOp55
 70
     1
102
RTVSPost2010Prop56
140
1.0
102
RTVSPost2010PropOp56
 70
     1
102
RTVSPost2010Prop57
140
1.0
102
RTVSPost2010PropOp57
 70
     1
  0
XRECORD
  5
3CC3
102
{ACAD_REACTORS
330
3CC2
102
}
330
3CC2
100
AcDbXrecord
280
     1
102
RTVSPropertyOp0
 70
     1
102
RTVSPropertyOp1
 70
     1
102
RTVSPropertyOp2
 70
     1
102
RTVSPropertyOp3
 70
     1
102
RTVSPropertyOp4
 70
     1
102
RTVSPropertyOp5
 70
     1
102
RTVSPropertyOp6
 70
     1
102
RTVSPropertyOp7
 70
     1
102
RTVSPropertyOp8
 70
     1
102
RTVSPropertyOp9
 70
     1
102
RTVSPropertyOp10
 70
     1
102
RTVSPropertyOp11
 70
     1
102
RTVSPropertyOp12
 70
     1
102
RTVSPropertyOp13
 70
     1
102
RTVSPropertyOp14
 70
     1
102
RTVSPropertyOp15
 70
     1
102
RTVSPropertyOp16
 70
     1
102
RTVSPropertyOp17
 70
     1
102
RTVSPropertyOp18
 70
     1
102
RTVSPropertyOp19
 70
     1
102
RTVSPropertyOp20
 70
     1
102
RTVSPropertyOp21
 70
     1
102
RTVSPropertyOp22
 70
     1
102
RTVSPropertyOp23
 70
     1
102
RTVSPropertyOp24
 70
     1
102
RTVSPropertyOp25
 70
     1
102
RTVSPropertyOp26
 70
     1
102
RTVSPropertyOp27
 70
     1
102
RTVSPropertyOp28
 70
     1
102
RTVSPropertyOp29
 70
     1
102
RTVSPropertyOp30
 70
     1
102
RTVSPropertyOp31
 70
     1
102
RTVSPropertyOp32
 70
     1
102
RTVSPropertyOp33
 70
     1
102
RTVSPropertyOp34
 70
     1
102
RTVSPropertyOp35
 70
     1
102
RTVSPropertyOp36
 70
     1
102
RTVSPropertyOp37
 70
     1
102
RTVSPropertyOp38
 70
     1
102
RTVSPropertyOp39
 70
     1
102
RTVSPropertyOp40
 70
     1
102
RTVSPropertyOp41
 70
     1
102
RTVSPropertyOp42
 70
     1
102
RTVSPropertyOp43
 70
     1
102
RTVSPropertyOp44
 70
     1
102
RTVSPropertyOp45
 70
     1
102
RTVSPropertyOp46
 70
     1
102
RTVSPropertyOp47
 70
     1
102
RTVSPropertyOp48
 70
     1
102
RTVSPropertyOp49
 70
     1
102
RTVSPropertyOp50
 70
     1
102
RTVSPropertyOp51
 70
     0
102
RTVSPropertyOp52
 70
     0
102
RTVSPropertyOp53
 70
     1
102
RTVSPropertyOp54
 70
     1
102
RTVSPropertyOp55
 70
     1
102
RTVSPropertyOp56
 70
     1
102
RTVSPropertyOp57
 70
     1
102
RTVSPost2010Prop28
280
     0
102
RTVSPost2010PropOp28
 70
     1
102
RTVSPost2010Prop29
280
     1
102
RTVSPost2010PropOp29
 70
     1
102
RTVSPost2010Prop30
280
     1
102
RTVSPost2010PropOp30
 70
     1
102
RTVSPost2010Prop31
280
     0
102
RTVSPost2010PropOp31
 70
     1
102
RTVSPost2010Prop32
280
     0
102
RTVSPost2010PropOp32
 70
     1
102
RTVSPost2010Prop33
280
     0
102
RTVSPost2010PropOp33
 70
     1
102
RTVSPost2010Prop34
280
     0
102
RTVSPost2010PropOp34
 70
     1
102
RTVSPost2010Prop35
280
     0
102
RTVSPost2010PropOp35
 70
     1
102
RTVSPost2010Prop36
280
     0
102
RTVSPost2010PropOp36
 70
     1
102
RTVSPost2010Prop37
 90
       50
102
RTVSPost2010PropOp37
 70
     1
102
RTVSPost2010Prop38
140
0.0
102
RTVSPost2010PropOp38
 70
     1
102
RTVSPost2010Prop39
140
1.0
102
RTVSPost2010PropOp39
 70
     1
102
RTVSPost2010Prop40
 90
        0
102
RTVSPost2010PropOp40
 70
     1
102
RTVSPost2010Prop41ColorIndex
 90
       18
102
RTVSPost2010Prop41ColorRGB
 90
        0
102
RTVSPost2010PropOp41
 70
     1
102
RTVSPost2010Prop42
 90
       50
102
RTVSPost2010PropOp42
 70
     1
102
RTVSPost2010Prop43
 90
        3
102
RTVSPost2010PropOp43
 70
     1
102
RTVSPost2010Prop44ColorIndex
 90
        5
102
RTVSPost2010Prop44ColorRGB
 90
      255
102
RTVSPost2010PropOp44
 70
     1
102
RTVSPost2010Prop45
280
     0
102
RTVSPost2010PropOp45
 70
     1
102
RTVSPost2010Prop46
 90
       50
102
RTVSPost2010PropOp46
 70
     1
102
RTVSPost2010Prop47
 90
       50
102
RTVSPost2010PropOp47
 70
     1
102
RTVSPost2010Prop48
 90
       50
102
RTVSPost2010PropOp48
 70
     1
102
RTVSPost2010Prop49
280
     0
102
RTVSPost2010PropOp49
 70
     1
102
RTVSPost2010Prop50
 90
       50
102
RTVSPost2010PropOp50
 70
     1
102
RTVSPost2010Prop51ColorIndex
 90
      256
102
RTVSPost2010Prop51ColorRGB
 90
-16777216
102
RTVSPost2010PropOp51
 70
     0
102
RTVSPost2010Prop52
140
1.0
102
RTVSPost2010PropOp52
 70
     0
102
RTVSPost2010Prop53
 90
        2
102
RTVSPost2010PropOp53
 70
     1
102
RTVSPost2010Prop54
  1
strokes_ogs.tif
102
RTVSPost2010PropOp54
 70
     1
102
RTVSPost2010Prop55
280
     0
102
RTVSPost2010PropOp55
 70
     1
102
RTVSPost2010Prop56
140
1.0
102
RTVSPost2010PropOp56
 70
     1
102
RTVSPost2010Prop57
140
1.0
102
RTVSPost2010PropOp57
 70
     1
  0
ENDSEC
  0
SECTION
  2
THUMBNAILIMAGE
 90
    17448
310
28000000800000008000000001000800000000000000000000000000000000000000000000000000FFFFFF000000FF0000FFFF0000FF0000FFFF0000FF000000FF00FF000000000080808000C0C0C0000000FF007F7FFF000000A5005252A50000007F003F3F7F0000004C0026264C000000260013132600003FFF007F9FFF
310
000029A5005267A500001F7F003F4F7F0000134C00262F4C000009260013172600007FFF007FBFFF000052A500527CA500003F7F003F5F7F0000264C0026394C0000132600131C260000BFFF007FDFFF00007CA5005291A500005F7F003F6F7F0000394C0026424C00001C26001321260000FFFF007FFFFF0000A5A50052A5
310
A500007F7F003F7F7F00004C4C00264C4C00002626001326260000FFBF007FFFDF0000A57C0052A59100007F5F003F7F6F00004C3900264C420000261C001326210000FF7F007FFFBF0000A5520052A57C00007F3F003F7F5F00004C2600264C39000026130013261C0000FF3F007FFF9F0000A5290052A56700007F1F003F
310
7F4F00004C1300264C2F00002609001326170000FF00007FFF7F0000A5000052A55200007F00003F7F3F00004C0000264C260000260000132613003FFF00009FFF7F0029A5000067A552001F7F00004F7F3F00134C00002F4C260009260000172613007FFF0000BFFF7F0052A500007CA552003F7F00005F7F3F00264C0000
310
394C2600132600001C261300BFFF0000DFFF7F007CA5000091A552005F7F00006F7F3F00394C0000424C26001C26000021261300FFFF0000FFFF7F00A5A50000A5A552007F7F00007F7F3F004C4C00004C4C26002626000026261300FFBF0000FFDF7F00A57C0000A59152007F5F00007F6F3F004C3900004C422600261C00
310
0026211300FF7F0000FFBF7F00A5520000A57C52007F3F00007F5F3F004C2600004C39260026130000261C1300FF3F0000FF9F7F00A5290000A56752007F1F00007F4F3F004C1300004C2F26002609000026171300FF000000FF7F7F00A5000000A55252007F0000007F3F3F004C0000004C2626002600000026131300FF00
310
3F00FF7F9F00A5002900A55267007F001F007F3F4F004C0013004C262F002600090026131700FF007F00FF7FBF00A5005200A5527C007F003F007F3F5F004C0026004C2639002600130026131C00FF00BF00FF7FDF00A5007C00A55291007F005F007F3F6F004C0039004C26420026001C0026132100FF00FF00FF7FFF00A5
310
00A500A552A5007F007F007F3F7F004C004C004C264C002600260026132600BF00FF00DF7FFF007C00A5009152A5005F007F006F3F7F0039004C0042264C001C002600211326007F00FF00BF7FFF005200A5007C52A5003F007F005F3F7F0026004C0039264C00130026001C1326003F00FF009F7FFF002900A5006752A500
310
1F007F004F3F7F0013004C002F264C000900260017132600000000002D2D2D005B5B5B0089898900B7B7B700B3B3B30000000000000000000000000000000000000000000000000000000000000000000000000000000000000000000000000000000000000000000000000000000000000000000000000000000000000000
310
00000000000000000000000000000000000000000000000000000000000000000000000000000000000000000000000000000000000000000000000000000000000000000000000000000000000000000000000000000000000000000000000000000000000000000000000000000000000000000000000000000000000000
310
00000000000000000000000000000000000000000000000000000000000000000000000000000000000000000000000000000000000000000000000000000000000000000000000000000000000000000000000000000000000000000000000000000000000000000000000000000000000000000000000000000000000000
310
00000000000000000000000000000000000000000000000000000000000000000000000000000000000000000000000000000000000000000000000000000000000000000000000000000000000000000000000000000000000000000000000000000000000000000000000000000000000000000000000000000000000000
310
00000000000000000000000000000000000000000000000000000000000000000000000000000000000000000000000000000000000000000000000000000000000000000000000000000000000000000000000000000000000000000000000000000000000000000000000000000000000000000000000000000000000000
310
00000000000000000000000000000000000000000000000000000000000000000000000000000000000000000000000000000000000000000000000000000000000000000000000000000000000000000000000000000000000000000000000000000000000000000000000000000000000000000000000000000000000000
310
00000000000000000000000000000000000000000000000000000000000000000000000000000000000000000000000000000000000000000000000000000000000000000000000000000000000000000000000000000000000000000000000000000000000000000000000000000000000000000000000000000000000000
310
00000000000000000000000000000000000000000000000000000000000000000000000000000000000000000000000000000000000000000000000000000000000000000000000000000000000000000000000000000000000000000000000000000000000000000000000000000000000000000000000000000000000000
310
00000000000000000000000000000000000000000000000000000000000000000000000000000000000000000000000000000000000000000000000000000000000000000000000000000000000000000000000000000000000000000000000000000000000000000000000000000000000000000000000000000000000000
310
00000000000000000000000000000000000000000000000000000000000000000000000000000000000000000000000000000000000000000000000000000000000000000000000000000000000000000000000000000000000000000000000000000000000000000000000000000000000000000000000000000000000000
310
00000000000000000000000000000000000000000000000000000000000000000000000000000000000000000000000000000000000000000000000000000000000000000000000000000000000000000000000000000000000000000000000000000000000000000000000000000000000000000000000000000000000000
310
00000000000000000000000000000000000000000000000000000000000000000000000000000000000000000000000000000000000000000000000000000000000000000000000000000000000000000000000000000000000000000000000000000000000000000000000000000000000000000000000000000000000000
310
00000000000000000000000000000000000000000000000000000000000000000000000000000000000000000000000000000000000000000000000000000000000000000000000000000000000000000000000000000000000000000000000000000000000000000000000000000000000000000000000000000000000000
310
00000000000000000000000000000000000000000000000000000000000000000000000000000000000000000000000000000000000000000000000000000000000000000000000000000000000000000000000000000000000000000000000000000000000000000000000000000000000000000000000000000000000000
310
00000000000000000000000000000000000000000000000000000000000000000000000000000000000000000000000000000000000000000000000000000000000000000000000000000000000000000000000000000000000000000000000000000000000000000000000000000000000000000000000000000000000000
310
00000000000000000000000000000000000000000000000000000000000000000000000000000000000000000000000000000000000000000000000000000000000000000000000000000000000000000000000000000000000000000000000000000000000000000000000000000000000000000000000000000000000000
310
00000000000000000000000000000000000000000000000000000000000000000000000000000000000000000000000000000000000000000000000000000000000000000000000000000000000000000000000000000000000000000000000000000000000000000000000000000000000000000000000000000000000000
310
00000000000000000000000000000000000000000000000000000000000000000000000000000000000000000000000000000000000000000000000000000000000000000000000000000000000000000000000000000000000000000000000000000000000000000000000000000000000000000000000000000000000000
310
00000000000000000000000000000000000000000000000000000000000000000000000000000000000000000000000000000000000000000000000000000000000000000000000000000000000000000000000000000000000000000000000000000000000000000000000000000000000000000000000000000000000000
310
00000000000000000000000000000000000000000000000000000000000000000000000000000000000000000000000000000000000000000000000000000000000000000000000000000000000000000000000000000000000000000000000000000000000000000000000000000000000000000000000000000000000000
310
00000000000000000000000000000000000000000000000000000000000000000000000000000000000000000000000000000000000000000000000000000000000000000000000000000000000000000000000000000000000000000000000000000000000000000000000000000000000000000000000000000000000000
310
00000000000000000000000000000000000000000000000000000000000000000000000000000000000000000000000000000000000000000000000000000000000000000000000000000000000000000000000000000000000000000000000000000000000000000000000000000000000000000000000000000000000000
310
00000000000000000000000000000000000000000000000000000000000000000000000000000000000000000000000000000000000000000000000000000000000000000000000000000000000000000000000000000000000000000000000000000000000000000000000000000000000000000000000000000000000000
310
00000000000000000000000000000000000000000000000000000000000000000000000000000000000000000000000000000000000000000000000000000000000000000000000000000000000000000000000000000000000000000000000000000000000000000000000000000000000000000000000000000000000000
310
00000000000000000000000000000000000000000000000000000000000000000000000000000000000000000000000000000000000000000000000000000000000000000000000000000000000000000000000000000000000000000000000000000000000000000000000000000000000000000000000000000000000000
310
00000000000000000000000000000000000000000000000000000000000000000000000000000000000000000000000000000000000000000000000000000000000000000000000000000000000000000000000000000000000000000000000000000000000000000000000000000000000000000000000000000000000000
310
00000000000000000000000000000000000000000000000000000000000000000000000000000000000000000000000000000000000000000000000000000000000000000000000000000000000000000000000000000000000000000000000000000000000000000000000000000000000000000000000000000000000000
310
00000000000000000000000000000000000000000000000000000000000000000000000000000000000000000000000000000000000000000000000000000000000000000000000000000000000000000000000000000000000000000000000000000000000000000000000000000000000000000000000000000000000000
310
00000000000000000000000000000000000000000000000000000000000000000000000000000000000000000000000000000000000000000000000000000000000000000000000000000000000000000000000000000000000000000000000000000000000000000000000000000000000000000000000000000000000000
310
00000000000000000000000000000000000000000000000000000000000000000000000000000000000000000000000000000000000000000000000000000000000000000000000000000000000000000000000000000000000000000000000000000000000000000000000000000000000000000000000000000000000000
310
00000000000000000000000000000000000000000000000000000000000000000000000000000000000000000000000000000000000000000000000000000000000000000000000000000000000000000000000000000000000000000000000007070707070707070707070707070707070707070707070707070707070707
310
07070707070707070707070707070707070707070707070707070707070707070707070707070707070707070707070707070707070707070707070707070707070000000000000000000000000000000000000000000000000000000000000000070000000000000000000000000000000000000000000000000000000000
310
00000000000000000000000000000000000000000000000000000000000000000000000000000000000000000000000000000000000000000000000000000000000700000000000000000000000000000000000000000000000000000000000000000700070707070707000000000707070700000000000707070700000000
310
070707070700000000070707070000000000070707070000000007070707070000000007070707000000000007070707000000000707070700000000000707070700070000000000000000000000000000000000000000000000000000000000000000070007000000FBFBFBFBFBFBFBFBFBFBFBFBFBFBFBFBFBFCFBFBFBFB
310
FBFBFBFBFCFBFBFBFBFBFBFBFBFBFBFBFBFBFBFBFBFBFBFBFBFBFBFBFBFBFBFBFBFBFBFBFBFBFBFBFBFBFBFBFBFBFBFBFBFBFBFBFBFBFBFBFBFBFBFBFBFBFBFBFB0700070000000000000000000000000000000000000000000000000000000000000000070007000000FB0000000000000000FB00000000000000FC000000
310
0000000000FC00000000000000FB00FCFCFCFCFCFCFCFCFCFCFCFCFCFCFCFCFCFCFCFCFCFCFCFCFB00000000000000000000000000000000000000000000000000FB0700070000000000000000000000000000000000000000000000000000000000000000070007000000FCFCFCFCFCFCFCFCFCFBFCFCFCFCFCFCFCFC0000
310
00010101000001010101010101010100FCFCFCFCFCFCFCFC0000FCFCFCFCFCFCFC00FCFC0000FCFCFB00000000000000010001000000000100010101010000000000FB0700070000000000000000000000000000000000000000000000000000000000000000070000000000FB0000000000000000FBFCFCFCFCFC00FCFC00
310
00000100010000010101000100010101FDFD0000FDFDFDFD00FDFDFD00FD00FDFD00FD00FD00FDFDFDFB00000000000000010101010001000100010101010000000000FB0700070000000000000000000000000000000000000000000000000000000000000000070000000000FB0000000000000000FBFCFCFCFCFCFCFCFC
310
0000000100010000FC00000000000000FB00FDFDFDFDFDFDFDFDFD00FD0000FDFDFD00FDFDFDFDFDFDFDFB00000000000000000001000000000000010101010000000000FB0000070000000000000000000000000000000000000000000000000000000000000000070000000000FCFCFCFCFCFCFCFCFCFB00000000000000
310
FC0000000000000000FC00000000000000FB00FDFDFDFDFDFDFDFDFDFDFD00FDFDFDFDFDFDFDFD00FDFDFDFB00000000000000000000000000000000000000000000000000FB0000070000000000000000000000000000000000000000000000000000000000000000070000000000FB0000000000000000FBFCFCFCFCFC00
310
00FCFCFCFCFCFCFCFCFCFCFCFCFCFCFCFC00FB00FD00FDFDFDFDFDFDFDFDFD00FDFDFDFD00FDFD00FD00FDFDFBFCFCFCFCFCFCFCFCFCFCFCFC00000000000000000000000000FB0000070000000000000000000000000000000000000000000000000000000000000000070000000000FCFCFCFCFCFCFCFCFCFBFCFCFCFCFC
310
FCFCFCFCFCFCFCFCFCFCFCFCFCFCFCFCFCFCFCFBFBFBFBFBFBFBFBFBFBFBFBFBFBFBFBFBFBFBFBFBFBFBFBFBFBFBFCFCFCFCFCFCFCFCFCFCFCFCFCFCFCFCFCFCFCFCFCFCFCFCFCFB0000070000000000000000000000000000000000000000000000000000000000000000070007000000FB0000000000000000FB00000000
310
000000FC0000000000000000FC00000000000000FB00010101010101010101010101010101010101010101010101FB00000000000000000000000000000000000000000000000000FB0000070000000000000000000000000000000000000000000000000000000000000000070007000000FCFCFCFCFCFCFCFCFCFB000000
310
00000000FC0000000000000000FC00010101010100FB00010101010101010101010001010101010101010101010001FB00010101010000000101010101000001010101010000010100FB0700070000000000000000000000000000000000000000000000000000000000000000070007000000FB0000000000000000FB0000
310
0000000000FC0000000000000000FC00010101010100FBFCFCFCFCFCFCFCFCFCFCFCFCFCFCFCFCFCFCFCFCFCFCFCFCFCFB00010101010101010101010101000100010101010100000100FB0700070000000000000000000000000000000000000000000000000000000000000000070007000000FCFCFCFCFCFCFCFCFCFB00
310
000000000000FC0000000000000000FC00000000000000FB00000000000000000000000000000000000000000000000000FB00010000000001010100010001000000010101010000000100FB0700070000000000000000000000000000000000000000000000000000000000000000070000000000FB0000000000000000FB
310
FCFCFCFCFCFC00FCFCFCFCFCFCFCFC00FCFCFCFCFC000000FB010101010101010101010101010101010101010101010101010100000000000000000000000000000000000000000000000000FB0700070000000000000000000000000000000000000000000000000000000000000000070000000000FCFCFCFCFC00000000
310
FCFCFCFC00000000FCFCFCFC0000000000FCFCFCFC00000000FB00000000000000000000000000000000000000000000000000FBFCFCFCFCFCFCFCFC0000000000000000000000000000000000FB0000070000000000000000000000000000000000000000000000000000000000000000070000000000FBFBFBFBFBFBFBFB
310
FBFBFBFBFBFBFBFBFBFCFBFBFBFBFBFBFBFBFCFBFBFBFBFBFBFBFBFBFBFBFBFBFBFBFBFBFBFBFBFBFBFBFBFBFBFBFBFBFBFBFBFBFBFBFBFBFBFBFBFBFBFBFBFBFBFBFBFBFBFBFBFBFBFBFBFBFBFBFB0000070000000000000000000000000000000000000000000000000000000000000000070000000000FB000000000000
310
00000000000000000000000000000000000000000000000000000000000000000000000000000000000000000000000000000000000000000000000000000000000000000000000001000000000000FB0000070000000000000000000000000000000000000000000000000000000000000000070007000000FB0000000000
310
0000000000000000000000000000000000000000000000000000000000000000000000000000000000000000000000000000000000000000000000000000000000000000000001010101010000000000FB0000070000000000000000000000000000000000000000000000000000000000000000070007000000FB00000000
310
000000000000000000000000000000000000000000000000000000000000000000000000000000000000000000000000000000000000000000000000000000000000000000000001010101000000000000FB0700070000000000000000000000000000000000000000000000000000000000000000070007000000FB000000
310
00000000000000000000000000000000000000000000000000000000000000000000000000000000000000000000000000000000000000000000000000000000000000000000000000000000000000000000FB0700070000000000000000000000000000000000000000000000000000000000000000070007000000FB0000
310
0000000000000000000000000000000000000000000000000000000000000000000000000000000000000000000000000000000000000000000000000000000000000000000000000000000000000000000000FB0700070000000000000000000000000000000000000000000000000000000000000000070000000000FB00
310
000000000000000000000000000000000000000000000000000000000000000000000000000000000000000000000000000000000000000000000000000001000000000000000000000000000000000000000000FB0700070000000000000000000000000000000000000000000000000000000000000000070000000000FB
310
00000000000000000000000000000000000000000001010101000101010101010101000000000000000000000001010101010101010101010001010101010101000101000101010101000000000000000000000000FB0000070000000000000000000000000000000000000000000000000000000000000000070000000000
310
FB00000000000000000000000000000000000000000000000101010000000101010001000000000000000000000000010101010101010001000001000101010101000101010101010001000000000000000000000000FB00000700000000000000000000000000000000000000000000000000000000000000000700000000
310
00FB00000000000000000000000000000000000000000000000000000000000000000000000000000000000000000000000000000000000000000000000000000000000000000000000000000000000000000000000000FB000007000000000000000000000000000000000000000000000000000000000000000007000700
310
0000FB00000000000000000000000001010101010001010100010101010000010101010001010101010101010100000001010101010101010001010101010001010101010101010000000000000000000000000000000000FB0000070000000000000000000000000000000000000000000000000000000000000000070007
310
000000FB00000000000000000000000000010101010001000100000101010001010100010001010100010101000100000000000001010101010000010101010000000101010101010000000000000000000000000000000000FB07000700000000000000000000000000000000000000000000000000000000000000000700
310
07000000FB00000000000000000000000000000000000000000000000000000000000000000000000000000000000000000000000000000000000000000000000000000000000000000000000000000000000000000000000000FB070007000000000000000000000000000000000000000000000000000000000000000007
310
0007000000FB00000000000000000000000000000000000000000000000000000000000000000000000000000000000000000000000000000000000000000000000000000000000000000000000000000000000000000000000000FB0700070000000000000000000000000000000000000000000000000000000000000000
310
070007000000FB00000000000000000000000000000000000000000000070707070707070707070700000000000000000000000007070707070707070707000000000000000000000000000000000000000000000000000000000000FB07000700000000000000000000000000000000000000000000000000000000000000
310
00070000000000FB00000000000000000000000000000000000000000000070001010007010100010700000000000000000000000007000100000700010107000000000000000000000000000000000000000000000000000000000000FB070007000000000000000000000000000000000000000000000000000000000000
310
0000070000000000FB00000000000000000000000000000000000000000000070001010007010101000700000000000000000000000007000100000700010007000000000000000000000000000000000000000000000000000000000000FB0000070000000000000000000000000000000000000000000000000000000000
310
000000070000000000FB00000000000000000000000000000000000000000000070000010007000100000700000000000000000000000007000000000700000007000000000000000000000000000000000000000000000000000000000000FB00000700000000000000000000000000000000000000000000000000000000
310
00000000070000000000FB00000000000000000000000000000000000000000000070707070707070707070000000000000000000000000007070707070707070700000000000000000000000000000000000000000000000000000000000000FB000007000000000000000000000000000000000000000000000000000000
310
0000000000070007000000FB00000000000000000000000000000000000000000000000000000100000001000000000000000000000000000000010000000101000000000000000000000000000000000000000000000000000000000000000000FB0000070000000000000000000000000000000000000000000000000000
310
000000000000070007000000FB00000000000000000000000000000000000000000000000000000001000000010000000000000000000000000101000000010000000000000000000000000000000000000000000000000000000000000000000000FB07000700000000000000000000000000000000000000000000000000
310
00000000000000070007000000FB00000000000000000000000000000000000000000000000000000000010000000100000000000000000000010000000001000000000000000000000000000000000000000000000000000000000000000000000000FB070007000000000000000000000000000000000000000000000000
310
0000000000000000070007000000FB00000000000000000000000000000000000000000000000000000000000100000001000000000000000001000000010100000000000000000000000000000000000000000000000000000000000000000000000000FB0700070000000000000000000000000000000000000000000000
310
000000000000000000070000000000FB00000000000000000000000000000000000000000000000000000000000001000000010000000000000100000001000000000000000000000000000000000000000000000000000000000000000000000000000000FB07000700000000000000000000000000000000000000000000
310
00000000000000000000070000000000FB00000000000000000000000000000000000000000000000000000000000000010707070107070701010707070107070707070707070707000000000000000000000000000000000000000000000000000000000000FB000007000000000000000000000000000000000000000000
310
0000000000000000000000070000000000FB00000000000000000000000000000000000000000000000000000000000000070107070701070107070701010707070707070707070707070000000000000000000000000000000000000000000000000000000000FB0000070000000000000000000000000000000000000000
310
000000000000000000000000070000000000FB00000000000000000000000000000000000000000000000000000000000000070001000000010000000100070007000000070000000700070000000000000000000000000000000000000000000000000000000000FB00000700000000000000000000000000000000000000
310
00000000000000000000000000070007000000FB00000000000000000000000000000000000000000000000000000000000000070707070007070700070007070700070007070700070707070000000000000000000000000000000000000000000000000000000000FB000007000000000000000000000000000000000000
310
0000000000000000000000000000070007000000FB00000000000000000000000000000000000000000000000000000000000000070707070007070700070707070707070007070700070707070000000000000000000000000000000000000000000000000000000000FB0700070000000000000000000000000000000000
310
000000000000000000000000000000070007000000FB00000000000000000000000000000000000000000000000000000000000000070007000000070000000700070007000000070000000700070000000000000000000000000000000000000000000000000000000000FB07000700000000000000000000000000000000
310
00000000000000000000000000000000070007000000FB00000000000000000000000000000000000000000000000000000000000000070707070707070707070707070707070707070707070707070000000000000000000000000000000000000000000000000000000000FB070007000000000000000000000000000000
310
0000000000000000000000000000000000070000000000FB00000000000000000000000000000000000000000000000000000000000000070000000000000000000007070700000000000000000000070000000000000000000000000000000000000000000000000000000000FB0700070000000000000000000000000000
310
000000000000000000000000000000000000070000000000FB00000000000000000000000000000000000000000000000000000000000000070602020202020202020202020202020202020202020707070000000000000000000000000000000000000000000000000000000000FB00000700000000000000000000000000
310
00000000000000000000000000000000000000070000000000FB00000000000000000000000000000000000000000000000000000000000000070606000007070000000707070707000000070700000707070000000000000000000000000000000000000000000000000000000000FB000007000000000000000000000000
310
0000000000000000000000000000000000000000070000000000FB00000000000000000000000000000000000000000000000000000000000000070000000000000000000007070700000000000000000000070000000000000000000000000000000000000000000000000000000000FB0000070000000000000000000000
310
000000000000000000000000000000000000000000070000000000FB00000000000000000000000000000000000000000000000000000000000000070707070707070707070707070707070707070707070707070000000000000000000000000000000000000000000000000000000000FB00000700000000000000000000
310
00000000000000000000000000000000000000000000070007000000FB00000000000000000000000000000000000000000000000000000000000000000000000000000000000000000000000000000000000000000000000000000000000000000000000000000000000000000000000000FB000007000000000000000000
310
0000000000000000000000000000000000000000000000070007000000FB00000000000000000000000000000000000000000000000000000000000000000100000101000000010100000101000001010000000101000000000000000000000000000000000000000000000000000000000000FB0700070000000000000000
310
000000000000000000000000000000000000000000000000070007000000FB00000000000000000000000000000000000000000000000000000000000000000100000001000000010100000100000001010000000101000000000000000000000000000000000000000000000000000000000000FB07000700000000000000
310
00000000000000000000000000000000000000000000000000070007000000FB00000000000000000000000000000000000000000000000000000000000000000000000001000000000100000000000001000000000000000000000000000000000000000000000000000000000000000000000000FB070007000000000000
310
0000000000000000000000000000000000000000000000000000070000000000FB00000000000000000000000000000000000000000000000000000000000000000000000000000000000000000000000000000000000000000000000000000000000000000000000000000000000000000000000000FB0700070000000000
310
000000000000000000000000000000000000000000000000000000070000000000FB00000000000000000000000000000000000000000000000000000000000000000000000000000000000000000000000000000000000000000000000000000000000000000000000000000000000000000000000000FB00000700000000
310
00000000000000000000000000000000000000000000000000000000070000000000FB00000000000000000000000000000000000000000000000000000000000000000000000000000000000000000000000000000000000000000000000000000000000000000000000000000000000000000000000000FB000007000000
310
0000000000000000000000000000000000000000000000000000000000070000000000FB00000000000000000000000000000000000000000000000000000000000000000000000000000000000000000000000000000000000000000000000000000000000000000000000000000000000000000000000000FB0000070000
310
000000000000000000000000000000000000000000000000000000000000070007000000FB00000000000000000000000000000000000000000000000000000000000000000000000000000000000000000000000000000000000000000000000000000000000000000000000000000000000000000000000000FB00000700
310
00000000000000000000000000000000000000000000000000000000000000070007000000FB00000000000000000000000000000000000000000000000000000000000000000000000000000000000000000000000000000000000000000000000000000000000000000000000000000000000000000000000000FB070007
310
0000000000000000000000000000000000000000000000000000000000000000070007000000FB00000000000000000000000000000000000000000000000000000000000000000000000000000000000000000000000000000000000000000000000000000000000000000000000000000000000000000000000000FB0700
310
070000000000000000000000000000000000000000000000000000000000000000070007000000FB00000000000000000000000000000000000000000000000000000000000000000000000000000000000000000000000000000000000000000000000000000000000000000000000000000000000000000000000000FB07
310
00070000000000000000000000000000000000000000000000000000000000000000070000000000FB00000000000000000000000000000000000000000000000000000000000000000000000000000000000000000000000000000000000000000000000000000000000000000000000000000000000000000000000000FB
310
0700070000000000000000000000000000000000000000000000000000000000000000070000000000FB00000000000000000000000000000000000000000000000000000000000000000000000000000001000000000000000000000000000000000000000000000000000000000000000000000000000000000000000000
310
FB0000070000000000000000000000000000000000000000000000000000000000000000070000000000FB000000000000000000000000000000000000000000000000000000000000000000000000000101010101010101010101010101000000000000000000000000000000000000000000000000000000000000000000
310
00FB0000070000000000000000000000000000000000000000000000000000000000000000070000000000FB0000000000000000000000000000000000000000000000000000000000000000000000000001000000010101010000000000010000000000000000000000000000000000000000000000000000000000000000
310
0000FB0000070000000000000000000000000000000000000000000000000000000000000000070007000000FB00000000000000000000000000000000000000000000000000000000000000000000000000010000000000000000000000000100000000000000000000000000000000000000000000000000000000000000
310
000000FB0000070000000000000000000000000000000000000000000000000000000000000000070007000000FB000000000000000000000000000000000000000000000000000000000000000000000000000100000000000400000000000001000000000000000000000000000000000000000000000000000000000000
310
00000000FB0700070000000000000000000000000000000000000000000000000000000000000000070007000000FB0000000000000000000000000000000000000000000000000000000000000000000000000001000000000004000000000000010000000000000000000000000000000000000000000000000000000000
310
0000000000FB0700070000000000000000000000000000000000000000000000000000000000000000070007000000FB00000000000000000000000000000000000000000000000000000000000000000000000000070707070707040707070707070701010101010101010101010101010101000000000000000000000000
310
000000000000FB0700070000000000000000000000000000000000000000000000000000000000000000070007000000FB000000000000000000000000000000000000000000000000000000000000000000000000000700000000000400000000000007000000000000000000000000000000010000000000000000000000
310
00000000000000FB0700070000000000000000000000000000000000000000000000000000000000000000070000000000FB0000000000000000000000000000000000000000000000000000000000000000000000000007000000000004000000000000070000000000000000000000000000000100000000000000000000
310
0000000000000000FB0700070000000000000000000000000000000000000000000000000000000000000000070000000000FB00000000000000000000000000000000000000000000000000000000000000000000000000070000000000040000000000000700000000000000000000000000000001000000000000000000
310
000000000000000000FB0000070000000000000000000000000000000000000000000000000000000000000000070000000000FB000000000000000000000000000000000000000000000000000000000000000000000000000700000000000400000000000007000000000000000000000000000000010000000000000000
310
00000000000000000000FB0000070000000000000000000000000000000000000000000000000000000000000000070000000000FB0000000000000000000000000000000000000000000000000000000000010101010000000007000000000000000000000000070000000000000000000000000000000100000000000000
310
0000000000000000000000FB0000070000000000000000000000000000000000000000000000000000000000000000070007000000FB00000000000000000000000000000000000000000000000000000000000101000001000000070000000000040000000000000700000000000000000000000000010101000000000000
310
000000000000000000000000FB0000070000000000000000000000000000000000000000000000000000000000000000070007000000FB000000000000000000000000000000000000000000000000000000000001000101010000000700000000000000000000000007000000000000000000000000000101010000000000
310
00000000000000000000000000FB0700070000000000000000000000000000000000000000000000000000000000000000070007000000FB0000000000000000000000000000000000000000000000000000000000000000000001000007000000000004000000000000070000000000000000000000000001010100000000
310
0000000000000000000000000000FB0700070000000000000000000000000000000000000000000000000000000000000000070007000000FB00000000000000000000000000000000000000000000000000000000000000000000000100070000000000040000000000000700000000000000000000000000000001000000
310
000000000000000000000000000000FB0700070000000000000000000000000000000000000000000000000000000000000000070000000000FB000000000000000000000000000000000000000000000000000000000000000000000001000707070707070407070707070707010101010101010101010100000000010000
310
00000000000000000000000000000000FB0700070000000000000000000000000000000000000000000000000000000000000000070000000000FB0000000000000000000000000000000000000000000000000000000000000000000000000107000000000004000000000000070000000000000000000001000000000100
310
0000000000000000000000000000000000FB0000070000000000000000000000000000000000000000000000000000000000000000070000000000FB00000000000000000000000000000000000000000000000000000000000000000000000000010000000000040000000000000700000000000000000101010000000101
310
000000000000000000000000000000000000FB0000070000000000000000000000000000000000000000000000000000000000000000070000000000FB000000000000000000000000000000000000000000000000000000000000000000000000070707070707070407070707070707070000000000000000010100000001
310
01000000000000000000000000000000000000FB0000070000000000000000000000000000000000000000000000000000000000000000070007000000FB0000000000000000000000000000000000000000000000000000000000000000000000070707070707070707070707070707070707010101010101010101010101
310
0101000000000000000000000000000000000000FB0000070000000000000000000000000000000000000000000000000000000000000000070007000000FB00000000000000000101010101010101010101010100000000000000000000000000000700000007000000040000000007000000070000000000000000000000
310
000000000000000000000000000000000000000000FB0700070000000000000000000000000000000000000000000000000000000000000000070007000000FB000000000000000000010001010101010001010001010000000000000000000000000007000000070000000000000000070000000700000000000000000000
310
00000000000000000000000000000000000000000000FB0700070000000000000000000000000000000000000000000000000000000000000000070007000000FB0000000000000000000101010001010100000000010101000000000000000000000000070000000700000004000000000700000007000000000000000000
310
0000000000000000000000000000000000000000000000FB0700070000000000000000000000000000000000000000000000000000000000000000070000000000FB00000000000000000000000000000000000000000000000100000000000000000000000700000007070000040000070707000000070000000000000000
310
000000000000000000000000000000000000000000000000FB0700070000000000000000000000000000000000000000000000000000000000000000070000000000FB000000000000000000000000000000000000000000000000010000000000000000000000070707070707070707070707070707070101010101010101
310
01010101010101000000000000000000000000000000000000FB0000070000000000000000000000000000000000000000000000000000000000000000070000000000FB0000000000000000000000000000000000000000000000000001000000000000000000000007070707070704070707070707070700000000000000
310
0000000000000001000000000000000000000000000000000000FB0000070000000000000000000000000000000000000000000000000000000000000000070000000000FB00000000000000000101010101010101010000000000000000000100000000000000000700000000000000040000000000000000070000000000
310
000000000000000001000000000000000000000000000000000000FB0000070000000000000000000000000000000000000000000000000000000000000000070000000000FB000000000000000001000100010100010001000000000000000000010000000000000700000000000000000400000000000000000700000000
310
00000000000000000001000000000000000000000000000000000000FB0000070000000000000000000000000000000000000000000000000000000000000000070007000000FB0000000000000000000101000101010100000101000000000000000001000000000707070707070707070707070707070707070707070700
310
0000000000000000000001000000000000000000000000000000000000FB0000070000000000000000000000000000000000000000000000000000000000000000070007000000FB00000000000100010000000100010000000000000100000000000000000100070707000000000000000000040000000000000000000007
310
000000000000000000000001000000000000000000000000000000000000FB0700070000000000000000000000000000000000000000000000000000000000000000070000000000FB000000000101010101000101010100000000000000010000000000000000070000000000000000000000000000000000000000000000
310
00000000000000000000000001000000000000000000000000000000000000FB0700070000000000000000000000000000
  0
ENDSEC
  0
EOF
