  0
SECTION
  2
HEADER
  9
$ACADVER
  1
AC1014
  9
$ACADMAINTVER
 70
     9
  9
$DWGCODEPAGE
  3
ANSI_932
  9
$INSBASE
 10
0.0
 20
0.0
 30
0.0
  9
$EXTMIN
 10
599.436051353884
 20
1854.635007053434
 30
0.0
  9
$EXTMAX
 10
1233.805299673164
 20
2261.219044849924
 30
0.0
  9
$LIMMIN
 10
-360.747566795242
 20
4.457354754526
  9
$LIMMAX
 10
-162.153696144267
 20
287.675440264018
  9
$ORTHOMODE
 70
     0
  9
$REGENMODE
 70
     1
  9
$FILLMODE
 70
     1
  9
$QTEXTMODE
 70
     0
  9
$MIRRTEXT
 70
     1
  9
$DRAGMODE
 70
     2
  9
$LTSCALE
 40
1.0
  9
$OSMODE
 70
    32
  9
$ATTMODE
 70
     1
  9
$TEXTSIZE
 40
2.333873885063
  9
$TRACEWID
 40
1.0
  9
$TEXTSTYLE
  7
STANDARD
  9
$CLAYER
  8
寸法線
  9
$CELTYPE
  6
BYLAYER
  9
$CECOLOR
 62
   256
  9
$CELTSCALE
 40
10.0
  9
$DELOBJ
 70
     1
  9
$DISPSILH
 70
     0
  9
$DIMSCALE
 40
1.0
  9
$DIMASZ
 40
6.0
  9
$DIMEXO
 40
0.625
  9
$DIMDLI
 40
3.75
  9
$DIMRND
 40
0.0
  9
$DIMDLE
 40
0.0
  9
$DIMEXE
 40
1.25
  9
$DIMTP
 40
0.1
  9
$DIMTM
 40
0.1
  9
$DIMTXT
 40
8.0
  9
$DIMCEN
 40
2.5
  9
$DIMTSZ
 40
0.0
  9
$DIMTOL
 70
     0
  9
$DIMLIM
 70
     0
  9
$DIMTIH
 70
     0
  9
$DIMTOH
 70
     0
  9
$DIMSE1
 70
     0
  9
$DIMSE2
 70
     0
  9
$DIMTAD
 70
     1
  9
$DIMZIN
 70
     8
  9
$DIMBLK
  1
OPEN30
  9
$DIMASO
 70
     1
  9
$DIMSHO
 70
     1
  9
$DIMPOST
  1

  9
$DIMAPOST
  1

  9
$DIMALT
 70
     0
  9
$DIMALTD
 70
     2
  9
$DIMALTF
 40
0.0394
  9
$DIMLFAC
 40
1.0
  9
$DIMTOFL
 70
     1
  9
$DIMTVP
 40
1.0
  9
$DIMTIX
 70
     0
  9
$DIMSOXD
 70
     0
  9
$DIMSAH
 70
     0
  9
$DIMBLK1
  1

  9
$DIMBLK2
  1

  9
$DIMSTYLE
  2
ISO-25
  9
$DIMCLRD
 70
     0
  9
$DIMCLRE
 70
     0
  9
$DIMCLRT
 70
     0
  9
$DIMTFAC
 40
1.0
  9
$DIMGAP
 40
0.625
  9
$DIMJUST
 70
     0
  9
$DIMSD1
 70
     0
  9
$DIMSD2
 70
     0
  9
$DIMTOLJ
 70
     1
  9
$DIMTZIN
 70
     0
  9
$DIMALTZ
 70
     0
  9
$DIMALTTZ
 70
     0
  9
$DIMFIT
 70
     3
  9
$DIMUPT
 70
     0
  9
$DIMUNIT
 70
     2
  9
$DIMDEC
 70
     1
  9
$DIMTDEC
 70
     1
  9
$DIMALTU
 70
     2
  9
$DIMALTTD
 70
     2
  9
$DIMTXSTY
  7
STANDARD
  9
$DIMAUNIT
 70
     0
  9
$LUNITS
 70
     2
  9
$LUPREC
 70
     4
  9
$SKETCHINC
 40
1.0
  9
$FILLETRAD
 40
6.5
  9
$AUNITS
 70
     0
  9
$AUPREC
 70
     0
  9
$MENU
  1
.
  9
$ELEVATION
 40
0.0
  9
$PELEVATION
 40
0.0
  9
$THICKNESS
 40
0.0
  9
$LIMCHECK
 70
     0
  9
$CHAMFERA
 40
10.0
  9
$CHAMFERB
 40
10.0
  9
$CHAMFERC
 40
20.0
  9
$CHAMFERD
 40
0.0
  9
$SKPOLY
 70
     0
  9
$TDCREATE
 40
2450576.597302431
  9
$TDUPDATE
 40
2457191.655746875
  9
$TDINDWG
 40
1.158771875
  9
$TDUSRTIMER
 40
1.158771875
  9
$USRTIMER
 70
     1
  9
$ANGBASE
 50
0.0
  9
$ANGDIR
 70
     0
  9
$PDMODE
 70
     0
  9
$PDSIZE
 40
0.0
  9
$PLINEWID
 40
0.0
  9
$COORDS
 70
     1
  9
$SPLFRAME
 70
     0
  9
$SPLINETYPE
 70
     6
  9
$SPLINESEGS
 70
     8
  9
$ATTDIA
 70
     0
  9
$ATTREQ
 70
     1
  9
$HANDLING
 70
     1
  9
$HANDSEED
  5
4F8F
  9
$SURFTAB1
 70
     6
  9
$SURFTAB2
 70
     6
  9
$SURFTYPE
 70
     6
  9
$SURFU
 70
     6
  9
$SURFV
 70
     6
  9
$UCSNAME
  2

  9
$UCSORG
 10
0.0
 20
0.0
 30
0.0
  9
$UCSXDIR
 10
1.0
 20
0.0
 30
0.0
  9
$UCSYDIR
 10
0.0
 20
1.0
 30
0.0
  9
$PUCSNAME
  2

  9
$PUCSORG
 10
0.0
 20
0.0
 30
0.0
  9
$PUCSXDIR
 10
1.0
 20
0.0
 30
0.0
  9
$PUCSYDIR
 10
0.0
 20
1.0
 30
0.0
  9
$USERI1
 70
     0
  9
$USERI2
 70
     0
  9
$USERI3
 70
     0
  9
$USERI4
 70
     0
  9
$USERI5
 70
     0
  9
$USERR1
 40
0.0
  9
$USERR2
 40
0.0
  9
$USERR3
 40
0.0
  9
$USERR4
 40
0.0
  9
$USERR5
 40
0.0
  9
$WORLDVIEW
 70
     1
  9
$SHADEDGE
 70
     3
  9
$SHADEDIF
 70
    70
  9
$TILEMODE
 70
     0
  9
$MAXACTVP
 70
    16
  9
$PINSBASE
 10
0.0
 20
0.0
 30
0.0
  9
$PLIMCHECK
 70
     0
  9
$PEXTMIN
 10
4.746305129083
 20
2.870471172517
 30
0.0
  9
$PEXTMAX
 10
404.746305129083
 20
282.870471172517
 30
0.0
  9
$PLIMMIN
 10
-7.007122192383
 20
-7.007118782997
  9
$PLIMMAX
 10
417.718108215332
 20
293.315290427208
  9
$UNITMODE
 70
     0
  9
$VISRETAIN
 70
     0
  9
$PLINEGEN
 70
     0
  9
$PSLTSCALE
 70
     1
  9
$TREEDEPTH
 70
  3020
  9
$PICKSTYLE
 70
     1
  9
$CMLSTYLE
  2
STANDARD
  9
$CMLJUST
 70
     0
  9
$CMLSCALE
 40
1.0
  9
$PROXYGRAPHICS
 70
     1
  9
$MEASUREMENT
 70
     1
  0
ENDSEC
  0
SECTION
  2
CLASSES
  0
CLASS
  1
ACDBDICTIONARYWDFLT
  2
AcDbDictionaryWithDefault
  3
ObjectDBX Classes
 90
        0
280
     0
281
     0
  0
CLASS
  1
ACDBPLACEHOLDER
  2
AcDbPlaceHolder
  3
ObjectDBX Classes
 90
        0
280
     0
281
     0
  0
CLASS
  1
LAYOUT
  2
AcDbLayout
  3
ObjectDBX Classes
 90
        0
280
     0
281
     0
  0
CLASS
  1
VISUALSTYLE
  2
AcDbVisualStyle
  3
ObjectDBX Classes
 90
     4095
280
     0
281
     0
  0
CLASS
  1
SCALE
  2
AcDbScale
  3
ObjectDBX Classes
 90
     1153
280
     0
281
     0
  0
CLASS
  1
MATERIAL
  2
AcDbMaterial
  3
ObjectDBX Classes
 90
     1153
280
     0
281
     0
  0
CLASS
  1
TABLESTYLE
  2
AcDbTableStyle
  3
ObjectDBX Classes
 90
     4095
280
     0
281
     0
  0
CLASS
  1
MLEADERSTYLE
  2
AcDbMLeaderStyle
  3
ACDB_MLEADERSTYLE_CLASS
 90
     4095
280
     0
281
     0
  0
CLASS
  1
SUN
  2
AcDbSun
  3
SCENEOE
 90
     1153
280
     0
281
     0
  0
CLASS
  1
DICTIONARYVAR
  2
AcDbDictionaryVar
  3
ObjectDBX Classes
 90
        0
280
     0
281
     0
  0
CLASS
  1
CELLSTYLEMAP
  2
AcDbCellStyleMap
  3
ObjectDBX Classes
 90
     1152
280
     0
281
     0
  0
CLASS
  1
XRECORD
  2
AcDbXrecord
  3
ObjectDBX Classes
 90
        0
280
     0
281
     0
  0
CLASS
  1
LWPOLYLINE
  2
AcDbPolyline
  3
ObjectDBX Classes
 90
        0
280
     0
281
     1
  0
CLASS
  1
HATCH
  2
AcDbHatch
  3
ObjectDBX Classes
 90
        0
280
     0
281
     1
  0
ENDSEC
  0
SECTION
  2
TABLES
  0
TABLE
  2
VPORT
  5
8
102
{ACAD_XDICTIONARY
360
4F87
102
}
330
0
100
AcDbSymbolTable
 70
     1
  0
VPORT
  5
4B4E
330
8
100
AcDbSymbolTableRecord
100
AcDbViewportTableRecord
  2
*ACTIVE
 70
     0
 10
0.0
 20
0.0
 11
1.0
 21
1.0
 12
879.240176334058
 22
2039.895744306241
 13
0.0
 23
0.0
 14
1.0
 24
1.0
 15
0.0
 25
0.0
 16
0.0
 26
0.0
 36
1.0
 17
0.0
 27
0.0
 37
0.0
 40
578.817886976962
 41
1.914110429448
 42
50.0
 43
0.0
 44
0.0
 50
0.0
 51
0.0
 71
    16
 72
   100
 73
     1
 74
     0
 75
     0
 76
     0
 77
     0
 78
     0
  0
ENDTAB
  0
TABLE
  2
LTYPE
  5
5
330
0
100
AcDbSymbolTable
 70
     4
  0
LTYPE
  5
14
330
5
100
AcDbSymbolTableRecord
100
AcDbLinetypeTableRecord
  2
BYBLOCK
 70
     0
  3

 72
    65
 73
     0
 40
0.0
  0
LTYPE
  5
15
330
5
100
AcDbSymbolTableRecord
100
AcDbLinetypeTableRecord
  2
BYLAYER
 70
     0
  3

 72
    65
 73
     0
 40
0.0
  0
LTYPE
  5
16
330
5
100
AcDbSymbolTableRecord
100
AcDbLinetypeTableRecord
  2
CONTINUOUS
 70
     0
  3
Solid line
 72
    65
 73
     0
 40
0.0
  0
LTYPE
  5
1EC
330
5
100
AcDbSymbolTableRecord
100
AcDbLinetypeTableRecord
  2
CENTER
 70
     0
  3
____ _ ____ _ ____ _ ____ _ ____ _ ____ _ ____ 
 72
    65
 73
     4
 40
2.0
 49
1.25
 74
     0
 49
-0.25
 74
     0
 49
0.25
 74
     0
 49
-0.25
 74
     0
  0
LTYPE
  5
1ED
330
5
100
AcDbSymbolTableRecord
100
AcDbLinetypeTableRecord
  2
DASHED
 70
     0
  3
__ __ __ __ __ __ __ __ __ __ __ __ __ __ __ __
 72
    65
 73
     2
 40
0.75
 49
0.5
 74
     0
 49
-0.25
 74
     0
  0
LTYPE
  5
2B1F
330
5
100
AcDbSymbolTableRecord
100
AcDbLinetypeTableRecord
  2
DASHDOT
 70
     0
  3
一点鎖線
 72
    65
 73
     4
 40
25.6
 49
20.0
 74
     0
 49
-2.0
 74
     0
 49
1.6
 74
     0
 49
-2.0
 74
     0
  0
ENDTAB
  0
TABLE
  2
LAYER
  5
2
102
{ACAD_XDICTIONARY
360
29EA
102
}
330
0
100
AcDbSymbolTable
 70
    13
  0
LAYER
  5
F
330
2
100
AcDbSymbolTableRecord
100
AcDbLayerTableRecord
  2
0
 70
     0
 62
     7
  6
CONTINUOUS
  0
LAYER
  5
61
330
2
100
AcDbSymbolTableRecord
100
AcDbLayerTableRecord
  2
図枠太線
 70
     0
 62
   251
  6
CONTINUOUS
  0
LAYER
  5
62
330
2
100
AcDbSymbolTableRecord
100
AcDbLayerTableRecord
  2
図枠細線
 70
     0
 62
   252
  6
CONTINUOUS
  0
LAYER
  5
63
330
2
100
AcDbSymbolTableRecord
100
AcDbLayerTableRecord
  2
図枠ロゴマーク
 70
     0
 62
   253
  6
CONTINUOUS
  0
LAYER
  5
1EF
330
2
100
AcDbSymbolTableRecord
100
AcDbLayerTableRecord
  2
外形線
 70
     0
 62
     7
  6
CONTINUOUS
  0
LAYER
  5
1F0
330
2
100
AcDbSymbolTableRecord
100
AcDbLayerTableRecord
  2
寸法線
 70
     0
 62
     1
  6
CONTINUOUS
  0
LAYER
  5
1F1
330
2
100
AcDbSymbolTableRecord
100
AcDbLayerTableRecord
  2
中心線
 70
     0
 62
     4
  6
CENTER
  0
LAYER
  5
1F4
330
2
100
AcDbSymbolTableRecord
100
AcDbLayerTableRecord
  2
DEFPOINTS
 70
     0
 62
     7
  6
CONTINUOUS
  0
LAYER
  5
2AA2
330
2
100
AcDbSymbolTableRecord
100
AcDbLayerTableRecord
  2
下書線
 70
     0
 62
     2
  6
CONTINUOUS
  0
LAYER
  5
2AA3
330
2
100
AcDbSymbolTableRecord
100
AcDbLayerTableRecord
  2
隠れ線
 70
     0
 62
     3
  6
DASHED
  0
LAYER
  5
2AA4
330
2
100
AcDbSymbolTableRecord
100
AcDbLayerTableRecord
  2
細線
 70
     0
 62
     6
  6
CONTINUOUS
  0
LAYER
  5
2AA5
330
2
100
AcDbSymbolTableRecord
100
AcDbLayerTableRecord
  2
太線
 70
     0
 62
   190
  6
CONTINUOUS
  0
LAYER
  5
2B20
330
2
100
AcDbSymbolTableRecord
100
AcDbLayerTableRecord
  2
LAY-1
 70
     0
 62
     7
  6
CONTINUOUS
  0
ENDTAB
  0
TABLE
  2
STYLE
  5
3
330
0
100
AcDbSymbolTable
 70
     3
  0
STYLE
  5
10
330
3
100
AcDbSymbolTableRecord
100
AcDbTextStyleTableRecord
  2
STANDARD
 70
     0
 40
0.0
 41
1.0
 50
0.0
 71
     0
 42
2.333873885063
  3
ISOCP
  4
bigfont.shx
  0
STYLE
  5
64
330
3
100
AcDbSymbolTableRecord
100
AcDbTextStyleTableRecord
  2
EXCADSTD
 70
     0
 40
0.0
 41
1.0
 50
0.0
 71
     0
 42
0.2
  3
monotxt
  4
bigfont
  0
STYLE
  5
2B21
330
3
100
AcDbSymbolTableRecord
100
AcDbTextStyleTableRecord
  2
EXCADVERT
 70
     4
 40
0.0
 41
1.0
 50
0.0
 71
     0
 42
0.286885
  3
monotxt
  4
bigfont
  0
ENDTAB
  0
TABLE
  2
VIEW
  5
6
330
0
100
AcDbSymbolTable
 70
     0
  0
ENDTAB
  0
TABLE
  2
UCS
  5
7
330
0
100
AcDbSymbolTable
 70
     0
  0
ENDTAB
  0
TABLE
  2
APPID
  5
9
330
0
100
AcDbSymbolTable
 70
     3
  0
APPID
  5
11
330
9
100
AcDbSymbolTableRecord
100
AcDbRegAppTableRecord
  2
ACAD
 70
     0
  0
APPID
  5
4EFA
330
9
100
AcDbSymbolTableRecord
100
AcDbRegAppTableRecord
  2
ACADANNOTATIVE
 70
     0
  0
APPID
  5
4F57
330
9
100
AcDbSymbolTableRecord
100
AcDbRegAppTableRecord
  2
ACAD_MLEADERVER
 70
     0
  0
ENDTAB
  0
TABLE
  2
DIMSTYLE
  5
A
330
0
100
AcDbSymbolTable
 70
     5
  0
DIMSTYLE
105
1D
330
A
100
AcDbSymbolTableRecord
100
AcDbDimStyleTableRecord
  2
STANDARD
 70
     0
  3

  4

  5

  6

  7

 40
1.0
 41
0.18
 42
0.0625
 43
0.38
 44
0.18
 45
0.0
 46
0.0
 47
0.0
 48
0.0
140
0.18
141
0.09
142
0.0
143
25.4
144
1.0
145
0.0
146
1.0
147
0.09
 71
     0
 72
     0
 73
     1
 74
     1
 75
     0
 76
     0
 77
     0
 78
     0
170
     0
171
     2
172
     0
173
     0
174
     0
175
     0
176
     0
177
     0
178
     0
270
     2
271
     4
272
     4
273
     2
274
     2
340
10
275
     0
280
     0
281
     0
282
     0
283
     1
284
     0
285
     0
286
     0
287
     3
288
     0
  0
DIMSTYLE
105
24
102
{ACAD_REACTORS
330
496C
330
4972
330
4973
330
4989
330
498D
330
498E
330
498F
330
4DDF
330
4DF5
330
4DF6
330
4DFE
102
}
330
A
100
AcDbSymbolTableRecord
100
AcDbDimStyleTableRecord
  2
ISO-25
 70
     0
  3

  4

  5

  6

  7

 40
1.0
 41
2.5
 42
0.625
 43
3.75
 44
1.25
 45
0.0
 46
0.0
 47
0.0
 48
0.0
140
2.5
141
2.5
142
0.0
143
0.0394
144
1.0
145
1.0
146
1.0
147
0.625
 71
     0
 72
     0
 73
     1
 74
     0
 75
     0
 76
     0
 77
     1
 78
     8
170
     0
171
     2
172
     1
173
     0
174
     0
175
     0
176
     0
177
     0
178
     0
270
     2
271
     4
272
     4
273
     2
274
     2
340
10
275
     0
280
     0
281
     0
282
     0
283
     1
284
     0
285
     0
286
     0
287
     3
288
     0
  0
DIMSTYLE
105
3F2C
330
A
100
AcDbSymbolTableRecord
100
AcDbDimStyleTableRecord
  2
文字5ＰＴ
 70
     0
  3

  4

  5
OPEN30
  6

  7

 40
1.0
 41
6.0
 42
0.625
 43
3.75
 44
1.25
 45
0.0
 46
0.0
 47
0.1
 48
0.1
140
5.0
141
2.5
142
0.0
143
0.0394
144
1.0
145
1.0
146
1.0
147
0.625
 71
     0
 72
     0
 73
     0
 74
     0
 75
     0
 76
     0
 77
     1
 78
     8
170
     0
171
     2
172
     1
173
     0
174
     0
175
     0
176
     0
177
     0
178
     0
270
     2
271
     1
272
     1
273
     2
274
     2
340
10
275
     0
280
     0
281
     0
282
     0
283
     1
284
     0
285
     0
286
     0
287
     3
288
     0
  0
DIMSTYLE
105
3F2D
330
A
100
AcDbSymbolTableRecord
100
AcDbDimStyleTableRecord
  2
文字8ＰＴ
 70
     0
  3

  4

  5
OPEN30
  6

  7

 40
1.0
 41
6.0
 42
0.625
 43
3.75
 44
1.25
 45
0.0
 46
0.0
 47
0.1
 48
0.1
140
8.0
141
2.5
142
0.0
143
0.0394
144
1.0
145
1.0
146
1.0
147
0.625
 71
     0
 72
     0
 73
     0
 74
     0
 75
     0
 76
     0
 77
     1
 78
     8
170
     0
171
     2
172
     1
173
     0
174
     0
175
     0
176
     0
177
     0
178
     0
270
     2
271
     1
272
     1
273
     2
274
     2
340
10
275
     0
280
     0
281
     0
282
     0
283
     1
284
     0
285
     0
286
     0
287
     3
288
     0
  0
DIMSTYLE
105
3F2E
330
A
100
AcDbSymbolTableRecord
100
AcDbDimStyleTableRecord
  2
文字10ＰＴ
 70
     0
  3

  4

  5
OPEN30
  6

  7

 40
1.0
 41
6.0
 42
0.625
 43
3.75
 44
1.25
 45
0.0
 46
0.0
 47
0.1
 48
0.1
140
10.0
141
2.5
142
0.0
143
0.0394
144
1.0
145
1.0
146
1.0
147
0.625
 71
     0
 72
     0
 73
     0
 74
     0
 75
     0
 76
     0
 77
     1
 78
     8
170
     0
171
     2
172
     1
173
     0
174
     0
175
     0
176
     0
177
     0
178
     0
270
     2
271
     1
272
     1
273
     2
274
     2
340
10
275
     0
280
     0
281
     0
282
     0
283
     1
284
     0
285
     0
286
     0
287
     3
288
     0
  0
ENDTAB
  0
TABLE
  2
BLOCK_RECORD
  5
1
330
0
100
AcDbSymbolTable
 70
    56
  0
BLOCK_RECORD
  5
1A
330
1
100
AcDbSymbolTableRecord
100
AcDbBlockTableRecord
  2
*MODEL_SPACE
  0
BLOCK_RECORD
  5
28FB
330
1
100
AcDbSymbolTableRecord
100
AcDbBlockTableRecord
  2
*PAPER_SPACE
  0
BLOCK_RECORD
  5
65
330
1
100
AcDbSymbolTableRecord
100
AcDbBlockTableRecord
  2
A$C3392
  0
BLOCK_RECORD
  5
29BF
330
1
100
AcDbSymbolTableRecord
100
AcDbBlockTableRecord
  2
A4横用_タイトル
1001
ACAD
1000
DesignCenter Data
1002
{
1070
     1
1070
     4
1002
}
  0
BLOCK_RECORD
  5
29F4
330
1
100
AcDbSymbolTableRecord
100
AcDbBlockTableRecord
  2
A4縦用_タイトル
1001
ACAD
1000
DesignCenter Data
1002
{
1070
     1
1070
     4
1002
}
  0
BLOCK_RECORD
  5
2A32
330
1
100
AcDbSymbolTableRecord
100
AcDbBlockTableRecord
  2
A3横用_タイトル
1001
ACAD
1000
DesignCenter Data
1002
{
1070
     1
1070
     4
1002
}
  0
BLOCK_RECORD
  5
2A6C
330
1
100
AcDbSymbolTableRecord
100
AcDbBlockTableRecord
  2
A3縦用_タイトル
1001
ACAD
1000
DesignCenter Data
1002
{
1070
     1
1070
     4
1002
}
  0
BLOCK_RECORD
  5
2AF4
330
1
100
AcDbSymbolTableRecord
100
AcDbBlockTableRecord
  2
_OPEN30
  0
BLOCK_RECORD
  5
2E69
330
1
100
AcDbSymbolTableRecord
100
AcDbBlockTableRecord
  2
ケース外形図_HL-100
  0
BLOCK_RECORD
  5
2EB5
330
1
100
AcDbSymbolTableRecord
100
AcDbBlockTableRecord
  2
パドル_W1
  0
BLOCK_RECORD
  5
2EE5
330
1
100
AcDbSymbolTableRecord
100
AcDbBlockTableRecord
  2
パドル_W1立面図
  0
BLOCK_RECORD
  5
2F55
330
1
100
AcDbSymbolTableRecord
100
AcDbBlockTableRecord
  2
*D9
  0
BLOCK_RECORD
  5
2F61
330
1
100
AcDbSymbolTableRecord
100
AcDbBlockTableRecord
  2
*D10
  0
BLOCK_RECORD
  5
2F6D
330
1
100
AcDbSymbolTableRecord
100
AcDbBlockTableRecord
  2
*D11
  0
BLOCK_RECORD
  5
2F7B
330
1
100
AcDbSymbolTableRecord
100
AcDbBlockTableRecord
  2
A$C7CD60800
  0
BLOCK_RECORD
  5
32DA
330
1
100
AcDbSymbolTableRecord
100
AcDbBlockTableRecord
  2
ケース外形図_HL-170
  0
BLOCK_RECORD
  5
39DB
330
1
100
AcDbSymbolTableRecord
100
AcDbBlockTableRecord
  2
ケース外形図_PRL-101-LONG-Fなし
  0
BLOCK_RECORD
  5
3ACE
330
1
100
AcDbSymbolTableRecord
100
AcDbBlockTableRecord
  2
A$C480F1F2B
  0
BLOCK_RECORD
  5
3D69
330
1
100
AcDbSymbolTableRecord
100
AcDbBlockTableRecord
  2
A$C33ED5A0F
  0
BLOCK_RECORD
  5
3DCC
330
1
100
AcDbSymbolTableRecord
100
AcDbBlockTableRecord
  2
パドル_V4
  0
BLOCK_RECORD
  5
3DE2
330
1
100
AcDbSymbolTableRecord
100
AcDbBlockTableRecord
  2
パドル_V4立面図
  0
BLOCK_RECORD
  5
4472
330
1
100
AcDbSymbolTableRecord
100
AcDbBlockTableRecord
  2
パドル_S3
  0
BLOCK_RECORD
  5
44B0
330
1
100
AcDbSymbolTableRecord
100
AcDbBlockTableRecord
  2
パドル_S3立面図
  0
BLOCK_RECORD
  5
4990
330
1
100
AcDbSymbolTableRecord
100
AcDbBlockTableRecord
  2
*D21
  0
BLOCK_RECORD
  5
49AC
330
1
100
AcDbSymbolTableRecord
100
AcDbBlockTableRecord
  2
*D23
  0
BLOCK_RECORD
  5
49B8
330
1
100
AcDbSymbolTableRecord
100
AcDbBlockTableRecord
  2
*D24
  0
BLOCK_RECORD
  5
49DC
330
1
100
AcDbSymbolTableRecord
100
AcDbBlockTableRecord
  2
*D27
  0
BLOCK_RECORD
  5
4A0C
330
1
100
AcDbSymbolTableRecord
100
AcDbBlockTableRecord
  2
*D31
  0
BLOCK_RECORD
  5
4A18
330
1
100
AcDbSymbolTableRecord
100
AcDbBlockTableRecord
  2
*D32
  0
BLOCK_RECORD
  5
4A24
330
1
100
AcDbSymbolTableRecord
100
AcDbBlockTableRecord
  2
*D33
  0
BLOCK_RECORD
  5
4E6F
330
1
100
AcDbSymbolTableRecord
100
AcDbBlockTableRecord
  2
*D46
  0
BLOCK_RECORD
  5
4E95
330
1
100
AcDbSymbolTableRecord
100
AcDbBlockTableRecord
  2
*D49
  0
BLOCK_RECORD
  5
4EA1
330
1
100
AcDbSymbolTableRecord
100
AcDbBlockTableRecord
  2
*D50
  0
BLOCK_RECORD
  5
4EE2
330
1
100
AcDbSymbolTableRecord
100
AcDbBlockTableRecord
  2
*D55
  0
ENDTAB
  0
ENDSEC
  0
SECTION
  2
BLOCKS
  0
BLOCK
  5
1B
330
1A
100
AcDbEntity
  8
0
100
AcDbBlockBegin
  2
*MODEL_SPACE
 70
     0
 10
0.0
 20
0.0
 30
0.0
  3
*MODEL_SPACE
  1

  0
ENDBLK
  5
1C
330
1A
100
AcDbEntity
  8
0
100
AcDbBlockEnd
  0
BLOCK
  5
28FD
330
28FB
100
AcDbEntity
 67
     1
  8
0
 48
10.0
100
AcDbBlockBegin
  2
*PAPER_SPACE
 70
     0
 10
0.0
 20
0.0
 30
0.0
  3
*PAPER_SPACE
  1

  0
ENDBLK
  5
28FE
330
28FB
100
AcDbEntity
 67
     1
  8
0
 48
10.0
100
AcDbBlockEnd
  0
BLOCK
  5
93
330
65
100
AcDbEntity
  8
0
100
AcDbBlockBegin
  2
A$C3392
 70
     0
 10
0.0
 20
0.0
 30
0.0
  3
A$C3392
  1
A$C3392
  0
LINE
  5
66
330
65
100
AcDbEntity
  8
図枠太線
  6
CONTINUOUS
100
AcDbLine
 10
211.858584505185
 20
30.927375675439
 30
0.0
 11
211.858584505185
 21
0.927375675439
 31
0.0
  0
LINE
  5
67
330
65
100
AcDbEntity
  8
図枠細線
  6
CONTINUOUS
100
AcDbLine
 10
231.858592505185
 20
15.927377675439
 30
0.0
 11
287.858592505185
 21
15.927375675439
 31
0.0
  0
LINE
  5
68
330
65
100
AcDbEntity
  8
図枠細線
  6
CONTINUOUS
100
AcDbLine
 10
211.858592505185
 20
15.927377675439
 30
0.0
 11
231.858592505185
 21
15.927377675439
 31
0.0
  0
LINE
  5
69
330
65
100
AcDbEntity
  8
図枠太線
  6
CONTINUOUS
 62
   251
100
AcDbLine
 10
1.858584505185
 20
0.927375675439
 30
0.0
 11
1.858584505185
 21
275.927375675439
 31
0.0
  0
TEXT
  5
6A
330
65
100
AcDbEntity
  8
図枠細線
  6
CONTINUOUS
 62
   252
100
AcDbText
 10
351.358592505185
 20
28.427377675439
 30
0.0
 40
2.0
  1
ＴＩＴＬＥ
 41
0.903614457831
  7
EXCADSTD
 72
     5
 11
361.358592505185
 21
28.427377675439
 31
0.0
100
AcDbText
  0
TEXT
  5
6B
330
65
100
AcDbEntity
  8
図枠細線
  6
CONTINUOUS
 62
   252
100
AcDbText
 10
345.358592505185
 20
28.427377675439
 30
0.0
 40
2.0
  1
名称
 41
1.171875
  7
EXCADSTD
 72
     5
 11
350.358592505185
 21
28.427377675439
 31
0.0
100
AcDbText
  0
TEXT
  5
6C
330
65
100
AcDbEntity
  8
図枠細線
  6
CONTINUOUS
 62
   252
100
AcDbText
 10
274.358592505185
 20
25.927377675439
 30
0.0
 40
2.0
  1
ＤＲＡＷＮ
 41
0.882352941176
  7
EXCADSTD
 72
     5
 11
284.358592505185
 21
25.927377675439
 31
0.0
100
AcDbText
  0
TEXT
  5
6D
330
65
100
AcDbEntity
  8
図枠細線
  6
CONTINUOUS
 62
   252
100
AcDbText
 10
260.358592505185
 20
25.927377675439
 30
0.0
 40
2.0
  1
ＤＥＳＩＧＮＥＤ
 41
0.713043472041
  7
EXCADSTD
 72
     5
 11
273.478592390744
 21
25.927377675439
 31
0.0
100
AcDbText
  0
TEXT
  5
6E
330
65
100
AcDbEntity
  8
図枠細線
  6
CONTINUOUS
 62
   252
100
AcDbText
 10
246.358592505185
 20
25.927377675439
 30
0.0
 40
2.0
  1
ＣＨＥＣＫＥＤ
 41
0.831249989569
  7
EXCADSTD
 72
     5
 11
259.658592338292
 21
25.927377675439
 31
0.0
100
AcDbText
  0
TEXT
  5
6F
330
65
100
AcDbEntity
  8
図枠細線
  6
CONTINUOUS
 62
   252
100
AcDbText
 10
274.358592505185
 20
28.427377675439
 30
0.0
 40
2.0
  1
製図
 41
1.209677419355
  7
EXCADSTD
 72
     5
 11
279.358592505185
 21
28.427377675439
 31
0.0
100
AcDbText
  0
TEXT
  5
70
330
65
100
AcDbEntity
  8
図枠細線
  6
CONTINUOUS
 62
   252
100
AcDbText
 10
260.358592505185
 20
28.427377675439
 30
0.0
 40
2.0
  1
設計
 41
1.171875
  7
EXCADSTD
 72
     5
 11
265.358592505185
 21
28.427377675439
 31
0.0
100
AcDbText
  0
TEXT
  5
71
330
65
100
AcDbEntity
  8
図枠細線
  6
CONTINUOUS
 62
   252
100
AcDbText
 10
246.358592505185
 20
28.427377675439
 30
0.0
 40
2.0
  1
検図
 41
1.209677419355
  7
EXCADSTD
 72
     5
 11
251.358592505185
 21
28.427377675439
 31
0.0
100
AcDbText
  0
TEXT
  5
72
330
65
100
AcDbEntity
  8
図枠細線
  6
CONTINUOUS
 62
   252
100
AcDbText
 10
232.358592505185
 20
25.927377675439
 30
0.0
 40
2.0
  1
ＡＰＰＲＯＶＥＤ
 41
0.695652184279
  7
EXCADSTD
 72
     5
 11
245.15859269592
 21
25.927377675439
 31
0.0
100
AcDbText
  0
TEXT
  5
73
330
65
100
AcDbEntity
  8
図枠細線
  6
CONTINUOUS
 62
   252
100
AcDbText
 10
232.358592505185
 20
28.427377675439
 30
0.0
 40
2.0
  1
承認
 41
1.171875
  7
EXCADSTD
 72
     5
 11
237.358592505185
 21
28.427377675439
 31
0.0
100
AcDbText
  0
TEXT
  5
74
330
65
100
AcDbEntity
  8
図枠細線
  6
CONTINUOUS
 62
   252
100
AcDbText
 10
290.069888505185
 20
2.574868675439
 30
0.0
 40
3.5
  1
ＴＯＷＡ　ＳＥＩＤＥＮ　ＩＮＤＵＳＴＲＩＡＬ　ＣＯ．，ＬＴＤ．
 41
0.414568012377
  7
EXCADSTD
 72
     5
 11
342.692388209546
 21
2.574868675439
 31
0.0
100
AcDbText
  0
TEXT
  5
75
330
65
100
AcDbEntity
  8
図枠ロゴマーク
  6
CONTINUOUS
 62
   253
100
AcDbText
 10
290.107348505185
 20
7.519769675439
 30
0.0
 40
7.0
  1
東和制電工業株式会社
 41
0.639204545455
  7
EXCADSTD
 72
     5
 11
342.607348505185
 21
7.519769675439
 31
0.0
100
AcDbText
  0
TEXT
  5
76
330
65
100
AcDbEntity
  8
図枠細線
  6
CONTINUOUS
 62
   252
100
AcDbText
 10
232.499705505185
 20
5.759088675439
 30
0.0
 40
2.0
  1
ＰＲＯＪＥＣＴＩＯＮ
 41
0.754285710199
  7
EXCADSTD
 72
     5
 11
250.099705409817
 21
5.759088675439
 31
0.0
100
AcDbText
  0
TEXT
  5
77
330
65
100
AcDbEntity
  8
図枠細線
  6
CONTINUOUS
 62
   252
100
AcDbText
 10
232.574629505185
 20
8.681077675439
 30
0.0
 40
2.0
  1
ＴＨＩＲＤ　ＡＮＧＬＥ
 41
0.691099486738
  7
EXCADSTD
 72
     5
 11
250.174629767445
 21
8.681077675439
 31
0.0
100
AcDbText
  0
TEXT
  5
78
330
65
100
AcDbEntity
  8
図枠細線
  6
CONTINUOUS
 62
   252
100
AcDbText
 10
256.823999505185
 20
13.427377675439
 30
0.0
 40
2.0
  1
ＳＣＡＬＥ
 41
0.903614457831
  7
EXCADSTD
 72
     5
 11
266.823999505185
 21
13.427377675439
 31
0.0
100
AcDbText
  0
TEXT
  5
79
330
65
100
AcDbEntity
  8
図枠細線
  6
CONTINUOUS
 62
   252
100
AcDbText
 10
274.858592505185
 20
13.427377675439
 30
0.0
 40
2.0
  1
ＤＡＴＥ
 41
0.923076923077
  7
EXCADSTD
 72
     5
 11
282.858592505185
 21
13.427377675439
 31
0.0
100
AcDbText
  0
TEXT
  5
7A
330
65
100
AcDbEntity
  8
図枠細線
  6
CONTINUOUS
 62
   252
100
AcDbText
 10
356.358592505185
 20
13.427377675439
 30
0.0
 40
2.0
  1
ＤＲＧ．ＮＯ．
 41
0.9375
  7
EXCADSTD
 72
     5
 11
370.358592505185
 21
13.427377675439
 31
0.0
100
AcDbText
  0
TEXT
  5
7B
330
65
100
AcDbEntity
  8
図枠細線
  6
CONTINUOUS
 62
   252
100
AcDbText
 10
345.358592505185
 20
13.427377675439
 30
0.0
 40
2.0
  1
図面番号
 41
1.102941176471
  7
EXCADSTD
 72
     5
 11
355.358592505185
 21
13.427377675439
 31
0.0
100
AcDbText
  0
TEXT
  5
7C
330
65
100
AcDbEntity
  8
図枠細線
  6
CONTINUOUS
 62
   252
100
AcDbText
 10
269.358592505185
 20
13.427377675439
 30
0.0
 40
2.0
  1
日付
 41
1.171875
  7
EXCADSTD
 72
     5
 11
274.358592505185
 21
13.427377675439
 31
0.0
100
AcDbText
  0
TEXT
  5
7D
330
65
100
AcDbEntity
  8
図枠細線
  6
CONTINUOUS
 62
   252
100
AcDbText
 10
251.451512505185
 20
13.427377675439
 30
0.0
 40
2.0
  1
尺度
 41
1.171875
  7
EXCADSTD
 72
     5
 11
256.451512505185
 21
13.427377675439
 31
0.0
100
AcDbText
  0
TEXT
  5
7E
330
65
100
AcDbEntity
  8
図枠細線
  6
CONTINUOUS
 62
   252
100
AcDbText
 10
232.358592505185
 20
13.427377675439
 30
0.0
 40
2.0
  1
第三角法
 41
1.102941176471
  7
EXCADSTD
 72
     5
 11
242.358592505185
 21
13.427377675439
 31
0.0
100
AcDbText
  0
TEXT
  5
7F
330
65
100
AcDbEntity
  8
図枠細線
  6
CONTINUOUS
 62
   252
100
AcDbText
 10
212.358592505185
 20
28.427377675439
 30
0.0
 40
2.0
  1
ＮＯＴＥ
 41
0.923076923077
  7
EXCADSTD
 72
     5
 11
220.358592505185
 21
28.427377675439
 31
0.0
100
AcDbText
  0
LINE
  5
80
330
65
100
AcDbEntity
  8
図枠細線
  6
CONTINUOUS
 62
   252
100
AcDbLine
 10
287.858592505185
 20
23.427375675439
 30
0.0
 11
344.858592505185
 21
23.427375675439
 31
0.0
  0
LINE
  5
81
330
65
100
AcDbEntity
  8
図枠太線
  6
CONTINUOUS
 62
   251
100
AcDbLine
 10
287.858584505185
 20
15.927375675439
 30
0.0
 11
344.858592505185
 21
15.927375675439
 31
0.0
  0
LINE
  5
82
330
65
100
AcDbEntity
  8
図枠細線
  6
CONTINUOUS
 62
   252
100
AcDbLine
 10
344.858592505185
 20
15.927375675439
 30
0.0
 11
401.858584505185
 21
15.927375675439
 31
0.0
  0
LINE
  5
83
330
65
100
AcDbEntity
  8
図枠太線
  6
CONTINUOUS
 62
   251
100
AcDbLine
 10
344.858592505185
 20
0.927377675439
 30
0.0
 11
344.858592505185
 21
30.927375675439
 31
0.0
  0
LINE
  5
84
330
65
100
AcDbEntity
  8
図枠太線
  6
CONTINUOUS
 62
   251
100
AcDbLine
 10
287.858592505185
 20
0.927377675439
 30
0.0
 11
287.858592505185
 21
30.927375675439
 31
0.0
  0
LINE
  5
85
330
65
100
AcDbEntity
  8
図枠細線
  6
CONTINUOUS
 62
   252
100
AcDbLine
 10
268.858592505185
 20
0.927377675439
 30
0.0
 11
268.858592505185
 21
15.927375675439
 31
0.0
  0
LINE
  5
86
330
65
100
AcDbEntity
  8
図枠細線
  6
CONTINUOUS
 62
   252
100
AcDbLine
 10
250.858592505185
 20
0.927377675439
 30
0.0
 11
250.858592505185
 21
15.927375675439
 31
0.0
  0
LINE
  5
87
330
65
100
AcDbEntity
  8
図枠細線
  6
CONTINUOUS
 62
   252
100
AcDbLine
 10
273.858592505185
 20
30.927375675439
 30
0.0
 11
273.858592505185
 21
15.927375675439
 31
0.0
  0
LINE
  5
88
330
65
100
AcDbEntity
  8
図枠細線
  6
CONTINUOUS
 62
   252
100
AcDbLine
 10
259.858592505185
 20
30.927375675439
 30
0.0
 11
259.858592505185
 21
15.927375675439
 31
0.0
  0
LINE
  5
89
330
65
100
AcDbEntity
  8
図枠細線
  6
CONTINUOUS
 62
   252
100
AcDbLine
 10
245.858592505185
 20
30.927375675439
 30
0.0
 11
245.858592505185
 21
15.927375675439
 31
0.0
  0
LINE
  5
8A
330
65
100
AcDbEntity
  8
図枠太線
  6
CONTINUOUS
 62
   251
100
AcDbLine
 10
231.858592505185
 20
0.927377675439
 30
0.0
 11
231.858592505185
 21
30.927375675439
 31
0.0
  0
LINE
  5
8B
330
65
100
AcDbEntity
  8
図枠細線
  6
CONTINUOUS
 62
   252
100
AcDbLine
 10
211.858592505185
 20
25.927375675439
 30
0.0
 11
231.858592505185
 21
25.927375675439
 31
0.0
  0
LINE
  5
8C
330
65
100
AcDbEntity
  8
図枠細線
  6
CONTINUOUS
 62
   252
100
AcDbLine
 10
211.858592505185
 20
20.927375675439
 30
0.0
 11
231.858592505185
 21
20.927375675439
 31
0.0
  0
LINE
  5
8D
330
65
100
AcDbEntity
  8
図枠細線
  6
CONTINUOUS
 62
   252
100
AcDbLine
 10
211.858592505185
 20
10.927375675439
 30
0.0
 11
231.858592505185
 21
10.927375675439
 31
0.0
  0
LINE
  5
8E
330
65
100
AcDbEntity
  8
図枠細線
  6
CONTINUOUS
 62
   252
100
AcDbLine
 10
211.858592505185
 20
5.927377675439
 30
0.0
 11
231.858592505185
 21
5.927377675439
 31
0.0
  0
LINE
  5
8F
330
65
100
AcDbEntity
  8
図枠太線
  6
CONTINUOUS
 62
   251
100
AcDbLine
 10
211.858592505185
 20
30.927375675439
 30
0.0
 11
401.858584505185
 21
30.927375675439
 31
0.0
  0
LINE
  5
90
330
65
100
AcDbEntity
  8
図枠太線
  6
CONTINUOUS
 62
   251
100
AcDbLine
 10
1.858584505185
 20
275.927375675439
 30
0.0
 11
401.858584505185
 21
275.927375675439
 31
0.0
  0
LINE
  5
91
330
65
100
AcDbEntity
  8
図枠太線
  6
CONTINUOUS
 62
   251
100
AcDbLine
 10
401.858584505185
 20
0.927375675439
 30
0.0
 11
401.858584505185
 21
275.927375675439
 31
0.0
  0
LINE
  5
92
330
65
100
AcDbEntity
  8
図枠太線
  6
CONTINUOUS
 62
   251
100
AcDbLine
 10
1.858584505185
 20
0.927375675439
 30
0.0
 11
401.858584505185
 21
0.927375675439
 31
0.0
  0
ENDBLK
  5
94
330
65
100
AcDbEntity
  8
0
100
AcDbBlockEnd
  0
BLOCK
  5
29C0
330
29BF
100
AcDbEntity
  8
0
100
AcDbBlockBegin
  2
A4横用_タイトル
 70
     0
 10
0.0
 20
0.0
 30
0.0
  3
A4横用_タイトル
  1
A4横用_タイトル
  0
LINE
  5
29C1
330
29BF
100
AcDbEntity
  8
図枠細線
  6
CONTINUOUS
100
AcDbLine
 10
75.061011071051
 20
16.806607253358
 30
0.0
 11
144.061011071051
 21
16.806604789072
 31
0.0
  0
LINE
  5
29C2
330
29BF
100
AcDbEntity
  8
図枠細線
  6
CONTINUOUS
 62
   252
100
AcDbLine
 10
4.061011071051
 20
11.806606253358
 30
0.0
 11
75.061011071051
 21
11.806606253358
 31
0.0
  0
LINE
  5
29C3
330
29BF
100
AcDbEntity
  8
図枠細線
  6
CONTINUOUS
 62
   252
100
AcDbLine
 10
4.061011071051
 20
21.806606253358
 30
0.0
 11
75.061011071051
 21
21.806606253358
 31
0.0
  0
LINE
  5
29C4
330
29BF
100
AcDbEntity
  8
図枠細線
  6
CONTINUOUS
 62
   252
100
AcDbLine
 10
4.061011071051
 20
26.806606253358
 30
0.0
 11
75.061011071051
 21
26.806606253358
 31
0.0
  0
LINE
  5
29C5
330
29BF
100
AcDbEntity
  8
図枠細線
  6
CONTINUOUS
100
AcDbLine
 10
4.061011071051
 20
16.806608253358
 30
0.0
 11
75.061011071051
 21
16.806608253358
 31
0.0
  0
TEXT
  5
29C6
330
29BF
100
AcDbEntity
  8
図枠細線
  6
CONTINUOUS
 62
   252
100
AcDbText
 10
76.405475827713
 20
9.560308253358
 30
0.0
 40
2.0
  1
ＴＨＩＲＤ　ＡＮＧＬＥ
 41
0.691099486738
  7
EXCADSTD
 72
     5
 11
94.005476089973
 21
9.560308253358
 31
0.0
100
AcDbText
  0
TEXT
  5
29C7
330
29BF
100
AcDbEntity
  8
図枠細線
  6
CONTINUOUS
 62
   252
100
AcDbText
 10
76.705775880921
 20
14.306608253358
 30
0.0
 40
2.0
  1
第三角法
 41
1.102941176471
  7
EXCADSTD
 72
     5
 11
86.705775880921
 21
14.306608253358
 31
0.0
100
AcDbText
  0
TEXT
  5
29C8
330
29BF
100
AcDbEntity
  8
図枠細線
  6
CONTINUOUS
 62
   252
100
AcDbText
 10
76.705775880921
 20
26.806608253358
 30
0.0
 40
2.0
  1
ＡＰＰＲＯＶＥＤ
 41
0.695652184279
  7
EXCADSTD
 72
     5
 11
89.505776071656
 21
26.806608253358
 31
0.0
100
AcDbText
  0
TEXT
  5
29C9
330
29BF
100
AcDbEntity
  8
図枠細線
  6
CONTINUOUS
 62
   252
100
AcDbText
 10
76.705775880921
 20
29.306608253358
 30
0.0
 40
2.0
  1
承認
 41
1.171875
  7
EXCADSTD
 72
     5
 11
81.705775880921
 21
29.306608253358
 31
0.0
100
AcDbText
  0
LINE
  5
29CA
330
29BF
100
AcDbEntity
  8
図枠細線
  6
CONTINUOUS
 62
   252
100
AcDbLine
 10
98.061011071051
 20
31.806606253358
 30
0.0
 11
98.061011071051
 21
16.806606253358
 31
0.0
  0
TEXT
  5
29CB
330
29BF
100
AcDbEntity
  8
図枠細線
  6
CONTINUOUS
 62
   252
100
AcDbText
 10
104.216531119804
 20
14.306608253358
 30
0.0
 40
2.0
  1
ＳＣＡＬＥ
 41
0.903614457831
  7
EXCADSTD
 72
     5
 11
114.216531119804
 21
14.306608253358
 31
0.0
100
AcDbText
  0
TEXT
  5
29CC
330
29BF
100
AcDbEntity
  8
図枠細線
  6
CONTINUOUS
 62
   252
100
AcDbText
 10
98.844044119804
 20
14.306608253358
 30
0.0
 40
2.0
  1
尺度
 41
1.171875
  7
EXCADSTD
 72
     5
 11
103.844044119804
 21
14.306608253358
 31
0.0
100
AcDbText
  0
TEXT
  5
29CD
330
29BF
100
AcDbEntity
  8
図枠細線
  6
CONTINUOUS
 62
   252
100
AcDbText
 10
98.968727707497
 20
26.806608253358
 30
0.0
 40
2.0
  1
ＣＨＥＣＫＥＤ
 41
0.831249989569
  7
EXCADSTD
 72
     5
 11
112.268727540604
 21
26.806608253358
 31
0.0
100
AcDbText
  0
TEXT
  5
29CE
330
29BF
100
AcDbEntity
  8
図枠細線
  6
CONTINUOUS
 62
   252
100
AcDbText
 10
98.968727707497
 20
29.306608253358
 30
0.0
 40
2.0
  1
検図
 41
1.209677419355
  7
EXCADSTD
 72
     5
 11
103.968727707497
 21
29.306608253358
 31
0.0
100
AcDbText
  0
LINE
  5
29CF
330
29BF
100
AcDbEntity
  8
図枠細線
  6
CONTINUOUS
 62
   252
100
AcDbLine
 10
121.061011071051
 20
31.806606253358
 30
0.0
 11
121.061011071051
 21
16.806606253358
 31
0.0
  0
TEXT
  5
29D0
330
29BF
100
AcDbEntity
  8
図枠細線
  6
CONTINUOUS
 62
   252
100
AcDbText
 10
128.001465247253
 20
14.306608253358
 30
0.0
 40
2.0
  1
ＤＡＴＥ
 41
0.923076923077
  7
EXCADSTD
 72
     5
 11
136.001465247253
 21
14.306608253358
 31
0.0
100
AcDbText
  0
TEXT
  5
29D1
330
29BF
100
AcDbEntity
  8
図枠細線
  6
CONTINUOUS
 62
   252
100
AcDbText
 10
122.066415498841
 20
14.306608253358
 30
0.0
 40
2.0
  1
日付
 41
1.171875
  7
EXCADSTD
 72
     5
 11
127.066415498841
 21
14.306608253358
 31
0.0
100
AcDbText
  0
TEXT
  5
29D2
330
29BF
100
AcDbEntity
  8
図枠細線
  6
CONTINUOUS
 62
   252
100
AcDbText
 10
121.59429406571
 20
29.306608253358
 30
0.0
 40
2.0
  1
製図
 41
1.209677419355
  7
EXCADSTD
 72
     5
 11
126.59429406571
 21
29.306608253358
 31
0.0
100
AcDbText
  0
TEXT
  5
29D3
330
29BF
100
AcDbEntity
  8
図枠細線
  6
CONTINUOUS
 62
   252
100
AcDbText
 10
121.59429406571
 20
26.806608253358
 30
0.0
 40
2.0
  1
ＤＲＡＷＮ
 41
0.882352941176
  7
EXCADSTD
 72
     5
 11
131.59429406571
 21
26.806608253358
 31
0.0
100
AcDbText
  0
TEXT
  5
29D4
330
29BF
100
AcDbEntity
  8
図枠細線
  6
CONTINUOUS
 62
   252
100
AcDbText
 10
226.591229661348
 20
14.306608253358
 30
0.0
 40
2.0
  1
ＤＲＧ．ＮＯ．
 41
0.9375
  7
EXCADSTD
 72
     5
 11
240.591229661348
 21
14.306608253358
 31
0.0
100
AcDbText
  0
LINE
  5
29D5
330
29BF
100
AcDbEntity
  8
図枠太線
  6
CONTINUOUS
 62
   251
100
AcDbLine
 10
144.061003071051
 20
16.806606253358
 30
0.0
 11
214.061011071051
 21
16.806606253358
 31
0.0
  0
LINE
  5
29D6
330
29BF
100
AcDbEntity
  8
図枠細線
  6
CONTINUOUS
 62
   252
100
AcDbLine
 10
144.061011071051
 20
24.306606253358
 30
0.0
 11
214.061011071051
 21
24.306606253358
 31
0.0
  0
TEXT
  5
29D7
330
29BF
100
AcDbEntity
  8
図枠ロゴマーク
  6
CONTINUOUS
 62
   253
100
AcDbText
 10
146.433776781596
 20
8.399000253358
 30
0.0
 40
7.0
  1
東和制電工業株式会社
 41
0.80361088462
  7
EXCADSTD
 72
     5
 11
212.437017438349
 21
8.399000253358
 31
0.0
100
AcDbText
  0
TEXT
  5
29D8
330
29BF
100
AcDbEntity
  8
図枠細線
  6
CONTINUOUS
 62
   252
100
AcDbText
 10
215.156179912936
 20
14.306608253358
 30
0.0
 40
2.0
  1
図面番号
 41
1.102941176471
  7
EXCADSTD
 72
     5
 11
225.156179912936
 21
14.306608253358
 31
0.0
100
AcDbText
  0
TEXT
  5
29D9
330
29BF
100
AcDbEntity
  8
図枠細線
  6
CONTINUOUS
 62
   252
100
AcDbText
 10
221.591229661348
 20
29.306608253358
 30
0.0
 40
2.0
  1
ＴＩＴＬＥ
 41
0.903614457831
  7
EXCADSTD
 72
     5
 11
231.591229661348
 21
29.306608253358
 31
0.0
100
AcDbText
  0
TEXT
  5
29DA
330
29BF
100
AcDbEntity
  8
図枠細線
  6
CONTINUOUS
 62
   252
100
AcDbText
 10
215.156179912936
 20
29.306608253358
 30
0.0
 40
2.0
  1
名称
 41
1.171875
  7
EXCADSTD
 72
     5
 11
220.156179912936
 21
29.306608253358
 31
0.0
100
AcDbText
  0
LINE
  5
29DB
330
29BF
100
AcDbEntity
  8
図枠太線
  6
CONTINUOUS
 62
   251
100
AcDbLine
 10
4.061011071051
 20
1.806608253358
 30
0.0
 11
284.061011071051
 21
1.806608253358
 31
0.0
  0
LINE
  5
29DC
330
29BF
100
AcDbEntity
  8
図枠細線
  6
CONTINUOUS
 62
   252
100
AcDbLine
 10
4.061011071051
 20
6.806608253358
 30
0.0
 11
75.061011071051
 21
6.806608253358
 31
0.0
  0
LINE
  5
29DD
330
29BF
100
AcDbEntity
  8
図枠太線
  6
CONTINUOUS
 62
   251
100
AcDbLine
 10
75.061011071051
 20
1.806608253358
 30
0.0
 11
75.061011071051
 21
31.806606253358
 31
0.0
  0
TEXT
  5
29DE
330
29BF
100
AcDbEntity
  8
図枠細線
  6
CONTINUOUS
 62
   252
100
AcDbText
 10
76.330551827713
 20
6.638319253358
 30
0.0
 40
2.0
  1
ＰＲＯＪＥＣＴＩＯＮ
 41
0.754285710199
  7
EXCADSTD
 72
     5
 11
93.930551732346
 21
6.638319253358
 31
0.0
100
AcDbText
  0
LINE
  5
29DF
330
29BF
100
AcDbEntity
  8
図枠細線
  6
CONTINUOUS
 62
   252
100
AcDbLine
 10
98.061011071051
 20
1.806606931929
 30
0.0
 11
98.061011071051
 21
16.806604931929
 31
0.0
  0
LINE
  5
29E0
330
29BF
100
AcDbEntity
  8
図枠細線
  6
CONTINUOUS
 62
   252
100
AcDbLine
 10
121.061011071051
 20
1.806607574787
 30
0.0
 11
121.061011071051
 21
16.806605574787
 31
0.0
  0
LINE
  5
29E1
330
29BF
100
AcDbEntity
  8
図枠太線
  6
CONTINUOUS
 62
   251
100
AcDbLine
 10
284.061011071051
 20
1.806608253358
 30
0.0
 11
284.061011071051
 21
31.806606253358
 31
0.0
  0
LINE
  5
29E2
330
29BF
100
AcDbEntity
  8
図枠細線
  6
CONTINUOUS
 62
   252
100
AcDbLine
 10
214.061011071051
 20
16.806606253358
 30
0.0
 11
284.061011071051
 21
16.806606253358
 31
0.0
  0
TEXT
  5
29E3
330
29BF
100
AcDbEntity
  8
図枠細線
  6
CONTINUOUS
 62
   252
100
AcDbText
 10
146.199593676182
 20
3.454099253358
 30
0.0
 40
3.5
  1
ＴＯＷＡ　ＳＥＩＤＥＮ　ＩＮＤＵＳＴＲＩＡＬ　ＣＯ．，ＬＴＤ．
 41
0.528937826907
  7
EXCADSTD
 72
     5
 11
213.339435171588
 21
3.454099253358
 31
0.0
100
AcDbText
  0
LINE
  5
29E4
330
29BF
100
AcDbEntity
  8
図枠太線
  6
CONTINUOUS
 62
   251
100
AcDbLine
 10
144.061011071051
 20
1.806608253358
 30
0.0
 11
144.061011071051
 21
31.806606253358
 31
0.0
  0
LINE
  5
29E5
330
29BF
100
AcDbEntity
  8
図枠太線
  6
CONTINUOUS
 62
   251
100
AcDbLine
 10
214.061011071051
 20
1.806608253358
 30
0.0
 11
214.061011071051
 21
31.806606253358
 31
0.0
  0
MTEXT
  5
29E6
330
29BF
100
AcDbEntity
  8
図枠太線
100
AcDbMText
 10
5.064337346478
 20
31.010982137407
 30
0.0
 40
2.5
 41
8.67856098472
 71
     1
 72
     5
  1
{\Fmonotxt.shx,bigfont.shx|c128;図暦}
  0
LINE
  5
29E7
330
29BF
100
AcDbEntity
  8
図枠太線
  6
CONTINUOUS
 62
   251
100
AcDbLine
 10
4.061011071051
 20
1.806608253358
 30
0.0
 11
4.061011071051
 21
31.806606253358
 31
0.0
  0
TEXT
  5
29E8
330
29BF
100
AcDbEntity
  8
図枠細線
 48
10.0
100
AcDbText
 10
12.260817420402
 20
28.625419626495
 30
0.0
 40
2.0
  1
CHANGE NOTICE
100
AcDbText
  0
ENDBLK
  5
29E9
330
29BF
100
AcDbEntity
  8
0
100
AcDbBlockEnd
  0
BLOCK
  5
29F5
330
29F4
100
AcDbEntity
  8
0
100
AcDbBlockBegin
  2
A4縦用_タイトル
 70
     0
 10
0.0
 20
0.0
 30
0.0
  3
A4縦用_タイトル
  1
A4縦用_タイトル
  0
LINE
  5
29F6
330
29F4
100
AcDbEntity
  8
図枠太線
  6
CONTINUOUS
 62
   251
100
AcDbLine
 10
2.368253864267
 20
4.525433224584
 30
0.0
 11
192.368245864267
 21
4.525433224584
 31
0.0
  0
LINE
  5
29F7
330
29F4
100
AcDbEntity
  8
図枠太線
  6
CONTINUOUS
 62
   251
100
AcDbLine
 10
78.368245864267
 20
19.525431224584
 30
0.0
 11
135.368253864267
 21
19.525431224584
 31
0.0
  0
LINE
  5
29F8
330
29F4
100
AcDbEntity
  8
図枠細線
  6
CONTINUOUS
 62
   252
100
AcDbLine
 10
78.368253864267
 20
27.025431224584
 30
0.0
 11
135.368253864267
 21
27.025431224584
 31
0.0
  0
TEXT
  5
29F9
330
29F4
100
AcDbEntity
  8
図枠ロゴマーク
  6
CONTINUOUS
 62
   253
100
AcDbText
 10
80.617009864267
 20
11.117825224584
 30
0.0
 40
7.0
  1
東和制電工業株式会社
 41
0.639204545455
  7
EXCADSTD
 72
     5
 11
133.117009864267
 21
11.117825224584
 31
0.0
100
AcDbText
  0
TEXT
  5
29FA
330
29F4
100
AcDbEntity
  8
図枠細線
  6
CONTINUOUS
 62
   252
100
AcDbText
 10
80.579549864267
 20
6.172924224584
 30
0.0
 40
3.5
  1
ＴＯＷＡ　ＳＥＩＤＥＮ　ＩＮＤＵＳＴＲＩＡＬ　ＣＯ．，ＬＴＤ．
 41
0.414568012377
  7
EXCADSTD
 72
     5
 11
133.202049568628
 21
6.172924224584
 31
0.0
100
AcDbText
  0
LINE
  5
29FB
330
29F4
100
AcDbEntity
  8
図枠太線
  6
CONTINUOUS
 62
   251
100
AcDbLine
 10
2.368253864267
 20
4.525433224584
 30
0.0
 11
2.368253864267
 21
34.525431224584
 31
0.0
  0
TEXT
  5
29FC
330
29F4
100
AcDbEntity
  8
図枠細線
  6
CONTINUOUS
 62
   252
100
AcDbText
 10
22.504308136501
 20
12.279133224584
 30
0.0
 40
2.0
  1
ＴＨＩＲＤ　ＡＮＧＬＥ
 41
0.691099486738
  7
EXCADSTD
 72
     5
 11
40.104308398762
 21
12.279133224584
 31
0.0
100
AcDbText
  0
TEXT
  5
29FD
330
29F4
100
AcDbEntity
  8
図枠細線
  6
CONTINUOUS
 62
   252
100
AcDbText
 10
22.429384136501
 20
9.357144224584
 30
0.0
 40
2.0
  1
ＰＲＯＪＥＣＴＩＯＮ
 41
0.754285710199
  7
EXCADSTD
 72
     5
 11
40.029384041134
 21
9.357144224584
 31
0.0
100
AcDbText
  0
LINE
  5
29FE
330
29F4
100
AcDbEntity
  8
図枠細線
  6
CONTINUOUS
100
AcDbLine
 10
22.368253864267
 20
19.525433224584
 30
0.0
 11
78.368253864267
 21
19.525431224584
 31
0.0
  0
TEXT
  5
29FF
330
29F4
100
AcDbEntity
  8
図枠細線
  6
CONTINUOUS
 62
   252
100
AcDbText
 10
22.868253864267
 20
17.025433224584
 30
0.0
 40
2.0
  1
第三角法
 41
1.102941176471
  7
EXCADSTD
 72
     5
 11
32.868253864267
 21
17.025433224584
 31
0.0
100
AcDbText
  0
TEXT
  5
2A00
330
29F4
100
AcDbEntity
  8
図枠細線
  6
CONTINUOUS
 62
   252
100
AcDbText
 10
22.868253864267
 20
29.525433224584
 30
0.0
 40
2.0
  1
ＡＰＰＲＯＶＥＤ
 41
0.695652184279
  7
EXCADSTD
 72
     5
 11
35.668254055002
 21
29.525433224584
 31
0.0
100
AcDbText
  0
LINE
  5
2A01
330
29F4
100
AcDbEntity
  8
図枠細線
  6
CONTINUOUS
 62
   252
100
AcDbLine
 10
2.368253864267
 20
9.525433224584
 30
0.0
 11
22.368253864267
 21
9.525433224584
 31
0.0
  0
LINE
  5
2A02
330
29F4
100
AcDbEntity
  8
図枠細線
  6
CONTINUOUS
 62
   252
100
AcDbLine
 10
2.368253864267
 20
14.525431224584
 30
0.0
 11
22.368253864267
 21
14.525431224584
 31
0.0
  0
LINE
  5
2A03
330
29F4
100
AcDbEntity
  8
図枠細線
  6
CONTINUOUS
 62
   252
100
AcDbLine
 10
2.368253864267
 20
24.525431224584
 30
0.0
 11
22.368253864267
 21
24.525431224584
 31
0.0
  0
LINE
  5
2A04
330
29F4
100
AcDbEntity
  8
図枠細線
  6
CONTINUOUS
 62
   252
100
AcDbLine
 10
2.368253864267
 20
29.525431224584
 30
0.0
 11
22.368253864267
 21
29.525431224584
 31
0.0
  0
LINE
  5
2A05
330
29F4
100
AcDbEntity
  8
図枠細線
  6
CONTINUOUS
100
AcDbLine
 10
2.368253864267
 20
19.525433224584
 30
0.0
 11
22.368253864267
 21
19.525433224584
 31
0.0
  0
TEXT
  5
2A06
330
29F4
100
AcDbEntity
  8
図枠細線
  6
CONTINUOUS
 62
   252
100
AcDbText
 10
2.868253864267
 20
32.025433224584
 30
0.0
 40
2.0
  1
ＮＯＴＥ
 41
0.923076923077
  7
EXCADSTD
 72
     5
 11
10.868253864267
 21
32.025433224584
 31
0.0
100
AcDbText
  0
LINE
  5
2A07
330
29F4
100
AcDbEntity
  8
図枠太線
  6
CONTINUOUS
 62
   251
100
AcDbLine
 10
22.368253864267
 20
4.525433224584
 30
0.0
 11
22.368253864267
 21
34.525431224584
 31
0.0
  0
TEXT
  5
2A08
330
29F4
100
AcDbEntity
  8
図枠細線
  6
CONTINUOUS
 62
   252
100
AcDbText
 10
22.868253864267
 20
32.025433224584
 30
0.0
 40
2.0
  1
承認
 41
1.171875
  7
EXCADSTD
 72
     5
 11
27.868253864267
 21
32.025433224584
 31
0.0
100
AcDbText
  0
TEXT
  5
2A09
330
29F4
100
AcDbEntity
  8
図枠細線
  6
CONTINUOUS
 62
   252
100
AcDbText
 10
60.711709035982
 20
32.025433224584
 30
0.0
 40
2.0
  1
製図
 41
1.209677419355
  7
EXCADSTD
 72
     5
 11
65.711709035982
 21
32.025433224584
 31
0.0
100
AcDbText
  0
TEXT
  5
2A0A
330
29F4
100
AcDbEntity
  8
図枠細線
  6
CONTINUOUS
 62
   252
100
AcDbText
 10
60.711709035982
 20
29.525433224584
 30
0.0
 40
2.0
  1
ＤＲＡＷＮ
 41
0.882352941176
  7
EXCADSTD
 72
     5
 11
70.711709035982
 21
29.525433224584
 31
0.0
100
AcDbText
  0
TEXT
  5
2A0B
330
29F4
100
AcDbEntity
  8
図枠細線
  6
CONTINUOUS
 62
   252
100
AcDbText
 10
60.834891743877
 20
17.025433224584
 30
0.0
 40
2.0
  1
日付
 41
1.171875
  7
EXCADSTD
 72
     5
 11
65.834891743877
 21
17.025433224584
 31
0.0
100
AcDbText
  0
TEXT
  5
2A0C
330
29F4
100
AcDbEntity
  8
図枠細線
  6
CONTINUOUS
 62
   252
100
AcDbText
 10
47.333660864267
 20
17.025433224584
 30
0.0
 40
2.0
  1
ＳＣＡＬＥ
 41
0.903614457831
  7
EXCADSTD
 72
     5
 11
57.333660864267
 21
17.025433224584
 31
0.0
100
AcDbText
  0
TEXT
  5
2A0D
330
29F4
100
AcDbEntity
  8
図枠細線
  6
CONTINUOUS
 62
   252
100
AcDbText
 10
42.281425990082
 20
29.525433224584
 30
0.0
 40
2.0
  1
ＣＨＥＣＫＥＤ
 41
0.831249989569
  7
EXCADSTD
 72
     5
 11
55.581425823189
 21
29.525433224584
 31
0.0
100
AcDbText
  0
LINE
  5
2A0E
330
29F4
100
AcDbEntity
  8
図枠細線
  6
CONTINUOUS
 62
   252
100
AcDbLine
 10
40.968253864267
 20
34.525431224584
 30
0.0
 11
40.968253864267
 21
19.525431224584
 31
0.0
  0
LINE
  5
2A0F
330
29F4
100
AcDbEntity
  8
図枠細線
  6
CONTINUOUS
 62
   252
100
AcDbLine
 10
40.968253864267
 20
4.525433224584
 30
0.0
 11
40.968253864267
 21
19.525431224584
 31
0.0
  0
TEXT
  5
2A10
330
29F4
100
AcDbEntity
  8
図枠細線
  6
CONTINUOUS
 62
   252
100
AcDbText
 10
41.961173864267
 20
17.025433224584
 30
0.0
 40
2.0
  1
尺度
 41
1.171875
  7
EXCADSTD
 72
     5
 11
46.961173864267
 21
17.025433224584
 31
0.0
100
AcDbText
  0
TEXT
  5
2A11
330
29F4
100
AcDbEntity
  8
図枠細線
  6
CONTINUOUS
 62
   252
100
AcDbText
 10
42.281425990082
 20
32.025433224584
 30
0.0
 40
2.0
  1
検図
 41
1.209677419355
  7
EXCADSTD
 72
     5
 11
47.281425990082
 21
32.025433224584
 31
0.0
100
AcDbText
  0
LINE
  5
2A12
330
29F4
100
AcDbEntity
  8
図枠細線
  6
CONTINUOUS
 62
   252
100
AcDbLine
 10
59.768253864267
 20
34.525431224584
 30
0.0
 11
59.768253864267
 21
19.525431224584
 31
0.0
  0
LINE
  5
2A13
330
29F4
100
AcDbEntity
  8
図枠細線
  6
CONTINUOUS
 62
   252
100
AcDbLine
 10
59.768253864267
 20
4.525433224584
 30
0.0
 11
59.768253864267
 21
19.525431224584
 31
0.0
  0
LINE
  5
2A14
330
29F4
100
AcDbEntity
  8
図枠太線
  6
CONTINUOUS
 62
   251
100
AcDbLine
 10
78.368253864267
 20
4.525433224584
 30
0.0
 11
78.368253864267
 21
34.525431224584
 31
0.0
  0
TEXT
  5
2A15
330
29F4
100
AcDbEntity
  8
図枠細線
  6
CONTINUOUS
 62
   252
100
AcDbText
 10
66.334891743877
 20
17.025433224584
 30
0.0
 40
2.0
  1
ＤＡＴＥ
 41
0.923076923077
  7
EXCADSTD
 72
     5
 11
74.334891743877
 21
17.025433224584
 31
0.0
100
AcDbText
  0
LINE
  5
2A16
330
29F4
100
AcDbEntity
  8
図枠細線
  6
CONTINUOUS
 62
   252
100
AcDbLine
 10
135.368253864267
 20
19.525431224584
 30
0.0
 11
192.368245864267
 21
19.525431224584
 31
0.0
  0
TEXT
  5
2A17
330
29F4
100
AcDbEntity
  8
図枠細線
  6
CONTINUOUS
 62
   252
100
AcDbText
 10
141.868253864267
 20
32.025433224584
 30
0.0
 40
2.0
  1
ＴＩＴＬＥ
 41
0.903614457831
  7
EXCADSTD
 72
     5
 11
151.868253864267
 21
32.025433224584
 31
0.0
100
AcDbText
  0
LINE
  5
2A18
330
29F4
100
AcDbEntity
  8
図枠太線
  6
CONTINUOUS
 62
   251
100
AcDbLine
 10
135.368253864267
 20
4.525433224584
 30
0.0
 11
135.368253864267
 21
34.525431224584
 31
0.0
  0
TEXT
  5
2A19
330
29F4
100
AcDbEntity
  8
図枠細線
  6
CONTINUOUS
 62
   252
100
AcDbText
 10
135.868253864267
 20
17.025433224584
 30
0.0
 40
2.0
  1
図面番号
 41
1.102941176471
  7
EXCADSTD
 72
     5
 11
145.868253864267
 21
17.025433224584
 31
0.0
100
AcDbText
  0
TEXT
  5
2A1A
330
29F4
100
AcDbEntity
  8
図枠細線
  6
CONTINUOUS
 62
   252
100
AcDbText
 10
135.868253864267
 20
32.025433224584
 30
0.0
 40
2.0
  1
名称
 41
1.171875
  7
EXCADSTD
 72
     5
 11
140.868253864267
 21
32.025433224584
 31
0.0
100
AcDbText
  0
TEXT
  5
2A1B
330
29F4
100
AcDbEntity
  8
図枠細線
  6
CONTINUOUS
 62
   252
100
AcDbText
 10
146.868253864267
 20
17.025433224584
 30
0.0
 40
2.0
  1
ＤＲＧ．ＮＯ．
 41
0.9375
  7
EXCADSTD
 72
     5
 11
160.868253864267
 21
17.025433224584
 31
0.0
100
AcDbText
  0
LINE
  5
2A1C
330
29F4
100
AcDbEntity
  8
図枠太線
  6
CONTINUOUS
 62
   251
100
AcDbLine
 10
192.368245864267
 20
4.525433224584
 30
0.0
 11
192.368245864267
 21
34.525431224584
 31
0.0
  0
ENDBLK
  5
2A1D
330
29F4
100
AcDbEntity
  8
0
100
AcDbBlockEnd
  0
BLOCK
  5
2A33
330
2A32
100
AcDbEntity
  8
0
100
AcDbBlockBegin
  2
A3横用_タイトル
 70
     0
 10
0.0
 20
0.0
 30
0.0
  3
A3横用_タイトル
  1
A3横用_タイトル
  0
LINE
  5
2A34
330
2A32
100
AcDbEntity
  8
図枠細線
  6
CONTINUOUS
 62
   252
100
AcDbLine
 10
205.098414535793
 20
33.525959753527
 30
0.0
 11
305.098414535793
 21
33.525959753527
 31
0.0
  0
LINE
  5
2A35
330
2A32
100
AcDbEntity
  8
図枠太線
  6
CONTINUOUS
 62
   251
100
AcDbLine
 10
205.098414535793
 20
23.525959753527
 30
0.0
 11
305.098414535793
 21
23.525959753527
 31
0.0
  0
LINE
  5
2A36
330
2A32
100
AcDbEntity
  8
図枠細線
  6
CONTINUOUS
100
AcDbLine
 10
5.098414535793
 20
23.525959753527
 30
0.0
 11
105.098414535793
 21
23.525959753527
 31
0.0
  0
LINE
  5
2A37
330
2A32
100
AcDbEntity
  8
図枠細線
  6
CONTINUOUS
 62
   252
100
AcDbLine
 10
5.098414535793
 20
36.725957753527
 30
0.0
 11
105.098414535793
 21
36.725957753527
 31
0.0
  0
LINE
  5
2A38
330
2A32
100
AcDbEntity
  8
図枠細線
  6
CONTINUOUS
 62
   252
100
AcDbLine
 10
5.098414535793
 20
30.125957753527
 30
0.0
 11
105.098414535793
 21
30.125957753527
 31
0.0
  0
LINE
  5
2A39
330
2A32
100
AcDbEntity
  8
図枠細線
  6
CONTINUOUS
 62
   252
100
AcDbLine
 10
5.098414535793
 20
16.725959753527
 30
0.0
 11
105.098414535793
 21
16.725959753527
 31
0.0
  0
LINE
  5
2A3A
330
2A32
100
AcDbEntity
  8
図枠細線
  6
CONTINUOUS
 62
   252
100
AcDbLine
 10
5.098414535793
 20
10.125959753527
 30
0.0
 11
105.098414535793
 21
10.125959753527
 31
0.0
  0
LINE
  5
2A3B
330
2A32
100
AcDbEntity
  8
図枠細線
  6
CONTINUOUS
100
AcDbLine
 10
105.098414535793
 20
23.525961753527
 30
0.0
 11
205.098414535793
 21
23.525959753527
 31
0.0
  0
LINE
  5
2A3C
330
2A32
100
AcDbEntity
  8
図枠細線
  6
CONTINUOUS
 62
   252
100
AcDbLine
 10
138.398414535793
 20
43.525959753527
 30
0.0
 11
138.398414535793
 21
18.525957753527
 31
0.0
  0
LINE
  5
2A3D
330
2A32
100
AcDbEntity
  8
図枠細線
  6
CONTINUOUS
 62
   252
100
AcDbLine
 10
171.698414535793
 20
43.525959753527
 30
0.0
 11
171.698414535793
 21
18.525957753527
 31
0.0
  0
LINE
  5
2A3E
330
2A32
100
AcDbEntity
  8
図枠細線
  6
CONTINUOUS
 62
   252
100
AcDbLine
 10
305.098414535793
 20
23.525959753527
 30
0.0
 11
405.098414535793
 21
23.525959753527
 31
0.0
  0
TEXT
  5
2A3F
330
2A32
100
AcDbEntity
  8
図枠ロゴマーク
  6
CONTINUOUS
 62
   253
100
AcDbText
 10
206.102509212755
 20
13.294257570546
 30
0.0
 40
7.0
  1
東和制電工業株式会社
 50
0.016555220185
 41
1.186384129432
  7
EXCADSTD
 72
     5
 11
303.544188309143
 21
13.322412672217
 31
0.0
100
AcDbText
  0
MTEXT
  5
2A40
330
2A32
100
AcDbEntity
  8
図枠細線
100
AcDbMText
 10
6.356764112375
 20
41.976594175478
 30
0.0
 40
2.5
 41
49.938282706292
 71
     1
 72
     5
  1
{\Fmonotxt.shx,bigfont.shx|c128;図暦　CHANGE　NOTICE}
  0
MTEXT
  5
2A41
330
2A32
100
AcDbEntity
  8
図枠細線
 48
10.0
100
AcDbMText
 10
306.544114926828
 20
41.701835800934
 30
0.0
 40
2.5
 41
28.002809618823
 71
     1
 72
     5
  1
{\Fmonotxt.shx,bigfont.shx|c128;名称　TITLE}
  0
MTEXT
  5
2A42
330
2A32
100
AcDbEntity
  8
図枠細線
 48
10.0
100
AcDbMText
 10
307.329617114284
 20
21.606206797226
 30
0.0
 40
2.5
 41
24.385612216707
 71
     1
 72
     5
  1
{\Fmonotxt.shx,bigfont.shx|c128;図面番号\PDRG.　No.}
  0
MTEXT
  5
2A43
330
2A32
100
AcDbEntity
  8
図枠細線
 48
10.0
100
AcDbMText
 10
173.726349404609
 20
21.73680662198
 30
0.0
 40
2.5
 41
25.735090160813
 71
     1
 72
     5
  1
{\Fmonotxt.shx,bigfont.shx|c128;日付 DATE}
  0
MTEXT
  5
2A44
330
2A32
100
AcDbEntity
  8
図枠細線
 48
10.0
100
AcDbMText
 10
173.48708833982
 20
41.621592044998
 30
0.0
 40
2.5
 41
24.983741184205
 71
     1
 72
     5
  1
{\Fmonotxt.shx,bigfont.shx|c128;製図　DRAWN}
  0
MTEXT
  5
2A45
330
2A32
100
AcDbEntity
  8
図枠細線
 48
10.0
100
AcDbMText
 10
139.28009927741
 20
21.866713069868
 30
0.0
 40
2.5
 41
22.629632913243
 71
     1
 72
     5
  1
{\Fmonotxt.shx,bigfont.shx|c128;尺度　SCALE}
  0
MTEXT
  5
2A46
330
2A32
100
AcDbEntity
  8
図枠細線
 48
10.0
100
AcDbMText
 10
139.910091179835
 20
41.311840415554
 30
0.0
 40
2.5
 41
28.998753428368
 71
     1
 72
     5
  1
{\Fmonotxt.shx,bigfont.shx|c128;検図  CHECKED}
  0
MTEXT
  5
2A47
330
2A32
100
AcDbEntity
  8
図枠細線
 48
10.0
100
AcDbMText
 10
114.253294667728
 20
21.916124850174
 30
0.0
 40
3.0
 41
19.692400475383
 71
     1
 72
     5
  1
{\Fmonotxt.shx,bigfont.shx|c128;第三角法}
  0
MTEXT
  5
2A48
330
2A32
100
AcDbEntity
  8
図枠細線
 48
10.0
100
AcDbMText
 10
108.986959929915
 20
15.282880185837
 30
0.0
 40
2.5
 41
27.954882823547
 71
     1
 72
     5
  1
{\Fmonotxt.shx,bigfont.shx|c128;THIRD ANGLE\PPROJECTION}
  0
MTEXT
  5
2A49
330
2A32
100
AcDbEntity
  8
図枠細線
 48
10.0
100
AcDbMText
 10
106.319432640184
 20
41.511437145487
 30
0.0
 40
2.5
 41
28.233595265074
 71
     1
 72
     5
  1
{\Fmonotxt.shx,bigfont.shx|c128;承認 APPROVED}
  0
LINE
  5
2A4A
330
2A32
100
AcDbEntity
  8
図枠太線
  6
CONTINUOUS
 62
   251
100
AcDbLine
 10
5.098414535793
 20
3.525959753527
 30
0.0
 11
405.098414535793
 21
3.525959753527
 31
0.0
  0
LINE
  5
2A4B
330
2A32
100
AcDbEntity
  8
図枠太線
 48
10.0
100
AcDbLine
 10
5.098414535793
 20
3.525959753527
 30
0.0
 11
5.098414535793
 21
43.525959753527
 31
0.0
  0
LINE
  5
2A4C
330
2A32
100
AcDbEntity
  8
図枠太線
  6
CONTINUOUS
 62
   251
100
AcDbLine
 10
105.098414535793
 20
3.525959753527
 30
0.0
 11
105.098414535793
 21
43.525959753527
 31
0.0
  0
LINE
  5
2A4D
330
2A32
100
AcDbEntity
  8
図枠細線
  6
CONTINUOUS
 62
   252
100
AcDbLine
 10
138.398414535793
 20
3.525959753527
 30
0.0
 11
138.398414535793
 21
18.525957753527
 31
0.0
  0
LINE
  5
2A4E
330
2A32
100
AcDbEntity
  8
図枠細線
  6
CONTINUOUS
 62
   252
100
AcDbLine
 10
171.698414535793
 20
3.525959753527
 30
0.0
 11
171.698414535793
 21
18.525957753527
 31
0.0
  0
LINE
  5
2A4F
330
2A32
100
AcDbEntity
  8
図枠太線
  6
CONTINUOUS
 62
   251
100
AcDbLine
 10
205.098414535793
 20
3.525959753527
 30
0.0
 11
205.098414535793
 21
43.525959753527
 31
0.0
  0
LINE
  5
2A50
330
2A32
100
AcDbEntity
  8
図枠太線
 48
10.0
100
AcDbLine
 10
405.098414535793
 20
43.525959753527
 30
0.0
 11
405.098414535793
 21
3.525959753527
 31
0.0
  0
TEXT
  5
2A51
330
2A32
100
AcDbEntity
  8
図枠細線
  6
CONTINUOUS
 62
   252
100
AcDbText
 10
208.519754474572
 20
6.482358407285
 30
0.0
 40
3.5
  1
ＴＯＷＡ　ＳＥＩＤＥＮ　ＩＮＤＵＳＴＲＩＡＬ　ＣＯ．，ＬＴＤ．
 41
0.746656297509
  7
EXCADSTD
 72
     5
 11
303.295327171727
 21
6.482358407285
 31
0.0
100
AcDbText
  0
LINE
  5
2A52
330
2A32
100
AcDbEntity
  8
図枠太線
  6
CONTINUOUS
 62
   251
100
AcDbLine
 10
305.098414535793
 20
3.525959753527
 30
0.0
 11
305.098414535793
 21
43.525959753527
 31
0.0
  0
ENDBLK
  5
2A53
330
2A32
100
AcDbEntity
  8
0
100
AcDbBlockEnd
  0
BLOCK
  5
2A6D
330
2A6C
100
AcDbEntity
  8
0
100
AcDbBlockBegin
  2
A3縦用_タイトル
 70
     0
 10
0.0
 20
0.0
 30
0.0
  3
A3縦用_タイトル
  1
A3縦用_タイトル
  0
MTEXT
  5
2A6E
330
2A6C
100
AcDbEntity
  8
図枠細線
100
AcDbMText
 10
5.040804501593
 20
31.626098649005
 30
0.0
 40
2.5
 41
49.938282706292
 71
     1
 72
     5
  1
{\Fmonotxt.shx,bigfont.shx|c128;図暦　CHANGE　NOTICE}
  0
LINE
  5
2A6F
330
2A6C
100
AcDbEntity
  8
図枠太線
  6
CONTINUOUS
 62
   251
100
AcDbLine
 10
283.577871882961
 20
2.820844689254
 30
0.0
 11
283.577871882961
 21
32.820842689254
 31
0.0
  0
MTEXT
  5
2A70
330
2A6C
100
AcDbEntity
  8
図枠細線
 48
10.0
100
AcDbMText
 10
214.912458947454
 20
31.621488632308
 30
0.0
 40
2.5
 41
28.002809618823
 71
     1
 72
     5
  1
{\Fmonotxt.shx,bigfont.shx|c128;名称　TITLE}
  0
MTEXT
  5
2A71
330
2A6C
100
AcDbEntity
  8
図枠細線
 48
10.0
100
AcDbMText
 10
214.740030458938
 20
16.310225796722
 30
0.0
 40
2.5
 41
24.385612216707
 71
     1
 72
     5
  1
{\Fmonotxt.shx,bigfont.shx|c128;図面番号\PDRG.　No.}
  0
LINE
  5
2A72
330
2A6C
100
AcDbEntity
  8
図枠太線
  6
CONTINUOUS
 62
   251
100
AcDbLine
 10
213.577871882961
 20
2.820844689254
 30
0.0
 11
213.577871882961
 21
32.820842689254
 31
0.0
  0
LINE
  5
2A73
330
2A6C
100
AcDbEntity
  8
図枠太線
  6
CONTINUOUS
 62
   251
100
AcDbLine
 10
143.577871882961
 20
2.820844689254
 30
0.0
 11
143.577871882961
 21
32.820842689254
 31
0.0
  0
TEXT
  5
2A74
330
2A6C
100
AcDbEntity
  8
図枠細線
  6
CONTINUOUS
 62
   252
100
AcDbText
 10
145.716454488093
 20
4.468335689254
 30
0.0
 40
3.5
  1
ＴＯＷＡ　ＳＥＩＤＥＮ　ＩＮＤＵＳＴＲＩＡＬ　ＣＯ．，ＬＴＤ．
 41
0.528937826907
  7
EXCADSTD
 72
     5
 11
212.856295983498
 21
4.468335689254
 31
0.0
100
AcDbText
  0
TEXT
  5
2A75
330
2A6C
100
AcDbEntity
  8
図枠ロゴマーク
  6
CONTINUOUS
 62
   253
100
AcDbText
 10
145.950637593507
 20
9.413236689254
 30
0.0
 40
7.0
  1
東和制電工業株式会社
 41
0.80361088462
  7
EXCADSTD
 72
     5
 11
211.953878250259
 21
9.413236689254
 31
0.0
100
AcDbText
  0
LINE
  5
2A76
330
2A6C
100
AcDbEntity
  8
図枠細線
  6
CONTINUOUS
 62
   252
100
AcDbLine
 10
143.577871882961
 20
25.320842689254
 30
0.0
 11
213.577871882961
 21
25.320842689254
 31
0.0
  0
LINE
  5
2A77
330
2A6C
100
AcDbEntity
  8
図枠太線
  6
CONTINUOUS
 62
   251
100
AcDbLine
 10
143.577863882961
 20
17.820842689254
 30
0.0
 11
213.577871882961
 21
17.820842689254
 31
0.0
  0
LINE
  5
2A78
330
2A6C
100
AcDbEntity
  8
図枠細線
  6
CONTINUOUS
 62
   252
100
AcDbLine
 10
213.577871882961
 20
17.820842689254
 30
0.0
 11
283.577871882961
 21
17.820842689254
 31
0.0
  0
LINE
  5
2A79
330
2A6C
100
AcDbEntity
  8
図枠細線
  6
CONTINUOUS
 62
   252
100
AcDbLine
 10
120.577871882961
 20
32.820842689254
 30
0.0
 11
120.577871882961
 21
17.820842689254
 31
0.0
  0
MTEXT
  5
2A7A
330
2A6C
100
AcDbEntity
  8
図枠細線
 48
10.0
100
AcDbMText
 10
121.100885670352
 20
16.33785922638
 30
0.0
 40
2.0
 41
17.705978285068
 71
     1
 72
     5
  1
{\Fmonotxt.shx,bigfont.shx|c128;日付 DATE}
  0
MTEXT
  5
2A7B
330
2A6C
100
AcDbEntity
  8
図枠細線
 48
10.0
100
AcDbMText
 10
121.254842273491
 20
31.208993514037
 30
0.0
 40
2.0
 41
18.363799568758
 71
     1
 72
     5
  1
{\Fmonotxt.shx,bigfont.shx|c128;製図　DRAWN}
  0
LINE
  5
2A7C
330
2A6C
100
AcDbEntity
  8
図枠細線
  6
CONTINUOUS
 62
   252
100
AcDbLine
 10
97.577871882961
 20
32.820842689254
 30
0.0
 11
97.577871882961
 21
17.820842689254
 31
0.0
  0
MTEXT
  5
2A7D
330
2A6C
100
AcDbEntity
  8
図枠細線
 48
10.0
100
AcDbMText
 10
98.239734796872
 20
16.467764839281
 30
0.0
 40
2.0
 41
17.757791689903
 71
     1
 72
     5
  1
{\Fmonotxt.shx,bigfont.shx|c128;尺度　SCALE}
  0
MTEXT
  5
2A7E
330
2A6C
100
AcDbEntity
  8
図枠細線
 48
10.0
100
AcDbMText
 10
97.864744625154
 20
31.298433377664
 30
0.0
 40
2.0
 41
23.162655920976
 71
     1
 72
     5
  1
{\Fmonotxt.shx,bigfont.shx|c128;検図  CHECKED}
  0
LINE
  5
2A7F
330
2A6C
100
AcDbEntity
  8
図枠細線
  6
CONTINUOUS
 62
   252
100
AcDbLine
 10
97.577871882961
 20
2.820843367826
 30
0.0
 11
97.577871882961
 21
17.820841367826
 31
0.0
  0
LINE
  5
2A80
330
2A6C
100
AcDbEntity
  8
図枠細線
  6
CONTINUOUS
 62
   252
100
AcDbLine
 10
120.577871882961
 20
2.820844010683
 30
0.0
 11
120.577871882961
 21
17.820842010683
 31
0.0
  0
MTEXT
  5
2A81
330
2A6C
100
AcDbEntity
  8
図枠細線
 48
10.0
100
AcDbMText
 10
81.402399084102
 20
16.316484117426
 30
0.0
 40
2.0
 41
12.920322819369
 71
     1
 72
     5
  1
{\Fmonotxt.shx,bigfont.shx|c128;第三角法}
  0
MTEXT
  5
2A82
330
2A6C
100
AcDbEntity
  8
図枠細線
 48
10.0
100
AcDbMText
 10
75.736576535096
 20
11.080410931319
 30
0.0
 40
2.0
 41
21.072870671471
 71
     1
 72
     5
  1
{\Fmonotxt.shx,bigfont.shx|c128;THIRD ANGLE\PPROJECTION}
  0
LINE
  5
2A83
330
2A6C
100
AcDbEntity
  8
図枠太線
  6
CONTINUOUS
 62
   251
100
AcDbLine
 10
74.577871882961
 20
2.820844689254
 30
0.0
 11
74.577871882961
 21
32.820842689254
 31
0.0
  0
MTEXT
  5
2A84
330
2A6C
100
AcDbEntity
  8
図枠細線
 48
10.0
100
AcDbMText
 10
75.060214781573
 20
31.298434778555
 30
0.0
 40
2.0
 41
22.240928805967
 71
     1
 72
     5
  1
{\Fmonotxt.shx,bigfont.shx|c128;承認 APPROVED}
  0
LINE
  5
2A85
330
2A6C
100
AcDbEntity
  8
図枠細線
  6
CONTINUOUS
100
AcDbLine
 10
3.577871882961
 20
17.820844689254
 30
0.0
 11
74.577871882961
 21
17.820844689254
 31
0.0
  0
LINE
  5
2A86
330
2A6C
100
AcDbEntity
  8
図枠細線
  6
CONTINUOUS
 62
   252
100
AcDbLine
 10
3.577871882961
 20
27.820842689254
 30
0.0
 11
74.577871882961
 21
27.820842689254
 31
0.0
  0
LINE
  5
2A87
330
2A6C
100
AcDbEntity
  8
図枠細線
  6
CONTINUOUS
 62
   252
100
AcDbLine
 10
3.577871882961
 20
22.820842689254
 30
0.0
 11
74.577871882961
 21
22.820842689254
 31
0.0
  0
LINE
  5
2A88
330
2A6C
100
AcDbEntity
  8
図枠細線
  6
CONTINUOUS
 62
   252
100
AcDbLine
 10
3.577871882961
 20
12.820842689254
 30
0.0
 11
74.577871882961
 21
12.820842689254
 31
0.0
  0
LINE
  5
2A89
330
2A6C
100
AcDbEntity
  8
図枠細線
  6
CONTINUOUS
 62
   252
100
AcDbLine
 10
3.577871882961
 20
7.820844689254
 30
0.0
 11
74.577871882961
 21
7.820844689254
 31
0.0
  0
LINE
  5
2A8A
330
2A6C
100
AcDbEntity
  8
図枠細線
  6
CONTINUOUS
100
AcDbLine
 10
74.577871882961
 20
17.820843689254
 30
0.0
 11
143.577871882961
 21
17.820841224969
 31
0.0
  0
LINE
  5
2A8B
330
2A6C
100
AcDbEntity
  8
図枠太線
  6
CONTINUOUS
 62
   251
100
AcDbLine
 10
3.577871882961
 20
2.820844689254
 30
0.0
 11
283.577871882961
 21
2.820844689254
 31
0.0
  0
LINE
  5
2A8C
330
2A6C
100
AcDbEntity
  8
図枠太線
  6
CONTINUOUS
 62
   251
100
AcDbLine
 10
3.577871882961
 20
2.820844689254
 30
0.0
 11
3.577871882961
 21
32.820842689254
 31
0.0
  0
ENDBLK
  5
2A8D
330
2A6C
100
AcDbEntity
  8
0
100
AcDbBlockEnd
  0
BLOCK
  5
2AF8
330
2AF4
100
AcDbEntity
  8
0
 48
10.0
100
AcDbBlockBegin
  2
_OPEN30
 70
     0
 10
0.0
 20
0.0
 30
0.0
  3
_OPEN30
  1
_OPEN30
  0
LINE
  5
2AF5
330
2AF4
100
AcDbEntity
  8
0
  6
BYBLOCK
 62
     0
100
AcDbLine
 10
-1.0
 20
0.26794919
 30
0.0
 11
0.0
 21
0.0
 31
0.0
  0
LINE
  5
2AF6
330
2AF4
100
AcDbEntity
  8
0
  6
BYBLOCK
 62
     0
100
AcDbLine
 10
0.0
 20
0.0
 30
0.0
 11
-1.0
 21
-0.26794919
 31
0.0
  0
LINE
  5
2AF7
330
2AF4
100
AcDbEntity
  8
0
  6
BYBLOCK
 62
     0
100
AcDbLine
 10
0.0
 20
0.0
 30
0.0
 11
-1.0
 21
0.0
 31
0.0
  0
ENDBLK
  5
2AF9
330
2AF4
100
AcDbEntity
  8
0
 48
10.0
100
AcDbBlockEnd
  0
BLOCK
  5
2E6A
330
2E69
100
AcDbEntity
  8
0
 48
10.0
100
AcDbBlockBegin
  2
ケース外形図_HL-100
 70
     0
 10
0.0
 20
0.0
 30
0.0
  3
ケース外形図_HL-100
  1
ケース外形図_HL-100
  0
ARC
  5
2E6B
330
2E69
100
AcDbEntity
  8
外形線
100
AcDbCircle
 10
-2925.377906671296
 20
152.118815834594
 30
0.0
 40
7.5
100
AcDbArc
 50
0.0
 51
86.629979268965
  0
LINE
  5
2E6C
330
2E69
100
AcDbEntity
  8
外形線
100
AcDbLine
 10
-3002.377829171295
 20
141.457735857521
 30
0.0
 11
-2990.377829171296
 21
165.457828357521
 31
0.0
  0
LINE
  5
2E6D
330
2E69
100
AcDbEntity
  8
外形線
100
AcDbLine
 10
-2924.937026299913
 20
159.605846253801
 30
0.0
 11
-2966.627829171296
 21
162.060845849639
 31
0.0
  0
LINE
  5
2E6E
330
2E69
100
AcDbEntity
  8
外形線
100
AcDbLine
 10
-2990.377829171296
 20
165.457828357521
 30
0.0
 11
-2990.377829171296
 21
62.457798357521
 31
0.0
  0
LINE
  5
2E6F
330
2E69
100
AcDbEntity
  8
外形線
100
AcDbLine
 10
-2983.377861671295
 20
167.457798357521
 30
0.0
 11
-2983.377861671295
 21
60.457828357521
 31
0.0
  0
LINE
  5
2E70
330
2E69
100
AcDbEntity
  8
外形線
100
AcDbLine
 10
-2975.377829171296
 20
60.457828357521
 30
0.0
 11
-2975.377829171296
 21
167.457798357521
 31
0.0
  0
LINE
  5
2E71
330
2E69
100
AcDbEntity
  8
外形線
100
AcDbLine
 10
-2973.627829171295
 20
167.457798357521
 30
0.0
 11
-2973.627829171295
 21
60.457828357521
 31
0.0
  0
LINE
  5
2E72
330
2E69
100
AcDbEntity
  8
外形線
100
AcDbLine
 10
-2966.627829171296
 20
60.457828357521
 30
0.0
 11
-2966.627829171296
 21
167.457798357521
 31
0.0
  0
LINE
  5
2E73
330
2E69
100
AcDbEntity
  8
外形線
100
AcDbLine
 10
-3027.377829171295
 20
40.957783357521
 30
0.0
 11
-3027.377829171295
 21
195.957783357521
 31
0.0
  0
LINE
  5
2E74
330
2E69
100
AcDbEntity
  8
外形線
100
AcDbLine
 10
-3037.377829171295
 20
40.957860857521
 30
0.0
 11
-3037.377829171295
 21
195.957860857521
 31
0.0
  0
LINE
  5
2E75
330
2E69
100
AcDbEntity
  8
外形線
100
AcDbLine
 10
-2983.377861671295
 20
60.457828357521
 30
0.0
 11
-2966.627829171296
 21
60.457828357521
 31
0.0
  0
LINE
  5
2E76
330
2E69
100
AcDbEntity
  8
外形線
100
AcDbLine
 10
-3002.377829171295
 20
95.457828357521
 30
0.0
 11
-2990.377829171296
 21
62.457798357521
 31
0.0
  0
LINE
  5
2E77
330
2E69
100
AcDbEntity
  8
外形線
100
AcDbLine
 10
-3037.377829171295
 20
40.957783357521
 30
0.0
 11
-3027.377829171295
 21
40.957783357521
 31
0.0
  0
LINE
  5
2E78
330
2E69
100
AcDbEntity
  8
中心線
 48
10.0
100
AcDbLine
 10
-3044.864706671296
 20
53.457783357521
 30
0.0
 11
-3019.114164171296
 21
53.457783357521
 31
0.0
  0
LINE
  5
2E79
330
2E69
100
AcDbEntity
  8
外形線
100
AcDbLine
 10
-2990.377829171296
 20
62.457798357521
 30
0.0
 11
-2983.377861671295
 21
61.457735857521
 31
0.0
  0
LINE
  5
2E7A
330
2E69
100
AcDbEntity
  8
外形線
100
AcDbLine
 10
-3002.377829171295
 20
95.457828357521
 30
0.0
 11
-3002.377829171295
 21
141.457735857521
 31
0.0
  0
ARC
  5
2E7B
330
2E69
100
AcDbEntity
  8
細線
100
AcDbCircle
 10
-3053.115528206043
 20
118.457782357522
 30
0.0
 40
9.86227696525272
100
AcDbArc
 50
131.155220883625
 51
228.844779116375
  0
LINE
  5
2E7C
330
2E69
100
AcDbEntity
  8
外形線
100
AcDbLine
 10
-3062.977805171295
 20
130.157856357522
 30
0.0
 11
-3062.977805171295
 21
106.757710357522
 31
0.0
  0
LINE
  5
2E7D
330
2E69
100
AcDbEntity
  8
細線
100
AcDbLine
 10
-3042.804099171295
 20
133.308980357522
 30
0.0
 11
-3042.804099171295
 21
103.606586357521
 31
0.0
  0
LINE
  5
2E7E
330
2E69
100
AcDbEntity
  8
外形線
100
AcDbLine
 10
-3062.977805171295
 20
106.757710357522
 30
0.0
 11
-3059.446677171295
 21
103.457782357522
 31
0.0
  0
LINE
  5
2E7F
330
2E69
100
AcDbEntity
  8
外形線
100
AcDbLine
 10
-3059.605906697185
 20
103.606586357521
 30
0.0
 11
-3037.377829171295
 21
103.606586357521
 31
0.0
  0
LINE
  5
2E80
330
2E69
100
AcDbEntity
  8
細線
100
AcDbLine
 10
-3042.804099171295
 20
111.032183357522
 30
0.0
 11
-3059.605904653565
 21
111.032183357522
 31
0.0
  0
ARC
  5
2E81
330
2E69
100
AcDbEntity
  8
細線
100
AcDbCircle
 10
-3055.384420729553
 20
104.23489277973
 30
0.0
 40
8.00150521587242
100
AcDbArc
 50
121.842510322088
 51
161.621519846142
  0
ARC
  5
2E82
330
2E69
100
AcDbEntity
  8
外形線
100
AcDbCircle
 10
-3021.377921671296
 20
89.457765857521
 30
0.0
 40
6.0
100
AcDbArc
 50
89.999981276021
 51
180.00001984784
  0
LINE
  5
2E83
330
2E69
100
AcDbEntity
  8
外形線
100
AcDbLine
 10
-3021.377921671296
 20
95.457828357521
 30
0.0
 11
-3002.377829171295
 21
95.457828357521
 31
0.0
  0
LINE
  5
2E84
330
2E69
100
AcDbEntity
  8
外形線
100
AcDbLine
 10
-3059.605904653565
 20
133.308980357522
 30
0.0
 11
-3037.377829171295
 21
133.308980357522
 31
0.0
  0
LINE
  5
2E85
330
2E69
100
AcDbEntity
  8
細線
100
AcDbLine
 10
-3042.804099171295
 20
125.883381357521
 30
0.0
 11
-3059.605904653565
 21
125.883381357521
 31
0.0
  0
ARC
  5
2E86
330
2E69
100
AcDbEntity
  8
細線
100
AcDbCircle
 10
-3055.384420729553
 20
132.680671935313
 30
0.0
 40
8.00150521587242
100
AcDbArc
 50
198.378480153858
 51
238.157489677912
  0
LINE
  5
2E87
330
2E69
100
AcDbEntity
  8
外形線
100
AcDbLine
 10
-3062.977805171295
 20
130.157856357522
 30
0.0
 11
-3059.605904653565
 21
133.308980357522
 31
0.0
  0
ARC
  5
2E88
330
2E69
100
AcDbEntity
  8
外形線
100
AcDbCircle
 10
-3021.377921671296
 20
147.457798357521
 30
0.0
 40
6.0
100
AcDbArc
 50
180.00001984784
 51
270.0
  0
LINE
  5
2E89
330
2E69
100
AcDbEntity
  8
外形線
100
AcDbLine
 10
-3021.377921671296
 20
141.457735857521
 30
0.0
 11
-3002.377829171295
 21
141.457735857521
 31
0.0
  0
LINE
  5
2E8A
330
2E69
100
AcDbEntity
  8
外形線
100
AcDbLine
 10
-2917.877906671296
 20
152.118815834594
 30
0.0
 11
-2917.877906671296
 21
75.796810880449
 31
0.0
  0
LINE
  5
2E8B
330
2E69
100
AcDbEntity
  8
外形線
100
AcDbLine
 10
-2925.789370913838
 20
67.122885519941
 30
0.0
 11
-2926.321109507413
 21
51.266759702689
 31
0.0
  0
LINE
  5
2E8C
330
2E69
100
AcDbEntity
  8
外形線
100
AcDbLine
 10
-2954.86089061111
 20
63.980015655949
 30
0.0
 11
-2954.434548835178
 21
51.266759702689
 31
0.0
  0
LINE
  5
2E8D
330
2E69
100
AcDbEntity
  8
中心線
 48
10.0
100
AcDbLine
 10
-2940.377829171296
 20
75.649935857521
 30
0.0
 11
-2940.377829171296
 21
33.510113357521
 31
0.0
  0
ARC
  5
2E8E
330
2E69
100
AcDbEntity
  8
細線
100
AcDbCircle
 10
-2940.377906671296
 20
52.324970857521
 30
0.0
 40
12.7495375
100
AcDbArc
 50
241.926501556963
 51
298.073500690785
  0
LINE
  5
2E8F
330
2E69
100
AcDbEntity
  8
外形線
100
AcDbLine
 10
-2952.377876671295
 20
45.575473357521
 30
0.0
 11
-2928.377936671295
 21
45.575473357521
 31
0.0
  0
LINE
  5
2E90
330
2E69
100
AcDbEntity
  8
外形線
100
AcDbLine
 10
-2952.685532040298
 20
49.575413357521
 30
0.0
 11
-2928.070126302293
 21
49.575413357521
 31
0.0
  0
LINE
  5
2E91
330
2E69
100
AcDbEntity
  8
外形線
100
AcDbLine
 10
-2949.377844171295
 20
39.575413357521
 30
0.0
 11
-2931.377891671295
 21
39.575413357521
 31
0.0
  0
ARC
  5
2E92
330
2E69
100
AcDbEntity
  8
細線
100
AcDbCircle
 10
-2950.887549171296
 20
46.344820857521
 30
0.0
 40
6.935630000000001
100
AcDbArc
 50
282.571898360404
 51
310.557678088908
  0
LINE
  5
2E93
330
2E69
100
AcDbEntity
  8
細線
100
AcDbLine
 10
-2946.377891671295
 20
45.575473357521
 30
0.0
 11
-2946.377891671295
 21
41.075428357521
 31
0.0
  0
LINE
  5
2E94
330
2E69
100
AcDbEntity
  8
外形線
100
AcDbLine
 10
-2950.627921671295
 20
45.575473357521
 30
0.0
 11
-2950.627921671295
 21
49.575413357521
 31
0.0
  0
LINE
  5
2E95
330
2E69
100
AcDbEntity
  8
細線
100
AcDbLine
 10
-2948.127921671295
 20
49.575413357521
 30
0.0
 11
-2948.127921671295
 21
45.575473357521
 31
0.0
  0
ARC
  5
2E96
330
2E69
100
AcDbEntity
  8
外形線
100
AcDbCircle
 10
-2952.685532040298
 20
51.325413357521
 30
0.0
 40
1.75
100
AcDbArc
 50
181.920706503578
 51
270.0
  0
LINE
  5
2E97
330
2E69
100
AcDbEntity
  8
外形線
100
AcDbLine
 10
-2949.377844171295
 20
39.575413357521
 30
0.0
 11
-2952.377876671295
 21
41.075428357521
 31
0.0
  0
LINE
  5
2E98
330
2E69
100
AcDbEntity
  8
外形線
100
AcDbLine
 10
-2952.377876671295
 20
45.575473357521
 30
0.0
 11
-2952.377876671295
 21
41.075428357521
 31
0.0
  0
ARC
  5
2E99
330
2E69
100
AcDbEntity
  8
細線
100
AcDbCircle
 10
-2929.868261671295
 20
46.344820857521
 30
0.0
 40
6.935630000000001
100
AcDbArc
 50
229.442381454627
 51
257.428103887329
  0
LINE
  5
2E9A
330
2E69
100
AcDbEntity
  8
細線
100
AcDbLine
 10
-2934.377921671295
 20
45.575473357521
 30
0.0
 11
-2934.377921671295
 21
41.075428357521
 31
0.0
  0
LINE
  5
2E9B
330
2E69
100
AcDbEntity
  8
外形線
100
AcDbLine
 10
-2930.127891671295
 20
45.575473357521
 30
0.0
 11
-2930.127891671295
 21
49.575413357521
 31
0.0
  0
LINE
  5
2E9C
330
2E69
100
AcDbEntity
  8
細線
100
AcDbLine
 10
-2932.627891671295
 20
49.575413357521
 30
0.0
 11
-2932.627891671295
 21
45.575473357521
 31
0.0
  0
ARC
  5
2E9D
330
2E69
100
AcDbEntity
  8
外形線
100
AcDbCircle
 10
-2928.070126302293
 20
51.325413357521
 30
0.0
 40
1.75
100
AcDbArc
 50
270.0
 51
358.079293496422
  0
LINE
  5
2E9E
330
2E69
100
AcDbEntity
  8
外形線
100
AcDbLine
 10
-2931.377966671296
 20
39.575413357521
 30
0.0
 11
-2928.377936671295
 21
41.075428357521
 31
0.0
  0
LINE
  5
2E9F
330
2E69
100
AcDbEntity
  8
外形線
100
AcDbLine
 10
-2928.377936671295
 20
45.575473357521
 30
0.0
 11
-2928.377936671295
 21
41.075428357521
 31
0.0
  0
ARC
  5
2EA0
330
2E69
100
AcDbEntity
  8
外形線
100
AcDbCircle
 10
-2925.377906671296
 20
75.796810880449
 30
0.0
 40
7.5
100
AcDbArc
 50
273.370020731035
 51
0.0
  0
LINE
  5
2EA1
330
2E69
100
AcDbEntity
  8
外形線
100
AcDbLine
 10
-2924.937026299913
 20
68.309780461244
 30
0.0
 11
-2966.627829171296
 21
65.854780865404
 31
0.0
  0
ARC
  5
2EA2
330
2E69
100
AcDbEntity
  8
外形線
100
AcDbCircle
 10
-2957.359486032368
 20
63.896224720476
 30
0.0
 40
2.5
100
AcDbArc
 50
1.920706503578
 51
93.370020731035
  0
LINE
  5
2EA3
330
2E69
100
AcDbEntity
  8
外形線
100
AcDbLine
 10
-2924.598459495897
 20
67.694343137641
 30
0.0
 11
-2924.603574782856
 21
67.694122607611
 31
0.0
  0
ARC
  5
2EA4
330
2E69
100
AcDbEntity
  8
外形線
100
AcDbCircle
 10
-2924.540073203208
 20
67.080990052204
 30
0.0
 40
1.25
100
AcDbArc
 50
93.370020731035
 51
178.079293496422
  0
LINE
  5
2EA5
330
2E69
100
AcDbEntity
  8
外形線
100
AcDbLine
 10
-2915.377981671295
 20
138.457783357521
 30
0.0
 11
-2915.377981671295
 21
98.457783357521
 31
0.0
  0
ARC
  5
2EA6
330
2E69
100
AcDbEntity
  8
外形線
100
AcDbCircle
 10
-2915.712531671295
 20
96.243655857521
 30
0.0
 40
2.2392525
100
AcDbArc
 50
81.407104039339
 51
165.246528510565
  0
ARC
  5
2EA7
330
2E69
100
AcDbEntity
  8
外形線
100
AcDbCircle
 10
-2915.712531671295
 20
140.671908357521
 30
0.0
 40
2.2392525
100
AcDbArc
 50
194.753453889343
 51
278.592935656363
  0
LINE
  5
2EA8
330
2E69
100
AcDbEntity
  8
外形線
100
AcDbLine
 10
-2966.627829171296
 20
167.457798357521
 30
0.0
 11
-2983.377861671295
 21
167.457798357521
 31
0.0
  0
LINE
  5
2EA9
330
2E69
100
AcDbEntity
  8
中心線
 48
10.0
100
AcDbLine
 10
-3044.864706671296
 20
183.457783357521
 30
0.0
 11
-3019.114164171296
 21
183.457783357521
 31
0.0
  0
LINE
  5
2EAA
330
2E69
100
AcDbEntity
  8
外形線
100
AcDbLine
 10
-2990.377829171296
 20
165.457828357521
 30
0.0
 11
-2983.377861671295
 21
166.457735857521
 31
0.0
  0
LINE
  5
2EAB
330
2E69
100
AcDbEntity
  8
外形線
100
AcDbLine
 10
-3037.377829171295
 20
195.957783357521
 30
0.0
 11
-3027.377829171295
 21
195.957783357521
 31
0.0
  0
ENDBLK
  5
2EAC
330
2E69
100
AcDbEntity
  8
0
 48
10.0
100
AcDbBlockEnd
  0
BLOCK
  5
2EB6
330
2EB5
100
AcDbEntity
  8
0
 48
10.0
100
AcDbBlockBegin
  2
パドル_W1
 70
     0
 10
0.0
 20
0.0
 30
0.0
  3
パドル_W1
  1
パドル_W1
  0
LINE
  5
2EB7
330
2EB5
100
AcDbEntity
  8
中心線
 48
10.0
100
AcDbLine
 10
124.6832879095
 20
220.674073777677
 30
0.0
 11
131.9189439095
 21
220.674073777677
 31
0.0
  0
LINE
  5
2EB8
330
2EB5
100
AcDbEntity
  8
外形線
 48
10.0
100
AcDbLine
 10
58.3011159095
 20
260.651761921811
 30
0.0
 11
58.3011159095
 21
180.651761921811
 31
0.0
  0
LINE
  5
2EB9
330
2EB5
100
AcDbEntity
  8
外形線
 48
10.0
100
AcDbLine
 10
58.3011159095
 20
180.651761921811
 30
0.0
 11
123.3011159095
 21
180.651761921811
 31
0.0
  0
LINE
  5
2EBA
330
2EB5
100
AcDbEntity
  8
外形線
 48
10.0
100
AcDbLine
 10
138.3011159095
 20
208.651761921811
 30
0.0
 11
138.3011159095
 21
212.376811207105
 31
0.0
  0
LINE
  5
2EBB
330
2EB5
100
AcDbEntity
  8
外形線
 48
10.0
100
AcDbLine
 10
123.3011159095
 20
260.651761921811
 30
0.0
 11
58.3011159095
 21
260.651761921811
 31
0.0
  0
LINE
  5
2EBC
330
2EB5
100
AcDbEntity
  8
外形線
 48
10.0
100
AcDbLine
 10
138.3011159095
 20
232.651761921811
 30
0.0
 11
123.3011159095
 21
260.651761921811
 31
0.0
  0
LINE
  5
2EBD
330
2EB5
100
AcDbEntity
  8
外形線
 48
10.0
100
AcDbLine
 10
138.3011159095
 20
208.651761921811
 30
0.0
 11
123.3011159095
 21
180.651761921811
 31
0.0
  0
LINE
  5
2EBE
330
2EB5
100
AcDbEntity
  8
外形線
 48
10.0
100
AcDbLine
 10
153.3011159095
 20
212.376811207105
 30
0.0
 11
153.3011159095
 21
228.941629207105
 31
0.0
  0
LINE
  5
2EBF
330
2EB5
100
AcDbEntity
  8
外形線
100
AcDbLine
 10
125.0147379095
 20
212.376811207105
 30
0.0
 11
153.3011159095
 21
212.376811207105
 31
0.0
  0
LINE
  5
2EC0
330
2EB5
100
AcDbEntity
  8
細線
100
AcDbLine
 10
153.2891519095
 20
216.518045207105
 30
0.0
 11
124.6692799095
 21
216.518045207105
 31
0.0
  0
LINE
  5
2EC1
330
2EB5
100
AcDbEntity
  8
外形線
100
AcDbLine
 10
125.0147379095
 20
228.941629207105
 30
0.0
 11
123.3011159095
 21
227.228007207105
 31
0.0
  0
ARC
  5
2EC2
330
2EB5
100
AcDbEntity
  8
細線
100
AcDbCircle
 10
126.4810479095
 20
227.420755207105
 30
0.0
 40
3.18575
100
AcDbArc
 50
183.469852255156
 51
235.339263082109
  0
LINE
  5
2EC3
330
2EB5
100
AcDbEntity
  8
細線
100
AcDbLine
 10
153.2891519095
 20
224.800395207105
 30
0.0
 11
124.6692799095
 21
224.800395207105
 31
0.0
  0
ARC
  5
2EC4
330
2EB5
100
AcDbEntity
  8
細線
100
AcDbCircle
 10
126.4810479095
 20
213.897685207105
 30
0.0
 40
3.18575
100
AcDbArc
 50
124.660776613574
 51
176.530130144749
  0
LINE
  5
2EC5
330
2EB5
100
AcDbEntity
  8
外形線
100
AcDbLine
 10
123.3011159095
 20
227.228007207105
 30
0.0
 11
123.3011159095
 21
214.090433207105
 31
0.0
  0
CIRCLE
  5
2EC6
330
2EB5
100
AcDbEntity
  8
外形線
100
AcDbCircle
 10
128.3011159095
 20
220.674073777677
 30
0.0
 40
2.28479
  0
ARC
  5
2EC7
330
2EB5
100
AcDbEntity
  8
細線
100
AcDbCircle
 10
130.2525019095
 20
220.659219207105
 30
0.0
 40
6.951389999999999
100
AcDbArc
 50
143.43540034864
 51
216.564582051267
  0
LINE
  5
2EC8
330
2EB5
100
AcDbEntity
  8
中心線
 48
10.0
100
AcDbLine
 10
128.3011159095
 20
224.291901777677
 30
0.0
 11
128.3011159095
 21
217.056245777676
 31
0.0
  0
LINE
  5
2EC9
330
2EB5
100
AcDbEntity
  8
外形線
100
AcDbLine
 10
125.0147379095
 20
212.376811207105
 30
0.0
 11
123.3011159095
 21
214.090433207105
 31
0.0
  0
LINE
  5
2ECA
330
2EB5
100
AcDbEntity
  8
外形線
100
AcDbLine
 10
125.0147379095
 20
228.941629207105
 30
0.0
 11
153.3011159095
 21
228.941629207105
 31
0.0
  0
LINE
  5
2ECB
330
2EB5
100
AcDbEntity
  8
外形線
 48
10.0
100
AcDbLine
 10
138.3011159095
 20
228.941629207105
 30
0.0
 11
138.3011159095
 21
232.651761921811
 31
0.0
  0
ENDBLK
  5
2ECC
330
2EB5
100
AcDbEntity
  8
0
 48
10.0
100
AcDbBlockEnd
  0
BLOCK
  5
2EE6
330
2EE5
100
AcDbEntity
  8
0
 48
10.0
100
AcDbBlockBegin
  2
パドル_W1立面図
 70
     0
 10
0.0
 20
0.0
 30
0.0
  3
パドル_W1立面図
  1
パドル_W1立面図
  0
LINE
  5
2EE7
330
2EE5
100
AcDbEntity
  8
外形線
 48
10.0
100
AcDbLine
 10
-4.385455455444
 20
189.61846140322
 30
0.0
 11
-7.241459969979
 21
189.61846140322
 31
0.0
  0
LINE
  5
2EE8
330
2EE5
100
AcDbEntity
  8
外形線
 48
10.0
100
AcDbLine
 10
-4.385455455444
 20
269.61846140322
 30
0.0
 11
-7.241459969979
 21
269.61846140322
 31
0.0
  0
LINE
  5
2EE9
330
2EE5
100
AcDbEntity
  8
外形線
 48
10.0
100
AcDbLine
 10
-4.385455455444
 20
189.61846140322
 30
0.0
 11
-4.385455455444
 21
269.61846140322
 31
0.0
  0
LINE
  5
2EEA
330
2EE5
100
AcDbEntity
  8
外形線
 48
10.0
100
AcDbLine
 10
-7.241459969979
 20
269.61846140322
 30
0.0
 11
-7.241459969979
 21
189.61846140322
 31
0.0
  0
LINE
  5
2EEB
330
2EE5
100
AcDbEntity
  8
外形線
100
AcDbLine
 10
-4.385468503734
 20
237.376935973808
 30
0.0
 11
1.606659496266
 21
233.917433973808
 31
0.0
  0
ARC
  5
2EEC
330
2EE5
100
AcDbEntity
  8
細線
100
AcDbCircle
 10
-5.813446503734
 20
229.633375973808
 30
0.0
 40
8.568
100
AcDbArc
 50
279.594007516002
 51
80.406014579591
  0
LINE
  5
2EED
330
2EE5
100
AcDbEntity
  8
外形線
100
AcDbLine
 10
1.606659496266
 20
233.917433973808
 30
0.0
 11
1.606659496266
 21
225.349439973808
 31
0.0
  0
LINE
  5
2EEE
330
2EE5
100
AcDbEntity
  8
外形線
100
AcDbLine
 10
-4.385468503734
 20
221.889815973808
 30
0.0
 11
1.606659496266
 21
225.349439973808
 31
0.0
  0
ARC
  5
2EEF
330
2EE5
100
AcDbEntity
  8
細線
100
AcDbCircle
 10
-5.813446503734
 20
229.633375973808
 30
0.0
 40
7.458525999999999
100
AcDbArc
 50
281.037746568172
 51
78.962275527419
  0
LINE
  5
2EF0
330
2EE5
100
AcDbEntity
  8
外形線
100
AcDbLine
 10
-7.241454503734
 20
221.889845973808
 30
0.0
 11
-13.233550503734
 21
225.349439973808
 31
0.0
  0
LINE
  5
2EF1
330
2EE5
100
AcDbEntity
  8
外形線
100
AcDbLine
 10
-13.233550503734
 20
225.349439973808
 30
0.0
 11
-13.233550503734
 21
233.917433973808
 31
0.0
  0
LINE
  5
2EF2
330
2EE5
100
AcDbEntity
  8
外形線
100
AcDbLine
 10
-7.241454503734
 20
237.376905973808
 30
0.0
 11
-13.233550503734
 21
233.917433973808
 31
0.0
  0
ARC
  5
2EF3
330
2EE5
100
AcDbEntity
  8
細線
100
AcDbCircle
 10
-5.813446503734
 20
229.633375973808
 30
0.0
 40
7.458525999999999
100
AcDbArc
 50
101.038013199227
 51
258.962026496458
  0
ARC
  5
2EF4
330
2EE5
100
AcDbEntity
  8
細線
100
AcDbCircle
 10
-5.813446503734
 20
229.633375973808
 30
0.0
 40
8.568
100
AcDbArc
 50
99.594159555498
 51
260.405880140189
  0
ENDBLK
  5
2EF5
330
2EE5
100
AcDbEntity
  8
0
 48
10.0
100
AcDbBlockEnd
  0
BLOCK
  5
2F56
330
2F55
100
AcDbEntity
  8
0
 48
10.0
100
AcDbBlockBegin
  2
*D9
 70
     1
 10
0.0
 20
0.0
 30
0.0
  3
*D9
  1
*D9
  0
LINE
  5
2F57
330
2F55
100
AcDbEntity
  8
寸法線
 62
     0
 48
10.0
100
AcDbLine
 10
-49.24303505395
 20
269.61846140322
 30
0.0
 11
-71.827276343155
 21
269.61846140322
 31
0.0
  0
LINE
  5
2F58
330
2F55
100
AcDbEntity
  8
寸法線
 62
     0
 48
10.0
100
AcDbLine
 10
-49.24303505395
 20
189.61846140322
 30
0.0
 11
-71.827276343155
 21
189.61846140322
 31
0.0
  0
LINE
  5
2F59
330
2F55
100
AcDbEntity
  8
寸法線
 62
     0
 48
10.0
100
AcDbLine
 10
-70.577276343155
 20
263.61846140322
 30
0.0
 11
-70.577276343155
 21
195.61846140322
 31
0.0
  0
INSERT
  5
2F5A
330
2F55
100
AcDbEntity
  8
寸法線
 62
     0
 48
10.0
100
AcDbBlockReference
  2
_OPEN30
 10
-70.577276343155
 20
269.61846140322
 30
0.0
 41
6.0
 42
6.0
 43
6.0
 50
90.0
  0
INSERT
  5
2F5B
330
2F55
100
AcDbEntity
  8
寸法線
 62
     0
 48
10.0
100
AcDbBlockReference
  2
_OPEN30
 10
-70.577276343155
 20
189.61846140322
 30
0.0
 41
6.0
 42
6.0
 43
6.0
 50
270.0
  0
MTEXT
  5
2F5C
330
2F55
100
AcDbEntity
  8
寸法線
 62
     0
 48
10.0
100
AcDbMText
 10
-73.702276343155
 20
229.61846140322
 30
0.0
 40
5.0
 41
0.0
 71
     5
 72
     1
  1
\A1;80
 11
6.123031769111886E-17
 21
1.0
 31
0.0
  0
POINT
  5
2F5D
330
2F55
100
AcDbEntity
  8
DEFPOINTS
 62
     0
 48
10.0
100
AcDbPoint
 10
-48.61803505395
 20
269.61846140322
 30
0.0
  0
POINT
  5
2F5E
330
2F55
100
AcDbEntity
  8
DEFPOINTS
 62
     0
 48
10.0
100
AcDbPoint
 10
-48.61803505395
 20
189.61846140322
 30
0.0
  0
POINT
  5
2F5F
330
2F55
100
AcDbEntity
  8
DEFPOINTS
 62
     0
 48
10.0
100
AcDbPoint
 10
-70.577276343155
 20
189.61846140322
 30
0.0
  0
ENDBLK
  5
2F60
330
2F55
100
AcDbEntity
  8
0
 48
10.0
100
AcDbBlockEnd
  0
BLOCK
  5
2F62
330
2F61
100
AcDbEntity
  8
0
 48
10.0
100
AcDbBlockBegin
  2
*D10
 70
     1
 10
0.0
 20
0.0
 30
0.0
  3
*D10
  1
*D10
  0
LINE
  5
2F63
330
2F61
100
AcDbEntity
  8
寸法線
 62
     0
 48
10.0
100
AcDbLine
 10
-48.61803505395
 20
188.99346140322
 30
0.0
 11
-48.61803505395
 21
169.842404217648
 31
0.0
  0
LINE
  5
2F64
330
2F61
100
AcDbEntity
  8
寸法線
 62
     0
 48
10.0
100
AcDbLine
 10
31.38196494605
 20
216.99346140322
 30
0.0
 11
31.38196494605
 21
169.842404217648
 31
0.0
  0
LINE
  5
2F65
330
2F61
100
AcDbEntity
  8
寸法線
 62
     0
 48
10.0
100
AcDbLine
 10
-42.61803505395
 20
171.092404217648
 30
0.0
 11
25.38196494605
 21
171.092404217648
 31
0.0
  0
INSERT
  5
2F66
330
2F61
100
AcDbEntity
  8
寸法線
 62
     0
 48
10.0
100
AcDbBlockReference
  2
_OPEN30
 10
-48.61803505395
 20
171.092404217648
 30
0.0
 41
6.0
 42
6.0
 43
6.0
 50
180.0
  0
INSERT
  5
2F67
330
2F61
100
AcDbEntity
  8
寸法線
 62
     0
 48
10.0
100
AcDbBlockReference
  2
_OPEN30
 10
31.38196494605
 20
171.092404217648
 30
0.0
 41
6.0
 42
6.0
 43
6.0
  0
MTEXT
  5
2F68
330
2F61
100
AcDbEntity
  8
寸法線
 62
     0
 48
10.0
100
AcDbMText
 10
-8.61803505395
 20
174.217404217648
 30
0.0
 40
5.0
 41
0.0
 71
     5
 72
     1
  1
\A1;80
  0
POINT
  5
2F69
330
2F61
100
AcDbEntity
  8
DEFPOINTS
 62
     0
 48
10.0
100
AcDbPoint
 10
-48.61803505395
 20
189.61846140322
 30
0.0
  0
POINT
  5
2F6A
330
2F61
100
AcDbEntity
  8
DEFPOINTS
 62
     0
 48
10.0
100
AcDbPoint
 10
31.38196494605
 20
217.61846140322
 30
0.0
  0
POINT
  5
2F6B
330
2F61
100
AcDbEntity
  8
DEFPOINTS
 62
     0
 48
10.0
100
AcDbPoint
 10
31.38196494605
 20
171.092404217648
 30
0.0
  0
ENDBLK
  5
2F6C
330
2F61
100
AcDbEntity
  8
0
 48
10.0
100
AcDbBlockEnd
  0
BLOCK
  5
2F6E
330
2F6D
100
AcDbEntity
  8
0
 48
10.0
100
AcDbBlockBegin
  2
*D11
 70
     1
 10
0.0
 20
0.0
 30
0.0
  3
*D11
  1
*D11
  0
LINE
  5
2F6F
330
2F6D
100
AcDbEntity
  8
寸法線
 62
     0
 48
10.0
100
AcDbLine
 10
-142.545856406188
 20
188.99346140322
 30
0.0
 11
-142.545856406188
 21
171.16763126853
 31
0.0
  0
LINE
  5
2F70
330
2F6D
100
AcDbEntity
  8
寸法線
 62
     0
 48
10.0
100
AcDbLine
 10
-139.689851891653
 20
188.99346140322
 30
0.0
 11
-139.689851891653
 21
171.16763126853
 31
0.0
  0
LINE
  5
2F71
330
2F6D
100
AcDbEntity
  8
寸法線
 62
     0
 48
10.0
100
AcDbLine
 10
-148.545856406188
 20
172.41763126853
 30
0.0
 11
-154.545856406188
 21
172.41763126853
 31
0.0
  0
LINE
  5
2F72
330
2F6D
100
AcDbEntity
  8
寸法線
 62
     0
 48
10.0
100
AcDbLine
 10
-133.689851891653
 20
172.41763126853
 30
0.0
 11
-120.232745110466
 21
172.41763126853
 31
0.0
  0
LINE
  5
2F73
330
2F6D
100
AcDbEntity
  8
寸法線
 62
     0
 48
10.0
100
AcDbLine
 10
-142.545856406188
 20
172.41763126853
 30
0.0
 11
-139.689851891653
 21
172.41763126853
 31
0.0
  0
INSERT
  5
2F74
330
2F6D
100
AcDbEntity
  8
寸法線
 62
     0
 48
10.0
100
AcDbBlockReference
  2
_OPEN30
 10
-142.545856406188
 20
172.41763126853
 30
0.0
 41
6.0
 42
6.0
 43
6.0
  0
INSERT
  5
2F75
330
2F6D
100
AcDbEntity
  8
寸法線
 62
     0
 48
10.0
100
AcDbBlockReference
  2
_OPEN30
 10
-139.689851891653
 20
172.41763126853
 30
0.0
 41
6.0
 42
6.0
 43
6.0
 50
180.0
  0
MTEXT
  5
2F76
330
2F6D
100
AcDbEntity
  8
寸法線
 62
     0
 48
10.0
100
AcDbMText
 10
-123.961298501059
 20
175.54263126853
 30
0.0
 40
5.0
 41
0.0
 71
     5
 72
     1
  1
\A1;1.5
  0
POINT
  5
2F77
330
2F6D
100
AcDbEntity
  8
DEFPOINTS
 62
     0
 48
10.0
100
AcDbPoint
 10
-142.545856406188
 20
189.61846140322
 30
0.0
  0
POINT
  5
2F78
330
2F6D
100
AcDbEntity
  8
DEFPOINTS
 62
     0
 48
10.0
100
AcDbPoint
 10
-139.689851891653
 20
189.61846140322
 30
0.0
  0
POINT
  5
2F79
330
2F6D
100
AcDbEntity
  8
DEFPOINTS
 62
     0
 48
10.0
100
AcDbPoint
 10
-139.689851891653
 20
172.41763126853
 30
0.0
  0
ENDBLK
  5
2F7A
330
2F6D
100
AcDbEntity
  8
0
 48
10.0
100
AcDbBlockEnd
  0
BLOCK
  5
2F8F
330
2F7B
100
AcDbEntity
  8
0
 48
10.0
100
AcDbBlockBegin
  2
A$C7CD60800
 70
     0
 10
0.0
 20
0.0
 30
0.0
  3
A$C7CD60800
  1
A$C7CD60800
  0
INSERT
  5
2F7C
330
2F7B
100
AcDbEntity
  8
外形線
 48
10.0
100
AcDbBlockReference
  2
パドル_W1
 10
47.626705283949
 20
-160.518009493956
 30
0.0
  0
DIMENSION
  5
2F7D
330
2F7B
100
AcDbEntity
  8
寸法線
 48
10.0
100
AcDbDimension
  2
*D11
 10
14.856004355747
 20
2.932922293165
 30
0.0
 11
30.58455774634
 21
6.057922293165
 31
0.0
 12
154.5458562474
 22
-169.484708975365
 32
0.0
  1
1.5
  3
ISO-25
100
AcDbAlignedDimension
 13
11.999999841212
 23
20.133752427855
 33
0.0
 14
14.856004355747
 24
20.133752427855
 34
0.0
100
AcDbRotatedDimension
1001
ACAD
1000
DSTYLE
1002
{
1070
     5
1000
OPEN30
1070
    41
1040
6.0
1070
    47
1040
0.1
1070
    48
1040
0.1
1070
    73
1070
     0
1070
   140
1040
5.0
1070
   271
1070
     1
1070
   272
1070
     1
1070
   341
1005
2AF4
1002
}
  0
INSERT
  5
2F7E
330
2F7B
100
AcDbEntity
  8
外形線
100
AcDbBlockReference
  2
パドル_W1立面図
 10
19.241459811191
 20
-169.484708975365
 30
0.0
  0
DIMENSION
  5
2F7F
330
2F7B
100
AcDbEntity
  8
寸法線
 48
10.0
100
AcDbDimension
  2
*D10
 10
185.92782119345
 20
1.607695242283
 30
0.0
 11
145.92782119345
 21
4.732695242283
 31
0.0
 12
154.5458562474
 22
-169.484708975365
 32
0.0
  3
ISO-25
100
AcDbAlignedDimension
 13
105.92782119345
 23
20.133752427855
 33
0.0
 14
185.92782119345
 24
48.133752427855
 34
0.0
100
AcDbRotatedDimension
1001
ACAD
1000
DSTYLE
1002
{
1070
     5
1000
OPEN30
1070
    41
1040
6.0
1070
    47
1040
0.1
1070
    48
1040
0.1
1070
    73
1070
     0
1070
   140
1040
5.0
1070
   271
1070
     1
1070
   272
1070
     1
1070
   341
1005
2AF4
1002
}
  0
DIMENSION
  5
2F80
330
2F7B
100
AcDbEntity
  8
寸法線
 48
10.0
100
AcDbDimension
  2
*D9
 10
83.968579904245
 20
20.133752427855
 30
0.0
 11
80.843579904245
 21
60.133752427855
 31
0.0
 12
154.5458562474
 22
-169.484708975365
 32
0.0
  3
ISO-25
100
AcDbAlignedDimension
 13
105.92782119345
 23
100.133752427855
 33
0.0
 14
105.92782119345
 24
20.133752427855
 34
0.0
 50
90.0
100
AcDbRotatedDimension
1001
ACAD
1000
DSTYLE
1002
{
1070
     5
1000
OPEN30
1070
    41
1040
6.0
1070
    47
1040
0.1
1070
    48
1040
0.1
1070
    73
1070
     0
1070
   140
1040
5.0
1070
   271
1070
     1
1070
   272
1070
     1
1070
   341
1005
2AF4
1002
}
  0
LINE
  5
2F81
330
2F7B
100
AcDbEntity
  8
外形線
100
AcDbLine
 10
312.227696202849
 20
154.159896392983
 30
0.0
 11
519.638226201979
 21
154.159896392983
 31
0.0
  0
LINE
  5
2F82
330
2F7B
100
AcDbEntity
  8
外形線
100
AcDbLine
 10
312.227696202849
 20
144.159973892983
 30
0.0
 11
519.638226201979
 21
144.159973892983
 31
0.0
  0
LINE
  5
2F83
330
2F7B
100
AcDbEntity
  8
外形線
100
AcDbLine
 10
303.727696202849
 20
157.303858892983
 30
0.0
 11
309.981068702849
 21
157.303858892983
 31
0.0
  0
LINE
  5
2F84
330
2F7B
100
AcDbEntity
  8
外形線
100
AcDbLine
 10
309.981068702849
 20
157.303858892983
 30
0.0
 11
312.227621202848
 21
155.057153892983
 31
0.0
  0
LINE
  5
2F85
330
2F7B
100
AcDbEntity
  8
細線
100
AcDbLine
 10
305.727696202848
 20
153.231858892983
 30
0.0
 11
310.983177129857
 21
153.231858892983
 31
0.0
  0
ARC
  5
2F86
330
2F7B
100
AcDbEntity
  8
細線
100
AcDbCircle
 10
308.639058702848
 20
156.166926392983
 30
0.0
 40
3.7563025
100
AcDbArc
 50
308.612371782873
 51
342.81588950412
  0
LINE
  5
2F87
330
2F7B
100
AcDbEntity
  8
外形線
100
AcDbLine
 10
303.727696202849
 20
141.015938892983
 30
0.0
 11
309.981068702849
 21
141.015938892983
 31
0.0
  0
LINE
  5
2F88
330
2F7B
100
AcDbEntity
  8
外形線
100
AcDbLine
 10
309.981068702849
 20
141.015938892983
 30
0.0
 11
312.227621202848
 21
143.262568892983
 31
0.0
  0
LINE
  5
2F89
330
2F7B
100
AcDbEntity
  8
外形線
100
AcDbLine
 10
303.727696202849
 20
157.303858892983
 30
0.0
 11
303.727696202849
 21
141.015938892983
 31
0.0
  0
LINE
  5
2F8A
330
2F7B
100
AcDbEntity
  8
外形線
100
AcDbLine
 10
305.727696202848
 20
157.303858892983
 30
0.0
 11
305.727696202848
 21
141.015938892983
 31
0.0
  0
LINE
  5
2F8B
330
2F7B
100
AcDbEntity
  8
細線
100
AcDbLine
 10
305.727696202848
 20
145.087976392983
 30
0.0
 11
310.983137175218
 21
145.087976392983
 31
0.0
  0
ARC
  5
2F8C
330
2F7B
100
AcDbEntity
  8
細線
100
AcDbCircle
 10
308.639058702848
 20
142.152718892983
 30
0.0
 40
3.7563025
100
AcDbArc
 50
17.184150191555
 51
51.38761061704
  0
LINE
  5
2F8D
330
2F7B
100
AcDbEntity
  8
外形線
100
AcDbLine
 10
312.227696202849
 20
143.262491392983
 30
0.0
 11
312.227696202849
 21
155.057153892983
 31
0.0
  0
ARC
  5
2F8E
330
2F7B
100
AcDbEntity
  8
細線
100
AcDbCircle
 10
304.943838702849
 20
149.159861392983
 30
0.0
 40
7.2838425
100
AcDbArc
 50
326.010120640452
 51
33.98932849733
  0
ENDBLK
  5
2F90
330
2F7B
100
AcDbEntity
  8
0
 48
10.0
100
AcDbBlockEnd
  0
BLOCK
  5
32DB
330
32DA
100
AcDbEntity
  8
0
 48
10.0
100
AcDbBlockBegin
  2
ケース外形図_HL-170
 70
     0
 10
0.0
 20
0.0
 30
0.0
  3
ケース外形図_HL-170
  1
ケース外形図_HL-170
  0
LINE
  5
32DC
330
32DA
100
AcDbEntity
  8
外形線
100
AcDbLine
 10
-2965.542266380175
 20
-151.854003787588
 30
0.0
 11
-2982.292298880176
 21
-151.854003787588
 31
0.0
  0
ARC
  5
32DD
330
32DA
100
AcDbEntity
  8
細線
100
AcDbCircle
 10
-3014.792326380176
 20
-200.854018787588
 30
0.0
 40
18.75000000000005
100
AcDbArc
 50
143.130102354164
 51
216.869897645836
  0
LINE
  5
32DE
330
32DA
100
AcDbEntity
  8
外形線
100
AcDbLine
 10
-3041.292266380176
 20
-185.854018787588
 30
0.0
 11
-3041.292266380176
 21
-215.854018787588
 31
0.0
  0
LINE
  5
32DF
330
32DA
100
AcDbEntity
  8
外形線
100
AcDbLine
 10
-3061.292266380176
 20
-188.354018787588
 30
0.0
 11
-3061.292266380176
 21
-213.354018787588
 31
0.0
  0
LINE
  5
32E0
330
32DA
100
AcDbEntity
  8
細線
100
AcDbLine
 10
-3060.042266380176
 20
-214.604018787588
 30
0.0
 11
-3060.042266380176
 21
-187.104018787588
 31
0.0
  0
LINE
  5
32E1
330
32DA
100
AcDbEntity
  8
外形線
100
AcDbLine
 10
-3005.792233880175
 20
-223.853973787588
 30
0.0
 11
-3005.792233880175
 21
-177.854066287588
 31
0.0
  0
LINE
  5
32E2
330
32DA
100
AcDbEntity
  8
外形線
100
AcDbLine
 10
-3021.042326380176
 20
-172.104058787588
 30
0.0
 11
-3021.042326380176
 21
-229.603981287588
 31
0.0
  0
LINE
  5
32E3
330
32DA
100
AcDbEntity
  8
外形線
100
AcDbLine
 10
-3033.542326380176
 20
-182.104058787588
 30
0.0
 11
-3033.542326380176
 21
-219.603981287588
 31
0.0
  0
LINE
  5
32E4
330
32DA
100
AcDbEntity
  8
外形線
100
AcDbLine
 10
-3015.542296380175
 20
-172.104058787588
 30
0.0
 11
-3015.542296380175
 21
-229.603981287588
 31
0.0
  0
LINE
  5
32E5
330
32DA
100
AcDbEntity
  8
外形線
100
AcDbLine
 10
-3011.292266380176
 20
-226.353973787588
 30
0.0
 11
-3011.292266380176
 21
-175.354066287588
 31
0.0
  0
LINE
  5
32E6
330
32DA
100
AcDbEntity
  8
細線
100
AcDbLine
 10
-3029.792326380176
 20
-212.104018787588
 30
0.0
 11
-3021.042326380176
 21
-212.104018787588
 31
0.0
  0
LINE
  5
32E7
330
32DA
100
AcDbEntity
  8
外形線
100
AcDbLine
 10
-3029.792326380176
 20
-223.353981287588
 30
0.0
 11
-3021.042326380176
 21
-223.353981287588
 31
0.0
  0
ARC
  5
32E8
330
32DA
100
AcDbEntity
  8
細線
100
AcDbCircle
 10
-3021.894699971185
 20
-220.740338052558
 30
0.0
 40
11.70292755435463
100
AcDbArc
 50
132.441877635514
 51
174.427775547293
  0
LINE
  5
32E9
330
32DA
100
AcDbEntity
  8
外形線
100
AcDbLine
 10
-3033.542326380176
 20
-219.603981287588
 30
0.0
 11
-3029.792326380176
 21
-223.353981287588
 31
0.0
  0
LINE
  5
32EA
330
32DA
100
AcDbEntity
  8
外形線
100
AcDbLine
 10
-3041.292266380176
 20
-214.604018787588
 30
0.0
 11
-3060.042266380176
 21
-214.604018787588
 31
0.0
  0
LINE
  5
32EB
330
32DA
100
AcDbEntity
  8
細線
100
AcDbLine
 10
-3060.042266380176
 20
-201.854003787588
 30
0.0
 11
-3041.292266380176
 21
-201.854003787588
 31
0.0
  0
LINE
  5
32EC
330
32DA
100
AcDbEntity
  8
細線
100
AcDbLine
 10
-3060.042266380176
 20
-203.854011287588
 30
0.0
 11
-3041.292266380176
 21
-203.854011287588
 31
0.0
  0
LINE
  5
32ED
330
32DA
100
AcDbEntity
  8
細線
100
AcDbLine
 10
-3060.042266380176
 20
-205.854018787588
 30
0.0
 11
-3041.292266380176
 21
-205.854018787588
 31
0.0
  0
LINE
  5
32EE
330
32DA
100
AcDbEntity
  8
細線
100
AcDbLine
 10
-3060.042266380176
 20
-207.854028787588
 30
0.0
 11
-3041.292266380176
 21
-207.854028787588
 31
0.0
  0
LINE
  5
32EF
330
32DA
100
AcDbEntity
  8
細線
100
AcDbLine
 10
-3060.042266380176
 20
-209.854036287588
 30
0.0
 11
-3041.292266380176
 21
-209.854036287588
 31
0.0
  0
LINE
  5
32F0
330
32DA
100
AcDbEntity
  8
細線
100
AcDbLine
 10
-3060.042266380176
 20
-213.854051287588
 30
0.0
 11
-3041.292266380176
 21
-213.854051287588
 31
0.0
  0
LINE
  5
32F1
330
32DA
100
AcDbEntity
  8
細線
100
AcDbLine
 10
-3060.042266380176
 20
-211.854043787588
 30
0.0
 11
-3041.292266380176
 21
-211.854043787588
 31
0.0
  0
LINE
  5
32F2
330
32DA
100
AcDbEntity
  8
外形線
100
AcDbLine
 10
-3061.292266380176
 20
-213.354018787588
 30
0.0
 11
-3060.042266380176
 21
-214.604018787588
 31
0.0
  0
LINE
  5
32F3
330
32DA
100
AcDbEntity
  8
細線
100
AcDbLine
 10
-3041.292266380176
 20
-213.354018787588
 30
0.0
 11
-3033.542326380176
 21
-213.354018787588
 31
0.0
  0
LINE
  5
32F4
330
32DA
100
AcDbEntity
  8
外形線
100
AcDbLine
 10
-3041.292266380176
 20
-215.854018787588
 30
0.0
 11
-3033.542326380176
 21
-215.854018787588
 31
0.0
  0
LINE
  5
32F5
330
32DA
100
AcDbEntity
  8
外形線
100
AcDbLine
 10
-3005.792233880175
 20
-223.853973787588
 30
0.0
 11
-3011.292266380176
 21
-223.853973787588
 31
0.0
  0
LINE
  5
32F6
330
32DA
100
AcDbEntity
  8
外形線
100
AcDbLine
 10
-3011.292266380176
 20
-226.353973787588
 30
0.0
 11
-3015.542296380175
 21
-226.353973787588
 31
0.0
  0
LINE
  5
32F7
330
32DA
100
AcDbEntity
  8
外形線
100
AcDbLine
 10
-3015.542296380175
 20
-229.603981287588
 30
0.0
 11
-3021.042326380176
 21
-229.603981287588
 31
0.0
  0
LINE
  5
32F8
330
32DA
100
AcDbEntity
  8
外形線
100
AcDbLine
 10
-3005.792233880175
 20
-177.854066287588
 30
0.0
 11
-2989.292266380175
 21
-153.853973787588
 31
0.0
  0
LINE
  5
32F9
330
32DA
100
AcDbEntity
  8
細線
100
AcDbLine
 10
-3029.792326380176
 20
-189.604018787588
 30
0.0
 11
-3021.042326380176
 21
-189.604018787588
 31
0.0
  0
LINE
  5
32FA
330
32DA
100
AcDbEntity
  8
外形線
100
AcDbLine
 10
-3029.792326380176
 20
-178.354058787588
 30
0.0
 11
-3021.042326380176
 21
-178.354058787588
 31
0.0
  0
LINE
  5
32FB
330
32DA
100
AcDbEntity
  8
外形線
100
AcDbLine
 10
-3029.792326380176
 20
-178.354058787588
 30
0.0
 11
-3033.542326380176
 21
-182.104058787588
 31
0.0
  0
LINE
  5
32FC
330
32DA
100
AcDbEntity
  8
外形線
100
AcDbLine
 10
-3041.292266380176
 20
-187.104018787588
 30
0.0
 11
-3060.042266380176
 21
-187.104018787588
 31
0.0
  0
LINE
  5
32FD
330
32DA
100
AcDbEntity
  8
細線
100
AcDbLine
 10
-3060.042266380176
 20
-199.854036287588
 30
0.0
 11
-3041.292266380176
 21
-199.854036287588
 31
0.0
  0
LINE
  5
32FE
330
32DA
100
AcDbEntity
  8
細線
100
AcDbLine
 10
-3060.042266380176
 20
-197.854028787588
 30
0.0
 11
-3041.292266380176
 21
-197.854028787588
 31
0.0
  0
LINE
  5
32FF
330
32DA
100
AcDbEntity
  8
細線
100
AcDbLine
 10
-3060.042266380176
 20
-195.854018787588
 30
0.0
 11
-3041.292266380176
 21
-195.854018787588
 31
0.0
  0
LINE
  5
3300
330
32DA
100
AcDbEntity
  8
細線
100
AcDbLine
 10
-3060.042266380176
 20
-193.854011287588
 30
0.0
 11
-3041.292266380176
 21
-193.854011287588
 31
0.0
  0
LINE
  5
3301
330
32DA
100
AcDbEntity
  8
細線
100
AcDbLine
 10
-3060.042266380176
 20
-191.854003787588
 30
0.0
 11
-3041.292266380176
 21
-191.854003787588
 31
0.0
  0
LINE
  5
3302
330
32DA
100
AcDbEntity
  8
細線
100
AcDbLine
 10
-3060.042266380176
 20
-187.853988787588
 30
0.0
 11
-3041.292266380176
 21
-187.853988787588
 31
0.0
  0
LINE
  5
3303
330
32DA
100
AcDbEntity
  8
細線
100
AcDbLine
 10
-3060.042266380176
 20
-189.853996287588
 30
0.0
 11
-3041.292266380176
 21
-189.853996287588
 31
0.0
  0
LINE
  5
3304
330
32DA
100
AcDbEntity
  8
外形線
100
AcDbLine
 10
-3061.292266380176
 20
-188.354018787588
 30
0.0
 11
-3060.042266380176
 21
-187.104018787588
 31
0.0
  0
ARC
  5
3305
330
32DA
100
AcDbEntity
  8
細線
100
AcDbCircle
 10
-3021.894699971185
 20
-180.967699522618
 30
0.0
 40
11.70292755435463
100
AcDbArc
 50
185.572224452707
 51
227.558122364486
  0
LINE
  5
3306
330
32DA
100
AcDbEntity
  8
細線
100
AcDbLine
 10
-3041.292266380176
 20
-188.354018787588
 30
0.0
 11
-3033.542326380176
 21
-188.354018787588
 31
0.0
  0
LINE
  5
3307
330
32DA
100
AcDbEntity
  8
外形線
100
AcDbLine
 10
-3041.292266380176
 20
-185.854018787588
 30
0.0
 11
-3033.542326380176
 21
-185.854018787588
 31
0.0
  0
LINE
  5
3308
330
32DA
100
AcDbEntity
  8
外形線
100
AcDbLine
 10
-3005.792233880175
 20
-177.854066287588
 30
0.0
 11
-3011.292266380176
 21
-177.854066287588
 31
0.0
  0
LINE
  5
3309
330
32DA
100
AcDbEntity
  8
外形線
100
AcDbLine
 10
-3011.292266380176
 20
-175.354066287588
 30
0.0
 11
-3015.542296380175
 21
-175.354066287588
 31
0.0
  0
LINE
  5
330A
330
32DA
100
AcDbEntity
  8
外形線
100
AcDbLine
 10
-3015.542296380175
 20
-172.104058787588
 30
0.0
 11
-3021.042326380176
 21
-172.104058787588
 31
0.0
  0
LINE
  5
330B
330
32DA
100
AcDbEntity
  8
外形線
100
AcDbLine
 10
-2989.292266380175
 20
-153.853973787588
 30
0.0
 11
-2982.292298880176
 21
-152.854066287588
 31
0.0
  0
LINE
  5
330C
330
32DA
100
AcDbEntity
  8
外形線
100
AcDbLine
 10
-2914.292418880175
 20
-180.854018787588
 30
0.0
 11
-2914.292418880175
 21
-220.854018787588
 31
0.0
  0
ARC
  5
330D
330
32DA
100
AcDbEntity
  8
外形線
100
AcDbCircle
 10
-2914.626968880176
 20
-223.068146287588
 30
0.0
 40
2.2392525
100
AcDbArc
 50
81.407104039339
 51
165.246528510562
  0
ARC
  5
330E
330
32DA
100
AcDbEntity
  8
外形線
100
AcDbCircle
 10
-2924.292343880175
 20
-167.192986310516
 30
0.0
 40
7.5
100
AcDbArc
 50
0.0
 51
86.629979268965
  0
ARC
  5
330F
330
32DA
100
AcDbEntity
  8
外形線
100
AcDbCircle
 10
-2914.626968880176
 20
-178.639893787588
 30
0.0
 40
2.2392525
100
AcDbArc
 50
194.753453889343
 51
278.592935656363
  0
LINE
  5
3310
330
32DA
100
AcDbEntity
  8
外形線
100
AcDbLine
 10
-2923.851463508792
 20
-159.705955891308
 30
0.0
 11
-2965.542266380175
 21
-157.250956295471
 31
0.0
  0
LINE
  5
3311
330
32DA
100
AcDbEntity
  8
外形線
100
AcDbLine
 10
-2982.292298880176
 20
-258.853973787588
 30
0.0
 11
-2965.542266380175
 21
-258.853973787588
 31
0.0
  0
LINE
  5
3312
330
32DA
100
AcDbEntity
  8
外形線
100
AcDbLine
 10
-2989.292266380175
 20
-153.853973787588
 30
0.0
 11
-2989.292266380175
 21
-256.854003787588
 31
0.0
  0
LINE
  5
3313
330
32DA
100
AcDbEntity
  8
外形線
100
AcDbLine
 10
-2982.292298880176
 20
-151.854003787588
 30
0.0
 11
-2982.292298880176
 21
-258.853973787588
 31
0.0
  0
LINE
  5
3314
330
32DA
100
AcDbEntity
  8
外形線
100
AcDbLine
 10
-2974.292266380175
 20
-258.853973787588
 30
0.0
 11
-2974.292266380175
 21
-151.854003787588
 31
0.0
  0
LINE
  5
3315
330
32DA
100
AcDbEntity
  8
外形線
100
AcDbLine
 10
-2972.542266380176
 20
-151.854003787588
 30
0.0
 11
-2972.542266380176
 21
-258.853973787588
 31
0.0
  0
LINE
  5
3316
330
32DA
100
AcDbEntity
  8
外形線
100
AcDbLine
 10
-3005.792233880175
 20
-223.853973787588
 30
0.0
 11
-2989.292266380175
 21
-256.854003787588
 31
0.0
  0
LINE
  5
3317
330
32DA
100
AcDbEntity
  8
外形線
100
AcDbLine
 10
-2989.292266380175
 20
-256.854003787588
 30
0.0
 11
-2982.292298880176
 21
-257.854066287588
 31
0.0
  0
LINE
  5
3318
330
32DA
100
AcDbEntity
  8
中心線
 48
10.0
100
AcDbLine
 10
-2939.292266380175
 20
-243.661866287588
 30
0.0
 11
-2939.292266380175
 21
-285.801688787588
 31
0.0
  0
LINE
  5
3319
330
32DA
100
AcDbEntity
  8
細線
100
AcDbLine
 10
-2931.542328880175
 20
-269.736388787588
 30
0.0
 11
-2931.542328880175
 21
-273.736328787588
 31
0.0
  0
LINE
  5
331A
330
32DA
100
AcDbEntity
  8
細線
100
AcDbLine
 10
-2947.042358880175
 20
-269.736388787588
 30
0.0
 11
-2947.042358880175
 21
-273.736328787588
 31
0.0
  0
LINE
  5
331B
330
32DA
100
AcDbEntity
  8
外形線
100
AcDbLine
 10
-2929.042328880175
 20
-273.736328787588
 30
0.0
 11
-2929.042328880175
 21
-269.736388787588
 31
0.0
  0
LINE
  5
331C
330
32DA
100
AcDbEntity
  8
外形線
100
AcDbLine
 10
-2949.542358880175
 20
-273.736328787588
 30
0.0
 11
-2949.542358880175
 21
-269.736388787588
 31
0.0
  0
ARC
  5
331D
330
32DA
100
AcDbEntity
  8
細線
100
AcDbCircle
 10
-2939.292343880175
 20
-266.986831287588
 30
0.0
 40
12.7495375
100
AcDbArc
 50
241.92650155696
 51
298.073500690788
  0
LINE
  5
331E
330
32DA
100
AcDbEntity
  8
外形線
100
AcDbLine
 10
-2951.292313880176
 20
-273.736328787588
 30
0.0
 11
-2927.292373880176
 21
-273.736328787588
 31
0.0
  0
LINE
  5
331F
330
32DA
100
AcDbEntity
  8
外形線
100
AcDbLine
 10
-2948.292281380175
 20
-279.736388787588
 30
0.0
 11
-2930.292328880175
 21
-279.736388787588
 31
0.0
  0
LINE
  5
3320
330
32DA
100
AcDbEntity
  8
細線
100
AcDbLine
 10
-2945.292328880175
 20
-273.736328787588
 30
0.0
 11
-2945.292328880175
 21
-278.236373787588
 31
0.0
  0
ARC
  5
3321
330
32DA
100
AcDbEntity
  8
細線
100
AcDbCircle
 10
-2949.801986380175
 20
-272.966981287588
 30
0.0
 40
6.935630000000001
100
AcDbArc
 50
282.571898360404
 51
310.557678088908
  0
LINE
  5
3322
330
32DA
100
AcDbEntity
  8
外形線
100
AcDbLine
 10
-2951.292313880176
 20
-273.736328787588
 30
0.0
 11
-2951.292313880176
 21
-278.236373787588
 31
0.0
  0
LINE
  5
3323
330
32DA
100
AcDbEntity
  8
外形線
100
AcDbLine
 10
-2948.292281380175
 20
-279.736388787588
 30
0.0
 11
-2951.292313880176
 21
-278.236373787588
 31
0.0
  0
LINE
  5
3324
330
32DA
100
AcDbEntity
  8
細線
100
AcDbLine
 10
-2933.292358880175
 20
-273.736328787588
 30
0.0
 11
-2933.292358880175
 21
-278.236373787588
 31
0.0
  0
ARC
  5
3325
330
32DA
100
AcDbEntity
  8
細線
100
AcDbCircle
 10
-2928.782698880175
 20
-272.966981287588
 30
0.0
 40
6.935630000000001
100
AcDbArc
 50
229.442381454627
 51
257.428103887329
  0
LINE
  5
3326
330
32DA
100
AcDbEntity
  8
外形線
100
AcDbLine
 10
-2927.292373880176
 20
-273.736328787588
 30
0.0
 11
-2927.292373880176
 21
-278.236373787588
 31
0.0
  0
LINE
  5
3327
330
32DA
100
AcDbEntity
  8
外形線
100
AcDbLine
 10
-2930.292403880175
 20
-279.736388787588
 30
0.0
 11
-2927.292373880176
 21
-278.236373787588
 31
0.0
  0
LINE
  5
3328
330
32DA
100
AcDbEntity
  8
外形線
100
AcDbLine
 10
-2916.792343880175
 20
-167.192986310516
 30
0.0
 11
-2916.792343880175
 21
-243.514991264661
 31
0.0
  0
LINE
  5
3329
330
32DA
100
AcDbEntity
  8
外形線
100
AcDbLine
 10
-2965.542266380175
 20
-258.853973787588
 30
0.0
 11
-2965.542266380175
 21
-151.854003787588
 31
0.0
  0
ARC
  5
332A
330
32DA
100
AcDbEntity
  8
外形線
100
AcDbCircle
 10
-2924.292343880175
 20
-243.514991264661
 30
0.0
 40
7.5
100
AcDbArc
 50
273.370020731035
 51
0.0
  0
LINE
  5
332B
330
32DA
100
AcDbEntity
  8
外形線
100
AcDbLine
 10
-2924.703808122718
 20
-252.188916625168
 30
0.0
 11
-2925.235546716292
 21
-268.045042442421
 31
0.0
  0
ARC
  5
332C
330
32DA
100
AcDbEntity
  8
外形線
100
AcDbCircle
 10
-2956.273923241248
 20
-255.415577424633
 30
0.0
 40
2.5
100
AcDbArc
 50
1.920706503578
 51
93.370020731035
  0
LINE
  5
332D
330
32DA
100
AcDbEntity
  8
外形線
100
AcDbLine
 10
-2951.599969249177
 20
-269.736388787588
 30
0.0
 11
-2926.984563511173
 21
-269.736388787588
 31
0.0
  0
LINE
  5
332E
330
32DA
100
AcDbEntity
  8
外形線
100
AcDbLine
 10
-2953.775327819991
 20
-255.331786489161
 30
0.0
 11
-2953.348986044058
 21
-268.045042442421
 31
0.0
  0
ARC
  5
332F
330
32DA
100
AcDbEntity
  8
外形線
100
AcDbCircle
 10
-2951.599969249177
 20
-267.986388787588
 30
0.0
 40
1.75
100
AcDbArc
 50
181.920706503581
 51
270.0
  0
ARC
  5
3330
330
32DA
100
AcDbEntity
  8
外形線
100
AcDbCircle
 10
-2926.984563511173
 20
-267.986388787588
 30
0.0
 40
1.75
100
AcDbArc
 50
270.0
 51
358.079293496419
  0
LINE
  5
3331
330
32DA
100
AcDbEntity
  8
外形線
100
AcDbLine
 10
-2923.851463508792
 20
-251.002021683866
 30
0.0
 11
-2965.542266380175
 21
-253.457021279706
 31
0.0
  0
LINE
  5
3332
330
32DA
100
AcDbEntity
  8
外形線
100
AcDbLine
 10
-2923.512896704778
 20
-251.617459007468
 30
0.0
 11
-2923.518011991735
 21
-251.617679537498
 31
0.0
  0
ARC
  5
3333
330
32DA
100
AcDbEntity
  8
外形線
100
AcDbCircle
 10
-2923.454510412087
 20
-252.230812092906
 30
0.0
 40
1.25
100
AcDbArc
 50
93.370020731035
 51
178.079293496416
  0
ENDBLK
  5
3334
330
32DA
100
AcDbEntity
  8
0
 48
10.0
100
AcDbBlockEnd
  0
BLOCK
  5
39DC
330
39DB
100
AcDbEntity
  8
0
 48
10.0
100
AcDbBlockBegin
  2
ケース外形図_PRL-101-LONG-Fなし
 70
     0
 10
0.0
 20
0.0
 30
0.0
  3
ケース外形図_PRL-101-LONG-Fなし
  1
ケース外形図_PRL-101-LONG-Fなし
  0
LINE
  5
39DD
330
39DB
100
AcDbEntity
  8
外形線
100
AcDbLine
 10
110.168921433947
 20
2143.39203805301
 30
0.0
 11
112.018287433947
 21
2143.39203805301
 31
0.0
  0
ARC
  5
39DE
330
39DB
100
AcDbEntity
  8
外形線
100
AcDbCircle
 10
110.168921433947
 20
2141.89203805301
 30
0.0
 40
1.5
100
AcDbArc
 50
89.999981276034
 51
180.00001984784
  0
LINE
  5
39DF
330
39DB
100
AcDbEntity
  8
外形線
100
AcDbLine
 10
108.668921433947
 20
2141.89203805301
 30
0.0
 11
108.668921433947
 21
2094.89203805301
 31
0.0
  0
LINE
  5
39E0
330
39DB
100
AcDbEntity
  8
外形線
100
AcDbLine
 10
110.168921433947
 20
2093.39203805301
 30
0.0
 11
112.018287433947
 21
2093.39203805301
 31
0.0
  0
ARC
  5
39E1
330
39DB
100
AcDbEntity
  8
外形線
100
AcDbCircle
 10
110.168921433947
 20
2094.89203805301
 30
0.0
 40
1.5
100
AcDbArc
 50
180.00001984784
 51
270.0
  0
ARC
  5
39E2
330
39DB
100
AcDbEntity
  8
外形線
100
AcDbCircle
 10
232.798805433947
 20
2149.66022605301
 30
0.0
 40
1.86215
100
AcDbArc
 50
276.184221085629
 51
91.517843466792
  0
LINE
  5
39E3
330
39DB
100
AcDbEntity
  8
外形線
100
AcDbLine
 10
234.660987433947
 20
2141.81122605301
 30
0.0
 11
234.660987433947
 21
2124.38959605301
 31
0.0
  0
ARC
  5
39E4
330
39DB
100
AcDbEntity
  8
外形線
100
AcDbCircle
 10
232.661719433946
 20
2124.38959605301
 30
0.0
 40
1.9992
100
AcDbArc
 50
270.0
 51
359.999982399908
  0
ARC
  5
39E5
330
39DB
100
AcDbEntity
  8
外形線
100
AcDbCircle
 10
232.661719433946
 20
2141.81122605301
 30
0.0
 40
1.9992
100
AcDbArc
 50
0.0
 51
89.999981276021
  0
LINE
  5
39E6
330
39DB
100
AcDbEntity
  8
外形線
100
AcDbLine
 10
234.660987433947
 20
2094.972848053009
 30
0.0
 11
234.660987433947
 21
2112.39447805301
 31
0.0
  0
ARC
  5
39E7
330
39DB
100
AcDbEntity
  8
外形線
100
AcDbCircle
 10
232.798805433947
 20
2087.12397005301
 30
0.0
 40
1.86215
100
AcDbArc
 50
268.482178628784
 51
83.815801009983
  0
ARC
  5
39E8
330
39DB
100
AcDbEntity
  8
外形線
100
AcDbCircle
 10
232.661719433946
 20
2094.972848053009
 30
0.0
 40
1.9992
100
AcDbArc
 50
270.0
 51
359.999982399908
  0
ARC
  5
39E9
330
39DB
100
AcDbEntity
  8
外形線
100
AcDbCircle
 10
232.661719433946
 20
2112.39447805301
 30
0.0
 40
1.9992
100
AcDbArc
 50
0.0
 51
89.999981276021
  0
ARC
  5
39EA
330
39DB
100
AcDbEntity
  8
外形線
100
AcDbCircle
 10
220.095313433946
 20
2160.88044005301
 30
0.0
 40
4.8552
100
AcDbArc
 50
0.0
 51
87.349306628423
  0
LINE
  5
39EB
330
39DB
100
AcDbEntity
  8
細線
100
AcDbLine
 10
190.392921433947
 20
2149.23688605301
 30
0.0
 11
190.392921433947
 21
2160.66083605301
 31
0.0
  0
LINE
  5
39EC
330
39DB
100
AcDbEntity
  8
外形線
100
AcDbLine
 10
174.684913433946
 20
2149.23688605301
 30
0.0
 11
190.482031433947
 21
2149.23688605301
 31
0.0
  0
LINE
  5
39ED
330
39DB
100
AcDbEntity
  8
外形線
100
AcDbLine
 10
192.433021433946
 20
2160.66083605301
 30
0.0
 11
174.684913433946
 21
2160.66083605301
 31
0.0
  0
LINE
  5
39EE
330
39DB
100
AcDbEntity
  8
外形線
100
AcDbLine
 10
192.433021433946
 20
2164.08808205301
 30
0.0
 11
174.684913433946
 21
2164.08808205301
 31
0.0
  0
LINE
  5
39EF
330
39DB
100
AcDbEntity
  8
外形線
100
AcDbLine
 10
190.392921433947
 20
2169.39203605301
 30
0.0
 11
194.105689433946
 21
2166.94403805301
 31
0.0
  0
LINE
  5
39F0
330
39DB
100
AcDbEntity
  8
細線
100
AcDbLine
 10
190.392921433947
 20
2164.08808205301
 30
0.0
 11
190.392921433947
 21
2169.39203605301
 31
0.0
  0
ARC
  5
39F1
330
39DB
100
AcDbEntity
  8
外形線
100
AcDbCircle
 10
192.379005433947
 20
2162.37445805301
 30
0.0
 40
1.714446
100
AcDbArc
 50
271.804703586973
 51
88.195318508605
  0
LINE
  5
39F2
330
39DB
100
AcDbEntity
  8
外形線
100
AcDbLine
 10
194.105689433946
 20
2166.94403805301
 30
0.0
 11
220.319923433946
 21
2165.730416053009
 31
0.0
  0
ARC
  5
39F3
330
39DB
100
AcDbEntity
  8
外形線
100
AcDbCircle
 10
227.104957433947
 20
2120.24494205301
 30
0.0
 40
2.15556
100
AcDbArc
 50
95.512637406103
 51
178.089033713747
  0
ARC
  5
39F4
330
39DB
100
AcDbEntity
  8
外形線
100
AcDbCircle
 10
227.104957433947
 20
2116.53925405301
 30
0.0
 40
2.15556
100
AcDbArc
 50
181.910948686169
 51
264.487402289583
  0
ARC
  5
39F5
330
39DB
100
AcDbEntity
  8
外形線
100
AcDbCircle
 10
189.105811433947
 20
2117.809640053009
 30
0.0
 40
5.033766
100
AcDbArc
 50
6.644133183896
 51
75.184725088441
  0
ARC
  5
39F6
330
39DB
100
AcDbEntity
  8
外形線
100
AcDbCircle
 10
189.105811433947
 20
2118.97455605301
 30
0.0
 40
5.033766
100
AcDbArc
 50
284.815257311479
 51
353.35584921602
  0
LINE
  5
39F7
330
39DB
100
AcDbEntity
  8
細線
100
AcDbLine
 10
190.392921433947
 20
2122.676094053009
 30
0.0
 11
190.392921433947
 21
2141.24006005301
 31
0.0
  0
LINE
  5
39F8
330
39DB
100
AcDbEntity
  8
外形線
100
AcDbLine
 10
174.684913433946
 20
2122.676094053009
 30
0.0
 11
190.392921433947
 21
2122.676094053009
 31
0.0
  0
LINE
  5
39F9
330
39DB
100
AcDbEntity
  8
外形線
100
AcDbLine
 10
174.684913433946
 20
2114.10810205301
 30
0.0
 11
190.392921433947
 21
2114.10810205301
 31
0.0
  0
LINE
  5
39FA
330
39DB
100
AcDbEntity
  8
外形線
100
AcDbLine
 10
174.684913433946
 20
2141.24006005301
 30
0.0
 11
190.392921433947
 21
2141.24006005301
 31
0.0
  0
LINE
  5
39FB
330
39DB
100
AcDbEntity
  8
外形線
100
AcDbLine
 10
224.950537433947
 20
2118.39203605301
 30
0.0
 11
224.950537433947
 21
2160.88044005301
 31
0.0
  0
ARC
  5
39FC
330
39DB
100
AcDbEntity
  8
外形線
100
AcDbCircle
 10
190.066871433946
 20
2145.24262205301
 30
0.0
 40
4.015794000000001
100
AcDbArc
 50
274.656944786915
 51
84.065438721313
  0
LINE
  5
39FD
330
39DB
100
AcDbEntity
  8
外形線
100
AcDbLine
 10
165.545753433947
 20
2164.08808205301
 30
0.0
 11
168.401709433946
 21
2169.39203605301
 31
0.0
  0
LINE
  5
39FE
330
39DB
100
AcDbEntity
  8
外形線
100
AcDbLine
 10
168.401709433946
 20
2169.39203605301
 30
0.0
 11
190.392921433947
 21
2169.39203605301
 31
0.0
  0
ARC
  5
39FF
330
39DB
100
AcDbEntity
  8
外形線
100
AcDbCircle
 10
190.066871433946
 20
2091.54157405301
 30
0.0
 40
4.015794000000001
100
AcDbArc
 50
275.934583374273
 51
85.343077308665
  0
LINE
  5
3A00
330
39DB
100
AcDbEntity
  8
外形線
100
AcDbLine
 10
174.684913433946
 20
2087.54731005301
 30
0.0
 11
190.482031433947
 21
2087.54731005301
 31
0.0
  0
LINE
  5
3A01
330
39DB
100
AcDbEntity
  8
外形線
100
AcDbLine
 10
174.684913433946
 20
2095.54401405301
 30
0.0
 11
190.392921433947
 21
2095.54401405301
 31
0.0
  0
ARC
  5
3A02
330
39DB
100
AcDbEntity
  8
外形線
100
AcDbCircle
 10
220.095313433946
 20
2075.90375605301
 30
0.0
 40
4.8552
100
AcDbArc
 50
272.650733067261
 51
359.999982399908
  0
LINE
  5
3A03
330
39DB
100
AcDbEntity
  8
外形線
100
AcDbLine
 10
194.105689433946
 20
2069.84003405301
 30
0.0
 11
190.392921433947
 21
2067.39203605301
 31
0.0
  0
LINE
  5
3A04
330
39DB
100
AcDbEntity
  8
外形線
100
AcDbLine
 10
192.433021433946
 20
2076.12323805301
 30
0.0
 11
174.684913433946
 21
2076.12323805301
 31
0.0
  0
LINE
  5
3A05
330
39DB
100
AcDbEntity
  8
外形線
100
AcDbLine
 10
192.433021433946
 20
2072.696114053009
 30
0.0
 11
174.684913433946
 21
2072.696114053009
 31
0.0
  0
LINE
  5
3A06
330
39DB
100
AcDbEntity
  8
細線
100
AcDbLine
 10
190.392921433947
 20
2072.696114053009
 30
0.0
 11
190.392921433947
 21
2067.39203605301
 31
0.0
  0
ARC
  5
3A07
330
39DB
100
AcDbEntity
  8
外形線
100
AcDbCircle
 10
192.379005433947
 20
2074.40961605301
 30
0.0
 40
1.714446
100
AcDbArc
 50
271.804703586973
 51
88.195318508605
  0
LINE
  5
3A08
330
39DB
100
AcDbEntity
  8
外形線
100
AcDbLine
 10
194.105689433946
 20
2069.84003405301
 30
0.0
 11
220.319923433946
 21
2071.05372005301
 31
0.0
  0
LINE
  5
3A09
330
39DB
100
AcDbEntity
  8
細線
100
AcDbLine
 10
190.392921433947
 20
2087.54731005301
 30
0.0
 11
190.392921433947
 21
2076.12323805301
 31
0.0
  0
LINE
  5
3A0A
330
39DB
100
AcDbEntity
  8
外形線
100
AcDbLine
 10
167.332540844539
 20
2066.523929892186
 30
0.0
 11
165.724459344066
 21
2054.438201968303
 31
0.0
  0
LINE
  5
3A0B
330
39DB
100
AcDbEntity
  8
細線
100
AcDbLine
 10
168.401709433946
 20
2067.39203605301
 30
0.0
 11
165.545753433947
 21
2075.490020603784
 31
0.0
  0
ARC
  5
3A0C
330
39DB
100
AcDbEntity
  8
外形線
100
AcDbCircle
 10
168.32380469195
 20
2066.39203605301
 30
0.0
 40
1.0
100
AcDbArc
 50
90.0
 51
172.42095622959
  0
LINE
  5
3A0D
330
39DB
100
AcDbEntity
  8
外形線
100
AcDbLine
 10
135.422919931233
 20
2071.925232733321
 30
0.0
 11
137.658025931233
 21
2054.452514733321
 31
0.0
  0
ARC
  5
3A0E
330
39DB
100
AcDbEntity
  8
外形線
100
AcDbCircle
 10
132.533722849268
 20
2071.533944727406
 30
0.0
 40
2.915573028070137
100
AcDbArc
 50
7.712721372168
 51
85.846565215995
  0
LINE
  5
3A0F
330
39DB
100
AcDbEntity
  8
外形線
100
AcDbLine
 10
140.490943433946
 20
2051.95890005301
 30
0.0
 11
162.893409433947
 21
2051.95890005301
 31
0.0
  0
ARC
  5
3A10
330
39DB
100
AcDbEntity
  8
細線
100
AcDbCircle
 10
152.301247433947
 20
2041.191902053009
 30
0.0
 40
36.766532
100
AcDbArc
 50
68.885514212377
 51
115.2117858394
  0
LINE
  5
3A11
330
39DB
100
AcDbEntity
  8
外形線
100
AcDbLine
 10
168.32380469195
 20
2067.39203605301
 30
0.0
 11
190.392921433947
 21
2067.39203605301
 31
0.0
  0
ARC
  5
3A12
330
39DB
100
AcDbEntity
  8
細線
100
AcDbCircle
 10
165.108131433946
 20
2060.836984053009
 30
0.0
 40
18.322924
100
AcDbArc
 50
247.068453993572
 51
267.322397459893
  0
LINE
  5
3A13
330
39DB
100
AcDbEntity
  8
細線
100
AcDbLine
 10
157.968971433947
 20
2043.96210605301
 30
0.0
 11
157.968971433947
 21
2047.67487405301
 31
0.0
  0
LINE
  5
3A14
330
39DB
100
AcDbEntity
  8
細線
100
AcDbLine
 10
145.402565433947
 20
2043.96210605301
 30
0.0
 11
145.402565433947
 21
2047.67487405301
 31
0.0
  0
ARC
  5
3A15
330
39DB
100
AcDbEntity
  8
細線
100
AcDbCircle
 10
151.685767433946
 20
2057.07074805301
 30
0.0
 40
14.53669
100
AcDbArc
 50
244.390793033801
 51
295.609209213941
  0
LINE
  5
3A16
330
39DB
100
AcDbEntity
  8
外形線
100
AcDbLine
 10
165.680275433947
 20
2043.96210605301
 30
0.0
 11
164.252175433947
 21
2042.53406605301
 31
0.0
  0
LINE
  5
3A17
330
39DB
100
AcDbEntity
  8
外形線
100
AcDbLine
 10
165.680275433947
 20
2047.67487405301
 30
0.0
 11
165.680275433947
 21
2043.96210605301
 31
0.0
  0
LINE
  5
3A18
330
39DB
100
AcDbEntity
  8
外形線
100
AcDbLine
 10
137.691383433947
 20
2043.96210605301
 30
0.0
 11
139.119361433946
 21
2042.53406605301
 31
0.0
  0
LINE
  5
3A19
330
39DB
100
AcDbEntity
  8
外形線
100
AcDbLine
 10
137.691383433947
 20
2047.67487405301
 30
0.0
 11
137.691383433947
 21
2043.96210605301
 31
0.0
  0
LINE
  5
3A1A
330
39DB
100
AcDbEntity
  8
外形線
100
AcDbLine
 10
139.119361433946
 20
2042.53406605301
 30
0.0
 11
164.252175433947
 21
2042.53406605301
 31
0.0
  0
LINE
  5
3A1B
330
39DB
100
AcDbEntity
  8
外形線
100
AcDbLine
 10
137.691383433947
 20
2047.67487405301
 30
0.0
 11
165.680275433947
 21
2047.67487405301
 31
0.0
  0
ARC
  5
3A1C
330
39DB
100
AcDbEntity
  8
細線
100
AcDbCircle
 10
138.263405433946
 20
2060.836984053009
 30
0.0
 40
18.322924
100
AcDbArc
 50
272.67766208363
 51
292.93154825417
  0
LINE
  5
3A1D
330
39DB
100
AcDbEntity
  8
中心線
 48
10.0
100
AcDbLine
 10
151.685767433946
 20
2092.05121605301
 30
0.0
 11
151.685767433946
 21
2036.448922053009
 31
0.0
  0
ARC
  5
3A1E
330
39DB
100
AcDbEntity
  8
外形線
100
AcDbCircle
 10
162.893409433947
 20
2054.81488805301
 30
0.0
 40
2.856
100
AcDbArc
 50
270.0
 51
352.421011277462
  0
LINE
  5
3A1F
330
39DB
100
AcDbEntity
  8
細線
100
AcDbLine
 10
158.825783433947
 20
2051.958870053009
 30
0.0
 11
158.825783433947
 21
2047.67487405301
 31
0.0
  0
LINE
  5
3A20
330
39DB
100
AcDbEntity
  8
外形線
100
AcDbLine
 10
161.110573433946
 20
2047.67487405301
 30
0.0
 11
161.110573433946
 21
2051.958870053009
 31
0.0
  0
LINE
  5
3A21
330
39DB
100
AcDbEntity
  8
細線
100
AcDbLine
 10
144.545753433947
 20
2051.958870053009
 30
0.0
 11
144.545753433947
 21
2047.67487405301
 31
0.0
  0
LINE
  5
3A22
330
39DB
100
AcDbEntity
  8
外形線
100
AcDbLine
 10
142.260963433947
 20
2047.67487405301
 30
0.0
 11
142.260963433947
 21
2051.958870053009
 31
0.0
  0
ARC
  5
3A23
330
39DB
100
AcDbEntity
  8
外形線
100
AcDbCircle
 10
140.490943433946
 20
2054.81488805301
 30
0.0
 40
2.856
100
AcDbArc
 50
187.289418100602
 51
270.0
  0
LINE
  5
3A24
330
39DB
100
AcDbEntity
  8
細線
100
AcDbLine
 10
194.105689433946
 20
2166.94403805301
 30
0.0
 11
194.105689433946
 21
2069.84003405301
 31
0.0
  0
LINE
  5
3A25
330
39DB
100
AcDbEntity
  8
細線
100
AcDbLine
 10
165.545753433947
 20
2164.08808205301
 30
0.0
 11
165.545753433947
 21
2075.38434605301
 31
0.0
  0
LINE
  5
3A26
330
39DB
100
AcDbEntity
  8
外形線
100
AcDbLine
 10
174.684913433946
 20
2067.39203605301
 30
0.0
 11
174.684913433946
 21
2169.39203605301
 31
0.0
  0
LINE
  5
3A27
330
39DB
100
AcDbEntity
  8
外形線
100
AcDbLine
 10
172.685767433946
 20
2169.39203605301
 30
0.0
 11
172.685767433946
 21
2067.39203605301
 31
0.0
  0
LINE
  5
3A28
330
39DB
100
AcDbEntity
  8
細線
100
AcDbLine
 10
168.401709433946
 20
2169.39203605301
 30
0.0
 11
168.401709433946
 21
2067.39203605301
 31
0.0
  0
LINE
  5
3A29
330
39DB
100
AcDbEntity
  8
細線
100
AcDbLine
 10
124.673823413021
 20
2157.519264053009
 30
0.0
 11
124.673823413021
 21
2079.26487005301
 31
0.0
  0
LINE
  5
3A2A
330
39DB
100
AcDbEntity
  8
細線
100
AcDbLine
 10
190.392921433947
 20
2114.10810205301
 30
0.0
 11
190.392921433947
 21
2095.54401405301
 31
0.0
  0
LINE
  5
3A2B
330
39DB
100
AcDbEntity
  8
外形線
100
AcDbLine
 10
224.950537433947
 20
2118.39203605301
 30
0.0
 11
224.950537433947
 21
2075.90375605301
 31
0.0
  0
ARC
  5
3A2C
330
39DB
100
AcDbEntity
  8
外形線
100
AcDbCircle
 10
226.951027433946
 20
2090.97452605301
 30
0.0
 40
2.000724
100
AcDbArc
 50
87.757023395436
 51
272.242959004484
  0
LINE
  5
3A2D
330
39DB
100
AcDbEntity
  8
外形線
100
AcDbLine
 10
227.029273433946
 20
2088.97528805301
 30
0.0
 11
232.999365433946
 21
2088.97528805301
 31
0.0
  0
LINE
  5
3A2E
330
39DB
100
AcDbEntity
  8
外形線
100
AcDbLine
 10
224.950537433947
 20
2085.26252005301
 30
0.0
 11
232.749487433946
 21
2085.26252005301
 31
0.0
  0
LINE
  5
3A2F
330
39DB
100
AcDbEntity
  8
外形線
100
AcDbLine
 10
227.029335433946
 20
2092.97370205301
 30
0.0
 11
232.661719433946
 21
2092.97370205301
 31
0.0
  0
LINE
  5
3A30
330
39DB
100
AcDbEntity
  8
外形線
100
AcDbLine
 10
226.897925433947
 20
2122.39045005301
 30
0.0
 11
232.661719433946
 21
2122.39045005301
 31
0.0
  0
LINE
  5
3A31
330
39DB
100
AcDbEntity
  8
外形線
100
AcDbLine
 10
226.897925433947
 20
2114.39374605301
 30
0.0
 11
232.661719433946
 21
2114.39374605301
 31
0.0
  0
LINE
  5
3A32
330
39DB
100
AcDbEntity
  8
外形線
100
AcDbLine
 10
224.950537433947
 20
2151.521676053009
 30
0.0
 11
232.749487433946
 21
2151.521676053009
 31
0.0
  0
ARC
  5
3A33
330
39DB
100
AcDbEntity
  8
外形線
100
AcDbCircle
 10
226.949745433946
 20
2145.809640053009
 30
0.0
 40
2.000726
100
AcDbArc
 50
87.722187561486
 51
272.27785213419
  0
LINE
  5
3A34
330
39DB
100
AcDbEntity
  8
外形線
100
AcDbLine
 10
227.029273433946
 20
2143.81049405301
 30
0.0
 11
232.661719433946
 21
2143.81049405301
 31
0.0
  0
LINE
  5
3A35
330
39DB
100
AcDbEntity
  8
外形線
100
AcDbLine
 10
227.029273433946
 20
2147.80878405301
 30
0.0
 11
232.999365433946
 21
2147.80878405301
 31
0.0
  0
LINE
  5
3A36
330
39DB
100
AcDbEntity
  8
外形線
100
AcDbLine
 10
126.699805433947
 20
2161.988228053011
 30
0.0
 11
165.545753433947
 21
2164.08808205301
 31
0.0
  0
LINE
  5
3A37
330
39DB
100
AcDbEntity
  8
外形線
100
AcDbLine
 10
121.679297433947
 20
2158.72419005301
 30
0.0
 11
114.690467433947
 21
2145.02851205301
 31
0.0
  0
ARC
  5
3A38
330
39DB
100
AcDbEntity
  8
外形線
100
AcDbCircle
 10
127.023659433947
 20
2155.99695605301
 30
0.0
 40
6.0
100
AcDbArc
 50
93.094182552856
 51
152.964948988829
  0
LINE
  5
3A39
330
39DB
100
AcDbEntity
  8
外形線
100
AcDbLine
 10
121.778053433947
 20
2077.86634205301
 30
0.0
 11
114.690467433947
 21
2091.75556205301
 31
0.0
  0
ARC
  5
3A3A
330
39DB
100
AcDbEntity
  8
外形線
100
AcDbCircle
 10
127.122475433947
 20
2080.59351405301
 30
0.0
 40
6.0
100
AcDbArc
 50
207.035033411102
 51
266.905857142828
  0
LINE
  5
3A3B
330
39DB
100
AcDbEntity
  8
外形線
100
AcDbLine
 10
132.744890920782
 20
2074.441860497779
 30
0.0
 11
126.798561433947
 21
2074.60230405301
 31
0.0
  0
ARC
  5
3A3C
330
39DB
100
AcDbEntity
  8
外形線
100
AcDbCircle
 10
112.018287433947
 20
2146.39203805301
 30
0.0
 40
3.0
100
AcDbArc
 50
270.0
 51
332.965140723993
  0
ARC
  5
3A3D
330
39DB
100
AcDbEntity
  8
外形線
100
AcDbCircle
 10
112.018287433947
 20
2090.39203805301
 30
0.0
 40
3.0
100
AcDbArc
 50
27.034841675909
 51
89.99998127603
  0
ENDBLK
  5
3A3E
330
39DB
100
AcDbEntity
  8
0
 48
10.0
100
AcDbBlockEnd
  0
BLOCK
  5
3ACF
330
3ACE
100
AcDbEntity
  8
0
 48
10.0
100
AcDbBlockBegin
  2
A$C480F1F2B
 70
     0
 10
0.0
 20
0.0
 30
0.0
  3
A$C480F1F2B
  1
A$C480F1F2B
  0
LINE
  5
3AD0
330
3ACE
100
AcDbEntity
  8
外形線
100
AcDbLine
 10
8.500001501512
 20
2.385002184348
 30
0.0
 11
8.500001501512
 21
14.179664684348
 31
0.0
  0
ARC
  5
3AD1
330
3ACE
100
AcDbEntity
  8
細線
100
AcDbCircle
 10
1.216144001512
 20
8.282372184348
 30
0.0
 40
7.2838425
100
AcDbArc
 50
326.010120640452
 51
33.98932849733
  0
ARC
  5
3AD2
330
3ACE
100
AcDbEntity
  8
細線
100
AcDbCircle
 10
4.911364001511
 20
1.275229684348
 30
0.0
 40
3.7563025
100
AcDbArc
 50
17.184150191555
 51
51.38761061704
  0
LINE
  5
3AD3
330
3ACE
100
AcDbEntity
  8
細線
100
AcDbLine
 10
2.000001501511
 20
4.210487184348
 30
0.0
 11
7.255442473881
 21
4.210487184348
 31
0.0
  0
LINE
  5
3AD4
330
3ACE
100
AcDbEntity
  8
外形線
100
AcDbLine
 10
2.000001501511
 20
16.564818684348
 30
0.0
 11
2.000001501511
 21
0.000000684348
 31
0.0
  0
LINE
  5
3AD5
330
3ACE
100
AcDbEntity
  8
外形線
100
AcDbLine
 10
0.000001501512
 20
16.564818684348
 30
0.0
 11
0.000001501512
 21
0.000000684348
 31
0.0
  0
LINE
  5
3AD6
330
3ACE
100
AcDbEntity
  8
外形線
100
AcDbLine
 10
6.114929777464
 20
0.000000684348
 30
0.0
 11
8.499926501511
 21
2.385079684348
 31
0.0
  0
LINE
  5
3AD7
330
3ACE
100
AcDbEntity
  8
外形線
100
AcDbLine
 10
0.000001501512
 20
0.000000684348
 30
0.0
 11
6.114929777464
 21
0.000000684348
 31
0.0
  0
ARC
  5
3AD8
330
3ACE
100
AcDbEntity
  8
細線
100
AcDbCircle
 10
4.911364001511
 20
15.289437184348
 30
0.0
 40
3.7563025
100
AcDbArc
 50
308.612371782873
 51
342.81588950412
  0
LINE
  5
3AD9
330
3ACE
100
AcDbEntity
  8
細線
100
AcDbLine
 10
2.000001501511
 20
12.354369684348
 30
0.0
 11
7.25548242852
 21
12.354369684348
 31
0.0
  0
LINE
  5
3ADA
330
3ACE
100
AcDbEntity
  8
外形線
100
AcDbLine
 10
6.11493439904
 20
16.564818684348
 30
0.0
 11
8.499926501511
 21
14.179664684348
 31
0.0
  0
LINE
  5
3ADB
330
3ACE
100
AcDbEntity
  8
外形線
100
AcDbLine
 10
0.000001501512
 20
16.564818684348
 30
0.0
 11
6.11493439904
 21
16.564818684348
 31
0.0
  0
ENDBLK
  5
3ADC
330
3ACE
100
AcDbEntity
  8
0
 48
10.0
100
AcDbBlockEnd
  0
BLOCK
  5
3D6B
330
3D69
100
AcDbEntity
  8
0
 48
10.0
100
AcDbBlockBegin
  2
A$C33ED5A0F
 70
     0
 10
0.0
 20
0.0
 30
0.0
  3
A$C33ED5A0F
  1
A$C33ED5A0F
  0
LINE
  5
3D6A
330
3D69
100
AcDbEntity
  8
下書線
 48
10.0
100
AcDbLine
 10
72.665537001366
 20
0.000000461309
 30
0.0
 11
0.000001398175
 21
0.000000461309
 31
0.0
  0
ENDBLK
  5
3D6C
330
3D69
100
AcDbEntity
  8
0
 48
10.0
100
AcDbBlockEnd
  0
BLOCK
  5
3DCD
330
3DCC
100
AcDbEntity
  8
0
 48
10.0
100
AcDbBlockBegin
  2
パドル_V4
 70
     0
 10
0.0
 20
0.0
 30
0.0
  3
パドル_V4
  1
パドル_V4
  0
LINE
  5
3DCE
330
3DCC
100
AcDbEntity
  8
中心線
 48
10.0
100
AcDbLine
 10
654.408675255227
 20
-185.05185657687
 30
0.0
 11
661.644331255227
 21
-185.05185657687
 31
0.0
  0
LINE
  5
3DCF
330
3DCC
100
AcDbEntity
  8
外形線
 48
10.0
100
AcDbLine
 10
668.026503255227
 20
-250.066710147441
 30
0.0
 11
668.026503255226
 21
-193.349119147441
 31
0.0
  0
LINE
  5
3DD0
330
3DCC
100
AcDbEntity
  8
外形線
100
AcDbLine
 10
654.740125255227
 20
-193.349119147441
 30
0.0
 11
683.01457426889
 21
-193.349119147441
 31
0.0
  0
LINE
  5
3DD1
330
3DCC
100
AcDbEntity
  8
細線
100
AcDbLine
 10
683.014539255227
 20
-189.207885147441
 30
0.0
 11
654.394667255227
 21
-189.207885147441
 31
0.0
  0
LINE
  5
3DD2
330
3DCC
100
AcDbEntity
  8
外形線
100
AcDbLine
 10
654.740125255227
 20
-176.784301147441
 30
0.0
 11
653.026503255227
 21
-178.497923147441
 31
0.0
  0
ARC
  5
3DD3
330
3DCC
100
AcDbEntity
  8
細線
100
AcDbCircle
 10
656.206435255227
 20
-178.305175147441
 30
0.0
 40
3.18575
100
AcDbArc
 50
183.469852255156
 51
235.339263082111
  0
LINE
  5
3DD4
330
3DCC
100
AcDbEntity
  8
細線
100
AcDbLine
 10
683.014539255227
 20
-180.925535147441
 30
0.0
 11
654.394667255227
 21
-180.925535147441
 31
0.0
  0
ARC
  5
3DD5
330
3DCC
100
AcDbEntity
  8
細線
100
AcDbCircle
 10
656.206435255227
 20
-191.828245147441
 30
0.0
 40
3.18575
100
AcDbArc
 50
124.660776613571
 51
176.530130144749
  0
LINE
  5
3DD6
330
3DCC
100
AcDbEntity
  8
外形線
100
AcDbLine
 10
653.026503255227
 20
-178.497923147441
 30
0.0
 11
653.026503255227
 21
-191.635497147441
 31
0.0
  0
CIRCLE
  5
3DD7
330
3DCC
100
AcDbEntity
  8
外形線
100
AcDbCircle
 10
658.026503255227
 20
-185.05185657687
 30
0.0
 40
2.28479
  0
ARC
  5
3DD8
330
3DCC
100
AcDbEntity
  8
細線
100
AcDbCircle
 10
659.977889255227
 20
-185.066711147441
 30
0.0
 40
6.951389999999999
100
AcDbArc
 50
143.435400348638
 51
216.564582051267
  0
LINE
  5
3DD9
330
3DCC
100
AcDbEntity
  8
中心線
 48
10.0
100
AcDbLine
 10
658.026503255227
 20
-181.43402857687
 30
0.0
 11
658.026503255227
 21
-188.66968457687
 31
0.0
  0
LINE
  5
3DDA
330
3DCC
100
AcDbEntity
  8
外形線
100
AcDbLine
 10
654.740125255227
 20
-193.349119147441
 30
0.0
 11
653.026503255227
 21
-191.635497147441
 31
0.0
  0
LINE
  5
3DDB
330
3DCC
100
AcDbEntity
  8
外形線
100
AcDbLine
 10
654.740125255227
 20
-176.784301147441
 30
0.0
 11
683.01453292145
 21
-176.784301147441
 31
0.0
  0
LINE
  5
3DDC
330
3DCC
100
AcDbEntity
  8
外形線
100
AcDbLine
 10
683.01453292145
 20
-176.784301147441
 30
0.0
 11
683.01457426889
 21
-193.349119147441
 31
0.0
  0
LINE
  5
3DDD
330
3DCC
100
AcDbEntity
  8
外形線
 48
10.0
100
AcDbLine
 10
668.026503255226
 20
-120.066710147441
 30
0.0
 11
638.026503255227
 21
-120.066710147441
 31
0.0
  0
LINE
  5
3DDE
330
3DCC
100
AcDbEntity
  8
外形線
 48
10.0
100
AcDbLine
 10
668.026503255227
 20
-250.066710147441
 30
0.0
 11
638.026503255227
 21
-250.066710147441
 31
0.0
  0
LINE
  5
3DDF
330
3DCC
100
AcDbEntity
  8
外形線
 48
10.0
100
AcDbLine
 10
638.026503255227
 20
-120.066710147441
 30
0.0
 11
638.026503255227
 21
-250.066710147441
 31
0.0
  0
LINE
  5
3DE0
330
3DCC
100
AcDbEntity
  8
外形線
 48
10.0
100
AcDbLine
 10
668.026503255226
 20
-176.784301147441
 30
0.0
 11
668.026503255227
 21
-120.066710147441
 31
0.0
  0
ENDBLK
  5
3DE1
330
3DCC
100
AcDbEntity
  8
0
 48
10.0
100
AcDbBlockEnd
  0
BLOCK
  5
3DE3
330
3DE2
100
AcDbEntity
  8
0
 48
10.0
100
AcDbBlockBegin
  2
パドル_V4立面図
 70
     0
 10
0.0
 20
0.0
 30
0.0
  3
パドル_V4立面図
  1
パドル_V4立面図
  0
LINE
  5
3DE4
330
3DE2
100
AcDbEntity
  8
外形線
 48
10.0
100
AcDbLine
 10
669.237515789597
 20
-250.066710147441
 30
0.0
 11
666.381529789597
 21
-250.066710147441
 31
0.0
  0
LINE
  5
3DE5
330
3DE2
100
AcDbEntity
  8
外形線
 48
10.0
100
AcDbLine
 10
669.237515789597
 20
-120.066710147441
 30
0.0
 11
666.381529789597
 21
-120.066710147441
 31
0.0
  0
ARC
  5
3DE6
330
3DE2
100
AcDbEntity
  8
細線
 48
10.0
100
AcDbCircle
 10
667.809537789597
 20
-185.042587244605
 30
0.0
 40
8.568029294919585
100
AcDbArc
 50
279.59388590941
 51
80.40611409059
  0
LINE
  5
3DE7
330
3DE2
100
AcDbEntity
  8
外形線
 48
10.0
100
AcDbLine
 10
669.237515789597
 20
-120.066710147441
 30
0.0
 11
669.237515789597
 21
-250.066710147441
 31
0.0
  0
LINE
  5
3DE8
330
3DE2
100
AcDbEntity
  8
外形線
 48
10.0
100
AcDbLine
 10
666.381529789597
 20
-120.066710147441
 30
0.0
 11
666.381529789597
 21
-250.066710147441
 31
0.0
  0
ARC
  5
3DE9
330
3DE2
100
AcDbEntity
  8
細線
100
AcDbCircle
 10
667.809537789597
 20
-185.042587244605
 30
0.0
 40
7.458525999999999
100
AcDbArc
 50
101.038013199227
 51
258.962026496456
  0
LINE
  5
3DEA
330
3DE2
100
AcDbEntity
  8
外形線
100
AcDbLine
 10
666.381529789597
 20
-177.299057244605
 30
0.0
 11
660.389433789597
 21
-180.758529244605
 31
0.0
  0
LINE
  5
3DEB
330
3DE2
100
AcDbEntity
  8
外形線
100
AcDbLine
 10
660.389433789597
 20
-189.326523244605
 30
0.0
 11
660.389433789597
 21
-180.758529244605
 31
0.0
  0
LINE
  5
3DEC
330
3DE2
100
AcDbEntity
  8
外形線
100
AcDbLine
 10
666.381529789597
 20
-192.786117244605
 30
0.0
 11
660.389433789597
 21
-189.326523244605
 31
0.0
  0
ARC
  5
3DED
330
3DE2
100
AcDbEntity
  8
細線
100
AcDbCircle
 10
667.809537789597
 20
-185.042587244605
 30
0.0
 40
7.458525999999999
100
AcDbArc
 50
281.037746568174
 51
78.962275527421
  0
LINE
  5
3DEE
330
3DE2
100
AcDbEntity
  8
外形線
100
AcDbLine
 10
669.237515789597
 20
-192.786147244605
 30
0.0
 11
675.229643789597
 21
-189.326523244605
 31
0.0
  0
LINE
  5
3DEF
330
3DE2
100
AcDbEntity
  8
外形線
100
AcDbLine
 10
675.229643789597
 20
-180.758529244605
 30
0.0
 11
675.229643789597
 21
-189.326523244605
 31
0.0
  0
LINE
  5
3DF0
330
3DE2
100
AcDbEntity
  8
外形線
100
AcDbLine
 10
669.237515789597
 20
-177.299027244605
 30
0.0
 11
675.229643789597
 21
-180.758529244605
 31
0.0
  0
ARC
  5
3DF1
330
3DE2
100
AcDbEntity
  8
細線
 48
10.0
100
AcDbCircle
 10
667.809537789597
 20
-185.042587244605
 30
0.0
 40
8.568029294919585
100
AcDbArc
 50
99.594089369894
 51
260.405910630106
  0
ENDBLK
  5
3DF2
330
3DE2
100
AcDbEntity
  8
0
 48
10.0
100
AcDbBlockEnd
  0
BLOCK
  5
4473
330
4472
100
AcDbEntity
  8
0
 48
10.0
100
AcDbBlockBegin
  2
パドル_S3
 70
     0
 10
0.0
 20
0.0
 30
0.0
  3
パドル_S3
  1
パドル_S3
  0
LINE
  5
4474
330
4472
100
AcDbEntity
  8
外形線
 48
10.0
100
AcDbLine
 10
361.31572880585
 20
-81.74376990297
 30
0.0
 11
441.31572880585
 21
-81.74376990297
 31
0.0
  0
LINE
  5
4475
330
4472
100
AcDbEntity
  8
外形線
 48
10.0
100
AcDbLine
 10
361.31572880585
 20
-21.74376990297
 30
0.0
 11
361.31572880585
 21
-81.74376990297
 31
0.0
  0
LINE
  5
4476
330
4472
100
AcDbEntity
  8
外形線
 48
10.0
100
AcDbLine
 10
418.029350689575
 20
-21.74376990297
 30
0.0
 11
361.31572880585
 21
-21.74376990297
 31
0.0
  0
LINE
  5
4477
330
4472
100
AcDbEntity
  8
外形線
 48
10.0
100
AcDbLine
 10
441.31572880585
 20
-81.74376990297
 30
0.0
 11
441.31572880585
 21
-38.30858790297
 31
0.0
  0
LINE
  5
4478
330
4472
100
AcDbEntity
  8
中心線
 48
10.0
100
AcDbLine
 10
430.69788154268
 20
-30.033637188268
 30
0.0
 11
437.93353754268
 21
-30.033637188268
 31
0.0
  0
LINE
  5
4479
330
4472
100
AcDbEntity
  8
中心線
 48
10.0
100
AcDbLine
 10
434.31570954268
 20
-26.415809188268
 30
0.0
 11
434.31570954268
 21
-33.651465188268
 31
0.0
  0
CIRCLE
  5
447A
330
4472
100
AcDbEntity
  8
外形線
100
AcDbCircle
 10
434.31570954268
 20
-30.033637188268
 30
0.0
 40
2.28479
  0
LINE
  5
447B
330
4472
100
AcDbEntity
  8
外形線
 48
10.0
100
AcDbLine
 10
456.315728689575
 20
-38.30858790297
 30
0.0
 11
456.315728689575
 21
-21.74376990297
 31
0.0
  0
LINE
  5
447C
330
4472
100
AcDbEntity
  8
外形線
100
AcDbLine
 10
418.029350689575
 20
-38.30858790297
 30
0.0
 11
456.315728689575
 21
-38.30858790297
 31
0.0
  0
LINE
  5
447D
330
4472
100
AcDbEntity
  8
細線
100
AcDbLine
 10
456.315728689575
 20
-34.16735390297
 30
0.0
 11
417.683892689575
 21
-34.16735390297
 31
0.0
  0
LINE
  5
447E
330
4472
100
AcDbEntity
  8
外形線
100
AcDbLine
 10
418.029350689575
 20
-21.74376990297
 30
0.0
 11
416.315728689575
 21
-23.45739190297
 31
0.0
  0
ARC
  5
447F
330
4472
100
AcDbEntity
  8
細線
100
AcDbCircle
 10
419.495660689575
 20
-23.26464390297
 30
0.0
 40
3.18575
100
AcDbArc
 50
183.469852255156
 51
235.339263082111
  0
LINE
  5
4480
330
4472
100
AcDbEntity
  8
細線
100
AcDbLine
 10
456.315728689575
 20
-25.88500390297
 30
0.0
 11
417.683892689575
 21
-25.88500390297
 31
0.0
  0
ARC
  5
4481
330
4472
100
AcDbEntity
  8
細線
100
AcDbCircle
 10
419.495660689575
 20
-36.78771390297
 30
0.0
 40
3.18575
100
AcDbArc
 50
124.660776613571
 51
176.530130144749
  0
LINE
  5
4482
330
4472
100
AcDbEntity
  8
外形線
100
AcDbLine
 10
416.315728689575
 20
-23.45739190297
 30
0.0
 11
416.315728689575
 21
-36.59496590297
 31
0.0
  0
CIRCLE
  5
4483
330
4472
100
AcDbEntity
  8
外形線
100
AcDbCircle
 10
421.315728689575
 20
-30.011325332398
 30
0.0
 40
2.28479
  0
ARC
  5
4484
330
4472
100
AcDbEntity
  8
細線
100
AcDbCircle
 10
423.267114689575
 20
-30.02617990297
 30
0.0
 40
6.951389999999999
100
AcDbArc
 50
143.435400348638
 51
216.564582051267
  0
LINE
  5
4485
330
4472
100
AcDbEntity
  8
中心線
 48
10.0
100
AcDbLine
 10
421.315728689575
 20
-26.393497332398
 30
0.0
 11
421.315728689575
 21
-33.629153332398
 31
0.0
  0
LINE
  5
4486
330
4472
100
AcDbEntity
  8
外形線
100
AcDbLine
 10
418.029350689575
 20
-38.30858790297
 30
0.0
 11
416.315728689575
 21
-36.59496590297
 31
0.0
  0
LINE
  5
4487
330
4472
100
AcDbEntity
  8
外形線
100
AcDbLine
 10
418.029350689575
 20
-21.74376990297
 30
0.0
 11
456.315728689575
 21
-21.74376990297
 31
0.0
  0
LINE
  5
4488
330
4472
100
AcDbEntity
  8
中心線
 48
10.0
100
AcDbLine
 10
417.697969491028
 20
-30.033637188268
 30
0.0
 11
424.933487888122
 21
-30.033637188268
 31
0.0
  0
ENDBLK
  5
4489
330
4472
100
AcDbEntity
  8
0
 48
10.0
100
AcDbBlockEnd
  0
BLOCK
  5
44B1
330
44B0
100
AcDbEntity
  8
0
 48
10.0
100
AcDbBlockBegin
  2
パドル_S3立面図
 70
     0
 10
0.0
 20
0.0
 30
0.0
  3
パドル_S3立面図
  1
パドル_S3立面図
  0
ARC
  5
44B2
330
44B0
100
AcDbEntity
  8
細線
 48
10.0
100
AcDbCircle
 10
269.865145890431
 20
-30.311799197889
 30
0.0
 40
8.568029294919585
100
AcDbArc
 50
279.59388590941
 51
80.40611409059
  0
LINE
  5
44B3
330
44B0
100
AcDbEntity
  8
外形線
 48
10.0
100
AcDbLine
 10
271.293123890431
 20
-21.74376990297
 30
0.0
 11
271.293123890431
 21
-81.74376990297
 31
0.0
  0
LINE
  5
44B4
330
44B0
100
AcDbEntity
  8
外形線
 48
10.0
100
AcDbLine
 10
268.437137890431
 20
-21.74376990297
 30
0.0
 11
268.437137890431
 21
-81.74376990297
 31
0.0
  0
ARC
  5
44B5
330
44B0
100
AcDbEntity
  8
細線
100
AcDbCircle
 10
269.865145890431
 20
-30.311799197889
 30
0.0
 40
7.458525999999999
100
AcDbArc
 50
101.038013199227
 51
258.962026496458
  0
LINE
  5
44B6
330
44B0
100
AcDbEntity
  8
外形線
100
AcDbLine
 10
268.437137890431
 20
-22.568269197889
 30
0.0
 11
262.445041890431
 21
-26.027741197889
 31
0.0
  0
LINE
  5
44B7
330
44B0
100
AcDbEntity
  8
外形線
100
AcDbLine
 10
262.445041890431
 20
-34.595735197889
 30
0.0
 11
262.445041890431
 21
-26.027741197889
 31
0.0
  0
LINE
  5
44B8
330
44B0
100
AcDbEntity
  8
外形線
100
AcDbLine
 10
268.437137890431
 20
-38.055329197889
 30
0.0
 11
262.445041890431
 21
-34.595735197889
 31
0.0
  0
ARC
  5
44B9
330
44B0
100
AcDbEntity
  8
細線
100
AcDbCircle
 10
269.865145890431
 20
-30.311799197889
 30
0.0
 40
7.458525999999999
100
AcDbArc
 50
281.037746568172
 51
78.96227552742
  0
LINE
  5
44BA
330
44B0
100
AcDbEntity
  8
外形線
100
AcDbLine
 10
271.293123890431
 20
-38.055359197889
 30
0.0
 11
277.285251890431
 21
-34.595735197889
 31
0.0
  0
LINE
  5
44BB
330
44B0
100
AcDbEntity
  8
外形線
100
AcDbLine
 10
277.285251890431
 20
-26.027741197889
 30
0.0
 11
277.285251890431
 21
-34.595735197889
 31
0.0
  0
LINE
  5
44BC
330
44B0
100
AcDbEntity
  8
外形線
100
AcDbLine
 10
271.293123890431
 20
-22.568239197889
 30
0.0
 11
277.285251890431
 21
-26.027741197889
 31
0.0
  0
ARC
  5
44BD
330
44B0
100
AcDbEntity
  8
細線
 48
10.0
100
AcDbCircle
 10
269.865145890431
 20
-30.311799197889
 30
0.0
 40
8.568029294919585
100
AcDbArc
 50
99.594089369892
 51
260.405910630108
  0
LINE
  5
44BE
330
44B0
100
AcDbEntity
  8
外形線
 48
10.0
100
AcDbLine
 10
271.293123890431
 20
-21.74376990297
 30
0.0
 11
268.437137890431
 21
-21.74376990297
 31
0.0
  0
LINE
  5
44BF
330
44B0
100
AcDbEntity
  8
外形線
 48
10.0
100
AcDbLine
 10
271.293123890431
 20
-81.74376990297
 30
0.0
 11
268.437137890431
 21
-81.74376990297
 31
0.0
  0
ENDBLK
  5
44C0
330
44B0
100
AcDbEntity
  8
0
 48
10.0
100
AcDbBlockEnd
  0
BLOCK
  5
499C
330
4990
100
AcDbEntity
  8
0
 48
10.0
100
AcDbBlockBegin
  2
*D21
 70
     1
 10
0.0
 20
0.0
 30
0.0
  3
*D21
  1
*D21
  0
LINE
  5
4B00
330
4990
100
AcDbEntity
  8
寸法線
 62
     0
 48
10.0
100
AcDbLine
 10
1022.742375390683
 20
2046.137219847711
 30
0.0
 11
1022.742375390683
 21
2023.542046707265
 31
0.0
  0
LINE
  5
4B01
330
4990
100
AcDbEntity
  8
寸法線
 62
     0
 48
10.0
100
AcDbLine
 10
1032.742375390683
 20
2046.137219847711
 30
0.0
 11
1032.742375390683
 21
2023.542046707265
 31
0.0
  0
LINE
  5
4B02
330
4990
100
AcDbEntity
  8
寸法線
 62
     0
 48
10.0
100
AcDbLine
 10
1016.742375390683
 20
2024.792046707265
 30
0.0
 11
1010.742375390683
 21
2024.792046707265
 31
0.0
  0
LINE
  5
4B03
330
4990
100
AcDbEntity
  8
寸法線
 62
     0
 48
10.0
100
AcDbLine
 10
1038.742375390683
 20
2024.792046707265
 30
0.0
 11
1044.742375390683
 21
2024.792046707265
 31
0.0
  0
LINE
  5
4B04
330
4990
100
AcDbEntity
  8
寸法線
 62
     0
 48
10.0
100
AcDbLine
 10
1022.742375390683
 20
2024.792046707265
 30
0.0
 11
1032.742375390683
 21
2024.792046707265
 31
0.0
  0
INSERT
  5
4B05
330
4990
100
AcDbEntity
  8
寸法線
 62
     0
 48
10.0
100
AcDbBlockReference
  2
_OPEN30
 10
1022.742375390683
 20
2024.792046707265
 30
0.0
 41
6.0
 42
6.0
 43
6.0
  0
INSERT
  5
4B06
330
4990
100
AcDbEntity
  8
寸法線
 62
     0
 48
10.0
100
AcDbBlockReference
  2
_OPEN30
 10
1032.742375390683
 20
2024.792046707265
 30
0.0
 41
6.0
 42
6.0
 43
6.0
 50
180.0
  0
MTEXT
  5
4B07
330
4990
100
AcDbEntity
  8
寸法線
 62
     0
 48
10.0
100
AcDbMText
 10
1027.742375390683
 20
2029.417046707265
 30
0.0
 40
8.0
 41
0.0
 71
     5
 72
     1
  1
\A1;10
  0
POINT
  5
4B08
330
4990
100
AcDbEntity
  8
DEFPOINTS
 62
     0
 48
10.0
100
AcDbPoint
 10
1022.742375390683
 20
2046.762219847711
 30
0.0
  0
POINT
  5
4B09
330
4990
100
AcDbEntity
  8
DEFPOINTS
 62
     0
 48
10.0
100
AcDbPoint
 10
1032.742375390683
 20
2046.762219847711
 30
0.0
  0
POINT
  5
4B0A
330
4990
100
AcDbEntity
  8
DEFPOINTS
 62
     0
 48
10.0
100
AcDbPoint
 10
1032.742375390683
 20
2024.792046707265
 30
0.0
  0
ENDBLK
  5
499D
330
4990
100
AcDbEntity
  8
0
 48
10.0
100
AcDbBlockEnd
  0
BLOCK
  5
49B6
330
49AC
100
AcDbEntity
  8
0
 48
10.0
100
AcDbBlockBegin
  2
*D23
 70
     1
 10
0.0
 20
0.0
 30
0.0
  3
*D23
  1
*D23
  0
LINE
  5
4AF7
330
49AC
100
AcDbEntity
  8
寸法線
 62
     0
 48
10.0
100
AcDbLine
 10
872.742375390683
 20
2083.637219847711
 30
0.0
 11
872.742375390683
 21
2064.486162662139
 31
0.0
  0
LINE
  5
4AF8
330
49AC
100
AcDbEntity
  8
寸法線
 62
     0
 48
10.0
100
AcDbLine
 10
952.742375390683
 20
2111.637219847711
 30
0.0
 11
952.742375390683
 21
2064.486162662139
 31
0.0
  0
LINE
  5
4AF9
330
49AC
100
AcDbEntity
  8
寸法線
 62
     0
 48
10.0
100
AcDbLine
 10
878.742375390683
 20
2065.736162662139
 30
0.0
 11
946.742375390683
 21
2065.736162662139
 31
0.0
  0
INSERT
  5
4AFA
330
49AC
100
AcDbEntity
  8
寸法線
 62
     0
 48
10.0
100
AcDbBlockReference
  2
_OPEN30
 10
872.742375390683
 20
2065.736162662139
 30
0.0
 41
6.0
 42
6.0
 43
6.0
 50
180.0
  0
INSERT
  5
4AFB
330
49AC
100
AcDbEntity
  8
寸法線
 62
     0
 48
10.0
100
AcDbBlockReference
  2
_OPEN30
 10
952.742375390683
 20
2065.736162662139
 30
0.0
 41
6.0
 42
6.0
 43
6.0
  0
MTEXT
  5
4AFC
330
49AC
100
AcDbEntity
  8
寸法線
 62
     0
 48
10.0
100
AcDbMText
 10
912.742375390683
 20
2070.361162662139
 30
0.0
 40
8.0
 41
0.0
 71
     5
 72
     1
  1
\A1;80
  0
POINT
  5
4AFD
330
49AC
100
AcDbEntity
  8
DEFPOINTS
 62
     0
 48
10.0
100
AcDbPoint
 10
872.742375390683
 20
2084.262219847711
 30
0.0
  0
POINT
  5
4AFE
330
49AC
100
AcDbEntity
  8
DEFPOINTS
 62
     0
 48
10.0
100
AcDbPoint
 10
952.742375390683
 20
2112.262219847711
 30
0.0
  0
POINT
  5
4AFF
330
49AC
100
AcDbEntity
  8
DEFPOINTS
 62
     0
 48
10.0
100
AcDbPoint
 10
952.742375390683
 20
2065.736162662139
 30
0.0
  0
ENDBLK
  5
49B7
330
49AC
100
AcDbEntity
  8
0
 48
10.0
100
AcDbBlockEnd
  0
BLOCK
  5
49C2
330
49B8
100
AcDbEntity
  8
0
 48
10.0
100
AcDbBlockBegin
  2
*D24
 70
     1
 10
0.0
 20
0.0
 30
0.0
  3
*D24
  1
*D24
  0
LINE
  5
4AEE
330
49B8
100
AcDbEntity
  8
寸法線
 62
     0
 48
10.0
100
AcDbLine
 10
872.117375390683
 20
2164.262219847711
 30
0.0
 11
849.533134101478
 21
2164.262219847711
 31
0.0
  0
LINE
  5
4AEF
330
49B8
100
AcDbEntity
  8
寸法線
 62
     0
 48
10.0
100
AcDbLine
 10
872.117375390683
 20
2084.262219847711
 30
0.0
 11
849.533134101478
 21
2084.262219847711
 31
0.0
  0
LINE
  5
4AF0
330
49B8
100
AcDbEntity
  8
寸法線
 62
     0
 48
10.0
100
AcDbLine
 10
850.783134101478
 20
2158.262219847711
 30
0.0
 11
850.783134101478
 21
2090.262219847711
 31
0.0
  0
INSERT
  5
4AF1
330
49B8
100
AcDbEntity
  8
寸法線
 62
     0
 48
10.0
100
AcDbBlockReference
  2
_OPEN30
 10
850.783134101478
 20
2164.262219847711
 30
0.0
 41
6.0
 42
6.0
 43
6.0
 50
90.0
  0
INSERT
  5
4AF2
330
49B8
100
AcDbEntity
  8
寸法線
 62
     0
 48
10.0
100
AcDbBlockReference
  2
_OPEN30
 10
850.783134101478
 20
2084.262219847711
 30
0.0
 41
6.0
 42
6.0
 43
6.0
 50
270.0
  0
MTEXT
  5
4AF3
330
49B8
100
AcDbEntity
  8
寸法線
 62
     0
 48
10.0
100
AcDbMText
 10
846.158134101478
 20
2124.262219847711
 30
0.0
 40
8.0
 41
0.0
 71
     5
 72
     1
  1
\A1;80
 11
6.123031769111886E-17
 21
1.0
 31
0.0
  0
POINT
  5
4AF4
330
49B8
100
AcDbEntity
  8
DEFPOINTS
 62
     0
 48
10.0
100
AcDbPoint
 10
872.742375390683
 20
2164.262219847711
 30
0.0
  0
POINT
  5
4AF5
330
49B8
100
AcDbEntity
  8
DEFPOINTS
 62
     0
 48
10.0
100
AcDbPoint
 10
872.742375390683
 20
2084.262219847711
 30
0.0
  0
POINT
  5
4AF6
330
49B8
100
AcDbEntity
  8
DEFPOINTS
 62
     0
 48
10.0
100
AcDbPoint
 10
850.783134101478
 20
2084.262219847711
 30
0.0
  0
ENDBLK
  5
49C3
330
49B8
100
AcDbEntity
  8
0
 48
10.0
100
AcDbBlockEnd
  0
BLOCK
  5
49E6
330
49DC
100
AcDbEntity
  8
0
 48
10.0
100
AcDbBlockBegin
  2
*D27
 70
     1
 10
0.0
 20
0.0
 30
0.0
  3
*D27
  1
*D27
  0
LINE
  5
4AE5
330
49DC
100
AcDbEntity
  8
寸法線
 62
     0
 48
10.0
100
AcDbLine
 10
1129.074529390683
 20
2175.262219847711
 30
0.0
 11
1199.442295173564
 21
2175.262219847711
 31
0.0
  0
LINE
  5
4AE6
330
49DC
100
AcDbEntity
  8
寸法線
 62
     0
 48
10.0
100
AcDbLine
 10
1129.074529390683
 20
2073.262219847711
 30
0.0
 11
1199.442295173564
 21
2073.262219847711
 31
0.0
  0
LINE
  5
4AE7
330
49DC
100
AcDbEntity
  8
寸法線
 62
     0
 48
10.0
100
AcDbLine
 10
1198.192295173564
 20
2169.262219847711
 30
0.0
 11
1198.192295173564
 21
2079.262219847711
 31
0.0
  0
INSERT
  5
4AE8
330
49DC
100
AcDbEntity
  8
寸法線
 62
     0
 48
10.0
100
AcDbBlockReference
  2
_OPEN30
 10
1198.192295173564
 20
2175.262219847711
 30
0.0
 41
6.0
 42
6.0
 43
6.0
 50
90.0
  0
INSERT
  5
4AE9
330
49DC
100
AcDbEntity
  8
寸法線
 62
     0
 48
10.0
100
AcDbBlockReference
  2
_OPEN30
 10
1198.192295173564
 20
2073.262219847711
 30
0.0
 41
6.0
 42
6.0
 43
6.0
 50
270.0
  0
MTEXT
  5
4AEA
330
49DC
100
AcDbEntity
  8
寸法線
 62
     0
 48
10.0
100
AcDbMText
 10
1193.566507771989
 20
2123.650220347711
 30
0.0
 40
8.0
 41
0.0
 71
     5
 72
     1
  1
\A1;φ102
 11
6.123031769111886E-17
 21
1.0
 31
0.0
  0
POINT
  5
4AEB
330
49DC
100
AcDbEntity
  8
DEFPOINTS
 62
     0
 48
10.0
100
AcDbPoint
 10
1128.449529390683
 20
2175.262219847711
 30
0.0
  0
POINT
  5
4AEC
330
49DC
100
AcDbEntity
  8
DEFPOINTS
 62
     0
 48
10.0
100
AcDbPoint
 10
1128.449529390683
 20
2073.262219847711
 30
0.0
  0
POINT
  5
4AED
330
49DC
100
AcDbEntity
  8
DEFPOINTS
 62
     0
 48
10.0
100
AcDbPoint
 10
1198.192295173564
 20
2073.262219847711
 30
0.0
  0
ENDBLK
  5
49E7
330
49DC
100
AcDbEntity
  8
0
 48
10.0
100
AcDbBlockEnd
  0
BLOCK
  5
4A16
330
4A0C
100
AcDbEntity
  8
0
 48
10.0
100
AcDbBlockBegin
  2
*D31
 70
     1
 10
0.0
 20
0.0
 30
0.0
  3
*D31
  1
*D31
  0
LINE
  5
4AC1
330
4A0C
100
AcDbEntity
  8
寸法線
 62
     0
 48
10.0
100
AcDbLine
 10
1022.742375390683
 20
2046.137219847711
 30
0.0
 11
1022.742375390683
 21
2003.839247486414
 31
0.0
  0
LINE
  5
4AC2
330
4A0C
100
AcDbEntity
  8
寸法線
 62
     0
 48
10.0
100
AcDbLine
 10
1172.717563390683
 20
2022.917046707265
 30
0.0
 11
1172.717563390683
 21
2003.839247486414
 31
0.0
  0
LINE
  5
4AC3
330
4A0C
100
AcDbEntity
  8
寸法線
 62
     0
 48
10.0
100
AcDbLine
 10
1028.742375390683
 20
2005.089247486414
 30
0.0
 11
1166.717563390683
 21
2005.089247486414
 31
0.0
  0
INSERT
  5
4AC4
330
4A0C
100
AcDbEntity
  8
寸法線
 62
     0
 48
10.0
100
AcDbBlockReference
  2
_OPEN30
 10
1022.742375390683
 20
2005.089247486414
 30
0.0
 41
6.0
 42
6.0
 43
6.0
 50
180.0
  0
INSERT
  5
4AC5
330
4A0C
100
AcDbEntity
  8
寸法線
 62
     0
 48
10.0
100
AcDbBlockReference
  2
_OPEN30
 10
1172.717563390683
 20
2005.089247486414
 30
0.0
 41
6.0
 42
6.0
 43
6.0
  0
MTEXT
  5
4AC6
330
4A0C
100
AcDbEntity
  8
寸法線
 62
     0
 48
10.0
100
AcDbMText
 10
1097.729969390683
 20
2009.714247486414
 30
0.0
 40
8.0
 41
0.0
 71
     5
 72
     1
  1
\A1;150
  0
POINT
  5
4AC7
330
4A0C
100
AcDbEntity
  8
DEFPOINTS
 62
     0
 48
10.0
100
AcDbPoint
 10
1022.742375390683
 20
2046.762219847711
 30
0.0
  0
POINT
  5
4AC8
330
4A0C
100
AcDbEntity
  8
DEFPOINTS
 62
     0
 48
10.0
100
AcDbPoint
 10
1172.717563390683
 20
2023.542046707265
 30
0.0
  0
POINT
  5
4AC9
330
4A0C
100
AcDbEntity
  8
DEFPOINTS
 62
     0
 48
10.0
100
AcDbPoint
 10
1172.717563390683
 20
2005.089247486414
 30
0.0
  0
ENDBLK
  5
4A17
330
4A0C
100
AcDbEntity
  8
0
 48
10.0
100
AcDbBlockEnd
  0
BLOCK
  5
4A22
330
4A18
100
AcDbEntity
  8
0
 48
10.0
100
AcDbBlockBegin
  2
*D32
 70
     1
 10
0.0
 20
0.0
 30
0.0
  3
*D32
  1
*D32
  0
LINE
  5
4AB8
330
4A18
100
AcDbEntity
  8
寸法線
 62
     0
 48
10.0
100
AcDbLine
 10
872.742375390683
 20
2083.637219847711
 30
0.0
 11
872.742375390683
 21
2003.839247486414
 31
0.0
  0
LINE
  5
4AB9
330
4A18
100
AcDbEntity
  8
寸法線
 62
     0
 48
10.0
100
AcDbLine
 10
1022.742375390683
 20
2046.137219847711
 30
0.0
 11
1022.742375390683
 21
2003.839247486414
 31
0.0
  0
LINE
  5
4ABA
330
4A18
100
AcDbEntity
  8
寸法線
 62
     0
 48
10.0
100
AcDbLine
 10
878.742375390683
 20
2005.089247486414
 30
0.0
 11
1016.742375390683
 21
2005.089247486414
 31
0.0
  0
INSERT
  5
4ABB
330
4A18
100
AcDbEntity
  8
寸法線
 62
     0
 48
10.0
100
AcDbBlockReference
  2
_OPEN30
 10
872.742375390683
 20
2005.089247486414
 30
0.0
 41
6.0
 42
6.0
 43
6.0
 50
180.0
  0
INSERT
  5
4ABC
330
4A18
100
AcDbEntity
  8
寸法線
 62
     0
 48
10.0
100
AcDbBlockReference
  2
_OPEN30
 10
1022.742375390683
 20
2005.089247486414
 30
0.0
 41
6.0
 42
6.0
 43
6.0
  0
MTEXT
  5
4ABD
330
4A18
100
AcDbEntity
  8
寸法線
 62
     0
 48
10.0
100
AcDbMText
 10
947.742375390683
 20
2009.714247486414
 30
0.0
 40
8.0
 41
0.0
 71
     5
 72
     1
  1
\A1;150
  0
POINT
  5
4ABE
330
4A18
100
AcDbEntity
  8
DEFPOINTS
 62
     0
 48
10.0
100
AcDbPoint
 10
872.742375390683
 20
2084.262219847711
 30
0.0
  0
POINT
  5
4ABF
330
4A18
100
AcDbEntity
  8
DEFPOINTS
 62
     0
 48
10.0
100
AcDbPoint
 10
1022.742375390683
 20
2046.762219847711
 30
0.0
  0
POINT
  5
4AC0
330
4A18
100
AcDbEntity
  8
DEFPOINTS
 62
     0
 48
10.0
100
AcDbPoint
 10
1022.742375390683
 20
2005.089247486414
 30
0.0
  0
ENDBLK
  5
4A23
330
4A18
100
AcDbEntity
  8
0
 48
10.0
100
AcDbBlockEnd
  0
BLOCK
  5
4A30
330
4A24
100
AcDbEntity
  8
0
 48
10.0
100
AcDbBlockBegin
  2
*D33
 70
     1
 10
0.0
 20
0.0
 30
0.0
  3
*D33
  1
*D33
  0
LINE
  5
4AAD
330
4A24
100
AcDbEntity
  8
寸法線
 62
     0
 48
10.0
100
AcDbLine
 10
991.282241996421
 20
2129.269675633005
 30
0.0
 11
991.907241996422
 21
2129.269675633005
 31
0.0
  0
LINE
  5
4AAE
330
4A24
100
AcDbEntity
  8
寸法線
 62
     0
 48
10.0
100
AcDbLine
 10
991.282241996421
 20
2119.269753133005
 30
0.0
 11
991.907241996422
 21
2119.269753133005
 31
0.0
  0
LINE
  5
4AAF
330
4A24
100
AcDbEntity
  8
寸法線
 62
     0
 48
10.0
100
AcDbLine
 10
990.657241996422
 20
2113.269753133005
 30
0.0
 11
990.657241996422
 21
2107.269753133005
 31
0.0
  0
LINE
  5
4AB0
330
4A24
100
AcDbEntity
  8
寸法線
 62
     0
 48
10.0
100
AcDbLine
 10
990.657241996422
 20
2135.269675633005
 30
0.0
 11
990.657241996422
 21
2158.925974845603
 31
0.0
  0
LINE
  5
4AB1
330
4A24
100
AcDbEntity
  8
寸法線
 62
     0
 48
10.0
100
AcDbLine
 10
990.657241996422
 20
2119.269753133005
 30
0.0
 11
990.657241996422
 21
2129.269675633005
 31
0.0
  0
INSERT
  5
4AB2
330
4A24
100
AcDbEntity
  8
寸法線
 62
     0
 48
10.0
100
AcDbBlockReference
  2
_OPEN30
 10
990.657241996422
 20
2119.269753133005
 30
0.0
 41
6.0
 42
6.0
 43
6.0
 50
90.0
  0
INSERT
  5
4AB3
330
4A24
100
AcDbEntity
  8
寸法線
 62
     0
 48
10.0
100
AcDbBlockReference
  2
_OPEN30
 10
990.657241996422
 20
2129.269675633005
 30
0.0
 41
6.0
 42
6.0
 43
6.0
 50
270.0
  0
MTEXT
  5
4AB4
330
4A24
100
AcDbEntity
  8
寸法線
 62
     0
 48
10.0
100
AcDbMText
 10
986.032241996421
 20
2150.097825239304
 30
0.0
 40
8.0
 41
0.0
 71
     5
 72
     1
  1
\A1;φ10
 11
6.123031769111886E-17
 21
1.0
 31
0.0
  0
POINT
  5
4AB5
330
4A24
100
AcDbEntity
  8
DEFPOINTS
 62
     0
 48
10.0
100
AcDbPoint
 10
990.657241996421
 20
2129.269675633005
 30
0.0
  0
POINT
  5
4AB6
330
4A24
100
AcDbEntity
  8
DEFPOINTS
 62
     0
 48
10.0
100
AcDbPoint
 10
990.657241996421
 20
2119.269753133005
 30
0.0
  0
POINT
  5
4AB7
330
4A24
100
AcDbEntity
  8
DEFPOINTS
 62
     0
 48
10.0
100
AcDbPoint
 10
990.657241996422
 20
2119.269753133005
 30
0.0
  0
ENDBLK
  5
4A31
330
4A24
100
AcDbEntity
  8
0
 48
10.0
100
AcDbBlockEnd
  0
BLOCK
  5
4E70
330
4E6F
100
AcDbEntity
  8
0
100
AcDbBlockBegin
  2
*D46
 70
     1
 10
0.0
 20
0.0
 30
0.0
  3
*D46
  1
*D46
  0
LINE
  5
4E72
330
4E6F
100
AcDbEntity
  8
寸法線
 62
     0
 48
10.0
100
AcDbLine
 10
701.212049723897
 20
2093.803463119188
 30
0.0
 11
701.212049723897
 21
2094.433023264533
 31
0.0
  0
LINE
  5
4E73
330
4E6F
100
AcDbEntity
  8
寸法線
 62
     0
 48
10.0
100
AcDbLine
 10
704.068054238432
 20
2093.803463119188
 30
0.0
 11
704.068054238432
 21
2094.433023264533
 31
0.0
  0
LINE
  5
4E74
330
4E6F
100
AcDbEntity
  8
寸法線
 62
     0
 48
10.0
100
AcDbLine
 10
710.068054238432
 20
2093.183023264533
 30
0.0
 11
726.918054238432
 21
2093.183023264533
 31
0.0
  0
LINE
  5
4E75
330
4E6F
100
AcDbEntity
  8
寸法線
 62
     0
 48
10.0
100
AcDbLine
 10
701.212049723897
 20
2093.183023264533
 30
0.0
 11
704.068054238432
 21
2093.183023264533
 31
0.0
  0
LINE
  5
4E76
330
4E6F
100
AcDbEntity
  8
寸法線
 62
     0
 48
10.0
100
AcDbLine
 10
695.212049723897
 20
2093.183023264533
 30
0.0
 11
689.212049723897
 21
2093.183023264533
 31
0.0
  0
INSERT
  5
4E77
330
4E6F
100
AcDbEntity
  8
寸法線
 62
     0
100
AcDbBlockReference
  2
_OPEN30
 10
701.212049723897
 20
2093.183023264533
 30
0.0
 41
6.0
 42
6.0
 43
6.0
  0
INSERT
  5
4E78
330
4E6F
100
AcDbEntity
  8
寸法線
 62
     0
100
AcDbBlockReference
  2
_OPEN30
 10
704.068054238432
 20
2093.183023264533
 30
0.0
 41
6.0
 42
6.0
 43
6.0
 50
180.0
  0
MTEXT
  5
4E79
330
4E6F
100
AcDbEntity
  8
寸法線
 62
     0
 48
10.0
100
AcDbMText
 10
721.493054238432
 20
2097.808023264533
 30
0.0
 40
8.0
 41
0.0
 71
     5
 72
     1
  1
\A1;1.5
  0
POINT
  5
4E7A
330
4E6F
100
AcDbEntity
  8
DEFPOINTS
 62
     0
100
AcDbPoint
 10
701.212049723897
 20
2093.178463119188
 30
0.0
  0
POINT
  5
4E7B
330
4E6F
100
AcDbEntity
  8
DEFPOINTS
 62
     0
100
AcDbPoint
 10
704.068054238432
 20
2093.178463119188
 30
0.0
  0
POINT
  5
4E7C
330
4E6F
100
AcDbEntity
  8
DEFPOINTS
 62
     0
100
AcDbPoint
 10
704.068054238432
 20
2093.183023264533
 30
0.0
  0
ENDBLK
  5
4E71
330
4E6F
100
AcDbEntity
  8
0
100
AcDbBlockEnd
  0
BLOCK
  5
4E96
330
4E95
100
AcDbEntity
  8
0
100
AcDbBlockBegin
  2
*D49
 70
     1
 10
0.0
 20
0.0
 30
0.0
  3
*D49
  1
*D49
  0
LINE
  5
4E98
330
4E95
100
AcDbEntity
  8
寸法線
 62
     0
 48
10.0
100
AcDbLine
 10
643.702898445326
 20
2096.831414726446
 30
0.0
 11
643.433701856706
 21
2097.395469862648
 31
0.0
  0
LINE
  5
4E99
330
4E95
100
AcDbEntity
  8
寸法線
 62
     0
 48
10.0
100
AcDbLine
 10
761.026365950065
 20
2152.824304765437
 30
0.0
 11
760.757169361445
 21
2153.388359901639
 31
0.0
  0
LINE
  5
4E9A
330
4E95
100
AcDbEntity
  8
寸法線
 62
     0
 48
10.0
100
AcDbLine
 10
649.387024341483
 20
2098.851646840991
 30
0.0
 11
755.880633231146
 21
2149.675962378489
 31
0.0
  0
INSERT
  5
4E9B
330
4E95
100
AcDbEntity
  8
寸法線
 62
     0
100
AcDbBlockReference
  2
_OPEN30
 10
643.972095033945
 20
2096.267359590244
 30
0.0
 41
6.0
 42
6.0
 43
6.0
 50
205.512915306565
  0
INSERT
  5
4E9C
330
4E95
100
AcDbEntity
  8
寸法線
 62
     0
100
AcDbBlockReference
  2
_OPEN30
 10
761.295562538684
 20
2152.260249629236
 30
0.0
 41
6.0
 42
6.0
 43
6.0
 50
25.512915306565
  0
MTEXT
  5
4E9D
330
4E95
100
AcDbEntity
  8
寸法線
 62
     0
 48
10.0
100
AcDbMText
 10
742.529403693701
 20
2148.433395413479
 30
0.0
 40
8.0
 41
0.0
 71
     5
 72
     1
  1
\A1;φ130
 11
0.9024882179229284
 21
0.4307145417910765
 31
0.0
  0
POINT
  5
4E9E
330
4E95
100
AcDbEntity
  8
DEFPOINTS
 62
     0
100
AcDbPoint
 10
643.972095033945
 20
2096.267359590244
 30
0.0
  0
POINT
  5
4E9F
330
4E95
100
AcDbEntity
  8
DEFPOINTS
 62
     0
100
AcDbPoint
 10
761.295562538684
 20
2152.260249629236
 30
0.0
  0
POINT
  5
4EA0
330
4E95
100
AcDbEntity
  8
DEFPOINTS
 62
     0
100
AcDbPoint
 10
761.295562538684
 20
2152.260249629236
 30
0.0
  0
ENDBLK
  5
4E97
330
4E95
100
AcDbEntity
  8
0
100
AcDbBlockEnd
  0
BLOCK
  5
4EA2
330
4EA1
100
AcDbEntity
  8
0
100
AcDbBlockBegin
  2
*D50
 70
     1
 10
0.0
 20
0.0
 30
0.0
  3
*D50
  1
*D50
  0
LINE
  5
4EA4
330
4EA1
100
AcDbEntity
  8
寸法線
 62
     0
 48
10.0
100
AcDbLine
 10
626.176825172235
 20
2111.55493933623
 30
0.0
 11
626.069381817456
 21
2112.170634817384
 31
0.0
  0
LINE
  5
4EA5
330
4EA1
100
AcDbEntity
  8
寸法線
 62
     0
 48
10.0
100
AcDbLine
 10
778.86930449849
 20
2138.2008913215
 30
0.0
 11
778.761861143711
 21
2138.816586802653
 31
0.0
  0
LINE
  5
4EA6
330
4EA1
100
AcDbEntity
  8
寸法線
 62
     0
 48
10.0
100
AcDbLine
 10
632.194945146096
 20
2111.970700060957
 30
0.0
 11
773.066071234189
 21
2136.553739634463
 31
0.0
  0
INSERT
  5
4EA7
330
4EA1
100
AcDbEntity
  8
寸法線
 62
     0
100
AcDbBlockReference
  2
_OPEN30
 10
626.284268527015
 20
2110.939243855075
 30
0.0
 41
6.0
 42
6.0
 43
6.0
 50
189.898852315621
  0
INSERT
  5
4EA8
330
4EA1
100
AcDbEntity
  8
寸法線
 62
     0
100
AcDbBlockReference
  2
_OPEN30
 10
778.97674785327
 20
2137.585195840345
 30
0.0
 41
6.0
 42
6.0
 43
6.0
 50
9.898852315621
  0
MTEXT
  5
4EA9
330
4EA1
100
AcDbEntity
  8
寸法線
 62
     0
 48
10.0
100
AcDbMText
 10
747.707574851718
 20
2136.82339091759
 30
0.0
 40
8.0
 41
0.0
 71
     5
 72
     1
  1
\A1;φ155
 11
0.9851127698468047
 21
0.1719093676468983
 31
0.0
  0
POINT
  5
4EAA
330
4EA1
100
AcDbEntity
  8
DEFPOINTS
 62
     0
100
AcDbPoint
 10
626.284268527015
 20
2110.939243855076
 30
0.0
  0
POINT
  5
4EAB
330
4EA1
100
AcDbEntity
  8
DEFPOINTS
 62
     0
100
AcDbPoint
 10
778.976747853269
 20
2137.585195840345
 30
0.0
  0
POINT
  5
4EAC
330
4EA1
100
AcDbEntity
  8
DEFPOINTS
 62
     0
100
AcDbPoint
 10
778.97674785327
 20
2137.585195840345
 30
0.0
  0
ENDBLK
  5
4EA3
330
4EA1
100
AcDbEntity
  8
0
100
AcDbBlockEnd
  0
BLOCK
  5
4EE3
330
4EE2
100
AcDbEntity
  8
0
100
AcDbBlockBegin
  2
*D55
 70
     1
 10
0.0
 20
0.0
 30
0.0
  3
*D55
  1
*D55
  0
LINE
  5
4EE5
330
4EE2
100
AcDbEntity
  8
寸法線
 62
     0
 48
10.0
100
AcDbLine
 10
1172.742375390683
 20
2092.428002657501
 30
0.0
 11
1172.742375390683
 21
2021.939629902334
 31
0.0
  0
LINE
  5
4EE6
330
4EE2
100
AcDbEntity
  8
寸法線
 62
     0
 48
10.0
100
AcDbLine
 10
1089.742375390683
 20
2041.736028911072
 30
0.0
 11
1089.742375390683
 21
2021.939629902334
 31
0.0
  0
LINE
  5
4EE7
330
4EE2
100
AcDbEntity
  8
寸法線
 62
     0
 48
10.0
100
AcDbLine
 10
1166.742375390683
 20
2023.189629902334
 30
0.0
 11
1095.742375390683
 21
2023.189629902334
 31
0.0
  0
INSERT
  5
4EE8
330
4EE2
100
AcDbEntity
  8
寸法線
 62
     0
100
AcDbBlockReference
  2
_OPEN30
 10
1172.742375390683
 20
2023.189629902334
 30
0.0
 41
6.0
 42
6.0
 43
6.0
  0
INSERT
  5
4EE9
330
4EE2
100
AcDbEntity
  8
寸法線
 62
     0
100
AcDbBlockReference
  2
_OPEN30
 10
1089.742375390683
 20
2023.189629902334
 30
0.0
 41
6.0
 42
6.0
 43
6.0
 50
180.0
  0
MTEXT
  5
4EEA
330
4EE2
100
AcDbEntity
  8
寸法線
 62
     0
 48
10.0
100
AcDbMText
 10
1131.242375390683
 20
2027.827129902334
 30
0.0
 40
8.0
 41
0.0
 71
     5
 72
     1
  1
\A1;83
  0
POINT
  5
4EEB
330
4EE2
100
AcDbEntity
  8
DEFPOINTS
 62
     0
100
AcDbPoint
 10
1172.742375390683
 20
2093.053002657501
 30
0.0
  0
POINT
  5
4EEC
330
4EE2
100
AcDbEntity
  8
DEFPOINTS
 62
     0
100
AcDbPoint
 10
1089.742375390683
 20
2042.361028911072
 30
0.0
  0
POINT
  5
4EED
330
4EE2
100
AcDbEntity
  8
DEFPOINTS
 62
     0
100
AcDbPoint
 10
1089.742375390683
 20
2023.189629902334
 30
0.0
  0
ENDBLK
  5
4EE4
330
4EE2
100
AcDbEntity
  8
0
100
AcDbBlockEnd
  0
ENDSEC
  0
SECTION
  2
ENTITIES
  0
MTEXT
  5
425E
330
1A
100
AcDbEntity
  8
寸法線
 62
     1
 48
10.0
100
AcDbMText
 10
680.40599924235
 20
1902.185421505044
 30
0.0
 40
6.0
 41
19.305855289704
 71
     1
 72
     5
  1
ク\Pロ
  0
MTEXT
  5
425F
330
1A
100
AcDbEntity
  8
寸法線
 62
     1
 48
10.0
100
AcDbMText
 10
639.911372774775
 20
1906.673721923456
 30
0.0
 40
6.0
 41
19.305855289704
 71
     1
 72
     5
  1
ア\P\Pカ
  0
MTEXT
  5
4260
330
1A
100
AcDbEntity
  8
寸法線
 62
     1
 48
10.0
100
AcDbMText
 10
659.910041876255
 20
1902.185421505044
 30
0.0
 40
6.0
 41
19.305855289704
 71
     1
 72
     5
  1
ア\Pカ
  0
MTEXT
  5
4261
330
1A
100
AcDbEntity
  8
寸法線
 62
     1
 48
10.0
100
AcDbMText
 10
620.023024436258
 20
1898.195829312273
 30
0.0
 40
6.0
 41
19.305855289704
 71
     1
 72
     5
  1
キ
  0
MTEXT
  5
4262
330
1A
100
AcDbEntity
  8
寸法線
 62
     1
 48
10.0
100
AcDbMText
 10
599.436051353884
 20
1908.803294518703
 30
0.0
 40
6.0
 41
19.305855289704
 71
     1
 72
     5
  1
ミ\Pド\Pリ
  0
MTEXT
  5
42D2
330
1A
100
AcDbEntity
  8
寸法線
 48
10.0
100
AcDbMText
 10
725.112852064373
 20
1972.647486390911
 30
0.0
 40
8.0
 41
242.434739398665
 71
     1
 72
     5
  1
電　　　　源：DC24V±10％\P塗 　装　 色：10YR7.5/14\P接 点　容 量：AC250V0.1A\P静止  トルク：約10.0N・cm\P回 　転 　数：2RPM\P使用温度範囲：-10～+50℃
  0
LINE
  5
42D3
330
1A
100
AcDbEntity
  8
寸法線
100
AcDbLine
 10
605.744612444307
 20
1878.751408940128
 30
0.0
 11
605.744612444307
 21
1975.883366940128
 31
0.0
  0
LINE
  5
42D4
330
1A
100
AcDbEntity
  8
寸法線
100
AcDbLine
 10
605.744612444307
 20
1975.883366940128
 30
0.0
 11
618.596602444307
 21
1975.883366940128
 31
0.0
  0
LINE
  5
42D5
330
1A
100
AcDbEntity
  8
寸法線
100
AcDbLine
 10
618.596602444307
 20
1975.883366940128
 30
0.0
 11
618.596602444307
 21
1956.176946940128
 31
0.0
  0
LINE
  5
42D6
330
1A
100
AcDbEntity
  8
寸法線
100
AcDbLine
 10
634.304610444307
 20
1975.883366940128
 30
0.0
 11
647.156600444307
 21
1975.883366940128
 31
0.0
  0
LINE
  5
42D7
330
1A
100
AcDbEntity
  8
寸法線
100
AcDbLine
 10
666.862958444307
 20
1975.883366940128
 30
0.0
 11
686.855024444307
 21
1975.883366940128
 31
0.0
  0
TEXT
  5
42D8
330
1A
100
AcDbEntity
  8
寸法線
100
AcDbText
 10
680.853682444307
 20
1939.249822940128
 30
0.0
 40
12.0
  1
Ｍ
 41
1.071428571429
  7
EXCADSTD
 72
     5
 11
692.853682444307
 21
1939.249822940128
 31
0.0
100
AcDbText
  0
LINE
  5
42D9
330
1A
100
AcDbEntity
  8
寸法線
100
AcDbLine
 10
686.855024444307
 20
1975.883366940128
 30
0.0
 11
686.855024444307
 21
1954.650396940128
 31
0.0
  0
CIRCLE
  5
42DA
330
1A
100
AcDbEntity
  8
寸法線
100
AcDbCircle
 10
626.450606444307
 20
1938.356206940128
 30
0.0
 40
1.600006
  0
LINE
  5
42DB
330
1A
100
AcDbEntity
  8
寸法線
100
AcDbLine
 10
626.450606444307
 20
1936.756170940128
 30
0.0
 11
626.450606444307
 21
1878.751408940128
 31
0.0
  0
LINE
  5
42DC
330
1A
100
AcDbEntity
  8
寸法線
100
AcDbLine
 10
647.156600444307
 20
1975.883366940128
 30
0.0
 11
647.156600444307
 21
1878.751408940128
 31
0.0
  0
LINE
  5
42DD
330
1A
100
AcDbEntity
  8
寸法線
100
AcDbLine
 10
686.855024444307
 20
1936.265934940128
 30
0.0
 11
686.855024444307
 21
1931.007107173534
 31
0.0
  0
CIRCLE
  5
42DE
330
1A
100
AcDbEntity
  8
寸法線
100
AcDbCircle
 10
605.744612444307
 20
1875.751408940128
 30
0.0
 40
1.599998
  0
LINE
  5
42DF
330
1A
100
AcDbEntity
  8
寸法線
100
AcDbLine
 10
666.862958444307
 20
1936.756170940128
 30
0.0
 11
666.862958444307
 21
1931.007107173534
 31
0.0
  0
CIRCLE
  5
42E0
330
1A
100
AcDbEntity
  8
寸法線
100
AcDbCircle
 10
666.862958444307
 20
1938.356206940128
 30
0.0
 40
1.600006
  0
CIRCLE
  5
42E1
330
1A
100
AcDbEntity
  8
寸法線
100
AcDbCircle
 10
618.596602444307
 20
1954.576970940128
 30
0.0
 40
1.600006
  0
LINE
  5
42E2
330
1A
100
AcDbEntity
  8
寸法線
100
AcDbLine
 10
634.304610444307
 20
1975.883366940128
 30
0.0
 11
634.304610444307
 21
1956.176946940128
 31
0.0
  0
CIRCLE
  5
42E3
330
1A
100
AcDbEntity
  8
寸法線
100
AcDbCircle
 10
634.304610444307
 20
1954.576970940128
 30
0.0
 40
1.600006
  0
LINE
  5
42E4
330
1A
100
AcDbEntity
  8
寸法線
100
AcDbLine
 10
666.862958444307
 20
1975.883366940128
 30
0.0
 11
666.862958444307
 21
1956.176946940128
 31
0.0
  0
CIRCLE
  5
42E5
330
1A
100
AcDbEntity
  8
寸法線
100
AcDbCircle
 10
666.862958444307
 20
1954.576970940128
 30
0.0
 40
1.600006
  0
LINE
  5
42E6
330
1A
100
AcDbEntity
  8
寸法線
100
AcDbLine
 10
626.450606444307
 20
1939.956182940128
 30
0.0
 11
620.196578444307
 21
1954.576970940128
 31
0.0
  0
LINE
  5
42E7
330
1A
100
AcDbEntity
  8
寸法線
100
AcDbLine
 10
666.862958444307
 20
1939.956182940128
 30
0.0
 11
668.462996444307
 21
1954.576970940128
 31
0.0
  0
CIRCLE
  5
42E8
330
1A
100
AcDbEntity
  8
寸法線
100
AcDbCircle
 10
686.862592444307
 20
1945.472600940128
 30
0.0
 40
9.177798
  0
CIRCLE
  5
42E9
330
1A
100
AcDbEntity
  8
寸法線
100
AcDbCircle
 10
605.744612444307
 20
1875.751408940128
 30
0.0
 40
3.0
  0
CIRCLE
  5
42EA
330
1A
100
AcDbEntity
  8
寸法線
100
AcDbCircle
 10
626.450606444307
 20
1875.751408940128
 30
0.0
 40
1.599998
  0
CIRCLE
  5
42EB
330
1A
100
AcDbEntity
  8
寸法線
100
AcDbCircle
 10
626.450606444307
 20
1875.751408940128
 30
0.0
 40
3.0
  0
CIRCLE
  5
42EC
330
1A
100
AcDbEntity
  8
寸法線
100
AcDbCircle
 10
666.862958444307
 20
1875.751408940128
 30
0.0
 40
1.599998
  0
CIRCLE
  5
42ED
330
1A
100
AcDbEntity
  8
寸法線
100
AcDbCircle
 10
666.862958444307
 20
1875.751408940128
 30
0.0
 40
3.0
  0
CIRCLE
  5
42EE
330
1A
100
AcDbEntity
  8
寸法線
100
AcDbCircle
 10
686.855024444307
 20
1875.751408940128
 30
0.0
 40
1.599998
  0
CIRCLE
  5
42EF
330
1A
100
AcDbEntity
  8
寸法線
100
AcDbCircle
 10
686.855024444307
 20
1875.751408940128
 30
0.0
 40
3.0
  0
CIRCLE
  5
42F0
330
1A
100
AcDbEntity
  8
寸法線
100
AcDbCircle
 10
647.156600444307
 20
1875.751408940128
 30
0.0
 40
1.599998
  0
CIRCLE
  5
42F1
330
1A
100
AcDbEntity
  8
寸法線
100
AcDbCircle
 10
647.156600444307
 20
1875.751408940128
 30
0.0
 40
3.0
  0
MTEXT
  5
42F2
330
1A
100
AcDbEntity
  8
寸法線
 48
10.0
100
AcDbMText
 10
606.025697868942
 20
1869.255848706902
 30
0.0
 40
6.4
 41
99.18533818596
 71
     1
 72
     5
  1
L    C    H   24    0
  0
MTEXT
  5
42F3
330
1A
100
AcDbEntity
  8
寸法線
 48
10.0
100
AcDbMText
 10
673.610280934116
 20
1859.955007053434
 30
0.0
 40
5.6
 41
9.54286803268
 71
     1
 72
     5
  1
DC
  0
LINE
  5
42F4
330
1A
100
AcDbEntity
  8
寸法線
100
AcDbLine
 10
656.866956444307
 20
1931.007107173534
 30
0.0
 11
656.866956444307
 21
1911.007107173534
 31
0.0
  0
LINE
  5
42F5
330
1A
100
AcDbEntity
  8
寸法線
100
AcDbLine
 10
696.858960444307
 20
1931.007107173534
 30
0.0
 11
656.866956444307
 21
1921.007107173534
 31
0.0
  0
LINE
  5
42F6
330
1A
100
AcDbEntity
  8
寸法線
100
AcDbLine
 10
656.866956444307
 20
1921.007107173534
 30
0.0
 11
696.858960444307
 21
1911.007107173534
 31
0.0
  0
LINE
  5
42F7
330
1A
100
AcDbEntity
  8
寸法線
100
AcDbLine
 10
696.858960444307
 20
1931.007107173534
 30
0.0
 11
696.858960444307
 21
1911.007107173534
 31
0.0
  0
LINE
  5
42F8
330
1A
100
AcDbEntity
  8
寸法線
100
AcDbLine
 10
656.866956444307
 20
1931.007107173534
 30
0.0
 11
696.858960444307
 21
1931.007107173534
 31
0.0
  0
LINE
  5
42F9
330
1A
100
AcDbEntity
  8
寸法線
100
AcDbLine
 10
656.866956444307
 20
1911.007107173534
 30
0.0
 11
696.858960444307
 21
1911.007107173534
 31
0.0
  0
LINE
  5
42FA
330
1A
100
AcDbEntity
  8
寸法線
100
AcDbLine
 10
666.862958444307
 20
1911.007107173534
 30
0.0
 11
666.862958444307
 21
1878.751408940128
 31
0.0
  0
LINE
  5
42FB
330
1A
100
AcDbEntity
  8
寸法線
100
AcDbLine
 10
686.855024444307
 20
1911.007107173534
 30
0.0
 11
686.855024444307
 21
1878.751408940128
 31
0.0
  0
ARC
  5
48D9
330
1A
100
AcDbEntity
  8
細線
100
AcDbCircle
 10
1023.469334689703
 20
2108.906707794123
 30
0.0
 40
24.8389
100
AcDbArc
 50
161.576700695124
 51
174.558373888817
  0
LINE
  5
48DA
330
1A
100
AcDbEntity
  8
細線
100
AcDbLine
 10
1017.742375390683
 20
2116.756666348246
 30
0.0
 11
999.903488557884
 21
2116.756666348246
 31
0.0
  0
ARC
  5
48DB
330
1A
100
AcDbEntity
  8
細線
100
AcDbCircle
 10
1023.469334689703
 20
2139.617731901299
 30
0.0
 40
24.8389
100
AcDbArc
 50
185.441626111183
 51
198.423299304876
  0
ARC
  5
48DC
330
1A
100
AcDbEntity
  8
細線
100
AcDbCircle
 10
1023.581262223482
 20
2124.262219847711
 30
0.0
 40
24.83888683279929
100
AcDbArc
 50
162.41204622601
 51
197.58795377399
  0
LINE
  5
48DD
330
1A
100
AcDbEntity
  8
細線
100
AcDbLine
 10
1017.742375390683
 20
2131.767773347176
 30
0.0
 11
999.903488557884
 21
2131.767773347176
 31
0.0
  0
LINE
  5
48DE
330
1A
100
AcDbEntity
  8
外形線
100
AcDbLine
 10
998.742375390683
 20
2137.262219847711
 30
0.0
 11
998.742375390683
 21
2111.262219847711
 31
0.0
  0
LINE
  5
48DF
330
1A
100
AcDbEntity
  8
外形線
100
AcDbLine
 10
1017.742375390682
 20
2109.251112848781
 30
0.0
 11
1000.429894531743
 21
2109.251112848781
 31
0.0
  0
LINE
  5
48E0
330
1A
100
AcDbEntity
  8
外形線
100
AcDbLine
 10
1017.742375390683
 20
2139.273326846641
 30
0.0
 11
1000.429894531743
 21
2139.273326846641
 31
0.0
  0
LINE
  5
48E1
330
1A
100
AcDbEntity
  8
外形線
100
AcDbLine
 10
998.742375390682
 20
2137.262219847711
 30
0.0
 11
1000.429894531743
 21
2139.273326846641
 31
0.0
  0
LINE
  5
48E2
330
1A
100
AcDbEntity
  8
外形線
100
AcDbLine
 10
998.742375390682
 20
2111.262219847712
 30
0.0
 11
1000.429894531743
 21
2109.251112848781
 31
0.0
  0
LINE
  5
48E3
330
1A
100
AcDbEntity
  8
外形線
100
AcDbLine
 10
1022.742375390683
 20
2109.262219847711
 30
0.0
 11
1022.742375390683
 21
2109.262219847711
 31
0.0
  0
LINE
  5
48E4
330
1A
100
AcDbEntity
  8
外形線
100
AcDbLine
 10
1018.242375390683
 20
2109.262219847711
 30
0.0
 11
1022.742375390683
 21
2109.262219847711
 31
0.0
  0
LINE
  5
48E5
330
1A
100
AcDbEntity
  8
外形線
100
AcDbLine
 10
1017.742375390683
 20
2109.762219847711
 30
0.0
 11
1018.242375390683
 21
2109.262219847711
 31
0.0
  0
LINE
  5
48E6
330
1A
100
AcDbEntity
  8
外形線
100
AcDbLine
 10
1017.742375390683
 20
2139.273326846641
 30
0.0
 11
1017.742375390682
 21
2109.251112848781
 31
0.0
  0
LINE
  5
48E7
330
1A
100
AcDbEntity
  8
外形線
100
AcDbLine
 10
1018.242375390683
 20
2139.262219847711
 30
0.0
 11
1017.742375390683
 21
2138.762219847711
 31
0.0
  0
LINE
  5
48E8
330
1A
100
AcDbEntity
  8
外形線
100
AcDbLine
 10
1022.742375390683
 20
2139.262219847711
 30
0.0
 11
1018.242375390683
 21
2139.262219847711
 31
0.0
  0
LINE
  5
48E9
330
1A
100
AcDbEntity
  8
中心線
  6
CENTER
 48
10.0
100
AcDbLine
 10
1017.73988794843
 20
2059.262219847711
 30
0.0
 11
1037.742375390683
 21
2059.262219847711
 31
0.0
  0
LINE
  5
48EA
330
1A
100
AcDbEntity
  8
細線
 48
10.0
100
AcDbLine
 10
1102.742375390683
 20
2080.599309371099
 30
0.0
 11
1105.742375390683
 21
2073.262219847711
 31
0.0
  0
ARC
  5
48EB
330
1A
100
AcDbEntity
  8
細線
 48
10.0
100
AcDbCircle
 10
1089.747669158766
 20
2051.627529281157
 30
0.0
 40
31.75258149558497
100
AcDbArc
 50
65.84234496763
 51
118.22770450658
  0
LINE
  5
48EC
330
1A
100
AcDbEntity
  8
細線
 48
10.0
100
AcDbLine
 10
1102.742375390683
 20
2170.262219847711
 30
0.0
 11
1102.742375390683
 21
2080.599309371099
 31
0.0
  0
LINE
  5
48ED
330
1A
100
AcDbEntity
  8
細線
 48
10.0
100
AcDbLine
 10
1105.742375390683
 20
2175.262219847711
 30
0.0
 11
1105.742375390683
 21
2073.262219847711
 31
0.0
  0
LINE
  5
48EE
330
1A
100
AcDbEntity
  8
細線
 48
10.0
100
AcDbLine
 10
1053.839155293311
 20
2147.649669891168
 30
0.0
 11
1053.839155293311
 21
2100.766811640777
 31
0.0
  0
LINE
  5
48EF
330
1A
100
AcDbEntity
  8
細線
 48
10.0
100
AcDbLine
 10
1066.883432223811
 20
2164.678869708677
 30
0.0
 11
1066.883432223811
 21
2084.158085570548
 31
0.0
  0
LINE
  5
48F0
330
1A
100
AcDbEntity
  8
外形線
100
AcDbLine
 10
1110.742375390683
 20
2175.262219847711
 30
0.0
 11
1128.449529390683
 21
2175.262219847711
 31
0.0
  0
ARC
  5
48F1
330
1A
100
AcDbEntity
  8
外形線
100
AcDbCircle
 10
1158.151921390683
 20
2166.750623847711
 30
0.0
 40
4.8552
100
AcDbArc
 50
0.0
 51
87.349306628422
  0
LINE
  5
48F2
330
1A
100
AcDbEntity
  8
外形線
100
AcDbLine
 10
1163.007145390683
 20
2157.391859847711
 30
0.0
 11
1170.806095390683
 21
2157.391859847711
 31
0.0
  0
ARC
  5
48F3
330
1A
100
AcDbEntity
  8
外形線
100
AcDbCircle
 10
1170.718327390683
 20
2147.681409847711
 30
0.0
 40
1.9992
100
AcDbArc
 50
0.0
 51
89.999981276021
  0
ARC
  5
48F4
330
1A
100
AcDbEntity
  8
外形線
100
AcDbCircle
 10
1165.006353390683
 20
2151.679823847711
 30
0.0
 40
2.000726
100
AcDbArc
 50
87.722187561486
 51
272.27785213419
  0
LINE
  5
48F5
330
1A
100
AcDbEntity
  8
外形線
100
AcDbLine
 10
1165.085881390683
 20
2149.680677847711
 30
0.0
 11
1170.718327390683
 21
2149.680677847711
 31
0.0
  0
LINE
  5
48F6
330
1A
100
AcDbEntity
  8
外形線
100
AcDbLine
 10
1165.085881390683
 20
2153.678967847711
 30
0.0
 11
1171.055973390683
 21
2153.678967847711
 31
0.0
  0
ARC
  5
48F7
330
1A
100
AcDbEntity
  8
外形線
100
AcDbCircle
 10
1170.855413390683
 20
2155.530409847711
 30
0.0
 40
1.86215
100
AcDbArc
 50
276.18422108563
 51
91.517843466792
  0
LINE
  5
48F8
330
1A
100
AcDbEntity
  8
外形線
100
AcDbLine
 10
1130.489629390683
 20
2166.531019847711
 30
0.0
 11
1112.741521390683
 21
2166.531019847711
 31
0.0
  0
LINE
  5
48F9
330
1A
100
AcDbEntity
  8
外形線
100
AcDbLine
 10
1130.489629390683
 20
2169.958265847711
 30
0.0
 11
1112.741521390683
 21
2169.958265847711
 31
0.0
  0
ARC
  5
48FA
330
1A
100
AcDbEntity
  8
外形線
100
AcDbCircle
 10
1130.435613390684
 20
2168.244641847711
 30
0.0
 40
1.714446
100
AcDbArc
 50
271.804703586974
 51
88.195318508605
  0
ARC
  5
48FB
330
1A
100
AcDbEntity
  8
外形線
100
AcDbCircle
 10
1128.123479390683
 20
2151.112805847711
 30
0.0
 40
4.015794000000001
100
AcDbArc
 50
274.656944786914
 51
84.065438721313
  0
LINE
  5
48FC
330
1A
100
AcDbEntity
  8
外形線
100
AcDbLine
 10
1112.741521390683
 20
2147.110243847711
 30
0.0
 11
1128.449529390683
 21
2147.110243847711
 31
0.0
  0
LINE
  5
48FD
330
1A
100
AcDbEntity
  8
外形線
100
AcDbLine
 10
1112.741521390683
 20
2155.107069847711
 30
0.0
 11
1128.538639390683
 21
2155.107069847711
 31
0.0
  0
LINE
  5
48FE
330
1A
100
AcDbEntity
  8
細線
100
AcDbLine
 10
1128.449529390683
 20
2155.107069847711
 30
0.0
 11
1128.449529390683
 21
2166.531019847711
 31
0.0
  0
LINE
  5
48FF
330
1A
100
AcDbEntity
  8
外形線
100
AcDbLine
 10
1132.162297390683
 20
2172.814221847711
 30
0.0
 11
1158.376531390683
 21
2171.600599847711
 31
0.0
  0
ARC
  5
4900
330
1A
100
AcDbEntity
  8
外形線
100
AcDbCircle
 10
1170.718327390683
 20
2130.259779847711
 30
0.0
 40
1.9992
100
AcDbArc
 50
270.0
 51
359.999982399908
  0
ARC
  5
4901
330
1A
100
AcDbEntity
  8
外形線
100
AcDbCircle
 10
1165.161565390683
 20
2126.115125847711
 30
0.0
 40
2.15556
100
AcDbArc
 50
95.512637406104
 51
178.089033713747
  0
LINE
  5
4902
330
1A
100
AcDbEntity
  8
外形線
100
AcDbLine
 10
1164.954533390683
 20
2128.260633847711
 30
0.0
 11
1170.718327390683
 21
2128.260633847711
 31
0.0
  0
LINE
  5
4903
330
1A
100
AcDbEntity
  8
外形線
100
AcDbLine
 10
1164.954533390683
 20
2120.263929847711
 30
0.0
 11
1170.718327390683
 21
2120.263929847711
 31
0.0
  0
ARC
  5
4904
330
1A
100
AcDbEntity
  8
外形線
100
AcDbCircle
 10
1170.718327390683
 20
2118.264661847711
 30
0.0
 40
1.9992
100
AcDbArc
 50
0.0
 51
89.999981276021
  0
ARC
  5
4905
330
1A
100
AcDbEntity
  8
外形線
100
AcDbCircle
 10
1165.161565390683
 20
2122.409437847711
 30
0.0
 40
2.15556
100
AcDbArc
 50
181.910948686169
 51
264.487402289583
  0
LINE
  5
4906
330
1A
100
AcDbEntity
  8
外形線
100
AcDbLine
 10
1112.741521390683
 20
2128.546277847711
 30
0.0
 11
1128.449529390683
 21
2128.546277847711
 31
0.0
  0
ARC
  5
4907
330
1A
100
AcDbEntity
  8
外形線
100
AcDbCircle
 10
1127.162419390683
 20
2123.679823847711
 30
0.0
 40
5.033766
100
AcDbArc
 50
6.644133183896
 51
75.184725088441
  0
LINE
  5
4908
330
1A
100
AcDbEntity
  8
外形線
100
AcDbLine
 10
1112.741521390683
 20
2119.978285847711
 30
0.0
 11
1128.449529390683
 21
2119.978285847711
 31
0.0
  0
ARC
  5
4909
330
1A
100
AcDbEntity
  8
外形線
100
AcDbCircle
 10
1127.162419390683
 20
2124.844739847711
 30
0.0
 40
5.033766
100
AcDbArc
 50
284.815257311478
 51
353.35584921602
  0
LINE
  5
490A
330
1A
100
AcDbEntity
  8
外形線
100
AcDbLine
 10
1163.007145390683
 20
2124.262219847711
 30
0.0
 11
1163.007145390683
 21
2166.750623847711
 31
0.0
  0
LINE
  5
490B
330
1A
100
AcDbEntity
  8
細線
100
AcDbLine
 10
1128.449529390683
 20
2128.546277847711
 30
0.0
 11
1128.449529390683
 21
2147.110243847711
 31
0.0
  0
LINE
  5
490C
330
1A
100
AcDbEntity
  8
外形線
100
AcDbLine
 10
1172.717595390683
 20
2147.681409847711
 30
0.0
 11
1172.717595390683
 21
2130.259779847711
 31
0.0
  0
ARC
  5
490D
330
1A
100
AcDbEntity
  8
外形線
100
AcDbCircle
 10
1170.855413390683
 20
2092.994153847711
 30
0.0
 40
1.86215
100
AcDbArc
 50
268.482178628784
 51
83.815801009984
  0
ARC
  5
490E
330
1A
100
AcDbEntity
  8
外形線
100
AcDbCircle
 10
1170.718327390683
 20
2100.843031847711
 30
0.0
 40
1.9992
100
AcDbArc
 50
270.0
 51
359.999982399908
  0
ARC
  5
490F
330
1A
100
AcDbEntity
  8
外形線
100
AcDbCircle
 10
1165.007635390683
 20
2096.844709847711
 30
0.0
 40
2.000724
100
AcDbArc
 50
87.757023395436
 51
272.242959004484
  0
LINE
  5
4910
330
1A
100
AcDbEntity
  8
外形線
100
AcDbLine
 10
1165.085881390683
 20
2094.845471847711
 30
0.0
 11
1171.055973390683
 21
2094.845471847711
 31
0.0
  0
LINE
  5
4911
330
1A
100
AcDbEntity
  8
外形線
100
AcDbLine
 10
1163.007145390683
 20
2091.132703847711
 30
0.0
 11
1170.806095390683
 21
2091.132703847711
 31
0.0
  0
LINE
  5
4912
330
1A
100
AcDbEntity
  8
外形線
100
AcDbLine
 10
1165.085943390683
 20
2098.843885847711
 30
0.0
 11
1170.718327390683
 21
2098.843885847711
 31
0.0
  0
ARC
  5
4913
330
1A
100
AcDbEntity
  8
外形線
100
AcDbCircle
 10
1158.151921390683
 20
2081.773939847711
 30
0.0
 40
4.8552
100
AcDbArc
 50
272.650733067262
 51
359.999982399908
  0
ARC
  5
4914
330
1A
100
AcDbEntity
  8
外形線
100
AcDbCircle
 10
1128.123479390683
 20
2097.411757847711
 30
0.0
 40
4.015794000000001
100
AcDbArc
 50
275.934583374272
 51
85.343077308663
  0
LINE
  5
4915
330
1A
100
AcDbEntity
  8
外形線
100
AcDbLine
 10
1112.741521390683
 20
2093.417493847711
 30
0.0
 11
1128.538639390683
 21
2093.417493847711
 31
0.0
  0
LINE
  5
4916
330
1A
100
AcDbEntity
  8
外形線
100
AcDbLine
 10
1112.741521390683
 20
2101.414197847711
 30
0.0
 11
1128.449529390683
 21
2101.414197847711
 31
0.0
  0
LINE
  5
4917
330
1A
100
AcDbEntity
  8
細線
100
AcDbLine
 10
1128.449529390683
 20
2078.566297847711
 30
0.0
 11
1128.449529390683
 21
2073.262219847711
 31
0.0
  0
LINE
  5
4918
330
1A
100
AcDbEntity
  8
外形線
100
AcDbLine
 10
1132.162297390683
 20
2075.710217847711
 30
0.0
 11
1128.449529390683
 21
2073.262219847711
 31
0.0
  0
LINE
  5
4919
330
1A
100
AcDbEntity
  8
外形線
100
AcDbLine
 10
1130.489629390683
 20
2081.993421847711
 30
0.0
 11
1112.741521390683
 21
2081.993421847711
 31
0.0
  0
LINE
  5
491A
330
1A
100
AcDbEntity
  8
外形線
100
AcDbLine
 10
1130.489629390683
 20
2078.566297847711
 30
0.0
 11
1112.741521390683
 21
2078.566297847711
 31
0.0
  0
ARC
  5
491B
330
1A
100
AcDbEntity
  8
外形線
100
AcDbCircle
 10
1130.435613390684
 20
2080.279799847711
 30
0.0
 40
1.714446
100
AcDbArc
 50
271.804703586974
 51
88.195318508605
  0
LINE
  5
491C
330
1A
100
AcDbEntity
  8
外形線
100
AcDbLine
 10
1110.742375390683
 20
2073.262219847711
 30
0.0
 11
1128.449529390683
 21
2073.262219847711
 31
0.0
  0
LINE
  5
491D
330
1A
100
AcDbEntity
  8
細線
100
AcDbLine
 10
1128.449529390683
 20
2093.417493847711
 30
0.0
 11
1128.449529390683
 21
2081.993421847711
 31
0.0
  0
LINE
  5
491E
330
1A
100
AcDbEntity
  8
外形線
100
AcDbLine
 10
1132.162297390683
 20
2075.710217847711
 30
0.0
 11
1158.376531390683
 21
2076.923903847711
 31
0.0
  0
LINE
  5
491F
330
1A
100
AcDbEntity
  8
細線
100
AcDbLine
 10
1096.887685158766
 20
2058.262189847711
 30
0.0
 11
1096.887685158766
 21
2053.978193847711
 31
0.0
  0
LINE
  5
4920
330
1A
100
AcDbEntity
  8
外形線
100
AcDbLine
 10
1099.172475158766
 20
2053.978193847711
 30
0.0
 11
1099.172475158766
 21
2058.262189847711
 31
0.0
  0
LINE
  5
4921
330
1A
100
AcDbEntity
  8
外形線
100
AcDbLine
 10
1103.742177158766
 20
2050.265425847711
 30
0.0
 11
1102.314077158766
 21
2048.837385847711
 31
0.0
  0
ARC
  5
4922
330
1A
100
AcDbEntity
  8
細線
100
AcDbCircle
 10
1103.170033158766
 20
2067.140303847711
 30
0.0
 40
18.322924
100
AcDbArc
 50
247.068453993571
 51
267.322397459893
  0
LINE
  5
4923
330
1A
100
AcDbEntity
  8
外形線
100
AcDbLine
 10
1103.742177158766
 20
2053.978193847711
 30
0.0
 11
1103.742177158766
 21
2050.265425847711
 31
0.0
  0
LINE
  5
4924
330
1A
100
AcDbEntity
  8
細線
100
AcDbLine
 10
1096.030873158766
 20
2050.265425847711
 30
0.0
 11
1096.030873158766
 21
2053.978193847711
 31
0.0
  0
LINE
  5
4925
330
1A
100
AcDbEntity
  8
細線
100
AcDbLine
 10
1132.162297390683
 20
2172.814221847711
 30
0.0
 11
1132.162297390683
 21
2075.710217847711
 31
0.0
  0
LINE
  5
4926
330
1A
100
AcDbEntity
  8
細線
100
AcDbLine
 10
1128.449529390683
 20
2119.978285847711
 30
0.0
 11
1128.449529390683
 21
2101.414197847711
 31
0.0
  0
LINE
  5
4927
330
1A
100
AcDbEntity
  8
外形線
100
AcDbLine
 10
1172.717595390683
 20
2100.843031847711
 30
0.0
 11
1172.717595390683
 21
2118.264661847711
 31
0.0
  0
LINE
  5
4928
330
1A
100
AcDbEntity
  8
外形線
100
AcDbLine
 10
1163.007145390683
 20
2124.262219847711
 30
0.0
 11
1163.007145390683
 21
2081.773939847711
 31
0.0
  0
LINE
  5
4929
330
1A
100
AcDbEntity
  8
外形線
100
AcDbLine
 10
1112.741521390683
 20
2073.262219847711
 30
0.0
 11
1112.741521390683
 21
2175.262219847711
 31
0.0
  0
LINE
  5
492A
330
1A
100
AcDbEntity
  8
外形線
100
AcDbLine
 10
1110.742375390683
 20
2175.262219847711
 30
0.0
 11
1110.742375390683
 21
2073.262219847711
 31
0.0
  0
LINE
  5
492B
330
1A
100
AcDbEntity
  8
細線
100
AcDbLine
 10
1128.449529390683
 20
2169.958265847711
 30
0.0
 11
1128.449529390683
 21
2175.262219847711
 31
0.0
  0
LINE
  5
492C
330
1A
100
AcDbEntity
  8
外形線
100
AcDbLine
 10
1128.449529390683
 20
2175.262219847711
 30
0.0
 11
1132.162297390683
 21
2172.814221847711
 31
0.0
  0
LINE
  5
492D
330
1A
100
AcDbEntity
  8
外形線
100
AcDbLine
 10
998.742375390683
 20
2135.962293847711
 30
0.0
 11
998.742375390683
 21
2112.562147847711
 31
0.0
  0
LINE
  5
492E
330
1A
100
AcDbEntity
  8
細線
100
AcDbLine
 10
1082.607655158766
 20
2058.262189847711
 30
0.0
 11
1082.607655158766
 21
2053.978193847711
 31
0.0
  0
LINE
  5
492F
330
1A
100
AcDbEntity
  8
外形線
100
AcDbLine
 10
1080.322865158766
 20
2053.978193847711
 30
0.0
 11
1080.322865158766
 21
2058.262189847711
 31
0.0
  0
ARC
  5
4930
330
1A
100
AcDbEntity
  8
細線
100
AcDbCircle
 10
1076.325307158766
 20
2067.140303847711
 30
0.0
 40
18.322924
100
AcDbArc
 50
272.67766208363
 51
292.93154825417
  0
LINE
  5
4931
330
1A
100
AcDbEntity
  8
外形線
100
AcDbLine
 10
1075.753285158766
 20
2050.265425847711
 30
0.0
 11
1077.181263158766
 21
2048.837385847711
 31
0.0
  0
LINE
  5
4932
330
1A
100
AcDbEntity
  8
細線
100
AcDbLine
 10
1083.464467158766
 20
2050.265425847711
 30
0.0
 11
1083.464467158766
 21
2053.978193847711
 31
0.0
  0
LINE
  5
4933
330
1A
100
AcDbEntity
  8
外形線
100
AcDbLine
 10
1075.753285158766
 20
2053.978193847711
 30
0.0
 11
1075.753285158766
 21
2050.265425847711
 31
0.0
  0
ARC
  5
4934
330
1A
100
AcDbEntity
  8
細線
100
AcDbCircle
 10
1089.747669158766
 20
2063.374067847711
 30
0.0
 40
14.53669
100
AcDbArc
 50
244.3907930338
 51
295.609209213942
  0
LINE
  5
4935
330
1A
100
AcDbEntity
  8
外形線
100
AcDbLine
 10
1077.181263158766
 20
2048.837385847711
 30
0.0
 11
1102.314077158766
 21
2048.837385847711
 31
0.0
  0
LINE
  5
4936
330
1A
100
AcDbEntity
  8
外形線
100
AcDbLine
 10
1075.753285158766
 20
2053.978193847711
 30
0.0
 11
1103.742177158766
 21
2053.978193847711
 31
0.0
  0
LINE
  5
4937
330
1A
100
AcDbEntity
  8
外形線
100
AcDbLine
 10
1110.242375390683
 20
2073.262219847711
 30
0.0
 11
1110.742375390683
 21
2073.762219847711
 31
0.0
  0
LINE
  5
4938
330
1A
100
AcDbEntity
  8
外形線
100
AcDbLine
 10
1110.242375390683
 20
2175.262219847711
 30
0.0
 11
1110.742375390683
 21
2174.762219847711
 31
0.0
  0
ARC
  5
4939
330
1A
100
AcDbEntity
  8
外形線
100
AcDbCircle
 10
1077.624069110632
 20
2060.262219847711
 30
0.0
 40
2.0
100
AcDbArc
 50
183.491441283441
 51
270.0
  0
ARC
  5
493A
330
1A
100
AcDbEntity
  8
外形線
100
AcDbCircle
 10
1101.8712692069
 20
2060.262219847711
 30
0.0
 40
2.0
100
AcDbArc
 50
270.0
 51
356.185925165712
  0
ARC
  5
493B
330
1A
100
AcDbEntity
  8
外形線
100
AcDbCircle
 10
1073.482188773371
 20
2078.886243749933
 30
0.0
 40
1.0
100
AcDbArc
 50
3.491441283441
 51
86.820169880138
  0
ARC
  5
493C
330
1A
100
AcDbEntity
  8
外形線
100
AcDbCircle
 10
1068.452980976579
 20
2083.171812266937
 30
0.0
 40
3.0
100
AcDbArc
 50
212.275644314579
 51
266.820169880131
  0
ARC
  5
493D
330
1A
100
AcDbEntity
  8
外形線
100
AcDbCircle
 10
1068.452980976579
 20
2165.352627428485
 30
0.0
 40
3.0
100
AcDbArc
 50
93.179830119869
 51
147.724355685421
  0
ARC
  5
493E
330
1A
100
AcDbEntity
  8
外形線
100
AcDbCircle
 10
1053.088869329486
 20
2096.262219847711
 30
0.0
 40
3.0
100
AcDbArc
 50
32.275644314579
 51
90.0
  0
ARC
  5
493F
330
1A
100
AcDbEntity
  8
外形線
100
AcDbCircle
 10
1053.088869329486
 20
2152.262219847711
 30
0.0
 40
3.0
100
AcDbArc
 50
270.0
 51
327.724355685421
  0
LINE
  5
4940
330
1A
100
AcDbEntity
  8
外形線
100
AcDbLine
 10
1065.916514267486
 20
2081.569833292773
 30
0.0
 11
1055.625336038579
 21
2097.864198821875
 31
0.0
  0
LINE
  5
4941
330
1A
100
AcDbEntity
  8
外形線
100
AcDbLine
 10
1053.088869329486
 20
2149.262219847711
 30
0.0
 11
1035.742375390683
 21
2149.262219847711
 31
0.0
  0
LINE
  5
4942
330
1A
100
AcDbEntity
  8
外形線
100
AcDbLine
 10
1065.916514267486
 20
2166.954606402649
 30
0.0
 11
1055.625336038579
 21
2150.660240873547
 31
0.0
  0
LINE
  5
4943
330
1A
100
AcDbEntity
  8
中心線
  6
CENTER
 48
10.0
100
AcDbLine
 10
1089.747669158766
 20
2043.653987454003
 30
0.0
 11
1089.747669158766
 21
2087.984442069933
 31
0.0
  0
LINE
  5
4944
330
1A
100
AcDbEntity
  8
外形線
100
AcDbLine
 10
1073.537658792993
 20
2079.884704103138
 30
0.0
 11
1068.286570917711
 21
2080.176431207321
 31
0.0
  0
LINE
  5
4945
330
1A
100
AcDbEntity
  8
外形線
100
AcDbLine
 10
1074.480332679952
 20
2078.947143189623
 30
0.0
 11
1075.627781297469
 21
2060.14042096833
 31
0.0
  0
LINE
  5
4946
330
1A
100
AcDbEntity
  8
外形線
100
AcDbLine
 10
1104.742375390683
 20
2073.262219847711
 30
0.0
 11
1103.866839522613
 21
2060.129181826663
 31
0.0
  0
LINE
  5
4947
330
1A
100
AcDbEntity
  8
外形線
100
AcDbLine
 10
1077.624069110632
 20
2058.262219847711
 30
0.0
 11
1101.8712692069
 21
2058.262219847711
 31
0.0
  0
LINE
  5
4948
330
1A
100
AcDbEntity
  8
外形線
100
AcDbLine
 10
1110.242375390683
 20
2073.262219847711
 30
0.0
 11
1104.742375390683
 21
2073.262219847711
 31
0.0
  0
LINE
  5
4949
330
1A
100
AcDbEntity
  8
外形線
100
AcDbLine
 10
1102.742375390683
 20
2170.262219847711
 30
0.0
 11
1068.286570917711
 21
2168.348008488102
 31
0.0
  0
LINE
  5
494A
330
1A
100
AcDbEntity
  8
外形線
100
AcDbLine
 10
1105.742375390683
 20
2175.262219847711
 30
0.0
 11
1102.742375390683
 21
2170.262219847711
 31
0.0
  0
LINE
  5
494B
330
1A
100
AcDbEntity
  8
外形線
100
AcDbLine
 10
1110.242375390683
 20
2175.262219847711
 30
0.0
 11
1105.742375390683
 21
2175.262219847711
 31
0.0
  0
LINE
  5
494C
330
1A
100
AcDbEntity
  8
外形線
100
AcDbLine
 10
1110.742375390683
 20
2171.302219847711
 30
0.0
 11
1110.742375390683
 21
2174.762219847711
 31
0.0
  0
LINE
  5
494D
330
1A
100
AcDbEntity
  8
外形線
100
AcDbLine
 10
1110.742375390683
 20
2073.762219847711
 30
0.0
 11
1110.742375390683
 21
2077.222219847711
 31
0.0
  0
LINE
  5
494E
330
1A
100
AcDbEntity
  8
外形線
100
AcDbLine
 10
1032.742375390683
 20
2047.762219847712
 30
0.0
 11
1032.742375390683
 21
2200.762219847711
 31
0.0
  0
ARC
  5
494F
330
1A
100
AcDbEntity
  8
外形線
100
AcDbCircle
 10
1035.742375390683
 20
2152.262219847711
 30
0.0
 40
3.0
100
AcDbArc
 50
180.0
 51
270.0
  0
LINE
  5
4950
330
1A
100
AcDbEntity
  8
外形線
100
AcDbLine
 10
1031.742375390683
 20
2201.762219847711
 30
0.0
 11
1023.242375390683
 21
2201.762219847711
 31
0.0
  0
LINE
  5
4951
330
1A
100
AcDbEntity
  8
外形線
100
AcDbLine
 10
1031.742375390683
 20
2201.762219847711
 30
0.0
 11
1032.742375390683
 21
2200.762219847711
 31
0.0
  0
LINE
  5
4952
330
1A
100
AcDbEntity
  8
外形線
100
AcDbLine
 10
1022.742375390683
 20
2047.262219847712
 30
0.0
 11
1022.742375390683
 21
2201.262219847711
 31
0.0
  0
LINE
  5
4953
330
1A
100
AcDbEntity
  8
外形線
100
AcDbLine
 10
1023.242375390683
 20
2201.762219847711
 30
0.0
 11
1022.742375390683
 21
2201.262219847711
 31
0.0
  0
LINE
  5
4954
330
1A
100
AcDbEntity
  8
外形線
100
AcDbLine
 10
1023.242375390683
 20
2046.762219847712
 30
0.0
 11
1022.742375390683
 21
2047.262219847712
 31
0.0
  0
LINE
  5
4955
330
1A
100
AcDbEntity
  8
外形線
100
AcDbLine
 10
1031.742375390683
 20
2046.762219847712
 30
0.0
 11
1032.742375390683
 21
2047.762219847712
 31
0.0
  0
LINE
  5
4956
330
1A
100
AcDbEntity
  8
外形線
100
AcDbLine
 10
1031.742375390683
 20
2046.762219847712
 30
0.0
 11
1023.242375390683
 21
2046.762219847712
 31
0.0
  0
ARC
  5
4957
330
1A
100
AcDbEntity
  8
外形線
100
AcDbCircle
 10
1035.742375390683
 20
2096.262219847711
 30
0.0
 40
3.0
100
AcDbArc
 50
90.0
 51
180.0
  0
LINE
  5
4958
330
1A
100
AcDbEntity
  8
外形線
100
AcDbLine
 10
1053.088869329486
 20
2099.262219847711
 30
0.0
 11
1035.742375390683
 21
2099.262219847711
 31
0.0
  0
LINE
  5
4959
330
1A
100
AcDbEntity
  8
中心線
  6
CENTER
 48
10.0
100
AcDbLine
 10
1017.73988794843
 20
2189.262219847711
 30
0.0
 11
1037.742375390683
 21
2189.262219847711
 31
0.0
  0
LEADER
  5
495B
330
1A
100
AcDbEntity
  8
寸法線
 48
10.0
100
AcDbLeader
  3
ISO-25
 76
     3
 10
1149.063806252032
 20
2172.204154400092
 30
0.0
 10
1185.772257692063
 20
2238.909031233716
 30
0.0
 10
1198.054588950175
 20
2238.909031233716
 30
0.0
211
-1.0
221
0.0
231
0.0
210
0.0
220
0.0
230
-1.0
1001
ACAD
1000
DSTYLE
1002
{
1070
     5
1000
OPEN30
1070
    41
1040
6.0
1070
   341
1005
2AF4
1070
   147
1040
0.625
1070
    77
1070
     1
1002
}
  0
LEADER
  5
495C
330
1A
100
AcDbEntity
  8
寸法線
 48
10.0
100
AcDbLeader
  3
ISO-25
 76
     3
 10
1111.791683331861
 20
2175.223638195976
 30
0.0
 10
1142.610633996778
 20
2238.909031233716
 30
0.0
 10
1154.892965254889
 20
2238.909031233716
 30
0.0
211
-1.0
221
0.0
231
0.0
210
0.0
220
0.0
230
-1.0
1001
ACAD
1000
DSTYLE
1002
{
1070
     5
1000
OPEN30
1070
    41
1040
6.0
1070
   341
1005
2AF4
1070
   147
1040
0.625
1070
    77
1070
     1
1002
}
  0
LEADER
  5
495D
330
1A
100
AcDbEntity
  8
寸法線
 48
10.0
100
AcDbLeader
  3
ISO-25
 76
     3
 10
1028.03775633085
 20
2202.092327671277
 30
0.0
 10
1014.453814809244
 20
2238.909031233716
 30
0.0
 10
1026.736146067355
 20
2238.909031233716
 30
0.0
211
-1.0
221
0.0
231
0.0
210
0.0
220
0.0
230
-1.0
1001
ACAD
1000
DSTYLE
1002
{
1070
     5
1000
OPEN30
1070
    41
1040
6.0
1070
   341
1005
2AF4
1070
   147
1040
0.625
1070
    77
1070
     1
1002
}
  0
LEADER
  5
495E
330
1A
100
AcDbEntity
  8
寸法線
 48
10.0
100
AcDbLeader
  3
ISO-25
 76
     3
 10
1074.212980523174
 20
2168.677253466183
 30
0.0
 10
1078.416741232079
 20
2238.909031233716
 30
0.0
 10
1091.223607321051
 20
2238.909031233716
 30
0.0
211
-1.0
221
0.0
231
0.0
210
0.0
220
0.0
230
-1.0
1001
ACAD
1000
DSTYLE
1002
{
1070
     5
1000
OPEN30
1070
    41
1040
6.0
1070
   341
1005
2AF4
1070
   147
1040
0.625
1070
    77
1070
     1
1002
}
  0
LEADER
  5
495F
330
1A
100
AcDbEntity
  8
寸法線
 48
10.0
100
AcDbLeader
  3
ISO-25
 76
     3
 10
901.540997692676
 20
2164.601919443548
 30
0.0
 10
869.340852675617
 20
2238.909031233716
 30
0.0
 10
857.058521417506
 20
2238.909031233716
 30
0.0
1001
ACAD
1000
DSTYLE
1002
{
1070
     5
1000
OPEN30
1070
    41
1040
6.0
1070
   341
1005
2AF4
1070
   147
1040
0.625
1070
    77
1070
     1
1002
}
  0
LEADER
  5
4960
330
1A
100
AcDbEntity
  8
寸法線
 48
10.0
100
AcDbLeader
  3
ISO-25
 76
     3
 10
979.895946046291
 20
2129.102151796885
 30
0.0
 10
937.071400666229
 20
2238.909031233716
 30
0.0
 10
924.789069408117
 20
2238.909031233716
 30
0.0
1001
ACAD
1000
DSTYLE
1002
{
1070
     5
1000
OPEN30
1070
    41
1040
6.0
1070
   341
1005
2AF4
1070
   147
1040
0.625
1070
    77
1070
     1
1002
}
  0
LEADER
  5
4961
330
1A
100
AcDbEntity
  8
寸法線
 48
10.0
100
AcDbLeader
  3
ISO-25
 76
     3
 10
1005.128895055481
 20
2139.387131414212
 30
0.0
 10
977.576925506061
 20
2238.909031233716
 30
0.0
 10
965.29459424795
 20
2238.909031233716
 30
0.0
1001
ACAD
1000
DSTYLE
1002
{
1070
     5
1000
OPEN30
1070
    41
1040
6.0
1070
   341
1005
2AF4
1070
   147
1040
0.625
1070
    77
1070
     1
1002
}
  0
LEADER
  5
4962
330
1A
100
AcDbEntity
  8
寸法線
 48
10.0
100
AcDbLeader
  3
ISO-25
 76
     3
 10
1101.417225482689
 20
2055.930582747649
 30
0.0
 10
1121.601724916099
 20
2040.549110330142
 30
0.0
 10
1131.911791342686
 20
2040.549110330142
 30
0.0
1001
ACAD
1000
DSTYLE
1002
{
1070
     5
1000
OPEN30
1070
    41
1040
6.0
1070
   341
1005
2AF4
1070
   147
1040
0.625
1070
    77
1070
     1
1002
}
  0
MTEXT
  5
4964
330
1A
100
AcDbEntity
  8
寸法線
 48
10.0
100
AcDbMText
 10
865.848793492303
 20
2239.942177171258
 30
0.0
 40
8.0
 41
0.0
 71
     9
 72
     1
  1
\A1;SUS304
  0
MTEXT
  5
4965
330
1A
100
AcDbEntity
  8
寸法線
 48
10.0
100
AcDbMText
 10
935.792192210778
 20
2239.946106062623
 30
0.0
 40
8.0
 41
0.0
 71
     9
 72
     1
  1
\A1;SUS304
  0
MTEXT
  5
4966
330
1A
100
AcDbEntity
  8
寸法線
 48
10.0
100
AcDbMText
 10
975.098692063023
 20
2239.942177171258
 30
0.0
 40
8.0
 41
0.0
 71
     9
 72
     1
  1
\A1;BsBM
  0
MTEXT
  5
4968
330
1A
100
AcDbEntity
  8
寸法線
 48
10.0
100
AcDbMText
 10
1077.013048618533
 20
2239.942177171257
 30
0.0
 40
8.0
 41
0.0
 71
     7
 72
     1
  1
\A1;アルミ鋳物
  0
MTEXT
  5
4969
330
1A
100
AcDbEntity
  8
寸法線
 48
10.0
100
AcDbMText
 10
1142.690669912619
 20
2239.942177171258
 30
0.0
 40
8.0
 41
0.0
 71
     7
 72
     1
  1
\A1;Oリング
  0
MTEXT
  5
496A
330
1A
100
AcDbEntity
  8
寸法線
 48
10.0
100
AcDbMText
 10
1187.671966339831
 20
2239.942177171258
 30
0.0
 40
8.0
 41
0.0
 71
     7
 72
     1
  1
\A1;アルミ鋳物
  0
MTEXT
  5
496B
330
1A
100
AcDbEntity
  8
寸法線
 48
10.0
100
AcDbMText
 10
1122.593540308698
 20
2040.857216393765
 30
0.0
 40
8.0
 41
0.0
 71
     7
 72
     1
  1
導線取出口\PG 1/2"
  0
DIMENSION
  5
496C
330
1A
100
AcDbEntity
  8
寸法線
 48
10.0
100
AcDbDimension
  2
*D21
 10
1032.742375390683
 20
2024.792046707265
 30
0.0
 11
1027.742375390683
 21
2024.792046707265
 31
0.0
 70
   160
  3
ISO-25
100
AcDbAlignedDimension
 13
1022.742375390683
 23
2046.762219847711
 33
0.0
 14
1032.742375390683
 24
2046.762219847711
 34
0.0
100
AcDbRotatedDimension
1001
ACAD
1000
DSTYLE
1002
{
1070
     5
1000
OPEN30
1070
    41
1040
6.0
1070
    47
1040
0.1
1070
    48
1040
0.1
1070
    73
1070
     0
1070
   140
1040
8.0
1070
   271
1070
     1
1070
   272
1070
     1
1070
   341
1005
2AF4
1002
}
  0
INSERT
  5
496E
330
1A
100
AcDbEntity
  8
外形線
 48
10.0
100
AcDbBlockReference
  2
A$C480F1F2B
 10
967.742373889171
 20
2115.987268448657
 30
0.0
  0
INSERT
  5
496F
330
1A
100
AcDbEntity
  8
外形線
 48
10.0
100
AcDbBlockReference
  2
パドル_W1
 10
814.441259481183
 20
1903.610457925899
 30
0.0
  0
DIMENSION
  5
4972
330
1A
100
AcDbEntity
  8
寸法線
 48
10.0
100
AcDbDimension
  2
*D23
 10
952.742375390683
 20
2065.736162662139
 30
0.0
 11
912.742375390683
 21
2070.361162662139
 31
0.0
 70
    32
  3
ISO-25
100
AcDbAlignedDimension
 13
872.742375390683
 23
2084.262219847711
 33
0.0
 14
952.742375390683
 24
2112.262219847711
 34
0.0
100
AcDbRotatedDimension
1001
ACAD
1000
DSTYLE
1002
{
1070
     5
1000
OPEN30
1070
    41
1040
6.0
1070
    47
1040
0.1
1070
    48
1040
0.1
1070
    73
1070
     0
1070
   140
1040
8.0
1070
   271
1070
     1
1070
   272
1070
     1
1070
   341
1005
2AF4
1002
}
  0
DIMENSION
  5
4973
330
1A
100
AcDbEntity
  8
寸法線
 48
10.0
100
AcDbDimension
  2
*D24
 10
850.783134101478
 20
2084.262219847711
 30
0.0
 11
846.158134101478
 21
2124.262219847711
 31
0.0
 70
    32
  3
ISO-25
100
AcDbAlignedDimension
 13
872.742375390683
 23
2164.262219847711
 33
0.0
 14
872.742375390683
 24
2084.262219847711
 34
0.0
 50
90.0
100
AcDbRotatedDimension
1001
ACAD
1000
DSTYLE
1002
{
1070
     5
1000
OPEN30
1070
    41
1040
6.0
1070
    47
1040
0.1
1070
    48
1040
0.1
1070
    73
1070
     0
1070
   140
1040
8.0
1070
   271
1070
     1
1070
   272
1070
     1
1070
   341
1005
2AF4
1002
}
  0
LINE
  5
4974
330
1A
100
AcDbEntity
  8
外形線
100
AcDbLine
 10
976.242375390683
 20
2129.269675633005
 30
0.0
 11
998.742375390683
 21
2129.269675633005
 31
0.0
  0
LINE
  5
4975
330
1A
100
AcDbEntity
  8
外形線
100
AcDbLine
 10
976.242375390683
 20
2119.269753133005
 30
0.0
 11
998.742375390683
 21
2119.269753133005
 31
0.0
  0
LINE
  5
4976
330
1A
100
AcDbEntity
  8
外形線
100
AcDbLine
 10
967.742375390683
 20
2132.413638133005
 30
0.0
 11
967.742375390683
 21
2116.125718133005
 31
0.0
  0
LINE
  5
4977
330
1A
100
AcDbEntity
  8
中心線
 48
10.0
100
AcDbLine
 10
1172.348410736681
 20
2124.262219847711
 30
0.0
 11
859.129624971999
 21
2124.262219847711
 31
0.0
  0
LINE
  5
4988
330
1A
100
AcDbEntity
  8
下書線
 48
10.0
100
AcDbLine
 10
818.695407636879
 20
2239.317177171258
 30
0.0
 11
1229.007104569517
 21
2239.317177171258
 31
0.0
  0
DIMENSION
  5
4989
330
1A
100
AcDbEntity
  8
寸法線
 48
10.0
100
AcDbDimension
  2
*D27
 10
1198.192295173564
 20
2073.262219847711
 30
0.0
 11
1198.192295173564
 21
2123.650220347711
 31
0.0
 70
   160
  1
φ102
  3
ISO-25
100
AcDbAlignedDimension
 13
1128.449529390683
 23
2175.262219847711
 33
0.0
 14
1128.449529390683
 24
2073.262219847711
 34
0.0
 50
90.0
100
AcDbRotatedDimension
1001
ACAD
1000
DSTYLE
1002
{
1070
     5
1000
OPEN30
1070
    41
1040
6.0
1070
    47
1040
0.1
1070
    48
1040
0.1
1070
    73
1070
     0
1070
   140
1040
8.0
1070
   271
1070
     1
1070
   272
1070
     1
1070
   341
1005
2AF4
1002
}
  0
DIMENSION
  5
498D
330
1A
100
AcDbEntity
  8
寸法線
 48
10.0
100
AcDbDimension
  2
*D31
 10
1172.717563390683
 20
2005.089247486414
 30
0.0
 11
1097.729969390683
 21
2009.714247486414
 31
0.0
 70
    32
  3
ISO-25
100
AcDbAlignedDimension
 13
1022.742375390683
 23
2046.762219847711
 33
0.0
 14
1172.717563390683
 24
2023.542046707265
 34
0.0
100
AcDbRotatedDimension
1001
ACAD
1000
DSTYLE
1002
{
1070
     5
1000
OPEN30
1070
    41
1040
6.0
1070
    47
1040
0.1
1070
    48
1040
0.1
1070
    73
1070
     0
1070
   140
1040
8.0
1070
   271
1070
     1
1070
   272
1070
     1
1070
   341
1005
2AF4
1002
}
  0
DIMENSION
  5
498E
330
1A
100
AcDbEntity
  8
寸法線
 48
10.0
100
AcDbDimension
  2
*D32
 10
1022.742375390683
 20
2005.089247486414
 30
0.0
 11
947.742375390683
 21
2009.714247486414
 31
0.0
 70
    32
  3
ISO-25
100
AcDbAlignedDimension
 13
872.742375390683
 23
2084.262219847711
 33
0.0
 14
1022.742375390683
 24
2046.762219847711
 34
0.0
100
AcDbRotatedDimension
1001
ACAD
1000
DSTYLE
1002
{
1070
     5
1000
OPEN30
1070
    41
1040
6.0
1070
    47
1040
0.1
1070
    48
1040
0.1
1070
    73
1070
     0
1070
   140
1040
8.0
1070
   271
1070
     1
1070
   272
1070
     1
1070
   341
1005
2AF4
1002
}
  0
DIMENSION
  5
498F
330
1A
100
AcDbEntity
  8
寸法線
 48
10.0
100
AcDbDimension
  2
*D33
 10
990.657241996422
 20
2119.269753133005
 30
0.0
 11
990.657241996421
 21
2150.097825239304
 31
0.0
 70
   160
  1
φ<>
  3
ISO-25
100
AcDbAlignedDimension
 13
990.657241996421
 23
2129.269675633005
 33
0.0
 14
990.657241996421
 24
2119.269753133005
 34
0.0
 50
90.0
100
AcDbRotatedDimension
1001
ACAD
1000
DSTYLE
1002
{
1070
     5
1000
OPEN30
1070
    41
1040
6.0
1070
    47
1040
0.1
1070
    48
1040
0.1
1070
    73
1070
     0
1070
   140
1040
8.0
1070
   271
1070
     1
1070
   272
1070
     1
1070
   341
1005
2AF4
1002
}
  0
MTEXT
  5
4D90
330
1A
100
AcDbEntity
  8
寸法線
 48
10.0
100
AcDbMText
 10
1012.456723533915
 20
2261.485711516591
 30
0.0
 40
8.0
 41
48.697825423644
 71
     1
 72
     5
  1
フランジ\Pアルミ鋳物
  0
LINE
  5
4DC0
330
1A
100
AcDbEntity
  8
外形線
100
AcDbLine
 10
689.640063190142
 20
2131.767773347176
 30
0.0
 11
689.640063190142
 21
2116.756666348246
 31
0.0
  0
LINE
  5
4DC1
330
1A
100
AcDbEntity
  8
外形線
100
AcDbLine
 10
701.212049723897
 20
2138.448862887498
 30
0.0
 11
689.640063190142
 21
2131.767773347176
 31
0.0
  0
LINE
  5
4DC2
330
1A
100
AcDbEntity
  8
外形線
100
AcDbLine
 10
715.640063190142
 20
2131.767773347176
 30
0.0
 11
704.068054238432
 21
2138.448875830511
 31
0.0
  0
LINE
  5
4DC3
330
1A
100
AcDbEntity
  8
外形線
100
AcDbLine
 10
715.640063190142
 20
2116.756666348246
 30
0.0
 11
715.640063190142
 21
2131.767773347176
 31
0.0
  0
LINE
  5
4DC4
330
1A
100
AcDbEntity
  8
外形線
100
AcDbLine
 10
704.068054238432
 20
2110.075563864912
 30
0.0
 11
715.640063190142
 21
2116.756666348246
 31
0.0
  0
LINE
  5
4DC5
330
1A
100
AcDbEntity
  8
外形線
100
AcDbLine
 10
689.640063190142
 20
2116.756666348246
 30
0.0
 11
701.212049723897
 21
2110.075576807924
 31
0.0
  0
ARC
  5
4DC6
330
1A
100
AcDbEntity
  8
細線
 48
10.0
100
AcDbCircle
 10
702.640063190142
 20
2124.262219847711
 30
0.0
 40
12.99999999999991
100
AcDbArc
 50
276.306407398251
 51
83.693592601749
  0
ARC
  5
4DC7
330
1A
100
AcDbEntity
  8
細線
 48
10.0
100
AcDbCircle
 10
702.640063190142
 20
2124.262219847711
 30
0.0
 40
13.00000000000001
100
AcDbArc
 50
96.306506803967
 51
263.693493196033
  0
LEADER
  5
4DDA
330
1A
100
AcDbEntity
  8
寸法線
 48
10.0
100
AcDbLeader
  3
ISO-25
 76
     3
 10
657.166022479204
 20
2070.776098906156
 30
0.0
 10
655.516455363636
 20
2032.882927176961
 30
0.0
 10
645.948962921318
 20
2032.882927176961
 30
0.0
1001
ACAD
1000
DSTYLE
1002
{
1070
     5
1000
OPEN30
1070
    41
1040
6.0
1070
   341
1005
2AF4
1070
   147
1040
0.625
1070
    77
1070
     1
1002
}
  0
MTEXT
  5
4DDB
330
1A
100
AcDbEntity
  8
寸法線
 48
10.0
100
AcDbMText
 10
652.787699330127
 20
2034.579121983287
 30
0.0
 40
8.0
 41
0.0
 71
     9
 72
     1
  1
\A1;4-φ15
  0
DIMENSION
  5
4DDF
330
1A
100
AcDbEntity
  8
寸法線
 48
10.0
100
AcDbDimension
  2
*D46
 10
704.068054238432
 20
2093.183023264533
 30
0.0
 11
721.493054238432
 21
2097.808023264533
 31
0.0
 70
    32
  1
1.5
  3
ISO-25
100
AcDbAlignedDimension
 13
701.212049723897
 23
2093.178463119188
 33
0.0
 14
704.068054238432
 24
2093.178463119188
 34
0.0
100
AcDbRotatedDimension
1001
ACAD
1000
DSTYLE
1002
{
1070
     5
1000
OPEN30
1070
    41
1040
6.0
1070
    47
1040
0.1
1070
    48
1040
0.1
1070
    73
1070
     0
1070
   140
1040
8.0
1070
   271
1070
     1
1070
   272
1070
     1
1070
   341
1005
2AF4
1002
}
  0
INSERT
  5
4DE0
330
1A
100
AcDbEntity
  8
外形線
100
AcDbBlockReference
  2
パドル_W1立面図
 10
708.453509693876
 20
1894.633404019249
 30
0.0
  0
ARC
  5
4DE7
330
1A
100
AcDbEntity
  8
外形線
100
AcDbCircle
 10
702.630508190142
 20
2124.262219847711
 30
0.0
 40
15.0
100
AcDbArc
 50
275.259524500061
 51
84.740457899851
  0
ARC
  5
4DE8
330
1A
100
AcDbEntity
  8
外形線
100
AcDbCircle
 10
702.630508190142
 20
2124.262219847711
 30
0.0
 40
15.0
100
AcDbArc
 50
95.259561947989
 51
264.740477747692
  0
CIRCLE
  5
4DE9
330
1A
100
AcDbEntity
  8
外形線
100
AcDbCircle
 10
702.630508190142
 20
2124.262219847711
 30
0.0
 40
77.5
  0
CIRCLE
  5
4DEA
330
1A
100
AcDbEntity
  8
外形線
100
AcDbCircle
 10
748.592448967267
 20
2170.224160624836
 30
0.0
 40
7.5
  0
CIRCLE
  5
4DEB
330
1A
100
AcDbEntity
  8
外形線
100
AcDbCircle
 10
748.592448967267
 20
2078.300279070586
 30
0.0
 40
7.5
  0
CIRCLE
  5
4DEC
330
1A
100
AcDbEntity
  8
外形線
100
AcDbCircle
 10
656.668567413017
 20
2170.224160624836
 30
0.0
 40
7.5
  0
CIRCLE
  5
4DED
330
1A
100
AcDbEntity
  8
外形線
100
AcDbCircle
 10
656.668567413017
 20
2078.300279070586
 30
0.0
 40
7.5
  0
CIRCLE
  5
4DEE
330
1A
100
AcDbEntity
  8
中心線
 48
10.0
100
AcDbCircle
 10
702.630508190142
 20
2124.270762347711
 30
0.0
 40
65.0
  0
LINE
  5
4DEF
330
1A
100
AcDbEntity
  8
中心線
 48
10.0
100
AcDbLine
 10
739.575053190142
 20
2087.317674847711
 30
0.0
 11
757.609844744392
 21
2069.282883293461
 31
0.0
  0
LINE
  5
4DF0
330
1A
100
AcDbEntity
  8
中心線
 48
10.0
100
AcDbLine
 10
647.651171635891
 20
2069.282883293461
 30
0.0
 11
665.685963190142
 21
2087.317674847711
 31
0.0
  0
LINE
  5
4DF1
330
1A
100
AcDbEntity
  8
中心線
 48
10.0
100
AcDbLine
 10
739.575053190142
 20
2161.206764847711
 30
0.0
 11
757.609844744392
 21
2179.241556401962
 31
0.0
  0
LINE
  5
4DF2
330
1A
100
AcDbEntity
  8
中心線
 48
10.0
100
AcDbLine
 10
647.651171055413
 20
2179.24155698244
 30
0.0
 11
665.685962609663
 21
2161.20676542819
 31
0.0
  0
LINE
  5
4DF3
330
1A
100
AcDbEntity
  8
中心線
 48
10.0
100
AcDbLine
 10
796.140715690142
 20
2124.262219847711
 30
0.0
 11
609.139410690142
 21
2124.262219847711
 31
0.0
  0
LINE
  5
4DF4
330
1A
100
AcDbEntity
  8
中心線
 48
10.0
100
AcDbLine
 10
702.640063190142
 20
2030.761567347711
 30
0.0
 11
702.640063190142
 21
2217.762872347711
 31
0.0
  0
DIMENSION
  5
4DF5
330
1A
100
AcDbEntity
  8
寸法線
 48
10.0
100
AcDbDimension
  2
*D49
 10
761.295562538684
 20
2152.260249629236
 30
0.0
 11
744.523253093409
 21
2144.255627038011
 31
0.0
 70
   161
  1
φ<>
  3
ISO-25
100
AcDbAlignedDimension
 13
643.972095033945
 23
2096.267359590244
 33
0.0
 14
761.295562538684
 24
2152.260249629236
 34
0.0
1001
ACAD
1000
DSTYLE
1002
{
1070
     5
1000
OPEN30
1070
    41
1040
6.0
1070
    47
1040
0.1
1070
    48
1040
0.1
1070
    73
1070
     0
1070
   140
1040
8.0
1070
   271
1070
     1
1070
   272
1070
     1
1070
   341
1005
2AF4
1002
}
  0
DIMENSION
  5
4DF6
330
1A
100
AcDbEntity
  8
寸法線
 48
10.0
100
AcDbDimension
  2
*D50
 10
778.97674785327
 20
2137.585195840345
 30
0.0
 11
748.502655677085
 21
2132.267244357048
 31
0.0
 70
   161
  1
φ<>
  3
ISO-25
100
AcDbAlignedDimension
 13
626.284268527015
 23
2110.939243855076
 33
0.0
 14
778.976747853269
 24
2137.585195840345
 34
0.0
1001
ACAD
1000
DSTYLE
1002
{
1070
     5
1000
OPEN30
1070
    41
1040
6.0
1070
    47
1040
0.1
1070
    48
1040
0.1
1070
    73
1070
     0
1070
   140
1040
8.0
1070
   271
1070
     1
1070
   272
1070
     1
1070
   341
1005
2AF4
1002
}
  0
DIMENSION
  5
4DFE
330
1A
100
AcDbEntity
  8
寸法線
 48
10.0
100
AcDbDimension
  2
*D55
 10
1089.742375390683
 20
2023.189629902334
 30
0.0
 11
1131.242375390683
 21
2027.827129902334
 31
0.0
 70
    32
  3
ISO-25
100
AcDbAlignedDimension
 13
1172.742375390683
 23
2093.053002657501
 33
0.0
 14
1089.742375390683
 24
2042.361028911072
 34
0.0
100
AcDbRotatedDimension
1001
ACAD
1000
DSTYLE
1002
{
1070
     5
1000
OPEN30
1070
    41
1040
6.0
1070
    47
1040
0.1
1070
    48
1040
0.1
1070
    73
1070
     0
1070
   140
1040
8.0
1070
   271
1070
     1
1070
   272
1070
     1
1070
   341
1005
2AF4
1002
}
  0
VIEWPORT
  5
2902
330
28FB
100
AcDbEntity
 67
     1
  8
0
 48
10.0
100
AcDbViewport
 10
223.922591130687
 20
122.773923577216
 30
0.0
 40
551.144993231289
 41
293.518607104362
 68
     1
 69
     1
1001
ACAD
1000
MVIEW
1002
{
1070
    16
1010
0.0
1020
0.0
1030
0.0
1010
0.0
1020
0.0
1030
1.0
1040
0.0
1040
293.518607104362
1040
223.922591130687
1040
122.773923577216
1040
50.0
1040
0.0
1040
0.0
1070
     0
1070
   100
1070
     0
1070
     1
1070
     0
1070
     0
1070
     0
1070
     0
1040
0.0
1040
0.0
1040
0.0
1040
10.0
1040
10.0
1040
10.0
1040
10.0
1070
     0
1002
{
1002
}
1002
}
  0
VIEWPORT
  5
2904
330
28FB
100
AcDbEntity
 67
     1
  8
図枠太線
 48
10.0
100
AcDbViewport
 10
204.746305129083
 20
162.870471172517
 30
0.0
 40
400.0
 41
240.0
 68
     2
 69
     2
1001
ACAD
1000
MVIEW
1002
{
1070
    16
1010
0.0
1020
0.0
1030
0.0
1010
0.0
1020
0.0
1030
1.0
1040
0.0
1040
480.0
1040
913.5582271504
1040
2055.332979325959
1040
50.0
1040
0.0
1040
0.0
1070
     0
1070
   100
1070
     0
1070
     0
1070
     0
1070
     0
1070
     0
1070
     0
1040
0.0
1040
0.0
1040
0.0
1040
1.0
1040
1.0
1040
0.0
1040
0.0
1070
     0
1002
{
1002
}
1002
}
  0
INSERT
  5
2A59
330
28FB
100
AcDbEntity
 67
     1
  8
図枠太線
100
AcDbBlockReference
  2
A3横用_タイトル
 10
-0.352109406709
 20
-0.65548858101
 30
0.0
  0
MTEXT
  5
2DFB
330
28FB
100
AcDbEntity
 67
     1
  8
寸法線
 48
10.0
100
AcDbMText
 10
148.95890642478
 20
15.189544505539
 30
0.0
 40
7.0
 41
16.6
 71
     1
 72
     5
  1
1:2
  0
MTEXT
  5
2DFC
102
{ACAD_XDICTIONARY
360
4EFE
102
}
330
28FB
100
AcDbEntity
 67
     1
  8
寸法線
 48
10.0
100
AcDbMText
 10
177.32640708937
 20
12.581053317571
 30
0.0
 40
4.5
 41
54.012121212121
 71
     1
 72
     5
  1
2015.6.12
1001
ACADANNOTATIVE
1000
AnnotativeData
1002
{
1070
     1
1070
     0
1002
}
  0
MTEXT
  5
2DFD
330
28FB
100
AcDbEntity
 67
     1
  8
寸法線
 48
10.0
100
AcDbMText
 10
182.050954010031
 20
33.482361040361
 30
0.0
 40
4.5
 41
29.906507692735
 71
     1
 72
     5
  1
ohno
  0
MTEXT
  5
2DFE
330
28FB
100
AcDbEntity
 67
     1
  8
寸法線
 48
10.0
100
AcDbMText
 10
313.324679551772
 20
34.589432408107
 30
0.0
 40
7.0
 41
82.258823529412
 71
     1
 72
     5
  1
DPL-100
  0
MTEXT
  5
2DFF
330
28FB
100
AcDbEntity
 67
     1
  8
寸法線
 48
10.0
100
AcDbMText
 10
361.873883470692
 20
38.818069491687
 30
0.0
 40
5.0
 41
41.743045853249
 71
     1
 72
     5
  1
{\H0.9919x;パドル式\Pレベルスイッチ}
  0
MTEXT
  5
2E00
102
{ACAD_XDICTIONARY
360
4F01
102
}
330
28FB
100
AcDbEntity
 67
     1
  8
寸法線
 48
10.0
100
AcDbMText
 10
343.8180117239
 20
16.408053028097
 30
0.0
 40
8.0
 41
38.035797213659
 71
     1
 72
     5
  1
HR-10016
1001
ACADANNOTATIVE
1000
AnnotativeData
1002
{
1070
     1
1070
     0
1002
}
  0
MTEXT
  5
46AC
102
{ACAD_XDICTIONARY
360
4EFB
102
}
330
28FB
100
AcDbEntity
 67
     1
  8
寸法線
 48
10.0
100
AcDbMText
 10
371.683589777824
 20
52.449824573619
 30
0.0
 40
5.0
 41
30.595844622692
 71
     1
 72
     5
  1
台数   台
1001
ACADANNOTATIVE
1000
AnnotativeData
1002
{
1070
     1
1070
     0
1002
}
  0
ENDSEC
  0
SECTION
  2
OBJECTS
  0
DICTIONARY
  5
C
330
0
100
AcDbDictionary
  3
ACAD_COLOR
350
2948
  3
ACAD_GROUP
350
D
  3
ACAD_LAYOUT
350
2816
  3
ACAD_MATERIAL
350
2947
  3
ACAD_MLEADERSTYLE
350
4B98
  3
ACAD_MLINESTYLE
350
E
  3
ACAD_PLOTSETTINGS
350
2817
  3
ACAD_SCALELIST
350
4B71
  3
ACAD_VISUALSTYLE
350
4B58
  3
ACADDIM
350
445A
  3
ACDBHEADERROUNDTRIPXREC
350
4F61
  3
ACDBVARIABLEDICTIONARY
350
4F1C
  3
DWGPROPS
350
4F86
  0
DICTIONARY
  5
4F87
330
8
100
AcDbDictionary
280
     1
  3
ACAD_XREC_ROUNDTRIP
360
4F88
  0
DICTIONARY
  5
29EA
330
2
100
AcDbDictionary
280
     1
  3
ACAD_LAYERFILTERS
360
2B0C
  3
ACAD_LAYERSTATES
360
29EB
  0
DICTIONARY
  5
4EFE
330
2DFC
100
AcDbDictionary
280
     1
  3
ACDBCONTEXTDATAMANAGER
360
4EFF
  0
DICTIONARY
  5
4F01
330
2E00
100
AcDbDictionary
280
     1
  3
ACDBCONTEXTDATAMANAGER
360
4F02
  0
DICTIONARY
  5
4EFB
330
46AC
100
AcDbDictionary
280
     1
  3
ACDBCONTEXTDATAMANAGER
360
4EFC
  0
DICTIONARY
  5
2948
102
{ACAD_REACTORS
330
C
102
}
330
C
100
AcDbDictionary
  0
DICTIONARY
  5
D
102
{ACAD_REACTORS
330
C
102
}
330
C
100
AcDbDictionary
  0
DICTIONARY
  5
2816
102
{ACAD_REACTORS
330
C
102
}
330
C
100
AcDbDictionary
  0
DICTIONARY
  5
2947
102
{ACAD_REACTORS
330
C
102
}
330
C
100
AcDbDictionary
  3
BYBLOCK
350
4B94
  3
BYLAYER
350
4B93
  3
GLOBAL
350
4B95
  0
DICTIONARY
  5
4B98
102
{ACAD_REACTORS
330
C
102
}
330
C
100
AcDbDictionary
  3
STANDARD
350
4B99
  0
DICTIONARY
  5
E
102
{ACAD_REACTORS
330
C
102
}
330
C
100
AcDbDictionary
  3
STANDARD
350
13
  0
DICTIONARY
  5
2817
102
{ACAD_REACTORS
330
C
102
}
330
C
100
AcDbDictionary
  0
DICTIONARY
  5
4B71
102
{ACAD_REACTORS
330
C
102
}
330
C
100
AcDbDictionary
  3
A0
350
4B72
  3
A1
350
4B73
  3
A2
350
4B74
  3
A3
350
4B75
  3
A4
350
4B76
  3
A5
350
4B77
  3
A6
350
4B78
  3
A7
350
4B79
  3
A8
350
4B7A
  3
A9
350
4B7B
  3
B0
350
4B7C
  3
B1
350
4B7D
  3
B2
350
4B7E
  3
B3
350
4B7F
  3
B4
350
4B80
  3
B5
350
4B81
  3
B6
350
4B82
  3
B7
350
4B83
  3
B8
350
4B84
  3
B9
350
4B85
  3
C0
350
4B86
  3
C1
350
4B87
  3
C2
350
4B88
  3
C3
350
4B89
  3
C4
350
4B8A
  3
C5
350
4B8B
  3
C6
350
4B8C
  3
C7
350
4B8D
  3
C8
350
4B8E
  3
C9
350
4B8F
  3
D0
350
4B90
  3
D1
350
4B91
  3
D2
350
4B92
  0
DICTIONARY
  5
4B58
102
{ACAD_REACTORS
330
C
102
}
330
C
100
AcDbDictionary
  3
2DWIREFRAME
350
4B5D
  3
BASIC
350
4B60
  3
BRIGHTEN
350
4B64
  3
COLORCHANGE
350
4B68
  3
CONCEPTUAL
350
4B62
  3
DIM
350
4B63
  3
EDGECOLOROFF
350
4B6B
  3
FACEPATTERN
350
4B67
  3
FLAT
350
4B59
  3
FLATWITHEDGES
350
4B5A
  3
GOURAUD
350
4B5B
  3
GOURAUDWITHEDGES
350
4B5C
  3
HIDDEN
350
4B5F
  3
JITTEROFF
350
4B69
  3
LINEPATTERN
350
4B66
  3
OVERHANGOFF
350
4B6A
  3
REALISTIC
350
4B61
  3
SHADED
350
4B70
  3
SHADED_WITH_EDGES
350
4B6F
  3
SHADES_OF_GRAY
350
4B6C
  3
SKETCHY
350
4B6D
  3
THICKEN
350
4B65
  3
WIREFRAME
350
4B5E
  3
X-RAY
350
4B6E
  0
XRECORD
  5
445A
102
{ACAD_REACTORS
330
C
102
}
330
C
100
AcDbXrecord
 90
   990106
  3

 60
     0
 61
     0
 62
     1
 63
     3
 64
     0
 65
     0
 66
     0
 67
     3
 68
     1
 69
     0
 70
     0
 71
     0
 72
     0
 40
0.0
170
     0
  0
DICTIONARY
  5
4F61
102
{ACAD_REACTORS
330
C
102
}
330
C
100
AcDbDictionary
  3
CEPSNID
350
4F6B
  3
CEPSNTYPE
350
4F6A
  3
COLORDICT
350
4F84
  3
DIMSTYLEDATA
350
4F81
  3
FINGERPRINTGUID
350
4F6C
  3
HYPERLINKBASE
350
4F64
  3
INSUNITS
350
4F69
  3
LAYOUTDICT
350
4F66
  3
LWETCUNION
350
4F68
  3
MATERIALDICT
350
4F85
  3
PLOTSETDICT
350
4F67
  3
PSVPSCALE
350
4F6E
  3
PUCSBASE
350
4F71
  3
PUCSORGBACK
350
4F77
  3
PUCSORGBOTTOM
350
4F73
  3
PUCSORGFRONT
350
4F76
  3
PUCSORGLEFT
350
4F74
  3
PUCSORGRIGHT
350
4F75
  3
PUCSORGTOP
350
4F72
  3
PUCSORTHOREF
350
4F6F
  3
PUCSORTHOVIEW
350
4F70
  3
STYLESHEET
350
4F65
  3
TSTACKALIGN
350
4F62
  3
TSTACKSIZE
350
4F63
  3
UCSBASE
350
4F7A
  3
UCSORGBACK
350
4F80
  3
UCSORGBOTTOM
350
4F7C
  3
UCSORGFRONT
350
4F7F
  3
UCSORGLEFT
350
4F7D
  3
UCSORGRIGHT
350
4F7E
  3
UCSORGTOP
350
4F7B
  3
UCSORTHOREF
350
4F78
  3
UCSORTHOVIEW
350
4F79
  3
VERSIONGUID
350
4F6D
  0
DICTIONARY
  5
4F1C
102
{ACAD_REACTORS
330
C
102
}
330
C
100
AcDbDictionary
  3
CANNOSCALE
350
4F1D
  3
CMLEADERSTYLE
350
4F5C
  3
CTABLESTYLE
350
4F5B
  3
DIMASSOC
350
4F82
  3
HIDETEXT
350
4F83
  3
MSLTSCALE
350
4F5D
  3
XCLIPFRAME
350
4F5E
  0
XRECORD
  5
4F86
102
{ACAD_REACTORS
330
C
102
}
330
C
100
AcDbXrecord
  1
DWGPROPS COOKIE
  2

  3

  4

  6

  7

  8
y-ohno
  9

300
=
301
=
302
=
303
=
304
=
305
=
306
=
307
=
308
=
309
=
 40
0.0
 41
2450576.222302431
 42
2457191.280746875
  1

 90
        0
  0
XRECORD
  5
4F88
102
{ACAD_REACTORS
330
4F87
102
}
330
4F87
100
AcDbXrecord
102
VTR_0.000_0.000_1.000_1.000_VISUALSTYLE
340
4B5D
102
VTR_0.000_0.000_1.000_1.000_GRIDDISPLAY
 70
     3
102
VTR_0.000_0.000_1.000_1.000_GRIDMAJOR
 70
     5
102
VTR_0.000_0.000_1.000_1.000_DEFAULTLIGHTING
280
     1
102
VTR_0.000_0.000_1.000_1.000_DEFAULTLIGHTINGTYPE
 70
     1
102
VTR_0.000_0.000_1.000_1.000_BRIGHTNESS
141
0.0
102
VTR_0.000_0.000_1.000_1.000_CONTRAST
142
0.0
  0
DICTIONARY
  5
2B0C
102
{ACAD_REACTORS
330
29EA
102
}
330
29EA
100
AcDbDictionary
  0
DICTIONARY
  5
29EB
102
{ACAD_REACTORS
330
29EA
102
}
330
29EA
100
AcDbDictionary
  0
DICTIONARY
  5
4EFF
102
{ACAD_REACTORS
330
4EFE
102
}
330
4EFE
100
AcDbDictionary
  3
ACDB_ANNOTATIONSCALES
350
4F00
  0
DICTIONARY
  5
4F02
102
{ACAD_REACTORS
330
4F01
102
}
330
4F01
100
AcDbDictionary
  3
ACDB_ANNOTATIONSCALES
350
4F03
  0
DICTIONARY
  5
4EFC
102
{ACAD_REACTORS
330
4EFB
102
}
330
4EFB
100
AcDbDictionary
  3
ACDB_ANNOTATIONSCALES
350
4EFD
  0
MATERIAL
  5
4B94
102
{ACAD_REACTORS
330
2947
102
}
102
{ACAD_XDICTIONARY
360
4F8B
102
}
330
2947
100
AcDbMaterial
  1
BYBLOCK
  0
MATERIAL
  5
4B93
102
{ACAD_REACTORS
330
2947
102
}
102
{ACAD_XDICTIONARY
360
4F89
102
}
330
2947
100
AcDbMaterial
  1
BYLAYER
  0
MATERIAL
  5
4B95
102
{ACAD_REACTORS
330
2947
102
}
102
{ACAD_XDICTIONARY
360
4F8D
102
}
330
2947
100
AcDbMaterial
  1
GLOBAL
  0
ACAD_PROXY_OBJECT
  5
4B99
102
{ACAD_REACTORS
330
4B98
102
}
330
4B98
100
AcDbProxyObject
 90
      499
 91
      507
 93
      610
310
40901902A4063FBFFFFFE0000000000000020400000000000020404214DD185B99185C990000000000000104090141901A00000000000004100000000000000041025764000000000000039000
340
14
340
0
340
10
340
0
 94
        0
1001
ACAD_MLEADERVER
1070
     2
  0
MLINESTYLE
  5
13
102
{ACAD_REACTORS
330
E
102
}
330
E
100
AcDbMlineStyle
  2
STANDARD
 70
     0
  3

 62
     0
 51
90.0
 52
90.0
 71
     2
 49
0.5
 62
   256
  6
BYLAYER
 49
-0.5
 62
   256
  6
BYLAYER
  0
ACAD_PROXY_OBJECT
  5
4B72
102
{ACAD_REACTORS
330
4B71
102
}
330
4B71
100
AcDbProxyObject
 90
      499
 91
      504
 93
       41
310
903313A31580
  0
ACAD_PROXY_OBJECT
  5
4B73
102
{ACAD_REACTORS
330
4B71
102
}
330
4B71
100
AcDbProxyObject
 90
      499
 91
      504
 93
      105
310
903313A324000000000000004000
  0
ACAD_PROXY_OBJECT
  5
4B74
102
{ACAD_REACTORS
330
4B71
102
}
330
4B71
100
AcDbProxyObject
 90
      499
 91
      504
 93
      105
310
903313A344000000000000104000
  0
ACAD_PROXY_OBJECT
  5
4B75
102
{ACAD_REACTORS
330
4B71
102
}
330
4B71
100
AcDbProxyObject
 90
      499
 91
      504
 93
      105
310
903313A354000000000000144000
  0
ACAD_PROXY_OBJECT
  5
4B76
102
{ACAD_REACTORS
330
4B71
102
}
330
4B71
100
AcDbProxyObject
 90
      499
 91
      504
 93
      105
310
903313A384000000000000204000
  0
ACAD_PROXY_OBJECT
  5
4B77
102
{ACAD_REACTORS
330
4B71
102
}
330
4B71
100
AcDbProxyObject
 90
      499
 91
      504
 93
      113
310
904313A31304000000000000244000
  0
ACAD_PROXY_OBJECT
  5
4B78
102
{ACAD_REACTORS
330
4B71
102
}
330
4B71
100
AcDbProxyObject
 90
      499
 91
      504
 93
      113
310
904313A31364000000000000304000
  0
ACAD_PROXY_OBJECT
  5
4B79
102
{ACAD_REACTORS
330
4B71
102
}
330
4B71
100
AcDbProxyObject
 90
      499
 91
      504
 93
      113
310
904313A32304000000000000344000
  0
ACAD_PROXY_OBJECT
  5
4B7A
102
{ACAD_REACTORS
330
4B71
102
}
330
4B71
100
AcDbProxyObject
 90
      499
 91
      504
 93
      113
310
904313A333040000000000003E4000
  0
ACAD_PROXY_OBJECT
  5
4B7B
102
{ACAD_REACTORS
330
4B71
102
}
330
4B71
100
AcDbProxyObject
 90
      499
 91
      504
 93
      113
310
904313A34304000000000000444000
  0
ACAD_PROXY_OBJECT
  5
4B7C
102
{ACAD_REACTORS
330
4B71
102
}
330
4B71
100
AcDbProxyObject
 90
      499
 91
      504
 93
      113
310
904313A35304000000000000494000
  0
ACAD_PROXY_OBJECT
  5
4B7D
102
{ACAD_REACTORS
330
4B71
102
}
330
4B71
100
AcDbProxyObject
 90
      499
 91
      504
 93
      121
310
905313A3130304000000000000594000
  0
ACAD_PROXY_OBJECT
  5
4B7E
102
{ACAD_REACTORS
330
4B71
102
}
330
4B71
100
AcDbProxyObject
 90
      499
 91
      504
 93
      105
310
903323A310000000000000010100
  0
ACAD_PROXY_OBJECT
  5
4B7F
102
{ACAD_REACTORS
330
4B71
102
}
330
4B71
100
AcDbProxyObject
 90
      499
 91
      504
 93
      105
310
903343A310000000000000410100
  0
ACAD_PROXY_OBJECT
  5
4B80
102
{ACAD_REACTORS
330
4B71
102
}
330
4B71
100
AcDbProxyObject
 90
      499
 91
      504
 93
      105
310
903383A310000000000000810100
  0
ACAD_PROXY_OBJECT
  5
4B81
102
{ACAD_REACTORS
330
4B71
102
}
330
4B71
100
AcDbProxyObject
 90
      499
 91
      504
 93
      113
310
90431303A310000000000000910100
  0
ACAD_PROXY_OBJECT
  5
4B82
102
{ACAD_REACTORS
330
4B71
102
}
330
4B71
100
AcDbProxyObject
 90
      499
 91
      504
 93
      121
310
9053130303A310000000000001650100
  0
ACAD_PROXY_OBJECT
  5
4B83
102
{ACAD_REACTORS
330
4B71
102
}
330
4B71
100
AcDbProxyObject
 90
      499
 91
      504
 93
      257
310
90E312F31323822203D2031272D3022000000000000200FC000000000000284000
  0
ACAD_PROXY_OBJECT
  5
4B84
102
{ACAD_REACTORS
330
4B71
102
}
330
4B71
100
AcDbProxyObject
 90
      499
 91
      504
 93
      249
310
90D312F363422203D2031272D3022000000000000240FC000000000000284000
  0
ACAD_PROXY_OBJECT
  5
4B85
102
{ACAD_REACTORS
330
4B71
102
}
330
4B71
100
AcDbProxyObject
 90
      499
 91
      504
 93
      249
310
90D312F333222203D2031272D3022000000000000280FC000000000000284000
  0
ACAD_PROXY_OBJECT
  5
4B86
102
{ACAD_REACTORS
330
4B71
102
}
330
4B71
100
AcDbProxyObject
 90
      499
 91
      504
 93
      249
310
90D312F313622203D2031272D30220000000000002C0FC000000000000284000
  0
ACAD_PROXY_OBJECT
  5
4B87
102
{ACAD_REACTORS
330
4B71
102
}
330
4B71
100
AcDbProxyObject
 90
      499
 91
      504
 93
      249
310
90D332F333222203D2031272D30220000000000002E0FC000000000000284000
  0
ACAD_PROXY_OBJECT
  5
4B88
102
{ACAD_REACTORS
330
4B71
102
}
330
4B71
100
AcDbProxyObject
 90
      499
 91
      504
 93
      241
310
90C312F3822203D2031272D3022000000000000300FC000000000000284000
  0
ACAD_PROXY_OBJECT
  5
4B89
102
{ACAD_REACTORS
330
4B71
102
}
330
4B71
100
AcDbProxyObject
 90
      499
 91
      504
 93
      249
310
90D332F313622203D2031272D3022000000000000320FC000000000000284000
  0
ACAD_PROXY_OBJECT
  5
4B8A
102
{ACAD_REACTORS
330
4B71
102
}
330
4B71
100
AcDbProxyObject
 90
      499
 91
      504
 93
      241
310
90C312F3422203D2031272D3022000000000000340FC000000000000284000
  0
ACAD_PROXY_OBJECT
  5
4B8B
102
{ACAD_REACTORS
330
4B71
102
}
330
4B71
100
AcDbProxyObject
 90
      499
 91
      504
 93
      241
310
90C332F3822203D2031272D3022000000000000360FC000000000000284000
  0
ACAD_PROXY_OBJECT
  5
4B8C
102
{ACAD_REACTORS
330
4B71
102
}
330
4B71
100
AcDbProxyObject
 90
      499
 91
      504
 93
      241
310
90C312F3222203D2031272D3022000000000000380FC000000000000284000
  0
ACAD_PROXY_OBJECT
  5
4B8D
102
{ACAD_REACTORS
330
4B71
102
}
330
4B71
100
AcDbProxyObject
 90
      499
 91
      504
 93
      241
310
90C332F3422203D2031272D30220000000000003A0FC000000000000284000
  0
ACAD_PROXY_OBJECT
  5
4B8E
102
{ACAD_REACTORS
330
4B71
102
}
330
4B71
100
AcDbProxyObject
 90
      499
 91
      504
 93
      161
310
90A3122203D2031272D30224000000000000284000
  0
ACAD_PROXY_OBJECT
  5
4B8F
102
{ACAD_REACTORS
330
4B71
102
}
330
4B71
100
AcDbProxyObject
 90
      499
 91
      504
 93
      257
310
90E312D312F3222203D2031272D30220000000000003E0FC000000000000284000
  0
ACAD_PROXY_OBJECT
  5
4B90
102
{ACAD_REACTORS
330
4B71
102
}
330
4B71
100
AcDbProxyObject
 90
      499
 91
      504
 93
      225
310
90A3322203D2031272D302200000000000002100000000000000284000
  0
ACAD_PROXY_OBJECT
  5
4B91
102
{ACAD_REACTORS
330
4B71
102
}
330
4B71
100
AcDbProxyObject
 90
      499
 91
      504
 93
      225
310
90A3622203D2031272D302200000000000006100000000000000284000
  0
ACAD_PROXY_OBJECT
  5
4B92
102
{ACAD_REACTORS
330
4B71
102
}
330
4B71
100
AcDbProxyObject
 90
      499
 91
      504
 93
      249
310
90D31272D3022203D2031272D30220000000000000A100000000000000284000
  0
ACAD_PROXY_OBJECT
  5
4B5D
102
{ACAD_REACTORS
330
4B58
102
}
330
4B58
100
AcDbProxyObject
 90
      499
 91
      503
 93
      436
310
42CC9915DA5C99599C985B595049028333333333333E33F0000000000000F90107901411070040501600405405064090741402480A0340
1001
ACAD
1000
AcDbSavedByObjectVersion
1070
     0
  0
ACAD_PROXY_OBJECT
  5
4B60
102
{ACAD_REACTORS
330
4B58
102
}
330
4B58
100
AcDbProxyObject
 90
      499
 91
      503
 93
      388
310
4150985CDA58D07406404333333333333E33F0000000000000F90107A41107004050150841D405064090741402480A0350
1001
ACAD
1000
AcDbSavedByObjectVersion
1070
     0
  0
ACAD_PROXY_OBJECT
  5
4B64
102
{ACAD_REACTORS
330
4B58
102
}
330
4B58
100
AcDbProxyObject
 90
      499
 91
      503
 93
      428
310
42109C9A59DA1D195B90C409028333333333333E33F0000000000000F9010790141107004050150841D405064090741402480A029950
1001
ACAD
1000
AcDbSavedByObjectVersion
1070
     0
  0
ACAD_PROXY_OBJECT
  5
4B68
102
{ACAD_REACTORS
330
4B58
102
}
330
4B58
100
AcDbProxyObject
 90
      499
 91
      503
 93
      452
310
42D0DBDB1BDC90DA185B99D95104090240C333333333333E33F0000000000000F90108901411070040501508421405064090741402480A0350
1001
ACAD
1000
AcDbSavedByObjectVersion
1070
     0
  0
ACAD_PROXY_OBJECT
  5
4B62
102
{ACAD_REACTORS
330
4B58
102
}
330
4B58
100
AcDbProxyObject
 90
      499
 91
      503
 93
      500
310
4290DBDB98D95C1D1D585B10940D028333333333333E33F0000000000000F90107902409070040501000000000018199010841D405064090740C02480A0340
1001
ACAD
1000
AcDbSavedByObjectVersion
1070
     0
  0
ACAD_PROXY_OBJECT
  5
4B63
102
{ACAD_REACTORS
330
4B58
102
}
330
4B58
100
AcDbProxyObject
 90
      499
 91
      503
 93
      412
310
40D11A5B50B409028333333333333E33F0000000000000F9010790141107004050150841D405064090741402480A02677FFFFFD0
1001
ACAD
1000
AcDbSavedByObjectVersion
1070
     0
  0
ACAD_PROXY_OBJECT
  5
4B6B
102
{ACAD_REACTORS
330
4B58
102
}
330
4B58
100
AcDbProxyObject
 90
      499
 91
      503
 93
      452
310
43115919D950DBDB1BDC93D999916409028333333333333E33F0000000000000F9010790141107004050150841D405064090741402480A0350
1001
ACAD
1000
AcDbSavedByObjectVersion
1070
     0
  0
ACAD_PROXY_OBJECT
  5
4B67
102
{ACAD_REACTORS
330
4B58
102
}
330
4B58
100
AcDbProxyObject
 90
      499
 91
      503
 93
      444
310
42D19858D95C185D1D195C9B90F409028333333333333E33F0000000000000F9010790141107004050150841D405064090741402480A0350
1001
ACAD
1000
AcDbSavedByObjectVersion
1070
     0
  0
ACAD_PROXY_OBJECT
  5
4B59
102
{ACAD_REACTORS
330
4B58
102
}
330
4B58
100
AcDbProxyObject
 90
      499
 91
      503
 93
      380
310
41119B185D240901404333333333333E33F0000000000000F9010740A907004050150841D405064090741402480A1B50
1001
ACAD
1000
AcDbSavedByObjectVersion
1070
     0
  0
ACAD_PROXY_OBJECT
  5
4B5A
102
{ACAD_REACTORS
330
4B58
102
}
330
4B58
100
AcDbProxyObject
 90
      499
 91
      503
 93
      468
310
43519B185D15DA5D1A115919D95CD0140901404333333333333E33F0000000000000F90107409019070040501600405405064090741402480A1B50
1001
ACAD
1000
AcDbSavedByObjectVersion
1070
     0
  0
ACAD_PROXY_OBJECT
  5
4B5B
102
{ACAD_REACTORS
330
4B58
102
}
330
4B58
100
AcDbProxyObject
 90
      499
 91
      503
 93
      404
310
41D1DBDD5C985D5910240902404333333333333E33F0000000000000F9010740A9070040501641D405064090741402480A1B50
1001
ACAD
1000
AcDbSavedByObjectVersion
1070
     0
  0
ACAD_PROXY_OBJECT
  5
4B5C
102
{ACAD_REACTORS
330
4B58
102
}
330
4B58
100
AcDbProxyObject
 90
      499
 91
      503
 93
      492
310
4411DBDD5C985D5915DA5D1A115919D95CD0340902404333333333333E33F0000000000000F90107409019070040501600405405064090741402480A1B50
1001
ACAD
1000
AcDbSavedByObjectVersion
1070
     0
  0
ACAD_PROXY_OBJECT
  5
4B5F
102
{ACAD_REACTORS
330
4B58
102
}
330
4B58
100
AcDbProxyObject
 90
      499
 91
      503
 93
      476
310
41921A5919195B90640502408333333333333E33F0000000000000F901079024090700405020000000000001110200405405064090740C02480A0340
1001
ACAD
1000
AcDbSavedByObjectVersion
1070
     0
  0
ACAD_PROXY_OBJECT
  5
4B69
102
{ACAD_REACTORS
330
4B58
102
}
330
4B58
100
AcDbProxyObject
 90
      499
 91
      503
 93
      428
310
42529A5D1D195C93D999914409028333333333333E33F0000000000000F9010790141107004050150A41D405064090741402480A0350
1001
ACAD
1000
AcDbSavedByObjectVersion
1070
     0
  0
ACAD_PROXY_OBJECT
  5
4B66
102
{ACAD_REACTORS
330
4B58
102
}
330
4B58
100
AcDbProxyObject
 90
      499
 91
      503
 93
      444
310
42D31A5B995C185D1D195C9B90E409028333333333333E33F0000000000000F9010790141107004050750841D405064090741402483A0350
1001
ACAD
1000
AcDbSavedByObjectVersion
1070
     0
  0
ACAD_PROXY_OBJECT
  5
4B6A
102
{ACAD_REACTORS
330
4B58
102
}
330
4B58
100
AcDbProxyObject
 90
      499
 91
      503
 93
      444
310
42D3DD995C9A185B99D3D999915409028333333333333E33F0000000000000F9010790141107004050150941D405064090741402480A0350
1001
ACAD
1000
AcDbSavedByObjectVersion
1070
     0
  0
ACAD_PROXY_OBJECT
  5
4B61
102
{ACAD_REACTORS
330
4B58
102
}
330
4B58
100
AcDbProxyObject
 90
      499
 91
      503
 93
      428
310
425499585B1A5CDD1A58D08409038333333333333E33F0000000000000F9010740A907004050150800405405064090740C02480A1B40
1001
ACAD
1000
AcDbSavedByObjectVersion
1070
     0
  0
ACAD_PROXY_OBJECT
  5
4B70
102
{ACAD_REACTORS
330
4B58
102
}
330
4B58
100
AcDbProxyObject
 90
      499
 91
      503
 93
      420
310
4194DA1859195911B40902404333333333333E33F0000000000000F9010740A41107004050150800405405064090840C02480A0B40
1001
ACAD
1000
AcDbSavedByObjectVersion
1070
     0
  0
ACAD_PROXY_OBJECT
  5
4B6F
102
{ACAD_REACTORS
330
4B58
102
}
330
4B58
100
AcDbProxyObject
 90
      499
 91
      503
 93
      516
310
4454DA18591959081DDA5D1A08195919D95CD1A40902404333333333333E33F0000000000000F901074090142907004050250800405405064090740C02480A0B40
1001
ACAD
1000
AcDbSavedByObjectVersion
1070
     0
  0
ACAD_PROXY_OBJECT
  5
4B6C
102
{ACAD_REACTORS
330
4B58
102
}
330
4B58
100
AcDbProxyObject
 90
      499
 91
      503
 93
      532
310
4394DA1859195CC81BD98811DC985E5174090240C333333333333E33F0000000000000F901079024090741D01000000000000111010841D405064090740C02480A0340
1001
ACAD
1000
AcDbSavedByObjectVersion
1070
     0
  0
ACAD_PROXY_OBJECT
  5
4B6D
102
{ACAD_REACTORS
330
4B58
102
}
330
4B58
100
AcDbProxyObject
 90
      499
 91
      503
 93
      476
310
41D4DAD95D18DA1E51840502408333333333333E33F0000000000000F901079024090741D01000000000000111010B41D405064090741802480A0340
1001
ACAD
1000
AcDbSavedByObjectVersion
1070
     0
  0
ACAD_PROXY_OBJECT
  5
4B65
102
{ACAD_REACTORS
330
4B58
102
}
330
4B58
100
AcDbProxyObject
 90
      499
 91
      503
 93
      412
310
41D51A1A58DAD95B90D409028333333333333E33F0000000000000F9010790141107004050150C41D405064090741402480A0350
1001
ACAD
1000
AcDbSavedByObjectVersion
1070
     0
  0
ACAD_PROXY_OBJECT
  5
4B5E
102
{ACAD_REACTORS
330
4B58
102
}
330
4B58
100
AcDbProxyObject
 90
      499
 91
      503
 93
      420
310
4255DA5C99599C985B595059028333333333333E33F0000000000000F90107901411070040501600405405064090740C02480A0340
1001
ACAD
1000
AcDbSavedByObjectVersion
1070
     0
  0
ACAD_PROXY_OBJECT
  5
4B6E
102
{ACAD_REACTORS
330
4B58
102
}
330
4B58
100
AcDbProxyObject
 90
      499
 91
      503
 93
      404
310
41560B54985E51940902404000000000000E03F0000000000000F9010740501907004050150841D405064090740C02480A1B40
1001
ACAD
1000
AcDbSavedByObjectVersion
1070
     0
  0
XRECORD
  5
4F6B
102
{ACAD_REACTORS
330
4F61
102
}
330
4F61
100
AcDbXrecord
340
0
  0
XRECORD
  5
4F6A
102
{ACAD_REACTORS
330
4F61
102
}
330
4F61
100
AcDbXrecord
 90
        0
  0
XRECORD
  5
4F84
102
{ACAD_REACTORS
330
4F61
102
}
330
4F61
100
AcDbXrecord
340
2948
  0
XRECORD
  5
4F81
102
{ACAD_REACTORS
330
4F61
102
}
330
4F61
100
AcDbXrecord
1000
DSTYLE
1002
{
1070
   171
 70
     2
1070
   143
 40
0.0394
1070
   274
 70
     2
1070
    41
 40
6.0
1070
   342
340
2AF4
1070
   271
 70
     1
1070
   278
 70
    46
1070
   341
340
2AF4
1070
   272
 70
     1
1070
    48
 40
0.1
1070
   283
 70
     1
1070
    47
 40
0.1
1070
   145
 40
1.0
1070
   340
340
10
1070
   140
 40
8.0
1070
   284
 70
     0
1002
}
  0
XRECORD
  5
4F6C
102
{ACAD_REACTORS
330
4F61
102
}
330
4F61
100
AcDbXrecord
  1
{23698909-1D67-4744-B0E2-8DE11E3ED422}
  0
XRECORD
  5
4F64
102
{ACAD_REACTORS
330
4F61
102
}
330
4F61
100
AcDbXrecord
  1

  0
XRECORD
  5
4F69
102
{ACAD_REACTORS
330
4F61
102
}
330
4F61
100
AcDbXrecord
 90
        0
  0
XRECORD
  5
4F66
102
{ACAD_REACTORS
330
4F61
102
}
330
4F61
100
AcDbXrecord
340
2816
  0
XRECORD
  5
4F68
102
{ACAD_REACTORS
330
4F61
102
}
330
4F61
100
AcDbXrecord
 90
    10781
  0
XRECORD
  5
4F85
102
{ACAD_REACTORS
330
4F61
102
}
330
4F61
100
AcDbXrecord
340
2947
  0
XRECORD
  5
4F67
102
{ACAD_REACTORS
330
4F61
102
}
330
4F61
100
AcDbXrecord
340
2817
  0
XRECORD
  5
4F6E
102
{ACAD_REACTORS
330
4F61
102
}
330
4F61
100
AcDbXrecord
 40
0.25
  0
XRECORD
  5
4F71
102
{ACAD_REACTORS
330
4F61
102
}
330
4F61
100
AcDbXrecord
340
0
  0
XRECORD
  5
4F77
102
{ACAD_REACTORS
330
4F61
102
}
330
4F61
100
AcDbXrecord
 10
0.0
 20
0.0
 30
0.0
  0
XRECORD
  5
4F73
102
{ACAD_REACTORS
330
4F61
102
}
330
4F61
100
AcDbXrecord
 10
0.0
 20
0.0
 30
0.0
  0
XRECORD
  5
4F76
102
{ACAD_REACTORS
330
4F61
102
}
330
4F61
100
AcDbXrecord
 10
0.0
 20
0.0
 30
0.0
  0
XRECORD
  5
4F74
102
{ACAD_REACTORS
330
4F61
102
}
330
4F61
100
AcDbXrecord
 10
0.0
 20
0.0
 30
0.0
  0
XRECORD
  5
4F75
102
{ACAD_REACTORS
330
4F61
102
}
330
4F61
100
AcDbXrecord
 10
0.0
 20
0.0
 30
0.0
  0
XRECORD
  5
4F72
102
{ACAD_REACTORS
330
4F61
102
}
330
4F61
100
AcDbXrecord
 10
0.0
 20
0.0
 30
0.0
  0
XRECORD
  5
4F6F
102
{ACAD_REACTORS
330
4F61
102
}
330
4F61
100
AcDbXrecord
340
0
  0
XRECORD
  5
4F70
102
{ACAD_REACTORS
330
4F61
102
}
330
4F61
100
AcDbXrecord
 70
     0
  0
XRECORD
  5
4F65
102
{ACAD_REACTORS
330
4F61
102
}
330
4F61
100
AcDbXrecord
  1

  0
XRECORD
  5
4F62
102
{ACAD_REACTORS
330
4F61
102
}
330
4F61
100
AcDbXrecord
 90
        1
  0
XRECORD
  5
4F63
102
{ACAD_REACTORS
330
4F61
102
}
330
4F61
100
AcDbXrecord
 90
       70
  0
XRECORD
  5
4F7A
102
{ACAD_REACTORS
330
4F61
102
}
330
4F61
100
AcDbXrecord
340
0
  0
XRECORD
  5
4F80
102
{ACAD_REACTORS
330
4F61
102
}
330
4F61
100
AcDbXrecord
 10
0.0
 20
0.0
 30
0.0
  0
XRECORD
  5
4F7C
102
{ACAD_REACTORS
330
4F61
102
}
330
4F61
100
AcDbXrecord
 10
0.0
 20
0.0
 30
0.0
  0
XRECORD
  5
4F7F
102
{ACAD_REACTORS
330
4F61
102
}
330
4F61
100
AcDbXrecord
 10
0.0
 20
0.0
 30
0.0
  0
XRECORD
  5
4F7D
102
{ACAD_REACTORS
330
4F61
102
}
330
4F61
100
AcDbXrecord
 10
0.0
 20
0.0
 30
0.0
  0
XRECORD
  5
4F7E
102
{ACAD_REACTORS
330
4F61
102
}
330
4F61
100
AcDbXrecord
 10
0.0
 20
0.0
 30
0.0
  0
XRECORD
  5
4F7B
102
{ACAD_REACTORS
330
4F61
102
}
330
4F61
100
AcDbXrecord
 10
0.0
 20
0.0
 30
0.0
  0
XRECORD
  5
4F78
102
{ACAD_REACTORS
330
4F61
102
}
330
4F61
100
AcDbXrecord
340
0
  0
XRECORD
  5
4F79
102
{ACAD_REACTORS
330
4F61
102
}
330
4F61
100
AcDbXrecord
 70
     0
  0
XRECORD
  5
4F6D
102
{ACAD_REACTORS
330
4F61
102
}
330
4F61
100
AcDbXrecord
  1
{2A41D159-3243-4E88-9EAA-041961BD9DF6}
  0
DICTIONARYVAR
  5
4F1D
102
{ACAD_REACTORS
330
4F1C
102
}
330
4F1C
100
DictionaryVariables
280
     0
  1
1:1
  0
DICTIONARYVAR
  5
4F5C
102
{ACAD_REACTORS
330
4F1C
102
}
330
4F1C
100
DictionaryVariables
280
     0
  1
Standard
  0
DICTIONARYVAR
  5
4F5B
102
{ACAD_REACTORS
330
4F1C
102
}
330
4F1C
100
DictionaryVariables
280
     0
  1
Standard
  0
DICTIONARYVAR
  5
4F82
102
{ACAD_REACTORS
330
4F1C
102
}
330
4F1C
100
DictionaryVariables
280
     0
  1
1
  0
DICTIONARYVAR
  5
4F83
102
{ACAD_REACTORS
330
4F1C
102
}
330
4F1C
100
DictionaryVariables
280
     0
  1
0
  0
DICTIONARYVAR
  5
4F5D
102
{ACAD_REACTORS
330
4F1C
102
}
330
4F1C
100
DictionaryVariables
280
     0
  1
0
  0
DICTIONARYVAR
  5
4F5E
102
{ACAD_REACTORS
330
4F1C
102
}
330
4F1C
100
DictionaryVariables
280
     0
  1
0
  0
DICTIONARY
  5
4F00
102
{ACAD_REACTORS
330
4EFF
102
}
330
4EFF
100
AcDbDictionary
  0
DICTIONARY
  5
4F03
102
{ACAD_REACTORS
330
4F02
102
}
330
4F02
100
AcDbDictionary
  0
DICTIONARY
  5
4EFD
102
{ACAD_REACTORS
330
4EFC
102
}
330
4EFC
100
AcDbDictionary
  0
DICTIONARY
  5
4F8B
330
4B94
100
AcDbDictionary
280
     1
  3
ACAD_XREC_ROUNDTRIP
360
4F8C
  0
DICTIONARY
  5
4F89
330
4B93
100
AcDbDictionary
280
     1
  3
ACAD_XREC_ROUNDTRIP
360
4F8A
  0
DICTIONARY
  5
4F8D
330
4B95
100
AcDbDictionary
280
     1
  3
ACAD_XREC_ROUNDTRIP
360
4F8E
  0
XRECORD
  5
4F8C
102
{ACAD_REACTORS
330
4F8B
102
}
330
4F8B
100
AcDbXrecord
102
MATERIAL
148
0.0
149
0.0
149
0.0
 93
        0
 94
      127
282
     0
 72
     1
 77
     1
171
     1
175
     1
179
     1
273
     0
  0
XRECORD
  5
4F8A
102
{ACAD_REACTORS
330
4F89
102
}
330
4F89
100
AcDbXrecord
102
MATERIAL
148
0.0
149
0.0
149
0.0
 93
        0
 94
      127
282
     0
 72
     1
 77
     1
171
     1
175
     1
179
     1
273
     0
  0
XRECORD
  5
4F8E
102
{ACAD_REACTORS
330
4F8D
102
}
330
4F8D
100
AcDbXrecord
102
MATERIAL
148
0.0
149
0.0
149
0.0
 93
        0
 94
      127
282
     0
 72
     1
 77
     1
171
     1
175
     1
179
     1
273
     0
  0
ENDSEC
  0
EOF
