  0
SECTION
  2
HEADER
  9
$ACADVER
  1
AC1014
  9
$ACADMAINTVER
 70
     9
  9
$DWGCODEPAGE
  3
ANSI_932
  9
$INSBASE
 10
0.0
 20
0.0
 30
0.0
  9
$EXTMIN
 10
206.29518442486
 20
912.379138797742
 30
0.0
  9
$EXTMAX
 10
752.240635943519
 20
1230.341631143829
 30
0.0
  9
$LIMMIN
 10
-360.747566795242
 20
4.457354754526
  9
$LIMMAX
 10
-162.153696144267
 20
287.675440264018
  9
$ORTHOMODE
 70
     1
  9
$REGENMODE
 70
     1
  9
$FILLMODE
 70
     1
  9
$QTEXTMODE
 70
     0
  9
$MIRRTEXT
 70
     1
  9
$DRAGMODE
 70
     2
  9
$LTSCALE
 40
1.0
  9
$OSMODE
 70
    32
  9
$ATTMODE
 70
     1
  9
$TEXTSIZE
 40
2.333873885063
  9
$TRACEWID
 40
1.0
  9
$TEXTSTYLE
  7
STANDARD
  9
$CLAYER
  8
外形線
  9
$CELTYPE
  6
BYLAYER
  9
$CECOLOR
 62
   256
  9
$CELTSCALE
 40
10.0
  9
$DELOBJ
 70
     1
  9
$DISPSILH
 70
     0
  9
$DIMSCALE
 40
1.0
  9
$DIMASZ
 40
6.0
  9
$DIMEXO
 40
0.625
  9
$DIMDLI
 40
3.75
  9
$DIMRND
 40
0.0
  9
$DIMDLE
 40
0.0
  9
$DIMEXE
 40
1.25
  9
$DIMTP
 40
0.1
  9
$DIMTM
 40
0.1
  9
$DIMTXT
 40
5.0
  9
$DIMCEN
 40
2.5
  9
$DIMTSZ
 40
0.0
  9
$DIMTOL
 70
     0
  9
$DIMLIM
 70
     0
  9
$DIMTIH
 70
     0
  9
$DIMTOH
 70
     0
  9
$DIMSE1
 70
     0
  9
$DIMSE2
 70
     0
  9
$DIMTAD
 70
     1
  9
$DIMZIN
 70
     8
  9
$DIMBLK
  1
OPEN30
  9
$DIMASO
 70
     1
  9
$DIMSHO
 70
     1
  9
$DIMPOST
  1

  9
$DIMAPOST
  1

  9
$DIMALT
 70
     0
  9
$DIMALTD
 70
     2
  9
$DIMALTF
 40
0.0394
  9
$DIMLFAC
 40
1.0
  9
$DIMTOFL
 70
     1
  9
$DIMTVP
 40
1.0
  9
$DIMTIX
 70
     0
  9
$DIMSOXD
 70
     0
  9
$DIMSAH
 70
     0
  9
$DIMBLK1
  1

  9
$DIMBLK2
  1

  9
$DIMSTYLE
  2
ISO-25
  9
$DIMCLRD
 70
     0
  9
$DIMCLRE
 70
     0
  9
$DIMCLRT
 70
     0
  9
$DIMTFAC
 40
1.0
  9
$DIMGAP
 40
0.625
  9
$DIMJUST
 70
     0
  9
$DIMSD1
 70
     0
  9
$DIMSD2
 70
     0
  9
$DIMTOLJ
 70
     1
  9
$DIMTZIN
 70
     0
  9
$DIMALTZ
 70
     0
  9
$DIMALTTZ
 70
     0
  9
$DIMFIT
 70
     3
  9
$DIMUPT
 70
     0
  9
$DIMUNIT
 70
     2
  9
$DIMDEC
 70
     1
  9
$DIMTDEC
 70
     1
  9
$DIMALTU
 70
     2
  9
$DIMALTTD
 70
     2
  9
$DIMTXSTY
  7
STANDARD
  9
$DIMAUNIT
 70
     0
  9
$LUNITS
 70
     2
  9
$LUPREC
 70
     4
  9
$SKETCHINC
 40
1.0
  9
$FILLETRAD
 40
6.5
  9
$AUNITS
 70
     0
  9
$AUPREC
 70
     0
  9
$MENU
  1
.
  9
$ELEVATION
 40
0.0
  9
$PELEVATION
 40
0.0
  9
$THICKNESS
 40
0.0
  9
$LIMCHECK
 70
     0
  9
$CHAMFERA
 40
10.0
  9
$CHAMFERB
 40
10.0
  9
$CHAMFERC
 40
20.0
  9
$CHAMFERD
 40
0.0
  9
$SKPOLY
 70
     0
  9
$TDCREATE
 40
2450576.597302431
  9
$TDUPDATE
 40
2457191.664815116
  9
$TDINDWG
 40
1.1451185532
  9
$TDUSRTIMER
 40
1.1451185532
  9
$USRTIMER
 70
     1
  9
$ANGBASE
 50
0.0
  9
$ANGDIR
 70
     0
  9
$PDMODE
 70
     0
  9
$PDSIZE
 40
0.0
  9
$PLINEWID
 40
0.0
  9
$COORDS
 70
     1
  9
$SPLFRAME
 70
     0
  9
$SPLINETYPE
 70
     6
  9
$SPLINESEGS
 70
     8
  9
$ATTDIA
 70
     0
  9
$ATTREQ
 70
     1
  9
$HANDLING
 70
     1
  9
$HANDSEED
  5
51A7
  9
$SURFTAB1
 70
     6
  9
$SURFTAB2
 70
     6
  9
$SURFTYPE
 70
     6
  9
$SURFU
 70
     6
  9
$SURFV
 70
     6
  9
$UCSNAME
  2

  9
$UCSORG
 10
0.0
 20
0.0
 30
0.0
  9
$UCSXDIR
 10
1.0
 20
0.0
 30
0.0
  9
$UCSYDIR
 10
0.0
 20
1.0
 30
0.0
  9
$PUCSNAME
  2

  9
$PUCSORG
 10
0.0
 20
0.0
 30
0.0
  9
$PUCSXDIR
 10
1.0
 20
0.0
 30
0.0
  9
$PUCSYDIR
 10
0.0
 20
1.0
 30
0.0
  9
$USERI1
 70
     0
  9
$USERI2
 70
     0
  9
$USERI3
 70
     0
  9
$USERI4
 70
     0
  9
$USERI5
 70
     0
  9
$USERR1
 40
0.0
  9
$USERR2
 40
0.0
  9
$USERR3
 40
0.0
  9
$USERR4
 40
0.0
  9
$USERR5
 40
0.0
  9
$WORLDVIEW
 70
     1
  9
$SHADEDGE
 70
     3
  9
$SHADEDIF
 70
    70
  9
$TILEMODE
 70
     0
  9
$MAXACTVP
 70
    16
  9
$PINSBASE
 10
0.0
 20
0.0
 30
0.0
  9
$PLIMCHECK
 70
     0
  9
$PEXTMIN
 10
4.746305129083
 20
1.396645458131
 30
0.0
  9
$PEXTMAX
 10
404.746305129083
 20
281.396645458131
 30
0.0
  9
$PLIMMIN
 10
-7.007122192383
 20
-7.007118782997
  9
$PLIMMAX
 10
417.718108215332
 20
293.315290427208
  9
$UNITMODE
 70
     0
  9
$VISRETAIN
 70
     0
  9
$PLINEGEN
 70
     0
  9
$PSLTSCALE
 70
     1
  9
$TREEDEPTH
 70
  3020
  9
$PICKSTYLE
 70
     1
  9
$CMLSTYLE
  2
STANDARD
  9
$CMLJUST
 70
     0
  9
$CMLSCALE
 40
1.0
  9
$PROXYGRAPHICS
 70
     1
  9
$MEASUREMENT
 70
     1
  0
ENDSEC
  0
SECTION
  2
CLASSES
  0
CLASS
  1
ACDBDICTIONARYWDFLT
  2
AcDbDictionaryWithDefault
  3
ObjectDBX Classes
 90
        0
280
     0
281
     0
  0
CLASS
  1
ACDBPLACEHOLDER
  2
AcDbPlaceHolder
  3
ObjectDBX Classes
 90
        0
280
     0
281
     0
  0
CLASS
  1
LAYOUT
  2
AcDbLayout
  3
ObjectDBX Classes
 90
        0
280
     0
281
     0
  0
CLASS
  1
VISUALSTYLE
  2
AcDbVisualStyle
  3
ObjectDBX Classes
 90
     4095
280
     0
281
     0
  0
CLASS
  1
SCALE
  2
AcDbScale
  3
ObjectDBX Classes
 90
     1153
280
     0
281
     0
  0
CLASS
  1
MATERIAL
  2
AcDbMaterial
  3
ObjectDBX Classes
 90
     1153
280
     0
281
     0
  0
CLASS
  1
TABLESTYLE
  2
AcDbTableStyle
  3
ObjectDBX Classes
 90
     4095
280
     0
281
     0
  0
CLASS
  1
MLEADERSTYLE
  2
AcDbMLeaderStyle
  3
ACDB_MLEADERSTYLE_CLASS
 90
     4095
280
     0
281
     0
  0
CLASS
  1
SUN
  2
AcDbSun
  3
SCENEOE
 90
     1153
280
     0
281
     0
  0
CLASS
  1
DICTIONARYVAR
  2
AcDbDictionaryVar
  3
ObjectDBX Classes
 90
        0
280
     0
281
     0
  0
CLASS
  1
CELLSTYLEMAP
  2
AcDbCellStyleMap
  3
ObjectDBX Classes
 90
     1152
280
     0
281
     0
  0
CLASS
  1
XRECORD
  2
AcDbXrecord
  3
ObjectDBX Classes
 90
        0
280
     0
281
     0
  0
CLASS
  1
LWPOLYLINE
  2
AcDbPolyline
  3
ObjectDBX Classes
 90
        0
280
     0
281
     1
  0
CLASS
  1
HATCH
  2
AcDbHatch
  3
ObjectDBX Classes
 90
        0
280
     0
281
     1
  0
ENDSEC
  0
SECTION
  2
TABLES
  0
TABLE
  2
VPORT
  5
8
102
{ACAD_XDICTIONARY
360
519F
102
}
330
0
100
AcDbSymbolTable
 70
     2
  0
VPORT
  5
4832
330
8
100
AcDbSymbolTableRecord
100
AcDbViewportTableRecord
  2
*ACTIVE
 70
     0
 10
0.0
 20
0.0
 11
1.0
 21
1.0
 12
471.676596007921
 22
1160.31931968057
 13
0.0
 23
0.0
 14
1.0
 24
1.0
 15
0.0
 25
0.0
 16
0.0
 26
0.0
 36
1.0
 17
0.0
 27
0.0
 37
0.0
 40
244.301546687121
 41
1.56746031746
 42
50.0
 43
0.0
 44
0.0
 50
0.0
 51
0.0
 71
    16
 72
   100
 73
     1
 74
     0
 75
     0
 76
     0
 77
     0
 78
     0
  0
ENDTAB
  0
TABLE
  2
LTYPE
  5
5
330
0
100
AcDbSymbolTable
 70
     5
  0
LTYPE
  5
14
330
5
100
AcDbSymbolTableRecord
100
AcDbLinetypeTableRecord
  2
BYBLOCK
 70
     0
  3

 72
    65
 73
     0
 40
0.0
  0
LTYPE
  5
15
330
5
100
AcDbSymbolTableRecord
100
AcDbLinetypeTableRecord
  2
BYLAYER
 70
     0
  3

 72
    65
 73
     0
 40
0.0
  0
LTYPE
  5
16
330
5
100
AcDbSymbolTableRecord
100
AcDbLinetypeTableRecord
  2
CONTINUOUS
 70
     0
  3
Solid line
 72
    65
 73
     0
 40
0.0
  0
LTYPE
  5
1EC
330
5
100
AcDbSymbolTableRecord
100
AcDbLinetypeTableRecord
  2
CENTER
 70
     0
  3
____ _ ____ _ ____ _ ____ _ ____ _ ____ _ ____ 
 72
    65
 73
     4
 40
2.0
 49
1.25
 74
     0
 49
-0.25
 74
     0
 49
0.25
 74
     0
 49
-0.25
 74
     0
  0
LTYPE
  5
1ED
330
5
100
AcDbSymbolTableRecord
100
AcDbLinetypeTableRecord
  2
DASHED
 70
     0
  3
__ __ __ __ __ __ __ __ __ __ __ __ __ __ __ __
 72
    65
 73
     2
 40
0.75
 49
0.5
 74
     0
 49
-0.25
 74
     0
  0
LTYPE
  5
2B28
330
5
100
AcDbSymbolTableRecord
100
AcDbLinetypeTableRecord
  2
DASHDOT
 70
     0
  3
一点鎖線
 72
    65
 73
     4
 40
25.6
 49
20.0
 74
     0
 49
-2.0
 74
     0
 49
1.6
 74
     0
 49
-2.0
 74
     0
  0
LTYPE
  5
2B29
330
5
100
AcDbSymbolTableRecord
100
AcDbLinetypeTableRecord
  2
DIVIDE
 70
     0
  3
二点鎖線
 72
    65
 73
     6
 40
31.2
 49
20.0
 74
     0
 49
-2.4
 74
     0
 49
2.0
 74
     0
 49
-2.4
 74
     0
 49
2.0
 74
     0
 49
-2.4
 74
     0
  0
ENDTAB
  0
TABLE
  2
LAYER
  5
2
102
{ACAD_XDICTIONARY
360
29EA
102
}
330
0
100
AcDbSymbolTable
 70
    13
  0
LAYER
  5
F
330
2
100
AcDbSymbolTableRecord
100
AcDbLayerTableRecord
  2
0
 70
     0
 62
     7
  6
CONTINUOUS
  0
LAYER
  5
61
330
2
100
AcDbSymbolTableRecord
100
AcDbLayerTableRecord
  2
図枠太線
 70
     0
 62
   251
  6
CONTINUOUS
  0
LAYER
  5
62
330
2
100
AcDbSymbolTableRecord
100
AcDbLayerTableRecord
  2
図枠細線
 70
     0
 62
   252
  6
CONTINUOUS
  0
LAYER
  5
63
330
2
100
AcDbSymbolTableRecord
100
AcDbLayerTableRecord
  2
図枠ロゴマーク
 70
     0
 62
   253
  6
CONTINUOUS
  0
LAYER
  5
1EF
330
2
100
AcDbSymbolTableRecord
100
AcDbLayerTableRecord
  2
外形線
 70
     0
 62
     7
  6
CONTINUOUS
  0
LAYER
  5
1F0
330
2
100
AcDbSymbolTableRecord
100
AcDbLayerTableRecord
  2
寸法線
 70
     0
 62
     1
  6
CONTINUOUS
  0
LAYER
  5
1F1
330
2
100
AcDbSymbolTableRecord
100
AcDbLayerTableRecord
  2
中心線
 70
     0
 62
     4
  6
CENTER
  0
LAYER
  5
1F4
330
2
100
AcDbSymbolTableRecord
100
AcDbLayerTableRecord
  2
DEFPOINTS
 70
     0
 62
     7
  6
CONTINUOUS
  0
LAYER
  5
2AA2
330
2
100
AcDbSymbolTableRecord
100
AcDbLayerTableRecord
  2
下書線
 70
     0
 62
     2
  6
CONTINUOUS
  0
LAYER
  5
2AA3
330
2
100
AcDbSymbolTableRecord
100
AcDbLayerTableRecord
  2
隠れ線
 70
     0
 62
     3
  6
DASHED
  0
LAYER
  5
2AA4
330
2
100
AcDbSymbolTableRecord
100
AcDbLayerTableRecord
  2
細線
 70
     0
 62
     6
  6
CONTINUOUS
  0
LAYER
  5
2AA5
330
2
100
AcDbSymbolTableRecord
100
AcDbLayerTableRecord
  2
太線
 70
     0
 62
   190
  6
CONTINUOUS
  0
LAYER
  5
2B2A
330
2
100
AcDbSymbolTableRecord
100
AcDbLayerTableRecord
  2
LAY-1
 70
     0
 62
     7
  6
CONTINUOUS
  0
ENDTAB
  0
TABLE
  2
STYLE
  5
3
330
0
100
AcDbSymbolTable
 70
     3
  0
STYLE
  5
10
330
3
100
AcDbSymbolTableRecord
100
AcDbTextStyleTableRecord
  2
STANDARD
 70
     0
 40
0.0
 41
1.0
 50
0.0
 71
     0
 42
2.333873885063
  3
ISOCP
  4
bigfont.shx
  0
STYLE
  5
64
330
3
100
AcDbSymbolTableRecord
100
AcDbTextStyleTableRecord
  2
EXCADSTD
 70
     0
 40
0.0
 41
1.0
 50
0.0
 71
     0
 42
0.2
  3
monotxt
  4
bigfont
  0
STYLE
  5
2B2B
330
3
100
AcDbSymbolTableRecord
100
AcDbTextStyleTableRecord
  2
EXCADVERT
 70
     4
 40
0.0
 41
1.0
 50
0.0
 71
     0
 42
0.286885
  3
monotxt
  4
bigfont
  0
ENDTAB
  0
TABLE
  2
VIEW
  5
6
330
0
100
AcDbSymbolTable
 70
     0
  0
ENDTAB
  0
TABLE
  2
UCS
  5
7
330
0
100
AcDbSymbolTable
 70
     0
  0
ENDTAB
  0
TABLE
  2
APPID
  5
9
330
0
100
AcDbSymbolTable
 70
     3
  0
APPID
  5
11
330
9
100
AcDbSymbolTableRecord
100
AcDbRegAppTableRecord
  2
ACAD
 70
     0
  0
APPID
  5
4C2A
330
9
100
AcDbSymbolTableRecord
100
AcDbRegAppTableRecord
  2
ACADANNOTATIVE
 70
     0
  0
APPID
  5
4CAE
330
9
100
AcDbSymbolTableRecord
100
AcDbRegAppTableRecord
  2
ACAD_MLEADERVER
 70
     0
  0
ENDTAB
  0
TABLE
  2
DIMSTYLE
  5
A
330
0
100
AcDbSymbolTable
 70
     2
  0
DIMSTYLE
105
1D
330
A
100
AcDbSymbolTableRecord
100
AcDbDimStyleTableRecord
  2
STANDARD
 70
     0
  3

  4

  5

  6

  7

 40
1.0
 41
0.18
 42
0.0625
 43
0.38
 44
0.18
 45
0.0
 46
0.0
 47
0.0
 48
0.0
140
0.18
141
0.09
142
0.0
143
25.4
144
1.0
145
0.0
146
1.0
147
0.09
 71
     0
 72
     0
 73
     1
 74
     1
 75
     0
 76
     0
 77
     0
 78
     0
170
     0
171
     2
172
     0
173
     0
174
     0
175
     0
176
     0
177
     0
178
     0
270
     2
271
     4
272
     4
273
     2
274
     2
340
10
275
     0
280
     0
281
     0
282
     0
283
     1
284
     0
285
     0
286
     0
287
     3
288
     0
  0
DIMSTYLE
105
24
102
{ACAD_REACTORS
330
3C1E
330
3C1F
330
3C20
330
4688
330
4F7B
330
4F86
330
4F87
330
4F89
330
4F94
330
506F
330
509E
330
5168
102
}
330
A
100
AcDbSymbolTableRecord
100
AcDbDimStyleTableRecord
  2
ISO-25
 70
     0
  3

  4

  5

  6

  7

 40
1.0
 41
2.5
 42
0.625
 43
3.75
 44
1.25
 45
0.0
 46
0.0
 47
0.0
 48
0.0
140
2.5
141
2.5
142
0.0
143
0.0394
144
1.0
145
1.0
146
1.0
147
0.625
 71
     0
 72
     0
 73
     1
 74
     0
 75
     0
 76
     0
 77
     1
 78
     8
170
     0
171
     2
172
     1
173
     0
174
     0
175
     0
176
     0
177
     0
178
     0
270
     2
271
     4
272
     4
273
     2
274
     2
340
10
275
     0
280
     0
281
     0
282
     0
283
     1
284
     0
285
     0
286
     0
287
     3
288
     0
  0
ENDTAB
  0
TABLE
  2
BLOCK_RECORD
  5
1
330
0
100
AcDbSymbolTable
 70
    65
  0
BLOCK_RECORD
  5
1A
330
1
100
AcDbSymbolTableRecord
100
AcDbBlockTableRecord
  2
*MODEL_SPACE
  0
BLOCK_RECORD
  5
28FB
330
1
100
AcDbSymbolTableRecord
100
AcDbBlockTableRecord
  2
*PAPER_SPACE
  0
BLOCK_RECORD
  5
65
330
1
100
AcDbSymbolTableRecord
100
AcDbBlockTableRecord
  2
A$C3392
  0
BLOCK_RECORD
  5
29BF
330
1
100
AcDbSymbolTableRecord
100
AcDbBlockTableRecord
  2
A4横用_タイトル
1001
ACAD
1000
DesignCenter Data
1002
{
1070
     1
1070
     4
1002
}
  0
BLOCK_RECORD
  5
29F4
330
1
100
AcDbSymbolTableRecord
100
AcDbBlockTableRecord
  2
A4縦用_タイトル
1001
ACAD
1000
DesignCenter Data
1002
{
1070
     1
1070
     4
1002
}
  0
BLOCK_RECORD
  5
2A32
330
1
100
AcDbSymbolTableRecord
100
AcDbBlockTableRecord
  2
A3横用_タイトル
1001
ACAD
1000
DesignCenter Data
1002
{
1070
     1
1070
     4
1002
}
  0
BLOCK_RECORD
  5
2A6C
330
1
100
AcDbSymbolTableRecord
100
AcDbBlockTableRecord
  2
A3縦用_タイトル
1001
ACAD
1000
DesignCenter Data
1002
{
1070
     1
1070
     4
1002
}
  0
BLOCK_RECORD
  5
2AF4
330
1
100
AcDbSymbolTableRecord
100
AcDbBlockTableRecord
  2
_OPEN30
  0
BLOCK_RECORD
  5
2F3F
330
1
100
AcDbSymbolTableRecord
100
AcDbBlockTableRecord
  2
ケース外形図_HL-400
  0
BLOCK_RECORD
  5
3C79
330
1
100
AcDbSymbolTableRecord
100
AcDbBlockTableRecord
  2
*D8
  0
BLOCK_RECORD
  5
3C87
330
1
100
AcDbSymbolTableRecord
100
AcDbBlockTableRecord
  2
*D9
  0
BLOCK_RECORD
  5
3C93
330
1
100
AcDbSymbolTableRecord
100
AcDbBlockTableRecord
  2
*D10
  0
BLOCK_RECORD
  5
4689
330
1
100
AcDbSymbolTableRecord
100
AcDbBlockTableRecord
  2
*D17
  0
BLOCK_RECORD
  5
5102
330
1
100
AcDbSymbolTableRecord
100
AcDbBlockTableRecord
  2
*D56
  0
BLOCK_RECORD
  5
510E
330
1
100
AcDbSymbolTableRecord
100
AcDbBlockTableRecord
  2
*D57
  0
BLOCK_RECORD
  5
511C
330
1
100
AcDbSymbolTableRecord
100
AcDbBlockTableRecord
  2
*D58
  0
BLOCK_RECORD
  5
5128
330
1
100
AcDbSymbolTableRecord
100
AcDbBlockTableRecord
  2
*D59
  0
BLOCK_RECORD
  5
5136
330
1
100
AcDbSymbolTableRecord
100
AcDbBlockTableRecord
  2
*D60
  0
BLOCK_RECORD
  5
514D
330
1
100
AcDbSymbolTableRecord
100
AcDbBlockTableRecord
  2
*D62
  0
BLOCK_RECORD
  5
515A
330
1
100
AcDbSymbolTableRecord
100
AcDbBlockTableRecord
  2
*D63
  0
BLOCK_RECORD
  5
5169
330
1
100
AcDbSymbolTableRecord
100
AcDbBlockTableRecord
  2
*D64
  0
ENDTAB
  0
ENDSEC
  0
SECTION
  2
BLOCKS
  0
BLOCK
  5
1B
330
1A
100
AcDbEntity
  8
0
100
AcDbBlockBegin
  2
*MODEL_SPACE
 70
     0
 10
0.0
 20
0.0
 30
0.0
  3
*MODEL_SPACE
  1

  0
ENDBLK
  5
1C
330
1A
100
AcDbEntity
  8
0
100
AcDbBlockEnd
  0
BLOCK
  5
28FD
330
28FB
100
AcDbEntity
 67
     1
  8
0
 48
10.0
100
AcDbBlockBegin
  2
*PAPER_SPACE
 70
     0
 10
0.0
 20
0.0
 30
0.0
  3
*PAPER_SPACE
  1

  0
ENDBLK
  5
28FE
330
28FB
100
AcDbEntity
 67
     1
  8
0
 48
10.0
100
AcDbBlockEnd
  0
BLOCK
  5
93
330
65
100
AcDbEntity
  8
0
100
AcDbBlockBegin
  2
A$C3392
 70
     0
 10
0.0
 20
0.0
 30
0.0
  3
A$C3392
  1
A$C3392
  0
LINE
  5
66
330
65
100
AcDbEntity
  8
図枠太線
  6
CONTINUOUS
100
AcDbLine
 10
211.858584505185
 20
30.927375675439
 30
0.0
 11
211.858584505185
 21
0.927375675439
 31
0.0
  0
LINE
  5
67
330
65
100
AcDbEntity
  8
図枠細線
  6
CONTINUOUS
100
AcDbLine
 10
231.858592505185
 20
15.927377675439
 30
0.0
 11
287.858592505185
 21
15.927375675439
 31
0.0
  0
LINE
  5
68
330
65
100
AcDbEntity
  8
図枠細線
  6
CONTINUOUS
100
AcDbLine
 10
211.858592505185
 20
15.927377675439
 30
0.0
 11
231.858592505185
 21
15.927377675439
 31
0.0
  0
LINE
  5
69
330
65
100
AcDbEntity
  8
図枠太線
  6
CONTINUOUS
 62
   251
100
AcDbLine
 10
1.858584505185
 20
0.927375675439
 30
0.0
 11
1.858584505185
 21
275.927375675439
 31
0.0
  0
TEXT
  5
6A
330
65
100
AcDbEntity
  8
図枠細線
  6
CONTINUOUS
 62
   252
100
AcDbText
 10
351.358592505185
 20
28.427377675439
 30
0.0
 40
2.0
  1
ＴＩＴＬＥ
 41
0.903614457831
  7
EXCADSTD
 72
     5
 11
361.358592505185
 21
28.427377675439
 31
0.0
100
AcDbText
  0
TEXT
  5
6B
330
65
100
AcDbEntity
  8
図枠細線
  6
CONTINUOUS
 62
   252
100
AcDbText
 10
345.358592505185
 20
28.427377675439
 30
0.0
 40
2.0
  1
名称
 41
1.171875
  7
EXCADSTD
 72
     5
 11
350.358592505185
 21
28.427377675439
 31
0.0
100
AcDbText
  0
TEXT
  5
6C
330
65
100
AcDbEntity
  8
図枠細線
  6
CONTINUOUS
 62
   252
100
AcDbText
 10
274.358592505185
 20
25.927377675439
 30
0.0
 40
2.0
  1
ＤＲＡＷＮ
 41
0.882352941176
  7
EXCADSTD
 72
     5
 11
284.358592505185
 21
25.927377675439
 31
0.0
100
AcDbText
  0
TEXT
  5
6D
330
65
100
AcDbEntity
  8
図枠細線
  6
CONTINUOUS
 62
   252
100
AcDbText
 10
260.358592505185
 20
25.927377675439
 30
0.0
 40
2.0
  1
ＤＥＳＩＧＮＥＤ
 41
0.713043472041
  7
EXCADSTD
 72
     5
 11
273.478592390744
 21
25.927377675439
 31
0.0
100
AcDbText
  0
TEXT
  5
6E
330
65
100
AcDbEntity
  8
図枠細線
  6
CONTINUOUS
 62
   252
100
AcDbText
 10
246.358592505185
 20
25.927377675439
 30
0.0
 40
2.0
  1
ＣＨＥＣＫＥＤ
 41
0.831249989569
  7
EXCADSTD
 72
     5
 11
259.658592338292
 21
25.927377675439
 31
0.0
100
AcDbText
  0
TEXT
  5
6F
330
65
100
AcDbEntity
  8
図枠細線
  6
CONTINUOUS
 62
   252
100
AcDbText
 10
274.358592505185
 20
28.427377675439
 30
0.0
 40
2.0
  1
製図
 41
1.209677419355
  7
EXCADSTD
 72
     5
 11
279.358592505185
 21
28.427377675439
 31
0.0
100
AcDbText
  0
TEXT
  5
70
330
65
100
AcDbEntity
  8
図枠細線
  6
CONTINUOUS
 62
   252
100
AcDbText
 10
260.358592505185
 20
28.427377675439
 30
0.0
 40
2.0
  1
設計
 41
1.171875
  7
EXCADSTD
 72
     5
 11
265.358592505185
 21
28.427377675439
 31
0.0
100
AcDbText
  0
TEXT
  5
71
330
65
100
AcDbEntity
  8
図枠細線
  6
CONTINUOUS
 62
   252
100
AcDbText
 10
246.358592505185
 20
28.427377675439
 30
0.0
 40
2.0
  1
検図
 41
1.209677419355
  7
EXCADSTD
 72
     5
 11
251.358592505185
 21
28.427377675439
 31
0.0
100
AcDbText
  0
TEXT
  5
72
330
65
100
AcDbEntity
  8
図枠細線
  6
CONTINUOUS
 62
   252
100
AcDbText
 10
232.358592505185
 20
25.927377675439
 30
0.0
 40
2.0
  1
ＡＰＰＲＯＶＥＤ
 41
0.695652184279
  7
EXCADSTD
 72
     5
 11
245.15859269592
 21
25.927377675439
 31
0.0
100
AcDbText
  0
TEXT
  5
73
330
65
100
AcDbEntity
  8
図枠細線
  6
CONTINUOUS
 62
   252
100
AcDbText
 10
232.358592505185
 20
28.427377675439
 30
0.0
 40
2.0
  1
承認
 41
1.171875
  7
EXCADSTD
 72
     5
 11
237.358592505185
 21
28.427377675439
 31
0.0
100
AcDbText
  0
TEXT
  5
74
330
65
100
AcDbEntity
  8
図枠細線
  6
CONTINUOUS
 62
   252
100
AcDbText
 10
290.069888505185
 20
2.574868675439
 30
0.0
 40
3.5
  1
ＴＯＷＡ　ＳＥＩＤＥＮ　ＩＮＤＵＳＴＲＩＡＬ　ＣＯ．，ＬＴＤ．
 41
0.414568012377
  7
EXCADSTD
 72
     5
 11
342.692388209546
 21
2.574868675439
 31
0.0
100
AcDbText
  0
TEXT
  5
75
330
65
100
AcDbEntity
  8
図枠ロゴマーク
  6
CONTINUOUS
 62
   253
100
AcDbText
 10
290.107348505185
 20
7.519769675439
 30
0.0
 40
7.0
  1
東和制電工業株式会社
 41
0.639204545455
  7
EXCADSTD
 72
     5
 11
342.607348505185
 21
7.519769675439
 31
0.0
100
AcDbText
  0
TEXT
  5
76
330
65
100
AcDbEntity
  8
図枠細線
  6
CONTINUOUS
 62
   252
100
AcDbText
 10
232.499705505185
 20
5.759088675439
 30
0.0
 40
2.0
  1
ＰＲＯＪＥＣＴＩＯＮ
 41
0.754285710199
  7
EXCADSTD
 72
     5
 11
250.099705409817
 21
5.759088675439
 31
0.0
100
AcDbText
  0
TEXT
  5
77
330
65
100
AcDbEntity
  8
図枠細線
  6
CONTINUOUS
 62
   252
100
AcDbText
 10
232.574629505185
 20
8.681077675439
 30
0.0
 40
2.0
  1
ＴＨＩＲＤ　ＡＮＧＬＥ
 41
0.691099486738
  7
EXCADSTD
 72
     5
 11
250.174629767445
 21
8.681077675439
 31
0.0
100
AcDbText
  0
TEXT
  5
78
330
65
100
AcDbEntity
  8
図枠細線
  6
CONTINUOUS
 62
   252
100
AcDbText
 10
256.823999505185
 20
13.427377675439
 30
0.0
 40
2.0
  1
ＳＣＡＬＥ
 41
0.903614457831
  7
EXCADSTD
 72
     5
 11
266.823999505185
 21
13.427377675439
 31
0.0
100
AcDbText
  0
TEXT
  5
79
330
65
100
AcDbEntity
  8
図枠細線
  6
CONTINUOUS
 62
   252
100
AcDbText
 10
274.858592505185
 20
13.427377675439
 30
0.0
 40
2.0
  1
ＤＡＴＥ
 41
0.923076923077
  7
EXCADSTD
 72
     5
 11
282.858592505185
 21
13.427377675439
 31
0.0
100
AcDbText
  0
TEXT
  5
7A
330
65
100
AcDbEntity
  8
図枠細線
  6
CONTINUOUS
 62
   252
100
AcDbText
 10
356.358592505185
 20
13.427377675439
 30
0.0
 40
2.0
  1
ＤＲＧ．ＮＯ．
 41
0.9375
  7
EXCADSTD
 72
     5
 11
370.358592505185
 21
13.427377675439
 31
0.0
100
AcDbText
  0
TEXT
  5
7B
330
65
100
AcDbEntity
  8
図枠細線
  6
CONTINUOUS
 62
   252
100
AcDbText
 10
345.358592505185
 20
13.427377675439
 30
0.0
 40
2.0
  1
図面番号
 41
1.102941176471
  7
EXCADSTD
 72
     5
 11
355.358592505185
 21
13.427377675439
 31
0.0
100
AcDbText
  0
TEXT
  5
7C
330
65
100
AcDbEntity
  8
図枠細線
  6
CONTINUOUS
 62
   252
100
AcDbText
 10
269.358592505185
 20
13.427377675439
 30
0.0
 40
2.0
  1
日付
 41
1.171875
  7
EXCADSTD
 72
     5
 11
274.358592505185
 21
13.427377675439
 31
0.0
100
AcDbText
  0
TEXT
  5
7D
330
65
100
AcDbEntity
  8
図枠細線
  6
CONTINUOUS
 62
   252
100
AcDbText
 10
251.451512505185
 20
13.427377675439
 30
0.0
 40
2.0
  1
尺度
 41
1.171875
  7
EXCADSTD
 72
     5
 11
256.451512505185
 21
13.427377675439
 31
0.0
100
AcDbText
  0
TEXT
  5
7E
330
65
100
AcDbEntity
  8
図枠細線
  6
CONTINUOUS
 62
   252
100
AcDbText
 10
232.358592505185
 20
13.427377675439
 30
0.0
 40
2.0
  1
第三角法
 41
1.102941176471
  7
EXCADSTD
 72
     5
 11
242.358592505185
 21
13.427377675439
 31
0.0
100
AcDbText
  0
TEXT
  5
7F
330
65
100
AcDbEntity
  8
図枠細線
  6
CONTINUOUS
 62
   252
100
AcDbText
 10
212.358592505185
 20
28.427377675439
 30
0.0
 40
2.0
  1
ＮＯＴＥ
 41
0.923076923077
  7
EXCADSTD
 72
     5
 11
220.358592505185
 21
28.427377675439
 31
0.0
100
AcDbText
  0
LINE
  5
80
330
65
100
AcDbEntity
  8
図枠細線
  6
CONTINUOUS
 62
   252
100
AcDbLine
 10
287.858592505185
 20
23.427375675439
 30
0.0
 11
344.858592505185
 21
23.427375675439
 31
0.0
  0
LINE
  5
81
330
65
100
AcDbEntity
  8
図枠太線
  6
CONTINUOUS
 62
   251
100
AcDbLine
 10
287.858584505185
 20
15.927375675439
 30
0.0
 11
344.858592505185
 21
15.927375675439
 31
0.0
  0
LINE
  5
82
330
65
100
AcDbEntity
  8
図枠細線
  6
CONTINUOUS
 62
   252
100
AcDbLine
 10
344.858592505185
 20
15.927375675439
 30
0.0
 11
401.858584505185
 21
15.927375675439
 31
0.0
  0
LINE
  5
83
330
65
100
AcDbEntity
  8
図枠太線
  6
CONTINUOUS
 62
   251
100
AcDbLine
 10
344.858592505185
 20
0.927377675439
 30
0.0
 11
344.858592505185
 21
30.927375675439
 31
0.0
  0
LINE
  5
84
330
65
100
AcDbEntity
  8
図枠太線
  6
CONTINUOUS
 62
   251
100
AcDbLine
 10
287.858592505185
 20
0.927377675439
 30
0.0
 11
287.858592505185
 21
30.927375675439
 31
0.0
  0
LINE
  5
85
330
65
100
AcDbEntity
  8
図枠細線
  6
CONTINUOUS
 62
   252
100
AcDbLine
 10
268.858592505185
 20
0.927377675439
 30
0.0
 11
268.858592505185
 21
15.927375675439
 31
0.0
  0
LINE
  5
86
330
65
100
AcDbEntity
  8
図枠細線
  6
CONTINUOUS
 62
   252
100
AcDbLine
 10
250.858592505185
 20
0.927377675439
 30
0.0
 11
250.858592505185
 21
15.927375675439
 31
0.0
  0
LINE
  5
87
330
65
100
AcDbEntity
  8
図枠細線
  6
CONTINUOUS
 62
   252
100
AcDbLine
 10
273.858592505185
 20
30.927375675439
 30
0.0
 11
273.858592505185
 21
15.927375675439
 31
0.0
  0
LINE
  5
88
330
65
100
AcDbEntity
  8
図枠細線
  6
CONTINUOUS
 62
   252
100
AcDbLine
 10
259.858592505185
 20
30.927375675439
 30
0.0
 11
259.858592505185
 21
15.927375675439
 31
0.0
  0
LINE
  5
89
330
65
100
AcDbEntity
  8
図枠細線
  6
CONTINUOUS
 62
   252
100
AcDbLine
 10
245.858592505185
 20
30.927375675439
 30
0.0
 11
245.858592505185
 21
15.927375675439
 31
0.0
  0
LINE
  5
8A
330
65
100
AcDbEntity
  8
図枠太線
  6
CONTINUOUS
 62
   251
100
AcDbLine
 10
231.858592505185
 20
0.927377675439
 30
0.0
 11
231.858592505185
 21
30.927375675439
 31
0.0
  0
LINE
  5
8B
330
65
100
AcDbEntity
  8
図枠細線
  6
CONTINUOUS
 62
   252
100
AcDbLine
 10
211.858592505185
 20
25.927375675439
 30
0.0
 11
231.858592505185
 21
25.927375675439
 31
0.0
  0
LINE
  5
8C
330
65
100
AcDbEntity
  8
図枠細線
  6
CONTINUOUS
 62
   252
100
AcDbLine
 10
211.858592505185
 20
20.927375675439
 30
0.0
 11
231.858592505185
 21
20.927375675439
 31
0.0
  0
LINE
  5
8D
330
65
100
AcDbEntity
  8
図枠細線
  6
CONTINUOUS
 62
   252
100
AcDbLine
 10
211.858592505185
 20
10.927375675439
 30
0.0
 11
231.858592505185
 21
10.927375675439
 31
0.0
  0
LINE
  5
8E
330
65
100
AcDbEntity
  8
図枠細線
  6
CONTINUOUS
 62
   252
100
AcDbLine
 10
211.858592505185
 20
5.927377675439
 30
0.0
 11
231.858592505185
 21
5.927377675439
 31
0.0
  0
LINE
  5
8F
330
65
100
AcDbEntity
  8
図枠太線
  6
CONTINUOUS
 62
   251
100
AcDbLine
 10
211.858592505185
 20
30.927375675439
 30
0.0
 11
401.858584505185
 21
30.927375675439
 31
0.0
  0
LINE
  5
90
330
65
100
AcDbEntity
  8
図枠太線
  6
CONTINUOUS
 62
   251
100
AcDbLine
 10
1.858584505185
 20
275.927375675439
 30
0.0
 11
401.858584505185
 21
275.927375675439
 31
0.0
  0
LINE
  5
91
330
65
100
AcDbEntity
  8
図枠太線
  6
CONTINUOUS
 62
   251
100
AcDbLine
 10
401.858584505185
 20
0.927375675439
 30
0.0
 11
401.858584505185
 21
275.927375675439
 31
0.0
  0
LINE
  5
92
330
65
100
AcDbEntity
  8
図枠太線
  6
CONTINUOUS
 62
   251
100
AcDbLine
 10
1.858584505185
 20
0.927375675439
 30
0.0
 11
401.858584505185
 21
0.927375675439
 31
0.0
  0
ENDBLK
  5
94
330
65
100
AcDbEntity
  8
0
100
AcDbBlockEnd
  0
BLOCK
  5
29C0
330
29BF
100
AcDbEntity
  8
0
100
AcDbBlockBegin
  2
A4横用_タイトル
 70
     0
 10
0.0
 20
0.0
 30
0.0
  3
A4横用_タイトル
  1
A4横用_タイトル
  0
LINE
  5
29C1
330
29BF
100
AcDbEntity
  8
図枠細線
  6
CONTINUOUS
100
AcDbLine
 10
75.061011071051
 20
16.806607253358
 30
0.0
 11
144.061011071051
 21
16.806604789072
 31
0.0
  0
LINE
  5
29C2
330
29BF
100
AcDbEntity
  8
図枠細線
  6
CONTINUOUS
 62
   252
100
AcDbLine
 10
4.061011071051
 20
11.806606253358
 30
0.0
 11
75.061011071051
 21
11.806606253358
 31
0.0
  0
LINE
  5
29C3
330
29BF
100
AcDbEntity
  8
図枠細線
  6
CONTINUOUS
 62
   252
100
AcDbLine
 10
4.061011071051
 20
21.806606253358
 30
0.0
 11
75.061011071051
 21
21.806606253358
 31
0.0
  0
LINE
  5
29C4
330
29BF
100
AcDbEntity
  8
図枠細線
  6
CONTINUOUS
 62
   252
100
AcDbLine
 10
4.061011071051
 20
26.806606253358
 30
0.0
 11
75.061011071051
 21
26.806606253358
 31
0.0
  0
LINE
  5
29C5
330
29BF
100
AcDbEntity
  8
図枠細線
  6
CONTINUOUS
100
AcDbLine
 10
4.061011071051
 20
16.806608253358
 30
0.0
 11
75.061011071051
 21
16.806608253358
 31
0.0
  0
TEXT
  5
29C6
330
29BF
100
AcDbEntity
  8
図枠細線
  6
CONTINUOUS
 62
   252
100
AcDbText
 10
76.405475827713
 20
9.560308253358
 30
0.0
 40
2.0
  1
ＴＨＩＲＤ　ＡＮＧＬＥ
 41
0.691099486738
  7
EXCADSTD
 72
     5
 11
94.005476089973
 21
9.560308253358
 31
0.0
100
AcDbText
  0
TEXT
  5
29C7
330
29BF
100
AcDbEntity
  8
図枠細線
  6
CONTINUOUS
 62
   252
100
AcDbText
 10
76.705775880921
 20
14.306608253358
 30
0.0
 40
2.0
  1
第三角法
 41
1.102941176471
  7
EXCADSTD
 72
     5
 11
86.705775880921
 21
14.306608253358
 31
0.0
100
AcDbText
  0
TEXT
  5
29C8
330
29BF
100
AcDbEntity
  8
図枠細線
  6
CONTINUOUS
 62
   252
100
AcDbText
 10
76.705775880921
 20
26.806608253358
 30
0.0
 40
2.0
  1
ＡＰＰＲＯＶＥＤ
 41
0.695652184279
  7
EXCADSTD
 72
     5
 11
89.505776071656
 21
26.806608253358
 31
0.0
100
AcDbText
  0
TEXT
  5
29C9
330
29BF
100
AcDbEntity
  8
図枠細線
  6
CONTINUOUS
 62
   252
100
AcDbText
 10
76.705775880921
 20
29.306608253358
 30
0.0
 40
2.0
  1
承認
 41
1.171875
  7
EXCADSTD
 72
     5
 11
81.705775880921
 21
29.306608253358
 31
0.0
100
AcDbText
  0
LINE
  5
29CA
330
29BF
100
AcDbEntity
  8
図枠細線
  6
CONTINUOUS
 62
   252
100
AcDbLine
 10
98.061011071051
 20
31.806606253358
 30
0.0
 11
98.061011071051
 21
16.806606253358
 31
0.0
  0
TEXT
  5
29CB
330
29BF
100
AcDbEntity
  8
図枠細線
  6
CONTINUOUS
 62
   252
100
AcDbText
 10
104.216531119804
 20
14.306608253358
 30
0.0
 40
2.0
  1
ＳＣＡＬＥ
 41
0.903614457831
  7
EXCADSTD
 72
     5
 11
114.216531119804
 21
14.306608253358
 31
0.0
100
AcDbText
  0
TEXT
  5
29CC
330
29BF
100
AcDbEntity
  8
図枠細線
  6
CONTINUOUS
 62
   252
100
AcDbText
 10
98.844044119804
 20
14.306608253358
 30
0.0
 40
2.0
  1
尺度
 41
1.171875
  7
EXCADSTD
 72
     5
 11
103.844044119804
 21
14.306608253358
 31
0.0
100
AcDbText
  0
TEXT
  5
29CD
330
29BF
100
AcDbEntity
  8
図枠細線
  6
CONTINUOUS
 62
   252
100
AcDbText
 10
98.968727707497
 20
26.806608253358
 30
0.0
 40
2.0
  1
ＣＨＥＣＫＥＤ
 41
0.831249989569
  7
EXCADSTD
 72
     5
 11
112.268727540604
 21
26.806608253358
 31
0.0
100
AcDbText
  0
TEXT
  5
29CE
330
29BF
100
AcDbEntity
  8
図枠細線
  6
CONTINUOUS
 62
   252
100
AcDbText
 10
98.968727707497
 20
29.306608253358
 30
0.0
 40
2.0
  1
検図
 41
1.209677419355
  7
EXCADSTD
 72
     5
 11
103.968727707497
 21
29.306608253358
 31
0.0
100
AcDbText
  0
LINE
  5
29CF
330
29BF
100
AcDbEntity
  8
図枠細線
  6
CONTINUOUS
 62
   252
100
AcDbLine
 10
121.061011071051
 20
31.806606253358
 30
0.0
 11
121.061011071051
 21
16.806606253358
 31
0.0
  0
TEXT
  5
29D0
330
29BF
100
AcDbEntity
  8
図枠細線
  6
CONTINUOUS
 62
   252
100
AcDbText
 10
128.001465247253
 20
14.306608253358
 30
0.0
 40
2.0
  1
ＤＡＴＥ
 41
0.923076923077
  7
EXCADSTD
 72
     5
 11
136.001465247253
 21
14.306608253358
 31
0.0
100
AcDbText
  0
TEXT
  5
29D1
330
29BF
100
AcDbEntity
  8
図枠細線
  6
CONTINUOUS
 62
   252
100
AcDbText
 10
122.066415498841
 20
14.306608253358
 30
0.0
 40
2.0
  1
日付
 41
1.171875
  7
EXCADSTD
 72
     5
 11
127.066415498841
 21
14.306608253358
 31
0.0
100
AcDbText
  0
TEXT
  5
29D2
330
29BF
100
AcDbEntity
  8
図枠細線
  6
CONTINUOUS
 62
   252
100
AcDbText
 10
121.59429406571
 20
29.306608253358
 30
0.0
 40
2.0
  1
製図
 41
1.209677419355
  7
EXCADSTD
 72
     5
 11
126.59429406571
 21
29.306608253358
 31
0.0
100
AcDbText
  0
TEXT
  5
29D3
330
29BF
100
AcDbEntity
  8
図枠細線
  6
CONTINUOUS
 62
   252
100
AcDbText
 10
121.59429406571
 20
26.806608253358
 30
0.0
 40
2.0
  1
ＤＲＡＷＮ
 41
0.882352941176
  7
EXCADSTD
 72
     5
 11
131.59429406571
 21
26.806608253358
 31
0.0
100
AcDbText
  0
TEXT
  5
29D4
330
29BF
100
AcDbEntity
  8
図枠細線
  6
CONTINUOUS
 62
   252
100
AcDbText
 10
226.591229661348
 20
14.306608253358
 30
0.0
 40
2.0
  1
ＤＲＧ．ＮＯ．
 41
0.9375
  7
EXCADSTD
 72
     5
 11
240.591229661348
 21
14.306608253358
 31
0.0
100
AcDbText
  0
LINE
  5
29D5
330
29BF
100
AcDbEntity
  8
図枠太線
  6
CONTINUOUS
 62
   251
100
AcDbLine
 10
144.061003071051
 20
16.806606253358
 30
0.0
 11
214.061011071051
 21
16.806606253358
 31
0.0
  0
LINE
  5
29D6
330
29BF
100
AcDbEntity
  8
図枠細線
  6
CONTINUOUS
 62
   252
100
AcDbLine
 10
144.061011071051
 20
24.306606253358
 30
0.0
 11
214.061011071051
 21
24.306606253358
 31
0.0
  0
TEXT
  5
29D7
330
29BF
100
AcDbEntity
  8
図枠ロゴマーク
  6
CONTINUOUS
 62
   253
100
AcDbText
 10
146.433776781596
 20
8.399000253358
 30
0.0
 40
7.0
  1
東和制電工業株式会社
 41
0.80361088462
  7
EXCADSTD
 72
     5
 11
212.437017438349
 21
8.399000253358
 31
0.0
100
AcDbText
  0
TEXT
  5
29D8
330
29BF
100
AcDbEntity
  8
図枠細線
  6
CONTINUOUS
 62
   252
100
AcDbText
 10
215.156179912936
 20
14.306608253358
 30
0.0
 40
2.0
  1
図面番号
 41
1.102941176471
  7
EXCADSTD
 72
     5
 11
225.156179912936
 21
14.306608253358
 31
0.0
100
AcDbText
  0
TEXT
  5
29D9
330
29BF
100
AcDbEntity
  8
図枠細線
  6
CONTINUOUS
 62
   252
100
AcDbText
 10
221.591229661348
 20
29.306608253358
 30
0.0
 40
2.0
  1
ＴＩＴＬＥ
 41
0.903614457831
  7
EXCADSTD
 72
     5
 11
231.591229661348
 21
29.306608253358
 31
0.0
100
AcDbText
  0
TEXT
  5
29DA
330
29BF
100
AcDbEntity
  8
図枠細線
  6
CONTINUOUS
 62
   252
100
AcDbText
 10
215.156179912936
 20
29.306608253358
 30
0.0
 40
2.0
  1
名称
 41
1.171875
  7
EXCADSTD
 72
     5
 11
220.156179912936
 21
29.306608253358
 31
0.0
100
AcDbText
  0
LINE
  5
29DB
330
29BF
100
AcDbEntity
  8
図枠太線
  6
CONTINUOUS
 62
   251
100
AcDbLine
 10
4.061011071051
 20
1.806608253358
 30
0.0
 11
284.061011071051
 21
1.806608253358
 31
0.0
  0
LINE
  5
29DC
330
29BF
100
AcDbEntity
  8
図枠細線
  6
CONTINUOUS
 62
   252
100
AcDbLine
 10
4.061011071051
 20
6.806608253358
 30
0.0
 11
75.061011071051
 21
6.806608253358
 31
0.0
  0
LINE
  5
29DD
330
29BF
100
AcDbEntity
  8
図枠太線
  6
CONTINUOUS
 62
   251
100
AcDbLine
 10
75.061011071051
 20
1.806608253358
 30
0.0
 11
75.061011071051
 21
31.806606253358
 31
0.0
  0
TEXT
  5
29DE
330
29BF
100
AcDbEntity
  8
図枠細線
  6
CONTINUOUS
 62
   252
100
AcDbText
 10
76.330551827713
 20
6.638319253358
 30
0.0
 40
2.0
  1
ＰＲＯＪＥＣＴＩＯＮ
 41
0.754285710199
  7
EXCADSTD
 72
     5
 11
93.930551732346
 21
6.638319253358
 31
0.0
100
AcDbText
  0
LINE
  5
29DF
330
29BF
100
AcDbEntity
  8
図枠細線
  6
CONTINUOUS
 62
   252
100
AcDbLine
 10
98.061011071051
 20
1.806606931929
 30
0.0
 11
98.061011071051
 21
16.806604931929
 31
0.0
  0
LINE
  5
29E0
330
29BF
100
AcDbEntity
  8
図枠細線
  6
CONTINUOUS
 62
   252
100
AcDbLine
 10
121.061011071051
 20
1.806607574787
 30
0.0
 11
121.061011071051
 21
16.806605574787
 31
0.0
  0
LINE
  5
29E1
330
29BF
100
AcDbEntity
  8
図枠太線
  6
CONTINUOUS
 62
   251
100
AcDbLine
 10
284.061011071051
 20
1.806608253358
 30
0.0
 11
284.061011071051
 21
31.806606253358
 31
0.0
  0
LINE
  5
29E2
330
29BF
100
AcDbEntity
  8
図枠細線
  6
CONTINUOUS
 62
   252
100
AcDbLine
 10
214.061011071051
 20
16.806606253358
 30
0.0
 11
284.061011071051
 21
16.806606253358
 31
0.0
  0
TEXT
  5
29E3
330
29BF
100
AcDbEntity
  8
図枠細線
  6
CONTINUOUS
 62
   252
100
AcDbText
 10
146.199593676182
 20
3.454099253358
 30
0.0
 40
3.5
  1
ＴＯＷＡ　ＳＥＩＤＥＮ　ＩＮＤＵＳＴＲＩＡＬ　ＣＯ．，ＬＴＤ．
 41
0.528937826907
  7
EXCADSTD
 72
     5
 11
213.339435171588
 21
3.454099253358
 31
0.0
100
AcDbText
  0
LINE
  5
29E4
330
29BF
100
AcDbEntity
  8
図枠太線
  6
CONTINUOUS
 62
   251
100
AcDbLine
 10
144.061011071051
 20
1.806608253358
 30
0.0
 11
144.061011071051
 21
31.806606253358
 31
0.0
  0
LINE
  5
29E5
330
29BF
100
AcDbEntity
  8
図枠太線
  6
CONTINUOUS
 62
   251
100
AcDbLine
 10
214.061011071051
 20
1.806608253358
 30
0.0
 11
214.061011071051
 21
31.806606253358
 31
0.0
  0
MTEXT
  5
29E6
330
29BF
100
AcDbEntity
  8
図枠太線
100
AcDbMText
 10
5.064337346478
 20
31.010982137407
 30
0.0
 40
2.5
 41
8.67856098472
 71
     1
 72
     5
  1
{\Fmonotxt.shx,bigfont.shx|c128;図暦}
  0
LINE
  5
29E7
330
29BF
100
AcDbEntity
  8
図枠太線
  6
CONTINUOUS
 62
   251
100
AcDbLine
 10
4.061011071051
 20
1.806608253358
 30
0.0
 11
4.061011071051
 21
31.806606253358
 31
0.0
  0
TEXT
  5
29E8
330
29BF
100
AcDbEntity
  8
図枠細線
 48
10.0
100
AcDbText
 10
12.260817420402
 20
28.625419626495
 30
0.0
 40
2.0
  1
CHANGE NOTICE
100
AcDbText
  0
ENDBLK
  5
29E9
330
29BF
100
AcDbEntity
  8
0
100
AcDbBlockEnd
  0
BLOCK
  5
29F5
330
29F4
100
AcDbEntity
  8
0
100
AcDbBlockBegin
  2
A4縦用_タイトル
 70
     0
 10
0.0
 20
0.0
 30
0.0
  3
A4縦用_タイトル
  1
A4縦用_タイトル
  0
LINE
  5
29F6
330
29F4
100
AcDbEntity
  8
図枠太線
  6
CONTINUOUS
 62
   251
100
AcDbLine
 10
2.368253864267
 20
4.525433224584
 30
0.0
 11
192.368245864267
 21
4.525433224584
 31
0.0
  0
LINE
  5
29F7
330
29F4
100
AcDbEntity
  8
図枠太線
  6
CONTINUOUS
 62
   251
100
AcDbLine
 10
78.368245864267
 20
19.525431224584
 30
0.0
 11
135.368253864267
 21
19.525431224584
 31
0.0
  0
LINE
  5
29F8
330
29F4
100
AcDbEntity
  8
図枠細線
  6
CONTINUOUS
 62
   252
100
AcDbLine
 10
78.368253864267
 20
27.025431224584
 30
0.0
 11
135.368253864267
 21
27.025431224584
 31
0.0
  0
TEXT
  5
29F9
330
29F4
100
AcDbEntity
  8
図枠ロゴマーク
  6
CONTINUOUS
 62
   253
100
AcDbText
 10
80.617009864267
 20
11.117825224584
 30
0.0
 40
7.0
  1
東和制電工業株式会社
 41
0.639204545455
  7
EXCADSTD
 72
     5
 11
133.117009864267
 21
11.117825224584
 31
0.0
100
AcDbText
  0
TEXT
  5
29FA
330
29F4
100
AcDbEntity
  8
図枠細線
  6
CONTINUOUS
 62
   252
100
AcDbText
 10
80.579549864267
 20
6.172924224584
 30
0.0
 40
3.5
  1
ＴＯＷＡ　ＳＥＩＤＥＮ　ＩＮＤＵＳＴＲＩＡＬ　ＣＯ．，ＬＴＤ．
 41
0.414568012377
  7
EXCADSTD
 72
     5
 11
133.202049568628
 21
6.172924224584
 31
0.0
100
AcDbText
  0
LINE
  5
29FB
330
29F4
100
AcDbEntity
  8
図枠太線
  6
CONTINUOUS
 62
   251
100
AcDbLine
 10
2.368253864267
 20
4.525433224584
 30
0.0
 11
2.368253864267
 21
34.525431224584
 31
0.0
  0
TEXT
  5
29FC
330
29F4
100
AcDbEntity
  8
図枠細線
  6
CONTINUOUS
 62
   252
100
AcDbText
 10
22.504308136501
 20
12.279133224584
 30
0.0
 40
2.0
  1
ＴＨＩＲＤ　ＡＮＧＬＥ
 41
0.691099486738
  7
EXCADSTD
 72
     5
 11
40.104308398762
 21
12.279133224584
 31
0.0
100
AcDbText
  0
TEXT
  5
29FD
330
29F4
100
AcDbEntity
  8
図枠細線
  6
CONTINUOUS
 62
   252
100
AcDbText
 10
22.429384136501
 20
9.357144224584
 30
0.0
 40
2.0
  1
ＰＲＯＪＥＣＴＩＯＮ
 41
0.754285710199
  7
EXCADSTD
 72
     5
 11
40.029384041134
 21
9.357144224584
 31
0.0
100
AcDbText
  0
LINE
  5
29FE
330
29F4
100
AcDbEntity
  8
図枠細線
  6
CONTINUOUS
100
AcDbLine
 10
22.368253864267
 20
19.525433224584
 30
0.0
 11
78.368253864267
 21
19.525431224584
 31
0.0
  0
TEXT
  5
29FF
330
29F4
100
AcDbEntity
  8
図枠細線
  6
CONTINUOUS
 62
   252
100
AcDbText
 10
22.868253864267
 20
17.025433224584
 30
0.0
 40
2.0
  1
第三角法
 41
1.102941176471
  7
EXCADSTD
 72
     5
 11
32.868253864267
 21
17.025433224584
 31
0.0
100
AcDbText
  0
TEXT
  5
2A00
330
29F4
100
AcDbEntity
  8
図枠細線
  6
CONTINUOUS
 62
   252
100
AcDbText
 10
22.868253864267
 20
29.525433224584
 30
0.0
 40
2.0
  1
ＡＰＰＲＯＶＥＤ
 41
0.695652184279
  7
EXCADSTD
 72
     5
 11
35.668254055002
 21
29.525433224584
 31
0.0
100
AcDbText
  0
LINE
  5
2A01
330
29F4
100
AcDbEntity
  8
図枠細線
  6
CONTINUOUS
 62
   252
100
AcDbLine
 10
2.368253864267
 20
9.525433224584
 30
0.0
 11
22.368253864267
 21
9.525433224584
 31
0.0
  0
LINE
  5
2A02
330
29F4
100
AcDbEntity
  8
図枠細線
  6
CONTINUOUS
 62
   252
100
AcDbLine
 10
2.368253864267
 20
14.525431224584
 30
0.0
 11
22.368253864267
 21
14.525431224584
 31
0.0
  0
LINE
  5
2A03
330
29F4
100
AcDbEntity
  8
図枠細線
  6
CONTINUOUS
 62
   252
100
AcDbLine
 10
2.368253864267
 20
24.525431224584
 30
0.0
 11
22.368253864267
 21
24.525431224584
 31
0.0
  0
LINE
  5
2A04
330
29F4
100
AcDbEntity
  8
図枠細線
  6
CONTINUOUS
 62
   252
100
AcDbLine
 10
2.368253864267
 20
29.525431224584
 30
0.0
 11
22.368253864267
 21
29.525431224584
 31
0.0
  0
LINE
  5
2A05
330
29F4
100
AcDbEntity
  8
図枠細線
  6
CONTINUOUS
100
AcDbLine
 10
2.368253864267
 20
19.525433224584
 30
0.0
 11
22.368253864267
 21
19.525433224584
 31
0.0
  0
TEXT
  5
2A06
330
29F4
100
AcDbEntity
  8
図枠細線
  6
CONTINUOUS
 62
   252
100
AcDbText
 10
2.868253864267
 20
32.025433224584
 30
0.0
 40
2.0
  1
ＮＯＴＥ
 41
0.923076923077
  7
EXCADSTD
 72
     5
 11
10.868253864267
 21
32.025433224584
 31
0.0
100
AcDbText
  0
LINE
  5
2A07
330
29F4
100
AcDbEntity
  8
図枠太線
  6
CONTINUOUS
 62
   251
100
AcDbLine
 10
22.368253864267
 20
4.525433224584
 30
0.0
 11
22.368253864267
 21
34.525431224584
 31
0.0
  0
TEXT
  5
2A08
330
29F4
100
AcDbEntity
  8
図枠細線
  6
CONTINUOUS
 62
   252
100
AcDbText
 10
22.868253864267
 20
32.025433224584
 30
0.0
 40
2.0
  1
承認
 41
1.171875
  7
EXCADSTD
 72
     5
 11
27.868253864267
 21
32.025433224584
 31
0.0
100
AcDbText
  0
TEXT
  5
2A09
330
29F4
100
AcDbEntity
  8
図枠細線
  6
CONTINUOUS
 62
   252
100
AcDbText
 10
60.711709035982
 20
32.025433224584
 30
0.0
 40
2.0
  1
製図
 41
1.209677419355
  7
EXCADSTD
 72
     5
 11
65.711709035982
 21
32.025433224584
 31
0.0
100
AcDbText
  0
TEXT
  5
2A0A
330
29F4
100
AcDbEntity
  8
図枠細線
  6
CONTINUOUS
 62
   252
100
AcDbText
 10
60.711709035982
 20
29.525433224584
 30
0.0
 40
2.0
  1
ＤＲＡＷＮ
 41
0.882352941176
  7
EXCADSTD
 72
     5
 11
70.711709035982
 21
29.525433224584
 31
0.0
100
AcDbText
  0
TEXT
  5
2A0B
330
29F4
100
AcDbEntity
  8
図枠細線
  6
CONTINUOUS
 62
   252
100
AcDbText
 10
60.834891743877
 20
17.025433224584
 30
0.0
 40
2.0
  1
日付
 41
1.171875
  7
EXCADSTD
 72
     5
 11
65.834891743877
 21
17.025433224584
 31
0.0
100
AcDbText
  0
TEXT
  5
2A0C
330
29F4
100
AcDbEntity
  8
図枠細線
  6
CONTINUOUS
 62
   252
100
AcDbText
 10
47.333660864267
 20
17.025433224584
 30
0.0
 40
2.0
  1
ＳＣＡＬＥ
 41
0.903614457831
  7
EXCADSTD
 72
     5
 11
57.333660864267
 21
17.025433224584
 31
0.0
100
AcDbText
  0
TEXT
  5
2A0D
330
29F4
100
AcDbEntity
  8
図枠細線
  6
CONTINUOUS
 62
   252
100
AcDbText
 10
42.281425990082
 20
29.525433224584
 30
0.0
 40
2.0
  1
ＣＨＥＣＫＥＤ
 41
0.831249989569
  7
EXCADSTD
 72
     5
 11
55.581425823189
 21
29.525433224584
 31
0.0
100
AcDbText
  0
LINE
  5
2A0E
330
29F4
100
AcDbEntity
  8
図枠細線
  6
CONTINUOUS
 62
   252
100
AcDbLine
 10
40.968253864267
 20
34.525431224584
 30
0.0
 11
40.968253864267
 21
19.525431224584
 31
0.0
  0
LINE
  5
2A0F
330
29F4
100
AcDbEntity
  8
図枠細線
  6
CONTINUOUS
 62
   252
100
AcDbLine
 10
40.968253864267
 20
4.525433224584
 30
0.0
 11
40.968253864267
 21
19.525431224584
 31
0.0
  0
TEXT
  5
2A10
330
29F4
100
AcDbEntity
  8
図枠細線
  6
CONTINUOUS
 62
   252
100
AcDbText
 10
41.961173864267
 20
17.025433224584
 30
0.0
 40
2.0
  1
尺度
 41
1.171875
  7
EXCADSTD
 72
     5
 11
46.961173864267
 21
17.025433224584
 31
0.0
100
AcDbText
  0
TEXT
  5
2A11
330
29F4
100
AcDbEntity
  8
図枠細線
  6
CONTINUOUS
 62
   252
100
AcDbText
 10
42.281425990082
 20
32.025433224584
 30
0.0
 40
2.0
  1
検図
 41
1.209677419355
  7
EXCADSTD
 72
     5
 11
47.281425990082
 21
32.025433224584
 31
0.0
100
AcDbText
  0
LINE
  5
2A12
330
29F4
100
AcDbEntity
  8
図枠細線
  6
CONTINUOUS
 62
   252
100
AcDbLine
 10
59.768253864267
 20
34.525431224584
 30
0.0
 11
59.768253864267
 21
19.525431224584
 31
0.0
  0
LINE
  5
2A13
330
29F4
100
AcDbEntity
  8
図枠細線
  6
CONTINUOUS
 62
   252
100
AcDbLine
 10
59.768253864267
 20
4.525433224584
 30
0.0
 11
59.768253864267
 21
19.525431224584
 31
0.0
  0
LINE
  5
2A14
330
29F4
100
AcDbEntity
  8
図枠太線
  6
CONTINUOUS
 62
   251
100
AcDbLine
 10
78.368253864267
 20
4.525433224584
 30
0.0
 11
78.368253864267
 21
34.525431224584
 31
0.0
  0
TEXT
  5
2A15
330
29F4
100
AcDbEntity
  8
図枠細線
  6
CONTINUOUS
 62
   252
100
AcDbText
 10
66.334891743877
 20
17.025433224584
 30
0.0
 40
2.0
  1
ＤＡＴＥ
 41
0.923076923077
  7
EXCADSTD
 72
     5
 11
74.334891743877
 21
17.025433224584
 31
0.0
100
AcDbText
  0
LINE
  5
2A16
330
29F4
100
AcDbEntity
  8
図枠細線
  6
CONTINUOUS
 62
   252
100
AcDbLine
 10
135.368253864267
 20
19.525431224584
 30
0.0
 11
192.368245864267
 21
19.525431224584
 31
0.0
  0
TEXT
  5
2A17
330
29F4
100
AcDbEntity
  8
図枠細線
  6
CONTINUOUS
 62
   252
100
AcDbText
 10
141.868253864267
 20
32.025433224584
 30
0.0
 40
2.0
  1
ＴＩＴＬＥ
 41
0.903614457831
  7
EXCADSTD
 72
     5
 11
151.868253864267
 21
32.025433224584
 31
0.0
100
AcDbText
  0
LINE
  5
2A18
330
29F4
100
AcDbEntity
  8
図枠太線
  6
CONTINUOUS
 62
   251
100
AcDbLine
 10
135.368253864267
 20
4.525433224584
 30
0.0
 11
135.368253864267
 21
34.525431224584
 31
0.0
  0
TEXT
  5
2A19
330
29F4
100
AcDbEntity
  8
図枠細線
  6
CONTINUOUS
 62
   252
100
AcDbText
 10
135.868253864267
 20
17.025433224584
 30
0.0
 40
2.0
  1
図面番号
 41
1.102941176471
  7
EXCADSTD
 72
     5
 11
145.868253864267
 21
17.025433224584
 31
0.0
100
AcDbText
  0
TEXT
  5
2A1A
330
29F4
100
AcDbEntity
  8
図枠細線
  6
CONTINUOUS
 62
   252
100
AcDbText
 10
135.868253864267
 20
32.025433224584
 30
0.0
 40
2.0
  1
名称
 41
1.171875
  7
EXCADSTD
 72
     5
 11
140.868253864267
 21
32.025433224584
 31
0.0
100
AcDbText
  0
TEXT
  5
2A1B
330
29F4
100
AcDbEntity
  8
図枠細線
  6
CONTINUOUS
 62
   252
100
AcDbText
 10
146.868253864267
 20
17.025433224584
 30
0.0
 40
2.0
  1
ＤＲＧ．ＮＯ．
 41
0.9375
  7
EXCADSTD
 72
     5
 11
160.868253864267
 21
17.025433224584
 31
0.0
100
AcDbText
  0
LINE
  5
2A1C
330
29F4
100
AcDbEntity
  8
図枠太線
  6
CONTINUOUS
 62
   251
100
AcDbLine
 10
192.368245864267
 20
4.525433224584
 30
0.0
 11
192.368245864267
 21
34.525431224584
 31
0.0
  0
ENDBLK
  5
2A1D
330
29F4
100
AcDbEntity
  8
0
100
AcDbBlockEnd
  0
BLOCK
  5
2A33
330
2A32
100
AcDbEntity
  8
0
100
AcDbBlockBegin
  2
A3横用_タイトル
 70
     0
 10
0.0
 20
0.0
 30
0.0
  3
A3横用_タイトル
  1
A3横用_タイトル
  0
LINE
  5
2A34
330
2A32
100
AcDbEntity
  8
図枠細線
  6
CONTINUOUS
 62
   252
100
AcDbLine
 10
205.098414535793
 20
33.525959753527
 30
0.0
 11
305.098414535793
 21
33.525959753527
 31
0.0
  0
LINE
  5
2A35
330
2A32
100
AcDbEntity
  8
図枠太線
  6
CONTINUOUS
 62
   251
100
AcDbLine
 10
205.098414535793
 20
23.525959753527
 30
0.0
 11
305.098414535793
 21
23.525959753527
 31
0.0
  0
LINE
  5
2A36
330
2A32
100
AcDbEntity
  8
図枠細線
  6
CONTINUOUS
100
AcDbLine
 10
5.098414535793
 20
23.525959753527
 30
0.0
 11
105.098414535793
 21
23.525959753527
 31
0.0
  0
LINE
  5
2A37
330
2A32
100
AcDbEntity
  8
図枠細線
  6
CONTINUOUS
 62
   252
100
AcDbLine
 10
5.098414535793
 20
36.725957753527
 30
0.0
 11
105.098414535793
 21
36.725957753527
 31
0.0
  0
LINE
  5
2A38
330
2A32
100
AcDbEntity
  8
図枠細線
  6
CONTINUOUS
 62
   252
100
AcDbLine
 10
5.098414535793
 20
30.125957753527
 30
0.0
 11
105.098414535793
 21
30.125957753527
 31
0.0
  0
LINE
  5
2A39
330
2A32
100
AcDbEntity
  8
図枠細線
  6
CONTINUOUS
 62
   252
100
AcDbLine
 10
5.098414535793
 20
16.725959753527
 30
0.0
 11
105.098414535793
 21
16.725959753527
 31
0.0
  0
LINE
  5
2A3A
330
2A32
100
AcDbEntity
  8
図枠細線
  6
CONTINUOUS
 62
   252
100
AcDbLine
 10
5.098414535793
 20
10.125959753527
 30
0.0
 11
105.098414535793
 21
10.125959753527
 31
0.0
  0
LINE
  5
2A3B
330
2A32
100
AcDbEntity
  8
図枠細線
  6
CONTINUOUS
100
AcDbLine
 10
105.098414535793
 20
23.525961753527
 30
0.0
 11
205.098414535793
 21
23.525959753527
 31
0.0
  0
LINE
  5
2A3C
330
2A32
100
AcDbEntity
  8
図枠細線
  6
CONTINUOUS
 62
   252
100
AcDbLine
 10
138.398414535793
 20
43.525959753527
 30
0.0
 11
138.398414535793
 21
18.525957753527
 31
0.0
  0
LINE
  5
2A3D
330
2A32
100
AcDbEntity
  8
図枠細線
  6
CONTINUOUS
 62
   252
100
AcDbLine
 10
171.698414535793
 20
43.525959753527
 30
0.0
 11
171.698414535793
 21
18.525957753527
 31
0.0
  0
LINE
  5
2A3E
330
2A32
100
AcDbEntity
  8
図枠細線
  6
CONTINUOUS
 62
   252
100
AcDbLine
 10
305.098414535793
 20
23.525959753527
 30
0.0
 11
405.098414535793
 21
23.525959753527
 31
0.0
  0
TEXT
  5
2A3F
330
2A32
100
AcDbEntity
  8
図枠ロゴマーク
  6
CONTINUOUS
 62
   253
100
AcDbText
 10
206.102509212755
 20
13.294257570546
 30
0.0
 40
7.0
  1
東和制電工業株式会社
 50
0.016555220185
 41
1.186384129432
  7
EXCADSTD
 72
     5
 11
303.544188309143
 21
13.322412672217
 31
0.0
100
AcDbText
  0
MTEXT
  5
2A40
330
2A32
100
AcDbEntity
  8
図枠細線
100
AcDbMText
 10
6.356764112375
 20
41.976594175478
 30
0.0
 40
2.5
 41
49.938282706292
 71
     1
 72
     5
  1
{\Fmonotxt.shx,bigfont.shx|c128;図暦　CHANGE　NOTICE}
  0
MTEXT
  5
2A41
330
2A32
100
AcDbEntity
  8
図枠細線
 48
10.0
100
AcDbMText
 10
306.544114926828
 20
41.701835800934
 30
0.0
 40
2.5
 41
28.002809618823
 71
     1
 72
     5
  1
{\Fmonotxt.shx,bigfont.shx|c128;名称　TITLE}
  0
MTEXT
  5
2A42
330
2A32
100
AcDbEntity
  8
図枠細線
 48
10.0
100
AcDbMText
 10
307.329617114284
 20
21.606206797226
 30
0.0
 40
2.5
 41
24.385612216707
 71
     1
 72
     5
  1
{\Fmonotxt.shx,bigfont.shx|c128;図面番号\PDRG.　No.}
  0
MTEXT
  5
2A43
330
2A32
100
AcDbEntity
  8
図枠細線
 48
10.0
100
AcDbMText
 10
173.726349404609
 20
21.73680662198
 30
0.0
 40
2.5
 41
25.735090160813
 71
     1
 72
     5
  1
{\Fmonotxt.shx,bigfont.shx|c128;日付 DATE}
  0
MTEXT
  5
2A44
330
2A32
100
AcDbEntity
  8
図枠細線
 48
10.0
100
AcDbMText
 10
173.48708833982
 20
41.621592044998
 30
0.0
 40
2.5
 41
24.983741184205
 71
     1
 72
     5
  1
{\Fmonotxt.shx,bigfont.shx|c128;製図　DRAWN}
  0
MTEXT
  5
2A45
330
2A32
100
AcDbEntity
  8
図枠細線
 48
10.0
100
AcDbMText
 10
139.28009927741
 20
21.866713069868
 30
0.0
 40
2.5
 41
22.629632913243
 71
     1
 72
     5
  1
{\Fmonotxt.shx,bigfont.shx|c128;尺度　SCALE}
  0
MTEXT
  5
2A46
330
2A32
100
AcDbEntity
  8
図枠細線
 48
10.0
100
AcDbMText
 10
139.910091179835
 20
41.311840415554
 30
0.0
 40
2.5
 41
28.998753428368
 71
     1
 72
     5
  1
{\Fmonotxt.shx,bigfont.shx|c128;検図  CHECKED}
  0
MTEXT
  5
2A47
330
2A32
100
AcDbEntity
  8
図枠細線
 48
10.0
100
AcDbMText
 10
114.253294667728
 20
21.916124850174
 30
0.0
 40
3.0
 41
19.692400475383
 71
     1
 72
     5
  1
{\Fmonotxt.shx,bigfont.shx|c128;第三角法}
  0
MTEXT
  5
2A48
330
2A32
100
AcDbEntity
  8
図枠細線
 48
10.0
100
AcDbMText
 10
108.986959929915
 20
15.282880185837
 30
0.0
 40
2.5
 41
27.954882823547
 71
     1
 72
     5
  1
{\Fmonotxt.shx,bigfont.shx|c128;THIRD ANGLE\PPROJECTION}
  0
MTEXT
  5
2A49
330
2A32
100
AcDbEntity
  8
図枠細線
 48
10.0
100
AcDbMText
 10
106.319432640184
 20
41.511437145487
 30
0.0
 40
2.5
 41
28.233595265074
 71
     1
 72
     5
  1
{\Fmonotxt.shx,bigfont.shx|c128;承認 APPROVED}
  0
LINE
  5
2A4A
330
2A32
100
AcDbEntity
  8
図枠太線
  6
CONTINUOUS
 62
   251
100
AcDbLine
 10
5.098414535793
 20
3.525959753527
 30
0.0
 11
405.098414535793
 21
3.525959753527
 31
0.0
  0
LINE
  5
2A4B
330
2A32
100
AcDbEntity
  8
図枠太線
 48
10.0
100
AcDbLine
 10
5.098414535793
 20
3.525959753527
 30
0.0
 11
5.098414535793
 21
43.525959753527
 31
0.0
  0
LINE
  5
2A4C
330
2A32
100
AcDbEntity
  8
図枠太線
  6
CONTINUOUS
 62
   251
100
AcDbLine
 10
105.098414535793
 20
3.525959753527
 30
0.0
 11
105.098414535793
 21
43.525959753527
 31
0.0
  0
LINE
  5
2A4D
330
2A32
100
AcDbEntity
  8
図枠細線
  6
CONTINUOUS
 62
   252
100
AcDbLine
 10
138.398414535793
 20
3.525959753527
 30
0.0
 11
138.398414535793
 21
18.525957753527
 31
0.0
  0
LINE
  5
2A4E
330
2A32
100
AcDbEntity
  8
図枠細線
  6
CONTINUOUS
 62
   252
100
AcDbLine
 10
171.698414535793
 20
3.525959753527
 30
0.0
 11
171.698414535793
 21
18.525957753527
 31
0.0
  0
LINE
  5
2A4F
330
2A32
100
AcDbEntity
  8
図枠太線
  6
CONTINUOUS
 62
   251
100
AcDbLine
 10
205.098414535793
 20
3.525959753527
 30
0.0
 11
205.098414535793
 21
43.525959753527
 31
0.0
  0
LINE
  5
2A50
330
2A32
100
AcDbEntity
  8
図枠太線
 48
10.0
100
AcDbLine
 10
405.098414535793
 20
43.525959753527
 30
0.0
 11
405.098414535793
 21
3.525959753527
 31
0.0
  0
TEXT
  5
2A51
330
2A32
100
AcDbEntity
  8
図枠細線
  6
CONTINUOUS
 62
   252
100
AcDbText
 10
208.519754474572
 20
6.482358407285
 30
0.0
 40
3.5
  1
ＴＯＷＡ　ＳＥＩＤＥＮ　ＩＮＤＵＳＴＲＩＡＬ　ＣＯ．，ＬＴＤ．
 41
0.746656297509
  7
EXCADSTD
 72
     5
 11
303.295327171727
 21
6.482358407285
 31
0.0
100
AcDbText
  0
LINE
  5
2A52
330
2A32
100
AcDbEntity
  8
図枠太線
  6
CONTINUOUS
 62
   251
100
AcDbLine
 10
305.098414535793
 20
3.525959753527
 30
0.0
 11
305.098414535793
 21
43.525959753527
 31
0.0
  0
ENDBLK
  5
2A53
330
2A32
100
AcDbEntity
  8
0
100
AcDbBlockEnd
  0
BLOCK
  5
2A6D
330
2A6C
100
AcDbEntity
  8
0
100
AcDbBlockBegin
  2
A3縦用_タイトル
 70
     0
 10
0.0
 20
0.0
 30
0.0
  3
A3縦用_タイトル
  1
A3縦用_タイトル
  0
MTEXT
  5
2A6E
330
2A6C
100
AcDbEntity
  8
図枠細線
100
AcDbMText
 10
5.040804501593
 20
31.626098649005
 30
0.0
 40
2.5
 41
49.938282706292
 71
     1
 72
     5
  1
{\Fmonotxt.shx,bigfont.shx|c128;図暦　CHANGE　NOTICE}
  0
LINE
  5
2A6F
330
2A6C
100
AcDbEntity
  8
図枠太線
  6
CONTINUOUS
 62
   251
100
AcDbLine
 10
283.577871882961
 20
2.820844689254
 30
0.0
 11
283.577871882961
 21
32.820842689254
 31
0.0
  0
MTEXT
  5
2A70
330
2A6C
100
AcDbEntity
  8
図枠細線
 48
10.0
100
AcDbMText
 10
214.912458947454
 20
31.621488632308
 30
0.0
 40
2.5
 41
28.002809618823
 71
     1
 72
     5
  1
{\Fmonotxt.shx,bigfont.shx|c128;名称　TITLE}
  0
MTEXT
  5
2A71
330
2A6C
100
AcDbEntity
  8
図枠細線
 48
10.0
100
AcDbMText
 10
214.740030458938
 20
16.310225796722
 30
0.0
 40
2.5
 41
24.385612216707
 71
     1
 72
     5
  1
{\Fmonotxt.shx,bigfont.shx|c128;図面番号\PDRG.　No.}
  0
LINE
  5
2A72
330
2A6C
100
AcDbEntity
  8
図枠太線
  6
CONTINUOUS
 62
   251
100
AcDbLine
 10
213.577871882961
 20
2.820844689254
 30
0.0
 11
213.577871882961
 21
32.820842689254
 31
0.0
  0
LINE
  5
2A73
330
2A6C
100
AcDbEntity
  8
図枠太線
  6
CONTINUOUS
 62
   251
100
AcDbLine
 10
143.577871882961
 20
2.820844689254
 30
0.0
 11
143.577871882961
 21
32.820842689254
 31
0.0
  0
TEXT
  5
2A74
330
2A6C
100
AcDbEntity
  8
図枠細線
  6
CONTINUOUS
 62
   252
100
AcDbText
 10
145.716454488093
 20
4.468335689254
 30
0.0
 40
3.5
  1
ＴＯＷＡ　ＳＥＩＤＥＮ　ＩＮＤＵＳＴＲＩＡＬ　ＣＯ．，ＬＴＤ．
 41
0.528937826907
  7
EXCADSTD
 72
     5
 11
212.856295983498
 21
4.468335689254
 31
0.0
100
AcDbText
  0
TEXT
  5
2A75
330
2A6C
100
AcDbEntity
  8
図枠ロゴマーク
  6
CONTINUOUS
 62
   253
100
AcDbText
 10
145.950637593507
 20
9.413236689254
 30
0.0
 40
7.0
  1
東和制電工業株式会社
 41
0.80361088462
  7
EXCADSTD
 72
     5
 11
211.953878250259
 21
9.413236689254
 31
0.0
100
AcDbText
  0
LINE
  5
2A76
330
2A6C
100
AcDbEntity
  8
図枠細線
  6
CONTINUOUS
 62
   252
100
AcDbLine
 10
143.577871882961
 20
25.320842689254
 30
0.0
 11
213.577871882961
 21
25.320842689254
 31
0.0
  0
LINE
  5
2A77
330
2A6C
100
AcDbEntity
  8
図枠太線
  6
CONTINUOUS
 62
   251
100
AcDbLine
 10
143.577863882961
 20
17.820842689254
 30
0.0
 11
213.577871882961
 21
17.820842689254
 31
0.0
  0
LINE
  5
2A78
330
2A6C
100
AcDbEntity
  8
図枠細線
  6
CONTINUOUS
 62
   252
100
AcDbLine
 10
213.577871882961
 20
17.820842689254
 30
0.0
 11
283.577871882961
 21
17.820842689254
 31
0.0
  0
LINE
  5
2A79
330
2A6C
100
AcDbEntity
  8
図枠細線
  6
CONTINUOUS
 62
   252
100
AcDbLine
 10
120.577871882961
 20
32.820842689254
 30
0.0
 11
120.577871882961
 21
17.820842689254
 31
0.0
  0
MTEXT
  5
2A7A
330
2A6C
100
AcDbEntity
  8
図枠細線
 48
10.0
100
AcDbMText
 10
121.100885670352
 20
16.33785922638
 30
0.0
 40
2.0
 41
17.705978285068
 71
     1
 72
     5
  1
{\Fmonotxt.shx,bigfont.shx|c128;日付 DATE}
  0
MTEXT
  5
2A7B
330
2A6C
100
AcDbEntity
  8
図枠細線
 48
10.0
100
AcDbMText
 10
121.254842273491
 20
31.208993514037
 30
0.0
 40
2.0
 41
18.363799568758
 71
     1
 72
     5
  1
{\Fmonotxt.shx,bigfont.shx|c128;製図　DRAWN}
  0
LINE
  5
2A7C
330
2A6C
100
AcDbEntity
  8
図枠細線
  6
CONTINUOUS
 62
   252
100
AcDbLine
 10
97.577871882961
 20
32.820842689254
 30
0.0
 11
97.577871882961
 21
17.820842689254
 31
0.0
  0
MTEXT
  5
2A7D
330
2A6C
100
AcDbEntity
  8
図枠細線
 48
10.0
100
AcDbMText
 10
98.239734796872
 20
16.467764839281
 30
0.0
 40
2.0
 41
17.757791689903
 71
     1
 72
     5
  1
{\Fmonotxt.shx,bigfont.shx|c128;尺度　SCALE}
  0
MTEXT
  5
2A7E
330
2A6C
100
AcDbEntity
  8
図枠細線
 48
10.0
100
AcDbMText
 10
97.864744625154
 20
31.298433377664
 30
0.0
 40
2.0
 41
23.162655920976
 71
     1
 72
     5
  1
{\Fmonotxt.shx,bigfont.shx|c128;検図  CHECKED}
  0
LINE
  5
2A7F
330
2A6C
100
AcDbEntity
  8
図枠細線
  6
CONTINUOUS
 62
   252
100
AcDbLine
 10
97.577871882961
 20
2.820843367826
 30
0.0
 11
97.577871882961
 21
17.820841367826
 31
0.0
  0
LINE
  5
2A80
330
2A6C
100
AcDbEntity
  8
図枠細線
  6
CONTINUOUS
 62
   252
100
AcDbLine
 10
120.577871882961
 20
2.820844010683
 30
0.0
 11
120.577871882961
 21
17.820842010683
 31
0.0
  0
MTEXT
  5
2A81
330
2A6C
100
AcDbEntity
  8
図枠細線
 48
10.0
100
AcDbMText
 10
81.402399084102
 20
16.316484117426
 30
0.0
 40
2.0
 41
12.920322819369
 71
     1
 72
     5
  1
{\Fmonotxt.shx,bigfont.shx|c128;第三角法}
  0
MTEXT
  5
2A82
330
2A6C
100
AcDbEntity
  8
図枠細線
 48
10.0
100
AcDbMText
 10
75.736576535096
 20
11.080410931319
 30
0.0
 40
2.0
 41
21.072870671471
 71
     1
 72
     5
  1
{\Fmonotxt.shx,bigfont.shx|c128;THIRD ANGLE\PPROJECTION}
  0
LINE
  5
2A83
330
2A6C
100
AcDbEntity
  8
図枠太線
  6
CONTINUOUS
 62
   251
100
AcDbLine
 10
74.577871882961
 20
2.820844689254
 30
0.0
 11
74.577871882961
 21
32.820842689254
 31
0.0
  0
MTEXT
  5
2A84
330
2A6C
100
AcDbEntity
  8
図枠細線
 48
10.0
100
AcDbMText
 10
75.060214781573
 20
31.298434778555
 30
0.0
 40
2.0
 41
22.240928805967
 71
     1
 72
     5
  1
{\Fmonotxt.shx,bigfont.shx|c128;承認 APPROVED}
  0
LINE
  5
2A85
330
2A6C
100
AcDbEntity
  8
図枠細線
  6
CONTINUOUS
100
AcDbLine
 10
3.577871882961
 20
17.820844689254
 30
0.0
 11
74.577871882961
 21
17.820844689254
 31
0.0
  0
LINE
  5
2A86
330
2A6C
100
AcDbEntity
  8
図枠細線
  6
CONTINUOUS
 62
   252
100
AcDbLine
 10
3.577871882961
 20
27.820842689254
 30
0.0
 11
74.577871882961
 21
27.820842689254
 31
0.0
  0
LINE
  5
2A87
330
2A6C
100
AcDbEntity
  8
図枠細線
  6
CONTINUOUS
 62
   252
100
AcDbLine
 10
3.577871882961
 20
22.820842689254
 30
0.0
 11
74.577871882961
 21
22.820842689254
 31
0.0
  0
LINE
  5
2A88
330
2A6C
100
AcDbEntity
  8
図枠細線
  6
CONTINUOUS
 62
   252
100
AcDbLine
 10
3.577871882961
 20
12.820842689254
 30
0.0
 11
74.577871882961
 21
12.820842689254
 31
0.0
  0
LINE
  5
2A89
330
2A6C
100
AcDbEntity
  8
図枠細線
  6
CONTINUOUS
 62
   252
100
AcDbLine
 10
3.577871882961
 20
7.820844689254
 30
0.0
 11
74.577871882961
 21
7.820844689254
 31
0.0
  0
LINE
  5
2A8A
330
2A6C
100
AcDbEntity
  8
図枠細線
  6
CONTINUOUS
100
AcDbLine
 10
74.577871882961
 20
17.820843689254
 30
0.0
 11
143.577871882961
 21
17.820841224969
 31
0.0
  0
LINE
  5
2A8B
330
2A6C
100
AcDbEntity
  8
図枠太線
  6
CONTINUOUS
 62
   251
100
AcDbLine
 10
3.577871882961
 20
2.820844689254
 30
0.0
 11
283.577871882961
 21
2.820844689254
 31
0.0
  0
LINE
  5
2A8C
330
2A6C
100
AcDbEntity
  8
図枠太線
  6
CONTINUOUS
 62
   251
100
AcDbLine
 10
3.577871882961
 20
2.820844689254
 30
0.0
 11
3.577871882961
 21
32.820842689254
 31
0.0
  0
ENDBLK
  5
2A8D
330
2A6C
100
AcDbEntity
  8
0
100
AcDbBlockEnd
  0
BLOCK
  5
2AF8
330
2AF4
100
AcDbEntity
  8
0
 48
10.0
100
AcDbBlockBegin
  2
_OPEN30
 70
     0
 10
0.0
 20
0.0
 30
0.0
  3
_OPEN30
  1
_OPEN30
  0
LINE
  5
2AF5
330
2AF4
100
AcDbEntity
  8
0
  6
BYBLOCK
 62
     0
100
AcDbLine
 10
-1.0
 20
0.26794919
 30
0.0
 11
0.0
 21
0.0
 31
0.0
  0
LINE
  5
2AF6
330
2AF4
100
AcDbEntity
  8
0
  6
BYBLOCK
 62
     0
100
AcDbLine
 10
0.0
 20
0.0
 30
0.0
 11
-1.0
 21
-0.26794919
 31
0.0
  0
LINE
  5
2AF7
330
2AF4
100
AcDbEntity
  8
0
  6
BYBLOCK
 62
     0
100
AcDbLine
 10
0.0
 20
0.0
 30
0.0
 11
-1.0
 21
0.0
 31
0.0
  0
ENDBLK
  5
2AF9
330
2AF4
100
AcDbEntity
  8
0
 48
10.0
100
AcDbBlockEnd
  0
BLOCK
  5
2F40
330
2F3F
100
AcDbEntity
  8
0
 48
10.0
100
AcDbBlockBegin
  2
ケース外形図_HL-400
 70
     0
 10
0.0
 20
0.0
 30
0.0
  3
ケース外形図_HL-400
  1
ケース外形図_HL-400
  0
LINE
  5
2F41
330
2F3F
100
AcDbEntity
  8
外形線
100
AcDbLine
 10
-3016.68737612191
 20
-628.620502022639
 30
0.0
 11
-3004.68737612191
 21
-628.620502022639
 31
0.0
  0
LINE
  5
2F42
330
2F3F
100
AcDbEntity
  8
外形線
100
AcDbLine
 10
-3004.68737612191
 20
-556.620502022639
 30
0.0
 11
-3019.68737612191
 21
-556.620502022639
 31
0.0
  0
LINE
  5
2F43
330
2F3F
100
AcDbEntity
  8
中心線
 48
10.0
100
AcDbLine
 10
-3031.837385121911
 20
-613.830661022639
 30
0.0
 11
-3031.837385121911
 21
-669.264280022639
 31
0.0
  0
LINE
  5
2F44
330
2F3F
100
AcDbEntity
  8
外形線
100
AcDbLine
 10
-3036.074903121911
 20
-666.232883395172
 30
0.0
 11
-3036.074903121911
 21
-653.049280022639
 31
0.0
  0
LINE
  5
2F45
330
2F3F
100
AcDbEntity
  8
外形線
100
AcDbLine
 10
-3027.67493912191
 20
-666.232883395172
 30
0.0
 11
-3027.67493912191
 21
-653.049280022639
 31
0.0
  0
ARC
  5
2F46
330
2F3F
100
AcDbEntity
  8
細線
100
AcDbCircle
 10
-3033.974910933263
 20
-662.595590228936
 30
0.0
 40
4.199982
100
AcDbArc
 50
239.999981276042
 51
299.999981276021
  0
ARC
  5
2F47
330
2F3F
100
AcDbEntity
  8
細線
100
AcDbCircle
 10
-3029.774928933263
 20
-662.595591601467
 30
0.0
 40
4.199982
100
AcDbArc
 50
239.999981276042
 51
299.999981276021
  0
ARC
  5
2F48
330
2F3F
100
AcDbEntity
  8
細線
100
AcDbCircle
 10
-3029.774931310559
 20
-669.870173816342
 30
0.0
 40
4.199982
100
AcDbArc
 50
59.999981276042
 51
119.999981276021
  0
LINE
  5
2F49
330
2F3F
100
AcDbEntity
  8
外形線
100
AcDbLine
 10
-3015.18737612191
 20
-556.620502022639
 30
0.0
 11
-3015.18737612191
 21
-628.620502022639
 31
0.0
  0
LINE
  5
2F4A
330
2F3F
100
AcDbEntity
  8
外形線
100
AcDbLine
 10
-3016.68737612191
 20
-629.295475022639
 30
0.0
 11
-3016.68737612191
 21
-556.620502022639
 31
0.0
  0
LINE
  5
2F4B
330
2F3F
100
AcDbEntity
  8
外形線
100
AcDbLine
 10
-3019.68737612191
 20
-556.620502022639
 30
0.0
 11
-3019.68737612191
 21
-618.495502022639
 31
0.0
  0
LINE
  5
2F4C
330
2F3F
100
AcDbEntity
  8
外形線
100
AcDbLine
 10
-3046.687376121911
 20
-623.745502022639
 30
0.0
 11
-3046.687376121911
 21
-562.245502022639
 31
0.0
  0
LINE
  5
2F4D
330
2F3F
100
AcDbEntity
  8
外形線
100
AcDbLine
 10
-3038.779444758647
 20
-628.97627357689
 30
0.0
 11
-3045.721504395382
 21
-634.988273576889
 31
0.0
  0
LINE
  5
2F4E
330
2F3F
100
AcDbEntity
  8
外形線
100
AcDbLine
 10
-3024.895325485175
 20
-628.97627357689
 30
0.0
 11
-3017.953265848439
 21
-634.988273576889
 31
0.0
  0
LINE
  5
2F4F
330
2F3F
100
AcDbEntity
  8
外形線
100
AcDbLine
 10
-3024.895325485175
 20
-637.653848122809
 30
0.0
 11
-3024.895325485175
 21
-628.97627357689
 31
0.0
  0
LINE
  5
2F50
330
2F3F
100
AcDbEntity
  8
外形線
100
AcDbLine
 10
-3038.779444758647
 20
-637.653848122809
 30
0.0
 11
-3038.779444758647
 21
-628.97627357689
 31
0.0
  0
LWPOLYLINE
  5
2F51
330
2F3F
100
AcDbEntity
  8
外形線
100
AcDbPolyline
 90
       47
 70
     0
 43
0.0
 10
-3027.674940621911
 20
-654.14058768542
 10
-3027.215686831012
 20
-654.025717241066
 10
-3026.807069333743
 20
-653.89949762322
 10
-3026.45356502891
 20
-653.763311720429
 10
-3026.159046983652
 20
-653.618651613941
 10
-3025.926741999306
 20
-653.467102230155
 10
-3025.759195257892
 20
-653.310323975836
 10
-3025.658242436573
 20
-653.150034546342
 10
-3025.624989595581
 20
-652.98799010621
 10
-3025.659801060005
 20
-652.825966048232
 10
-3025.762295428152
 20
-652.665737541894
 10
-3025.931349750279
 20
-652.509060084243
 10
-3026.165111831855
 20
-652.357650266292
 10
-3026.461020526596
 20
-652.213166965689
 10
-3026.815833796919
 20
-652.077193171712
 10
-3027.225664234388
 20
-651.951218641701
 10
-3027.686021650964
 20
-651.836623578969
 10
-3028.191862274455
 20
-651.734663511005
 10
-3028.737644009139
 20
-651.646455533648
 10
-3029.317387156118
 20
-651.572966071958
 10
-3029.924739928152
 20
-651.515000291856
 10
-3030.553048041176
 20
-651.473193278559
 10
-3031.195427620021
 20
-651.448003078454
 10
-3031.844840619596
 20
-651.439705680642
 10
-3032.494171935177
 20
-651.448391993153
 10
-3033.136307356992
 20
-651.473966846927
 10
-3033.764211514982
 20
-651.516150038516
 10
-3034.371004959794
 20
-651.574479400044
 10
-3034.950039535468
 20
-651.648315862822
 10
-3035.494971218024
 20
-651.73685045911
 10
-3035.999829621911
 20
-651.839113185344
 10
-3036.459083412808
 20
-651.953983629698
 10
-3036.867700910077
 20
-652.080203247544
 10
-3037.221205214912
 20
-652.216389150335
 10
-3037.515723260169
 20
-652.361049256823
 10
-3037.748028244515
 20
-652.512598640609
 10
-3037.915574985928
 20
-652.669376894928
 10
-3038.016527807249
 20
-652.829666324421
 10
-3038.04978064824
 20
-652.991710764555
 10
-3038.014969183816
 20
-653.153734822532
 10
-3037.912474815669
 20
-653.313963328869
 10
-3037.743420493542
 20
-653.470640786521
 10
-3037.509658411966
 20
-653.622050604471
 10
-3037.213749717225
 20
-653.766533905074
 10
-3036.858936446901
 20
-653.902507699052
 10
-3036.449106009434
 20
-654.028482229064
 10
-3036.07490312191
 20
-654.123399110931
  0
ARC
  5
2F52
330
2F3F
100
AcDbEntity
  8
外形線
100
AcDbCircle
 10
-3031.837385121911
 20
-620.803069368681
 30
0.0
 40
34.15159996140045
100
AcDbArc
 50
255.26831657715
 51
262.87239111701
  0
LWPOLYLINE
  5
2F53
330
2F3F
100
AcDbEntity
  8
外形線
100
AcDbPolyline
 90
       34
 70
     0
 43
0.0
 10
-3020.164085121911
 20
-645.574914522911
 10
-3020.217826679511
 20
-645.015496411464
 10
-3020.378556521371
 20
-644.461229200047
 10
-3020.644794710875
 20
-643.917216361246
 10
-3021.014089832395
 20
-643.388466949451
 10
-3021.483041562971
 20
-642.879849479472
 10
-3022.047331981114
 20
-642.39604709919
 10
-3022.701765324525
 20
-641.941514468981
 10
-3023.440315830619
 20
-641.520436744971
 10
-3024.256183219338
 20
-641.136691043792
 10
-3025.141855307454
 20
-640.793810743611
 10
-3026.089177177755
 20
-640.494952950203
 10
-3027.089426266293
 20
-640.242869427561
 10
-3028.133392676296
 20
-640.039881260751
 10
-3029.211463979238
 20
-639.887857484282
 10
-3030.313713722268
 20
-639.788197872775
 10
-3031.429992827054
 20
-639.74182005239
 10
-3032.550023038462
 20
-639.749151051702
 10
-3033.663491562665
 20
-639.810123369776
 10
-3034.760146023239
 20
-639.924175597698
 10
-3035.829888860994
 20
-640.090257587801
 10
-3036.862870308282
 20
-640.30684012301
 10
-3037.849579081758
 20
-640.571928997268
 10
-3038.780929958494
 20
-640.88308337739
 10
-3039.64834742912
 20
-641.237438277289
 10
-3040.443844657696
 20
-641.631730937631
 10
-3041.160097021345
 20
-642.062330868031
 10
-3041.790509552464
 20
-642.525273275162
 10
-3042.329277662574
 20
-643.016295569004
 10
-3042.771440588665
 20
-643.530876611082
 10
-3043.112927069931
 20
-644.064278343314
 10
-3043.350592834335
 20
-644.611589414165
 10
-3043.482249549808
 20
-645.167770400432
 10
-3043.510685121911
 20
-645.574914522911
  0
ARC
  5
2F54
330
2F3F
100
AcDbEntity
  8
外形線
100
AcDbCircle
 10
-3031.837385121911
 20
-625.986454710612
 30
0.0
 40
13.57645981229912
100
AcDbArc
 50
239.247497502359
 51
300.752502497641
  0
LINE
  5
2F55
330
2F3F
100
AcDbEntity
  8
外形線
100
AcDbLine
 10
-3043.510685121911
 20
-645.574914522911
 30
0.0
 11
-3043.510685121911
 21
-649.955767263438
 31
0.0
  0
ARC
  5
2F56
330
2F3F
100
AcDbEntity
  8
外形線
100
AcDbCircle
 10
-3039.502685121911
 20
-649.955767263438
 30
0.0
 40
4.007999999999999
100
AcDbArc
 50
180.0
 51
255.26831657715
  0
ARC
  5
2F57
330
2F3F
100
AcDbEntity
  8
外形線
100
AcDbCircle
 10
-3046.230136312884
 20
-636.064530573833
 30
0.0
 40
7.618315752702329
100
AcDbArc
 50
273.828163206421
 51
347.958626091838
  0
LINE
  5
2F58
330
2F3F
100
AcDbEntity
  8
外形線
100
AcDbLine
 10
-3043.513436239113
 20
-645.578091239426
 30
0.0
 11
-3045.721504395382
 21
-643.665848122809
 31
0.0
  0
LINE
  5
2F59
330
2F3F
100
AcDbEntity
  8
外形線
100
AcDbLine
 10
-3045.721504395382
 20
-634.988273576889
 30
0.0
 11
-3045.721504395382
 21
-643.665848122809
 31
0.0
  0
LINE
  5
2F5A
330
2F3F
100
AcDbEntity
  8
外形線
100
AcDbLine
 10
-3020.164085121911
 20
-645.574914522911
 30
0.0
 11
-3020.164085121911
 21
-649.955767263438
 31
0.0
  0
LWPOLYLINE
  5
2F5B
330
2F3F
100
AcDbEntity
  8
外形線
100
AcDbPolyline
 90
       29
 70
     0
 43
0.0
 10
-3027.674940621911
 20
-653.049280022638
 10
-3027.701938707542
 20
-652.947308555312
 10
-3027.782585869251
 20
-652.846648062603
 10
-3027.915845283851
 20
-652.748592664861
 10
-3028.100003729843
 20
-652.654402990584
 10
-3028.332693613086
 20
-652.56528996941
 10
-3028.610923405278
 20
-652.482399264063
 10
-3028.9311161039
 20
-652.406796541377
 10
-3029.289155219196
 20
-652.339453771776
 10
-3029.680437696951
 20
-652.281236733347
 10
-3030.099933096692
 20
-652.232893881137
 10
-3030.542248264472
 20
-652.195046724809
 10
-3031.001696668819
 20
-652.16818183833
 10
-3031.472371508433
 20
-652.152644604435
 10
-3031.948221651714
 20
-652.148634774287
 10
-3032.423129431869
 20
-652.15620389942
 10
-3032.890989297393
 20
-652.175254668977
 10
-3033.345786306812
 20
-652.205542160767
 10
-3033.781673458494
 20
-652.246676990049
 10
-3034.193046861402
 20
-652.298130315587
 10
-3034.574617780326
 20
-652.359240638577
 10
-3034.921480629393
 20
-652.429222307066
 10
-3035.229176039693
 20
-652.507175616524
 10
-3035.493748190218
 20
-652.592098376703
 10
-3035.711795665032
 20
-652.682898796086
 10
-3035.88051518286
 20
-652.778409518273
 10
-3035.997737636882
 20
-652.877402629852
 10
-3036.061955981389
 20
-652.9786054468
 10
-3036.07490312191
 20
-653.049280022638
  0
ARC
  5
2F5C
330
2F3F
100
AcDbEntity
  8
外形線
100
AcDbCircle
 10
-3031.837385121911
 20
-620.803069368681
 30
0.0
 40
34.15159996140045
100
AcDbArc
 50
277.000695446903
 51
284.73168342285
  0
ARC
  5
2F5D
330
2F3F
100
AcDbEntity
  8
外形線
100
AcDbCircle
 10
-3024.172085121911
 20
-649.955767263438
 30
0.0
 40
4.007999999999999
100
AcDbArc
 50
284.73168342285
 51
0.0
  0
LINE
  5
2F5E
330
2F3F
100
AcDbEntity
  8
外形線
100
AcDbLine
 10
-3020.161334004708
 20
-645.578091239426
 30
0.0
 11
-3017.953265848439
 21
-643.665848122809
 31
0.0
  0
ARC
  5
2F5F
330
2F3F
100
AcDbEntity
  8
外形線
100
AcDbCircle
 10
-3017.444633930937
 20
-636.064530573833
 30
0.0
 40
7.618315752702329
100
AcDbArc
 50
192.041373908162
 51
266.171836793579
  0
LINE
  5
2F60
330
2F3F
100
AcDbEntity
  8
外形線
100
AcDbLine
 10
-3017.953265848439
 20
-643.665848122809
 30
0.0
 11
-3017.953265848439
 21
-634.988273576889
 31
0.0
  0
LWPOLYLINE
  5
2F61
330
2F3F
100
AcDbEntity
  8
外形線
100
AcDbPolyline
 90
       34
 70
     0
 43
0.0
 10
-3021.33893012191
 20
-629.269370629074
 10
-3021.387262926182
 20
-628.898532694609
 10
-3021.531816309708
 20
-628.531109288718
 10
-3021.771259282285
 20
-628.170483500357
 10
-3022.103387148015
 20
-627.819975828711
 10
-3022.525141805277
 20
-627.482813609361
 10
-3023.032639904511
 20
-627.162101298261
 10
-3023.621208604563
 20
-626.860791887133
 10
-3024.285428598347
 20
-626.581659713495
 10
-3025.019184011678
 20
-626.32727491566
 10
-3025.815718715819
 20
-626.099979767924
 10
-3026.667698535225
 20
-625.901867113831
 10
-3027.567278777729
 20
-625.734761096102
 10
-3028.506176465351
 20
-625.600200360651
 10
-3029.475746600679
 20
-625.499423889346
 10
-3030.467061766568
 20
-625.433359591953
 10
-3031.470994326257
 20
-625.402615762313
 10
-3032.478300467033
 20
-625.40747547741
 10
-3033.479705313585
 20
-625.44789399092
 10
-3034.465988327376
 20
-625.5234991452
 10
-3035.428068205709
 20
-625.633594797989
 10
-3036.357086498752
 20
-625.777167232194
 10
-3037.24448917464
 20
-625.952894489799
 10
-3038.082105381594
 20
-626.159158543935
 10
-3038.862222681892
 20
-626.394060197024
 10
-3039.577658064932
 20
-626.655436567837
 10
-3040.221824085545
 20
-626.940881006447
 10
-3040.788789518574
 20
-627.247765253711
 10
-3041.27333397125
 20
-627.57326364123
 10
-3041.670995950487
 20
-627.91437910899
 10
-3041.978113942544
 20
-628.267970801094
 10
-3042.191860126797
 20
-628.630782985528
 10
-3042.310266413181
 20
-628.99947503163
 10
-3042.335840121911
 20
-629.269370629074
  0
LINE
  5
2F62
330
2F3F
100
AcDbEntity
  8
外形線
100
AcDbLine
 10
-3038.779444758647
 20
-628.97627357689
 30
0.0
 11
-3024.895325485175
 21
-628.97627357689
 31
0.0
  0
LINE
  5
2F63
330
2F3F
100
AcDbEntity
  8
外形線
100
AcDbLine
 10
-3038.779444758647
 20
-620.298699030969
 30
0.0
 11
-3024.895325485175
 21
-620.298699030969
 31
0.0
  0
LINE
  5
2F64
330
2F3F
100
AcDbEntity
  8
外形線
100
AcDbLine
 10
-3038.779444758647
 20
-624.637486303929
 30
0.0
 11
-3024.895325485175
 21
-624.637486303929
 31
0.0
  0
LINE
  5
2F65
330
2F3F
100
AcDbEntity
  8
外形線
100
AcDbLine
 10
-3016.68737612191
 20
-618.495502022639
 30
0.0
 11
-3039.78736712191
 21
-618.495502022639
 31
0.0
  0
LINE
  5
2F66
330
2F3F
100
AcDbEntity
  8
外形線
100
AcDbLine
 10
-3039.468583886739
 20
-620.895511022639
 30
0.0
 11
-3042.187376121911
 21
-620.895511022639
 31
0.0
  0
LINE
  5
2F67
330
2F3F
100
AcDbEntity
  8
外形線
100
AcDbLine
 10
-3045.721504395382
 20
-626.310699030969
 30
0.0
 11
-3038.779444758647
 21
-620.298699030969
 31
0.0
  0
ARC
  5
2F68
330
2F3F
100
AcDbEntity
  8
外形線
100
AcDbCircle
 10
-3039.78736712191
 20
-623.895511022639
 30
0.0
 40
5.4
100
AcDbArc
 50
89.999981276021
 51
180.00001984784
  0
LINE
  5
2F69
330
2F3F
100
AcDbEntity
  8
外形線
100
AcDbLine
 10
-3038.779444758647
 20
-624.637486303929
 30
0.0
 11
-3045.721504395382
 21
-630.649486303929
 31
0.0
  0
ARC
  5
2F6A
330
2F3F
100
AcDbEntity
  8
外形線
100
AcDbCircle
 10
-3042.187376121911
 20
-623.895511022639
 30
0.0
 40
3.0
100
AcDbArc
 50
89.999981276021
 51
211.533239298809
  0
ARC
  5
2F6B
330
2F3F
100
AcDbEntity
  8
外形線
100
AcDbCircle
 10
-3043.687376121911
 20
-623.745502022639
 30
0.0
 40
3.0
100
AcDbArc
 50
180.00001984784
 51
232.575749003279
  0
LINE
  5
2F6C
330
2F3F
100
AcDbEntity
  8
外形線
100
AcDbLine
 10
-3043.216504395382
 20
-632.818879940409
 30
0.0
 11
-3045.721504395382
 21
-630.649486303929
 31
0.0
  0
LINE
  5
2F6D
330
2F3F
100
AcDbEntity
  8
外形線
100
AcDbLine
 10
-3042.335840121911
 20
-629.269370629074
 30
0.0
 11
-3042.335840121911
 21
-632.056202307377
 31
0.0
  0
LINE
  5
2F6E
330
2F3F
100
AcDbEntity
  8
外形線
100
AcDbLine
 10
-3045.721504395382
 20
-630.649486303929
 30
0.0
 11
-3045.721504395382
 21
-626.310699030969
 31
0.0
  0
LINE
  5
2F6F
330
2F3F
100
AcDbEntity
  8
細線
100
AcDbLine
 10
-3040.980635121911
 20
-630.882560350041
 30
0.0
 11
-3040.980635121911
 21
-627.331019140395
 31
0.0
  0
LINE
  5
2F70
330
2F3F
100
AcDbEntity
  8
外形線
100
AcDbLine
 10
-3038.779444758647
 20
-624.637486303929
 30
0.0
 11
-3038.779444758647
 21
-620.298699030969
 31
0.0
  0
LINE
  5
2F71
330
2F3F
100
AcDbEntity
  8
細線
100
AcDbLine
 10
-3022.694135121911
 20
-630.882560350041
 30
0.0
 11
-3022.694135121911
 21
-627.227614822548
 31
0.0
  0
LINE
  5
2F72
330
2F3F
100
AcDbEntity
  8
外形線
100
AcDbLine
 10
-3016.68737612191
 20
-620.895511022639
 30
0.0
 11
-3024.206186357083
 21
-620.895511022639
 31
0.0
  0
LINE
  5
2F73
330
2F3F
100
AcDbEntity
  8
外形線
100
AcDbLine
 10
-3017.953265848439
 20
-626.310699030969
 30
0.0
 11
-3024.895325485175
 21
-620.298699030969
 31
0.0
  0
LINE
  5
2F74
330
2F3F
100
AcDbEntity
  8
外形線
100
AcDbLine
 10
-3024.895325485175
 20
-624.637486303929
 30
0.0
 11
-3024.895325485175
 21
-620.298699030969
 31
0.0
  0
LINE
  5
2F75
330
2F3F
100
AcDbEntity
  8
外形線
100
AcDbLine
 10
-3016.68737612191
 20
-629.295497522639
 30
0.0
 11
-3017.953265848439
 21
-629.295497522639
 31
0.0
  0
LINE
  5
2F76
330
2F3F
100
AcDbEntity
  8
外形線
100
AcDbLine
 10
-3020.458265848439
 20
-632.818879940409
 30
0.0
 11
-3017.953265848439
 21
-630.649486303929
 31
0.0
  0
LINE
  5
2F77
330
2F3F
100
AcDbEntity
  8
外形線
100
AcDbLine
 10
-3024.895325485175
 20
-624.637486303929
 30
0.0
 11
-3017.953265848439
 21
-630.649486303929
 31
0.0
  0
LINE
  5
2F78
330
2F3F
100
AcDbEntity
  8
外形線
100
AcDbLine
 10
-3021.33893012191
 20
-629.269370629074
 30
0.0
 11
-3021.33893012191
 21
-632.056202307377
 31
0.0
  0
LINE
  5
2F79
330
2F3F
100
AcDbEntity
  8
外形線
100
AcDbLine
 10
-3017.953265848439
 20
-630.649486303929
 30
0.0
 11
-3017.953265848439
 21
-626.310699030969
 31
0.0
  0
LINE
  5
2F7A
330
2F3F
100
AcDbEntity
  8
外形線
100
AcDbLine
 10
-3048.487394121911
 20
-562.245502022639
 30
0.0
 11
-3048.487394121911
 21
-603.345493022639
 31
0.0
  0
LINE
  5
2F7B
330
2F3F
100
AcDbEntity
  8
外形線
100
AcDbLine
 10
-3048.487394121911
 20
-603.345493022639
 30
0.0
 11
-3046.687376121911
 21
-603.345493022639
 31
0.0
  0
LINE
  5
2F7C
330
2F3F
100
AcDbEntity
  8
外形線
100
AcDbLine
 10
-3043.687376121911
 20
-558.495502022639
 30
0.0
 11
-3019.68737612191
 21
-558.495502022639
 31
0.0
  0
LINE
  5
2F7D
330
2F3F
100
AcDbEntity
  8
外形線
100
AcDbLine
 10
-3048.487394121911
 20
-562.245502022639
 30
0.0
 11
-3046.687376121911
 21
-562.245502022639
 31
0.0
  0
ARC
  5
2F7E
330
2F3F
100
AcDbEntity
  8
外形線
100
AcDbCircle
 10
-3043.687376121911
 20
-561.495502022639
 30
0.0
 40
3.0
100
AcDbArc
 50
89.999981276021
 51
180.00001984784
  0
LINE
  5
2F7F
330
2F3F
100
AcDbEntity
  8
外形線
100
AcDbLine
 10
-3046.687376121911
 20
-562.245502022639
 30
0.0
 11
-3046.687376121911
 21
-561.495502022639
 31
0.0
  0
LINE
  5
2F80
330
2F3F
100
AcDbEntity
  8
外形線
100
AcDbLine
 10
-2963.887356621911
 20
-617.370502022639
 30
0.0
 11
-2963.887356621911
 21
-567.870502022639
 31
0.0
  0
LINE
  5
2F81
330
2F3F
100
AcDbEntity
  8
外形線
100
AcDbLine
 10
-2965.387356621911
 20
-620.580112022639
 30
0.0
 11
-2965.387356621911
 21
-564.660892022639
 31
0.0
  0
LINE
  5
2F82
330
2F3F
100
AcDbEntity
  8
外形線
100
AcDbLine
 10
-3004.68737612191
 20
-556.620502022639
 30
0.0
 11
-3004.68737612191
 21
-628.620502022639
 31
0.0
  0
LINE
  5
2F83
330
2F3F
100
AcDbEntity
  8
外形線
100
AcDbLine
 10
-3004.68737612191
 20
-626.745502022639
 30
0.0
 11
-2969.67289562191
 21
-625.074985022639
 31
0.0
  0
LINE
  5
2F84
330
2F3F
100
AcDbEntity
  8
外形線
100
AcDbLine
 10
-2963.887356621911
 20
-617.370502022639
 30
0.0
 11
-2965.387356621911
 21
-617.370502022639
 31
0.0
  0
ARC
  5
2F85
330
2F3F
100
AcDbEntity
  8
外形線
100
AcDbCircle
 10
-2969.887356621911
 20
-620.580112022639
 30
0.0
 40
4.5
100
AcDbArc
 50
272.731520116378
 51
359.999982399908
  0
LINE
  5
2F86
330
2F3F
100
AcDbEntity
  8
外形線
100
AcDbLine
 10
-3004.68737612191
 20
-558.495502022639
 30
0.0
 11
-2969.67289562191
 21
-560.166019022639
 31
0.0
  0
LINE
  5
2F87
330
2F3F
100
AcDbEntity
  8
外形線
100
AcDbLine
 10
-2963.887356621911
 20
-567.870502022639
 30
0.0
 11
-2965.387356621911
 21
-567.870502022639
 31
0.0
  0
ARC
  5
2F88
330
2F3F
100
AcDbEntity
  8
外形線
100
AcDbCircle
 10
-2969.887356621911
 20
-564.660892022639
 30
0.0
 40
4.5
100
AcDbArc
 50
0.0
 51
87.268519579302
  0
ENDBLK
  5
2F89
330
2F3F
100
AcDbEntity
  8
0
 48
10.0
100
AcDbBlockEnd
  0
BLOCK
  5
3C85
330
3C79
100
AcDbEntity
  8
0
 48
10.0
100
AcDbBlockBegin
  2
*D8
 70
     1
 10
0.0
 20
0.0
 30
0.0
  3
*D8
  1
*D8
  0
LINE
  5
3D0D
330
3C79
100
AcDbEntity
  8
寸法線
 62
     0
 48
10.0
100
AcDbLine
 10
413.373829549778
 20
1133.78787224634
 30
0.0
 11
412.748829549778
 21
1133.78787224634
 31
0.0
  0
LINE
  5
3D0E
330
3C79
100
AcDbEntity
  8
寸法線
 62
     0
 48
10.0
100
AcDbLine
 10
412.968690808193
 20
1127.78782724634
 30
0.0
 11
415.248829549778
 21
1127.78782724634
 31
0.0
  0
LINE
  5
3D0F
330
3C79
100
AcDbEntity
  8
寸法線
 62
     0
 48
10.0
100
AcDbLine
 10
413.998829549778
 20
1133.78787224634
 30
0.0
 11
413.998829549778
 21
1155.93162224634
 31
0.0
  0
LINE
  5
3D10
330
3C79
100
AcDbEntity
  8
寸法線
 62
     0
 48
10.0
100
AcDbLine
 10
413.998829549778
 20
1133.78787224634
 30
0.0
 11
413.998829549778
 21
1127.78782724634
 31
0.0
  0
LINE
  5
3D11
330
3C79
100
AcDbEntity
  8
寸法線
 62
     0
 48
10.0
100
AcDbLine
 10
413.998829549778
 20
1139.78787224634
 30
0.0
 11
413.998829549778
 21
1145.78787224634
 31
0.0
  0
LINE
  5
3D12
330
3C79
100
AcDbEntity
  8
寸法線
 62
     0
 48
10.0
100
AcDbLine
 10
413.998829549778
 20
1121.78782724634
 30
0.0
 11
413.998829549778
 21
1115.78782724634
 31
0.0
  0
INSERT
  5
3D13
330
3C79
100
AcDbEntity
  8
寸法線
 62
     0
100
AcDbBlockReference
  2
_OPEN30
 10
413.998829549778
 20
1133.78787224634
 30
0.0
 41
6.0
 42
6.0
 43
6.0
 50
270.0
  0
INSERT
  5
3D14
330
3C79
100
AcDbEntity
  8
寸法線
 62
     0
100
AcDbBlockReference
  2
_OPEN30
 10
413.998829549778
 20
1127.78782724634
 30
0.0
 41
6.0
 42
6.0
 43
6.0
 50
90.0
  0
MTEXT
  5
3D15
330
3C79
100
AcDbEntity
  8
寸法線
 62
     0
 48
10.0
100
AcDbMText
 10
410.373829549778
 20
1150.85974724634
 30
0.0
 40
6.0
 41
0.0
 71
     5
 72
     1
  1
\A1;φ6
 11
0.0
 21
1.0
 31
0.0
  0
POINT
  5
3D16
330
3C79
100
AcDbEntity
  8
DEFPOINTS
 62
     0
100
AcDbPoint
 10
413.998829549778
 20
1133.78787224634
 30
0.0
  0
POINT
  5
3D17
330
3C79
100
AcDbEntity
  8
DEFPOINTS
 62
     0
100
AcDbPoint
 10
412.343690808193
 20
1127.78782724634
 30
0.0
  0
POINT
  5
5175
330
3C79
100
AcDbEntity
  8
DEFPOINTS
 62
     0
100
AcDbPoint
 10
413.998829549778
 20
1127.78782724634
 30
0.0
  0
ENDBLK
  5
3C86
330
3C79
100
AcDbEntity
  8
0
 48
10.0
100
AcDbBlockEnd
  0
BLOCK
  5
3C91
330
3C87
100
AcDbEntity
  8
0
 48
10.0
100
AcDbBlockBegin
  2
*D9
 70
     1
 10
0.0
 20
0.0
 30
0.0
  3
*D9
  1
*D9
  0
LINE
  5
3D18
330
3C87
100
AcDbEntity
  8
寸法線
 62
     0
 48
10.0
100
AcDbLine
 10
362.251584234087
 20
1170.78762974634
 30
0.0
 11
342.255128062081
 21
1170.78762974634
 31
0.0
  0
LINE
  5
3D19
330
3C87
100
AcDbEntity
  8
寸法線
 62
     0
 48
10.0
100
AcDbLine
 10
362.251584234087
 20
1090.78784474634
 30
0.0
 11
342.255128062081
 21
1090.78784474634
 31
0.0
  0
LINE
  5
3D1A
330
3C87
100
AcDbEntity
  8
寸法線
 62
     0
 48
10.0
100
AcDbLine
 10
343.505128062081
 20
1164.78762974634
 30
0.0
 11
343.505128062081
 21
1096.78784474634
 31
0.0
  0
INSERT
  5
3D1B
330
3C87
100
AcDbEntity
  8
寸法線
 62
     0
100
AcDbBlockReference
  2
_OPEN30
 10
343.505128062081
 20
1170.78762974634
 30
0.0
 41
6.0
 42
6.0
 43
6.0
 50
90.0
  0
INSERT
  5
3D1C
330
3C87
100
AcDbEntity
  8
寸法線
 62
     0
100
AcDbBlockReference
  2
_OPEN30
 10
343.505128062081
 20
1090.78784474634
 30
0.0
 41
6.0
 42
6.0
 43
6.0
 50
270.0
  0
MTEXT
  5
3D1D
330
3C87
100
AcDbEntity
  8
寸法線
 62
     0
 48
10.0
100
AcDbMText
 10
339.873878062082
 20
1130.78773724634
 30
0.0
 40
6.0
 41
0.0
 71
     5
 72
     1
  1
\A1;80
 11
0.0
 21
1.0
 31
0.0
  0
POINT
  5
3D1E
330
3C87
100
AcDbEntity
  8
DEFPOINTS
 62
     0
100
AcDbPoint
 10
362.876584234087
 20
1170.78762974634
 30
0.0
  0
POINT
  5
3D1F
330
3C87
100
AcDbEntity
  8
DEFPOINTS
 62
     0
100
AcDbPoint
 10
362.876584234087
 20
1090.78784474634
 30
0.0
  0
POINT
  5
3D20
330
3C87
100
AcDbEntity
  8
DEFPOINTS
 62
     0
100
AcDbPoint
 10
343.505128062081
 20
1090.78784474634
 30
0.0
  0
ENDBLK
  5
3C92
330
3C87
100
AcDbEntity
  8
0
 48
10.0
100
AcDbBlockEnd
  0
BLOCK
  5
3C9D
330
3C93
100
AcDbEntity
  8
0
 48
10.0
100
AcDbBlockBegin
  2
*D10
 70
     1
 10
0.0
 20
0.0
 30
0.0
  3
*D10
  1
*D10
  0
LINE
  5
3D21
330
3C93
100
AcDbEntity
  8
寸法線
 62
     0
 48
10.0
100
AcDbLine
 10
362.876584234087
 20
1090.16284474634
 30
0.0
 11
362.876584234087
 21
1070.549031236478
 31
0.0
  0
LINE
  5
3D22
330
3C93
100
AcDbEntity
  8
寸法線
 62
     0
 48
10.0
100
AcDbLine
 10
397.876577734087
 20
1090.16284474634
 30
0.0
 11
397.876577734087
 21
1070.549031236478
 31
0.0
  0
LINE
  5
3D23
330
3C93
100
AcDbEntity
  8
寸法線
 62
     0
 48
10.0
100
AcDbLine
 10
368.876584234087
 20
1071.799031236478
 30
0.0
 11
391.876577734087
 21
1071.799031236478
 31
0.0
  0
INSERT
  5
3D24
330
3C93
100
AcDbEntity
  8
寸法線
 62
     0
100
AcDbBlockReference
  2
_OPEN30
 10
362.876584234087
 20
1071.799031236478
 30
0.0
 41
6.0
 42
6.0
 43
6.0
 50
180.0
  0
INSERT
  5
3D25
330
3C93
100
AcDbEntity
  8
寸法線
 62
     0
100
AcDbBlockReference
  2
_OPEN30
 10
397.876577734087
 20
1071.799031236478
 30
0.0
 41
6.0
 42
6.0
 43
6.0
  0
MTEXT
  5
3D26
330
3C93
100
AcDbEntity
  8
寸法線
 62
     0
 48
10.0
100
AcDbMText
 10
380.376580984087
 20
1075.427156236478
 30
0.0
 40
6.0
 41
0.0
 71
     5
 72
     1
  1
\A1;35
  0
POINT
  5
3D27
330
3C93
100
AcDbEntity
  8
DEFPOINTS
 62
     0
100
AcDbPoint
 10
362.876584234087
 20
1090.78784474634
 30
0.0
  0
POINT
  5
3D28
330
3C93
100
AcDbEntity
  8
DEFPOINTS
 62
     0
100
AcDbPoint
 10
397.876577734087
 20
1090.78784474634
 30
0.0
  0
POINT
  5
3D29
330
3C93
100
AcDbEntity
  8
DEFPOINTS
 62
     0
100
AcDbPoint
 10
397.876577734087
 20
1071.799031236478
 30
0.0
  0
ENDBLK
  5
3C9E
330
3C93
100
AcDbEntity
  8
0
 48
10.0
100
AcDbBlockEnd
  0
BLOCK
  5
4693
330
4689
100
AcDbEntity
  8
0
 48
10.0
100
AcDbBlockBegin
  2
*D17
 70
     1
 10
0.0
 20
0.0
 30
0.0
  3
*D17
  1
*D17
  0
LINE
  5
46B4
330
4689
100
AcDbEntity
  8
寸法線
 62
     0
 48
10.0
100
AcDbLine
 10
439.036256730922
 20
1140.78771974634
 30
0.0
 11
439.036256730922
 21
1161.13771974634
 31
0.0
  0
LINE
  5
46B5
330
4689
100
AcDbEntity
  8
寸法線
 62
     0
 48
10.0
100
AcDbLine
 10
439.036256730922
 20
1126.78793474634
 30
0.0
 11
439.036256730922
 21
1134.78771974634
 31
0.0
  0
INSERT
  5
46B6
330
4689
100
AcDbEntity
  8
寸法線
 62
     0
100
AcDbBlockReference
  2
_OPEN30
 10
439.036256730922
 20
1120.78793474634
 30
0.0
 41
6.0
 42
6.0
 43
6.0
 50
270.0
  0
INSERT
  5
46B7
330
4689
100
AcDbEntity
  8
寸法線
 62
     0
100
AcDbBlockReference
  2
_OPEN30
 10
439.036256730922
 20
1140.78771974634
 30
0.0
 41
6.0
 42
6.0
 43
6.0
 50
90.0
  0
MTEXT
  5
46B8
330
4689
100
AcDbEntity
  8
寸法線
 62
     0
 48
10.0
100
AcDbMText
 10
435.408131730922
 20
1153.96271974634
 30
0.0
 40
6.0
 41
0.0
 71
     5
 72
     1
  1
\A1;φ20
 11
0.0
 21
1.0
 31
0.0
  0
POINT
  5
46B9
330
4689
100
AcDbEntity
  8
DEFPOINTS
 62
     0
100
AcDbPoint
 10
420.376584234087
 20
1120.78793474634
 30
0.0
  0
POINT
  5
46BA
330
4689
100
AcDbEntity
  8
DEFPOINTS
 62
     0
100
AcDbPoint
 10
420.376584234087
 20
1140.78771974634
 30
0.0
  0
POINT
  5
46BB
330
4689
100
AcDbEntity
  8
DEFPOINTS
 62
     0
100
AcDbPoint
 10
439.036256730922
 20
1140.78771974634
 30
0.0
  0
ENDBLK
  5
4694
330
4689
100
AcDbEntity
  8
0
 48
10.0
100
AcDbBlockEnd
  0
BLOCK
  5
5103
330
5102
100
AcDbEntity
  8
0
100
AcDbBlockBegin
  2
*D56
 70
     1
 10
0.0
 20
0.0
 30
0.0
  3
*D56
  1
*D56
  0
LINE
  5
5105
330
5102
100
AcDbEntity
  8
寸法線
 62
     0
 48
10.0
100
AcDbLine
 10
621.969456735352
 20
1109.61280924634
 30
0.0
 11
621.969456735352
 21
1028.661453271578
 31
0.0
  0
LINE
  5
5106
330
5102
100
AcDbEntity
  8
寸法線
 62
     0
 48
10.0
100
AcDbLine
 10
704.969456735352
 20
1054.919694610337
 30
0.0
 11
704.969456735352
 21
1028.661453271578
 31
0.0
  0
LINE
  5
5107
330
5102
100
AcDbEntity
  8
寸法線
 62
     0
 48
10.0
100
AcDbLine
 10
627.969456735352
 20
1029.911453271578
 30
0.0
 11
698.969456735352
 21
1029.911453271578
 31
0.0
  0
INSERT
  5
5108
330
5102
100
AcDbEntity
  8
寸法線
 62
     0
100
AcDbBlockReference
  2
_OPEN30
 10
621.969456735352
 20
1029.911453271578
 30
0.0
 41
6.0
 42
6.0
 43
6.0
 50
180.0
  0
INSERT
  5
5109
330
5102
100
AcDbEntity
  8
寸法線
 62
     0
100
AcDbBlockReference
  2
_OPEN30
 10
704.969456735352
 20
1029.911453271578
 30
0.0
 41
6.0
 42
6.0
 43
6.0
  0
MTEXT
  5
510A
330
5102
100
AcDbEntity
  8
寸法線
 62
     0
 48
10.0
100
AcDbMText
 10
663.469456735352
 20
1033.545828271578
 30
0.0
 40
6.0
 41
0.0
 71
     5
 72
     1
  1
\A1;83
  0
POINT
  5
510B
330
5102
100
AcDbEntity
  8
DEFPOINTS
 62
     0
100
AcDbPoint
 10
621.969456735352
 20
1110.23780924634
 30
0.0
  0
POINT
  5
510C
330
5102
100
AcDbEntity
  8
DEFPOINTS
 62
     0
100
AcDbPoint
 10
704.969456735352
 20
1055.544694610337
 30
0.0
  0
POINT
  5
510D
330
5102
100
AcDbEntity
  8
DEFPOINTS
 62
     0
100
AcDbPoint
 10
704.969456735352
 20
1029.911453271578
 30
0.0
  0
ENDBLK
  5
5104
330
5102
100
AcDbEntity
  8
0
100
AcDbBlockEnd
  0
BLOCK
  5
510F
330
510E
100
AcDbEntity
  8
0
100
AcDbBlockBegin
  2
*D57
 70
     1
 10
0.0
 20
0.0
 30
0.0
  3
*D57
  1
*D57
  0
LINE
  5
5111
330
510E
100
AcDbEntity
  8
寸法線
 62
     0
 48
10.0
100
AcDbLine
 10
311.816042255776
 20
1130.78782724634
 30
0.0
 11
321.51933228927
 21
1130.78782724634
 31
0.0
  0
LINE
  5
5112
330
510E
100
AcDbEntity
  8
寸法線
 62
     0
 48
10.0
100
AcDbLine
 10
311.816042255776
 20
1120.876363129573
 30
0.0
 11
321.51933228927
 21
1120.876363129573
 31
0.0
  0
LINE
  5
5113
330
510E
100
AcDbEntity
  8
寸法線
 62
     0
 48
10.0
100
AcDbLine
 10
320.26933228927
 20
1130.78782724634
 30
0.0
 11
320.26933228927
 21
1120.876363129573
 31
0.0
  0
LINE
  5
5114
330
510E
100
AcDbEntity
  8
寸法線
 62
     0
 48
10.0
100
AcDbLine
 10
320.26933228927
 20
1136.78782724634
 30
0.0
 11
320.26933228927
 21
1142.78782724634
 31
0.0
  0
LINE
  5
5115
330
510E
100
AcDbEntity
  8
寸法線
 62
     0
 48
10.0
100
AcDbLine
 10
320.26933228927
 20
1114.876363129573
 30
0.0
 11
320.26933228927
 21
1108.876363129573
 31
0.0
  0
INSERT
  5
5116
330
510E
100
AcDbEntity
  8
寸法線
 62
     0
100
AcDbBlockReference
  2
_OPEN30
 10
320.26933228927
 20
1130.78782724634
 30
0.0
 41
6.0
 42
6.0
 43
6.0
 50
270.0
  0
INSERT
  5
5117
330
510E
100
AcDbEntity
  8
寸法線
 62
     0
100
AcDbBlockReference
  2
_OPEN30
 10
320.26933228927
 20
1120.876363129573
 30
0.0
 41
6.0
 42
6.0
 43
6.0
 50
90.0
  0
MTEXT
  5
5118
330
510E
100
AcDbEntity
  8
寸法線
 62
     0
 48
10.0
100
AcDbMText
 10
316.64433228927
 20
1125.832095187956
 30
0.0
 40
6.0
 41
0.0
 71
     5
 72
     1
  1
\A1;10
 11
0.0
 21
1.0
 31
0.0
  0
POINT
  5
5119
330
510E
100
AcDbEntity
  8
DEFPOINTS
 62
     0
100
AcDbPoint
 10
311.191042255776
 20
1130.78782724634
 30
0.0
  0
POINT
  5
511A
330
510E
100
AcDbEntity
  8
DEFPOINTS
 62
     0
100
AcDbPoint
 10
311.191042255776
 20
1120.876363129573
 30
0.0
  0
POINT
  5
511B
330
510E
100
AcDbEntity
  8
DEFPOINTS
 62
     0
100
AcDbPoint
 10
320.26933228927
 20
1120.876363129573
 30
0.0
  0
ENDBLK
  5
5110
330
510E
100
AcDbEntity
  8
0
100
AcDbBlockEnd
  0
BLOCK
  5
511D
330
511C
100
AcDbEntity
  8
0
100
AcDbBlockBegin
  2
*D58
 70
     1
 10
0.0
 20
0.0
 30
0.0
  3
*D58
  1
*D58
  0
LINE
  5
511F
330
511C
100
AcDbEntity
  8
寸法線
 62
     0
 48
10.0
100
AcDbLine
 10
244.221953460636
 20
1141.805132091753
 30
0.0
 11
244.221953460636
 21
1186.925824304625
 31
0.0
  0
LINE
  5
5120
330
511C
100
AcDbEntity
  8
寸法線
 62
     0
 48
10.0
100
AcDbLine
 10
280.221953460636
 20
1141.805132091753
 30
0.0
 11
280.221953460636
 21
1186.925824304625
 31
0.0
  0
LINE
  5
5121
330
511C
100
AcDbEntity
  8
寸法線
 62
     0
 48
10.0
100
AcDbLine
 10
250.221953460636
 20
1185.675824304625
 30
0.0
 11
274.221953460636
 21
1185.675824304625
 31
0.0
  0
INSERT
  5
5122
330
511C
100
AcDbEntity
  8
寸法線
 62
     0
100
AcDbBlockReference
  2
_OPEN30
 10
244.221953460636
 20
1185.675824304625
 30
0.0
 41
6.0
 42
6.0
 43
6.0
 50
180.0
  0
INSERT
  5
5123
330
511C
100
AcDbEntity
  8
寸法線
 62
     0
100
AcDbBlockReference
  2
_OPEN30
 10
280.221953460636
 20
1185.675824304625
 30
0.0
 41
6.0
 42
6.0
 43
6.0
  0
MTEXT
  5
5124
330
511C
100
AcDbEntity
  8
寸法線
 62
     0
 48
10.0
100
AcDbMText
 10
261.775978085292
 20
1189.303949304625
 30
0.0
 40
6.0
 41
0.0
 71
     5
 72
     1
  1
\A1;36
  0
POINT
  5
5125
330
511C
100
AcDbEntity
  8
DEFPOINTS
 62
     0
100
AcDbPoint
 10
244.221953460636
 20
1141.180132091753
 30
0.0
  0
POINT
  5
5126
330
511C
100
AcDbEntity
  8
DEFPOINTS
 62
     0
100
AcDbPoint
 10
280.221953460636
 20
1141.180132091753
 30
0.0
  0
POINT
  5
5127
330
511C
100
AcDbEntity
  8
DEFPOINTS
 62
     0
100
AcDbPoint
 10
280.221953460636
 20
1185.675824304625
 30
0.0
  0
ENDBLK
  5
511E
330
511C
100
AcDbEntity
  8
0
100
AcDbBlockEnd
  0
BLOCK
  5
5129
330
5128
100
AcDbEntity
  8
0
100
AcDbBlockBegin
  2
*D59
 70
     1
 10
0.0
 20
0.0
 30
0.0
  3
*D59
  1
*D59
  0
LINE
  5
512B
330
5128
100
AcDbEntity
  8
寸法線
 62
     0
 48
10.0
100
AcDbLine
 10
261.321953460636
 20
1100.334353369644
 30
0.0
 11
261.321953460636
 21
1100.959353369644
 31
0.0
  0
LINE
  5
512C
330
5128
100
AcDbEntity
  8
寸法線
 62
     0
 48
10.0
100
AcDbLine
 10
263.121953460636
 20
1100.334353369644
 30
0.0
 11
263.121953460636
 21
1100.959353369644
 31
0.0
  0
LINE
  5
512D
330
5128
100
AcDbEntity
  8
寸法線
 62
     0
 48
10.0
100
AcDbLine
 10
269.121953460636
 20
1099.709353369644
 30
0.0
 11
277.571953460636
 21
1099.709353369644
 31
0.0
  0
LINE
  5
512E
330
5128
100
AcDbEntity
  8
寸法線
 62
     0
 48
10.0
100
AcDbLine
 10
261.321953460636
 20
1099.709353369644
 30
0.0
 11
263.121953460636
 21
1099.709353369644
 31
0.0
  0
LINE
  5
512F
330
5128
100
AcDbEntity
  8
寸法線
 62
     0
 48
10.0
100
AcDbLine
 10
255.321953460636
 20
1099.709353369644
 30
0.0
 11
249.321953460636
 21
1099.709353369644
 31
0.0
  0
INSERT
  5
5130
330
5128
100
AcDbEntity
  8
寸法線
 62
     0
100
AcDbBlockReference
  2
_OPEN30
 10
261.321953460636
 20
1099.709353369644
 30
0.0
 41
6.0
 42
6.0
 43
6.0
  0
INSERT
  5
5131
330
5128
100
AcDbEntity
  8
寸法線
 62
     0
100
AcDbBlockReference
  2
_OPEN30
 10
263.121953460636
 20
1099.709353369644
 30
0.0
 41
6.0
 42
6.0
 43
6.0
 50
180.0
  0
MTEXT
  5
5132
330
5128
100
AcDbEntity
  8
寸法線
 62
     0
 48
10.0
100
AcDbMText
 10
276.346953460636
 20
1103.334353369644
 30
0.0
 40
6.0
 41
0.0
 71
     5
 72
     1
  1
\A1;1
  0
POINT
  5
5133
330
5128
100
AcDbEntity
  8
DEFPOINTS
 62
     0
100
AcDbPoint
 10
261.321953460636
 20
1099.709353369644
 30
0.0
  0
POINT
  5
5134
330
5128
100
AcDbEntity
  8
DEFPOINTS
 62
     0
100
AcDbPoint
 10
263.121953460636
 20
1099.709353369644
 30
0.0
  0
POINT
  5
5135
330
5128
100
AcDbEntity
  8
DEFPOINTS
 62
     0
100
AcDbPoint
 10
263.121953460636
 20
1099.709353369644
 30
0.0
  0
ENDBLK
  5
512A
330
5128
100
AcDbEntity
  8
0
100
AcDbBlockEnd
  0
BLOCK
  5
5137
330
5136
100
AcDbEntity
  8
0
100
AcDbBlockBegin
  2
*D60
 70
     1
 10
0.0
 20
0.0
 30
0.0
  3
*D60
  1
*D60
  0
LINE
  5
5139
330
5136
100
AcDbEntity
  8
寸法線
 62
     0
 48
10.0
100
AcDbLine
 10
536.96945673535
 20
1109.61280924634
 30
0.0
 11
536.96945673535
 21
1028.661453271578
 31
0.0
  0
LINE
  5
513A
330
5136
100
AcDbEntity
  8
寸法線
 62
     0
 48
10.0
100
AcDbLine
 10
621.969456735352
 20
1109.61280924634
 30
0.0
 11
621.969456735352
 21
1028.661453271578
 31
0.0
  0
LINE
  5
513B
330
5136
100
AcDbEntity
  8
寸法線
 62
     0
 48
10.0
100
AcDbLine
 10
542.96945673535
 20
1029.911453271578
 30
0.0
 11
615.969456735352
 21
1029.911453271578
 31
0.0
  0
INSERT
  5
513C
330
5136
100
AcDbEntity
  8
寸法線
 62
     0
100
AcDbBlockReference
  2
_OPEN30
 10
536.96945673535
 20
1029.911453271578
 30
0.0
 41
6.0
 42
6.0
 43
6.0
 50
180.0
  0
INSERT
  5
513D
330
5136
100
AcDbEntity
  8
寸法線
 62
     0
100
AcDbBlockReference
  2
_OPEN30
 10
621.969456735352
 20
1029.911453271578
 30
0.0
 41
6.0
 42
6.0
 43
6.0
  0
MTEXT
  5
513E
330
5136
100
AcDbEntity
  8
寸法線
 62
     0
 48
10.0
100
AcDbMText
 10
578.994465735351
 20
1033.542703271578
 30
0.0
 40
6.0
 41
0.0
 71
     5
 72
     1
  1
\A1;85
  0
POINT
  5
513F
330
5136
100
AcDbEntity
  8
DEFPOINTS
 62
     0
100
AcDbPoint
 10
536.96945673535
 20
1110.23780924634
 30
0.0
  0
POINT
  5
5140
330
5136
100
AcDbEntity
  8
DEFPOINTS
 62
     0
100
AcDbPoint
 10
621.969456735352
 20
1110.23780924634
 30
0.0
  0
POINT
  5
5141
330
5136
100
AcDbEntity
  8
DEFPOINTS
 62
     0
100
AcDbPoint
 10
621.969456735352
 20
1029.911453271578
 30
0.0
  0
ENDBLK
  5
5138
330
5136
100
AcDbEntity
  8
0
100
AcDbBlockEnd
  0
BLOCK
  5
514E
330
514D
100
AcDbEntity
  8
0
100
AcDbBlockBegin
  2
*D62
 70
     1
 10
0.0
 20
0.0
 30
0.0
  3
*D62
  1
*D62
  0
LINE
  5
5150
330
514D
100
AcDbEntity
  8
寸法線
 62
     0
 48
10.0
100
AcDbLine
 10
512.894474735352
 20
1144.00832724634
 30
0.0
 11
518.668441060638
 21
1144.00832724634
 31
0.0
  0
LINE
  5
5151
330
514D
100
AcDbEntity
  8
寸法線
 62
     0
 48
10.0
100
AcDbLine
 10
512.894474735352
 20
1117.56732724634
 30
0.0
 11
518.668441060638
 21
1117.56732724634
 31
0.0
  0
LINE
  5
5152
330
514D
100
AcDbEntity
  8
寸法線
 62
     0
 48
10.0
100
AcDbLine
 10
517.418441060638
 20
1144.00832724634
 30
0.0
 11
517.418441060638
 21
1174.81365733223
 31
0.0
  0
LINE
  5
5153
330
514D
100
AcDbEntity
  8
寸法線
 62
     0
 48
10.0
100
AcDbLine
 10
517.418441060638
 20
1138.00832724634
 30
0.0
 11
517.418441060638
 21
1123.56732724634
 31
0.0
  0
INSERT
  5
5154
330
514D
100
AcDbEntity
  8
寸法線
 62
     0
100
AcDbBlockReference
  2
_OPEN30
 10
517.418441060638
 20
1144.00832724634
 30
0.0
 41
6.0
 42
6.0
 43
6.0
 50
90.0
  0
INSERT
  5
5155
330
514D
100
AcDbEntity
  8
寸法線
 62
     0
100
AcDbBlockReference
  2
_OPEN30
 10
517.418441060638
 20
1117.56732724634
 30
0.0
 41
6.0
 42
6.0
 43
6.0
 50
270.0
  0
MTEXT
  5
5156
330
514D
100
AcDbEntity
  8
寸法線
 62
     0
 48
10.0
100
AcDbMText
 10
513.790316060638
 20
1162.48865733223
 30
0.0
 40
6.0
 41
0.0
 71
     5
 72
     1
  1
\A1;G 3/4"
 11
0.0
 21
1.0
 31
0.0
  0
POINT
  5
5157
330
514D
100
AcDbEntity
  8
DEFPOINTS
 62
     0
100
AcDbPoint
 10
512.269474735352
 20
1144.00832724634
 30
0.0
  0
POINT
  5
5158
330
514D
100
AcDbEntity
  8
DEFPOINTS
 62
     0
100
AcDbPoint
 10
512.269474735352
 20
1117.56732724634
 30
0.0
  0
POINT
  5
5159
330
514D
100
AcDbEntity
  8
DEFPOINTS
 62
     0
100
AcDbPoint
 10
517.418441060638
 20
1117.56732724634
 30
0.0
  0
ENDBLK
  5
514F
330
514D
100
AcDbEntity
  8
0
100
AcDbBlockEnd
  0
BLOCK
  5
515B
330
515A
100
AcDbEntity
  8
0
100
AcDbBlockBegin
  2
*D63
 70
     1
 10
0.0
 20
0.0
 30
0.0
  3
*D63
  1
*D63
  0
LINE
  5
515D
330
515A
100
AcDbEntity
  8
寸法線
 62
     0
 48
10.0
100
AcDbLine
 10
664.794437235352
 20
1156.28782724634
 30
0.0
 11
724.172214654577
 21
1156.28782724634
 31
0.0
  0
LINE
  5
515E
330
515A
100
AcDbEntity
  8
寸法線
 62
     0
 48
10.0
100
AcDbLine
 10
664.794437235352
 20
1085.28782724634
 30
0.0
 11
724.172214654577
 21
1085.28782724634
 31
0.0
  0
LINE
  5
515F
330
515A
100
AcDbEntity
  8
寸法線
 62
     0
 48
10.0
100
AcDbLine
 10
722.922214654577
 20
1150.28782724634
 30
0.0
 11
722.922214654577
 21
1091.28782724634
 31
0.0
  0
INSERT
  5
5160
330
515A
100
AcDbEntity
  8
寸法線
 62
     0
100
AcDbBlockReference
  2
_OPEN30
 10
722.922214654577
 20
1156.28782724634
 30
0.0
 41
6.0
 42
6.0
 43
6.0
 50
90.0
  0
INSERT
  5
5161
330
515A
100
AcDbEntity
  8
寸法線
 62
     0
100
AcDbBlockReference
  2
_OPEN30
 10
722.922214654577
 20
1085.28782724634
 30
0.0
 41
6.0
 42
6.0
 43
6.0
 50
270.0
  0
MTEXT
  5
5162
330
515A
100
AcDbEntity
  8
寸法線
 62
     0
 48
10.0
100
AcDbMText
 10
719.294089654577
 20
1120.96280024634
 30
0.0
 40
6.0
 41
0.0
 71
     5
 72
     1
  1
\A1;φ72
 11
0.0
 21
1.0
 31
0.0
  0
POINT
  5
5163
330
515A
100
AcDbEntity
  8
DEFPOINTS
 62
     0
100
AcDbPoint
 10
664.169437235352
 20
1156.28782724634
 30
0.0
  0
POINT
  5
5164
330
515A
100
AcDbEntity
  8
DEFPOINTS
 62
     0
100
AcDbPoint
 10
664.169437235352
 20
1085.28782724634
 30
0.0
  0
POINT
  5
5165
330
515A
100
AcDbEntity
  8
DEFPOINTS
 62
     0
100
AcDbPoint
 10
722.922214654577
 20
1085.28782724634
 30
0.0
  0
ENDBLK
  5
515C
330
515A
100
AcDbEntity
  8
0
100
AcDbBlockEnd
  0
BLOCK
  5
516A
330
5169
100
AcDbEntity
  8
0
100
AcDbBlockBegin
  2
*D64
 70
     1
 10
0.0
 20
0.0
 30
0.0
  3
*D64
  1
*D64
  0
LINE
  5
516C
330
5169
100
AcDbEntity
  8
寸法線
 62
     0
 48
10.0
100
AcDbLine
 10
362.876584234087
 20
1071.174031236478
 30
0.0
 11
362.876584234087
 21
1028.661453271578
 31
0.0
  0
LINE
  5
516D
330
5169
100
AcDbEntity
  8
寸法線
 62
     0
 48
10.0
100
AcDbLine
 10
536.969456735353
 20
1109.61280924634
 30
0.0
 11
536.969456735353
 21
1028.661453271578
 31
0.0
  0
LINE
  5
516E
330
5169
100
AcDbEntity
  8
寸法線
 62
     0
 48
10.0
100
AcDbLine
 10
368.876584234087
 20
1029.911453271578
 30
0.0
 11
530.969456735353
 21
1029.911453271578
 31
0.0
  0
INSERT
  5
516F
330
5169
100
AcDbEntity
  8
寸法線
 62
     0
100
AcDbBlockReference
  2
_OPEN30
 10
362.876584234087
 20
1029.911453271578
 30
0.0
 41
6.0
 42
6.0
 43
6.0
 50
180.0
  0
INSERT
  5
5170
330
5169
100
AcDbEntity
  8
寸法線
 62
     0
100
AcDbBlockReference
  2
_OPEN30
 10
536.969456735353
 20
1029.911453271578
 30
0.0
 41
6.0
 42
6.0
 43
6.0
  0
POINT
  5
5171
330
5169
100
AcDbEntity
  8
DEFPOINTS
 62
     0
100
AcDbPoint
 10
362.876584234087
 20
1071.799031236478
 30
0.0
  0
POINT
  5
5172
330
5169
100
AcDbEntity
  8
DEFPOINTS
 62
     0
100
AcDbPoint
 10
536.969456735353
 20
1110.23780924634
 30
0.0
  0
POINT
  5
5173
330
5169
100
AcDbEntity
  8
DEFPOINTS
 62
     0
100
AcDbPoint
 10
536.969456735353
 20
1029.911453271578
 30
0.0
  0
ENDBLK
  5
516B
330
5169
100
AcDbEntity
  8
0
100
AcDbBlockEnd
  0
ENDSEC
  0
SECTION
  2
ENTITIES
  0
LINE
  5
3B51
330
1A
100
AcDbEntity
  8
外形線
100
AcDbLine
 10
420.376584234087
 20
1140.78771974634
 30
0.0
 11
420.376584234087
 21
1120.78793474634
 31
0.0
  0
ARC
  5
3B52
330
1A
100
AcDbEntity
  8
細線
100
AcDbCircle
 10
470.236606678823
 20
1132.28787224634
 30
0.0
 40
3.0
100
AcDbArc
 50
149.999999999999
 51
210.000000000001
  0
ARC
  5
3B53
330
1A
100
AcDbEntity
  8
細線
100
AcDbCircle
 10
468.230318659208
 20
1132.28787314634
 30
0.0
 40
3.0
100
AcDbArc
 50
150.000019847847
 51
210.000019847842
  0
ARC
  5
3B54
330
1A
100
AcDbEntity
  8
細線
100
AcDbCircle
 10
463.034166236501
 20
1132.28787134634
 30
0.0
 40
3.0
100
AcDbArc
 50
330.000019847847
 51
30.000019847842
  0
LINE
  5
3B55
330
1A
100
AcDbEntity
  8
外形線
100
AcDbLine
 10
467.63853046747
 20
1133.78787224634
 30
0.0
 11
469.69496446747
 21
1133.78787224634
 31
0.0
  0
ARC
  5
3B56
330
1A
100
AcDbEntity
  8
細線
100
AcDbCircle
 10
479.40113446747
 20
1135.78784174634
 30
0.0
 40
9.910074000000002
100
AcDbArc
 50
149.699719810145
 51
210.300262589763
  0
ARC
  5
3B57
330
1A
100
AcDbEntity
  8
細線
100
AcDbCircle
 10
454.25198746747
 20
1135.86254924634
 30
0.0
 40
9.674058
100
AcDbArc
 50
347.616416390627
 51
30.605153280391
  0
ARC
  5
3B58
330
1A
100
AcDbEntity
  8
細線
100
AcDbCircle
 10
471.31576846747
 20
1135.78784174634
 30
0.0
 40
10.0668165
100
AcDbArc
 50
150.219679009226
 51
209.780303390683
  0
LINE
  5
3B59
330
1A
100
AcDbEntity
  8
外形線
100
AcDbLine
 10
465.63224296747
 20
1133.78787224634
 30
0.0
 11
461.44961146747
 21
1133.78787224634
 31
0.0
  0
LINE
  5
3B5A
330
1A
100
AcDbEntity
  8
外形線
100
AcDbLine
 10
462.578456931372
 20
1140.78771974634
 30
0.0
 11
420.376584234087
 21
1140.78771974634
 31
0.0
  0
LINE
  5
3B5B
330
1A
100
AcDbEntity
  8
外形線
100
AcDbLine
 10
470.844804257001
 20
1140.78771974634
 30
0.0
 11
511.769474735352
 21
1140.78771974634
 31
0.0
  0
ARC
  5
3B5C
330
1A
100
AcDbEntity
  8
細線
100
AcDbCircle
 10
465.040454256117
 20
1129.28787224634
 30
0.0
 40
3.0
100
AcDbArc
 50
329.999999999999
 51
30.000000000001
  0
ARC
  5
3B5D
330
1A
100
AcDbEntity
  8
細線
100
AcDbCircle
 10
470.236606678823
 20
1129.28787224634
 30
0.0
 40
3.0
100
AcDbArc
 50
149.999999999999
 51
210.000000000001
  0
ARC
  5
3B5E
330
1A
100
AcDbEntity
  8
細線
100
AcDbCircle
 10
463.034167275731
 20
1129.28787134634
 30
0.0
 40
3.0
100
AcDbArc
 50
330.000019847847
 51
30.000019847842
  0
LINE
  5
3B5F
330
1A
100
AcDbEntity
  8
外形線
100
AcDbLine
 10
467.63853046747
 20
1127.78787224634
 30
0.0
 11
471.96288646747
 21
1127.78787224634
 31
0.0
  0
ARC
  5
3B60
330
1A
100
AcDbEntity
  8
細線
100
AcDbCircle
 10
479.54874046747
 20
1125.88293524634
 30
0.0
 40
10.08543
100
AcDbArc
 50
169.112389345873
 51
210.343584772571
  0
ARC
  5
3B61
330
1A
100
AcDbEntity
  8
細線
100
AcDbCircle
 10
462.01259146747
 20
1125.78790274634
 30
0.0
 40
10.1493
100
AcDbArc
 50
330.48564139851
 51
29.514241638464
  0
ARC
  5
3B62
330
1A
100
AcDbEntity
  8
細線
100
AcDbCircle
 10
453.98955046747
 20
1125.78790274634
 30
0.0
 40
9.938206500000001
100
AcDbArc
 50
329.794449581524
 51
30.205515218292
  0
LINE
  5
3B63
330
1A
100
AcDbEntity
  8
外形線
100
AcDbLine
 10
465.63224296747
 20
1127.78787224634
 30
0.0
 11
463.72444546747
 21
1127.78787224634
 31
0.0
  0
LINE
  5
3B64
330
1A
100
AcDbEntity
  8
外形線
100
AcDbLine
 10
462.57840760197
 20
1120.787954590629
 30
0.0
 11
420.376584234087
 21
1120.78793474634
 31
0.0
  0
LINE
  5
3B65
330
1A
100
AcDbEntity
  8
外形線
100
AcDbLine
 10
470.844839793291
 20
1120.78793474634
 30
0.0
 11
511.769474735352
 21
1120.787934746339
 31
0.0
  0
LINE
  5
3BA4
330
1A
100
AcDbEntity
  8
外形線
100
AcDbLine
 10
362.876584234087
 20
1170.78762974634
 30
0.0
 11
397.876577734087
 21
1170.78762974634
 31
0.0
  0
LINE
  5
3BA5
330
1A
100
AcDbEntity
  8
外形線
100
AcDbLine
 10
400.286450734087
 20
1136.56778174634
 30
0.0
 11
397.876577734087
 21
1170.78762974634
 31
0.0
  0
LINE
  5
3BA6
330
1A
100
AcDbEntity
  8
外形線
100
AcDbLine
 10
362.876584234087
 20
1170.78762974634
 30
0.0
 11
362.876584234087
 21
1090.78784474634
 31
0.0
  0
LINE
  5
3BA7
330
1A
100
AcDbEntity
  8
外形線
100
AcDbLine
 10
362.876584234087
 20
1090.78784474634
 30
0.0
 11
397.876577734087
 21
1090.78784474634
 31
0.0
  0
LINE
  5
3BA8
330
1A
100
AcDbEntity
  8
外形線
100
AcDbLine
 10
400.286450734087
 20
1125.00778424634
 30
0.0
 11
397.876577734087
 21
1090.78784474634
 31
0.0
  0
CIRCLE
  5
3BA9
330
1A
100
AcDbEntity
  8
外形線
100
AcDbCircle
 10
386.375585734087
 20
1130.78778224634
 30
0.0
 40
2.499
  0
LINE
  5
3BAA
330
1A
100
AcDbEntity
  8
外形線
100
AcDbLine
 10
382.376584234087
 20
1125.75778424634
 30
0.0
 11
382.376584234087
 21
1135.81778174634
 31
0.0
  0
LINE
  5
3BAB
330
1A
100
AcDbEntity
  8
外形線
100
AcDbLine
 10
383.576588734087
 20
1136.56778174634
 30
0.0
 11
411.184275265749
 21
1136.56778174634
 31
0.0
  0
LINE
  5
3BAC
330
1A
100
AcDbEntity
  8
外形線
100
AcDbLine
 10
383.576588734087
 20
1136.56778174634
 30
0.0
 11
382.376584234087
 21
1135.81778174634
 31
0.0
  0
LINE
  5
3BAD
330
1A
100
AcDbEntity
  8
細線
100
AcDbLine
 10
383.643148234087
 20
1133.67773624634
 30
0.0
 11
411.11007537201
 21
1133.67773624634
 31
0.0
  0
LINE
  5
3BAE
330
1A
100
AcDbEntity
  8
外形線
100
AcDbLine
 10
383.576588734087
 20
1125.00778424634
 30
0.0
 11
382.376584234087
 21
1125.75778424634
 31
0.0
  0
LINE
  5
3BAF
330
1A
100
AcDbEntity
  8
外形線
100
AcDbLine
 10
383.576588734087
 20
1125.00778424634
 30
0.0
 11
411.176579734087
 21
1125.00778424634
 31
0.0
  0
LINE
  5
3BB0
330
1A
100
AcDbEntity
  8
細線
100
AcDbLine
 10
383.643148234087
 20
1127.89773824634
 30
0.0
 11
411.116618312197
 21
1127.89773824634
 31
0.0
  0
CIRCLE
  5
3BB1
330
1A
100
AcDbEntity
  8
外形線
100
AcDbCircle
 10
404.876584234087
 20
1130.78778224634
 30
0.0
 40
0.9999
  0
ARC
  5
3BB2
330
1A
100
AcDbEntity
  8
細線
100
AcDbCircle
 10
386.307011734087
 20
1130.78773724634
 30
0.0
 40
3.9304305
100
AcDbArc
 50
132.668434758326
 51
227.331604937359
  0
ARC
  5
3BB3
330
1A
100
AcDbEntity
  8
細線
100
AcDbCircle
 10
385.546826734087
 20
1136.24922374634
 30
0.0
 40
3.1994565
100
AcDbArc
 50
187.749961576341
 51
233.487520784033
  0
ARC
  5
3BB4
330
1A
100
AcDbEntity
  8
細線
100
AcDbCircle
 10
385.546826734087
 20
1125.32634224634
 30
0.0
 40
3.1994565
100
AcDbArc
 50
126.512518911657
 51
172.250078119342
  0
LINE
  5
3BB5
330
1A
100
AcDbEntity
  8
外形線
100
AcDbLine
 10
412.376584234087
 20
1135.822591435591
 30
0.0
 11
412.376584234087
 21
1125.762593935591
 31
0.0
  0
LINE
  5
3BB6
330
1A
100
AcDbEntity
  8
外形線
100
AcDbLine
 10
411.176579734087
 20
1125.012593935591
 30
0.0
 11
412.376584234087
 21
1125.762593935591
 31
0.0
  0
LINE
  5
3BB7
330
1A
100
AcDbEntity
  8
外形線
100
AcDbLine
 10
411.184275265749
 20
1136.56778174634
 30
0.0
 11
412.384279765749
 21
1135.81778174634
 31
0.0
  0
ARC
  5
3BB8
330
1A
100
AcDbEntity
  8
細線
100
AcDbCircle
 10
408.446156734087
 20
1130.792638435591
 30
0.0
 40
3.9304305
100
AcDbArc
 50
312.668434758326
 51
47.331604937359
  0
ARC
  5
3BB9
330
1A
100
AcDbEntity
  8
細線
100
AcDbCircle
 10
409.206341734087
 20
1125.331151935591
 30
0.0
 40
3.1994565
100
AcDbArc
 50
7.749961576341
 51
53.487520784032
  0
ARC
  5
3BBA
330
1A
100
AcDbEntity
  8
細線
100
AcDbCircle
 10
409.206341734087
 20
1136.254033435591
 30
0.0
 40
3.1994565
100
AcDbArc
 50
306.512518911657
 51
352.250078119342
  0
LINE
  5
3BBB
330
1A
100
AcDbEntity
  8
中心線
 48
10.0
100
AcDbLine
 10
386.375585734087
 20
1133.67773624634
 30
0.0
 11
386.375585734087
 21
1127.89773824634
 31
0.0
  0
LINE
  5
3BBC
330
1A
100
AcDbEntity
  8
中心線
 48
10.0
100
AcDbLine
 10
404.876584234087
 20
1132.85147324634
 30
0.0
 11
404.876584234087
 21
1128.72409124634
 31
0.0
  0
LINE
  5
3BBD
330
1A
100
AcDbEntity
  8
中心線
 48
10.0
100
AcDbLine
 10
355.519055336692
 20
1130.78782724634
 30
0.0
 11
639.085899700901
 21
1130.78782724634
 31
0.0
  0
DIMENSION
  5
3C1E
330
1A
100
AcDbEntity
  8
寸法線
 48
10.0
100
AcDbDimension
  2
*D8
 10
413.998829549778
 20
1127.78782724634
 30
0.0
 11
413.998829549778
 21
1150.85974724634
 31
0.0
 70
   160
  1
φ<>
  3
ISO-25
100
AcDbAlignedDimension
 13
413.998829549778
 23
1133.78787224634
 33
0.0
 14
412.343690808193
 24
1127.78782724634
 34
0.0
 50
90.0
100
AcDbRotatedDimension
1001
ACAD
1000
DSTYLE
1002
{
1070
     5
1000
OPEN30
1070
    41
1040
6.0
1070
    47
1040
0.1
1070
    48
1040
0.1
1070
    73
1070
     0
1070
   140
1040
6.0
1070
   271
1070
     1
1070
   272
1070
     1
1070
   341
1005
2AF4
1002
}
  0
DIMENSION
  5
3C1F
330
1A
100
AcDbEntity
  8
寸法線
 48
10.0
100
AcDbDimension
  2
*D9
 10
343.505128062081
 20
1090.78784474634
 30
0.0
 11
339.873878062082
 21
1130.78773724634
 31
0.0
 70
    32
  3
ISO-25
100
AcDbAlignedDimension
 13
362.876584234087
 23
1170.78762974634
 33
0.0
 14
362.876584234087
 24
1090.78784474634
 34
0.0
 50
90.0
100
AcDbRotatedDimension
1001
ACAD
1000
DSTYLE
1002
{
1070
     5
1000
OPEN30
1070
    41
1040
6.0
1070
    47
1040
0.1
1070
    48
1040
0.1
1070
    73
1070
     0
1070
   140
1040
6.0
1070
   271
1070
     1
1070
   272
1070
     1
1070
   341
1005
2AF4
1002
}
  0
DIMENSION
  5
3C20
330
1A
100
AcDbEntity
  8
寸法線
 48
10.0
100
AcDbDimension
  2
*D10
 10
397.876577734087
 20
1071.799031236478
 30
0.0
 11
380.376580984087
 21
1075.427156236478
 31
0.0
 70
    32
  3
ISO-25
100
AcDbAlignedDimension
 13
362.876584234087
 23
1090.78784474634
 33
0.0
 14
397.876577734087
 24
1090.78784474634
 34
0.0
100
AcDbRotatedDimension
1001
ACAD
1000
DSTYLE
1002
{
1070
     5
1000
OPEN30
1070
    41
1040
6.0
1070
    47
1040
0.1
1070
    48
1040
0.1
1070
    73
1070
     0
1070
   140
1040
6.0
1070
   271
1070
     1
1070
   272
1070
     1
1070
   341
1005
2AF4
1002
}
  0
LINE
  5
3C67
330
1A
100
AcDbEntity
  8
外形線
100
AcDbLine
 10
420.376584234087
 20
1127.78782724634
 30
0.0
 11
412.376584234087
 21
1127.78782724634
 31
0.0
  0
LINE
  5
3C68
330
1A
100
AcDbEntity
  8
外形線
100
AcDbLine
 10
420.376584234087
 20
1133.78782724634
 30
0.0
 11
412.376584234087
 21
1133.78782724634
 31
0.0
  0
LEADER
  5
421C
330
1A
100
AcDbEntity
  8
寸法線
 48
10.0
100
AcDbLeader
  3
ISO-25
 73
     0
 75
     1
 40
6.0
 41
41.8
 76
     3
 10
487.937218659029
 20
1140.78771974634
 30
0.0
 10
470.252863927967
 20
1216.443801964739
 30
0.0
 10
464.252863927967
 20
1216.443801964739
 30
0.0
340
421D
213
-6.591981192539265
223
-0.6199435778335101
233
0.0
1001
ACAD
1000
DSTYLE
1002
{
1070
     5
1000
OPEN30
1070
   147
1040
0.625
1070
    77
1070
     0
1070
    41
1040
6.0
1070
    47
1040
0.1
1070
    48
1040
0.1
1070
    73
1070
     0
1070
   140
1040
5.0
1070
   271
1070
     1
1070
   272
1070
     1
1070
   341
1005
2AF4
1070
   342
1005
2AF4
1002
}
  0
MTEXT
  5
421D
102
{ACAD_REACTORS
330
421C
102
}
330
1A
100
AcDbEntity
  8
寸法線
 48
10.0
100
AcDbMText
 10
470.219845120507
 20
1217.063745542573
 30
0.0
 40
6.0
 41
0.0
 71
     9
 72
     1
  1
アルミパイプ
  0
LEADER
  5
4223
330
1A
100
AcDbEntity
  8
寸法線
 48
10.0
100
AcDbLeader
  3
ISO-25
 73
     0
 74
     0
 75
     1
 40
6.2
 41
30.0
 76
     3
 10
405.080092696023
 20
1129.630746559724
 30
0.0
 10
418.035986084964
 20
1090.901018206797
 30
0.0
 10
424.035986084964
 20
1090.901018206797
 30
0.0
340
4224
213
5.951278569629267
223
-0.38259445823428
233
0.0
1001
ACAD
1000
DSTYLE
1002
{
1070
     5
1000
OPEN30
1070
   147
1040
0.625
1070
    77
1070
     0
1070
    41
1040
6.0
1070
    47
1040
0.1
1070
    48
1040
0.1
1070
    73
1070
     0
1070
   140
1040
5.0
1070
   271
1070
     1
1070
   272
1070
     1
1070
   341
1005
2AF4
1070
   342
1005
2AF4
1002
}
  0
MTEXT
  5
4224
102
{ACAD_REACTORS
330
4223
102
}
330
1A
100
AcDbEntity
  8
寸法線
 48
10.0
100
AcDbMText
 10
418.709707515335
 20
1091.283612665031
 30
0.0
 40
6.0
 41
0.0
 71
     7
 72
     1
  1
\A1;φ2割ピン
  0
DIMENSION
  5
4688
330
1A
100
AcDbEntity
  8
寸法線
 48
10.0
100
AcDbDimension
  2
*D17
 10
439.036256730922
 20
1140.78771974634
 30
0.0
 11
439.036256730922
 21
1153.96271974634
 31
0.0
 70
   160
  1
φ<>
  3
ISO-25
100
AcDbAlignedDimension
 13
420.376584234087
 23
1120.78793474634
 33
0.0
 14
420.376584234087
 24
1140.78771974634
 34
0.0
 50
90.0
100
AcDbRotatedDimension
1001
ACAD
1000
DSTYLE
1002
{
1070
     5
1000
OPEN30
1070
    76
1070
     1
1070
    75
1070
     1
1070
    41
1040
6.0
1070
    47
1040
0.1
1070
    48
1040
0.1
1070
    73
1070
     0
1070
   140
1040
6.0
1070
   271
1070
     1
1070
   272
1070
     1
1070
   341
1005
2AF4
1002
}
  0
SPLINE
  5
47AF
330
1A
100
AcDbEntity
  8
寸法線
 48
10.0
100
AcDbSpline
210
0.0
220
0.0
230
1.0
 70
  1064
 71
     3
 72
    13
 73
     9
 74
     7
 42
0.000000001
 43
0.0000000001
 44
0.0000000001
 40
0.0
 40
0.0
 40
0.0
 40
0.0
 40
3.094737691369779
 40
8.098032954151758
 40
12.13064821938863
 40
14.91961887704707
 40
16.40265124976729
 40
17.478150104342
 40
17.478150104342
 40
17.478150104342
 40
17.478150104342
 10
447.1572717364604
 20
1030.852700942963
 30
0.0
 10
448.0775873167468
 20
1031.277831474632
 30
0.0
 10
450.485786860819
 20
1032.390275047757
 30
0.0
 10
451.0660954336427
 20
1040.156201045854
 30
0.0
 10
447.6333946169323
 20
1034.570670726777
 30
0.0
 10
447.783709842708
 20
1031.735164493844
 30
0.0
 10
449.5922465970204
 20
1030.624340572265
 30
0.0
 10
450.39219197439
 20
1031.024500936369
 30
0.0
 10
450.7284553460874
 20
1031.192711513066
 30
0.0
 11
447.1572717364604
 21
1030.852700942963
 31
0.0
 11
449.6230888415793
 21
1032.722767086844
 31
0.0
 11
450.1757720938334
 21
1037.695442896632
 31
0.0
 11
448.0075541448658
 21
1034.295322780637
 31
0.0
 11
448.3901813330513
 21
1031.532723684832
 31
0.0
 11
449.7081168736137
 21
1030.852700942963
 31
0.0
 11
450.7284553460874
 21
1031.192711513066
 31
0.0
  0
MTEXT
  5
4B02
330
1A
100
AcDbEntity
  8
寸法線
 48
10.0
100
AcDbMText
 10
453.658398012508
 20
1443.816466637896
 30
0.0
 40
5.0
 41
0.0
 71
     9
 72
     1
  1
\A1;
  0
ARC
  5
4F39
330
1A
100
AcDbEntity
  8
隠れ線
 48
10.0
100
AcDbCircle
 10
262.221953460636
 20
1120.876363129573
 30
0.0
 40
36.0
100
AcDbArc
 50
91.432543737566
 51
88.567456262434
  0
ARC
  5
4F3A
330
1A
100
AcDbEntity
  8
隠れ線
 48
10.0
100
AcDbCircle
 10
262.221953460636
 20
1120.876363129573
 30
0.0
 40
34.5
100
AcDbArc
 50
91.494842089047
 51
88.505157910953
  0
LINE
  5
4F3B
330
1A
100
AcDbEntity
  8
中心線
 48
10.0
100
AcDbLine
 10
277.853910448166
 20
1094.032712697993
 30
0.0
 11
306.417387960637
 21
1044.559561129573
 31
0.0
  0
LINE
  5
4F3C
330
1A
100
AcDbEntity
  8
外形線
100
AcDbLine
 10
269.414413582235
 20
1081.650384775697
 30
0.0
 11
277.593419487972
 21
1086.37253672415
 31
0.0
  0
LINE
  5
4F3D
330
1A
100
AcDbEntity
  8
外形線
100
AcDbLine
 10
270.014431654074
 20
1080.611128415195
 30
0.0
 11
293.39710016474
 21
1094.111167900747
 31
0.0
  0
LINE
  5
4F3E
330
1A
100
AcDbEntity
  8
外形線
100
AcDbLine
 10
303.241045161722
 20
1074.108926775425
 30
0.0
 11
282.414866251514
 21
1062.084926775425
 31
0.0
  0
LINE
  5
4F3F
330
1A
100
AcDbEntity
  8
外形線
100
AcDbLine
 10
273.797666251515
 20
1077.010354994407
 30
0.0
 11
294.623845161722
 21
1089.034354994407
 31
0.0
  0
LINE
  5
4F40
330
1A
100
AcDbEntity
  8
外形線
100
AcDbLine
 10
297.128845161722
 20
1084.695567721446
 30
0.0
 11
276.302666251515
 21
1072.671567721447
 31
0.0
  0
ARC
  5
4F41
330
1A
100
AcDbEntity
  8
外形線
100
AcDbCircle
 10
286.787696069882
 20
1062.526963357158
 30
0.0
 40
4.007999999999999
100
AcDbArc
 50
210.000000000002
 51
300.000000000002
  0
LINE
  5
4F42
330
1A
100
AcDbEntity
  8
外形線
100
AcDbLine
 10
286.715755706618
 20
1078.683567721447
 30
0.0
 11
291.725755706619
 21
1070.005993175527
 31
0.0
  0
ARC
  5
4F43
330
1A
100
AcDbEntity
  8
外形線
100
AcDbCircle
 10
282.971220069976
 20
1073.145293694864
 30
0.0
 40
9.30038181818205
100
AcDbArc
 50
259.727393143495
 51
340.272606856496
  0
LINE
  5
4F44
330
1A
100
AcDbEntity
  8
外形線
100
AcDbLine
 10
270.014416582236
 20
1080.611145775697
 30
0.0
 11
267.976227781687
 21
1084.14140908762
 31
0.0
  0
LINE
  5
4F45
330
1A
100
AcDbEntity
  8
外形線
100
AcDbLine
 10
282.414866251514
 20
1062.084926775425
 30
0.0
 11
283.316666251514
 21
1060.522963357158
 31
0.0
  0
LINE
  5
4F46
330
1A
100
AcDbEntity
  8
細線
100
AcDbLine
 10
278.797468933466
 20
1074.111942721446
 30
0.0
 11
276.292468933466
 21
1078.450729994407
 31
0.0
  0
LINE
  5
4F47
330
1A
100
AcDbEntity
  8
外形線
100
AcDbLine
 10
275.118826976131
 20
1077.773127494407
 30
0.0
 11
277.623826976131
 21
1073.434340221447
 31
0.0
  0
LINE
  5
4F48
330
1A
100
AcDbEntity
  8
外形線
100
AcDbLine
 10
271.292666251515
 20
1081.349142267366
 30
0.0
 11
273.797666251515
 21
1077.010354994407
 31
0.0
  0
LINE
  5
4F49
330
1A
100
AcDbEntity
  8
外形線
100
AcDbLine
 10
276.302666251515
 20
1072.671567721447
 30
0.0
 11
282.414866251514
 21
1062.084926775425
 31
0.0
  0
LINE
  5
4F4A
330
1A
100
AcDbEntity
  8
外形線
100
AcDbLine
 10
281.705755706618
 20
1087.361142267367
 30
0.0
 11
284.210755706618
 21
1083.022354994407
 31
0.0
  0
LINE
  5
4F4B
330
1A
100
AcDbEntity
  8
外形線
100
AcDbLine
 10
299.630930490939
 20
1065.313968449597
 30
0.0
 11
307.727919960637
 21
1051.289602129573
 31
0.0
  0
LINE
  5
4F4C
330
1A
100
AcDbEntity
  8
外形線
100
AcDbLine
 10
291.532988543866
 20
1060.638597408782
 30
0.0
 11
299.630010901817
 21
1046.614250076893
 31
0.0
  0
ARC
  5
4F4D
330
1A
100
AcDbEntity
  8
細線
100
AcDbCircle
 10
299.629964764885
 20
1051.11425252861
 30
0.0
 40
4.5
100
AcDbArc
 50
269.999994133302
 51
329.999994133297
  0
ARC
  5
4F4E
330
1A
100
AcDbEntity
  8
細線
100
AcDbCircle
 10
303.527079312299
 20
1053.364252129572
 30
0.0
 40
4.5
100
AcDbArc
 50
269.999994133302
 51
329.999994133297
  0
ARC
  5
4F4F
330
1A
100
AcDbEntity
  8
細線
100
AcDbCircle
 10
307.424192938175
 20
1046.614251730535
 30
0.0
 40
4.5
100
AcDbArc
 50
89.999994133303
 51
149.999994133297
  0
LINE
  5
4F50
330
1A
100
AcDbEntity
  8
外形線
100
AcDbLine
 10
293.397099082235
 20
1094.111169775697
 30
0.0
 11
292.819483004617
 21
1095.111628096132
 31
0.0
  0
LINE
  5
4F51
330
1A
100
AcDbEntity
  8
外形線
100
AcDbLine
 10
302.937330052617
 20
1073.933576775425
 30
0.0
 11
303.839130052616
 21
1072.371613357159
 31
0.0
  0
ARC
  5
4F52
330
1A
100
AcDbEntity
  8
外形線
100
AcDbCircle
 10
300.368100234249
 20
1070.367613357159
 30
0.0
 40
4.007999999999999
100
AcDbArc
 50
300.000000000002
 51
29.999999999998
  0
LINE
  5
4F53
330
1A
100
AcDbEntity
  8
外形線
100
AcDbLine
 10
289.09541117899
 20
1059.231283538791
 30
0.0
 11
302.372100234248
 21
1066.896583538791
 31
0.0
  0
LINE
  5
4F54
330
1A
100
AcDbEntity
  8
外形線
100
AcDbLine
 10
293.302684437107
 20
1088.271582494407
 30
0.0
 11
295.807684437107
 21
1083.932795221446
 31
0.0
  0
LINE
  5
4F55
330
1A
100
AcDbEntity
  8
細線
100
AcDbLine
 10
294.63404247977
 20
1083.255192721447
 30
0.0
 11
292.12904247977
 21
1087.593979994407
 31
0.0
  0
LINE
  5
4F56
330
1A
100
AcDbEntity
  8
外形線
100
AcDbLine
 10
292.118845161723
 20
1093.373142267367
 30
0.0
 11
294.623845161722
 21
1089.034354994407
 31
0.0
  0
LINE
  5
4F57
330
1A
100
AcDbEntity
  8
外形線
100
AcDbLine
 10
297.128845161722
 20
1084.695567721446
 30
0.0
 11
303.241045161722
 21
1074.108926775425
 31
0.0
  0
ARC
  5
4F58
330
1A
100
AcDbEntity
  8
外形線
100
AcDbCircle
 10
293.384309525079
 20
1079.157293694865
 30
0.0
 40
9.30038181818205
100
AcDbArc
 50
259.727393143495
 51
340.272606856496
  0
LINE
  5
4F73
330
1A
100
AcDbEntity
  8
中心線
 48
10.0
100
AcDbLine
 10
262.221953460636
 20
1181.91450415535
 30
0.0
 11
262.221953460636
 21
1076.59754434861
 31
0.0
  0
LINE
  5
4F74
330
1A
100
AcDbEntity
  8
外形線
 48
10.0
100
AcDbLine
 10
261.321953460636
 20
1170.78782724634
 30
0.0
 11
263.121953460636
 21
1170.78782724634
 31
0.0
  0
LINE
  5
4F75
330
1A
100
AcDbEntity
  8
外形線
 48
10.0
100
AcDbLine
 10
263.121953460636
 20
1170.78782724634
 30
0.0
 11
263.121953460636
 21
1090.78782724634
 31
0.0
  0
LINE
  5
4F76
330
1A
100
AcDbEntity
  8
外形線
 48
10.0
100
AcDbLine
 10
261.321953460636
 20
1170.78782724634
 30
0.0
 11
261.321953460636
 21
1090.78782724634
 31
0.0
  0
LINE
  5
4F77
330
1A
100
AcDbEntity
  8
外形線
 48
10.0
100
AcDbLine
 10
263.121953460636
 20
1090.78782724634
 30
0.0
 11
261.321953460636
 21
1090.78782724634
 31
0.0
  0
DIMENSION
  5
4F7B
330
1A
100
AcDbEntity
  8
寸法線
 48
10.0
100
AcDbDimension
  2
*D56
 10
704.969456735352
 20
1029.911453271578
 30
0.0
 11
663.469456735352
 21
1033.545828271578
 31
0.0
 70
    32
  1
83
  3
ISO-25
100
AcDbAlignedDimension
 13
621.969456735352
 23
1110.23780924634
 33
0.0
 14
704.969456735352
 24
1055.544694610337
 34
0.0
100
AcDbRotatedDimension
1001
ACAD
1000
DSTYLE
1002
{
1070
     5
1000
OPEN30
1070
    41
1040
6.0
1070
    47
1040
0.1
1070
    48
1040
0.1
1070
    73
1070
     0
1070
   140
1040
6.0
1070
   271
1070
     1
1070
   272
1070
     1
1070
   341
1005
2AF4
1002
}
  0
LINE
  5
4F84
330
1A
100
AcDbEntity
  8
中心線
 48
10.0
100
AcDbLine
 10
206.763446606028
 20
1120.876363129572
 30
0.0
 11
311.191042255776
 21
1120.876363129573
 31
0.0
  0
LINE
  5
4F85
330
1A
100
AcDbEntity
  8
中心線
 48
10.0
100
AcDbLine
 10
311.191042255776
 20
1130.78782724634
 30
0.0
 11
206.763446606028
 21
1130.78782724634
 31
0.0
  0
DIMENSION
  5
4F86
330
1A
100
AcDbEntity
  8
寸法線
 48
10.0
100
AcDbDimension
  2
*D57
 10
320.26933228927
 20
1120.876363129573
 30
0.0
 11
320.26933228927
 21
1125.832095187956
 31
0.0
 70
   160
  1
10
  3
ISO-25
100
AcDbAlignedDimension
 13
311.191042255776
 23
1130.78782724634
 33
0.0
 14
311.191042255776
 24
1120.876363129573
 34
0.0
 50
90.0
100
AcDbRotatedDimension
1001
ACAD
1000
DSTYLE
1002
{
1070
     5
1000
OPEN30
1070
    41
1040
6.0
1070
    47
1040
0.1
1070
    48
1040
0.1
1070
    73
1070
     0
1070
   140
1040
6.0
1070
   271
1070
     1
1070
   272
1070
     1
1070
   341
1005
2AF4
1002
}
  0
DIMENSION
  5
4F87
330
1A
100
AcDbEntity
  8
寸法線
 48
10.0
100
AcDbDimension
  2
*D58
 10
280.221953460636
 20
1185.675824304625
 30
0.0
 11
261.775978085292
 21
1185.675824304625
 31
0.0
 70
   160
  3
ISO-25
100
AcDbAlignedDimension
 13
244.221953460636
 23
1141.180132091753
 33
0.0
 14
280.221953460636
 24
1141.180132091753
 34
0.0
100
AcDbRotatedDimension
1001
ACAD
1000
DSTYLE
1002
{
1070
     5
1000
OPEN30
1070
    41
1040
6.0
1070
    47
1040
0.1
1070
    48
1040
0.1
1070
    73
1070
     0
1070
   140
1040
6.0
1070
   271
1070
     1
1070
   272
1070
     1
1070
   341
1005
2AF4
1002
}
  0
MTEXT
  5
4F88
330
1A
100
AcDbEntity
  8
寸法線
 48
10.0
100
AcDbMText
 10
256.246425720001
 20
1199.01027892402
 30
0.0
 40
6.0
 41
19.187492735629
 71
     1
 72
     5
  1
平径
  0
DIMENSION
  5
4F89
330
1A
100
AcDbEntity
  8
寸法線
 48
10.0
100
AcDbDimension
  2
*D59
 10
263.121953460636
 20
1099.709353369644
 30
0.0
 11
276.346953460636
 21
1103.334353369644
 31
0.0
 70
    32
  1
1
  3
ISO-25
100
AcDbAlignedDimension
 13
261.321953460636
 23
1099.709353369644
 33
0.0
 14
263.121953460636
 24
1099.709353369644
 34
0.0
100
AcDbRotatedDimension
1001
ACAD
1000
DSTYLE
1002
{
1070
     5
1000
OPEN30
1070
    41
1040
6.0
1070
    47
1040
0.1
1070
    48
1040
0.1
1070
    73
1070
     0
1070
   140
1040
6.0
1070
   271
1070
     1
1070
   272
1070
     1
1070
   341
1005
2AF4
1002
}
  0
DIMENSION
  5
4F94
330
1A
100
AcDbEntity
  8
寸法線
 48
10.0
100
AcDbDimension
  2
*D60
 10
621.969456735352
 20
1029.911453271578
 30
0.0
 11
578.994465735351
 21
1029.911453271578
 31
0.0
 70
   160
  1
85
  3
ISO-25
100
AcDbAlignedDimension
 13
536.96945673535
 23
1110.23780924634
 33
0.0
 14
621.969456735352
 24
1110.23780924634
 34
0.0
100
AcDbRotatedDimension
1001
ACAD
1000
DSTYLE
1002
{
1070
     5
1000
OPEN30
1070
    41
1040
6.0
1070
    47
1040
0.1
1070
    48
1040
0.1
1070
    73
1070
     0
1070
   140
1040
6.0
1070
   271
1070
     1
1070
   272
1070
     1
1070
   341
1005
2AF4
1002
}
  0
MTEXT
  5
4F95
330
1A
100
AcDbEntity
  8
寸法線
 48
10.0
100
AcDbMText
 10
415.160454419941
 20
1222.592496233034
 30
0.0
 40
6.0
 41
0.0
 71
     3
 72
     1
  1
\A1;SUS304
1001
ACAD
1000
MTEXTBEGIN
1070
    44
1040
0.8
1000
MTEXTEND
  0
MTEXT
  5
4F96
330
1A
100
AcDbEntity
  8
寸法線
 48
10.0
100
AcDbMText
 10
361.083782259461
 20
1216.556750283773
 30
0.0
 40
6.0
 41
0.0
 71
     9
 72
     1
  1
\A1;SUS304
1001
ACAD
1000
MTEXTBEGIN
1070
    44
1040
0.8
1000
MTEXTEND
  0
MTEXT
  5
4F97
330
1A
100
AcDbEntity
  8
寸法線
 48
10.0
100
AcDbMText
 10
516.170038316047
 20
1206.541170309705
 30
0.0
 40
6.0
 41
0.0
 71
     3
 72
     1
  1
\A1;ナット\PSS400
1001
ACAD
1000
MTEXTBEGIN
1070
    44
1040
0.8
1000
MTEXTEND
  0
MTEXT
  5
4F98
330
1A
100
AcDbEntity
  8
寸法線
 48
10.0
100
AcDbMText
 10
524.515190809577
 20
1230.341631143829
 30
0.0
 40
6.0
 41
0.0
 71
     3
 72
     1
  1
\A1;座金\PSS400
1001
ACAD
1000
MTEXTBEGIN
1070
    44
1040
0.8
1000
MTEXTEND
  0
MTEXT
  5
4F99
330
1A
100
AcDbEntity
  8
寸法線
 48
10.0
100
AcDbMText
 10
546.583760661833
 20
1223.452522815983
 30
0.0
 40
6.0
 41
0.0
 71
     1
 72
     1
  1
\A1;貴取付板
1001
ACAD
1000
MTEXTBEGIN
1070
    44
1040
0.8
1000
MTEXTEND
  0
MTEXT
  5
4F9A
330
1A
100
AcDbEntity
  8
寸法線
 48
10.0
100
AcDbMText
 10
549.217600983817
 20
1206.005082741213
 30
0.0
 40
6.0
 41
0.0
 71
     1
 72
     1
  1
ゴム\Pパッキン
1001
ACAD
1000
MTEXTBEGIN
1070
    44
1040
0.8
1000
MTEXTEND
  0
MTEXT
  5
4F9B
330
1A
100
AcDbEntity
  8
寸法線
 48
10.0
100
AcDbMText
 10
593.09610205831
 20
1223.078778852079
 30
0.0
 40
6.0
 41
0.0
 71
     1
 72
     1
  1
\A1;アルミ鋳物
1001
ACAD
1000
MTEXTBEGIN
1070
    44
1040
0.8
1000
MTEXTEND
  0
MTEXT
  5
4F9C
330
1A
100
AcDbEntity
  8
寸法線
 48
10.0
100
AcDbMText
 10
607.803838590454
 20
1198.97079977269
 30
0.0
 40
6.0
 41
0.0
 71
     1
 72
     1
  1
\A1;アルミ
1001
ACAD
1000
MTEXTBEGIN
1070
    44
1040
0.8
1000
MTEXTEND
  0
MTEXT
  5
4F9D
330
1A
100
AcDbEntity
  8
寸法線
 48
10.0
100
AcDbMText
 10
639.394474735352
 20
1223.078778852079
 30
0.0
 40
6.0
 41
0.0
 71
     1
 72
     1
  1
\A1;亜鉛ダイカスト
1001
ACAD
1000
MTEXTBEGIN
1070
    44
1040
0.8
1000
MTEXTEND
  0
MTEXT
  5
4F9E
330
1A
100
AcDbEntity
  8
寸法線
 48
10.0
100
AcDbMText
 10
658.268311788379
 20
1198.97079977269
 30
0.0
 40
6.0
 41
0.0
 71
     1
 72
     1
  1
\A1;Oリング
1001
ACAD
1000
MTEXTBEGIN
1070
    44
1040
0.8
1000
MTEXTEND
  0
MTEXT
  5
4F9F
330
1A
100
AcDbEntity
  8
寸法線
 48
10.0
100
AcDbMText
 10
704.440635943519
 20
1223.818987831954
 30
0.0
 40
6.0
 41
0.0
 71
     1
 72
     1
  1
\A1;亜鉛ダイカスト
1001
ACAD
1000
MTEXTBEGIN
1070
    44
1040
0.8
1000
MTEXTEND
  0
LEADER
  5
4FA3
330
1A
100
AcDbEntity
  8
寸法線
 48
10.0
100
AcDbLeader
  3
ISO-25
 76
     3
 10
418.048896829193
 20
1133.870646507049
 30
0.0
 10
414.856460936131
 20
1216.212393316738
 30
0.0
 10
405.653083042589
 20
1216.212393316738
 30
0.0
1001
ACAD
1000
DSTYLE
1002
{
1070
     5
1000
OPEN30
1070
   147
1040
0.625
1070
    77
1070
     0
1070
    41
1040
6.0
1070
    47
1040
0.1
1070
    48
1040
0.1
1070
    73
1070
     0
1070
   140
1040
5.0
1070
   271
1070
     1
1070
   272
1070
     1
1070
   341
1005
2AF4
1070
   342
1005
2AF4
1002
}
  0
LEADER
  5
4FA4
330
1A
100
AcDbEntity
  8
寸法線
 48
10.0
100
AcDbLeader
  3
ISO-25
 76
     3
 10
372.380454440377
 20
1170.798282367683
 30
0.0
 10
360.674499238752
 20
1216.212393316738
 30
0.0
 10
354.706755839131
 20
1216.212393316738
 30
0.0
1001
ACAD
1000
DSTYLE
1002
{
1070
     5
1000
OPEN30
1070
   147
1040
0.625
1070
    77
1070
     0
1070
    41
1040
6.0
1070
    47
1040
0.1
1070
    48
1040
0.1
1070
    73
1070
     0
1070
   140
1040
5.0
1070
   271
1070
     1
1070
   272
1070
     1
1070
   341
1005
2AF4
1070
   342
1005
2AF4
1002
}
  0
MTEXT
  5
4FA5
102
{ACAD_REACTORS
330
4FA6
102
}
330
1A
100
AcDbEntity
  8
寸法線
 48
10.0
100
AcDbMText
 10
431.00672420702
 20
1566.282699792206
 30
0.0
 40
5.0
 41
0.0
 71
     9
 72
     1
  1
\A1;
  0
LEADER
  5
4FA6
330
1A
100
AcDbEntity
  8
寸法線
 48
10.0
100
AcDbLeader
  3
ISO-25
 73
     0
 76
     3
 10
530.079213309881
 20
1153.304360115796
 30
0.0
 10
524.70028556819
 20
1216.212393316738
 30
0.0
 10
515.0600849781
 20
1216.212393316738
 30
0.0
340
4FA5
213
0.0
223
2.5
233
0.0
1001
ACAD
1000
DSTYLE
1002
{
1070
     5
1000
OPEN30
1070
   147
1040
0.625
1070
    77
1070
     0
1070
    41
1040
6.0
1070
    47
1040
0.1
1070
    48
1040
0.1
1070
    73
1070
     0
1070
   140
1040
5.0
1070
   271
1070
     1
1070
   272
1070
     1
1070
   341
1005
2AF4
1070
   342
1005
2AF4
1002
}
  0
LEADER
  5
4FA7
330
1A
100
AcDbEntity
  8
寸法線
 48
10.0
100
AcDbLeader
  3
ISO-25
 76
     3
 10
526.994680193306
 20
1151.783815621709
 30
0.0
 10
516.207728082677
 20
1192.129152728193
 30
0.0
 10
508.86281370174
 20
1192.129152728193
 30
0.0
1001
ACAD
1000
DSTYLE
1002
{
1070
     5
1000
OPEN30
1070
   147
1040
0.625
1070
    77
1070
     0
1070
    41
1040
6.0
1070
    47
1040
0.1
1070
    48
1040
0.1
1070
    73
1070
     0
1070
   140
1040
5.0
1070
   271
1070
     1
1070
   272
1070
     1
1070
   341
1005
2AF4
1070
   342
1005
2AF4
1002
}
  0
LEADER
  5
4FA8
330
1A
100
AcDbEntity
  8
寸法線
 48
10.0
100
AcDbLeader
  3
ISO-25
 76
     3
 10
532.372634883593
 20
1177.626262797
 30
0.0
 10
545.31373436292
 20
1216.212393316738
 30
0.0
 10
556.604755317391
 20
1216.212393316738
 30
0.0
1001
ACAD
1000
DSTYLE
1002
{
1070
     5
1000
OPEN30
1070
   147
1040
0.625
1070
    77
1070
     0
1070
    41
1040
6.0
1070
    47
1040
0.1
1070
    48
1040
0.1
1070
    73
1070
     0
1070
   140
1040
5.0
1070
   271
1070
     1
1070
   272
1070
     1
1070
   341
1005
2AF4
1070
   342
1005
2AF4
1002
}
  0
LEADER
  5
4FA9
330
1A
100
AcDbEntity
  8
寸法線
 48
10.0
100
AcDbLeader
  3
ISO-25
 76
     3
 10
535.852789705597
 20
1151.302325492529
 30
0.0
 10
548.721090570519
 20
1191.899788323875
 30
0.0
 10
559.751924044563
 20
1191.899788323875
 30
0.0
1001
ACAD
1000
DSTYLE
1002
{
1070
     5
1000
OPEN30
1070
   147
1040
0.625
1070
    77
1070
     0
1070
    41
1040
6.0
1070
    47
1040
0.1
1070
    48
1040
0.1
1070
    73
1070
     0
1070
   140
1040
5.0
1070
   271
1070
     1
1070
   272
1070
     1
1070
   341
1005
2AF4
1070
   342
1005
2AF4
1002
}
  0
LEADER
  5
4FAA
330
1A
100
AcDbEntity
  8
寸法線
 48
10.0
100
AcDbLeader
  3
ISO-25
 76
     3
 10
575.688819661273
 20
1148.28782724634
 30
0.0
 10
593.020685869513
 20
1215.98240882425
 30
0.0
 10
603.904427915977
 20
1215.98240882425
 30
0.0
1001
ACAD
1000
DSTYLE
1002
{
1070
     5
1000
OPEN30
1070
   147
1040
0.625
1070
    77
1070
     0
1070
    41
1040
6.0
1070
    47
1040
0.1
1070
    48
1040
0.1
1070
    73
1070
     0
1070
   140
1040
5.0
1070
   271
1070
     1
1070
   272
1070
     1
1070
   341
1005
2AF4
1070
   342
1005
2AF4
1002
}
  0
LEADER
  5
4FAB
330
1A
100
AcDbEntity
  8
寸法線
 48
10.0
100
AcDbLeader
  3
ISO-25
 76
     3
 10
607.793163180977
 20
1177.818020001253
 30
0.0
 10
608.79680429776
 20
1192.121393317416
 30
0.0
 10
616.532153190586
 20
1192.121393317416
 30
0.0
1001
ACAD
1000
DSTYLE
1002
{
1070
     5
1000
OPEN30
1070
   147
1040
0.625
1070
    77
1070
     0
1070
    41
1040
6.0
1070
    47
1040
0.1
1070
    48
1040
0.1
1070
    73
1070
     0
1070
   140
1040
5.0
1070
   271
1070
     1
1070
   272
1070
     1
1070
   341
1005
2AF4
1070
   342
1005
2AF4
1002
}
  0
LEADER
  5
4FAC
330
1A
100
AcDbEntity
  8
寸法線
 48
10.0
100
AcDbLeader
  3
ISO-25
 76
     3
 10
655.268730979712
 20
1156.295460140865
 30
0.0
 10
657.595092281244
 20
1192.121393317416
 30
0.0
 10
665.556219916539
 20
1192.121393317416
 30
0.0
1001
ACAD
1000
DSTYLE
1002
{
1070
     5
1000
OPEN30
1070
   147
1040
0.625
1070
    77
1070
     0
1070
    41
1040
6.0
1070
    47
1040
0.1
1070
    48
1040
0.1
1070
    73
1070
     0
1070
   140
1040
5.0
1070
   271
1070
     1
1070
   272
1070
     1
1070
   341
1005
2AF4
1070
   342
1005
2AF4
1002
}
  0
LEADER
  5
4FAD
330
1A
100
AcDbEntity
  8
寸法線
 48
10.0
100
AcDbLeader
  3
ISO-25
 76
     3
 10
636.227279522097
 20
1153.964817815042
 30
0.0
 10
639.93992329515
 20
1215.975270376238
 30
0.0
 10
649.837589845745
 20
1215.975270376238
 30
0.0
1001
ACAD
1000
DSTYLE
1002
{
1070
     5
1000
OPEN30
1070
   147
1040
0.625
1070
    77
1070
     0
1070
    41
1040
6.0
1070
    47
1040
0.1
1070
    48
1040
0.1
1070
    73
1070
     0
1070
   140
1040
5.0
1070
   271
1070
     1
1070
   272
1070
     1
1070
   341
1005
2AF4
1070
   342
1005
2AF4
1002
}
  0
LEADER
  5
4FAE
330
1A
100
AcDbEntity
  8
寸法線
 48
10.0
100
AcDbLeader
  3
ISO-25
 76
     3
 10
683.348758453002
 20
1154.276300714104
 30
0.0
 10
703.776800877318
 20
1216.204633905961
 30
0.0
 10
714.105585097627
 20
1216.204633905961
 30
0.0
1001
ACAD
1000
DSTYLE
1002
{
1070
     5
1000
OPEN30
1070
   147
1040
0.625
1070
    77
1070
     0
1070
    41
1040
6.0
1070
    47
1040
0.1
1070
    48
1040
0.1
1070
    73
1070
     0
1070
   140
1040
5.0
1070
   271
1070
     1
1070
   272
1070
     1
1070
   341
1005
2AF4
1070
   342
1005
2AF4
1002
}
  0
MTEXT
  5
4FAF
330
1A
100
AcDbEntity
  8
寸法線
 48
10.0
100
AcDbMText
 10
206.29518442486
 20
1065.461330303654
 30
0.0
 40
5.0
 41
63.804781576954
 71
     1
 72
     5
  1
{\H1.2x;コードロック\PビメットBMS050B}
  0
LEADER
  5
4FB0
330
1A
100
AcDbEntity
  8
寸法線
 48
10.0
100
AcDbLeader
  3
ISO-25
 76
     3
 10
279.796973166838
 20
1066.355657551118
 30
0.0
 10
270.115771961561
 20
1047.827783801998
 30
0.0
 10
250.569196973341
 20
1047.827783801998
 30
0.0
1001
ACAD
1000
DSTYLE
1002
{
1070
     5
1000
OPEN30
1070
   147
1040
0.625
1070
    77
1070
     0
1070
    41
1040
6.0
1070
    47
1040
0.1
1070
    48
1040
0.1
1070
    73
1070
     0
1070
   140
1040
5.0
1070
   271
1070
     1
1070
   272
1070
     1
1070
   341
1005
2AF4
1070
   342
1005
2AF4
1002
}
  0
LINE
  5
4FB1
330
1A
100
AcDbEntity
  8
中心線
 48
10.0
100
AcDbLine
 10
607.732211038183
 20
1130.78782724634
 30
0.0
 11
637.885917700901
 21
1130.78782724634
 31
0.0
  0
LINE
  5
4FB2
330
1A
100
AcDbEntity
  8
中心線
 48
10.0
100
AcDbLine
 10
711.155931019062
 20
1120.96280024634
 30
0.0
 11
620.383018451642
 21
1120.96280024634
 31
0.0
  0
LINE
  5
4FB4
330
1A
100
AcDbEntity
  8
寸法線
100
AcDbLine
 10
621.25975938411
 20
954.353586624693
 30
0.0
 11
621.25975938411
 21
1006.130270231482
 31
0.0
  0
LINE
  5
4FB5
330
1A
100
AcDbEntity
  8
寸法線
100
AcDbLine
 10
697.161642802658
 20
995.630270231483
 30
0.0
 11
566.826966447947
 21
995.630270231483
 31
0.0
  0
LINE
  5
4FB6
330
1A
100
AcDbEntity
  8
寸法線
100
AcDbLine
 10
697.161642802658
 20
985.130270231482
 30
0.0
 11
566.826966447947
 21
985.130270231482
 31
0.0
  0
LINE
  5
4FB7
330
1A
100
AcDbEntity
  8
寸法線
100
AcDbLine
 10
697.161642802658
 20
974.630270231482
 30
0.0
 11
566.826966447947
 21
974.630270231482
 31
0.0
  0
LINE
  5
4FB8
330
1A
100
AcDbEntity
  8
寸法線
100
AcDbLine
 10
566.826966447947
 20
1006.130270231482
 30
0.0
 11
697.161642802658
 21
1006.130270231482
 31
0.0
  0
LINE
  5
4FB9
330
1A
100
AcDbEntity
  8
寸法線
100
AcDbLine
 10
590.826988947948
 20
954.353586624693
 30
0.0
 11
590.826988947948
 21
1006.130270231482
 31
0.0
  0
ARC
  5
4FBA
330
1A
100
AcDbEntity
  8
寸法線
100
AcDbCircle
 10
606.802035562125
 20
998.970204731483
 30
0.0
 40
1.3204605
100
AcDbArc
 50
252.904086432753
 51
337.411923467762
  0
ARC
  5
4FBB
330
1A
100
AcDbEntity
  8
寸法線
100
AcDbCircle
 10
606.802035562125
 20
998.970159731482
 30
0.0
 40
1.3204425
100
AcDbArc
 50
252.903398883386
 51
337.412611017143
  0
ARC
  5
4FBC
330
1A
100
AcDbEntity
  8
寸法線
100
AcDbCircle
 10
603.398745562126
 20
1001.461767731483
 30
0.0
 40
3.7598535
100
AcDbArc
 50
273.280470979893
 51
33.415912335964
  0
ARC
  5
4FBD
330
1A
100
AcDbEntity
  8
寸法線
100
AcDbCircle
 10
608.161730062125
 20
1000.708104731483
 30
0.0
 40
3.472035
100
AcDbArc
 50
123.469024399709
 51
239.774013712219
  0
ARC
  5
4FBE
330
1A
100
AcDbEntity
  8
寸法線
100
AcDbCircle
 10
608.161730062125
 20
1000.708104731483
 30
0.0
 40
3.4720395
100
AcDbArc
 50
123.469024399708
 51
239.77389912065
  0
ARC
  5
4FBF
330
1A
100
AcDbEntity
  8
寸法線
100
AcDbCircle
 10
606.359378062126
 20
1003.436925731483
 30
0.0
 40
0.2017125
100
AcDbArc
 50
28.230948368979
 51
123.883845843398
  0
LINE
  5
4FC0
330
1A
100
AcDbEntity
  8
寸法線
100
AcDbLine
 10
697.161642802658
 20
964.130315231483
 30
0.0
 11
566.826966447947
 21
964.130315231483
 31
0.0
  0
LINE
  5
4FC1
330
1A
100
AcDbEntity
  8
寸法線
100
AcDbLine
 10
566.826988947948
 20
954.353586624693
 30
0.0
 11
566.826988947948
 21
1006.130270231482
 31
0.0
  0
TEXT
  5
4FC2
330
1A
100
AcDbEntity
  8
寸法線
100
AcDbText
 10
568.855293447947
 20
997.692449231483
 30
0.0
 40
6.75
  1
御仕様
 41
0.882352941176
  7
EXCADSTD
 72
     5
 11
589.105293447947
 21
997.692449231483
 31
0.0
100
AcDbText
  0
LINE
  5
4FC3
330
1A
100
AcDbEntity
  8
寸法線
100
AcDbLine
 10
697.161642802658
 20
954.353586624693
 30
0.0
 11
697.161642802658
 21
1006.130270231482
 31
0.0
  0
LINE
  5
4FC4
330
1A
100
AcDbEntity
  8
寸法線
100
AcDbLine
 10
673.29961519142
 20
954.353586624693
 30
0.0
 11
673.29961519142
 21
1006.130270231482
 31
0.0
  0
TEXT
  5
4FC5
330
1A
100
AcDbEntity
  8
寸法線
100
AcDbText
 10
678.168800143135
 20
997.542393731483
 30
0.0
 40
6.75
  1
台数
 41
0.909090909091
  7
EXCADSTD
 72
     5
 11
691.668800143135
 21
997.542393731483
 31
0.0
100
AcDbText
  0
TEXT
  5
4FC6
330
1A
100
AcDbEntity
  8
寸法線
100
AcDbText
 10
639.56453838411
 20
997.692404231483
 30
0.0
 40
6.75
  1
記事
 41
0.909090909091
  7
EXCADSTD
 72
     5
 11
653.06453838411
 21
997.692404231483
 31
0.0
100
AcDbText
  0
MTEXT
  5
4FC7
102
{ACAD_XDICTIONARY
360
4FC8
102
}
330
1A
100
AcDbEntity
  8
隠れ線
 48
10.0
100
AcDbMText
 10
605.256783012877
 20
992.55827710911
 30
0.0
 40
6.0
 41
19.035286317203
 71
     2
 72
     5
  1
\C1;150\P200\P250\P300
1001
ACADANNOTATIVE
1000
AnnotativeData
1002
{
1070
     1
1070
     0
1002
}
  0
MTEXT
  5
4FCB
330
1A
100
AcDbEntity
  8
隠れ線
 48
10.0
100
AcDbMText
 10
595.898692079161
 20
951.712708739446
 30
0.0
 40
6.0
 41
102.645465564322
 71
     1
 72
     5
  1
{\C1;○印が今回の貴社の御仕様です。}
  0
ARC
  5
4FCC
330
1A
100
AcDbEntity
  8
外形線
 48
10.0
100
AcDbCircle
 10
262.355802960646
 20
1130.87639362958
 30
0.0
 40
22.5
100
AcDbArc
 50
92.633603408823
 51
267.366396591177
  0
LINE
  5
4FCD
330
1A
100
AcDbEntity
  8
外形線
 48
10.0
100
AcDbLine
 10
267.221953460636
 20
1127.901075900392
 30
0.0
 11
267.221953460636
 21
1133.674578592288
 31
0.0
  0
LINE
  5
4FCE
330
1A
100
AcDbEntity
  8
外形線
 48
10.0
100
AcDbLine
 10
257.221953460636
 20
1127.901075900392
 30
0.0
 11
257.221953460636
 21
1133.674578592288
 31
0.0
  0
LINE
  5
4FCF
330
1A
100
AcDbEntity
  8
外形線
 48
10.0
100
AcDbLine
 10
263.121953460636
 20
1125.533939796714
 30
0.0
 11
267.221953460637
 21
1127.901075900392
 31
0.0
  0
LINE
  5
4FD0
330
1A
100
AcDbEntity
  8
外形線
 48
10.0
100
AcDbLine
 10
257.221953460636
 20
1133.674578592288
 30
0.0
 11
261.321953460636
 21
1136.041714695966
 31
0.0
  0
LINE
  5
4FD1
330
1A
100
AcDbEntity
  8
外形線
 48
10.0
100
AcDbLine
 10
267.221953460636
 20
1133.674578592288
 30
0.0
 11
263.121953460636
 21
1136.041714695966
 31
0.0
  0
LINE
  5
4FD2
330
1A
100
AcDbEntity
  8
外形線
 48
10.0
100
AcDbLine
 10
261.321953460636
 20
1125.533939796714
 30
0.0
 11
257.221953460636
 21
1127.901075900392
 31
0.0
  0
ARC
  5
4FD3
330
1A
100
AcDbEntity
  8
細線
 48
10.0
100
AcDbCircle
 10
262.221953460636
 20
1130.78782724634
 30
0.0
 40
5.0
100
AcDbArc
 50
100.369759805477
 51
259.630240194522
  0
ARC
  5
4FD4
330
1A
100
AcDbEntity
  8
細線
 48
10.0
100
AcDbCircle
 10
262.221953460636
 20
1130.78782724634
 30
0.0
 40
5.0
100
AcDbArc
 50
280.369759805477
 51
79.630240194523
  0
ARC
  5
4FD5
330
1A
100
AcDbEntity
  8
外形線
 48
10.0
100
AcDbCircle
 10
262.355802960646
 20
1130.87639362958
 30
0.0
 40
22.5
100
AcDbArc
 50
271.951363445946
 51
88.048636554054
  0
LINE
  5
4FD6
330
1A
100
AcDbEntity
  8
外形線
100
AcDbLine
 10
606.969456735352
 20
1083.78782724634
 30
0.0
 11
606.969456735352
 21
1177.78782724634
 31
0.0
  0
LINE
  5
4FD7
330
1A
100
AcDbEntity
  8
外形線
100
AcDbLine
 10
608.469456735352
 20
1177.78782724634
 30
0.0
 11
608.469456735352
 21
1083.78782724634
 31
0.0
  0
LINE
  5
4FD8
330
1A
100
AcDbEntity
  8
外形線
100
AcDbLine
 10
616.469456735352
 20
1114.78782724634
 30
0.0
 11
608.469456735352
 21
1114.78782724634
 31
0.0
  0
LINE
  5
4FD9
330
1A
100
AcDbEntity
  8
外形線
100
AcDbLine
 10
616.469456735352
 20
1177.78782724634
 30
0.0
 11
616.469456735352
 21
1083.78782724634
 31
0.0
  0
LINE
  5
4FDA
330
1A
100
AcDbEntity
  8
外形線
100
AcDbLine
 10
617.969456735352
 20
1177.78782724634
 30
0.0
 11
617.969456735352
 21
1083.78782724634
 31
0.0
  0
LINE
  5
4FDB
330
1A
100
AcDbEntity
  8
外形線
100
AcDbLine
 10
621.969456735352
 20
1114.78782724634
 30
0.0
 11
617.969456735352
 21
1114.78782724634
 31
0.0
  0
LINE
  5
4FDC
330
1A
100
AcDbEntity
  8
外形線
100
AcDbLine
 10
616.469456735352
 20
1146.78782724634
 30
0.0
 11
608.469456735352
 21
1146.78782724634
 31
0.0
  0
LINE
  5
4FDD
330
1A
100
AcDbEntity
  8
外形線
100
AcDbLine
 10
621.969456735352
 20
1146.78782724634
 30
0.0
 11
617.969456735352
 21
1146.78782724634
 31
0.0
  0
LINE
  5
4FDE
330
1A
100
AcDbEntity
  8
外形線
 48
10.0
100
AcDbLine
 10
606.969456735352
 20
1177.78782724634
 30
0.0
 11
608.469456735352
 21
1177.78782724634
 31
0.0
  0
LINE
  5
4FDF
330
1A
100
AcDbEntity
  8
外形線
 48
10.0
100
AcDbLine
 10
536.96945673535
 20
1151.33780024634
 30
0.0
 11
536.969456735353
 21
1110.23780924634
 31
0.0
  0
LINE
  5
4FE0
330
1A
100
AcDbEntity
  8
隠れ線
 48
10.0
100
AcDbLine
 10
534.969456735352
 20
1110.23780924634
 30
0.0
 11
534.969456735352
 21
1079.669208198867
 31
0.0
  0
LINE
  5
4FE1
330
1A
100
AcDbEntity
  8
隠れ線
 48
10.0
100
AcDbLine
 10
530.969456735352
 20
1108.28782724634
 30
0.0
 11
530.969456735352
 21
1079.468699973503
 31
0.0
  0
LINE
  5
4FE2
330
1A
100
AcDbEntity
  8
隠れ線
 48
10.0
100
AcDbLine
 10
534.969456735352
 20
1177.50354030415
 30
0.0
 11
534.969456735352
 21
1151.33780024634
 31
0.0
  0
LINE
  5
4FE3
330
1A
100
AcDbEntity
  8
隠れ線
 48
10.0
100
AcDbLine
 10
530.969456735352
 20
1177.50354030415
 30
0.0
 11
530.969456735352
 21
1153.28782724634
 31
0.0
  0
LINE
  5
4FE4
330
1A
100
AcDbEntity
  8
外形線
 48
10.0
100
AcDbLine
 10
536.969456735352
 20
1151.33780024634
 30
0.0
 11
534.969456735352
 21
1151.33780024634
 31
0.0
  0
LINE
  5
4FE5
330
1A
100
AcDbEntity
  8
外形線
 48
10.0
100
AcDbLine
 10
536.969456735352
 20
1110.23780924634
 30
0.0
 11
534.969456735352
 21
1110.23780924634
 31
0.0
  0
LINE
  5
4FE6
330
1A
100
AcDbEntity
  8
外形線
 48
10.0
100
AcDbLine
 10
534.969456735352
 20
1110.23780924634
 30
0.0
 11
534.969456735352
 21
1151.33780024634
 31
0.0
  0
LINE
  5
4FE7
330
1A
100
AcDbEntity
  8
外形線
 48
10.0
100
AcDbLine
 10
537.269456735351
 20
1148.28782724634
 30
0.0
 11
606.669456735352
 21
1148.28782724634
 31
0.0
  0
LINE
  5
4FE8
330
1A
100
AcDbEntity
  8
外形線
 48
10.0
100
AcDbLine
 10
606.969456735351
 20
1113.58782724634
 30
0.0
 11
606.969456735352
 21
1147.98782724634
 31
0.0
  0
LINE
  5
4FE9
330
1A
100
AcDbEntity
  8
外形線
 48
10.0
100
AcDbLine
 10
536.969456735352
 20
1147.98782724634
 30
0.0
 11
536.969456735351
 21
1113.58782724634
 31
0.0
  0
ARC
  5
4FEA
330
1A
100
AcDbEntity
  8
外形線
 48
10.0
100
AcDbCircle
 10
537.269456735351
 20
1147.98782724634
 30
0.0
 40
0.3
100
AcDbArc
 50
90.0
 51
180.0
  0
ARC
  5
4FEB
330
1A
100
AcDbEntity
  8
外形線
 48
10.0
100
AcDbCircle
 10
537.269456735351
 20
1113.58782724634
 30
0.0
 40
0.3
100
AcDbArc
 50
180.0
 51
270.0
  0
ARC
  5
4FEC
330
1A
100
AcDbEntity
  8
外形線
 48
10.0
100
AcDbCircle
 10
606.669456735352
 20
1147.98782724634
 30
0.0
 40
0.3
100
AcDbArc
 50
0.0
 51
90.0
  0
ARC
  5
4FED
330
1A
100
AcDbEntity
  8
外形線
 48
10.0
100
AcDbCircle
 10
606.669456735351
 20
1113.58782724634
 30
0.0
 40
0.3
100
AcDbArc
 50
270.0
 51
0.0
  0
LINE
  5
4FEE
330
1A
100
AcDbEntity
  8
細線
 48
10.0
100
AcDbLine
 10
581.969456735352
 20
1148.013943064001
 30
0.0
 11
547.969456735352
 21
1148.013943064001
 31
0.0
  0
LINE
  5
4FEF
330
1A
100
AcDbEntity
  8
細線
 48
10.0
100
AcDbLine
 10
579.469456735352
 20
1141.251564382548
 30
0.0
 11
550.469456735352
 21
1141.251564382548
 31
0.0
  0
LINE
  5
4FF0
330
1A
100
AcDbEntity
  8
細線
 48
10.0
100
AcDbLine
 10
579.469456735352
 20
1141.251564382548
 30
0.0
 11
579.469456735352
 21
1134.180496570683
 31
0.0
  0
LINE
  5
4FF1
330
1A
100
AcDbEntity
  8
細線
 48
10.0
100
AcDbLine
 10
550.469456735352
 20
1141.251564382548
 30
0.0
 11
550.469456735352
 21
1134.180496570683
 31
0.0
  0
LINE
  5
4FF2
330
1A
100
AcDbEntity
  8
細線
 48
10.0
100
AcDbLine
 10
579.469456735352
 20
1141.251564382548
 30
0.0
 11
581.969456735352
 21
1148.013943064001
 31
0.0
  0
LINE
  5
4FF3
330
1A
100
AcDbEntity
  8
細線
 48
10.0
100
AcDbLine
 10
550.469456735352
 20
1141.251564382548
 30
0.0
 11
547.969456735352
 21
1148.013943064001
 31
0.0
  0
LINE
  5
4FF4
330
1A
100
AcDbEntity
  8
細線
 48
10.0
100
AcDbLine
 10
581.969456735352
 20
1133.87180744027
 30
0.0
 11
547.969456735352
 21
1133.87180744027
 31
0.0
  0
LINE
  5
4FF5
330
1A
100
AcDbEntity
  8
細線
 48
10.0
100
AcDbLine
 10
550.469456735352
 20
1134.180496570683
 30
0.0
 11
547.969456735352
 21
1133.87180744027
 31
0.0
  0
LINE
  5
4FF6
330
1A
100
AcDbEntity
  8
細線
 48
10.0
100
AcDbLine
 10
579.469456735352
 20
1134.180496570683
 30
0.0
 11
581.969456735352
 21
1133.87180744027
 31
0.0
  0
LINE
  5
4FF7
330
1A
100
AcDbEntity
  8
細線
 48
10.0
100
AcDbLine
 10
579.469456735352
 20
1134.180496570683
 30
0.0
 11
550.469456735352
 21
1134.180496570683
 31
0.0
  0
LINE
  5
4FF8
330
1A
100
AcDbEntity
  8
細線
 48
10.0
100
AcDbLine
 10
581.969456735352
 20
1133.87180744027
 30
0.0
 11
581.969456735352
 21
1148.013943064001
 31
0.0
  0
LINE
  5
4FF9
330
1A
100
AcDbEntity
  8
細線
 48
10.0
100
AcDbLine
 10
547.969456735352
 20
1133.87180744027
 30
0.0
 11
547.969456735352
 21
1148.013943064001
 31
0.0
  0
LINE
  5
4FFA
330
1A
100
AcDbEntity
  8
細線
 48
10.0
100
AcDbLine
 10
547.969456735352
 20
1127.70384705241
 30
0.0
 11
547.969456735352
 21
1113.561711428679
 31
0.0
  0
LINE
  5
4FFB
330
1A
100
AcDbEntity
  8
細線
 48
10.0
100
AcDbLine
 10
581.969456735352
 20
1127.70384705241
 30
0.0
 11
581.969456735352
 21
1113.561711428679
 31
0.0
  0
LINE
  5
4FFC
330
1A
100
AcDbEntity
  8
細線
 48
10.0
100
AcDbLine
 10
579.469456735352
 20
1127.395157921997
 30
0.0
 11
550.469456735352
 21
1127.395157921997
 31
0.0
  0
LINE
  5
4FFD
330
1A
100
AcDbEntity
  8
細線
 48
10.0
100
AcDbLine
 10
579.469456735352
 20
1127.395157921997
 30
0.0
 11
581.969456735352
 21
1127.70384705241
 31
0.0
  0
LINE
  5
4FFE
330
1A
100
AcDbEntity
  8
細線
 48
10.0
100
AcDbLine
 10
550.469456735352
 20
1127.395157921997
 30
0.0
 11
547.969456735352
 21
1127.70384705241
 31
0.0
  0
LINE
  5
4FFF
330
1A
100
AcDbEntity
  8
細線
 48
10.0
100
AcDbLine
 10
581.969456735352
 20
1127.70384705241
 30
0.0
 11
547.969456735352
 21
1127.70384705241
 31
0.0
  0
LINE
  5
5000
330
1A
100
AcDbEntity
  8
細線
 48
10.0
100
AcDbLine
 10
550.469456735352
 20
1120.324090110131
 30
0.0
 11
547.969456735352
 21
1113.561711428679
 31
0.0
  0
LINE
  5
5001
330
1A
100
AcDbEntity
  8
細線
 48
10.0
100
AcDbLine
 10
579.469456735352
 20
1120.324090110131
 30
0.0
 11
581.969456735352
 21
1113.561711428679
 31
0.0
  0
LINE
  5
5002
330
1A
100
AcDbEntity
  8
細線
 48
10.0
100
AcDbLine
 10
550.469456735352
 20
1120.324090110131
 30
0.0
 11
550.469456735352
 21
1127.395157921997
 31
0.0
  0
LINE
  5
5003
330
1A
100
AcDbEntity
  8
細線
 48
10.0
100
AcDbLine
 10
579.469456735352
 20
1120.324090110131
 30
0.0
 11
579.469456735352
 21
1127.395157921997
 31
0.0
  0
LINE
  5
5004
330
1A
100
AcDbEntity
  8
細線
 48
10.0
100
AcDbLine
 10
579.469456735352
 20
1120.324090110131
 30
0.0
 11
550.469456735352
 21
1120.324090110131
 31
0.0
  0
LINE
  5
5005
330
1A
100
AcDbEntity
  8
細線
 48
10.0
100
AcDbLine
 10
581.969456735352
 20
1113.561711428679
 30
0.0
 11
547.969456735352
 21
1113.561711428679
 31
0.0
  0
LINE
  5
5006
330
1A
100
AcDbEntity
  8
外形線
 48
10.0
100
AcDbLine
 10
537.269456735351
 20
1113.28782724634
 30
0.0
 11
606.669456735352
 21
1113.28782724634
 31
0.0
  0
ARC
  5
5007
330
1A
100
AcDbEntity
  8
外形線
 48
10.0
100
AcDbCircle
 10
262.221953460636
 20
1130.78782724634
 30
0.0
 40
13.22050000000002
100
AcDbArc
 50
93.903491864735
 51
266.096508135265
  0
ARC
  5
5008
330
1A
100
AcDbEntity
  8
細線
 48
10.0
100
AcDbCircle
 10
262.221953460636
 20
1130.78782724634
 30
0.0
 40
12.05849999999998
100
AcDbArc
 50
94.280316570382
 51
265.719683429618
  0
ARC
  5
5009
330
1A
100
AcDbEntity
  8
外形線
 48
10.0
100
AcDbCircle
 10
262.221953460636
 20
1130.78782724634
 30
0.0
 40
13.22050000000002
100
AcDbArc
 50
273.903491864735
 51
86.096508135265
  0
ARC
  5
500A
330
1A
100
AcDbEntity
  8
細線
 48
10.0
100
AcDbCircle
 10
262.221953460636
 20
1130.78782724634
 30
0.0
 40
12.05849999999998
100
AcDbArc
 50
274.280316570382
 51
85.719683429618
  0
ARC
  5
500B
330
1A
100
AcDbEntity
  8
細線
 48
10.0
100
AcDbCircle
 10
262.221953460636
 20
1130.78782724634
 30
0.0
 40
18.0
100
AcDbArc
 50
272.865983982599
 51
87.134016017401
  0
LINE
  5
500C
330
1A
100
AcDbEntity
  8
外形線
 48
10.0
100
AcDbLine
 10
244.221953460636
 20
1120.395522400927
 30
0.0
 11
261.321953460636
 21
1110.522832797784
 31
0.0
  0
LINE
  5
500D
330
1A
100
AcDbEntity
  8
外形線
 48
10.0
100
AcDbLine
 10
280.221953460636
 20
1120.395522400927
 30
0.0
 11
263.121953460636
 21
1110.522832797784
 31
0.0
  0
LINE
  5
500E
330
1A
100
AcDbEntity
  8
外形線
 48
10.0
100
AcDbLine
 10
244.221953460636
 20
1141.180132091753
 30
0.0
 11
244.221953460636
 21
1120.395522400927
 31
0.0
  0
LINE
  5
500F
330
1A
100
AcDbEntity
  8
外形線
 48
10.0
100
AcDbLine
 10
280.221953460636
 20
1141.180132091753
 30
0.0
 11
280.221953460636
 21
1120.395522400927
 31
0.0
  0
ARC
  5
5010
330
1A
100
AcDbEntity
  8
細線
 48
10.0
100
AcDbCircle
 10
262.221953460636
 20
1130.78782724634
 30
0.0
 40
18.0
100
AcDbArc
 50
92.865983982599
 51
267.134016017401
  0
LINE
  5
5011
330
1A
100
AcDbEntity
  8
外形線
 48
10.0
100
AcDbLine
 10
263.121953460636
 20
1151.052821694896
 30
0.0
 11
280.221953460636
 21
1141.180132091753
 31
0.0
  0
LINE
  5
5012
330
1A
100
AcDbEntity
  8
外形線
 48
10.0
100
AcDbLine
 10
261.321953460636
 20
1151.052821694896
 30
0.0
 11
244.221953460636
 21
1141.180132091753
 31
0.0
  0
LINE
  5
5013
330
1A
100
AcDbEntity
  8
外形線
 48
10.0
100
AcDbLine
 10
616.469456735352
 20
1177.78782724634
 30
0.0
 11
617.969456735352
 21
1177.78782724634
 31
0.0
  0
LINE
  5
5014
330
1A
100
AcDbEntity
  8
外形線
 48
10.0
100
AcDbLine
 10
616.469456735352
 20
1083.78782724634
 30
0.0
 11
617.969456735352
 21
1083.78782724634
 31
0.0
  0
LINE
  5
5015
330
1A
100
AcDbEntity
  8
外形線
 48
10.0
100
AcDbLine
 10
606.969456735352
 20
1083.78782724634
 30
0.0
 11
608.469456735352
 21
1083.78782724634
 31
0.0
  0
CIRCLE
  5
5016
330
1A
100
AcDbEntity
  8
外形線
 48
10.0
100
AcDbCircle
 10
262.221953460636
 20
1130.78782724634
 30
0.0
 40
47.0
  0
TEXT
  5
5017
330
1A
100
AcDbEntity
  8
寸法線
100
AcDbText
 10
273.870224769364
 20
971.146765797742
 30
0.0
 40
6.573033707865
  1
ク　ロ
  7
EXCADVERT
 72
     3
 11
273.870224769364
 21
951.646765797742
 31
0.0
100
AcDbText
  0
TEXT
  5
5018
330
1A
100
AcDbEntity
  8
寸法線
100
AcDbText
 10
244.319566269364
 20
970.996756797742
 30
0.0
 40
6.030927835052
  1
ア　カ
  7
EXCADVERT
 72
     3
 11
244.319566269364
 21
951.496756797742
 31
0.0
100
AcDbText
  0
TEXT
  5
5019
330
1A
100
AcDbEntity
  8
寸法線
100
AcDbText
 10
228.569291769364
 20
964.321578297742
 30
0.0
 40
6.428571428571
  1
キ
  7
EXCADVERT
 72
     3
 11
228.569291769364
 21
958.321578297742
 31
0.0
100
AcDbText
  0
TEXT
  5
501A
330
1A
100
AcDbEntity
  8
寸法線
100
AcDbText
 10
213.193919769364
 20
971.146765797742
 30
0.0
 40
5.636363639073
  1
ミドリ
  7
EXCADVERT
 72
     3
 11
213.193919769364
 21
952.546765788802
 31
0.0
100
AcDbText
  0
LINE
  5
501B
330
1A
100
AcDbEntity
  8
寸法線
100
AcDbLine
 10
216.936875769364
 20
1015.163167797742
 30
0.0
 11
216.936875769364
 21
922.163163297742
 31
0.0
  0
LINE
  5
501C
330
1A
100
AcDbEntity
  8
寸法線
100
AcDbLine
 10
247.995865269364
 20
1015.163167797742
 30
0.0
 11
247.995865269364
 21
931.163163297742
 31
0.0
  0
LINE
  5
501D
330
1A
100
AcDbEntity
  8
寸法線
100
AcDbLine
 10
216.936875769364
 20
922.163157297742
 30
0.0
 11
292.178081769364
 21
922.163157297742
 31
0.0
  0
LINE
  5
501E
330
1A
100
AcDbEntity
  8
寸法線
100
AcDbLine
 10
232.466312769364
 20
985.817770797742
 30
0.0
 11
232.466312769364
 21
926.663163297742
 31
0.0
  0
LINE
  5
501F
330
1A
100
AcDbEntity
  8
寸法線
100
AcDbLine
 10
232.466312769364
 20
926.663163297742
 30
0.0
 11
292.540585269364
 21
926.663163297742
 31
0.0
  0
LINE
  5
5020
330
1A
100
AcDbEntity
  8
寸法線
100
AcDbLine
 10
262.775635269364
 20
985.817770797742
 30
0.0
 11
262.775635269364
 21
935.663163297742
 31
0.0
  0
LINE
  5
5021
330
1A
100
AcDbEntity
  8
寸法線
100
AcDbLine
 10
277.769638269364
 20
940.163163297742
 30
0.0
 11
277.769638269364
 21
985.450048797742
 31
0.0
  0
LINE
  5
5022
330
1A
100
AcDbEntity
  8
寸法線
100
AcDbLine
 10
247.995865269364
 20
931.163163297742
 30
0.0
 11
298.245854769364
 21
931.163163297742
 31
0.0
  0
LINE
  5
5023
330
1A
100
AcDbEntity
  8
寸法線
100
AcDbLine
 10
294.186268269364
 20
927.154834797742
 30
0.0
 11
296.051918769364
 21
928.378872297742
 31
0.0
  0
LINE
  5
5024
330
1A
100
AcDbEntity
  8
寸法線
100
AcDbLine
 10
294.318767769364
 20
923.061387297742
 30
0.0
 11
296.275342269364
 21
925.054180797742
 31
0.0
  0
LINE
  5
5025
330
1A
100
AcDbEntity
  8
寸法線
100
AcDbLine
 10
298.245854769364
 20
928.902301797742
 30
0.0
 11
297.545281269364
 21
928.866676797742
 31
0.0
  0
LINE
  5
5026
330
1A
100
AcDbEntity
  8
寸法線
100
AcDbLine
 10
298.245854769364
 20
925.950813297742
 30
0.0
 11
298.107323769364
 21
925.936485297742
 31
0.0
  0
ARC
  5
5027
330
1A
100
AcDbEntity
  8
寸法線
100
AcDbCircle
 10
292.540585269364
 20
929.663163297742
 30
0.0
 40
3.0
100
AcDbArc
 50
270.0
 51
303.268623610808
  0
ARC
  5
5028
330
1A
100
AcDbEntity
  8
寸法線
100
AcDbCircle
 10
297.697613769364
 20
925.870555797742
 30
0.0
 40
3.0
100
AcDbArc
 50
92.910721466855
 51
123.268603762967
  0
ARC
  5
5029
330
1A
100
AcDbEntity
  8
寸法線
100
AcDbCircle
 10
298.416028269364
 20
922.952410797742
 30
0.0
 40
3.0
100
AcDbArc
 50
95.906259411358
 51
135.525546099522
  0
ARC
  5
502A
330
1A
100
AcDbEntity
  8
寸法線
100
AcDbCircle
 10
292.178081769364
 20
925.163163297742
 30
0.0
 40
3.0
100
AcDbArc
 50
270.0
 51
315.525565947365
  0
ARC
  5
502B
330
1A
100
AcDbEntity
  8
寸法線
100
AcDbCircle
 10
292.540585269364
 20
932.663163297742
 30
0.0
 40
3.0
100
AcDbArc
 50
56.731416084877
 51
89.99998127603
  0
LINE
  5
502C
330
1A
100
AcDbEntity
  8
寸法線
100
AcDbLine
 10
294.186268269364
 20
935.171490297742
 30
0.0
 11
296.051918769364
 21
933.947452797742
 31
0.0
  0
LINE
  5
502D
330
1A
100
AcDbEntity
  8
寸法線
100
AcDbLine
 10
298.245854769364
 20
933.424023297742
 30
0.0
 11
297.545281269364
 21
933.459648297742
 31
0.0
  0
ARC
  5
502E
330
1A
100
AcDbEntity
  8
寸法線
100
AcDbCircle
 10
297.697613769364
 20
936.455769297742
 30
0.0
 40
3.0
100
AcDbArc
 50
236.731435932722
 51
267.089318228831
  0
LINE
  5
502F
330
1A
100
AcDbEntity
  8
寸法線
100
AcDbLine
 10
298.245854769364
 20
936.375511797742
 30
0.0
 11
298.107323769364
 21
936.389839797742
 31
0.0
  0
ARC
  5
5030
330
1A
100
AcDbEntity
  8
寸法線
100
AcDbCircle
 10
298.416028269364
 20
939.373909797742
 30
0.0
 40
3.0
100
AcDbArc
 50
224.474436300387
 51
264.093722988548
  0
LINE
  5
5031
330
1A
100
AcDbEntity
  8
寸法線
100
AcDbLine
 10
294.318767769364
 20
939.264939297742
 30
0.0
 11
296.275342269364
 21
937.272144297742
 31
0.0
  0
ARC
  5
5032
330
1A
100
AcDbEntity
  8
寸法線
100
AcDbCircle
 10
292.178081769364
 20
937.163163297742
 30
0.0
 40
3.0
100
AcDbArc
 50
44.47447374832
 51
89.99998127603
  0
LINE
  5
5033
330
1A
100
AcDbEntity
  8
寸法線
100
AcDbLine
 10
277.769638269364
 20
940.163163297742
 30
0.0
 11
292.178081769364
 21
940.163163297742
 31
0.0
  0
LINE
  5
5034
330
1A
100
AcDbEntity
  8
寸法線
100
AcDbLine
 10
262.775635269364
 20
935.663163297742
 30
0.0
 11
292.540585269364
 21
935.663163297742
 31
0.0
  0
LINE
  5
5035
330
1A
100
AcDbEntity
  8
寸法線
100
AcDbLine
 10
301.245854769364
 20
937.163163297742
 30
0.0
 11
353.745842769364
 21
937.163163297742
 31
0.0
  0
LINE
  5
5036
330
1A
100
AcDbEntity
  8
寸法線
100
AcDbLine
 10
301.245854769364
 20
925.163163297742
 30
0.0
 11
353.745842769364
 21
925.163163297742
 31
0.0
  0
ARC
  5
5037
330
1A
100
AcDbEntity
  8
寸法線
100
AcDbCircle
 10
348.549691385889
 20
928.163161497742
 30
0.0
 40
6.0
100
AcDbArc
 50
330.000019847844
 51
30.000019847843
  0
ARC
  5
5038
330
1A
100
AcDbEntity
  8
寸法線
100
AcDbCircle
 10
348.549689307427
 20
934.163161497742
 30
0.0
 40
6.0
100
AcDbArc
 50
330.000019847844
 51
30.000019847843
  0
ARC
  5
5039
330
1A
100
AcDbEntity
  8
寸法線
100
AcDbCircle
 10
358.94199415284
 20
934.163165097742
 30
0.0
 40
6.0
100
AcDbArc
 50
150.000019847844
 51
210.000019847843
  0
ARC
  5
503A
330
1A
100
AcDbEntity
  8
寸法線
100
AcDbCircle
 10
306.442007192071
 20
934.163163297742
 30
0.0
 40
6.0
100
AcDbArc
 50
150.0
 51
210.0
  0
ARC
  5
503B
330
1A
100
AcDbEntity
  8
寸法線
100
AcDbCircle
 10
306.442007192071
 20
928.163163297742
 30
0.0
 40
6.0
100
AcDbArc
 50
150.0
 51
209.999999999998
  0
ARC
  5
503C
330
1A
100
AcDbEntity
  8
寸法線
100
AcDbCircle
 10
296.049702346657
 20
928.163163297742
 30
0.0
 40
6.0
100
AcDbArc
 50
330.0
 51
30.0
  0
LINE
  5
503D
330
1A
100
AcDbEntity
  8
寸法線
100
AcDbLine
 10
356.745842769364
 20
931.163163297742
 30
0.0
 11
391.245842769364
 21
931.163163297742
 31
0.0
  0
LINE
  5
503E
330
1A
100
AcDbEntity
  8
寸法線
100
AcDbLine
 10
391.245842769364
 20
938.663163297742
 30
0.0
 11
363.228028269364
 21
938.663163297742
 31
0.0
  0
LINE
  5
503F
330
1A
100
AcDbEntity
  8
寸法線
100
AcDbLine
 10
391.245842769364
 20
946.163163297742
 30
0.0
 11
363.377968269364
 21
946.163163297742
 31
0.0
  0
LINE
  5
5040
330
1A
100
AcDbEntity
  8
寸法線
100
AcDbLine
 10
360.544777269364
 20
944.149597797742
 30
0.0
 11
358.210754769364
 21
937.445877297742
 31
0.0
  0
LINE
  5
5041
330
1A
100
AcDbEntity
  8
寸法線
100
AcDbLine
 10
356.794159269364
 20
936.439095297742
 30
0.0
 11
356.745842769364
 21
936.439095297742
 31
0.0
  0
LINE
  5
5042
330
1A
100
AcDbEntity
  8
寸法線
100
AcDbLine
 10
360.468422769364
 20
936.839809797742
 30
0.0
 11
359.793335769364
 21
935.256553797742
 31
0.0
  0
LINE
  5
5043
330
1A
100
AcDbEntity
  8
寸法線
100
AcDbLine
 10
357.723626769364
 20
933.889042797742
 30
0.0
 11
356.745842769364
 21
933.889042797742
 31
0.0
  0
ARC
  5
5044
330
1A
100
AcDbEntity
  8
寸法線
100
AcDbCircle
 10
363.377968269364
 20
943.163163297742
 30
0.0
 40
3.0
100
AcDbArc
 50
89.999981276032
 51
160.80341269666
  0
ARC
  5
5045
330
1A
100
AcDbEntity
  8
寸法線
100
AcDbCircle
 10
363.228028269364
 20
935.663163297742
 30
0.0
 40
3.0
100
AcDbArc
 50
89.999981276032
 51
156.907528872884
  0
ARC
  5
5046
330
1A
100
AcDbEntity
  8
寸法線
100
AcDbCircle
 10
356.794159269364
 20
937.939095297742
 30
0.0
 40
1.5
100
AcDbArc
 50
270.0
 51
340.803432544508
  0
ARC
  5
5047
330
1A
100
AcDbEntity
  8
寸法線
100
AcDbCircle
 10
357.723626769364
 20
936.139042797742
 30
0.0
 40
2.25
100
AcDbArc
 50
270.0
 51
336.907491424955
  0
LINE
  5
5048
330
1A
100
AcDbEntity
  8
寸法線
100
AcDbLine
 10
391.245842769364
 20
916.163163297742
 30
0.0
 11
363.377968269364
 21
916.163163297742
 31
0.0
  0
ARC
  5
5049
330
1A
100
AcDbEntity
  8
寸法線
100
AcDbCircle
 10
363.377968269364
 20
919.163163297742
 30
0.0
 40
3.0
100
AcDbArc
 50
199.196626999025
 51
270.0
  0
LINE
  5
504A
330
1A
100
AcDbEntity
  8
寸法線
100
AcDbLine
 10
391.245842769364
 20
923.663163297742
 30
0.0
 11
363.228028269364
 21
923.663163297742
 31
0.0
  0
ARC
  5
504B
330
1A
100
AcDbEntity
  8
寸法線
100
AcDbCircle
 10
363.228028269364
 20
926.663163297742
 30
0.0
 40
3.0
100
AcDbArc
 50
203.092510822798
 51
270.0
  0
LINE
  5
504C
330
1A
100
AcDbEntity
  8
寸法線
100
AcDbLine
 10
356.794159269364
 20
925.887229797743
 30
0.0
 11
356.745842769364
 21
925.887229797743
 31
0.0
  0
LINE
  5
504D
330
1A
100
AcDbEntity
  8
寸法線
100
AcDbLine
 10
360.544777269364
 20
918.176727297742
 30
0.0
 11
358.210754769364
 21
924.880447797742
 31
0.0
  0
ARC
  5
504E
330
1A
100
AcDbEntity
  8
寸法線
100
AcDbCircle
 10
356.794159269364
 20
924.387229797743
 30
0.0
 40
1.5
100
AcDbArc
 50
19.196607151181
 51
89.999981276032
  0
LINE
  5
504F
330
1A
100
AcDbEntity
  8
寸法線
100
AcDbLine
 10
360.468422769364
 20
925.486515297742
 30
0.0
 11
359.793335769364
 21
927.069771297742
 31
0.0
  0
LINE
  5
5050
330
1A
100
AcDbEntity
  8
寸法線
100
AcDbLine
 10
357.723626769364
 20
928.437283797742
 30
0.0
 11
356.745842769364
 21
928.437283797742
 31
0.0
  0
ARC
  5
5051
330
1A
100
AcDbEntity
  8
寸法線
100
AcDbCircle
 10
357.723626769364
 20
926.187283797742
 30
0.0
 40
2.25
100
AcDbArc
 50
23.092490974952
 51
89.999981276031
  0
TEXT
  5
5052
330
1A
100
AcDbEntity
  8
寸法線
100
AcDbText
 10
314.142007269364
 20
928.015488297742
 30
0.0
 40
6.75
  1
リード線
 41
0.869565217391
  7
EXCADSTD
 72
     5
 11
341.142007269364
 21
928.015488297742
 31
0.0
100
AcDbText
  0
TEXT
  5
5053
330
1A
100
AcDbEntity
  8
寸法線
100
AcDbText
 10
375.193238769364
 20
947.290881297742
 30
0.0
 40
5.25
  1
ク　ロ
 41
0.918367346939
  7
EXCADSTD
 72
     5
 11
390.943238769364
 21
947.290881297742
 31
0.0
100
AcDbText
  0
TEXT
  5
5054
330
1A
100
AcDbEntity
  8
寸法線
100
AcDbText
 10
375.343247769364
 20
939.640722297743
 30
0.0
 40
5.25
  1
シ　ロ
 41
0.918367346939
  7
EXCADSTD
 72
     5
 11
391.093247769364
 21
939.640722297743
 31
0.0
100
AcDbText
  0
TEXT
  5
5055
330
1A
100
AcDbEntity
  8
寸法線
100
AcDbText
 10
375.343247769364
 20
931.990570797742
 30
0.0
 40
5.25
  1
ア　カ
 41
0.909090909091
  7
EXCADSTD
 72
     5
 11
391.093247769364
 21
931.990570797742
 31
0.0
100
AcDbText
  0
TEXT
  5
5056
330
1A
100
AcDbEntity
  8
寸法線
100
AcDbText
 10
380.593361769364
 20
924.490410297742
 30
0.0
 40
5.25
  1
キ
 41
1.071428571429
  7
EXCADSTD
 72
     5
 11
385.843361769364
 21
924.490410297742
 31
0.0
100
AcDbText
  0
TEXT
  5
5057
330
1A
100
AcDbEntity
  8
寸法線
100
AcDbText
 10
375.343247769364
 20
916.840252797742
 30
0.0
 40
5.25
  1
ミドリ
 41
0.947368421053
  7
EXCADSTD
 72
     5
 11
391.093247769364
 21
916.840252797742
 31
0.0
100
AcDbText
  0
TEXT
  5
5058
330
1A
100
AcDbEntity
  8
寸法線
100
AcDbText
 10
259.006782696842
 20
970.804861797742
 30
0.0
 40
6.724137931034
  1
シ　ロ
  7
EXCADVERT
 72
     3
 11
259.006782696842
 21
951.304861797742
 31
0.0
100
AcDbText
  0
TEXT
  5
5059
330
1A
100
AcDbEntity
  8
寸法線
100
AcDbText
 10
395.895233769364
 20
939.229359297742
 30
0.0
 40
7.5
  1
電源
 41
0.923076923077
  7
EXCADSTD
 72
     5
 11
410.895233769364
 21
939.229359297742
 31
0.0
100
AcDbText
  0
TEXT
  5
505A
330
1A
100
AcDbEntity
  8
寸法線
100
AcDbText
 10
398.970238269364
 20
934.879138797742
 30
0.0
 40
7.336956521739
  1
ＨＣＬ
  7
EXCADVERT
 72
     3
 11
398.970238269364
 21
912.379138797742
 31
0.0
100
AcDbText
  0
LINE
  5
505B
330
1A
100
AcDbEntity
  8
寸法線
100
AcDbLine
 10
216.936875769364
 20
1015.163167797742
 30
0.0
 11
226.575868269364
 21
1015.163167797742
 31
0.0
  0
LINE
  5
505C
330
1A
100
AcDbEntity
  8
寸法線
100
AcDbLine
 10
226.575868269364
 20
1015.163167797742
 30
0.0
 11
226.575868269364
 21
1000.383352797742
 31
0.0
  0
LINE
  5
505D
330
1A
100
AcDbEntity
  8
寸法線
100
AcDbLine
 10
238.356872769364
 20
1015.163167797742
 30
0.0
 11
247.995865269364
 21
1015.163167797742
 31
0.0
  0
LINE
  5
505E
330
1A
100
AcDbEntity
  8
寸法線
100
AcDbLine
 10
262.775659269364
 20
1015.163167797742
 30
0.0
 11
277.769662269364
 21
1015.163167797742
 31
0.0
  0
TEXT
  5
505F
330
1A
100
AcDbEntity
  8
寸法線
100
AcDbText
 10
273.268700769364
 20
987.688009797742
 30
0.0
 40
9.0
  1
Ｍ
 41
1.25
  7
EXCADSTD
 72
     5
 11
282.268700769364
 21
987.688009797742
 31
0.0
100
AcDbText
  0
LINE
  5
5060
330
1A
100
AcDbEntity
  8
寸法線
100
AcDbLine
 10
277.769662269364
 20
1015.163167797742
 30
0.0
 11
277.769662269364
 21
999.238440297742
 31
0.0
  0
CIRCLE
  5
5061
330
1A
100
AcDbEntity
  8
寸法線
100
AcDbCircle
 10
232.466369769364
 20
987.017775297742
 30
0.0
 40
1.2000045
  0
CIRCLE
  5
5062
330
1A
100
AcDbEntity
  8
寸法線
100
AcDbCircle
 10
262.775659269364
 20
987.017775297742
 30
0.0
 40
1.2000045
  0
CIRCLE
  5
5063
330
1A
100
AcDbEntity
  8
寸法線
100
AcDbCircle
 10
226.575868269364
 20
999.183348297742
 30
0.0
 40
1.2000045
  0
LINE
  5
5064
330
1A
100
AcDbEntity
  8
寸法線
100
AcDbLine
 10
238.356872769364
 20
1015.163167797742
 30
0.0
 11
238.356872769364
 21
1000.383352797742
 31
0.0
  0
CIRCLE
  5
5065
330
1A
100
AcDbEntity
  8
寸法線
100
AcDbCircle
 10
238.356872769364
 20
999.183348297742
 30
0.0
 40
1.2000045
  0
LINE
  5
5066
330
1A
100
AcDbEntity
  8
寸法線
100
AcDbLine
 10
262.775659269364
 20
1015.163167797742
 30
0.0
 11
262.775659269364
 21
1000.383352797742
 31
0.0
  0
CIRCLE
  5
5067
330
1A
100
AcDbEntity
  8
寸法線
100
AcDbCircle
 10
262.775659269364
 20
999.183348297742
 30
0.0
 40
1.2000045
  0
LINE
  5
5068
330
1A
100
AcDbEntity
  8
寸法線
100
AcDbLine
 10
232.466369769364
 20
988.217767797742
 30
0.0
 11
227.775872769364
 21
999.183348297742
 31
0.0
  0
LINE
  5
5069
330
1A
100
AcDbEntity
  8
寸法線
100
AcDbLine
 10
262.775659269364
 20
988.217767797742
 30
0.0
 11
263.975663769364
 21
999.183348297742
 31
0.0
  0
CIRCLE
  5
506A
330
1A
100
AcDbEntity
  8
寸法線
100
AcDbCircle
 10
277.775338269364
 20
992.355093297742
 30
0.0
 40
6.883348499999999
  0
MTEXT
  5
506B
102
{ACAD_XDICTIONARY
360
506C
102
}
330
1A
100
AcDbEntity
  8
寸法線
 48
10.0
100
AcDbMText
 10
390.61387000465
 20
1014.039221454753
 30
0.0
 40
7.0
 41
158.221086696158
 71
     1
 72
     5
  1
\H0.8571x;塗　装　色：7.5BG4/1.5\P接点　容量：AC250V5A\P静止トルク：約4.9N・cm（約500g・cm）\P回　転　数：1RPM
1001
ACADANNOTATIVE
1000
AnnotativeData
1002
{
1070
     1
1070
     0
1002
}
  0
DIMENSION
  5
506F
330
1A
100
AcDbEntity
  8
寸法線
 48
10.0
100
AcDbDimension
  2
*D62
 10
517.418441060638
 20
1117.56732724634
 30
0.0
 11
517.418441060638
 21
1162.48865733223
 31
0.0
 70
   160
  1
G 3/4"
  3
ISO-25
100
AcDbAlignedDimension
 13
512.269474735352
 23
1144.00832724634
 33
0.0
 14
512.269474735352
 24
1117.56732724634
 34
0.0
 50
90.0
100
AcDbRotatedDimension
1001
ACAD
1000
DSTYLE
1002
{
1070
     5
1000
OPEN30
1070
    41
1040
6.0
1070
    47
1040
0.1
1070
    48
1040
0.1
1070
    73
1070
     0
1070
   140
1040
6.0
1070
   271
1070
     1
1070
   272
1070
     1
1070
   341
1005
2AF4
1002
}
  0
MTEXT
  5
5070
330
1A
100
AcDbEntity
  8
寸法線
 48
10.0
100
AcDbMText
 10
657.994069041179
 20
1063.885371771523
 30
0.0
 40
6.0
 41
51.077111820171
 71
     1
 72
     5
  1
リード線0.5m付
  0
LEADER
  5
5071
330
1A
100
AcDbEntity
  8
寸法線
 48
10.0
100
AcDbLeader
  3
ISO-25
 76
     2
 10
643.771047748294
 20
1053.429485706404
 30
0.0
 10
657.168067344881
 20
1058.448438319479
 30
0.0
1001
ACAD
1000
DSTYLE
1002
{
1070
     5
1000
OPEN30
1070
   147
1040
0.625
1070
    77
1070
     0
1070
    41
1040
6.0
1070
    47
1040
0.1
1070
    48
1040
0.1
1070
    73
1070
     0
1070
   140
1040
5.0
1070
   271
1070
     1
1070
   272
1070
     1
1070
   341
1005
2AF4
1070
   342
1005
2AF4
1002
}
  0
MTEXT
  5
5072
102
{ACAD_XDICTIONARY
360
5073
102
}
330
1A
100
AcDbEntity
  8
寸法線
 48
10.0
100
AcDbMText
 10
300.003987983455
 20
1012.161958499947
 30
0.0
 40
6.0
 41
168.503621648242
 71
     1
 72
     5
  1
御仕様   電源電圧\P       AC100/110V\P       AC200/220V
1001
ACADANNOTATIVE
1000
AnnotativeData
1002
{
1070
     1
1070
     0
1002
}
  0
MTEXT
  5
5076
102
{ACAD_XDICTIONARY
360
5077
102
}
330
1A
100
AcDbEntity
  8
寸法線
 48
10.0
100
AcDbMText
 10
301.184709576267
 20
982.614784777384
 30
0.0
 40
6.0
 41
161.650793650794
 71
     1
 72
     5
  1
\W0.7;○印が今回の貴社の御仕様です。
1001
ACADANNOTATIVE
1000
AnnotativeData
1002
{
1070
     1
1070
     0
1002
}
  0
LINE
  5
507A
330
1A
100
AcDbEntity
  8
寸法線
 48
10.0
100
AcDbLine
 10
323.270925989991
 20
1014.271419160212
 30
0.0
 11
323.270925989991
 21
984.829290203593
 31
0.0
  0
LINE
  5
507B
330
1A
100
AcDbEntity
  8
寸法線
 48
10.0
100
AcDbLine
 10
297.653703496983
 20
1003.967934340825
 30
0.0
 11
371.10154448535
 21
1003.967934340825
 31
0.0
  0
LINE
  5
507C
330
1A
100
AcDbEntity
  8
寸法線
 48
10.0
100
AcDbLine
 10
297.653703496983
 20
1014.271419160212
 30
0.0
 11
371.10154448535
 21
1014.271419160212
 31
0.0
  0
LINE
  5
507D
330
1A
100
AcDbEntity
  8
寸法線
 48
10.0
100
AcDbLine
 10
371.10154448535
 20
1014.271419160212
 30
0.0
 11
371.10154448535
 21
984.829290203593
 31
0.0
  0
LINE
  5
507E
330
1A
100
AcDbEntity
  8
寸法線
 48
10.0
100
AcDbLine
 10
297.653703496983
 20
994.081955119139
 30
0.0
 11
371.10154448535
 21
994.081955119139
 31
0.0
  0
LINE
  5
507F
330
1A
100
AcDbEntity
  8
寸法線
 48
10.0
100
AcDbLine
 10
297.653703496983
 20
984.829290203593
 30
0.0
 11
371.10154448535
 21
984.829290203593
 31
0.0
  0
LINE
  5
5080
330
1A
100
AcDbEntity
  8
寸法線
 48
10.0
100
AcDbLine
 10
297.653703496983
 20
1014.271419160212
 30
0.0
 11
297.653703496983
 21
984.829290203593
 31
0.0
  0
LINE
  5
5081
330
1A
100
AcDbEntity
  8
外形線
100
AcDbLine
 10
651.969456735352
 20
1095.08780024634
 30
0.0
 11
651.969456735352
 21
1156.28782724634
 31
0.0
  0
LINE
  5
5082
330
1A
100
AcDbEntity
  8
外形線
100
AcDbLine
 10
651.969456735352
 20
1156.28782724634
 30
0.0
 11
664.169437235352
 21
1156.28782724634
 31
0.0
  0
LINE
  5
5083
330
1A
100
AcDbEntity
  8
外形線
100
AcDbLine
 10
654.469456735352
 20
1085.28782724634
 30
0.0
 11
654.469456735352
 21
1156.28782724634
 31
0.0
  0
LINE
  5
5084
330
1A
100
AcDbEntity
  8
外形線
100
AcDbLine
 10
653.203567008823
 20
1085.28782724634
 30
0.0
 11
664.169437235352
 21
1085.28782724634
 31
0.0
  0
LINE
  5
5085
330
1A
100
AcDbEntity
  8
外形線
100
AcDbLine
 10
651.969456735352
 20
1154.18782724634
 30
0.0
 11
626.169456735352
 21
1153.88782724634
 31
0.0
  0
LINE
  5
5086
330
1A
100
AcDbEntity
  8
外形線
100
AcDbLine
 10
621.969456735352
 20
1149.68782724634
 30
0.0
 11
623.969456735352
 21
1149.68782724634
 31
0.0
  0
LINE
  5
5087
330
1A
100
AcDbEntity
  8
外形線
100
AcDbLine
 10
623.969456735352
 20
1149.68782724634
 30
0.0
 11
623.969456735352
 21
1149.68782724634
 31
0.0
  0
LINE
  5
5088
330
1A
100
AcDbEntity
  8
外形線
100
AcDbLine
 10
621.969456735352
 20
1111.88782724634
 30
0.0
 11
623.969456735352
 21
1111.88782724634
 31
0.0
  0
LINE
  5
5089
330
1A
100
AcDbEntity
  8
外形線
100
AcDbLine
 10
621.969456735352
 20
1111.88782724634
 30
0.0
 11
621.969456735352
 21
1149.68782724634
 31
0.0
  0
LINE
  5
508A
330
1A
100
AcDbEntity
  8
外形線
100
AcDbLine
 10
623.969456735352
 20
1151.68782724634
 30
0.0
 11
623.969456735352
 21
1089.88782724634
 31
0.0
  0
ARC
  5
508B
330
1A
100
AcDbEntity
  8
外形線
100
AcDbCircle
 10
626.169456735352
 20
1151.68782724634
 30
0.0
 40
2.2
100
AcDbArc
 50
90.0
 51
180.0
  0
ARC
  5
508C
330
1A
100
AcDbEntity
  8
外形線
100
AcDbCircle
 10
626.169456735352
 20
1089.88782724634
 30
0.0
 40
2.2
100
AcDbArc
 50
180.0
 51
263.748538621027
  0
LWPOLYLINE
  5
508D
330
1A
100
AcDbEntity
  8
細線
100
AcDbPolyline
 90
        2
 70
     0
 43
0.0
 10
511.769474735352
 20
1118.72932724634
 10
522.369456735351
 20
1118.72932724634
  0
LWPOLYLINE
  5
508E
330
1A
100
AcDbEntity
  8
細線
100
AcDbPolyline
 90
        2
 70
     0
 43
0.0
 10
522.369456735351
 20
1142.84632724634
 10
511.769474735352
 20
1142.84632724634
  0
LWPOLYLINE
  5
508F
330
1A
100
AcDbEntity
  8
外形線
100
AcDbPolyline
 90
        6
 70
     0
 43
0.0
 10
522.369456735351
 20
1144.00832724634
 10
512.269474735352
 20
1144.00832724634
 10
511.769474735352
 20
1143.50832724634
 10
511.769474735352
 20
1118.06732724634
 10
512.269474735352
 20
1117.56732724634
 10
522.369456735351
 20
1117.56732724634
  0
LINE
  5
5090
330
1A
100
AcDbEntity
  8
外形線
100
AcDbLine
 10
525.369424230499
 20
1141.264668320609
 30
0.0
 11
529.369456735352
 21
1141.28782724634
 31
0.0
  0
LINE
  5
5091
330
1A
100
AcDbEntity
  8
外形線
100
AcDbLine
 10
529.369456735352
 20
1153.28782724634
 30
0.0
 11
529.369456735352
 21
1108.28782724634
 31
0.0
  0
LINE
  5
5092
330
1A
100
AcDbEntity
  8
外形線
100
AcDbLine
 10
529.369456735352
 20
1153.28782724634
 30
0.0
 11
530.969456735352
 21
1153.28782724634
 31
0.0
  0
LINE
  5
5093
330
1A
100
AcDbEntity
  8
外形線
100
AcDbLine
 10
522.369456735351
 20
1112.764662007232
 30
0.0
 11
522.369456735351
 21
1148.764662007232
 31
0.0
  0
LINE
  5
5094
330
1A
100
AcDbEntity
  8
外形線
100
AcDbLine
 10
522.369456735351
 20
1148.764662007232
 30
0.0
 11
525.392599300721
 21
1151.78782724634
 31
0.0
  0
LINE
  5
5095
330
1A
100
AcDbEntity
  8
外形線
100
AcDbLine
 10
525.346269169983
 20
1109.78782724634
 30
0.0
 11
529.369456735352
 21
1109.78782724634
 31
0.0
  0
LINE
  5
5096
330
1A
100
AcDbEntity
  8
外形線
100
AcDbLine
 10
525.355028542297
 20
1120.28782724634
 30
0.0
 11
529.369456735352
 21
1120.28782724634
 31
0.0
  0
LINE
  5
5097
330
1A
100
AcDbEntity
  8
外形線
100
AcDbLine
 10
529.369456735352
 20
1108.28782724634
 30
0.0
 11
530.969456735352
 21
1108.28782724634
 31
0.0
  0
LINE
  5
5098
330
1A
100
AcDbEntity
  8
外形線
100
AcDbLine
 10
522.369456735351
 20
1112.764662007232
 30
0.0
 11
525.346269169983
 21
1109.78782724634
 31
0.0
  0
ARC
  5
5099
330
1A
100
AcDbEntity
  8
外形線
100
AcDbCircle
 10
542.244572235351
 20
1130.764662007232
 30
0.0
 40
19.875129
100
AcDbArc
 50
148.109418153978
 51
211.890564245926
  0
ARC
  5
509A
330
1A
100
AcDbEntity
  8
外形線
100
AcDbCircle
 10
533.371097235351
 20
1148.815269007232
 30
0.0
 40
11.0017755
100
AcDbArc
 50
180.263580433607
 51
223.338604767317
  0
ARC
  5
509B
330
1A
100
AcDbEntity
  8
外形線
100
AcDbCircle
 10
533.371097235351
 20
1112.714056507232
 30
0.0
 40
11.0017755
100
AcDbArc
 50
136.66137763259
 51
179.736401966304
  0
LINE
  5
509C
330
1A
100
AcDbEntity
  8
外形線
100
AcDbLine
 10
530.969456735352
 20
1153.28782724634
 30
0.0
 11
530.969456735352
 21
1108.28782724634
 31
0.0
  0
LINE
  5
509D
330
1A
100
AcDbEntity
  8
外形線
 48
10.0
100
AcDbLine
 10
529.369456735352
 20
1151.78782724634
 30
0.0
 11
525.392599300721
 21
1151.78782724634
 31
0.0
  0
DIMENSION
  5
509E
330
1A
100
AcDbEntity
  8
寸法線
 48
10.0
100
AcDbDimension
  2
*D63
 10
722.922214654577
 20
1085.28782724634
 30
0.0
 11
722.922214654577
 21
1120.96280024634
 31
0.0
 70
   160
  1
φ72
  3
ISO-25
100
AcDbAlignedDimension
 13
664.169437235352
 23
1156.28782724634
 33
0.0
 14
664.169437235352
 24
1085.28782724634
 34
0.0
 50
90.0
100
AcDbRotatedDimension
1001
ACAD
1000
DSTYLE
1002
{
1070
     5
1000
OPEN30
1070
    41
1040
6.0
1070
    47
1040
0.1
1070
    48
1040
0.1
1070
    73
1070
     0
1070
   140
1040
6.0
1070
   271
1070
     1
1070
   272
1070
     1
1070
   341
1005
2AF4
1002
}
  0
LINE
  5
509F
330
1A
100
AcDbEntity
  8
外形線
100
AcDbLine
 10
704.969456735352
 20
1096.21280024634
 30
0.0
 11
704.969456735352
 21
1145.71280024634
 31
0.0
  0
LINE
  5
50A0
330
1A
100
AcDbEntity
  8
外形線
100
AcDbLine
 10
703.469456735352
 20
1093.00319024634
 30
0.0
 11
703.469456735352
 21
1148.92241024634
 31
0.0
  0
LINE
  5
50A1
330
1A
100
AcDbEntity
  8
外形線
100
AcDbLine
 10
664.169437235352
 20
1156.28782724634
 30
0.0
 11
664.169437235352
 21
1085.28782724634
 31
0.0
  0
LINE
  5
50A2
330
1A
100
AcDbEntity
  8
外形線
100
AcDbLine
 10
664.169437235352
 20
1086.83780024634
 30
0.0
 11
699.183917735352
 21
1088.50831724634
 31
0.0
  0
LINE
  5
50A3
330
1A
100
AcDbEntity
  8
外形線
100
AcDbLine
 10
704.969456735352
 20
1096.21280024634
 30
0.0
 11
703.469456735352
 21
1096.21280024634
 31
0.0
  0
ARC
  5
50A4
330
1A
100
AcDbEntity
  8
外形線
100
AcDbCircle
 10
698.969456735352
 20
1093.00319024634
 30
0.0
 40
4.5
100
AcDbArc
 50
272.731520116378
 51
359.999982399908
  0
LINE
  5
50A5
330
1A
100
AcDbEntity
  8
外形線
100
AcDbLine
 10
664.169437235352
 20
1155.08780024634
 30
0.0
 11
699.183917735352
 21
1153.41728324634
 31
0.0
  0
LINE
  5
50A6
330
1A
100
AcDbEntity
  8
外形線
100
AcDbLine
 10
704.969456735352
 20
1145.71280024634
 30
0.0
 11
703.469456735352
 21
1145.71280024634
 31
0.0
  0
ARC
  5
50A7
330
1A
100
AcDbEntity
  8
外形線
100
AcDbCircle
 10
698.969456735352
 20
1148.92241024634
 30
0.0
 40
4.5
100
AcDbArc
 50
0.0
 51
87.268519579299
  0
LINE
  5
50A8
330
1A
100
AcDbEntity
  8
外形線
100
AcDbLine
 10
655.969456735352
 20
1085.28782724634
 30
0.0
 11
655.969456735352
 21
1156.28782724634
 31
0.0
  0
LINE
  5
50A9
330
1A
100
AcDbEntity
  8
中心線
 48
10.0
100
AcDbLine
 10
639.319447735351
 20
1099.75264124634
 30
0.0
 11
639.319447735351
 21
1044.31902224634
 31
0.0
  0
LINE
  5
50AA
330
1A
100
AcDbEntity
  8
外形線
100
AcDbLine
 10
635.081929735351
 20
1047.350418873807
 30
0.0
 11
635.081929735351
 21
1060.53402224634
 31
0.0
  0
LINE
  5
50AB
330
1A
100
AcDbEntity
  8
外形線
100
AcDbLine
 10
643.481893735351
 20
1047.350418873807
 30
0.0
 11
643.481893735351
 21
1060.53402224634
 31
0.0
  0
ARC
  5
50AC
330
1A
100
AcDbEntity
  8
細線
100
AcDbCircle
 10
637.181921923999
 20
1050.987712040043
 30
0.0
 40
4.199982
100
AcDbArc
 50
239.999981276043
 51
299.999981276019
  0
ARC
  5
50AD
330
1A
100
AcDbEntity
  8
細線
100
AcDbCircle
 10
641.381903923999
 20
1050.987710667511
 30
0.0
 40
4.199982
100
AcDbArc
 50
239.999981276043
 51
299.999981276019
  0
ARC
  5
50AE
330
1A
100
AcDbEntity
  8
細線
100
AcDbCircle
 10
641.381901546703
 20
1043.713128452637
 30
0.0
 40
4.199982
100
AcDbArc
 50
59.999981276043
 51
119.999981276019
  0
LINE
  5
50AF
330
1A
100
AcDbEntity
  8
外形線
100
AcDbLine
 10
632.377388098615
 20
1084.607028692089
 30
0.0
 11
625.435328461879
 21
1078.595028692089
 31
0.0
  0
LINE
  5
50B0
330
1A
100
AcDbEntity
  8
外形線
100
AcDbLine
 10
646.261507372087
 20
1084.607028692089
 30
0.0
 11
653.203567008823
 21
1078.595028692089
 31
0.0
  0
LINE
  5
50B1
330
1A
100
AcDbEntity
  8
外形線
100
AcDbLine
 10
646.261507372087
 20
1075.92945414617
 30
0.0
 11
646.261507372087
 21
1084.607028692089
 31
0.0
  0
LINE
  5
50B2
330
1A
100
AcDbEntity
  8
外形線
100
AcDbLine
 10
632.377388098615
 20
1075.92945414617
 30
0.0
 11
632.377388098615
 21
1084.607028692089
 31
0.0
  0
LWPOLYLINE
  5
50B3
330
1A
100
AcDbEntity
  8
外形線
100
AcDbPolyline
 90
       47
 70
     0
 43
0.0
 10
643.481892235351
 20
1059.442714583559
 10
643.94114602625
 20
1059.557585027913
 10
644.349763523519
 20
1059.683804645759
 10
644.703267828352
 20
1059.81999054855
 10
644.99778587361
 20
1059.964650655038
 10
645.230090857956
 20
1060.116200038824
 10
645.39763759937
 20
1060.272978293143
 10
645.498590420689
 20
1060.433267722636
 10
645.531843261681
 20
1060.595312162769
 10
645.497031797257
 20
1060.757336220747
 10
645.39453742911
 20
1060.917564727084
 10
645.225483106982
 20
1061.074242184736
 10
644.991721025407
 20
1061.225652002687
 10
644.695812330666
 20
1061.37013530329
 10
644.340999060343
 20
1061.506109097267
 10
643.931168622874
 20
1061.632083627277
 10
643.470811206298
 20
1061.746678690009
 10
642.964970582807
 20
1061.848638757974
 10
642.419188848123
 20
1061.936846735331
 10
641.839445701144
 20
1062.010336197021
 10
641.23209292911
 20
1062.068301977122
 10
640.603784816086
 20
1062.110108990419
 10
639.961405237241
 20
1062.135299190525
 10
639.311992237666
 20
1062.143596588336
 10
638.662660922085
 20
1062.134910275826
 10
638.02052550027
 20
1062.109335422052
 10
637.39262134228
 20
1062.067152230463
 10
636.785827897468
 20
1062.008822868934
 10
636.206793321793
 20
1061.934986406157
 10
635.661861639238
 20
1061.846451809869
 10
635.157003235351
 20
1061.744189083635
 10
634.697749444453
 20
1061.629318639281
 10
634.289131947184
 20
1061.503099021435
 10
633.93562764235
 20
1061.366913118644
 10
633.641109597093
 20
1061.222253012156
 10
633.408804612747
 20
1061.07070362837
 10
633.241257871334
 20
1060.913925374051
 10
633.140305050013
 20
1060.753635944558
 10
633.107052209022
 20
1060.591591504424
 10
633.141863673445
 20
1060.429567446447
 10
633.244358041593
 20
1060.269338940109
 10
633.41341236372
 20
1060.112661482458
 10
633.647174445295
 20
1059.961251664508
 10
633.943083140037
 20
1059.816768363905
 10
634.297896410361
 20
1059.680794569927
 10
634.707726847828
 20
1059.554820039915
 10
635.081929735352
 20
1059.459903158048
  0
ARC
  5
50B4
330
1A
100
AcDbEntity
  8
外形線
100
AcDbCircle
 10
639.319447735351
 20
1092.780232900297
 30
0.0
 40
34.15159996140045
100
AcDbArc
 50
255.26831657715
 51
262.87239111701
  0
LWPOLYLINE
  5
50B5
330
1A
100
AcDbEntity
  8
外形線
100
AcDbPolyline
 90
       34
 70
     0
 43
0.0
 10
650.992747735351
 20
1068.008387746068
 10
650.939006177751
 20
1068.567805857515
 10
650.778276335891
 20
1069.122073068931
 10
650.512038146387
 20
1069.666085907733
 10
650.142743024867
 20
1070.194835319528
 10
649.673791294291
 20
1070.703452789507
 10
649.109500876148
 20
1071.187255169789
 10
648.455067532737
 20
1071.641787799998
 10
647.716517026643
 20
1072.062865524007
 10
646.900649637924
 20
1072.446611225187
 10
646.014977549808
 20
1072.789491525368
 10
645.067655679507
 20
1073.088349318776
 10
644.067406590969
 20
1073.340432841417
 10
643.023440180966
 20
1073.543421008228
 10
641.945368878024
 20
1073.695444784697
 10
640.843119134993
 20
1073.795104396204
 10
639.726840030208
 20
1073.841482216589
 10
638.6068098188
 20
1073.834151217277
 10
637.493341294597
 20
1073.773178899203
 10
636.396686834023
 20
1073.659126671281
 10
635.326943996268
 20
1073.493044681178
 10
634.29396254898
 20
1073.276462145969
 10
633.307253775504
 20
1073.011373271711
 10
632.375902898768
 20
1072.700218891588
 10
631.508485428142
 20
1072.34586399169
 10
630.712988199565
 20
1071.951571331348
 10
629.996735835917
 20
1071.520971400948
 10
629.366323304798
 20
1071.058028993817
 10
628.827555194688
 20
1070.567006699974
 10
628.385392268597
 20
1070.052425657896
 10
628.043905787331
 20
1069.519023925665
 10
627.806240022927
 20
1068.971712854814
 10
627.674583307454
 20
1068.415531868547
 10
627.646147735351
 20
1068.008387746068
  0
ARC
  5
50B6
330
1A
100
AcDbEntity
  8
外形線
100
AcDbCircle
 10
639.319447735351
 20
1087.596847558367
 30
0.0
 40
13.57645981229912
100
AcDbArc
 50
239.247497502359
 51
300.752502497641
  0
LINE
  5
50B7
330
1A
100
AcDbEntity
  8
外形線
100
AcDbLine
 10
627.646147735351
 20
1068.008387746068
 30
0.0
 11
627.646147735351
 21
1063.62753500554
 31
0.0
  0
ARC
  5
50B8
330
1A
100
AcDbEntity
  8
外形線
100
AcDbCircle
 10
631.654147735351
 20
1063.62753500554
 30
0.0
 40
4.007999999999999
100
AcDbArc
 50
180.0
 51
255.268316577149
  0
ARC
  5
50B9
330
1A
100
AcDbEntity
  8
外形線
100
AcDbCircle
 10
624.926696544378
 20
1077.518771695146
 30
0.0
 40
7.618315752702329
100
AcDbArc
 50
273.828163206422
 51
347.958626091838
  0
LINE
  5
50BA
330
1A
100
AcDbEntity
  8
外形線
100
AcDbLine
 10
627.643396618149
 20
1068.005211029553
 30
0.0
 11
625.435328461879
 21
1069.91745414617
 31
0.0
  0
LINE
  5
50BB
330
1A
100
AcDbEntity
  8
外形線
100
AcDbLine
 10
625.435328461879
 20
1078.595028692089
 30
0.0
 11
625.435328461879
 21
1069.91745414617
 31
0.0
  0
LINE
  5
50BC
330
1A
100
AcDbEntity
  8
外形線
100
AcDbLine
 10
650.992747735351
 20
1068.008387746068
 30
0.0
 11
650.992747735351
 21
1063.62753500554
 31
0.0
  0
LWPOLYLINE
  5
50BD
330
1A
100
AcDbEntity
  8
外形線
100
AcDbPolyline
 90
       29
 70
     0
 43
0.0
 10
643.481892235351
 20
1060.53402224634
 10
643.45489414972
 20
1060.635993713667
 10
643.374246988011
 20
1060.736654206375
 10
643.240987573411
 20
1060.834709604117
 10
643.056829127419
 20
1060.928899278394
 10
642.824139244176
 20
1061.018012299569
 10
642.545909451984
 20
1061.100903004916
 10
642.225716753362
 20
1061.176505727601
 10
641.867677638066
 20
1061.243848497202
 10
641.476395160311
 20
1061.302065535632
 10
641.05689976057
 20
1061.350408387842
 10
640.61458459279
 20
1061.38825554417
 10
640.155136188442
 20
1061.415120430648
 10
639.684461348829
 20
1061.430657664543
 10
639.208611205548
 20
1061.434667494692
 10
638.733703425393
 20
1061.427098369559
 10
638.265843559868
 20
1061.408047600002
 10
637.81104655045
 20
1061.377760108212
 10
637.375159398768
 20
1061.336625278929
 10
636.96378599586
 20
1061.285171953392
 10
636.582215076936
 20
1061.224061630401
 10
636.235352227869
 20
1061.154079961913
 10
635.927656817569
 20
1061.076126652455
 10
635.663084667043
 20
1060.991203892276
 10
635.44503719223
 20
1060.900403472893
 10
635.276317674402
 20
1060.804892750706
 10
635.15909522038
 20
1060.705899639127
 10
635.094876875872
 20
1060.604696822178
 10
635.081929735352
 20
1060.53402224634
  0
ARC
  5
50BE
330
1A
100
AcDbEntity
  8
外形線
100
AcDbCircle
 10
639.319447735351
 20
1092.780232900297
 30
0.0
 40
34.15159996140045
100
AcDbArc
 50
277.000695446903
 51
284.73168342285
  0
ARC
  5
50BF
330
1A
100
AcDbEntity
  8
外形線
100
AcDbCircle
 10
646.984747735351
 20
1063.62753500554
 30
0.0
 40
4.007999999999999
100
AcDbArc
 50
284.73168342285
 51
0.0
  0
LINE
  5
50C0
330
1A
100
AcDbEntity
  8
外形線
100
AcDbLine
 10
650.995498852554
 20
1068.005211029553
 30
0.0
 11
653.203567008823
 21
1069.91745414617
 31
0.0
  0
ARC
  5
50C1
330
1A
100
AcDbEntity
  8
外形線
100
AcDbCircle
 10
653.712198926325
 20
1077.518771695146
 30
0.0
 40
7.618315752702329
100
AcDbArc
 50
192.041373908162
 51
266.171836793578
  0
LINE
  5
50C2
330
1A
100
AcDbEntity
  8
外形線
100
AcDbLine
 10
653.203567008823
 20
1069.91745414617
 30
0.0
 11
653.203567008823
 21
1078.595028692089
 31
0.0
  0
LWPOLYLINE
  5
50C3
330
1A
100
AcDbEntity
  8
外形線
100
AcDbPolyline
 90
       34
 70
     0
 43
0.0
 10
649.817902735351
 20
1084.313931639904
 10
649.76956993108
 20
1084.68476957437
 10
649.625016547554
 20
1085.052192980261
 10
649.385573574976
 20
1085.412818768622
 10
649.053445709246
 20
1085.763326440267
 10
648.631691051985
 20
1086.100488659618
 10
648.124192952751
 20
1086.421200970717
 10
647.535624252698
 20
1086.722510381845
 10
646.871404258915
 20
1087.001642555484
 10
646.137648845584
 20
1087.256027353318
 10
645.341114141443
 20
1087.483322501055
 10
644.489134322037
 20
1087.681435155148
 10
643.589554079533
 20
1087.848541172877
 10
642.650656391911
 20
1087.983101908327
 10
641.681086256583
 20
1088.083878379633
 10
640.689771090694
 20
1088.149942677025
 10
639.685838531005
 20
1088.180686506666
 10
638.678532390229
 20
1088.175826791569
 10
637.677127543677
 20
1088.135408278059
 10
636.690844529886
 20
1088.059803123778
 10
635.728764651553
 20
1087.94970747099
 10
634.79974635851
 20
1087.806135036785
 10
633.912343682621
 20
1087.630407779179
 10
633.074727475667
 20
1087.424143725044
 10
632.29461017537
 20
1087.189242071955
 10
631.57917479233
 20
1086.927865701142
 10
630.935008771717
 20
1086.642421262532
 10
630.368043338688
 20
1086.335537015268
 10
629.883498886012
 20
1086.010038627748
 10
629.485836906775
 20
1085.668923159989
 10
629.178718914718
 20
1085.315331467885
 10
628.964972730465
 20
1084.952519283451
 10
628.846566444081
 20
1084.583827237349
 10
628.820992735351
 20
1084.313931639904
  0
LINE
  5
50C4
330
1A
100
AcDbEntity
  8
外形線
100
AcDbLine
 10
632.377388098615
 20
1084.607028692089
 30
0.0
 11
646.261507372087
 21
1084.607028692089
 31
0.0
  0
LINE
  5
50C5
330
1A
100
AcDbEntity
  8
外形線
100
AcDbLine
 10
632.377388098615
 20
1093.28460323801
 30
0.0
 11
646.261507372087
 21
1093.28460323801
 31
0.0
  0
LINE
  5
50C6
330
1A
100
AcDbEntity
  8
外形線
100
AcDbLine
 10
632.377388098615
 20
1088.945815965049
 30
0.0
 11
646.261507372087
 21
1088.945815965049
 31
0.0
  0
LINE
  5
50C7
330
1A
100
AcDbEntity
  8
外形線
100
AcDbLine
 10
654.469456735352
 20
1095.08780024634
 30
0.0
 11
631.369465735351
 21
1095.08780024634
 31
0.0
  0
LINE
  5
50C8
330
1A
100
AcDbEntity
  8
外形線
100
AcDbLine
 10
631.688248970522
 20
1092.68779124634
 30
0.0
 11
628.969456735351
 21
1092.68779124634
 31
0.0
  0
LINE
  5
50C9
330
1A
100
AcDbEntity
  8
外形線
100
AcDbLine
 10
625.435328461879
 20
1087.272603238009
 30
0.0
 11
632.377388098615
 21
1093.28460323801
 31
0.0
  0
ARC
  5
50CA
330
1A
100
AcDbEntity
  8
外形線
100
AcDbCircle
 10
631.369465735351
 20
1089.68779124634
 30
0.0
 40
5.4
100
AcDbArc
 50
89.999981276021
 51
180.00001984784
  0
LINE
  5
50CB
330
1A
100
AcDbEntity
  8
外形線
100
AcDbLine
 10
632.377388098615
 20
1088.945815965049
 30
0.0
 11
625.435328461879
 21
1082.933815965049
 31
0.0
  0
ARC
  5
50CC
330
1A
100
AcDbEntity
  8
外形線
100
AcDbCircle
 10
628.969456735351
 20
1089.68779124634
 30
0.0
 40
3.0
100
AcDbArc
 50
89.999981276021
 51
211.533239298814
  0
LINE
  5
50CD
330
1A
100
AcDbEntity
  8
外形線
100
AcDbLine
 10
627.94032846188
 20
1080.764422328569
 30
0.0
 11
625.435328461879
 21
1082.933815965049
 31
0.0
  0
LINE
  5
50CE
330
1A
100
AcDbEntity
  8
外形線
100
AcDbLine
 10
628.820992735351
 20
1084.313931639904
 30
0.0
 11
628.820992735351
 21
1081.527099961602
 31
0.0
  0
LINE
  5
50CF
330
1A
100
AcDbEntity
  8
外形線
100
AcDbLine
 10
625.435328461879
 20
1082.933815965049
 30
0.0
 11
625.435328461879
 21
1087.272603238009
 31
0.0
  0
LINE
  5
50D0
330
1A
100
AcDbEntity
  8
細線
100
AcDbLine
 10
630.176197735351
 20
1082.700741918937
 30
0.0
 11
630.176197735351
 21
1086.252283128583
 31
0.0
  0
LINE
  5
50D1
330
1A
100
AcDbEntity
  8
外形線
100
AcDbLine
 10
632.377388098615
 20
1088.945815965049
 30
0.0
 11
632.377388098615
 21
1093.28460323801
 31
0.0
  0
LINE
  5
50D2
330
1A
100
AcDbEntity
  8
細線
100
AcDbLine
 10
648.462697735351
 20
1082.700741918937
 30
0.0
 11
648.462697735351
 21
1086.35568744643
 31
0.0
  0
LINE
  5
50D3
330
1A
100
AcDbEntity
  8
外形線
100
AcDbLine
 10
654.469456735352
 20
1092.68779124634
 30
0.0
 11
646.950646500179
 21
1092.68779124634
 31
0.0
  0
LINE
  5
50D4
330
1A
100
AcDbEntity
  8
外形線
100
AcDbLine
 10
653.203567008823
 20
1087.272603238009
 30
0.0
 11
646.261507372087
 21
1093.28460323801
 31
0.0
  0
LINE
  5
50D5
330
1A
100
AcDbEntity
  8
外形線
100
AcDbLine
 10
646.261507372087
 20
1088.945815965049
 30
0.0
 11
646.261507372087
 21
1093.28460323801
 31
0.0
  0
LINE
  5
50D6
330
1A
100
AcDbEntity
  8
外形線
100
AcDbLine
 10
650.698567008823
 20
1080.764422328569
 30
0.0
 11
653.203567008823
 21
1082.933815965049
 31
0.0
  0
LINE
  5
50D7
330
1A
100
AcDbEntity
  8
外形線
100
AcDbLine
 10
646.261507372087
 20
1088.945815965049
 30
0.0
 11
653.203567008823
 21
1082.933815965049
 31
0.0
  0
LINE
  5
50D8
330
1A
100
AcDbEntity
  8
外形線
100
AcDbLine
 10
649.817902735351
 20
1084.313931639904
 30
0.0
 11
649.817902735351
 21
1081.527099961602
 31
0.0
  0
LINE
  5
50D9
330
1A
100
AcDbEntity
  8
外形線
100
AcDbLine
 10
653.203567008823
 20
1082.933815965049
 30
0.0
 11
653.203567008823
 21
1087.272603238009
 31
0.0
  0
LINE
  5
50DA
330
1A
100
AcDbEntity
  8
寸法線
 48
10.0
100
AcDbLine
 10
704.969456735352
 20
1094.489360259698
 30
0.0
 11
704.969456735352
 21
1065.114067684709
 31
0.0
  0
LINE
  5
5166
330
1A
100
AcDbEntity
  8
寸法線
100
AcDbLine
 10
697.161642802658
 20
954.353586624693
 30
0.0
 11
566.826966447947
 21
954.353586624693
 31
0.0
  0
DIMENSION
  5
5168
330
1A
100
AcDbEntity
  8
寸法線
 48
10.0
100
AcDbDimension
  2
*D64
 10
536.969456735353
 20
1029.911453271578
 30
0.0
 11
449.92302048472
 21
1033.036453271578
 31
0.0
 70
    32
  1
 
  3
ISO-25
100
AcDbAlignedDimension
 13
362.876584234087
 23
1071.799031236478
 33
0.0
 14
536.969456735353
 24
1110.23780924634
 34
0.0
100
AcDbRotatedDimension
1001
ACAD
1000
DSTYLE
1002
{
1070
     5
1000
OPEN30
1070
    41
1040
6.0
1070
   271
1070
     1
1070
   341
1005
2AF4
1070
   272
1070
     1
1070
    73
1070
     0
1070
    48
1040
0.1
1070
    47
1040
0.1
1070
   140
1040
5.0
1002
}
  0
ARC
  5
5176
330
1A
100
AcDbEntity
  8
外形線
 48
10.0
100
AcDbCircle
 10
262.221953460636
 20
1130.78782724634
 30
0.0
 40
10.0
100
AcDbArc
 50
95.163607090846
 51
264.836392909154
  0
ARC
  5
5177
330
1A
100
AcDbEntity
  8
外形線
 48
10.0
100
AcDbCircle
 10
262.221953460636
 20
1130.78782724634
 30
0.0
 40
10.0
100
AcDbArc
 50
275.163607090846
 51
84.836392909154
  0
VIEWPORT
  5
2902
330
28FB
100
AcDbEntity
 67
     1
  8
0
 48
10.0
100
AcDbViewport
 10
0.0
 20
0.0
 30
0.0
 40
552.643962450915
 41
352.572857057292
 68
     1
 69
     1
1001
ACAD
1000
MVIEW
1002
{
1070
    16
1010
0.0
1020
0.0
1030
0.0
1010
0.0
1020
0.0
1030
1.0
1040
0.0
1040
352.572857057292
1040
235.295838285257
1040
139.593882597679
1040
50.0
1040
0.0
1040
0.0
1070
    16
1070
   100
1070
     0
1070
     1
1070
     0
1070
     0
1070
     0
1070
     0
1040
0.0
1040
0.0
1040
0.0
1040
10.0
1040
10.0
1040
10.0
1040
10.0
1070
     0
1002
{
1002
}
1002
}
  0
VIEWPORT
  5
2904
330
28FB
100
AcDbEntity
 67
     1
  8
図枠太線
 48
10.0
100
AcDbViewport
 10
204.746305129083
 20
161.396645458131
 30
0.0
 40
400.0
 41
240.0
 68
     2
 69
     2
1001
ACAD
1000
MVIEW
1002
{
1070
    16
1010
0.0
1020
0.0
1030
0.0
1010
0.0
1020
0.0
1030
1.0
1040
0.0
1040
355.328654467658
1040
469.283419535406
1040
1078.161098728123
1040
50.0
1040
0.0
1040
0.0
1070
     0
1070
   100
1070
     0
1070
     0
1070
     0
1070
     0
1070
     0
1070
     0
1040
0.0
1040
0.0
1040
0.0
1040
1.0
1040
1.0
1040
0.0
1040
0.0
1070
     0
1002
{
1002
}
1002
}
  0
INSERT
  5
2A59
330
28FB
100
AcDbEntity
 67
     1
  8
図枠太線
100
AcDbBlockReference
  2
A3横用_タイトル
 10
-0.352109406709
 20
-2.129314295396
 30
0.0
  0
MTEXT
  5
322B
330
28FB
100
AcDbEntity
 67
     1
  8
寸法線
 48
10.0
100
AcDbMText
 10
146.778370616794
 20
13.813697882368
 30
0.0
 40
7.0
 41
20.13579853524
 71
     1
 72
     5
  1
1:1.5
  0
MTEXT
  5
322C
102
{ACAD_XDICTIONARY
360
4CBB
102
}
330
28FB
100
AcDbEntity
 67
     1
  8
寸法線
 48
10.0
100
AcDbMText
 10
175.363236825976
 20
12.573033279747
 30
0.0
 40
5.0
 41
101.7
 71
     1
 72
     5
  1
2015.6.15
1001
ACADANNOTATIVE
1000
AnnotativeData
1002
{
1070
     1
1070
     0
1002
}
  0
MTEXT
  5
322D
102
{ACAD_XDICTIONARY
360
4CBE
102
}
330
28FB
100
AcDbEntity
 67
     1
  8
寸法線
 48
10.0
100
AcDbMText
 10
181.971782837175
 20
32.448193246353
 30
0.0
 40
5.0
 41
33.4
 71
     1
 72
     5
  1
ohno
1001
ACADANNOTATIVE
1000
AnnotativeData
1002
{
1070
     1
1070
     0
1002
}
  0
MTEXT
  5
322F
330
28FB
100
AcDbEntity
 67
     1
  8
寸法線
 48
10.0
100
AcDbMText
 10
307.961303749471
 20
33.656722730889
 30
0.0
 40
7.0
 41
47.382256863417
 71
     1
 72
     5
  1
HL-400HG
  0
MTEXT
  5
3230
330
28FB
100
AcDbEntity
 67
     1
  8
寸法線
 48
10.0
100
AcDbMText
 10
361.819918635276
 20
38.167964124636
 30
0.0
 40
5.0
 41
42.043281739348
 71
     1
 72
     5
  1
パドル式\Pレベルスイッチ
  0
MTEXT
  5
3231
102
{ACAD_XDICTIONARY
360
4CB8
102
}
330
28FB
100
AcDbEntity
 67
     1
  8
寸法線
 48
10.0
100
AcDbMText
 10
347.266472765904
 20
14.50279691064
 30
0.0
 40
7.0
 41
36.545313751788
 71
     1
 72
     5
  1
\H1.143x;HB-6004
1001
ACADANNOTATIVE
1000
AnnotativeData
1002
{
1070
     1
1070
     0
1002
}
  0
MTEXT
  5
3234
330
28FB
100
AcDbEntity
 67
     1
  8
寸法線
 48
10.0
100
AcDbMText
 10
373.486813801897
 20
49.017687915091
 30
0.0
 40
5.0
 41
34.334449052711
 71
     1
 72
     5
  1
台数   台
  0
MTEXT
  5
4231
330
28FB
100
AcDbEntity
 67
     1
  8
寸法線
 48
10.0
100
AcDbMText
 10
226.675366362341
 20
38.270360358157
 30
0.0
 40
4.5
 41
100.0
 71
     1
 72
     5
  1
タンク内温度：max.100℃\P　　
1001
ACAD
1000
MTEXTBEGIN
1070
    44
1040
1.4
1000
MTEXTEND
  0
ENDSEC
  0
SECTION
  2
OBJECTS
  0
DICTIONARY
  5
C
330
0
100
AcDbDictionary
  3
ACAD_COLOR
350
2948
  3
ACAD_GROUP
350
D
  3
ACAD_LAYOUT
350
2816
  3
ACAD_MATERIAL
350
2947
  3
ACAD_MLEADERSTYLE
350
4873
  3
ACAD_MLINESTYLE
350
E
  3
ACAD_PLOTSETTINGS
350
2817
  3
ACAD_SCALELIST
350
484C
  3
ACAD_VISUALSTYLE
350
4833
  3
ACADDIM
350
4220
  3
ACDBHEADERROUNDTRIPXREC
350
5179
  3
ACDBVARIABLEDICTIONARY
350
4C73
  3
DWGPROPS
350
519E
  0
DICTIONARY
  5
519F
330
8
100
AcDbDictionary
280
     1
  3
ACAD_XREC_ROUNDTRIP
360
51A0
  0
DICTIONARY
  5
29EA
330
2
100
AcDbDictionary
280
     1
  3
ACAD_LAYERFILTERS
360
2B0C
  3
ACAD_LAYERSTATES
360
29EB
  0
DICTIONARY
  5
4FC8
330
4FC7
100
AcDbDictionary
280
     1
  3
ACDBCONTEXTDATAMANAGER
360
4FC9
  0
DICTIONARY
  5
506C
330
506B
100
AcDbDictionary
280
     1
  3
ACDBCONTEXTDATAMANAGER
360
506D
  0
DICTIONARY
  5
5073
330
5072
100
AcDbDictionary
280
     1
  3
ACDBCONTEXTDATAMANAGER
360
5074
  0
DICTIONARY
  5
5077
330
5076
100
AcDbDictionary
280
     1
  3
ACDBCONTEXTDATAMANAGER
360
5078
  0
DICTIONARY
  5
4CBB
330
322C
100
AcDbDictionary
280
     1
  3
ACDBCONTEXTDATAMANAGER
360
4CBC
  0
DICTIONARY
  5
4CBE
330
322D
100
AcDbDictionary
280
     1
  3
ACDBCONTEXTDATAMANAGER
360
4CBF
  0
DICTIONARY
  5
4CB8
330
3231
100
AcDbDictionary
280
     1
  3
ACDBCONTEXTDATAMANAGER
360
4CB9
  0
DICTIONARY
  5
2948
102
{ACAD_REACTORS
330
C
102
}
330
C
100
AcDbDictionary
  0
DICTIONARY
  5
D
102
{ACAD_REACTORS
330
C
102
}
330
C
100
AcDbDictionary
  0
DICTIONARY
  5
2816
102
{ACAD_REACTORS
330
C
102
}
330
C
100
AcDbDictionary
  0
DICTIONARY
  5
2947
102
{ACAD_REACTORS
330
C
102
}
330
C
100
AcDbDictionary
  3
BYBLOCK
350
486F
  3
BYLAYER
350
486E
  3
GLOBAL
350
4870
  0
DICTIONARY
  5
4873
102
{ACAD_REACTORS
330
C
102
}
330
C
100
AcDbDictionary
  3
STANDARD
350
4874
  0
DICTIONARY
  5
E
102
{ACAD_REACTORS
330
C
102
}
330
C
100
AcDbDictionary
  3
STANDARD
350
13
  0
DICTIONARY
  5
2817
102
{ACAD_REACTORS
330
C
102
}
330
C
100
AcDbDictionary
  0
DICTIONARY
  5
484C
102
{ACAD_REACTORS
330
C
102
}
330
C
100
AcDbDictionary
  3
A0
350
484D
  3
A1
350
484E
  3
A2
350
484F
  3
A3
350
4850
  3
A4
350
4851
  3
A5
350
4852
  3
A6
350
4853
  3
A7
350
4854
  3
A8
350
4855
  3
A9
350
4856
  3
B0
350
4857
  3
B1
350
4858
  3
B2
350
4859
  3
B3
350
485A
  3
B4
350
485B
  3
B5
350
485C
  3
B6
350
485D
  3
B7
350
485E
  3
B8
350
485F
  3
B9
350
4860
  3
C0
350
4861
  3
C1
350
4862
  3
C2
350
4863
  3
C3
350
4864
  3
C4
350
4865
  3
C5
350
4866
  3
C6
350
4867
  3
C7
350
4868
  3
C8
350
4869
  3
C9
350
486A
  3
D0
350
486B
  3
D1
350
486C
  3
D2
350
486D
  0
DICTIONARY
  5
4833
102
{ACAD_REACTORS
330
C
102
}
330
C
100
AcDbDictionary
  3
2DWIREFRAME
350
4838
  3
BASIC
350
483B
  3
BRIGHTEN
350
483F
  3
COLORCHANGE
350
4843
  3
CONCEPTUAL
350
483D
  3
DIM
350
483E
  3
EDGECOLOROFF
350
4846
  3
FACEPATTERN
350
4842
  3
FLAT
350
4834
  3
FLATWITHEDGES
350
4835
  3
GOURAUD
350
4836
  3
GOURAUDWITHEDGES
350
4837
  3
HIDDEN
350
483A
  3
JITTEROFF
350
4844
  3
LINEPATTERN
350
4841
  3
OVERHANGOFF
350
4845
  3
REALISTIC
350
483C
  3
SHADED
350
484B
  3
SHADED_WITH_EDGES
350
484A
  3
SHADES_OF_GRAY
350
4847
  3
SKETCHY
350
4848
  3
THICKEN
350
4840
  3
WIREFRAME
350
4839
  3
X-RAY
350
4849
  0
XRECORD
  5
4220
102
{ACAD_REACTORS
330
C
102
}
330
C
100
AcDbXrecord
 90
   990106
  3

 60
     0
 61
     0
 62
     4
 63
     4
 64
     0
 65
     0
 66
     0
 67
     3
 68
     1
 69
     0
 70
     0
 71
     0
 72
     0
 40
0.0
170
     2
340
0
  0
DICTIONARY
  5
5179
102
{ACAD_REACTORS
330
C
102
}
330
C
100
AcDbDictionary
  3
CEPSNID
350
5183
  3
CEPSNTYPE
350
5182
  3
COLORDICT
350
519C
  3
DIMSTYLEDATA
350
5199
  3
FINGERPRINTGUID
350
5184
  3
HYPERLINKBASE
350
517C
  3
INSUNITS
350
5181
  3
LAYOUTDICT
350
517E
  3
LWETCUNION
350
5180
  3
MATERIALDICT
350
519D
  3
PLOTSETDICT
350
517F
  3
PSVPSCALE
350
5186
  3
PUCSBASE
350
5189
  3
PUCSORGBACK
350
518F
  3
PUCSORGBOTTOM
350
518B
  3
PUCSORGFRONT
350
518E
  3
PUCSORGLEFT
350
518C
  3
PUCSORGRIGHT
350
518D
  3
PUCSORGTOP
350
518A
  3
PUCSORTHOREF
350
5187
  3
PUCSORTHOVIEW
350
5188
  3
STYLESHEET
350
517D
  3
TSTACKALIGN
350
517A
  3
TSTACKSIZE
350
517B
  3
UCSBASE
350
5192
  3
UCSORGBACK
350
5198
  3
UCSORGBOTTOM
350
5194
  3
UCSORGFRONT
350
5197
  3
UCSORGLEFT
350
5195
  3
UCSORGRIGHT
350
5196
  3
UCSORGTOP
350
5193
  3
UCSORTHOREF
350
5190
  3
UCSORTHOVIEW
350
5191
  3
VERSIONGUID
350
5185
  0
DICTIONARY
  5
4C73
102
{ACAD_REACTORS
330
C
102
}
330
C
100
AcDbDictionary
  3
CANNOSCALE
350
4C74
  3
CMLEADERSTYLE
350
4CB3
  3
CTABLESTYLE
350
4CB2
  3
DIMASSOC
350
519A
  3
HIDETEXT
350
519B
  3
MSLTSCALE
350
4CB4
  3
XCLIPFRAME
350
4CB5
  0
XRECORD
  5
519E
102
{ACAD_REACTORS
330
C
102
}
330
C
100
AcDbXrecord
  1
DWGPROPS COOKIE
  2

  3

  4

  6

  7

  8
y-ohno
  9

300
=
301
=
302
=
303
=
304
=
305
=
306
=
307
=
308
=
309
=
 40
0.0
 41
2450576.222302431
 42
2457191.289815116
  1

 90
        0
  0
XRECORD
  5
51A0
102
{ACAD_REACTORS
330
519F
102
}
330
519F
100
AcDbXrecord
102
VTR_0.000_0.000_1.000_1.000_VISUALSTYLE
340
4838
102
VTR_0.000_0.000_1.000_1.000_GRIDDISPLAY
 70
     3
102
VTR_0.000_0.000_1.000_1.000_GRIDMAJOR
 70
     5
102
VTR_0.000_0.000_1.000_1.000_DEFAULTLIGHTING
280
     1
102
VTR_0.000_0.000_1.000_1.000_DEFAULTLIGHTINGTYPE
 70
     1
102
VTR_0.000_0.000_1.000_1.000_BRIGHTNESS
141
0.0
102
VTR_0.000_0.000_1.000_1.000_CONTRAST
142
0.0
  0
DICTIONARY
  5
2B0C
102
{ACAD_REACTORS
330
29EA
102
}
330
29EA
100
AcDbDictionary
  0
DICTIONARY
  5
29EB
102
{ACAD_REACTORS
330
29EA
102
}
330
29EA
100
AcDbDictionary
  0
DICTIONARY
  5
4FC9
102
{ACAD_REACTORS
330
4FC8
102
}
330
4FC8
100
AcDbDictionary
  3
ACDB_ANNOTATIONSCALES
350
4FCA
  0
DICTIONARY
  5
506D
102
{ACAD_REACTORS
330
506C
102
}
330
506C
100
AcDbDictionary
  3
ACDB_ANNOTATIONSCALES
350
506E
  0
DICTIONARY
  5
5074
102
{ACAD_REACTORS
330
5073
102
}
330
5073
100
AcDbDictionary
  3
ACDB_ANNOTATIONSCALES
350
5075
  0
DICTIONARY
  5
5078
102
{ACAD_REACTORS
330
5077
102
}
330
5077
100
AcDbDictionary
  3
ACDB_ANNOTATIONSCALES
350
5079
  0
DICTIONARY
  5
4CBC
102
{ACAD_REACTORS
330
4CBB
102
}
330
4CBB
100
AcDbDictionary
  3
ACDB_ANNOTATIONSCALES
350
4CBD
  0
DICTIONARY
  5
4CBF
102
{ACAD_REACTORS
330
4CBE
102
}
330
4CBE
100
AcDbDictionary
  3
ACDB_ANNOTATIONSCALES
350
4CC0
  0
DICTIONARY
  5
4CB9
102
{ACAD_REACTORS
330
4CB8
102
}
330
4CB8
100
AcDbDictionary
  3
ACDB_ANNOTATIONSCALES
350
4CBA
  0
MATERIAL
  5
486F
102
{ACAD_REACTORS
330
2947
102
}
102
{ACAD_XDICTIONARY
360
51A3
102
}
330
2947
100
AcDbMaterial
  1
BYBLOCK
  0
MATERIAL
  5
486E
102
{ACAD_REACTORS
330
2947
102
}
102
{ACAD_XDICTIONARY
360
51A1
102
}
330
2947
100
AcDbMaterial
  1
BYLAYER
  0
MATERIAL
  5
4870
102
{ACAD_REACTORS
330
2947
102
}
102
{ACAD_XDICTIONARY
360
51A5
102
}
330
2947
100
AcDbMaterial
  1
GLOBAL
  0
ACAD_PROXY_OBJECT
  5
4874
102
{ACAD_REACTORS
330
4873
102
}
330
4873
100
AcDbProxyObject
 90
      499
 91
      507
 93
      610
310
40901902A4063FBFFFFFE0000000000000020400000000000020404214DD185B99185C990000000000000104090141901A00000000000004100000000000000041025764000000000000039000
340
14
340
0
340
10
340
0
 94
        0
1001
ACAD_MLEADERVER
1070
     2
  0
MLINESTYLE
  5
13
102
{ACAD_REACTORS
330
E
102
}
330
E
100
AcDbMlineStyle
  2
STANDARD
 70
     0
  3

 62
     0
 51
90.0
 52
90.0
 71
     2
 49
0.5
 62
   256
  6
BYLAYER
 49
-0.5
 62
   256
  6
BYLAYER
  0
ACAD_PROXY_OBJECT
  5
484D
102
{ACAD_REACTORS
330
484C
102
}
330
484C
100
AcDbProxyObject
 90
      499
 91
      504
 93
       41
310
903313A31580
  0
ACAD_PROXY_OBJECT
  5
484E
102
{ACAD_REACTORS
330
484C
102
}
330
484C
100
AcDbProxyObject
 90
      499
 91
      504
 93
      105
310
903313A324000000000000004000
  0
ACAD_PROXY_OBJECT
  5
484F
102
{ACAD_REACTORS
330
484C
102
}
330
484C
100
AcDbProxyObject
 90
      499
 91
      504
 93
      105
310
903313A344000000000000104000
  0
ACAD_PROXY_OBJECT
  5
4850
102
{ACAD_REACTORS
330
484C
102
}
330
484C
100
AcDbProxyObject
 90
      499
 91
      504
 93
      105
310
903313A354000000000000144000
  0
ACAD_PROXY_OBJECT
  5
4851
102
{ACAD_REACTORS
330
484C
102
}
330
484C
100
AcDbProxyObject
 90
      499
 91
      504
 93
      105
310
903313A384000000000000204000
  0
ACAD_PROXY_OBJECT
  5
4852
102
{ACAD_REACTORS
330
484C
102
}
330
484C
100
AcDbProxyObject
 90
      499
 91
      504
 93
      113
310
904313A31304000000000000244000
  0
ACAD_PROXY_OBJECT
  5
4853
102
{ACAD_REACTORS
330
484C
102
}
330
484C
100
AcDbProxyObject
 90
      499
 91
      504
 93
      113
310
904313A31364000000000000304000
  0
ACAD_PROXY_OBJECT
  5
4854
102
{ACAD_REACTORS
330
484C
102
}
330
484C
100
AcDbProxyObject
 90
      499
 91
      504
 93
      113
310
904313A32304000000000000344000
  0
ACAD_PROXY_OBJECT
  5
4855
102
{ACAD_REACTORS
330
484C
102
}
330
484C
100
AcDbProxyObject
 90
      499
 91
      504
 93
      113
310
904313A333040000000000003E4000
  0
ACAD_PROXY_OBJECT
  5
4856
102
{ACAD_REACTORS
330
484C
102
}
330
484C
100
AcDbProxyObject
 90
      499
 91
      504
 93
      113
310
904313A34304000000000000444000
  0
ACAD_PROXY_OBJECT
  5
4857
102
{ACAD_REACTORS
330
484C
102
}
330
484C
100
AcDbProxyObject
 90
      499
 91
      504
 93
      113
310
904313A35304000000000000494000
  0
ACAD_PROXY_OBJECT
  5
4858
102
{ACAD_REACTORS
330
484C
102
}
330
484C
100
AcDbProxyObject
 90
      499
 91
      504
 93
      121
310
905313A3130304000000000000594000
  0
ACAD_PROXY_OBJECT
  5
4859
102
{ACAD_REACTORS
330
484C
102
}
330
484C
100
AcDbProxyObject
 90
      499
 91
      504
 93
      105
310
903323A310000000000000010100
  0
ACAD_PROXY_OBJECT
  5
485A
102
{ACAD_REACTORS
330
484C
102
}
330
484C
100
AcDbProxyObject
 90
      499
 91
      504
 93
      105
310
903343A310000000000000410100
  0
ACAD_PROXY_OBJECT
  5
485B
102
{ACAD_REACTORS
330
484C
102
}
330
484C
100
AcDbProxyObject
 90
      499
 91
      504
 93
      105
310
903383A310000000000000810100
  0
ACAD_PROXY_OBJECT
  5
485C
102
{ACAD_REACTORS
330
484C
102
}
330
484C
100
AcDbProxyObject
 90
      499
 91
      504
 93
      113
310
90431303A310000000000000910100
  0
ACAD_PROXY_OBJECT
  5
485D
102
{ACAD_REACTORS
330
484C
102
}
330
484C
100
AcDbProxyObject
 90
      499
 91
      504
 93
      121
310
9053130303A310000000000001650100
  0
ACAD_PROXY_OBJECT
  5
485E
102
{ACAD_REACTORS
330
484C
102
}
330
484C
100
AcDbProxyObject
 90
      499
 91
      504
 93
      257
310
90E312F31323822203D2031272D3022000000000000200FC000000000000284000
  0
ACAD_PROXY_OBJECT
  5
485F
102
{ACAD_REACTORS
330
484C
102
}
330
484C
100
AcDbProxyObject
 90
      499
 91
      504
 93
      249
310
90D312F363422203D2031272D3022000000000000240FC000000000000284000
  0
ACAD_PROXY_OBJECT
  5
4860
102
{ACAD_REACTORS
330
484C
102
}
330
484C
100
AcDbProxyObject
 90
      499
 91
      504
 93
      249
310
90D312F333222203D2031272D3022000000000000280FC000000000000284000
  0
ACAD_PROXY_OBJECT
  5
4861
102
{ACAD_REACTORS
330
484C
102
}
330
484C
100
AcDbProxyObject
 90
      499
 91
      504
 93
      249
310
90D312F313622203D2031272D30220000000000002C0FC000000000000284000
  0
ACAD_PROXY_OBJECT
  5
4862
102
{ACAD_REACTORS
330
484C
102
}
330
484C
100
AcDbProxyObject
 90
      499
 91
      504
 93
      249
310
90D332F333222203D2031272D30220000000000002E0FC000000000000284000
  0
ACAD_PROXY_OBJECT
  5
4863
102
{ACAD_REACTORS
330
484C
102
}
330
484C
100
AcDbProxyObject
 90
      499
 91
      504
 93
      241
310
90C312F3822203D2031272D3022000000000000300FC000000000000284000
  0
ACAD_PROXY_OBJECT
  5
4864
102
{ACAD_REACTORS
330
484C
102
}
330
484C
100
AcDbProxyObject
 90
      499
 91
      504
 93
      249
310
90D332F313622203D2031272D3022000000000000320FC000000000000284000
  0
ACAD_PROXY_OBJECT
  5
4865
102
{ACAD_REACTORS
330
484C
102
}
330
484C
100
AcDbProxyObject
 90
      499
 91
      504
 93
      241
310
90C312F3422203D2031272D3022000000000000340FC000000000000284000
  0
ACAD_PROXY_OBJECT
  5
4866
102
{ACAD_REACTORS
330
484C
102
}
330
484C
100
AcDbProxyObject
 90
      499
 91
      504
 93
      241
310
90C332F3822203D2031272D3022000000000000360FC000000000000284000
  0
ACAD_PROXY_OBJECT
  5
4867
102
{ACAD_REACTORS
330
484C
102
}
330
484C
100
AcDbProxyObject
 90
      499
 91
      504
 93
      241
310
90C312F3222203D2031272D3022000000000000380FC000000000000284000
  0
ACAD_PROXY_OBJECT
  5
4868
102
{ACAD_REACTORS
330
484C
102
}
330
484C
100
AcDbProxyObject
 90
      499
 91
      504
 93
      241
310
90C332F3422203D2031272D30220000000000003A0FC000000000000284000
  0
ACAD_PROXY_OBJECT
  5
4869
102
{ACAD_REACTORS
330
484C
102
}
330
484C
100
AcDbProxyObject
 90
      499
 91
      504
 93
      161
310
90A3122203D2031272D30224000000000000284000
  0
ACAD_PROXY_OBJECT
  5
486A
102
{ACAD_REACTORS
330
484C
102
}
330
484C
100
AcDbProxyObject
 90
      499
 91
      504
 93
      257
310
90E312D312F3222203D2031272D30220000000000003E0FC000000000000284000
  0
ACAD_PROXY_OBJECT
  5
486B
102
{ACAD_REACTORS
330
484C
102
}
330
484C
100
AcDbProxyObject
 90
      499
 91
      504
 93
      225
310
90A3322203D2031272D302200000000000002100000000000000284000
  0
ACAD_PROXY_OBJECT
  5
486C
102
{ACAD_REACTORS
330
484C
102
}
330
484C
100
AcDbProxyObject
 90
      499
 91
      504
 93
      225
310
90A3622203D2031272D302200000000000006100000000000000284000
  0
ACAD_PROXY_OBJECT
  5
486D
102
{ACAD_REACTORS
330
484C
102
}
330
484C
100
AcDbProxyObject
 90
      499
 91
      504
 93
      249
310
90D31272D3022203D2031272D30220000000000000A100000000000000284000
  0
ACAD_PROXY_OBJECT
  5
4838
102
{ACAD_REACTORS
330
4833
102
}
330
4833
100
AcDbProxyObject
 90
      499
 91
      503
 93
      436
310
42CC9915DA5C99599C985B595049028333333333333E33F0000000000000F90107901411070040501600405405064090741402480A0340
1001
ACAD
1000
AcDbSavedByObjectVersion
1070
     0
  0
ACAD_PROXY_OBJECT
  5
483B
102
{ACAD_REACTORS
330
4833
102
}
330
4833
100
AcDbProxyObject
 90
      499
 91
      503
 93
      388
310
4150985CDA58D07406404333333333333E33F0000000000000F90107A41107004050150841D405064090741402480A0350
1001
ACAD
1000
AcDbSavedByObjectVersion
1070
     0
  0
ACAD_PROXY_OBJECT
  5
483F
102
{ACAD_REACTORS
330
4833
102
}
330
4833
100
AcDbProxyObject
 90
      499
 91
      503
 93
      428
310
42109C9A59DA1D195B90C409028333333333333E33F0000000000000F9010790141107004050150841D405064090741402480A029950
1001
ACAD
1000
AcDbSavedByObjectVersion
1070
     0
  0
ACAD_PROXY_OBJECT
  5
4843
102
{ACAD_REACTORS
330
4833
102
}
330
4833
100
AcDbProxyObject
 90
      499
 91
      503
 93
      452
310
42D0DBDB1BDC90DA185B99D95104090240C333333333333E33F0000000000000F90108901411070040501508421405064090741402480A0350
1001
ACAD
1000
AcDbSavedByObjectVersion
1070
     0
  0
ACAD_PROXY_OBJECT
  5
483D
102
{ACAD_REACTORS
330
4833
102
}
330
4833
100
AcDbProxyObject
 90
      499
 91
      503
 93
      500
310
4290DBDB98D95C1D1D585B10940D028333333333333E33F0000000000000F90107902409070040501000000000018199010841D405064090740C02480A0340
1001
ACAD
1000
AcDbSavedByObjectVersion
1070
     0
  0
ACAD_PROXY_OBJECT
  5
483E
102
{ACAD_REACTORS
330
4833
102
}
330
4833
100
AcDbProxyObject
 90
      499
 91
      503
 93
      412
310
40D11A5B50B409028333333333333E33F0000000000000F9010790141107004050150841D405064090741402480A02677FFFFFD0
1001
ACAD
1000
AcDbSavedByObjectVersion
1070
     0
  0
ACAD_PROXY_OBJECT
  5
4846
102
{ACAD_REACTORS
330
4833
102
}
330
4833
100
AcDbProxyObject
 90
      499
 91
      503
 93
      452
310
43115919D950DBDB1BDC93D999916409028333333333333E33F0000000000000F9010790141107004050150841D405064090741402480A0350
1001
ACAD
1000
AcDbSavedByObjectVersion
1070
     0
  0
ACAD_PROXY_OBJECT
  5
4842
102
{ACAD_REACTORS
330
4833
102
}
330
4833
100
AcDbProxyObject
 90
      499
 91
      503
 93
      444
310
42D19858D95C185D1D195C9B90F409028333333333333E33F0000000000000F9010790141107004050150841D405064090741402480A0350
1001
ACAD
1000
AcDbSavedByObjectVersion
1070
     0
  0
ACAD_PROXY_OBJECT
  5
4834
102
{ACAD_REACTORS
330
4833
102
}
330
4833
100
AcDbProxyObject
 90
      499
 91
      503
 93
      380
310
41119B185D240901404333333333333E33F0000000000000F9010740A907004050150841D405064090741402480A1B50
1001
ACAD
1000
AcDbSavedByObjectVersion
1070
     0
  0
ACAD_PROXY_OBJECT
  5
4835
102
{ACAD_REACTORS
330
4833
102
}
330
4833
100
AcDbProxyObject
 90
      499
 91
      503
 93
      468
310
43519B185D15DA5D1A115919D95CD0140901404333333333333E33F0000000000000F90107409019070040501600405405064090741402480A1B50
1001
ACAD
1000
AcDbSavedByObjectVersion
1070
     0
  0
ACAD_PROXY_OBJECT
  5
4836
102
{ACAD_REACTORS
330
4833
102
}
330
4833
100
AcDbProxyObject
 90
      499
 91
      503
 93
      404
310
41D1DBDD5C985D5910240902404333333333333E33F0000000000000F9010740A9070040501641D405064090741402480A1B50
1001
ACAD
1000
AcDbSavedByObjectVersion
1070
     0
  0
ACAD_PROXY_OBJECT
  5
4837
102
{ACAD_REACTORS
330
4833
102
}
330
4833
100
AcDbProxyObject
 90
      499
 91
      503
 93
      492
310
4411DBDD5C985D5915DA5D1A115919D95CD0340902404333333333333E33F0000000000000F90107409019070040501600405405064090741402480A1B50
1001
ACAD
1000
AcDbSavedByObjectVersion
1070
     0
  0
ACAD_PROXY_OBJECT
  5
483A
102
{ACAD_REACTORS
330
4833
102
}
330
4833
100
AcDbProxyObject
 90
      499
 91
      503
 93
      476
310
41921A5919195B90640502408333333333333E33F0000000000000F901079024090700405020000000000001110200405405064090740C02480A0340
1001
ACAD
1000
AcDbSavedByObjectVersion
1070
     0
  0
ACAD_PROXY_OBJECT
  5
4844
102
{ACAD_REACTORS
330
4833
102
}
330
4833
100
AcDbProxyObject
 90
      499
 91
      503
 93
      428
310
42529A5D1D195C93D999914409028333333333333E33F0000000000000F9010790141107004050150A41D405064090741402480A0350
1001
ACAD
1000
AcDbSavedByObjectVersion
1070
     0
  0
ACAD_PROXY_OBJECT
  5
4841
102
{ACAD_REACTORS
330
4833
102
}
330
4833
100
AcDbProxyObject
 90
      499
 91
      503
 93
      444
310
42D31A5B995C185D1D195C9B90E409028333333333333E33F0000000000000F9010790141107004050750841D405064090741402483A0350
1001
ACAD
1000
AcDbSavedByObjectVersion
1070
     0
  0
ACAD_PROXY_OBJECT
  5
4845
102
{ACAD_REACTORS
330
4833
102
}
330
4833
100
AcDbProxyObject
 90
      499
 91
      503
 93
      444
310
42D3DD995C9A185B99D3D999915409028333333333333E33F0000000000000F9010790141107004050150941D405064090741402480A0350
1001
ACAD
1000
AcDbSavedByObjectVersion
1070
     0
  0
ACAD_PROXY_OBJECT
  5
483C
102
{ACAD_REACTORS
330
4833
102
}
330
4833
100
AcDbProxyObject
 90
      499
 91
      503
 93
      428
310
425499585B1A5CDD1A58D08409038333333333333E33F0000000000000F9010740A907004050150800405405064090740C02480A1B40
1001
ACAD
1000
AcDbSavedByObjectVersion
1070
     0
  0
ACAD_PROXY_OBJECT
  5
484B
102
{ACAD_REACTORS
330
4833
102
}
330
4833
100
AcDbProxyObject
 90
      499
 91
      503
 93
      420
310
4194DA1859195911B40902404333333333333E33F0000000000000F9010740A41107004050150800405405064090840C02480A0B40
1001
ACAD
1000
AcDbSavedByObjectVersion
1070
     0
  0
ACAD_PROXY_OBJECT
  5
484A
102
{ACAD_REACTORS
330
4833
102
}
330
4833
100
AcDbProxyObject
 90
      499
 91
      503
 93
      516
310
4454DA18591959081DDA5D1A08195919D95CD1A40902404333333333333E33F0000000000000F901074090142907004050250800405405064090740C02480A0B40
1001
ACAD
1000
AcDbSavedByObjectVersion
1070
     0
  0
ACAD_PROXY_OBJECT
  5
4847
102
{ACAD_REACTORS
330
4833
102
}
330
4833
100
AcDbProxyObject
 90
      499
 91
      503
 93
      532
310
4394DA1859195CC81BD98811DC985E5174090240C333333333333E33F0000000000000F901079024090741D01000000000000111010841D405064090740C02480A0340
1001
ACAD
1000
AcDbSavedByObjectVersion
1070
     0
  0
ACAD_PROXY_OBJECT
  5
4848
102
{ACAD_REACTORS
330
4833
102
}
330
4833
100
AcDbProxyObject
 90
      499
 91
      503
 93
      476
310
41D4DAD95D18DA1E51840502408333333333333E33F0000000000000F901079024090741D01000000000000111010B41D405064090741802480A0340
1001
ACAD
1000
AcDbSavedByObjectVersion
1070
     0
  0
ACAD_PROXY_OBJECT
  5
4840
102
{ACAD_REACTORS
330
4833
102
}
330
4833
100
AcDbProxyObject
 90
      499
 91
      503
 93
      412
310
41D51A1A58DAD95B90D409028333333333333E33F0000000000000F9010790141107004050150C41D405064090741402480A0350
1001
ACAD
1000
AcDbSavedByObjectVersion
1070
     0
  0
ACAD_PROXY_OBJECT
  5
4839
102
{ACAD_REACTORS
330
4833
102
}
330
4833
100
AcDbProxyObject
 90
      499
 91
      503
 93
      420
310
4255DA5C99599C985B595059028333333333333E33F0000000000000F90107901411070040501600405405064090740C02480A0340
1001
ACAD
1000
AcDbSavedByObjectVersion
1070
     0
  0
ACAD_PROXY_OBJECT
  5
4849
102
{ACAD_REACTORS
330
4833
102
}
330
4833
100
AcDbProxyObject
 90
      499
 91
      503
 93
      404
310
41560B54985E51940902404000000000000E03F0000000000000F9010740501907004050150841D405064090740C02480A1B40
1001
ACAD
1000
AcDbSavedByObjectVersion
1070
     0
  0
XRECORD
  5
5183
102
{ACAD_REACTORS
330
5179
102
}
330
5179
100
AcDbXrecord
340
0
  0
XRECORD
  5
5182
102
{ACAD_REACTORS
330
5179
102
}
330
5179
100
AcDbXrecord
 90
        0
  0
XRECORD
  5
519C
102
{ACAD_REACTORS
330
5179
102
}
330
5179
100
AcDbXrecord
340
2948
  0
XRECORD
  5
5199
102
{ACAD_REACTORS
330
5179
102
}
330
5179
100
AcDbXrecord
1000
DSTYLE
1002
{
1070
   171
 70
     2
1070
   143
 40
0.0394
1070
   274
 70
     2
1070
    41
 40
6.0
1070
   342
340
2AF4
1070
   271
 70
     1
1070
   278
 70
    46
1070
   341
340
2AF4
1070
   272
 70
     1
1070
    48
 40
0.1
1070
   283
 70
     1
1070
    47
 40
0.1
1070
   145
 40
1.0
1070
   340
340
10
1070
   140
 40
5.0
1070
   284
 70
     0
1002
}
  0
XRECORD
  5
5184
102
{ACAD_REACTORS
330
5179
102
}
330
5179
100
AcDbXrecord
  1
{23698909-1D67-4744-B0E2-8DE11E3ED422}
  0
XRECORD
  5
517C
102
{ACAD_REACTORS
330
5179
102
}
330
5179
100
AcDbXrecord
  1

  0
XRECORD
  5
5181
102
{ACAD_REACTORS
330
5179
102
}
330
5179
100
AcDbXrecord
 90
        0
  0
XRECORD
  5
517E
102
{ACAD_REACTORS
330
5179
102
}
330
5179
100
AcDbXrecord
340
2816
  0
XRECORD
  5
5180
102
{ACAD_REACTORS
330
5179
102
}
330
5179
100
AcDbXrecord
 90
    10781
  0
XRECORD
  5
519D
102
{ACAD_REACTORS
330
5179
102
}
330
5179
100
AcDbXrecord
340
2947
  0
XRECORD
  5
517F
102
{ACAD_REACTORS
330
5179
102
}
330
5179
100
AcDbXrecord
340
2817
  0
XRECORD
  5
5186
102
{ACAD_REACTORS
330
5179
102
}
330
5179
100
AcDbXrecord
 40
0.25
  0
XRECORD
  5
5189
102
{ACAD_REACTORS
330
5179
102
}
330
5179
100
AcDbXrecord
340
0
  0
XRECORD
  5
518F
102
{ACAD_REACTORS
330
5179
102
}
330
5179
100
AcDbXrecord
 10
0.0
 20
0.0
 30
0.0
  0
XRECORD
  5
518B
102
{ACAD_REACTORS
330
5179
102
}
330
5179
100
AcDbXrecord
 10
0.0
 20
0.0
 30
0.0
  0
XRECORD
  5
518E
102
{ACAD_REACTORS
330
5179
102
}
330
5179
100
AcDbXrecord
 10
0.0
 20
0.0
 30
0.0
  0
XRECORD
  5
518C
102
{ACAD_REACTORS
330
5179
102
}
330
5179
100
AcDbXrecord
 10
0.0
 20
0.0
 30
0.0
  0
XRECORD
  5
518D
102
{ACAD_REACTORS
330
5179
102
}
330
5179
100
AcDbXrecord
 10
0.0
 20
0.0
 30
0.0
  0
XRECORD
  5
518A
102
{ACAD_REACTORS
330
5179
102
}
330
5179
100
AcDbXrecord
 10
0.0
 20
0.0
 30
0.0
  0
XRECORD
  5
5187
102
{ACAD_REACTORS
330
5179
102
}
330
5179
100
AcDbXrecord
340
0
  0
XRECORD
  5
5188
102
{ACAD_REACTORS
330
5179
102
}
330
5179
100
AcDbXrecord
 70
     0
  0
XRECORD
  5
517D
102
{ACAD_REACTORS
330
5179
102
}
330
5179
100
AcDbXrecord
  1

  0
XRECORD
  5
517A
102
{ACAD_REACTORS
330
5179
102
}
330
5179
100
AcDbXrecord
 90
        1
  0
XRECORD
  5
517B
102
{ACAD_REACTORS
330
5179
102
}
330
5179
100
AcDbXrecord
 90
       70
  0
XRECORD
  5
5192
102
{ACAD_REACTORS
330
5179
102
}
330
5179
100
AcDbXrecord
340
0
  0
XRECORD
  5
5198
102
{ACAD_REACTORS
330
5179
102
}
330
5179
100
AcDbXrecord
 10
0.0
 20
0.0
 30
0.0
  0
XRECORD
  5
5194
102
{ACAD_REACTORS
330
5179
102
}
330
5179
100
AcDbXrecord
 10
0.0
 20
0.0
 30
0.0
  0
XRECORD
  5
5197
102
{ACAD_REACTORS
330
5179
102
}
330
5179
100
AcDbXrecord
 10
0.0
 20
0.0
 30
0.0
  0
XRECORD
  5
5195
102
{ACAD_REACTORS
330
5179
102
}
330
5179
100
AcDbXrecord
 10
0.0
 20
0.0
 30
0.0
  0
XRECORD
  5
5196
102
{ACAD_REACTORS
330
5179
102
}
330
5179
100
AcDbXrecord
 10
0.0
 20
0.0
 30
0.0
  0
XRECORD
  5
5193
102
{ACAD_REACTORS
330
5179
102
}
330
5179
100
AcDbXrecord
 10
0.0
 20
0.0
 30
0.0
  0
XRECORD
  5
5190
102
{ACAD_REACTORS
330
5179
102
}
330
5179
100
AcDbXrecord
340
0
  0
XRECORD
  5
5191
102
{ACAD_REACTORS
330
5179
102
}
330
5179
100
AcDbXrecord
 70
     0
  0
XRECORD
  5
5185
102
{ACAD_REACTORS
330
5179
102
}
330
5179
100
AcDbXrecord
  1
{D8F709BA-3CE9-4E1A-ADB7-735414AFEF75}
  0
DICTIONARYVAR
  5
4C74
102
{ACAD_REACTORS
330
4C73
102
}
330
4C73
100
DictionaryVariables
280
     0
  1
1:1
  0
DICTIONARYVAR
  5
4CB3
102
{ACAD_REACTORS
330
4C73
102
}
330
4C73
100
DictionaryVariables
280
     0
  1
Standard
  0
DICTIONARYVAR
  5
4CB2
102
{ACAD_REACTORS
330
4C73
102
}
330
4C73
100
DictionaryVariables
280
     0
  1
Standard
  0
DICTIONARYVAR
  5
519A
102
{ACAD_REACTORS
330
4C73
102
}
330
4C73
100
DictionaryVariables
280
     0
  1
1
  0
DICTIONARYVAR
  5
519B
102
{ACAD_REACTORS
330
4C73
102
}
330
4C73
100
DictionaryVariables
280
     0
  1
0
  0
DICTIONARYVAR
  5
4CB4
102
{ACAD_REACTORS
330
4C73
102
}
330
4C73
100
DictionaryVariables
280
     0
  1
0
  0
DICTIONARYVAR
  5
4CB5
102
{ACAD_REACTORS
330
4C73
102
}
330
4C73
100
DictionaryVariables
280
     0
  1
0
  0
DICTIONARY
  5
4FCA
102
{ACAD_REACTORS
330
4FC9
102
}
330
4FC9
100
AcDbDictionary
  0
DICTIONARY
  5
506E
102
{ACAD_REACTORS
330
506D
102
}
330
506D
100
AcDbDictionary
  0
DICTIONARY
  5
5075
102
{ACAD_REACTORS
330
5074
102
}
330
5074
100
AcDbDictionary
  0
DICTIONARY
  5
5079
102
{ACAD_REACTORS
330
5078
102
}
330
5078
100
AcDbDictionary
  0
DICTIONARY
  5
4CBD
102
{ACAD_REACTORS
330
4CBC
102
}
330
4CBC
100
AcDbDictionary
  0
DICTIONARY
  5
4CC0
102
{ACAD_REACTORS
330
4CBF
102
}
330
4CBF
100
AcDbDictionary
  0
DICTIONARY
  5
4CBA
102
{ACAD_REACTORS
330
4CB9
102
}
330
4CB9
100
AcDbDictionary
  0
DICTIONARY
  5
51A3
330
486F
100
AcDbDictionary
280
     1
  3
ACAD_XREC_ROUNDTRIP
360
51A4
  0
DICTIONARY
  5
51A1
330
486E
100
AcDbDictionary
280
     1
  3
ACAD_XREC_ROUNDTRIP
360
51A2
  0
DICTIONARY
  5
51A5
330
4870
100
AcDbDictionary
280
     1
  3
ACAD_XREC_ROUNDTRIP
360
51A6
  0
XRECORD
  5
51A4
102
{ACAD_REACTORS
330
51A3
102
}
330
51A3
100
AcDbXrecord
102
MATERIAL
148
0.0
149
0.0
149
0.0
 93
        0
 94
      127
282
     0
 72
     1
 77
     1
171
     1
175
     1
179
     1
273
     0
  0
XRECORD
  5
51A2
102
{ACAD_REACTORS
330
51A1
102
}
330
51A1
100
AcDbXrecord
102
MATERIAL
148
0.0
149
0.0
149
0.0
 93
        0
 94
      127
282
     0
 72
     1
 77
     1
171
     1
175
     1
179
     1
273
     0
  0
XRECORD
  5
51A6
102
{ACAD_REACTORS
330
51A5
102
}
330
51A5
100
AcDbXrecord
102
MATERIAL
148
0.0
149
0.0
149
0.0
 93
        0
 94
      127
282
     0
 72
     1
 77
     1
171
     1
175
     1
179
     1
273
     0
  0
ENDSEC
  0
EOF
