  0
SECTION
  2
HEADER
  9
$ACADVER
  1
AC1014
  9
$ACADMAINTVER
 70
     9
  9
$DWGCODEPAGE
  3
ANSI_932
  9
$INSBASE
 10
0.0
 20
0.0
 30
0.0
  9
$EXTMIN
 10
-103.03083045706
 20
432.998813642116
 30
0.0
  9
$EXTMAX
 10
438.915278455231
 20
752.223711029193
 30
0.0
  9
$LIMMIN
 10
-360.747566795242
 20
4.457354754526
  9
$LIMMAX
 10
-162.153696144267
 20
287.675440264018
  9
$ORTHOMODE
 70
     1
  9
$REGENMODE
 70
     1
  9
$FILLMODE
 70
     1
  9
$QTEXTMODE
 70
     0
  9
$MIRRTEXT
 70
     1
  9
$DRAGMODE
 70
     2
  9
$LTSCALE
 40
1.0
  9
$OSMODE
 70
    32
  9
$ATTMODE
 70
     1
  9
$TEXTSIZE
 40
2.333873885063
  9
$TRACEWID
 40
1.0
  9
$TEXTSTYLE
  7
STANDARD
  9
$CLAYER
  8
寸法線
  9
$CELTYPE
  6
BYLAYER
  9
$CECOLOR
 62
   256
  9
$CELTSCALE
 40
10.0
  9
$DELOBJ
 70
     1
  9
$DISPSILH
 70
     0
  9
$DIMSCALE
 40
1.0
  9
$DIMASZ
 40
6.0
  9
$DIMEXO
 40
0.625
  9
$DIMDLI
 40
3.75
  9
$DIMRND
 40
0.0
  9
$DIMDLE
 40
0.0
  9
$DIMEXE
 40
1.25
  9
$DIMTP
 40
0.1
  9
$DIMTM
 40
0.1
  9
$DIMTXT
 40
5.0
  9
$DIMCEN
 40
2.5
  9
$DIMTSZ
 40
0.0
  9
$DIMTOL
 70
     0
  9
$DIMLIM
 70
     0
  9
$DIMTIH
 70
     0
  9
$DIMTOH
 70
     0
  9
$DIMSE1
 70
     0
  9
$DIMSE2
 70
     0
  9
$DIMTAD
 70
     1
  9
$DIMZIN
 70
     8
  9
$DIMBLK
  1
OPEN30
  9
$DIMASO
 70
     1
  9
$DIMSHO
 70
     1
  9
$DIMPOST
  1

  9
$DIMAPOST
  1

  9
$DIMALT
 70
     0
  9
$DIMALTD
 70
     2
  9
$DIMALTF
 40
0.0394
  9
$DIMLFAC
 40
1.0
  9
$DIMTOFL
 70
     1
  9
$DIMTVP
 40
1.0
  9
$DIMTIX
 70
     0
  9
$DIMSOXD
 70
     0
  9
$DIMSAH
 70
     0
  9
$DIMBLK1
  1

  9
$DIMBLK2
  1

  9
$DIMSTYLE
  2
ISO-25
  9
$DIMCLRD
 70
     0
  9
$DIMCLRE
 70
     0
  9
$DIMCLRT
 70
     0
  9
$DIMTFAC
 40
1.0
  9
$DIMGAP
 40
0.625
  9
$DIMJUST
 70
     0
  9
$DIMSD1
 70
     0
  9
$DIMSD2
 70
     0
  9
$DIMTOLJ
 70
     1
  9
$DIMTZIN
 70
     0
  9
$DIMALTZ
 70
     0
  9
$DIMALTTZ
 70
     0
  9
$DIMFIT
 70
     3
  9
$DIMUPT
 70
     0
  9
$DIMUNIT
 70
     2
  9
$DIMDEC
 70
     1
  9
$DIMTDEC
 70
     1
  9
$DIMALTU
 70
     2
  9
$DIMALTTD
 70
     2
  9
$DIMTXSTY
  7
STANDARD
  9
$DIMAUNIT
 70
     0
  9
$LUNITS
 70
     2
  9
$LUPREC
 70
     4
  9
$SKETCHINC
 40
1.0
  9
$FILLETRAD
 40
6.5
  9
$AUNITS
 70
     0
  9
$AUPREC
 70
     0
  9
$MENU
  1
.
  9
$ELEVATION
 40
0.0
  9
$PELEVATION
 40
0.0
  9
$THICKNESS
 40
0.0
  9
$LIMCHECK
 70
     0
  9
$CHAMFERA
 40
10.0
  9
$CHAMFERB
 40
10.0
  9
$CHAMFERC
 40
20.0
  9
$CHAMFERD
 40
0.0
  9
$SKPOLY
 70
     0
  9
$TDCREATE
 40
2450576.597302431
  9
$TDUPDATE
 40
2457191.665668958
  9
$TDINDWG
 40
1.1451434722
  9
$TDUSRTIMER
 40
1.1451434722
  9
$USRTIMER
 70
     1
  9
$ANGBASE
 50
0.0
  9
$ANGDIR
 70
     0
  9
$PDMODE
 70
     0
  9
$PDSIZE
 40
0.0
  9
$PLINEWID
 40
0.0
  9
$COORDS
 70
     1
  9
$SPLFRAME
 70
     0
  9
$SPLINETYPE
 70
     6
  9
$SPLINESEGS
 70
     8
  9
$ATTDIA
 70
     0
  9
$ATTREQ
 70
     1
  9
$HANDLING
 70
     1
  9
$HANDSEED
  5
4484
  9
$SURFTAB1
 70
     6
  9
$SURFTAB2
 70
     6
  9
$SURFTYPE
 70
     6
  9
$SURFU
 70
     6
  9
$SURFV
 70
     6
  9
$UCSNAME
  2

  9
$UCSORG
 10
0.0
 20
0.0
 30
0.0
  9
$UCSXDIR
 10
1.0
 20
0.0
 30
0.0
  9
$UCSYDIR
 10
0.0
 20
1.0
 30
0.0
  9
$PUCSNAME
  2

  9
$PUCSORG
 10
0.0
 20
0.0
 30
0.0
  9
$PUCSXDIR
 10
1.0
 20
0.0
 30
0.0
  9
$PUCSYDIR
 10
0.0
 20
1.0
 30
0.0
  9
$USERI1
 70
     0
  9
$USERI2
 70
     0
  9
$USERI3
 70
     0
  9
$USERI4
 70
     0
  9
$USERI5
 70
     0
  9
$USERR1
 40
0.0
  9
$USERR2
 40
0.0
  9
$USERR3
 40
0.0
  9
$USERR4
 40
0.0
  9
$USERR5
 40
0.0
  9
$WORLDVIEW
 70
     1
  9
$SHADEDGE
 70
     3
  9
$SHADEDIF
 70
    70
  9
$TILEMODE
 70
     0
  9
$MAXACTVP
 70
    16
  9
$PINSBASE
 10
0.0
 20
0.0
 30
0.0
  9
$PLIMCHECK
 70
     0
  9
$PEXTMIN
 10
4.746305129083
 20
1.396645458131
 30
0.0
  9
$PEXTMAX
 10
404.746305129083
 20
281.396645458131
 30
0.0
  9
$PLIMMIN
 10
-7.007122192383
 20
-7.007118782997
  9
$PLIMMAX
 10
417.718108215332
 20
293.315290427208
  9
$UNITMODE
 70
     0
  9
$VISRETAIN
 70
     0
  9
$PLINEGEN
 70
     0
  9
$PSLTSCALE
 70
     1
  9
$TREEDEPTH
 70
  3020
  9
$PICKSTYLE
 70
     1
  9
$CMLSTYLE
  2
STANDARD
  9
$CMLJUST
 70
     0
  9
$CMLSCALE
 40
1.0
  9
$PROXYGRAPHICS
 70
     1
  9
$MEASUREMENT
 70
     1
  0
ENDSEC
  0
SECTION
  2
CLASSES
  0
CLASS
  1
ACDBDICTIONARYWDFLT
  2
AcDbDictionaryWithDefault
  3
ObjectDBX Classes
 90
        0
280
     0
281
     0
  0
CLASS
  1
ACDBPLACEHOLDER
  2
AcDbPlaceHolder
  3
ObjectDBX Classes
 90
        0
280
     0
281
     0
  0
CLASS
  1
LAYOUT
  2
AcDbLayout
  3
ObjectDBX Classes
 90
        0
280
     0
281
     0
  0
CLASS
  1
VISUALSTYLE
  2
AcDbVisualStyle
  3
ObjectDBX Classes
 90
     4095
280
     0
281
     0
  0
CLASS
  1
SCALE
  2
AcDbScale
  3
ObjectDBX Classes
 90
     1153
280
     0
281
     0
  0
CLASS
  1
MATERIAL
  2
AcDbMaterial
  3
ObjectDBX Classes
 90
     1153
280
     0
281
     0
  0
CLASS
  1
TABLESTYLE
  2
AcDbTableStyle
  3
ObjectDBX Classes
 90
     4095
280
     0
281
     0
  0
CLASS
  1
MLEADERSTYLE
  2
AcDbMLeaderStyle
  3
ACDB_MLEADERSTYLE_CLASS
 90
     4095
280
     0
281
     0
  0
CLASS
  1
SUN
  2
AcDbSun
  3
SCENEOE
 90
     1153
280
     0
281
     0
  0
CLASS
  1
DICTIONARYVAR
  2
AcDbDictionaryVar
  3
ObjectDBX Classes
 90
        0
280
     0
281
     0
  0
CLASS
  1
XRECORD
  2
AcDbXrecord
  3
ObjectDBX Classes
 90
        0
280
     0
281
     0
  0
CLASS
  1
LWPOLYLINE
  2
AcDbPolyline
  3
ObjectDBX Classes
 90
        0
280
     0
281
     1
  0
CLASS
  1
HATCH
  2
AcDbHatch
  3
ObjectDBX Classes
 90
        0
280
     0
281
     1
  0
ENDSEC
  0
SECTION
  2
TABLES
  0
TABLE
  2
VPORT
  5
8
102
{ACAD_XDICTIONARY
360
447B
102
}
330
0
100
AcDbSymbolTable
 70
     7
  0
VPORT
  5
3D9C
330
8
100
AcDbSymbolTableRecord
100
AcDbViewportTableRecord
  2
*ACTIVE
 70
     0
 10
0.0
 20
0.0
 11
1.0
 21
1.0
 12
241.247931255337
 22
566.804591102468
 13
0.0
 23
0.0
 14
1.0
 24
1.0
 15
0.0
 25
0.0
 16
0.0
 26
0.0
 36
1.0
 17
0.0
 27
0.0
 37
0.0
 40
317.624832192647
 41
1.56746031746
 42
50.0
 43
0.0
 44
0.0
 50
0.0
 51
0.0
 71
    16
 72
   100
 73
     1
 74
     0
 75
     0
 76
     0
 77
     0
 78
     0
  0
ENDTAB
  0
TABLE
  2
LTYPE
  5
5
330
0
100
AcDbSymbolTable
 70
     6
  0
LTYPE
  5
14
330
5
100
AcDbSymbolTableRecord
100
AcDbLinetypeTableRecord
  2
BYBLOCK
 70
     0
  3

 72
    65
 73
     0
 40
0.0
  0
LTYPE
  5
15
330
5
100
AcDbSymbolTableRecord
100
AcDbLinetypeTableRecord
  2
BYLAYER
 70
     0
  3

 72
    65
 73
     0
 40
0.0
  0
LTYPE
  5
16
330
5
100
AcDbSymbolTableRecord
100
AcDbLinetypeTableRecord
  2
CONTINUOUS
 70
     0
  3
Solid line
 72
    65
 73
     0
 40
0.0
  0
LTYPE
  5
1EC
330
5
100
AcDbSymbolTableRecord
100
AcDbLinetypeTableRecord
  2
CENTER
 70
     0
  3
____ _ ____ _ ____ _ ____ _ ____ _ ____ _ ____ 
 72
    65
 73
     4
 40
2.0
 49
1.25
 74
     0
 49
-0.25
 74
     0
 49
0.25
 74
     0
 49
-0.25
 74
     0
  0
LTYPE
  5
1ED
330
5
100
AcDbSymbolTableRecord
100
AcDbLinetypeTableRecord
  2
DASHED
 70
     0
  3
__ __ __ __ __ __ __ __ __ __ __ __ __ __ __ __
 72
    65
 73
     2
 40
0.75
 49
0.5
 74
     0
 49
-0.25
 74
     0
  0
LTYPE
  5
2B28
330
5
100
AcDbSymbolTableRecord
100
AcDbLinetypeTableRecord
  2
DASHDOT
 70
     0
  3
一点鎖線
 72
    65
 73
     4
 40
25.6
 49
20.0
 74
     0
 49
-2.0
 74
     0
 49
1.6
 74
     0
 49
-2.0
 74
     0
  0
LTYPE
  5
2B29
330
5
100
AcDbSymbolTableRecord
100
AcDbLinetypeTableRecord
  2
DIVIDE
 70
     0
  3
二点鎖線
 72
    65
 73
     6
 40
31.2
 49
20.0
 74
     0
 49
-2.4
 74
     0
 49
2.0
 74
     0
 49
-2.4
 74
     0
 49
2.0
 74
     0
 49
-2.4
 74
     0
  0
LTYPE
  5
3DF1
330
5
100
AcDbSymbolTableRecord
100
AcDbLinetypeTableRecord
  2
CENTER2
 70
     0
  3
Center (.5x) ___ _ ___ _ ___ _ ___ _ ___ _ ___
 72
    65
 73
     4
 40
28.575
 49
19.05
 74
     0
 49
-3.175
 74
     0
 49
3.175
 74
     0
 49
-3.175
 74
     0
  0
ENDTAB
  0
TABLE
  2
LAYER
  5
2
102
{ACAD_XDICTIONARY
360
29EA
102
}
330
0
100
AcDbSymbolTable
 70
    14
  0
LAYER
  5
F
330
2
100
AcDbSymbolTableRecord
100
AcDbLayerTableRecord
  2
0
 70
     0
 62
     7
  6
CONTINUOUS
  0
LAYER
  5
61
330
2
100
AcDbSymbolTableRecord
100
AcDbLayerTableRecord
  2
図枠太線
 70
     0
 62
   251
  6
CONTINUOUS
  0
LAYER
  5
62
330
2
100
AcDbSymbolTableRecord
100
AcDbLayerTableRecord
  2
図枠細線
 70
     0
 62
   252
  6
CONTINUOUS
  0
LAYER
  5
63
330
2
100
AcDbSymbolTableRecord
100
AcDbLayerTableRecord
  2
図枠ロゴマーク
 70
     0
 62
   253
  6
CONTINUOUS
  0
LAYER
  5
1EF
330
2
100
AcDbSymbolTableRecord
100
AcDbLayerTableRecord
  2
外形線
 70
     0
 62
     7
  6
CONTINUOUS
  0
LAYER
  5
1F0
330
2
100
AcDbSymbolTableRecord
100
AcDbLayerTableRecord
  2
寸法線
 70
     0
 62
     1
  6
CONTINUOUS
  0
LAYER
  5
1F1
330
2
100
AcDbSymbolTableRecord
100
AcDbLayerTableRecord
  2
中心線
 70
     0
 62
     4
  6
CENTER
  0
LAYER
  5
1F4
330
2
100
AcDbSymbolTableRecord
100
AcDbLayerTableRecord
  2
DEFPOINTS
 70
     0
 62
     7
  6
CONTINUOUS
  0
LAYER
  5
2AA2
330
2
100
AcDbSymbolTableRecord
100
AcDbLayerTableRecord
  2
下書線
 70
     0
 62
     2
  6
CONTINUOUS
  0
LAYER
  5
2AA3
330
2
100
AcDbSymbolTableRecord
100
AcDbLayerTableRecord
  2
隠れ線
 70
     0
 62
     3
  6
DASHED
  0
LAYER
  5
2AA4
330
2
100
AcDbSymbolTableRecord
100
AcDbLayerTableRecord
  2
細線
 70
     0
 62
     6
  6
CONTINUOUS
  0
LAYER
  5
2AA5
330
2
100
AcDbSymbolTableRecord
100
AcDbLayerTableRecord
  2
太線
 70
     0
 62
   190
  6
CONTINUOUS
  0
LAYER
  5
2B2A
330
2
100
AcDbSymbolTableRecord
100
AcDbLayerTableRecord
  2
LAY-1
 70
     0
 62
     7
  6
CONTINUOUS
  0
LAYER
  5
3DEF
330
2
100
AcDbSymbolTableRecord
100
AcDbLayerTableRecord
  2
寸法線_文字
 70
     0
 62
     1
  6
CONTINUOUS
  0
ENDTAB
  0
TABLE
  2
STYLE
  5
3
330
0
100
AcDbSymbolTable
 70
     3
  0
STYLE
  5
10
330
3
100
AcDbSymbolTableRecord
100
AcDbTextStyleTableRecord
  2
STANDARD
 70
     0
 40
0.0
 41
1.0
 50
0.0
 71
     0
 42
2.333873885063
  3
ISOCP
  4
bigfont.shx
  0
STYLE
  5
64
330
3
100
AcDbSymbolTableRecord
100
AcDbTextStyleTableRecord
  2
EXCADSTD
 70
     0
 40
0.0
 41
1.0
 50
0.0
 71
     0
 42
0.2
  3
monotxt
  4
bigfont
  0
STYLE
  5
2B2B
330
3
100
AcDbSymbolTableRecord
100
AcDbTextStyleTableRecord
  2
EXCADVERT
 70
     4
 40
0.0
 41
1.0
 50
0.0
 71
     0
 42
0.286885
  3
monotxt
  4
bigfont
  0
ENDTAB
  0
TABLE
  2
VIEW
  5
6
330
0
100
AcDbSymbolTable
 70
     0
  0
ENDTAB
  0
TABLE
  2
UCS
  5
7
330
0
100
AcDbSymbolTable
 70
     0
  0
ENDTAB
  0
TABLE
  2
APPID
  5
9
330
0
100
AcDbSymbolTable
 70
     3
  0
APPID
  5
11
330
9
100
AcDbSymbolTableRecord
100
AcDbRegAppTableRecord
  2
ACAD
 70
     0
  0
APPID
  5
3DE0
330
9
100
AcDbSymbolTableRecord
100
AcDbRegAppTableRecord
  2
ACADANNOTATIVE
 70
     0
  0
APPID
  5
4483
330
9
100
AcDbSymbolTableRecord
100
AcDbRegAppTableRecord
  2
ACAD_MLEADERVER
 70
     0
  0
ENDTAB
  0
TABLE
  2
DIMSTYLE
  5
A
330
0
100
AcDbSymbolTable
 70
     2
  0
DIMSTYLE
105
1D
330
A
100
AcDbSymbolTableRecord
100
AcDbDimStyleTableRecord
  2
STANDARD
 70
     0
  3

  4

  5

  6

  7

 40
1.0
 41
0.18
 42
0.0625
 43
0.38
 44
0.18
 45
0.0
 46
0.0
 47
0.0
 48
0.0
140
0.18
141
0.09
142
0.0
143
25.4
144
1.0
145
0.0
146
1.0
147
0.09
 71
     0
 72
     0
 73
     1
 74
     1
 75
     0
 76
     0
 77
     0
 78
     0
170
     0
171
     2
172
     0
173
     0
174
     0
175
     0
176
     0
177
     0
178
     0
270
     2
271
     4
272
     4
273
     2
274
     2
340
10
275
     0
280
     0
281
     0
282
     0
283
     1
284
     0
285
     0
286
     0
287
     3
288
     0
  0
DIMSTYLE
105
24
102
{ACAD_REACTORS
330
39FA
330
39FB
330
347D
330
429E
330
42C8
330
42C9
330
42CB
330
430D
330
440B
330
4448
102
}
330
A
100
AcDbSymbolTableRecord
100
AcDbDimStyleTableRecord
  2
ISO-25
 70
     0
  3

  4

  5

  6

  7

 40
1.0
 41
2.5
 42
0.625
 43
3.75
 44
1.25
 45
0.0
 46
0.0
 47
0.0
 48
0.0
140
2.5
141
2.5
142
0.0
143
0.0394
144
1.0
145
1.0
146
1.0
147
0.625
 71
     0
 72
     0
 73
     1
 74
     0
 75
     0
 76
     0
 77
     1
 78
     8
170
     0
171
     2
172
     1
173
     0
174
     0
175
     0
176
     0
177
     0
178
     0
270
     2
271
     4
272
     4
273
     2
274
     2
340
10
275
     0
280
     0
281
     0
282
     0
283
     1
284
     0
285
     0
286
     0
287
     3
288
     0
  0
ENDTAB
  0
TABLE
  2
BLOCK_RECORD
  5
1
330
0
100
AcDbSymbolTable
 70
    62
  0
BLOCK_RECORD
  5
1A
330
1
100
AcDbSymbolTableRecord
100
AcDbBlockTableRecord
  2
*MODEL_SPACE
  0
BLOCK_RECORD
  5
28FB
330
1
100
AcDbSymbolTableRecord
100
AcDbBlockTableRecord
  2
*PAPER_SPACE
  0
BLOCK_RECORD
  5
65
330
1
100
AcDbSymbolTableRecord
100
AcDbBlockTableRecord
  2
A$C3392
  0
BLOCK_RECORD
  5
29BF
330
1
100
AcDbSymbolTableRecord
100
AcDbBlockTableRecord
  2
A4横用_タイトル
1001
ACAD
1000
DesignCenter Data
1002
{
1070
     1
1070
     4
1002
}
  0
BLOCK_RECORD
  5
29F4
330
1
100
AcDbSymbolTableRecord
100
AcDbBlockTableRecord
  2
A4縦用_タイトル
1001
ACAD
1000
DesignCenter Data
1002
{
1070
     1
1070
     4
1002
}
  0
BLOCK_RECORD
  5
2A32
330
1
100
AcDbSymbolTableRecord
100
AcDbBlockTableRecord
  2
A3横用_タイトル
1001
ACAD
1000
DesignCenter Data
1002
{
1070
     1
1070
     4
1002
}
  0
BLOCK_RECORD
  5
2A6C
330
1
100
AcDbSymbolTableRecord
100
AcDbBlockTableRecord
  2
A3縦用_タイトル
1001
ACAD
1000
DesignCenter Data
1002
{
1070
     1
1070
     4
1002
}
  0
BLOCK_RECORD
  5
2AF4
330
1
100
AcDbSymbolTableRecord
100
AcDbBlockTableRecord
  2
_OPEN30
  0
BLOCK_RECORD
  5
2F3F
330
1
100
AcDbSymbolTableRecord
100
AcDbBlockTableRecord
  2
ケース外形図_HL-400
  0
BLOCK_RECORD
  5
347E
330
1
100
AcDbSymbolTableRecord
100
AcDbBlockTableRecord
  2
*D8
  0
BLOCK_RECORD
  5
3A43
330
1
100
AcDbSymbolTableRecord
100
AcDbBlockTableRecord
  2
*D15
  0
BLOCK_RECORD
  5
3A4F
330
1
100
AcDbSymbolTableRecord
100
AcDbBlockTableRecord
  2
*D16
  0
BLOCK_RECORD
  5
3EA5
330
1
100
AcDbSymbolTableRecord
100
AcDbBlockTableRecord
  2
_NONE
  0
BLOCK_RECORD
  5
4382
330
1
100
AcDbSymbolTableRecord
100
AcDbBlockTableRecord
  2
*D53
  0
BLOCK_RECORD
  5
438E
330
1
100
AcDbSymbolTableRecord
100
AcDbBlockTableRecord
  2
*D54
  0
BLOCK_RECORD
  5
439C
330
1
100
AcDbSymbolTableRecord
100
AcDbBlockTableRecord
  2
*D55
  0
BLOCK_RECORD
  5
43A8
330
1
100
AcDbSymbolTableRecord
100
AcDbBlockTableRecord
  2
*D56
  0
BLOCK_RECORD
  5
43B6
330
1
100
AcDbSymbolTableRecord
100
AcDbBlockTableRecord
  2
*D57
  0
BLOCK_RECORD
  5
442A
330
1
100
AcDbSymbolTableRecord
100
AcDbBlockTableRecord
  2
*D59
  0
BLOCK_RECORD
  5
4449
330
1
100
AcDbSymbolTableRecord
100
AcDbBlockTableRecord
  2
*D61
  0
ENDTAB
  0
ENDSEC
  0
SECTION
  2
BLOCKS
  0
BLOCK
  5
1B
330
1A
100
AcDbEntity
  8
0
100
AcDbBlockBegin
  2
*MODEL_SPACE
 70
     0
 10
0.0
 20
0.0
 30
0.0
  3
*MODEL_SPACE
  1

  0
ENDBLK
  5
1C
330
1A
100
AcDbEntity
  8
0
100
AcDbBlockEnd
  0
BLOCK
  5
28FD
330
28FB
100
AcDbEntity
 67
     1
  8
0
 48
10.0
100
AcDbBlockBegin
  2
*PAPER_SPACE
 70
     0
 10
0.0
 20
0.0
 30
0.0
  3
*PAPER_SPACE
  1

  0
ENDBLK
  5
28FE
330
28FB
100
AcDbEntity
 67
     1
  8
0
 48
10.0
100
AcDbBlockEnd
  0
BLOCK
  5
93
330
65
100
AcDbEntity
  8
0
100
AcDbBlockBegin
  2
A$C3392
 70
     0
 10
0.0
 20
0.0
 30
0.0
  3
A$C3392
  1
A$C3392
  0
LINE
  5
66
330
65
100
AcDbEntity
  8
図枠太線
  6
CONTINUOUS
100
AcDbLine
 10
211.858584505185
 20
30.927375675439
 30
0.0
 11
211.858584505185
 21
0.927375675439
 31
0.0
  0
LINE
  5
67
330
65
100
AcDbEntity
  8
図枠細線
  6
CONTINUOUS
100
AcDbLine
 10
231.858592505185
 20
15.927377675439
 30
0.0
 11
287.858592505185
 21
15.927375675439
 31
0.0
  0
LINE
  5
68
330
65
100
AcDbEntity
  8
図枠細線
  6
CONTINUOUS
100
AcDbLine
 10
211.858592505185
 20
15.927377675439
 30
0.0
 11
231.858592505185
 21
15.927377675439
 31
0.0
  0
LINE
  5
69
330
65
100
AcDbEntity
  8
図枠太線
  6
CONTINUOUS
 62
   251
100
AcDbLine
 10
1.858584505185
 20
0.927375675439
 30
0.0
 11
1.858584505185
 21
275.927375675439
 31
0.0
  0
TEXT
  5
6A
330
65
100
AcDbEntity
  8
図枠細線
  6
CONTINUOUS
 62
   252
100
AcDbText
 10
351.358592505185
 20
28.427377675439
 30
0.0
 40
2.0
  1
ＴＩＴＬＥ
 41
0.903614457831
  7
EXCADSTD
 72
     5
 11
361.358592505185
 21
28.427377675439
 31
0.0
100
AcDbText
  0
TEXT
  5
6B
330
65
100
AcDbEntity
  8
図枠細線
  6
CONTINUOUS
 62
   252
100
AcDbText
 10
345.358592505185
 20
28.427377675439
 30
0.0
 40
2.0
  1
名称
 41
1.171875
  7
EXCADSTD
 72
     5
 11
350.358592505185
 21
28.427377675439
 31
0.0
100
AcDbText
  0
TEXT
  5
6C
330
65
100
AcDbEntity
  8
図枠細線
  6
CONTINUOUS
 62
   252
100
AcDbText
 10
274.358592505185
 20
25.927377675439
 30
0.0
 40
2.0
  1
ＤＲＡＷＮ
 41
0.882352941176
  7
EXCADSTD
 72
     5
 11
284.358592505185
 21
25.927377675439
 31
0.0
100
AcDbText
  0
TEXT
  5
6D
330
65
100
AcDbEntity
  8
図枠細線
  6
CONTINUOUS
 62
   252
100
AcDbText
 10
260.358592505185
 20
25.927377675439
 30
0.0
 40
2.0
  1
ＤＥＳＩＧＮＥＤ
 41
0.713043472041
  7
EXCADSTD
 72
     5
 11
273.478592390744
 21
25.927377675439
 31
0.0
100
AcDbText
  0
TEXT
  5
6E
330
65
100
AcDbEntity
  8
図枠細線
  6
CONTINUOUS
 62
   252
100
AcDbText
 10
246.358592505185
 20
25.927377675439
 30
0.0
 40
2.0
  1
ＣＨＥＣＫＥＤ
 41
0.831249989569
  7
EXCADSTD
 72
     5
 11
259.658592338292
 21
25.927377675439
 31
0.0
100
AcDbText
  0
TEXT
  5
6F
330
65
100
AcDbEntity
  8
図枠細線
  6
CONTINUOUS
 62
   252
100
AcDbText
 10
274.358592505185
 20
28.427377675439
 30
0.0
 40
2.0
  1
製図
 41
1.209677419355
  7
EXCADSTD
 72
     5
 11
279.358592505185
 21
28.427377675439
 31
0.0
100
AcDbText
  0
TEXT
  5
70
330
65
100
AcDbEntity
  8
図枠細線
  6
CONTINUOUS
 62
   252
100
AcDbText
 10
260.358592505185
 20
28.427377675439
 30
0.0
 40
2.0
  1
設計
 41
1.171875
  7
EXCADSTD
 72
     5
 11
265.358592505185
 21
28.427377675439
 31
0.0
100
AcDbText
  0
TEXT
  5
71
330
65
100
AcDbEntity
  8
図枠細線
  6
CONTINUOUS
 62
   252
100
AcDbText
 10
246.358592505185
 20
28.427377675439
 30
0.0
 40
2.0
  1
検図
 41
1.209677419355
  7
EXCADSTD
 72
     5
 11
251.358592505185
 21
28.427377675439
 31
0.0
100
AcDbText
  0
TEXT
  5
72
330
65
100
AcDbEntity
  8
図枠細線
  6
CONTINUOUS
 62
   252
100
AcDbText
 10
232.358592505185
 20
25.927377675439
 30
0.0
 40
2.0
  1
ＡＰＰＲＯＶＥＤ
 41
0.695652184279
  7
EXCADSTD
 72
     5
 11
245.15859269592
 21
25.927377675439
 31
0.0
100
AcDbText
  0
TEXT
  5
73
330
65
100
AcDbEntity
  8
図枠細線
  6
CONTINUOUS
 62
   252
100
AcDbText
 10
232.358592505185
 20
28.427377675439
 30
0.0
 40
2.0
  1
承認
 41
1.171875
  7
EXCADSTD
 72
     5
 11
237.358592505185
 21
28.427377675439
 31
0.0
100
AcDbText
  0
TEXT
  5
74
330
65
100
AcDbEntity
  8
図枠細線
  6
CONTINUOUS
 62
   252
100
AcDbText
 10
290.069888505185
 20
2.574868675439
 30
0.0
 40
3.5
  1
ＴＯＷＡ　ＳＥＩＤＥＮ　ＩＮＤＵＳＴＲＩＡＬ　ＣＯ．，ＬＴＤ．
 41
0.414568012377
  7
EXCADSTD
 72
     5
 11
342.692388209546
 21
2.574868675439
 31
0.0
100
AcDbText
  0
TEXT
  5
75
330
65
100
AcDbEntity
  8
図枠ロゴマーク
  6
CONTINUOUS
 62
   253
100
AcDbText
 10
290.107348505185
 20
7.519769675439
 30
0.0
 40
7.0
  1
東和制電工業株式会社
 41
0.639204545455
  7
EXCADSTD
 72
     5
 11
342.607348505185
 21
7.519769675439
 31
0.0
100
AcDbText
  0
TEXT
  5
76
330
65
100
AcDbEntity
  8
図枠細線
  6
CONTINUOUS
 62
   252
100
AcDbText
 10
232.499705505185
 20
5.759088675439
 30
0.0
 40
2.0
  1
ＰＲＯＪＥＣＴＩＯＮ
 41
0.754285710199
  7
EXCADSTD
 72
     5
 11
250.099705409817
 21
5.759088675439
 31
0.0
100
AcDbText
  0
TEXT
  5
77
330
65
100
AcDbEntity
  8
図枠細線
  6
CONTINUOUS
 62
   252
100
AcDbText
 10
232.574629505185
 20
8.681077675439
 30
0.0
 40
2.0
  1
ＴＨＩＲＤ　ＡＮＧＬＥ
 41
0.691099486738
  7
EXCADSTD
 72
     5
 11
250.174629767445
 21
8.681077675439
 31
0.0
100
AcDbText
  0
TEXT
  5
78
330
65
100
AcDbEntity
  8
図枠細線
  6
CONTINUOUS
 62
   252
100
AcDbText
 10
256.823999505185
 20
13.427377675439
 30
0.0
 40
2.0
  1
ＳＣＡＬＥ
 41
0.903614457831
  7
EXCADSTD
 72
     5
 11
266.823999505185
 21
13.427377675439
 31
0.0
100
AcDbText
  0
TEXT
  5
79
330
65
100
AcDbEntity
  8
図枠細線
  6
CONTINUOUS
 62
   252
100
AcDbText
 10
274.858592505185
 20
13.427377675439
 30
0.0
 40
2.0
  1
ＤＡＴＥ
 41
0.923076923077
  7
EXCADSTD
 72
     5
 11
282.858592505185
 21
13.427377675439
 31
0.0
100
AcDbText
  0
TEXT
  5
7A
330
65
100
AcDbEntity
  8
図枠細線
  6
CONTINUOUS
 62
   252
100
AcDbText
 10
356.358592505185
 20
13.427377675439
 30
0.0
 40
2.0
  1
ＤＲＧ．ＮＯ．
 41
0.9375
  7
EXCADSTD
 72
     5
 11
370.358592505185
 21
13.427377675439
 31
0.0
100
AcDbText
  0
TEXT
  5
7B
330
65
100
AcDbEntity
  8
図枠細線
  6
CONTINUOUS
 62
   252
100
AcDbText
 10
345.358592505185
 20
13.427377675439
 30
0.0
 40
2.0
  1
図面番号
 41
1.102941176471
  7
EXCADSTD
 72
     5
 11
355.358592505185
 21
13.427377675439
 31
0.0
100
AcDbText
  0
TEXT
  5
7C
330
65
100
AcDbEntity
  8
図枠細線
  6
CONTINUOUS
 62
   252
100
AcDbText
 10
269.358592505185
 20
13.427377675439
 30
0.0
 40
2.0
  1
日付
 41
1.171875
  7
EXCADSTD
 72
     5
 11
274.358592505185
 21
13.427377675439
 31
0.0
100
AcDbText
  0
TEXT
  5
7D
330
65
100
AcDbEntity
  8
図枠細線
  6
CONTINUOUS
 62
   252
100
AcDbText
 10
251.451512505185
 20
13.427377675439
 30
0.0
 40
2.0
  1
尺度
 41
1.171875
  7
EXCADSTD
 72
     5
 11
256.451512505185
 21
13.427377675439
 31
0.0
100
AcDbText
  0
TEXT
  5
7E
330
65
100
AcDbEntity
  8
図枠細線
  6
CONTINUOUS
 62
   252
100
AcDbText
 10
232.358592505185
 20
13.427377675439
 30
0.0
 40
2.0
  1
第三角法
 41
1.102941176471
  7
EXCADSTD
 72
     5
 11
242.358592505185
 21
13.427377675439
 31
0.0
100
AcDbText
  0
TEXT
  5
7F
330
65
100
AcDbEntity
  8
図枠細線
  6
CONTINUOUS
 62
   252
100
AcDbText
 10
212.358592505185
 20
28.427377675439
 30
0.0
 40
2.0
  1
ＮＯＴＥ
 41
0.923076923077
  7
EXCADSTD
 72
     5
 11
220.358592505185
 21
28.427377675439
 31
0.0
100
AcDbText
  0
LINE
  5
80
330
65
100
AcDbEntity
  8
図枠細線
  6
CONTINUOUS
 62
   252
100
AcDbLine
 10
287.858592505185
 20
23.427375675439
 30
0.0
 11
344.858592505185
 21
23.427375675439
 31
0.0
  0
LINE
  5
81
330
65
100
AcDbEntity
  8
図枠太線
  6
CONTINUOUS
 62
   251
100
AcDbLine
 10
287.858584505185
 20
15.927375675439
 30
0.0
 11
344.858592505185
 21
15.927375675439
 31
0.0
  0
LINE
  5
82
330
65
100
AcDbEntity
  8
図枠細線
  6
CONTINUOUS
 62
   252
100
AcDbLine
 10
344.858592505185
 20
15.927375675439
 30
0.0
 11
401.858584505185
 21
15.927375675439
 31
0.0
  0
LINE
  5
83
330
65
100
AcDbEntity
  8
図枠太線
  6
CONTINUOUS
 62
   251
100
AcDbLine
 10
344.858592505185
 20
0.927377675439
 30
0.0
 11
344.858592505185
 21
30.927375675439
 31
0.0
  0
LINE
  5
84
330
65
100
AcDbEntity
  8
図枠太線
  6
CONTINUOUS
 62
   251
100
AcDbLine
 10
287.858592505185
 20
0.927377675439
 30
0.0
 11
287.858592505185
 21
30.927375675439
 31
0.0
  0
LINE
  5
85
330
65
100
AcDbEntity
  8
図枠細線
  6
CONTINUOUS
 62
   252
100
AcDbLine
 10
268.858592505185
 20
0.927377675439
 30
0.0
 11
268.858592505185
 21
15.927375675439
 31
0.0
  0
LINE
  5
86
330
65
100
AcDbEntity
  8
図枠細線
  6
CONTINUOUS
 62
   252
100
AcDbLine
 10
250.858592505185
 20
0.927377675439
 30
0.0
 11
250.858592505185
 21
15.927375675439
 31
0.0
  0
LINE
  5
87
330
65
100
AcDbEntity
  8
図枠細線
  6
CONTINUOUS
 62
   252
100
AcDbLine
 10
273.858592505185
 20
30.927375675439
 30
0.0
 11
273.858592505185
 21
15.927375675439
 31
0.0
  0
LINE
  5
88
330
65
100
AcDbEntity
  8
図枠細線
  6
CONTINUOUS
 62
   252
100
AcDbLine
 10
259.858592505185
 20
30.927375675439
 30
0.0
 11
259.858592505185
 21
15.927375675439
 31
0.0
  0
LINE
  5
89
330
65
100
AcDbEntity
  8
図枠細線
  6
CONTINUOUS
 62
   252
100
AcDbLine
 10
245.858592505185
 20
30.927375675439
 30
0.0
 11
245.858592505185
 21
15.927375675439
 31
0.0
  0
LINE
  5
8A
330
65
100
AcDbEntity
  8
図枠太線
  6
CONTINUOUS
 62
   251
100
AcDbLine
 10
231.858592505185
 20
0.927377675439
 30
0.0
 11
231.858592505185
 21
30.927375675439
 31
0.0
  0
LINE
  5
8B
330
65
100
AcDbEntity
  8
図枠細線
  6
CONTINUOUS
 62
   252
100
AcDbLine
 10
211.858592505185
 20
25.927375675439
 30
0.0
 11
231.858592505185
 21
25.927375675439
 31
0.0
  0
LINE
  5
8C
330
65
100
AcDbEntity
  8
図枠細線
  6
CONTINUOUS
 62
   252
100
AcDbLine
 10
211.858592505185
 20
20.927375675439
 30
0.0
 11
231.858592505185
 21
20.927375675439
 31
0.0
  0
LINE
  5
8D
330
65
100
AcDbEntity
  8
図枠細線
  6
CONTINUOUS
 62
   252
100
AcDbLine
 10
211.858592505185
 20
10.927375675439
 30
0.0
 11
231.858592505185
 21
10.927375675439
 31
0.0
  0
LINE
  5
8E
330
65
100
AcDbEntity
  8
図枠細線
  6
CONTINUOUS
 62
   252
100
AcDbLine
 10
211.858592505185
 20
5.927377675439
 30
0.0
 11
231.858592505185
 21
5.927377675439
 31
0.0
  0
LINE
  5
8F
330
65
100
AcDbEntity
  8
図枠太線
  6
CONTINUOUS
 62
   251
100
AcDbLine
 10
211.858592505185
 20
30.927375675439
 30
0.0
 11
401.858584505185
 21
30.927375675439
 31
0.0
  0
LINE
  5
90
330
65
100
AcDbEntity
  8
図枠太線
  6
CONTINUOUS
 62
   251
100
AcDbLine
 10
1.858584505185
 20
275.927375675439
 30
0.0
 11
401.858584505185
 21
275.927375675439
 31
0.0
  0
LINE
  5
91
330
65
100
AcDbEntity
  8
図枠太線
  6
CONTINUOUS
 62
   251
100
AcDbLine
 10
401.858584505185
 20
0.927375675439
 30
0.0
 11
401.858584505185
 21
275.927375675439
 31
0.0
  0
LINE
  5
92
330
65
100
AcDbEntity
  8
図枠太線
  6
CONTINUOUS
 62
   251
100
AcDbLine
 10
1.858584505185
 20
0.927375675439
 30
0.0
 11
401.858584505185
 21
0.927375675439
 31
0.0
  0
ENDBLK
  5
94
330
65
100
AcDbEntity
  8
0
100
AcDbBlockEnd
  0
BLOCK
  5
29C0
330
29BF
100
AcDbEntity
  8
0
100
AcDbBlockBegin
  2
A4横用_タイトル
 70
     0
 10
0.0
 20
0.0
 30
0.0
  3
A4横用_タイトル
  1
A4横用_タイトル
  0
LINE
  5
29C1
330
29BF
100
AcDbEntity
  8
図枠細線
  6
CONTINUOUS
100
AcDbLine
 10
75.061011071051
 20
16.806607253358
 30
0.0
 11
144.061011071051
 21
16.806604789072
 31
0.0
  0
LINE
  5
29C2
330
29BF
100
AcDbEntity
  8
図枠細線
  6
CONTINUOUS
 62
   252
100
AcDbLine
 10
4.061011071051
 20
11.806606253358
 30
0.0
 11
75.061011071051
 21
11.806606253358
 31
0.0
  0
LINE
  5
29C3
330
29BF
100
AcDbEntity
  8
図枠細線
  6
CONTINUOUS
 62
   252
100
AcDbLine
 10
4.061011071051
 20
21.806606253358
 30
0.0
 11
75.061011071051
 21
21.806606253358
 31
0.0
  0
LINE
  5
29C4
330
29BF
100
AcDbEntity
  8
図枠細線
  6
CONTINUOUS
 62
   252
100
AcDbLine
 10
4.061011071051
 20
26.806606253358
 30
0.0
 11
75.061011071051
 21
26.806606253358
 31
0.0
  0
LINE
  5
29C5
330
29BF
100
AcDbEntity
  8
図枠細線
  6
CONTINUOUS
100
AcDbLine
 10
4.061011071051
 20
16.806608253358
 30
0.0
 11
75.061011071051
 21
16.806608253358
 31
0.0
  0
TEXT
  5
29C6
330
29BF
100
AcDbEntity
  8
図枠細線
  6
CONTINUOUS
 62
   252
100
AcDbText
 10
76.405475827713
 20
9.560308253358
 30
0.0
 40
2.0
  1
ＴＨＩＲＤ　ＡＮＧＬＥ
 41
0.691099486738
  7
EXCADSTD
 72
     5
 11
94.005476089973
 21
9.560308253358
 31
0.0
100
AcDbText
  0
TEXT
  5
29C7
330
29BF
100
AcDbEntity
  8
図枠細線
  6
CONTINUOUS
 62
   252
100
AcDbText
 10
76.705775880921
 20
14.306608253358
 30
0.0
 40
2.0
  1
第三角法
 41
1.102941176471
  7
EXCADSTD
 72
     5
 11
86.705775880921
 21
14.306608253358
 31
0.0
100
AcDbText
  0
TEXT
  5
29C8
330
29BF
100
AcDbEntity
  8
図枠細線
  6
CONTINUOUS
 62
   252
100
AcDbText
 10
76.705775880921
 20
26.806608253358
 30
0.0
 40
2.0
  1
ＡＰＰＲＯＶＥＤ
 41
0.695652184279
  7
EXCADSTD
 72
     5
 11
89.505776071656
 21
26.806608253358
 31
0.0
100
AcDbText
  0
TEXT
  5
29C9
330
29BF
100
AcDbEntity
  8
図枠細線
  6
CONTINUOUS
 62
   252
100
AcDbText
 10
76.705775880921
 20
29.306608253358
 30
0.0
 40
2.0
  1
承認
 41
1.171875
  7
EXCADSTD
 72
     5
 11
81.705775880921
 21
29.306608253358
 31
0.0
100
AcDbText
  0
LINE
  5
29CA
330
29BF
100
AcDbEntity
  8
図枠細線
  6
CONTINUOUS
 62
   252
100
AcDbLine
 10
98.061011071051
 20
31.806606253358
 30
0.0
 11
98.061011071051
 21
16.806606253358
 31
0.0
  0
TEXT
  5
29CB
330
29BF
100
AcDbEntity
  8
図枠細線
  6
CONTINUOUS
 62
   252
100
AcDbText
 10
104.216531119804
 20
14.306608253358
 30
0.0
 40
2.0
  1
ＳＣＡＬＥ
 41
0.903614457831
  7
EXCADSTD
 72
     5
 11
114.216531119804
 21
14.306608253358
 31
0.0
100
AcDbText
  0
TEXT
  5
29CC
330
29BF
100
AcDbEntity
  8
図枠細線
  6
CONTINUOUS
 62
   252
100
AcDbText
 10
98.844044119804
 20
14.306608253358
 30
0.0
 40
2.0
  1
尺度
 41
1.171875
  7
EXCADSTD
 72
     5
 11
103.844044119804
 21
14.306608253358
 31
0.0
100
AcDbText
  0
TEXT
  5
29CD
330
29BF
100
AcDbEntity
  8
図枠細線
  6
CONTINUOUS
 62
   252
100
AcDbText
 10
98.968727707497
 20
26.806608253358
 30
0.0
 40
2.0
  1
ＣＨＥＣＫＥＤ
 41
0.831249989569
  7
EXCADSTD
 72
     5
 11
112.268727540604
 21
26.806608253358
 31
0.0
100
AcDbText
  0
TEXT
  5
29CE
330
29BF
100
AcDbEntity
  8
図枠細線
  6
CONTINUOUS
 62
   252
100
AcDbText
 10
98.968727707497
 20
29.306608253358
 30
0.0
 40
2.0
  1
検図
 41
1.209677419355
  7
EXCADSTD
 72
     5
 11
103.968727707497
 21
29.306608253358
 31
0.0
100
AcDbText
  0
LINE
  5
29CF
330
29BF
100
AcDbEntity
  8
図枠細線
  6
CONTINUOUS
 62
   252
100
AcDbLine
 10
121.061011071051
 20
31.806606253358
 30
0.0
 11
121.061011071051
 21
16.806606253358
 31
0.0
  0
TEXT
  5
29D0
330
29BF
100
AcDbEntity
  8
図枠細線
  6
CONTINUOUS
 62
   252
100
AcDbText
 10
128.001465247253
 20
14.306608253358
 30
0.0
 40
2.0
  1
ＤＡＴＥ
 41
0.923076923077
  7
EXCADSTD
 72
     5
 11
136.001465247253
 21
14.306608253358
 31
0.0
100
AcDbText
  0
TEXT
  5
29D1
330
29BF
100
AcDbEntity
  8
図枠細線
  6
CONTINUOUS
 62
   252
100
AcDbText
 10
122.066415498841
 20
14.306608253358
 30
0.0
 40
2.0
  1
日付
 41
1.171875
  7
EXCADSTD
 72
     5
 11
127.066415498841
 21
14.306608253358
 31
0.0
100
AcDbText
  0
TEXT
  5
29D2
330
29BF
100
AcDbEntity
  8
図枠細線
  6
CONTINUOUS
 62
   252
100
AcDbText
 10
121.59429406571
 20
29.306608253358
 30
0.0
 40
2.0
  1
製図
 41
1.209677419355
  7
EXCADSTD
 72
     5
 11
126.59429406571
 21
29.306608253358
 31
0.0
100
AcDbText
  0
TEXT
  5
29D3
330
29BF
100
AcDbEntity
  8
図枠細線
  6
CONTINUOUS
 62
   252
100
AcDbText
 10
121.59429406571
 20
26.806608253358
 30
0.0
 40
2.0
  1
ＤＲＡＷＮ
 41
0.882352941176
  7
EXCADSTD
 72
     5
 11
131.59429406571
 21
26.806608253358
 31
0.0
100
AcDbText
  0
TEXT
  5
29D4
330
29BF
100
AcDbEntity
  8
図枠細線
  6
CONTINUOUS
 62
   252
100
AcDbText
 10
226.591229661348
 20
14.306608253358
 30
0.0
 40
2.0
  1
ＤＲＧ．ＮＯ．
 41
0.9375
  7
EXCADSTD
 72
     5
 11
240.591229661348
 21
14.306608253358
 31
0.0
100
AcDbText
  0
LINE
  5
29D5
330
29BF
100
AcDbEntity
  8
図枠太線
  6
CONTINUOUS
 62
   251
100
AcDbLine
 10
144.061003071051
 20
16.806606253358
 30
0.0
 11
214.061011071051
 21
16.806606253358
 31
0.0
  0
LINE
  5
29D6
330
29BF
100
AcDbEntity
  8
図枠細線
  6
CONTINUOUS
 62
   252
100
AcDbLine
 10
144.061011071051
 20
24.306606253358
 30
0.0
 11
214.061011071051
 21
24.306606253358
 31
0.0
  0
TEXT
  5
29D7
330
29BF
100
AcDbEntity
  8
図枠ロゴマーク
  6
CONTINUOUS
 62
   253
100
AcDbText
 10
146.433776781596
 20
8.399000253358
 30
0.0
 40
7.0
  1
東和制電工業株式会社
 41
0.80361088462
  7
EXCADSTD
 72
     5
 11
212.437017438349
 21
8.399000253358
 31
0.0
100
AcDbText
  0
TEXT
  5
29D8
330
29BF
100
AcDbEntity
  8
図枠細線
  6
CONTINUOUS
 62
   252
100
AcDbText
 10
215.156179912936
 20
14.306608253358
 30
0.0
 40
2.0
  1
図面番号
 41
1.102941176471
  7
EXCADSTD
 72
     5
 11
225.156179912936
 21
14.306608253358
 31
0.0
100
AcDbText
  0
TEXT
  5
29D9
330
29BF
100
AcDbEntity
  8
図枠細線
  6
CONTINUOUS
 62
   252
100
AcDbText
 10
221.591229661348
 20
29.306608253358
 30
0.0
 40
2.0
  1
ＴＩＴＬＥ
 41
0.903614457831
  7
EXCADSTD
 72
     5
 11
231.591229661348
 21
29.306608253358
 31
0.0
100
AcDbText
  0
TEXT
  5
29DA
330
29BF
100
AcDbEntity
  8
図枠細線
  6
CONTINUOUS
 62
   252
100
AcDbText
 10
215.156179912936
 20
29.306608253358
 30
0.0
 40
2.0
  1
名称
 41
1.171875
  7
EXCADSTD
 72
     5
 11
220.156179912936
 21
29.306608253358
 31
0.0
100
AcDbText
  0
LINE
  5
29DB
330
29BF
100
AcDbEntity
  8
図枠太線
  6
CONTINUOUS
 62
   251
100
AcDbLine
 10
4.061011071051
 20
1.806608253358
 30
0.0
 11
284.061011071051
 21
1.806608253358
 31
0.0
  0
LINE
  5
29DC
330
29BF
100
AcDbEntity
  8
図枠細線
  6
CONTINUOUS
 62
   252
100
AcDbLine
 10
4.061011071051
 20
6.806608253358
 30
0.0
 11
75.061011071051
 21
6.806608253358
 31
0.0
  0
LINE
  5
29DD
330
29BF
100
AcDbEntity
  8
図枠太線
  6
CONTINUOUS
 62
   251
100
AcDbLine
 10
75.061011071051
 20
1.806608253358
 30
0.0
 11
75.061011071051
 21
31.806606253358
 31
0.0
  0
TEXT
  5
29DE
330
29BF
100
AcDbEntity
  8
図枠細線
  6
CONTINUOUS
 62
   252
100
AcDbText
 10
76.330551827713
 20
6.638319253358
 30
0.0
 40
2.0
  1
ＰＲＯＪＥＣＴＩＯＮ
 41
0.754285710199
  7
EXCADSTD
 72
     5
 11
93.930551732346
 21
6.638319253358
 31
0.0
100
AcDbText
  0
LINE
  5
29DF
330
29BF
100
AcDbEntity
  8
図枠細線
  6
CONTINUOUS
 62
   252
100
AcDbLine
 10
98.061011071051
 20
1.806606931929
 30
0.0
 11
98.061011071051
 21
16.806604931929
 31
0.0
  0
LINE
  5
29E0
330
29BF
100
AcDbEntity
  8
図枠細線
  6
CONTINUOUS
 62
   252
100
AcDbLine
 10
121.061011071051
 20
1.806607574787
 30
0.0
 11
121.061011071051
 21
16.806605574787
 31
0.0
  0
LINE
  5
29E1
330
29BF
100
AcDbEntity
  8
図枠太線
  6
CONTINUOUS
 62
   251
100
AcDbLine
 10
284.061011071051
 20
1.806608253358
 30
0.0
 11
284.061011071051
 21
31.806606253358
 31
0.0
  0
LINE
  5
29E2
330
29BF
100
AcDbEntity
  8
図枠細線
  6
CONTINUOUS
 62
   252
100
AcDbLine
 10
214.061011071051
 20
16.806606253358
 30
0.0
 11
284.061011071051
 21
16.806606253358
 31
0.0
  0
TEXT
  5
29E3
330
29BF
100
AcDbEntity
  8
図枠細線
  6
CONTINUOUS
 62
   252
100
AcDbText
 10
146.199593676182
 20
3.454099253358
 30
0.0
 40
3.5
  1
ＴＯＷＡ　ＳＥＩＤＥＮ　ＩＮＤＵＳＴＲＩＡＬ　ＣＯ．，ＬＴＤ．
 41
0.528937826907
  7
EXCADSTD
 72
     5
 11
213.339435171588
 21
3.454099253358
 31
0.0
100
AcDbText
  0
LINE
  5
29E4
330
29BF
100
AcDbEntity
  8
図枠太線
  6
CONTINUOUS
 62
   251
100
AcDbLine
 10
144.061011071051
 20
1.806608253358
 30
0.0
 11
144.061011071051
 21
31.806606253358
 31
0.0
  0
LINE
  5
29E5
330
29BF
100
AcDbEntity
  8
図枠太線
  6
CONTINUOUS
 62
   251
100
AcDbLine
 10
214.061011071051
 20
1.806608253358
 30
0.0
 11
214.061011071051
 21
31.806606253358
 31
0.0
  0
MTEXT
  5
29E6
330
29BF
100
AcDbEntity
  8
図枠太線
100
AcDbMText
 10
5.064337346478
 20
31.010982137407
 30
0.0
 40
2.5
 41
8.67856098472
 71
     1
 72
     5
  1
{\Fmonotxt.shx,bigfont.shx|c128;図暦}
  0
LINE
  5
29E7
330
29BF
100
AcDbEntity
  8
図枠太線
  6
CONTINUOUS
 62
   251
100
AcDbLine
 10
4.061011071051
 20
1.806608253358
 30
0.0
 11
4.061011071051
 21
31.806606253358
 31
0.0
  0
TEXT
  5
29E8
330
29BF
100
AcDbEntity
  8
図枠細線
 48
10.0
100
AcDbText
 10
12.260817420402
 20
28.625419626495
 30
0.0
 40
2.0
  1
CHANGE NOTICE
100
AcDbText
  0
ENDBLK
  5
29E9
330
29BF
100
AcDbEntity
  8
0
100
AcDbBlockEnd
  0
BLOCK
  5
29F5
330
29F4
100
AcDbEntity
  8
0
100
AcDbBlockBegin
  2
A4縦用_タイトル
 70
     0
 10
0.0
 20
0.0
 30
0.0
  3
A4縦用_タイトル
  1
A4縦用_タイトル
  0
LINE
  5
29F6
330
29F4
100
AcDbEntity
  8
図枠太線
  6
CONTINUOUS
 62
   251
100
AcDbLine
 10
2.368253864267
 20
4.525433224584
 30
0.0
 11
192.368245864267
 21
4.525433224584
 31
0.0
  0
LINE
  5
29F7
330
29F4
100
AcDbEntity
  8
図枠太線
  6
CONTINUOUS
 62
   251
100
AcDbLine
 10
78.368245864267
 20
19.525431224584
 30
0.0
 11
135.368253864267
 21
19.525431224584
 31
0.0
  0
LINE
  5
29F8
330
29F4
100
AcDbEntity
  8
図枠細線
  6
CONTINUOUS
 62
   252
100
AcDbLine
 10
78.368253864267
 20
27.025431224584
 30
0.0
 11
135.368253864267
 21
27.025431224584
 31
0.0
  0
TEXT
  5
29F9
330
29F4
100
AcDbEntity
  8
図枠ロゴマーク
  6
CONTINUOUS
 62
   253
100
AcDbText
 10
80.617009864267
 20
11.117825224584
 30
0.0
 40
7.0
  1
東和制電工業株式会社
 41
0.639204545455
  7
EXCADSTD
 72
     5
 11
133.117009864267
 21
11.117825224584
 31
0.0
100
AcDbText
  0
TEXT
  5
29FA
330
29F4
100
AcDbEntity
  8
図枠細線
  6
CONTINUOUS
 62
   252
100
AcDbText
 10
80.579549864267
 20
6.172924224584
 30
0.0
 40
3.5
  1
ＴＯＷＡ　ＳＥＩＤＥＮ　ＩＮＤＵＳＴＲＩＡＬ　ＣＯ．，ＬＴＤ．
 41
0.414568012377
  7
EXCADSTD
 72
     5
 11
133.202049568628
 21
6.172924224584
 31
0.0
100
AcDbText
  0
LINE
  5
29FB
330
29F4
100
AcDbEntity
  8
図枠太線
  6
CONTINUOUS
 62
   251
100
AcDbLine
 10
2.368253864267
 20
4.525433224584
 30
0.0
 11
2.368253864267
 21
34.525431224584
 31
0.0
  0
TEXT
  5
29FC
330
29F4
100
AcDbEntity
  8
図枠細線
  6
CONTINUOUS
 62
   252
100
AcDbText
 10
22.504308136501
 20
12.279133224584
 30
0.0
 40
2.0
  1
ＴＨＩＲＤ　ＡＮＧＬＥ
 41
0.691099486738
  7
EXCADSTD
 72
     5
 11
40.104308398762
 21
12.279133224584
 31
0.0
100
AcDbText
  0
TEXT
  5
29FD
330
29F4
100
AcDbEntity
  8
図枠細線
  6
CONTINUOUS
 62
   252
100
AcDbText
 10
22.429384136501
 20
9.357144224584
 30
0.0
 40
2.0
  1
ＰＲＯＪＥＣＴＩＯＮ
 41
0.754285710199
  7
EXCADSTD
 72
     5
 11
40.029384041134
 21
9.357144224584
 31
0.0
100
AcDbText
  0
LINE
  5
29FE
330
29F4
100
AcDbEntity
  8
図枠細線
  6
CONTINUOUS
100
AcDbLine
 10
22.368253864267
 20
19.525433224584
 30
0.0
 11
78.368253864267
 21
19.525431224584
 31
0.0
  0
TEXT
  5
29FF
330
29F4
100
AcDbEntity
  8
図枠細線
  6
CONTINUOUS
 62
   252
100
AcDbText
 10
22.868253864267
 20
17.025433224584
 30
0.0
 40
2.0
  1
第三角法
 41
1.102941176471
  7
EXCADSTD
 72
     5
 11
32.868253864267
 21
17.025433224584
 31
0.0
100
AcDbText
  0
TEXT
  5
2A00
330
29F4
100
AcDbEntity
  8
図枠細線
  6
CONTINUOUS
 62
   252
100
AcDbText
 10
22.868253864267
 20
29.525433224584
 30
0.0
 40
2.0
  1
ＡＰＰＲＯＶＥＤ
 41
0.695652184279
  7
EXCADSTD
 72
     5
 11
35.668254055002
 21
29.525433224584
 31
0.0
100
AcDbText
  0
LINE
  5
2A01
330
29F4
100
AcDbEntity
  8
図枠細線
  6
CONTINUOUS
 62
   252
100
AcDbLine
 10
2.368253864267
 20
9.525433224584
 30
0.0
 11
22.368253864267
 21
9.525433224584
 31
0.0
  0
LINE
  5
2A02
330
29F4
100
AcDbEntity
  8
図枠細線
  6
CONTINUOUS
 62
   252
100
AcDbLine
 10
2.368253864267
 20
14.525431224584
 30
0.0
 11
22.368253864267
 21
14.525431224584
 31
0.0
  0
LINE
  5
2A03
330
29F4
100
AcDbEntity
  8
図枠細線
  6
CONTINUOUS
 62
   252
100
AcDbLine
 10
2.368253864267
 20
24.525431224584
 30
0.0
 11
22.368253864267
 21
24.525431224584
 31
0.0
  0
LINE
  5
2A04
330
29F4
100
AcDbEntity
  8
図枠細線
  6
CONTINUOUS
 62
   252
100
AcDbLine
 10
2.368253864267
 20
29.525431224584
 30
0.0
 11
22.368253864267
 21
29.525431224584
 31
0.0
  0
LINE
  5
2A05
330
29F4
100
AcDbEntity
  8
図枠細線
  6
CONTINUOUS
100
AcDbLine
 10
2.368253864267
 20
19.525433224584
 30
0.0
 11
22.368253864267
 21
19.525433224584
 31
0.0
  0
TEXT
  5
2A06
330
29F4
100
AcDbEntity
  8
図枠細線
  6
CONTINUOUS
 62
   252
100
AcDbText
 10
2.868253864267
 20
32.025433224584
 30
0.0
 40
2.0
  1
ＮＯＴＥ
 41
0.923076923077
  7
EXCADSTD
 72
     5
 11
10.868253864267
 21
32.025433224584
 31
0.0
100
AcDbText
  0
LINE
  5
2A07
330
29F4
100
AcDbEntity
  8
図枠太線
  6
CONTINUOUS
 62
   251
100
AcDbLine
 10
22.368253864267
 20
4.525433224584
 30
0.0
 11
22.368253864267
 21
34.525431224584
 31
0.0
  0
TEXT
  5
2A08
330
29F4
100
AcDbEntity
  8
図枠細線
  6
CONTINUOUS
 62
   252
100
AcDbText
 10
22.868253864267
 20
32.025433224584
 30
0.0
 40
2.0
  1
承認
 41
1.171875
  7
EXCADSTD
 72
     5
 11
27.868253864267
 21
32.025433224584
 31
0.0
100
AcDbText
  0
TEXT
  5
2A09
330
29F4
100
AcDbEntity
  8
図枠細線
  6
CONTINUOUS
 62
   252
100
AcDbText
 10
60.711709035982
 20
32.025433224584
 30
0.0
 40
2.0
  1
製図
 41
1.209677419355
  7
EXCADSTD
 72
     5
 11
65.711709035982
 21
32.025433224584
 31
0.0
100
AcDbText
  0
TEXT
  5
2A0A
330
29F4
100
AcDbEntity
  8
図枠細線
  6
CONTINUOUS
 62
   252
100
AcDbText
 10
60.711709035982
 20
29.525433224584
 30
0.0
 40
2.0
  1
ＤＲＡＷＮ
 41
0.882352941176
  7
EXCADSTD
 72
     5
 11
70.711709035982
 21
29.525433224584
 31
0.0
100
AcDbText
  0
TEXT
  5
2A0B
330
29F4
100
AcDbEntity
  8
図枠細線
  6
CONTINUOUS
 62
   252
100
AcDbText
 10
60.834891743877
 20
17.025433224584
 30
0.0
 40
2.0
  1
日付
 41
1.171875
  7
EXCADSTD
 72
     5
 11
65.834891743877
 21
17.025433224584
 31
0.0
100
AcDbText
  0
TEXT
  5
2A0C
330
29F4
100
AcDbEntity
  8
図枠細線
  6
CONTINUOUS
 62
   252
100
AcDbText
 10
47.333660864267
 20
17.025433224584
 30
0.0
 40
2.0
  1
ＳＣＡＬＥ
 41
0.903614457831
  7
EXCADSTD
 72
     5
 11
57.333660864267
 21
17.025433224584
 31
0.0
100
AcDbText
  0
TEXT
  5
2A0D
330
29F4
100
AcDbEntity
  8
図枠細線
  6
CONTINUOUS
 62
   252
100
AcDbText
 10
42.281425990082
 20
29.525433224584
 30
0.0
 40
2.0
  1
ＣＨＥＣＫＥＤ
 41
0.831249989569
  7
EXCADSTD
 72
     5
 11
55.581425823189
 21
29.525433224584
 31
0.0
100
AcDbText
  0
LINE
  5
2A0E
330
29F4
100
AcDbEntity
  8
図枠細線
  6
CONTINUOUS
 62
   252
100
AcDbLine
 10
40.968253864267
 20
34.525431224584
 30
0.0
 11
40.968253864267
 21
19.525431224584
 31
0.0
  0
LINE
  5
2A0F
330
29F4
100
AcDbEntity
  8
図枠細線
  6
CONTINUOUS
 62
   252
100
AcDbLine
 10
40.968253864267
 20
4.525433224584
 30
0.0
 11
40.968253864267
 21
19.525431224584
 31
0.0
  0
TEXT
  5
2A10
330
29F4
100
AcDbEntity
  8
図枠細線
  6
CONTINUOUS
 62
   252
100
AcDbText
 10
41.961173864267
 20
17.025433224584
 30
0.0
 40
2.0
  1
尺度
 41
1.171875
  7
EXCADSTD
 72
     5
 11
46.961173864267
 21
17.025433224584
 31
0.0
100
AcDbText
  0
TEXT
  5
2A11
330
29F4
100
AcDbEntity
  8
図枠細線
  6
CONTINUOUS
 62
   252
100
AcDbText
 10
42.281425990082
 20
32.025433224584
 30
0.0
 40
2.0
  1
検図
 41
1.209677419355
  7
EXCADSTD
 72
     5
 11
47.281425990082
 21
32.025433224584
 31
0.0
100
AcDbText
  0
LINE
  5
2A12
330
29F4
100
AcDbEntity
  8
図枠細線
  6
CONTINUOUS
 62
   252
100
AcDbLine
 10
59.768253864267
 20
34.525431224584
 30
0.0
 11
59.768253864267
 21
19.525431224584
 31
0.0
  0
LINE
  5
2A13
330
29F4
100
AcDbEntity
  8
図枠細線
  6
CONTINUOUS
 62
   252
100
AcDbLine
 10
59.768253864267
 20
4.525433224584
 30
0.0
 11
59.768253864267
 21
19.525431224584
 31
0.0
  0
LINE
  5
2A14
330
29F4
100
AcDbEntity
  8
図枠太線
  6
CONTINUOUS
 62
   251
100
AcDbLine
 10
78.368253864267
 20
4.525433224584
 30
0.0
 11
78.368253864267
 21
34.525431224584
 31
0.0
  0
TEXT
  5
2A15
330
29F4
100
AcDbEntity
  8
図枠細線
  6
CONTINUOUS
 62
   252
100
AcDbText
 10
66.334891743877
 20
17.025433224584
 30
0.0
 40
2.0
  1
ＤＡＴＥ
 41
0.923076923077
  7
EXCADSTD
 72
     5
 11
74.334891743877
 21
17.025433224584
 31
0.0
100
AcDbText
  0
LINE
  5
2A16
330
29F4
100
AcDbEntity
  8
図枠細線
  6
CONTINUOUS
 62
   252
100
AcDbLine
 10
135.368253864267
 20
19.525431224584
 30
0.0
 11
192.368245864267
 21
19.525431224584
 31
0.0
  0
TEXT
  5
2A17
330
29F4
100
AcDbEntity
  8
図枠細線
  6
CONTINUOUS
 62
   252
100
AcDbText
 10
141.868253864267
 20
32.025433224584
 30
0.0
 40
2.0
  1
ＴＩＴＬＥ
 41
0.903614457831
  7
EXCADSTD
 72
     5
 11
151.868253864267
 21
32.025433224584
 31
0.0
100
AcDbText
  0
LINE
  5
2A18
330
29F4
100
AcDbEntity
  8
図枠太線
  6
CONTINUOUS
 62
   251
100
AcDbLine
 10
135.368253864267
 20
4.525433224584
 30
0.0
 11
135.368253864267
 21
34.525431224584
 31
0.0
  0
TEXT
  5
2A19
330
29F4
100
AcDbEntity
  8
図枠細線
  6
CONTINUOUS
 62
   252
100
AcDbText
 10
135.868253864267
 20
17.025433224584
 30
0.0
 40
2.0
  1
図面番号
 41
1.102941176471
  7
EXCADSTD
 72
     5
 11
145.868253864267
 21
17.025433224584
 31
0.0
100
AcDbText
  0
TEXT
  5
2A1A
330
29F4
100
AcDbEntity
  8
図枠細線
  6
CONTINUOUS
 62
   252
100
AcDbText
 10
135.868253864267
 20
32.025433224584
 30
0.0
 40
2.0
  1
名称
 41
1.171875
  7
EXCADSTD
 72
     5
 11
140.868253864267
 21
32.025433224584
 31
0.0
100
AcDbText
  0
TEXT
  5
2A1B
330
29F4
100
AcDbEntity
  8
図枠細線
  6
CONTINUOUS
 62
   252
100
AcDbText
 10
146.868253864267
 20
17.025433224584
 30
0.0
 40
2.0
  1
ＤＲＧ．ＮＯ．
 41
0.9375
  7
EXCADSTD
 72
     5
 11
160.868253864267
 21
17.025433224584
 31
0.0
100
AcDbText
  0
LINE
  5
2A1C
330
29F4
100
AcDbEntity
  8
図枠太線
  6
CONTINUOUS
 62
   251
100
AcDbLine
 10
192.368245864267
 20
4.525433224584
 30
0.0
 11
192.368245864267
 21
34.525431224584
 31
0.0
  0
ENDBLK
  5
2A1D
330
29F4
100
AcDbEntity
  8
0
100
AcDbBlockEnd
  0
BLOCK
  5
2A33
330
2A32
100
AcDbEntity
  8
0
100
AcDbBlockBegin
  2
A3横用_タイトル
 70
     0
 10
0.0
 20
0.0
 30
0.0
  3
A3横用_タイトル
  1
A3横用_タイトル
  0
LINE
  5
2A34
330
2A32
100
AcDbEntity
  8
図枠細線
  6
CONTINUOUS
 62
   252
100
AcDbLine
 10
205.098414535793
 20
33.525959753527
 30
0.0
 11
305.098414535793
 21
33.525959753527
 31
0.0
  0
LINE
  5
2A35
330
2A32
100
AcDbEntity
  8
図枠太線
  6
CONTINUOUS
 62
   251
100
AcDbLine
 10
205.098414535793
 20
23.525959753527
 30
0.0
 11
305.098414535793
 21
23.525959753527
 31
0.0
  0
LINE
  5
2A36
330
2A32
100
AcDbEntity
  8
図枠細線
  6
CONTINUOUS
100
AcDbLine
 10
5.098414535793
 20
23.525959753527
 30
0.0
 11
105.098414535793
 21
23.525959753527
 31
0.0
  0
LINE
  5
2A37
330
2A32
100
AcDbEntity
  8
図枠細線
  6
CONTINUOUS
 62
   252
100
AcDbLine
 10
5.098414535793
 20
36.725957753527
 30
0.0
 11
105.098414535793
 21
36.725957753527
 31
0.0
  0
LINE
  5
2A38
330
2A32
100
AcDbEntity
  8
図枠細線
  6
CONTINUOUS
 62
   252
100
AcDbLine
 10
5.098414535793
 20
30.125957753527
 30
0.0
 11
105.098414535793
 21
30.125957753527
 31
0.0
  0
LINE
  5
2A39
330
2A32
100
AcDbEntity
  8
図枠細線
  6
CONTINUOUS
 62
   252
100
AcDbLine
 10
5.098414535793
 20
16.725959753527
 30
0.0
 11
105.098414535793
 21
16.725959753527
 31
0.0
  0
LINE
  5
2A3A
330
2A32
100
AcDbEntity
  8
図枠細線
  6
CONTINUOUS
 62
   252
100
AcDbLine
 10
5.098414535793
 20
10.125959753527
 30
0.0
 11
105.098414535793
 21
10.125959753527
 31
0.0
  0
LINE
  5
2A3B
330
2A32
100
AcDbEntity
  8
図枠細線
  6
CONTINUOUS
100
AcDbLine
 10
105.098414535793
 20
23.525961753527
 30
0.0
 11
205.098414535793
 21
23.525959753527
 31
0.0
  0
LINE
  5
2A3C
330
2A32
100
AcDbEntity
  8
図枠細線
  6
CONTINUOUS
 62
   252
100
AcDbLine
 10
138.398414535793
 20
43.525959753527
 30
0.0
 11
138.398414535793
 21
18.525957753527
 31
0.0
  0
LINE
  5
2A3D
330
2A32
100
AcDbEntity
  8
図枠細線
  6
CONTINUOUS
 62
   252
100
AcDbLine
 10
171.698414535793
 20
43.525959753527
 30
0.0
 11
171.698414535793
 21
18.525957753527
 31
0.0
  0
LINE
  5
2A3E
330
2A32
100
AcDbEntity
  8
図枠細線
  6
CONTINUOUS
 62
   252
100
AcDbLine
 10
305.098414535793
 20
23.525959753527
 30
0.0
 11
405.098414535793
 21
23.525959753527
 31
0.0
  0
TEXT
  5
2A3F
330
2A32
100
AcDbEntity
  8
図枠ロゴマーク
  6
CONTINUOUS
 62
   253
100
AcDbText
 10
206.102509212755
 20
13.294257570546
 30
0.0
 40
7.0
  1
東和制電工業株式会社
 50
0.016555220185
 41
1.186384129432
  7
EXCADSTD
 72
     5
 11
303.544188309143
 21
13.322412672217
 31
0.0
100
AcDbText
  0
MTEXT
  5
2A40
330
2A32
100
AcDbEntity
  8
図枠細線
100
AcDbMText
 10
6.356764112375
 20
41.976594175478
 30
0.0
 40
2.5
 41
49.938282706292
 71
     1
 72
     5
  1
{\Fmonotxt.shx,bigfont.shx|c128;図暦　CHANGE　NOTICE}
  0
MTEXT
  5
2A41
330
2A32
100
AcDbEntity
  8
図枠細線
 48
10.0
100
AcDbMText
 10
306.544114926828
 20
41.701835800934
 30
0.0
 40
2.5
 41
28.002809618823
 71
     1
 72
     5
  1
{\Fmonotxt.shx,bigfont.shx|c128;名称　TITLE}
  0
MTEXT
  5
2A42
330
2A32
100
AcDbEntity
  8
図枠細線
 48
10.0
100
AcDbMText
 10
307.329617114284
 20
21.606206797226
 30
0.0
 40
2.5
 41
24.385612216707
 71
     1
 72
     5
  1
{\Fmonotxt.shx,bigfont.shx|c128;図面番号\PDRG.　No.}
  0
MTEXT
  5
2A43
330
2A32
100
AcDbEntity
  8
図枠細線
 48
10.0
100
AcDbMText
 10
173.726349404609
 20
21.73680662198
 30
0.0
 40
2.5
 41
25.735090160813
 71
     1
 72
     5
  1
{\Fmonotxt.shx,bigfont.shx|c128;日付 DATE}
  0
MTEXT
  5
2A44
330
2A32
100
AcDbEntity
  8
図枠細線
 48
10.0
100
AcDbMText
 10
173.48708833982
 20
41.621592044998
 30
0.0
 40
2.5
 41
24.983741184205
 71
     1
 72
     5
  1
{\Fmonotxt.shx,bigfont.shx|c128;製図　DRAWN}
  0
MTEXT
  5
2A45
330
2A32
100
AcDbEntity
  8
図枠細線
 48
10.0
100
AcDbMText
 10
139.28009927741
 20
21.866713069868
 30
0.0
 40
2.5
 41
22.629632913243
 71
     1
 72
     5
  1
{\Fmonotxt.shx,bigfont.shx|c128;尺度　SCALE}
  0
MTEXT
  5
2A46
330
2A32
100
AcDbEntity
  8
図枠細線
 48
10.0
100
AcDbMText
 10
139.910091179835
 20
41.311840415554
 30
0.0
 40
2.5
 41
28.998753428368
 71
     1
 72
     5
  1
{\Fmonotxt.shx,bigfont.shx|c128;検図  CHECKED}
  0
MTEXT
  5
2A47
330
2A32
100
AcDbEntity
  8
図枠細線
 48
10.0
100
AcDbMText
 10
114.253294667728
 20
21.916124850174
 30
0.0
 40
3.0
 41
19.692400475383
 71
     1
 72
     5
  1
{\Fmonotxt.shx,bigfont.shx|c128;第三角法}
  0
MTEXT
  5
2A48
330
2A32
100
AcDbEntity
  8
図枠細線
 48
10.0
100
AcDbMText
 10
108.986959929915
 20
15.282880185837
 30
0.0
 40
2.5
 41
27.954882823547
 71
     1
 72
     5
  1
{\Fmonotxt.shx,bigfont.shx|c128;THIRD ANGLE\PPROJECTION}
  0
MTEXT
  5
2A49
330
2A32
100
AcDbEntity
  8
図枠細線
 48
10.0
100
AcDbMText
 10
106.319432640184
 20
41.511437145487
 30
0.0
 40
2.5
 41
28.233595265074
 71
     1
 72
     5
  1
{\Fmonotxt.shx,bigfont.shx|c128;承認 APPROVED}
  0
LINE
  5
2A4A
330
2A32
100
AcDbEntity
  8
図枠太線
  6
CONTINUOUS
 62
   251
100
AcDbLine
 10
5.098414535793
 20
3.525959753527
 30
0.0
 11
405.098414535793
 21
3.525959753527
 31
0.0
  0
LINE
  5
2A4B
330
2A32
100
AcDbEntity
  8
図枠太線
 48
10.0
100
AcDbLine
 10
5.098414535793
 20
3.525959753527
 30
0.0
 11
5.098414535793
 21
43.525959753527
 31
0.0
  0
LINE
  5
2A4C
330
2A32
100
AcDbEntity
  8
図枠太線
  6
CONTINUOUS
 62
   251
100
AcDbLine
 10
105.098414535793
 20
3.525959753527
 30
0.0
 11
105.098414535793
 21
43.525959753527
 31
0.0
  0
LINE
  5
2A4D
330
2A32
100
AcDbEntity
  8
図枠細線
  6
CONTINUOUS
 62
   252
100
AcDbLine
 10
138.398414535793
 20
3.525959753527
 30
0.0
 11
138.398414535793
 21
18.525957753527
 31
0.0
  0
LINE
  5
2A4E
330
2A32
100
AcDbEntity
  8
図枠細線
  6
CONTINUOUS
 62
   252
100
AcDbLine
 10
171.698414535793
 20
3.525959753527
 30
0.0
 11
171.698414535793
 21
18.525957753527
 31
0.0
  0
LINE
  5
2A4F
330
2A32
100
AcDbEntity
  8
図枠太線
  6
CONTINUOUS
 62
   251
100
AcDbLine
 10
205.098414535793
 20
3.525959753527
 30
0.0
 11
205.098414535793
 21
43.525959753527
 31
0.0
  0
LINE
  5
2A50
330
2A32
100
AcDbEntity
  8
図枠太線
 48
10.0
100
AcDbLine
 10
405.098414535793
 20
43.525959753527
 30
0.0
 11
405.098414535793
 21
3.525959753527
 31
0.0
  0
TEXT
  5
2A51
330
2A32
100
AcDbEntity
  8
図枠細線
  6
CONTINUOUS
 62
   252
100
AcDbText
 10
208.519754474572
 20
6.482358407285
 30
0.0
 40
3.5
  1
ＴＯＷＡ　ＳＥＩＤＥＮ　ＩＮＤＵＳＴＲＩＡＬ　ＣＯ．，ＬＴＤ．
 41
0.746656297509
  7
EXCADSTD
 72
     5
 11
303.295327171727
 21
6.482358407285
 31
0.0
100
AcDbText
  0
LINE
  5
2A52
330
2A32
100
AcDbEntity
  8
図枠太線
  6
CONTINUOUS
 62
   251
100
AcDbLine
 10
305.098414535793
 20
3.525959753527
 30
0.0
 11
305.098414535793
 21
43.525959753527
 31
0.0
  0
ENDBLK
  5
2A53
330
2A32
100
AcDbEntity
  8
0
100
AcDbBlockEnd
  0
BLOCK
  5
2A6D
330
2A6C
100
AcDbEntity
  8
0
100
AcDbBlockBegin
  2
A3縦用_タイトル
 70
     0
 10
0.0
 20
0.0
 30
0.0
  3
A3縦用_タイトル
  1
A3縦用_タイトル
  0
MTEXT
  5
2A6E
330
2A6C
100
AcDbEntity
  8
図枠細線
100
AcDbMText
 10
5.040804501593
 20
31.626098649005
 30
0.0
 40
2.5
 41
49.938282706292
 71
     1
 72
     5
  1
{\Fmonotxt.shx,bigfont.shx|c128;図暦　CHANGE　NOTICE}
  0
LINE
  5
2A6F
330
2A6C
100
AcDbEntity
  8
図枠太線
  6
CONTINUOUS
 62
   251
100
AcDbLine
 10
283.577871882961
 20
2.820844689254
 30
0.0
 11
283.577871882961
 21
32.820842689254
 31
0.0
  0
MTEXT
  5
2A70
330
2A6C
100
AcDbEntity
  8
図枠細線
 48
10.0
100
AcDbMText
 10
214.912458947454
 20
31.621488632308
 30
0.0
 40
2.5
 41
28.002809618823
 71
     1
 72
     5
  1
{\Fmonotxt.shx,bigfont.shx|c128;名称　TITLE}
  0
MTEXT
  5
2A71
330
2A6C
100
AcDbEntity
  8
図枠細線
 48
10.0
100
AcDbMText
 10
214.740030458938
 20
16.310225796722
 30
0.0
 40
2.5
 41
24.385612216707
 71
     1
 72
     5
  1
{\Fmonotxt.shx,bigfont.shx|c128;図面番号\PDRG.　No.}
  0
LINE
  5
2A72
330
2A6C
100
AcDbEntity
  8
図枠太線
  6
CONTINUOUS
 62
   251
100
AcDbLine
 10
213.577871882961
 20
2.820844689254
 30
0.0
 11
213.577871882961
 21
32.820842689254
 31
0.0
  0
LINE
  5
2A73
330
2A6C
100
AcDbEntity
  8
図枠太線
  6
CONTINUOUS
 62
   251
100
AcDbLine
 10
143.577871882961
 20
2.820844689254
 30
0.0
 11
143.577871882961
 21
32.820842689254
 31
0.0
  0
TEXT
  5
2A74
330
2A6C
100
AcDbEntity
  8
図枠細線
  6
CONTINUOUS
 62
   252
100
AcDbText
 10
145.716454488093
 20
4.468335689254
 30
0.0
 40
3.5
  1
ＴＯＷＡ　ＳＥＩＤＥＮ　ＩＮＤＵＳＴＲＩＡＬ　ＣＯ．，ＬＴＤ．
 41
0.528937826907
  7
EXCADSTD
 72
     5
 11
212.856295983498
 21
4.468335689254
 31
0.0
100
AcDbText
  0
TEXT
  5
2A75
330
2A6C
100
AcDbEntity
  8
図枠ロゴマーク
  6
CONTINUOUS
 62
   253
100
AcDbText
 10
145.950637593507
 20
9.413236689254
 30
0.0
 40
7.0
  1
東和制電工業株式会社
 41
0.80361088462
  7
EXCADSTD
 72
     5
 11
211.953878250259
 21
9.413236689254
 31
0.0
100
AcDbText
  0
LINE
  5
2A76
330
2A6C
100
AcDbEntity
  8
図枠細線
  6
CONTINUOUS
 62
   252
100
AcDbLine
 10
143.577871882961
 20
25.320842689254
 30
0.0
 11
213.577871882961
 21
25.320842689254
 31
0.0
  0
LINE
  5
2A77
330
2A6C
100
AcDbEntity
  8
図枠太線
  6
CONTINUOUS
 62
   251
100
AcDbLine
 10
143.577863882961
 20
17.820842689254
 30
0.0
 11
213.577871882961
 21
17.820842689254
 31
0.0
  0
LINE
  5
2A78
330
2A6C
100
AcDbEntity
  8
図枠細線
  6
CONTINUOUS
 62
   252
100
AcDbLine
 10
213.577871882961
 20
17.820842689254
 30
0.0
 11
283.577871882961
 21
17.820842689254
 31
0.0
  0
LINE
  5
2A79
330
2A6C
100
AcDbEntity
  8
図枠細線
  6
CONTINUOUS
 62
   252
100
AcDbLine
 10
120.577871882961
 20
32.820842689254
 30
0.0
 11
120.577871882961
 21
17.820842689254
 31
0.0
  0
MTEXT
  5
2A7A
330
2A6C
100
AcDbEntity
  8
図枠細線
 48
10.0
100
AcDbMText
 10
121.100885670352
 20
16.33785922638
 30
0.0
 40
2.0
 41
17.705978285068
 71
     1
 72
     5
  1
{\Fmonotxt.shx,bigfont.shx|c128;日付 DATE}
  0
MTEXT
  5
2A7B
330
2A6C
100
AcDbEntity
  8
図枠細線
 48
10.0
100
AcDbMText
 10
121.254842273491
 20
31.208993514037
 30
0.0
 40
2.0
 41
18.363799568758
 71
     1
 72
     5
  1
{\Fmonotxt.shx,bigfont.shx|c128;製図　DRAWN}
  0
LINE
  5
2A7C
330
2A6C
100
AcDbEntity
  8
図枠細線
  6
CONTINUOUS
 62
   252
100
AcDbLine
 10
97.577871882961
 20
32.820842689254
 30
0.0
 11
97.577871882961
 21
17.820842689254
 31
0.0
  0
MTEXT
  5
2A7D
330
2A6C
100
AcDbEntity
  8
図枠細線
 48
10.0
100
AcDbMText
 10
98.239734796872
 20
16.467764839281
 30
0.0
 40
2.0
 41
17.757791689903
 71
     1
 72
     5
  1
{\Fmonotxt.shx,bigfont.shx|c128;尺度　SCALE}
  0
MTEXT
  5
2A7E
330
2A6C
100
AcDbEntity
  8
図枠細線
 48
10.0
100
AcDbMText
 10
97.864744625154
 20
31.298433377664
 30
0.0
 40
2.0
 41
23.162655920976
 71
     1
 72
     5
  1
{\Fmonotxt.shx,bigfont.shx|c128;検図  CHECKED}
  0
LINE
  5
2A7F
330
2A6C
100
AcDbEntity
  8
図枠細線
  6
CONTINUOUS
 62
   252
100
AcDbLine
 10
97.577871882961
 20
2.820843367826
 30
0.0
 11
97.577871882961
 21
17.820841367826
 31
0.0
  0
LINE
  5
2A80
330
2A6C
100
AcDbEntity
  8
図枠細線
  6
CONTINUOUS
 62
   252
100
AcDbLine
 10
120.577871882961
 20
2.820844010683
 30
0.0
 11
120.577871882961
 21
17.820842010683
 31
0.0
  0
MTEXT
  5
2A81
330
2A6C
100
AcDbEntity
  8
図枠細線
 48
10.0
100
AcDbMText
 10
81.402399084102
 20
16.316484117426
 30
0.0
 40
2.0
 41
12.920322819369
 71
     1
 72
     5
  1
{\Fmonotxt.shx,bigfont.shx|c128;第三角法}
  0
MTEXT
  5
2A82
330
2A6C
100
AcDbEntity
  8
図枠細線
 48
10.0
100
AcDbMText
 10
75.736576535096
 20
11.080410931319
 30
0.0
 40
2.0
 41
21.072870671471
 71
     1
 72
     5
  1
{\Fmonotxt.shx,bigfont.shx|c128;THIRD ANGLE\PPROJECTION}
  0
LINE
  5
2A83
330
2A6C
100
AcDbEntity
  8
図枠太線
  6
CONTINUOUS
 62
   251
100
AcDbLine
 10
74.577871882961
 20
2.820844689254
 30
0.0
 11
74.577871882961
 21
32.820842689254
 31
0.0
  0
MTEXT
  5
2A84
330
2A6C
100
AcDbEntity
  8
図枠細線
 48
10.0
100
AcDbMText
 10
75.060214781573
 20
31.298434778555
 30
0.0
 40
2.0
 41
22.240928805967
 71
     1
 72
     5
  1
{\Fmonotxt.shx,bigfont.shx|c128;承認 APPROVED}
  0
LINE
  5
2A85
330
2A6C
100
AcDbEntity
  8
図枠細線
  6
CONTINUOUS
100
AcDbLine
 10
3.577871882961
 20
17.820844689254
 30
0.0
 11
74.577871882961
 21
17.820844689254
 31
0.0
  0
LINE
  5
2A86
330
2A6C
100
AcDbEntity
  8
図枠細線
  6
CONTINUOUS
 62
   252
100
AcDbLine
 10
3.577871882961
 20
27.820842689254
 30
0.0
 11
74.577871882961
 21
27.820842689254
 31
0.0
  0
LINE
  5
2A87
330
2A6C
100
AcDbEntity
  8
図枠細線
  6
CONTINUOUS
 62
   252
100
AcDbLine
 10
3.577871882961
 20
22.820842689254
 30
0.0
 11
74.577871882961
 21
22.820842689254
 31
0.0
  0
LINE
  5
2A88
330
2A6C
100
AcDbEntity
  8
図枠細線
  6
CONTINUOUS
 62
   252
100
AcDbLine
 10
3.577871882961
 20
12.820842689254
 30
0.0
 11
74.577871882961
 21
12.820842689254
 31
0.0
  0
LINE
  5
2A89
330
2A6C
100
AcDbEntity
  8
図枠細線
  6
CONTINUOUS
 62
   252
100
AcDbLine
 10
3.577871882961
 20
7.820844689254
 30
0.0
 11
74.577871882961
 21
7.820844689254
 31
0.0
  0
LINE
  5
2A8A
330
2A6C
100
AcDbEntity
  8
図枠細線
  6
CONTINUOUS
100
AcDbLine
 10
74.577871882961
 20
17.820843689254
 30
0.0
 11
143.577871882961
 21
17.820841224969
 31
0.0
  0
LINE
  5
2A8B
330
2A6C
100
AcDbEntity
  8
図枠太線
  6
CONTINUOUS
 62
   251
100
AcDbLine
 10
3.577871882961
 20
2.820844689254
 30
0.0
 11
283.577871882961
 21
2.820844689254
 31
0.0
  0
LINE
  5
2A8C
330
2A6C
100
AcDbEntity
  8
図枠太線
  6
CONTINUOUS
 62
   251
100
AcDbLine
 10
3.577871882961
 20
2.820844689254
 30
0.0
 11
3.577871882961
 21
32.820842689254
 31
0.0
  0
ENDBLK
  5
2A8D
330
2A6C
100
AcDbEntity
  8
0
100
AcDbBlockEnd
  0
BLOCK
  5
2AF8
330
2AF4
100
AcDbEntity
  8
0
 48
10.0
100
AcDbBlockBegin
  2
_OPEN30
 70
     0
 10
0.0
 20
0.0
 30
0.0
  3
_OPEN30
  1
_OPEN30
  0
LINE
  5
2AF5
330
2AF4
100
AcDbEntity
  8
0
  6
BYBLOCK
 62
     0
100
AcDbLine
 10
-1.0
 20
0.26794919
 30
0.0
 11
0.0
 21
0.0
 31
0.0
  0
LINE
  5
2AF6
330
2AF4
100
AcDbEntity
  8
0
  6
BYBLOCK
 62
     0
100
AcDbLine
 10
0.0
 20
0.0
 30
0.0
 11
-1.0
 21
-0.26794919
 31
0.0
  0
LINE
  5
2AF7
330
2AF4
100
AcDbEntity
  8
0
  6
BYBLOCK
 62
     0
100
AcDbLine
 10
0.0
 20
0.0
 30
0.0
 11
-1.0
 21
0.0
 31
0.0
  0
ENDBLK
  5
2AF9
330
2AF4
100
AcDbEntity
  8
0
 48
10.0
100
AcDbBlockEnd
  0
BLOCK
  5
2F40
330
2F3F
100
AcDbEntity
  8
0
 48
10.0
100
AcDbBlockBegin
  2
ケース外形図_HL-400
 70
     0
 10
0.0
 20
0.0
 30
0.0
  3
ケース外形図_HL-400
  1
ケース外形図_HL-400
  0
LINE
  5
2F41
330
2F3F
100
AcDbEntity
  8
外形線
100
AcDbLine
 10
-3016.68737612191
 20
-628.620502022639
 30
0.0
 11
-3004.68737612191
 21
-628.620502022639
 31
0.0
  0
LINE
  5
2F42
330
2F3F
100
AcDbEntity
  8
外形線
100
AcDbLine
 10
-3004.68737612191
 20
-556.620502022639
 30
0.0
 11
-3019.68737612191
 21
-556.620502022639
 31
0.0
  0
LINE
  5
2F43
330
2F3F
100
AcDbEntity
  8
中心線
 48
10.0
100
AcDbLine
 10
-3031.837385121911
 20
-613.830661022639
 30
0.0
 11
-3031.837385121911
 21
-669.264280022639
 31
0.0
  0
LINE
  5
2F44
330
2F3F
100
AcDbEntity
  8
外形線
100
AcDbLine
 10
-3036.074903121911
 20
-666.232883395172
 30
0.0
 11
-3036.074903121911
 21
-653.049280022639
 31
0.0
  0
LINE
  5
2F45
330
2F3F
100
AcDbEntity
  8
外形線
100
AcDbLine
 10
-3027.67493912191
 20
-666.232883395172
 30
0.0
 11
-3027.67493912191
 21
-653.049280022639
 31
0.0
  0
ARC
  5
2F46
330
2F3F
100
AcDbEntity
  8
細線
100
AcDbCircle
 10
-3033.974910933263
 20
-662.595590228936
 30
0.0
 40
4.199982
100
AcDbArc
 50
239.999981276042
 51
299.999981276021
  0
ARC
  5
2F47
330
2F3F
100
AcDbEntity
  8
細線
100
AcDbCircle
 10
-3029.774928933263
 20
-662.595591601467
 30
0.0
 40
4.199982
100
AcDbArc
 50
239.999981276042
 51
299.999981276021
  0
ARC
  5
2F48
330
2F3F
100
AcDbEntity
  8
細線
100
AcDbCircle
 10
-3029.774931310559
 20
-669.870173816342
 30
0.0
 40
4.199982
100
AcDbArc
 50
59.999981276042
 51
119.999981276021
  0
LINE
  5
2F49
330
2F3F
100
AcDbEntity
  8
外形線
100
AcDbLine
 10
-3015.18737612191
 20
-556.620502022639
 30
0.0
 11
-3015.18737612191
 21
-628.620502022639
 31
0.0
  0
LINE
  5
2F4A
330
2F3F
100
AcDbEntity
  8
外形線
100
AcDbLine
 10
-3016.68737612191
 20
-629.295475022639
 30
0.0
 11
-3016.68737612191
 21
-556.620502022639
 31
0.0
  0
LINE
  5
2F4B
330
2F3F
100
AcDbEntity
  8
外形線
100
AcDbLine
 10
-3019.68737612191
 20
-556.620502022639
 30
0.0
 11
-3019.68737612191
 21
-618.495502022639
 31
0.0
  0
LINE
  5
2F4C
330
2F3F
100
AcDbEntity
  8
外形線
100
AcDbLine
 10
-3046.687376121911
 20
-623.745502022639
 30
0.0
 11
-3046.687376121911
 21
-562.245502022639
 31
0.0
  0
LINE
  5
2F4D
330
2F3F
100
AcDbEntity
  8
外形線
100
AcDbLine
 10
-3038.779444758647
 20
-628.97627357689
 30
0.0
 11
-3045.721504395382
 21
-634.988273576889
 31
0.0
  0
LINE
  5
2F4E
330
2F3F
100
AcDbEntity
  8
外形線
100
AcDbLine
 10
-3024.895325485175
 20
-628.97627357689
 30
0.0
 11
-3017.953265848439
 21
-634.988273576889
 31
0.0
  0
LINE
  5
2F4F
330
2F3F
100
AcDbEntity
  8
外形線
100
AcDbLine
 10
-3024.895325485175
 20
-637.653848122809
 30
0.0
 11
-3024.895325485175
 21
-628.97627357689
 31
0.0
  0
LINE
  5
2F50
330
2F3F
100
AcDbEntity
  8
外形線
100
AcDbLine
 10
-3038.779444758647
 20
-637.653848122809
 30
0.0
 11
-3038.779444758647
 21
-628.97627357689
 31
0.0
  0
LWPOLYLINE
  5
2F51
330
2F3F
100
AcDbEntity
  8
外形線
100
AcDbPolyline
 90
       47
 70
     0
 43
0.0
 10
-3027.674940621911
 20
-654.14058768542
 10
-3027.215686831012
 20
-654.025717241066
 10
-3026.807069333743
 20
-653.89949762322
 10
-3026.45356502891
 20
-653.763311720429
 10
-3026.159046983652
 20
-653.618651613941
 10
-3025.926741999306
 20
-653.467102230155
 10
-3025.759195257892
 20
-653.310323975836
 10
-3025.658242436573
 20
-653.150034546342
 10
-3025.624989595581
 20
-652.98799010621
 10
-3025.659801060005
 20
-652.825966048232
 10
-3025.762295428152
 20
-652.665737541894
 10
-3025.931349750279
 20
-652.509060084243
 10
-3026.165111831855
 20
-652.357650266292
 10
-3026.461020526596
 20
-652.213166965689
 10
-3026.815833796919
 20
-652.077193171712
 10
-3027.225664234388
 20
-651.951218641701
 10
-3027.686021650964
 20
-651.836623578969
 10
-3028.191862274455
 20
-651.734663511005
 10
-3028.737644009139
 20
-651.646455533648
 10
-3029.317387156118
 20
-651.572966071958
 10
-3029.924739928152
 20
-651.515000291856
 10
-3030.553048041176
 20
-651.473193278559
 10
-3031.195427620021
 20
-651.448003078454
 10
-3031.844840619596
 20
-651.439705680642
 10
-3032.494171935177
 20
-651.448391993153
 10
-3033.136307356992
 20
-651.473966846927
 10
-3033.764211514982
 20
-651.516150038516
 10
-3034.371004959794
 20
-651.574479400044
 10
-3034.950039535468
 20
-651.648315862822
 10
-3035.494971218024
 20
-651.73685045911
 10
-3035.999829621911
 20
-651.839113185344
 10
-3036.459083412808
 20
-651.953983629698
 10
-3036.867700910077
 20
-652.080203247544
 10
-3037.221205214912
 20
-652.216389150335
 10
-3037.515723260169
 20
-652.361049256823
 10
-3037.748028244515
 20
-652.512598640609
 10
-3037.915574985928
 20
-652.669376894928
 10
-3038.016527807249
 20
-652.829666324421
 10
-3038.04978064824
 20
-652.991710764555
 10
-3038.014969183816
 20
-653.153734822532
 10
-3037.912474815669
 20
-653.313963328869
 10
-3037.743420493542
 20
-653.470640786521
 10
-3037.509658411966
 20
-653.622050604471
 10
-3037.213749717225
 20
-653.766533905074
 10
-3036.858936446901
 20
-653.902507699052
 10
-3036.449106009434
 20
-654.028482229064
 10
-3036.07490312191
 20
-654.123399110931
  0
ARC
  5
2F52
330
2F3F
100
AcDbEntity
  8
外形線
100
AcDbCircle
 10
-3031.837385121911
 20
-620.803069368681
 30
0.0
 40
34.15159996140045
100
AcDbArc
 50
255.26831657715
 51
262.87239111701
  0
LWPOLYLINE
  5
2F53
330
2F3F
100
AcDbEntity
  8
外形線
100
AcDbPolyline
 90
       34
 70
     0
 43
0.0
 10
-3020.164085121911
 20
-645.574914522911
 10
-3020.217826679511
 20
-645.015496411464
 10
-3020.378556521371
 20
-644.461229200047
 10
-3020.644794710875
 20
-643.917216361246
 10
-3021.014089832395
 20
-643.388466949451
 10
-3021.483041562971
 20
-642.879849479472
 10
-3022.047331981114
 20
-642.39604709919
 10
-3022.701765324525
 20
-641.941514468981
 10
-3023.440315830619
 20
-641.520436744971
 10
-3024.256183219338
 20
-641.136691043792
 10
-3025.141855307454
 20
-640.793810743611
 10
-3026.089177177755
 20
-640.494952950203
 10
-3027.089426266293
 20
-640.242869427561
 10
-3028.133392676296
 20
-640.039881260751
 10
-3029.211463979238
 20
-639.887857484282
 10
-3030.313713722268
 20
-639.788197872775
 10
-3031.429992827054
 20
-639.74182005239
 10
-3032.550023038462
 20
-639.749151051702
 10
-3033.663491562665
 20
-639.810123369776
 10
-3034.760146023239
 20
-639.924175597698
 10
-3035.829888860994
 20
-640.090257587801
 10
-3036.862870308282
 20
-640.30684012301
 10
-3037.849579081758
 20
-640.571928997268
 10
-3038.780929958494
 20
-640.88308337739
 10
-3039.64834742912
 20
-641.237438277289
 10
-3040.443844657696
 20
-641.631730937631
 10
-3041.160097021345
 20
-642.062330868031
 10
-3041.790509552464
 20
-642.525273275162
 10
-3042.329277662574
 20
-643.016295569004
 10
-3042.771440588665
 20
-643.530876611082
 10
-3043.112927069931
 20
-644.064278343314
 10
-3043.350592834335
 20
-644.611589414165
 10
-3043.482249549808
 20
-645.167770400432
 10
-3043.510685121911
 20
-645.574914522911
  0
ARC
  5
2F54
330
2F3F
100
AcDbEntity
  8
外形線
100
AcDbCircle
 10
-3031.837385121911
 20
-625.986454710612
 30
0.0
 40
13.57645981229912
100
AcDbArc
 50
239.247497502359
 51
300.752502497641
  0
LINE
  5
2F55
330
2F3F
100
AcDbEntity
  8
外形線
100
AcDbLine
 10
-3043.510685121911
 20
-645.574914522911
 30
0.0
 11
-3043.510685121911
 21
-649.955767263438
 31
0.0
  0
ARC
  5
2F56
330
2F3F
100
AcDbEntity
  8
外形線
100
AcDbCircle
 10
-3039.502685121911
 20
-649.955767263438
 30
0.0
 40
4.007999999999999
100
AcDbArc
 50
180.0
 51
255.26831657715
  0
ARC
  5
2F57
330
2F3F
100
AcDbEntity
  8
外形線
100
AcDbCircle
 10
-3046.230136312884
 20
-636.064530573833
 30
0.0
 40
7.618315752702329
100
AcDbArc
 50
273.828163206421
 51
347.958626091838
  0
LINE
  5
2F58
330
2F3F
100
AcDbEntity
  8
外形線
100
AcDbLine
 10
-3043.513436239113
 20
-645.578091239426
 30
0.0
 11
-3045.721504395382
 21
-643.665848122809
 31
0.0
  0
LINE
  5
2F59
330
2F3F
100
AcDbEntity
  8
外形線
100
AcDbLine
 10
-3045.721504395382
 20
-634.988273576889
 30
0.0
 11
-3045.721504395382
 21
-643.665848122809
 31
0.0
  0
LINE
  5
2F5A
330
2F3F
100
AcDbEntity
  8
外形線
100
AcDbLine
 10
-3020.164085121911
 20
-645.574914522911
 30
0.0
 11
-3020.164085121911
 21
-649.955767263438
 31
0.0
  0
LWPOLYLINE
  5
2F5B
330
2F3F
100
AcDbEntity
  8
外形線
100
AcDbPolyline
 90
       29
 70
     0
 43
0.0
 10
-3027.674940621911
 20
-653.049280022638
 10
-3027.701938707542
 20
-652.947308555312
 10
-3027.782585869251
 20
-652.846648062603
 10
-3027.915845283851
 20
-652.748592664861
 10
-3028.100003729843
 20
-652.654402990584
 10
-3028.332693613086
 20
-652.56528996941
 10
-3028.610923405278
 20
-652.482399264063
 10
-3028.9311161039
 20
-652.406796541377
 10
-3029.289155219196
 20
-652.339453771776
 10
-3029.680437696951
 20
-652.281236733347
 10
-3030.099933096692
 20
-652.232893881137
 10
-3030.542248264472
 20
-652.195046724809
 10
-3031.001696668819
 20
-652.16818183833
 10
-3031.472371508433
 20
-652.152644604435
 10
-3031.948221651714
 20
-652.148634774287
 10
-3032.423129431869
 20
-652.15620389942
 10
-3032.890989297393
 20
-652.175254668977
 10
-3033.345786306812
 20
-652.205542160767
 10
-3033.781673458494
 20
-652.246676990049
 10
-3034.193046861402
 20
-652.298130315587
 10
-3034.574617780326
 20
-652.359240638577
 10
-3034.921480629393
 20
-652.429222307066
 10
-3035.229176039693
 20
-652.507175616524
 10
-3035.493748190218
 20
-652.592098376703
 10
-3035.711795665032
 20
-652.682898796086
 10
-3035.88051518286
 20
-652.778409518273
 10
-3035.997737636882
 20
-652.877402629852
 10
-3036.061955981389
 20
-652.9786054468
 10
-3036.07490312191
 20
-653.049280022638
  0
ARC
  5
2F5C
330
2F3F
100
AcDbEntity
  8
外形線
100
AcDbCircle
 10
-3031.837385121911
 20
-620.803069368681
 30
0.0
 40
34.15159996140045
100
AcDbArc
 50
277.000695446903
 51
284.73168342285
  0
ARC
  5
2F5D
330
2F3F
100
AcDbEntity
  8
外形線
100
AcDbCircle
 10
-3024.172085121911
 20
-649.955767263438
 30
0.0
 40
4.007999999999999
100
AcDbArc
 50
284.73168342285
 51
0.0
  0
LINE
  5
2F5E
330
2F3F
100
AcDbEntity
  8
外形線
100
AcDbLine
 10
-3020.161334004708
 20
-645.578091239426
 30
0.0
 11
-3017.953265848439
 21
-643.665848122809
 31
0.0
  0
ARC
  5
2F5F
330
2F3F
100
AcDbEntity
  8
外形線
100
AcDbCircle
 10
-3017.444633930937
 20
-636.064530573833
 30
0.0
 40
7.618315752702329
100
AcDbArc
 50
192.041373908162
 51
266.171836793579
  0
LINE
  5
2F60
330
2F3F
100
AcDbEntity
  8
外形線
100
AcDbLine
 10
-3017.953265848439
 20
-643.665848122809
 30
0.0
 11
-3017.953265848439
 21
-634.988273576889
 31
0.0
  0
LWPOLYLINE
  5
2F61
330
2F3F
100
AcDbEntity
  8
外形線
100
AcDbPolyline
 90
       34
 70
     0
 43
0.0
 10
-3021.33893012191
 20
-629.269370629074
 10
-3021.387262926182
 20
-628.898532694609
 10
-3021.531816309708
 20
-628.531109288718
 10
-3021.771259282285
 20
-628.170483500357
 10
-3022.103387148015
 20
-627.819975828711
 10
-3022.525141805277
 20
-627.482813609361
 10
-3023.032639904511
 20
-627.162101298261
 10
-3023.621208604563
 20
-626.860791887133
 10
-3024.285428598347
 20
-626.581659713495
 10
-3025.019184011678
 20
-626.32727491566
 10
-3025.815718715819
 20
-626.099979767924
 10
-3026.667698535225
 20
-625.901867113831
 10
-3027.567278777729
 20
-625.734761096102
 10
-3028.506176465351
 20
-625.600200360651
 10
-3029.475746600679
 20
-625.499423889346
 10
-3030.467061766568
 20
-625.433359591953
 10
-3031.470994326257
 20
-625.402615762313
 10
-3032.478300467033
 20
-625.40747547741
 10
-3033.479705313585
 20
-625.44789399092
 10
-3034.465988327376
 20
-625.5234991452
 10
-3035.428068205709
 20
-625.633594797989
 10
-3036.357086498752
 20
-625.777167232194
 10
-3037.24448917464
 20
-625.952894489799
 10
-3038.082105381594
 20
-626.159158543935
 10
-3038.862222681892
 20
-626.394060197024
 10
-3039.577658064932
 20
-626.655436567837
 10
-3040.221824085545
 20
-626.940881006447
 10
-3040.788789518574
 20
-627.247765253711
 10
-3041.27333397125
 20
-627.57326364123
 10
-3041.670995950487
 20
-627.91437910899
 10
-3041.978113942544
 20
-628.267970801094
 10
-3042.191860126797
 20
-628.630782985528
 10
-3042.310266413181
 20
-628.99947503163
 10
-3042.335840121911
 20
-629.269370629074
  0
LINE
  5
2F62
330
2F3F
100
AcDbEntity
  8
外形線
100
AcDbLine
 10
-3038.779444758647
 20
-628.97627357689
 30
0.0
 11
-3024.895325485175
 21
-628.97627357689
 31
0.0
  0
LINE
  5
2F63
330
2F3F
100
AcDbEntity
  8
外形線
100
AcDbLine
 10
-3038.779444758647
 20
-620.298699030969
 30
0.0
 11
-3024.895325485175
 21
-620.298699030969
 31
0.0
  0
LINE
  5
2F64
330
2F3F
100
AcDbEntity
  8
外形線
100
AcDbLine
 10
-3038.779444758647
 20
-624.637486303929
 30
0.0
 11
-3024.895325485175
 21
-624.637486303929
 31
0.0
  0
LINE
  5
2F65
330
2F3F
100
AcDbEntity
  8
外形線
100
AcDbLine
 10
-3016.68737612191
 20
-618.495502022639
 30
0.0
 11
-3039.78736712191
 21
-618.495502022639
 31
0.0
  0
LINE
  5
2F66
330
2F3F
100
AcDbEntity
  8
外形線
100
AcDbLine
 10
-3039.468583886739
 20
-620.895511022639
 30
0.0
 11
-3042.187376121911
 21
-620.895511022639
 31
0.0
  0
LINE
  5
2F67
330
2F3F
100
AcDbEntity
  8
外形線
100
AcDbLine
 10
-3045.721504395382
 20
-626.310699030969
 30
0.0
 11
-3038.779444758647
 21
-620.298699030969
 31
0.0
  0
ARC
  5
2F68
330
2F3F
100
AcDbEntity
  8
外形線
100
AcDbCircle
 10
-3039.78736712191
 20
-623.895511022639
 30
0.0
 40
5.4
100
AcDbArc
 50
89.999981276021
 51
180.00001984784
  0
LINE
  5
2F69
330
2F3F
100
AcDbEntity
  8
外形線
100
AcDbLine
 10
-3038.779444758647
 20
-624.637486303929
 30
0.0
 11
-3045.721504395382
 21
-630.649486303929
 31
0.0
  0
ARC
  5
2F6A
330
2F3F
100
AcDbEntity
  8
外形線
100
AcDbCircle
 10
-3042.187376121911
 20
-623.895511022639
 30
0.0
 40
3.0
100
AcDbArc
 50
89.999981276021
 51
211.533239298809
  0
ARC
  5
2F6B
330
2F3F
100
AcDbEntity
  8
外形線
100
AcDbCircle
 10
-3043.687376121911
 20
-623.745502022639
 30
0.0
 40
3.0
100
AcDbArc
 50
180.00001984784
 51
232.575749003279
  0
LINE
  5
2F6C
330
2F3F
100
AcDbEntity
  8
外形線
100
AcDbLine
 10
-3043.216504395382
 20
-632.818879940409
 30
0.0
 11
-3045.721504395382
 21
-630.649486303929
 31
0.0
  0
LINE
  5
2F6D
330
2F3F
100
AcDbEntity
  8
外形線
100
AcDbLine
 10
-3042.335840121911
 20
-629.269370629074
 30
0.0
 11
-3042.335840121911
 21
-632.056202307377
 31
0.0
  0
LINE
  5
2F6E
330
2F3F
100
AcDbEntity
  8
外形線
100
AcDbLine
 10
-3045.721504395382
 20
-630.649486303929
 30
0.0
 11
-3045.721504395382
 21
-626.310699030969
 31
0.0
  0
LINE
  5
2F6F
330
2F3F
100
AcDbEntity
  8
細線
100
AcDbLine
 10
-3040.980635121911
 20
-630.882560350041
 30
0.0
 11
-3040.980635121911
 21
-627.331019140395
 31
0.0
  0
LINE
  5
2F70
330
2F3F
100
AcDbEntity
  8
外形線
100
AcDbLine
 10
-3038.779444758647
 20
-624.637486303929
 30
0.0
 11
-3038.779444758647
 21
-620.298699030969
 31
0.0
  0
LINE
  5
2F71
330
2F3F
100
AcDbEntity
  8
細線
100
AcDbLine
 10
-3022.694135121911
 20
-630.882560350041
 30
0.0
 11
-3022.694135121911
 21
-627.227614822548
 31
0.0
  0
LINE
  5
2F72
330
2F3F
100
AcDbEntity
  8
外形線
100
AcDbLine
 10
-3016.68737612191
 20
-620.895511022639
 30
0.0
 11
-3024.206186357083
 21
-620.895511022639
 31
0.0
  0
LINE
  5
2F73
330
2F3F
100
AcDbEntity
  8
外形線
100
AcDbLine
 10
-3017.953265848439
 20
-626.310699030969
 30
0.0
 11
-3024.895325485175
 21
-620.298699030969
 31
0.0
  0
LINE
  5
2F74
330
2F3F
100
AcDbEntity
  8
外形線
100
AcDbLine
 10
-3024.895325485175
 20
-624.637486303929
 30
0.0
 11
-3024.895325485175
 21
-620.298699030969
 31
0.0
  0
LINE
  5
2F75
330
2F3F
100
AcDbEntity
  8
外形線
100
AcDbLine
 10
-3016.68737612191
 20
-629.295497522639
 30
0.0
 11
-3017.953265848439
 21
-629.295497522639
 31
0.0
  0
LINE
  5
2F76
330
2F3F
100
AcDbEntity
  8
外形線
100
AcDbLine
 10
-3020.458265848439
 20
-632.818879940409
 30
0.0
 11
-3017.953265848439
 21
-630.649486303929
 31
0.0
  0
LINE
  5
2F77
330
2F3F
100
AcDbEntity
  8
外形線
100
AcDbLine
 10
-3024.895325485175
 20
-624.637486303929
 30
0.0
 11
-3017.953265848439
 21
-630.649486303929
 31
0.0
  0
LINE
  5
2F78
330
2F3F
100
AcDbEntity
  8
外形線
100
AcDbLine
 10
-3021.33893012191
 20
-629.269370629074
 30
0.0
 11
-3021.33893012191
 21
-632.056202307377
 31
0.0
  0
LINE
  5
2F79
330
2F3F
100
AcDbEntity
  8
外形線
100
AcDbLine
 10
-3017.953265848439
 20
-630.649486303929
 30
0.0
 11
-3017.953265848439
 21
-626.310699030969
 31
0.0
  0
LINE
  5
2F7A
330
2F3F
100
AcDbEntity
  8
外形線
100
AcDbLine
 10
-3048.487394121911
 20
-562.245502022639
 30
0.0
 11
-3048.487394121911
 21
-603.345493022639
 31
0.0
  0
LINE
  5
2F7B
330
2F3F
100
AcDbEntity
  8
外形線
100
AcDbLine
 10
-3048.487394121911
 20
-603.345493022639
 30
0.0
 11
-3046.687376121911
 21
-603.345493022639
 31
0.0
  0
LINE
  5
2F7C
330
2F3F
100
AcDbEntity
  8
外形線
100
AcDbLine
 10
-3043.687376121911
 20
-558.495502022639
 30
0.0
 11
-3019.68737612191
 21
-558.495502022639
 31
0.0
  0
LINE
  5
2F7D
330
2F3F
100
AcDbEntity
  8
外形線
100
AcDbLine
 10
-3048.487394121911
 20
-562.245502022639
 30
0.0
 11
-3046.687376121911
 21
-562.245502022639
 31
0.0
  0
ARC
  5
2F7E
330
2F3F
100
AcDbEntity
  8
外形線
100
AcDbCircle
 10
-3043.687376121911
 20
-561.495502022639
 30
0.0
 40
3.0
100
AcDbArc
 50
89.999981276021
 51
180.00001984784
  0
LINE
  5
2F7F
330
2F3F
100
AcDbEntity
  8
外形線
100
AcDbLine
 10
-3046.687376121911
 20
-562.245502022639
 30
0.0
 11
-3046.687376121911
 21
-561.495502022639
 31
0.0
  0
LINE
  5
2F80
330
2F3F
100
AcDbEntity
  8
外形線
100
AcDbLine
 10
-2963.887356621911
 20
-617.370502022639
 30
0.0
 11
-2963.887356621911
 21
-567.870502022639
 31
0.0
  0
LINE
  5
2F81
330
2F3F
100
AcDbEntity
  8
外形線
100
AcDbLine
 10
-2965.387356621911
 20
-620.580112022639
 30
0.0
 11
-2965.387356621911
 21
-564.660892022639
 31
0.0
  0
LINE
  5
2F82
330
2F3F
100
AcDbEntity
  8
外形線
100
AcDbLine
 10
-3004.68737612191
 20
-556.620502022639
 30
0.0
 11
-3004.68737612191
 21
-628.620502022639
 31
0.0
  0
LINE
  5
2F83
330
2F3F
100
AcDbEntity
  8
外形線
100
AcDbLine
 10
-3004.68737612191
 20
-626.745502022639
 30
0.0
 11
-2969.67289562191
 21
-625.074985022639
 31
0.0
  0
LINE
  5
2F84
330
2F3F
100
AcDbEntity
  8
外形線
100
AcDbLine
 10
-2963.887356621911
 20
-617.370502022639
 30
0.0
 11
-2965.387356621911
 21
-617.370502022639
 31
0.0
  0
ARC
  5
2F85
330
2F3F
100
AcDbEntity
  8
外形線
100
AcDbCircle
 10
-2969.887356621911
 20
-620.580112022639
 30
0.0
 40
4.5
100
AcDbArc
 50
272.731520116378
 51
359.999982399908
  0
LINE
  5
2F86
330
2F3F
100
AcDbEntity
  8
外形線
100
AcDbLine
 10
-3004.68737612191
 20
-558.495502022639
 30
0.0
 11
-2969.67289562191
 21
-560.166019022639
 31
0.0
  0
LINE
  5
2F87
330
2F3F
100
AcDbEntity
  8
外形線
100
AcDbLine
 10
-2963.887356621911
 20
-567.870502022639
 30
0.0
 11
-2965.387356621911
 21
-567.870502022639
 31
0.0
  0
ARC
  5
2F88
330
2F3F
100
AcDbEntity
  8
外形線
100
AcDbCircle
 10
-2969.887356621911
 20
-564.660892022639
 30
0.0
 40
4.5
100
AcDbArc
 50
0.0
 51
87.268519579302
  0
ENDBLK
  5
2F89
330
2F3F
100
AcDbEntity
  8
0
 48
10.0
100
AcDbBlockEnd
  0
BLOCK
  5
348A
330
347E
100
AcDbEntity
  8
0
 48
10.0
100
AcDbBlockBegin
  2
*D8
 70
     1
 10
0.0
 20
0.0
 30
0.0
  3
*D8
  1
*D8
  0
LINE
  5
3D8F
330
347E
100
AcDbEntity
  8
寸法線
 62
     0
 48
10.0
100
AcDbLine
 10
215.367917786399
 20
651.583274819007
 30
0.0
 11
214.742917786399
 21
651.583274819007
 31
0.0
  0
LINE
  5
3D90
330
347E
100
AcDbEntity
  8
寸法線
 62
     0
 48
10.0
100
AcDbLine
 10
215.367917786399
 20
645.583274819007
 30
0.0
 11
214.742917786399
 21
645.583274819007
 31
0.0
  0
LINE
  5
3D91
330
347E
100
AcDbEntity
  8
寸法線
 62
     0
 48
10.0
100
AcDbLine
 10
215.992917786399
 20
651.583274819007
 30
0.0
 11
215.992917786399
 21
675.155149819007
 31
0.0
  0
LINE
  5
3D92
330
347E
100
AcDbEntity
  8
寸法線
 62
     0
 48
10.0
100
AcDbLine
 10
215.992917786399
 20
651.583274819007
 30
0.0
 11
215.992917786399
 21
645.583274819007
 31
0.0
  0
LINE
  5
3D93
330
347E
100
AcDbEntity
  8
寸法線
 62
     0
 48
10.0
100
AcDbLine
 10
215.992917786399
 20
657.583274819007
 30
0.0
 11
215.992917786399
 21
663.583274819007
 31
0.0
  0
LINE
  5
3D94
330
347E
100
AcDbEntity
  8
寸法線
 62
     0
 48
10.0
100
AcDbLine
 10
215.992917786399
 20
639.583274819007
 30
0.0
 11
215.992917786399
 21
633.583274819007
 31
0.0
  0
INSERT
  5
3D95
330
347E
100
AcDbEntity
  8
寸法線
 62
     0
100
AcDbBlockReference
  2
_OPEN30
 10
215.992917786399
 20
651.583274819007
 30
0.0
 41
6.0
 42
6.0
 43
6.0
 50
270.0
  0
INSERT
  5
3D96
330
347E
100
AcDbEntity
  8
寸法線
 62
     0
100
AcDbBlockReference
  2
_OPEN30
 10
215.992917786399
 20
645.583274819007
 30
0.0
 41
6.0
 42
6.0
 43
6.0
 50
90.0
  0
MTEXT
  5
3D97
330
347E
100
AcDbEntity
  8
寸法線
 62
     0
 48
10.0
100
AcDbMText
 10
212.367917786399
 20
670.083274819007
 30
0.0
 40
6.0
 41
0.0
 71
     5
 72
     1
  1
\A1;φ6
 11
0.0
 21
1.0
 31
0.0
  0
POINT
  5
3D98
330
347E
100
AcDbEntity
  8
DEFPOINTS
 62
     0
100
AcDbPoint
 10
215.992917786399
 20
651.583274819007
 30
0.0
  0
POINT
  5
3D99
330
347E
100
AcDbEntity
  8
DEFPOINTS
 62
     0
100
AcDbPoint
 10
215.992917786399
 20
645.583274819007
 30
0.0
  0
POINT
  5
4447
330
347E
100
AcDbEntity
  8
DEFPOINTS
 62
     0
100
AcDbPoint
 10
215.992917786399
 20
645.583274819007
 30
0.0
  0
ENDBLK
  5
348B
330
347E
100
AcDbEntity
  8
0
 48
10.0
100
AcDbBlockEnd
  0
BLOCK
  5
3A4D
330
3A43
100
AcDbEntity
  8
0
 48
10.0
100
AcDbBlockBegin
  2
*D15
 70
     1
 10
0.0
 20
0.0
 30
0.0
  3
*D15
  1
*D15
  0
LINE
  5
3D6A
330
3A43
100
AcDbEntity
  8
寸法線
 62
     0
 48
10.0
100
AcDbLine
 10
153.883959460336
 20
607.958337319007
 30
0.0
 11
153.883959460336
 21
591.469523809145
 31
0.0
  0
LINE
  5
3D6B
330
3A43
100
AcDbEntity
  8
寸法線
 62
     0
 48
10.0
100
AcDbLine
 10
188.883952960336
 20
607.958337319007
 30
0.0
 11
188.883952960336
 21
591.469523809145
 31
0.0
  0
LINE
  5
3D6C
330
3A43
100
AcDbEntity
  8
寸法線
 62
     0
 48
10.0
100
AcDbLine
 10
159.883959460336
 20
592.719523809145
 30
0.0
 11
182.883952960336
 21
592.719523809145
 31
0.0
  0
INSERT
  5
3D6D
330
3A43
100
AcDbEntity
  8
寸法線
 62
     0
 48
10.0
100
AcDbBlockReference
  2
_OPEN30
 10
153.883959460336
 20
592.719523809145
 30
0.0
 41
6.0
 42
6.0
 43
6.0
 50
180.0
  0
INSERT
  5
3D6E
330
3A43
100
AcDbEntity
  8
寸法線
 62
     0
 48
10.0
100
AcDbBlockReference
  2
_OPEN30
 10
188.883952960336
 20
592.719523809145
 30
0.0
 41
6.0
 42
6.0
 43
6.0
  0
MTEXT
  5
3D6F
330
3A43
100
AcDbEntity
  8
寸法線
 62
     0
 48
10.0
100
AcDbMText
 10
171.383956210336
 20
596.344523809145
 30
0.0
 40
6.0
 41
0.0
 71
     5
 72
     1
  1
\A1;35
  0
POINT
  5
3D70
330
3A43
100
AcDbEntity
  8
DEFPOINTS
 62
     0
 48
10.0
100
AcDbPoint
 10
153.883959460336
 20
608.583337319007
 30
0.0
  0
POINT
  5
3D71
330
3A43
100
AcDbEntity
  8
DEFPOINTS
 62
     0
 48
10.0
100
AcDbPoint
 10
188.883952960336
 20
608.583337319007
 30
0.0
  0
POINT
  5
3D72
330
3A43
100
AcDbEntity
  8
DEFPOINTS
 62
     0
 48
10.0
100
AcDbPoint
 10
188.883952960336
 20
592.719523809145
 30
0.0
  0
ENDBLK
  5
3A4E
330
3A43
100
AcDbEntity
  8
0
 48
10.0
100
AcDbBlockEnd
  0
BLOCK
  5
3A59
330
3A4F
100
AcDbEntity
  8
0
 48
10.0
100
AcDbBlockBegin
  2
*D16
 70
     1
 10
0.0
 20
0.0
 30
0.0
  3
*D16
  1
*D16
  0
LINE
  5
3D61
330
3A4F
100
AcDbEntity
  8
寸法線
 62
     0
 48
10.0
100
AcDbLine
 10
153.258959460336
 20
688.583122319007
 30
0.0
 11
133.26250328833
 21
688.583122319007
 31
0.0
  0
LINE
  5
3D62
330
3A4F
100
AcDbEntity
  8
寸法線
 62
     0
 48
10.0
100
AcDbLine
 10
153.258959460336
 20
608.583337319007
 30
0.0
 11
133.26250328833
 21
608.583337319007
 31
0.0
  0
LINE
  5
3D63
330
3A4F
100
AcDbEntity
  8
寸法線
 62
     0
 48
10.0
100
AcDbLine
 10
134.51250328833
 20
682.583122319007
 30
0.0
 11
134.51250328833
 21
614.583337319007
 31
0.0
  0
INSERT
  5
3D64
330
3A4F
100
AcDbEntity
  8
寸法線
 62
     0
 48
10.0
100
AcDbBlockReference
  2
_OPEN30
 10
134.51250328833
 20
688.583122319007
 30
0.0
 41
6.0
 42
6.0
 43
6.0
 50
90.0
  0
INSERT
  5
3D65
330
3A4F
100
AcDbEntity
  8
寸法線
 62
     0
 48
10.0
100
AcDbBlockReference
  2
_OPEN30
 10
134.51250328833
 20
608.583337319007
 30
0.0
 41
6.0
 42
6.0
 43
6.0
 50
270.0
  0
MTEXT
  5
3D66
330
3A4F
100
AcDbEntity
  8
寸法線
 62
     0
 48
10.0
100
AcDbMText
 10
130.88750328833
 20
648.583229819007
 30
0.0
 40
6.0
 41
0.0
 71
     5
 72
     1
  1
\A1;80
 11
6.123031769111886E-17
 21
1.0
 31
0.0
  0
POINT
  5
3D67
330
3A4F
100
AcDbEntity
  8
DEFPOINTS
 62
     0
 48
10.0
100
AcDbPoint
 10
153.883959460336
 20
688.583122319007
 30
0.0
  0
POINT
  5
3D68
330
3A4F
100
AcDbEntity
  8
DEFPOINTS
 62
     0
 48
10.0
100
AcDbPoint
 10
153.883959460336
 20
608.583337319007
 30
0.0
  0
POINT
  5
3D69
330
3A4F
100
AcDbEntity
  8
DEFPOINTS
 62
     0
 48
10.0
100
AcDbPoint
 10
134.51250328833
 20
608.583337319007
 30
0.0
  0
ENDBLK
  5
3A5A
330
3A4F
100
AcDbEntity
  8
0
 48
10.0
100
AcDbBlockEnd
  0
BLOCK
  5
3EE7
330
3EA5
100
AcDbEntity
  8
0
100
AcDbBlockBegin
  2
_NONE
 70
     0
 10
0.0
 20
0.0
 30
0.0
  3
_NONE
  1
_NONE
  0
ENDBLK
  5
3EE8
330
3EA5
100
AcDbEntity
  8
0
100
AcDbBlockEnd
  0
BLOCK
  5
4383
330
4382
100
AcDbEntity
  8
0
100
AcDbBlockBegin
  2
*D53
 70
     1
 10
0.0
 20
0.0
 30
0.0
  3
*D53
  1
*D53
  0
LINE
  5
4385
330
4382
100
AcDbEntity
  8
寸法線
 62
     0
 48
10.0
100
AcDbLine
 10
246.983927960336
 20
629.058274819007
 30
0.0
 11
246.983927960336
 21
552.322194049039
 31
0.0
  0
LINE
  5
4386
330
4382
100
AcDbEntity
  8
寸法線
 62
     0
 48
10.0
100
AcDbLine
 10
329.983927960336
 20
573.131056494491
 30
0.0
 11
329.983927960336
 21
552.322194049039
 31
0.0
  0
LINE
  5
4387
330
4382
100
AcDbEntity
  8
寸法線
 62
     0
 48
10.0
100
AcDbLine
 10
252.983927960336
 20
553.572194049039
 30
0.0
 11
323.983927960336
 21
553.572194049039
 31
0.0
  0
INSERT
  5
4388
330
4382
100
AcDbEntity
  8
寸法線
 62
     0
100
AcDbBlockReference
  2
_OPEN30
 10
246.983927960336
 20
553.572194049039
 30
0.0
 41
6.0
 42
6.0
 43
6.0
 50
180.0
  0
INSERT
  5
4389
330
4382
100
AcDbEntity
  8
寸法線
 62
     0
100
AcDbBlockReference
  2
_OPEN30
 10
329.983927960336
 20
553.572194049039
 30
0.0
 41
6.0
 42
6.0
 43
6.0
  0
MTEXT
  5
438A
330
4382
100
AcDbEntity
  8
寸法線
 62
     0
 48
10.0
100
AcDbMText
 10
288.483927960336
 20
557.206569049039
 30
0.0
 40
6.0
 41
0.0
 71
     5
 72
     1
  1
\A1;83
  0
POINT
  5
438B
330
4382
100
AcDbEntity
  8
DEFPOINTS
 62
     0
100
AcDbPoint
 10
246.983927960336
 20
629.683274819007
 30
0.0
  0
POINT
  5
438C
330
4382
100
AcDbEntity
  8
DEFPOINTS
 62
     0
100
AcDbPoint
 10
329.983927960336
 20
573.756056494491
 30
0.0
  0
POINT
  5
438D
330
4382
100
AcDbEntity
  8
DEFPOINTS
 62
     0
100
AcDbPoint
 10
329.983927960336
 20
553.572194049039
 30
0.0
  0
ENDBLK
  5
4384
330
4382
100
AcDbEntity
  8
0
100
AcDbBlockEnd
  0
BLOCK
  5
438F
330
438E
100
AcDbEntity
  8
0
100
AcDbBlockBegin
  2
*D54
 70
     1
 10
0.0
 20
0.0
 30
0.0
  3
*D54
  1
*D54
  0
LINE
  5
4391
330
438E
100
AcDbEntity
  8
寸法線
 62
     0
 48
10.0
100
AcDbLine
 10
75.037120280737
 20
648.583274819007
 30
0.0
 11
81.05002052744
 21
648.583274819007
 31
0.0
  0
LINE
  5
4392
330
438E
100
AcDbEntity
  8
寸法線
 62
     0
 48
10.0
100
AcDbLine
 10
75.037120280737
 20
638.67181070224
 30
0.0
 11
81.05002052744
 21
638.67181070224
 31
0.0
  0
LINE
  5
4393
330
438E
100
AcDbEntity
  8
寸法線
 62
     0
 48
10.0
100
AcDbLine
 10
79.80002052744
 20
648.583274819007
 30
0.0
 11
79.80002052744
 21
638.67181070224
 31
0.0
  0
LINE
  5
4394
330
438E
100
AcDbEntity
  8
寸法線
 62
     0
 48
10.0
100
AcDbLine
 10
79.80002052744
 20
654.583274819007
 30
0.0
 11
79.80002052744
 21
660.583274819007
 31
0.0
  0
LINE
  5
4395
330
438E
100
AcDbEntity
  8
寸法線
 62
     0
 48
10.0
100
AcDbLine
 10
79.80002052744
 20
632.67181070224
 30
0.0
 11
79.80002052744
 21
626.67181070224
 31
0.0
  0
INSERT
  5
4396
330
438E
100
AcDbEntity
  8
寸法線
 62
     0
100
AcDbBlockReference
  2
_OPEN30
 10
79.80002052744
 20
648.583274819007
 30
0.0
 41
6.0
 42
6.0
 43
6.0
 50
270.0
  0
INSERT
  5
4397
330
438E
100
AcDbEntity
  8
寸法線
 62
     0
100
AcDbBlockReference
  2
_OPEN30
 10
79.80002052744
 20
638.67181070224
 30
0.0
 41
6.0
 42
6.0
 43
6.0
 50
90.0
  0
MTEXT
  5
4398
330
438E
100
AcDbEntity
  8
寸法線
 62
     0
 48
10.0
100
AcDbMText
 10
76.17502052744
 20
643.627542760624
 30
0.0
 40
6.0
 41
0.0
 71
     5
 72
     1
  1
\A1;10
 11
0.0
 21
1.0
 31
0.0
  0
POINT
  5
4399
330
438E
100
AcDbEntity
  8
DEFPOINTS
 62
     0
100
AcDbPoint
 10
74.412120280737
 20
648.583274819007
 30
0.0
  0
POINT
  5
439A
330
438E
100
AcDbEntity
  8
DEFPOINTS
 62
     0
100
AcDbPoint
 10
74.412120280737
 20
638.67181070224
 30
0.0
  0
POINT
  5
439B
330
438E
100
AcDbEntity
  8
DEFPOINTS
 62
     0
100
AcDbPoint
 10
79.80002052744
 20
638.67181070224
 30
0.0
  0
ENDBLK
  5
4390
330
438E
100
AcDbEntity
  8
0
100
AcDbBlockEnd
  0
BLOCK
  5
439D
330
439C
100
AcDbEntity
  8
0
100
AcDbBlockBegin
  2
*D55
 70
     1
 10
0.0
 20
0.0
 30
0.0
  3
*D55
  1
*D55
  0
LINE
  5
439F
330
439C
100
AcDbEntity
  8
寸法線
 62
     0
 48
10.0
100
AcDbLine
 10
7.443031485598
 20
659.600579664421
 30
0.0
 11
7.443031485598
 21
699.820391707726
 31
0.0
  0
LINE
  5
43A0
330
439C
100
AcDbEntity
  8
寸法線
 62
     0
 48
10.0
100
AcDbLine
 10
43.443031485598
 20
659.600579664421
 30
0.0
 11
43.443031485598
 21
699.820391707726
 31
0.0
  0
LINE
  5
43A1
330
439C
100
AcDbEntity
  8
寸法線
 62
     0
 48
10.0
100
AcDbLine
 10
13.443031485598
 20
698.570391707726
 30
0.0
 11
37.443031485598
 21
698.570391707726
 31
0.0
  0
INSERT
  5
43A2
330
439C
100
AcDbEntity
  8
寸法線
 62
     0
100
AcDbBlockReference
  2
_OPEN30
 10
7.443031485598
 20
698.570391707726
 30
0.0
 41
6.0
 42
6.0
 43
6.0
 50
180.0
  0
INSERT
  5
43A3
330
439C
100
AcDbEntity
  8
寸法線
 62
     0
100
AcDbBlockReference
  2
_OPEN30
 10
43.443031485598
 20
698.570391707726
 30
0.0
 41
6.0
 42
6.0
 43
6.0
  0
MTEXT
  5
43A4
330
439C
100
AcDbEntity
  8
寸法線
 62
     0
 48
10.0
100
AcDbMText
 10
25.443031485598
 20
702.198516707726
 30
0.0
 40
6.0
 41
0.0
 71
     5
 72
     1
  1
\A1;36
  0
POINT
  5
43A5
330
439C
100
AcDbEntity
  8
DEFPOINTS
 62
     0
100
AcDbPoint
 10
7.443031485598
 20
658.975579664421
 30
0.0
  0
POINT
  5
43A6
330
439C
100
AcDbEntity
  8
DEFPOINTS
 62
     0
100
AcDbPoint
 10
43.443031485598
 20
658.975579664421
 30
0.0
  0
POINT
  5
43A7
330
439C
100
AcDbEntity
  8
DEFPOINTS
 62
     0
100
AcDbPoint
 10
43.443031485598
 20
698.570391707726
 30
0.0
  0
ENDBLK
  5
439E
330
439C
100
AcDbEntity
  8
0
100
AcDbBlockEnd
  0
BLOCK
  5
43A9
330
43A8
100
AcDbEntity
  8
0
100
AcDbBlockBegin
  2
*D56
 70
     1
 10
0.0
 20
0.0
 30
0.0
  3
*D56
  1
*D56
  0
LINE
  5
43AB
330
43A8
100
AcDbEntity
  8
寸法線
 62
     0
 48
10.0
100
AcDbLine
 10
24.543031485598
 20
618.129800942311
 30
0.0
 11
24.543031485598
 21
618.754800942311
 31
0.0
  0
LINE
  5
43AC
330
43A8
100
AcDbEntity
  8
寸法線
 62
     0
 48
10.0
100
AcDbLine
 10
26.343031485598
 20
618.129800942311
 30
0.0
 11
26.343031485598
 21
618.754800942311
 31
0.0
  0
LINE
  5
43AD
330
43A8
100
AcDbEntity
  8
寸法線
 62
     0
 48
10.0
100
AcDbLine
 10
32.343031485598
 20
617.504800942311
 30
0.0
 11
40.793031485598
 21
617.504800942311
 31
0.0
  0
LINE
  5
43AE
330
43A8
100
AcDbEntity
  8
寸法線
 62
     0
 48
10.0
100
AcDbLine
 10
24.543031485598
 20
617.504800942311
 30
0.0
 11
26.343031485598
 21
617.504800942311
 31
0.0
  0
LINE
  5
43AF
330
43A8
100
AcDbEntity
  8
寸法線
 62
     0
 48
10.0
100
AcDbLine
 10
18.543031485598
 20
617.504800942311
 30
0.0
 11
12.543031485598
 21
617.504800942311
 31
0.0
  0
INSERT
  5
43B0
330
43A8
100
AcDbEntity
  8
寸法線
 62
     0
100
AcDbBlockReference
  2
_OPEN30
 10
24.543031485598
 20
617.504800942311
 30
0.0
 41
6.0
 42
6.0
 43
6.0
  0
INSERT
  5
43B1
330
43A8
100
AcDbEntity
  8
寸法線
 62
     0
100
AcDbBlockReference
  2
_OPEN30
 10
26.343031485598
 20
617.504800942311
 30
0.0
 41
6.0
 42
6.0
 43
6.0
 50
180.0
  0
MTEXT
  5
43B2
330
43A8
100
AcDbEntity
  8
寸法線
 62
     0
 48
10.0
100
AcDbMText
 10
39.568031485598
 20
621.129800942311
 30
0.0
 40
6.0
 41
0.0
 71
     5
 72
     1
  1
\A1;1
  0
POINT
  5
43B3
330
43A8
100
AcDbEntity
  8
DEFPOINTS
 62
     0
100
AcDbPoint
 10
24.543031485598
 20
617.504800942311
 30
0.0
  0
POINT
  5
43B4
330
43A8
100
AcDbEntity
  8
DEFPOINTS
 62
     0
100
AcDbPoint
 10
26.343031485598
 20
617.504800942311
 30
0.0
  0
POINT
  5
43B5
330
43A8
100
AcDbEntity
  8
DEFPOINTS
 62
     0
100
AcDbPoint
 10
26.343031485598
 20
617.504800942311
 30
0.0
  0
ENDBLK
  5
43AA
330
43A8
100
AcDbEntity
  8
0
100
AcDbBlockEnd
  0
BLOCK
  5
43B7
330
43B6
100
AcDbEntity
  8
0
100
AcDbBlockBegin
  2
*D57
 70
     1
 10
0.0
 20
0.0
 30
0.0
  3
*D57
  1
*D57
  0
LINE
  5
43B9
330
43B6
100
AcDbEntity
  8
寸法線
 62
     0
 48
10.0
100
AcDbLine
 10
289.808908460337
 20
674.083274819007
 30
0.0
 11
349.186685879562
 21
674.083274819007
 31
0.0
  0
LINE
  5
43BA
330
43B6
100
AcDbEntity
  8
寸法線
 62
     0
 48
10.0
100
AcDbLine
 10
289.808908460337
 20
603.083274819007
 30
0.0
 11
349.186685879562
 21
603.083274819007
 31
0.0
  0
LINE
  5
43BB
330
43B6
100
AcDbEntity
  8
寸法線
 62
     0
 48
10.0
100
AcDbLine
 10
347.936685879562
 20
668.083274819007
 30
0.0
 11
347.936685879562
 21
609.083274819007
 31
0.0
  0
INSERT
  5
43BC
330
43B6
100
AcDbEntity
  8
寸法線
 62
     0
100
AcDbBlockReference
  2
_OPEN30
 10
347.936685879562
 20
674.083274819007
 30
0.0
 41
6.0
 42
6.0
 43
6.0
 50
90.0
  0
INSERT
  5
43BD
330
43B6
100
AcDbEntity
  8
寸法線
 62
     0
100
AcDbBlockReference
  2
_OPEN30
 10
347.936685879562
 20
603.083274819007
 30
0.0
 41
6.0
 42
6.0
 43
6.0
 50
270.0
  0
MTEXT
  5
43BE
330
43B6
100
AcDbEntity
  8
寸法線
 62
     0
 48
10.0
100
AcDbMText
 10
344.308560879562
 20
638.758247819008
 30
0.0
 40
6.0
 41
0.0
 71
     5
 72
     1
  1
\A1;φ72
 11
0.0
 21
1.0
 31
0.0
  0
POINT
  5
43BF
330
43B6
100
AcDbEntity
  8
DEFPOINTS
 62
     0
100
AcDbPoint
 10
289.183908460337
 20
674.083274819007
 30
0.0
  0
POINT
  5
43C0
330
43B6
100
AcDbEntity
  8
DEFPOINTS
 62
     0
100
AcDbPoint
 10
289.183908460337
 20
603.083274819007
 30
0.0
  0
POINT
  5
43C1
330
43B6
100
AcDbEntity
  8
DEFPOINTS
 62
     0
100
AcDbPoint
 10
347.936685879562
 20
603.083274819007
 30
0.0
  0
ENDBLK
  5
43B8
330
43B6
100
AcDbEntity
  8
0
100
AcDbBlockEnd
  0
BLOCK
  5
442B
330
442A
100
AcDbEntity
  8
0
100
AcDbBlockBegin
  2
*D59
 70
     1
 10
0.0
 20
0.0
 30
0.0
  3
*D59
  1
*D59
  0
LINE
  5
442D
330
442A
100
AcDbEntity
  8
寸法線
 62
     0
 48
10.0
100
AcDbLine
 10
9.901765608232
 20
640.235520781163
 30
0.0
 11
-26.429613356706
 21
661.2114522066
 31
0.0
  0
LINE
  5
442E
330
442A
100
AcDbEntity
  8
寸法線
 62
     0
 48
10.0
100
AcDbLine
 10
24.901765608232
 20
666.216282894696
 30
0.0
 11
-11.429613356706
 21
687.192214320134
 31
0.0
  0
LINE
  5
442F
330
442A
100
AcDbEntity
  8
寸法線
 62
     0
 48
10.0
100
AcDbLine
 10
-22.347081601975
 20
665.782604629307
 30
0.0
 11
-13.347081601975
 21
681.371061897427
 31
0.0
  0
INSERT
  5
4430
330
442A
100
AcDbEntity
  8
寸法線
 62
     0
100
AcDbBlockReference
  2
_OPEN30
 10
-25.347081601975
 20
660.5864522066
 30
0.0
 41
6.0
 42
6.0
 43
6.0
 50
240.0
  0
INSERT
  5
4431
330
442A
100
AcDbEntity
  8
寸法線
 62
     0
100
AcDbBlockReference
  2
_OPEN30
 10
-10.347081601975
 20
686.567214320134
 30
0.0
 41
6.0
 42
6.0
 43
6.0
 50
60.0
  0
MTEXT
  5
4432
330
442A
100
AcDbEntity
  8
寸法線
 62
     0
 48
10.0
100
AcDbMText
 10
-20.989130020081
 20
675.390895763367
 30
0.0
 40
6.0
 41
0.0
 71
     5
 72
     1
  1
\A1;30
 11
0.5000000000000008
 21
0.8660254037844383
 31
0.0
  0
POINT
  5
4433
330
442A
100
AcDbEntity
  8
DEFPOINTS
 62
     0
100
AcDbPoint
 10
10.443031485598
 20
639.923020781163
 30
0.0
  0
POINT
  5
4434
330
442A
100
AcDbEntity
  8
DEFPOINTS
 62
     0
100
AcDbPoint
 10
25.443031485598
 20
665.903782894696
 30
0.0
  0
POINT
  5
4435
330
442A
100
AcDbEntity
  8
DEFPOINTS
 62
     0
100
AcDbPoint
 10
-10.347081601975
 20
686.567214320134
 30
0.0
  0
ENDBLK
  5
442C
330
442A
100
AcDbEntity
  8
0
100
AcDbBlockEnd
  0
BLOCK
  5
444A
330
4449
100
AcDbEntity
  8
0
100
AcDbBlockBegin
  2
*D61
 70
     1
 10
0.0
 20
0.0
 30
0.0
  3
*D61
  1
*D61
  0
LINE
  5
444C
330
4449
100
AcDbEntity
  8
寸法線
 62
     0
 48
10.0
100
AcDbLine
 10
153.883959460336
 20
592.094523809145
 30
0.0
 11
153.883959460336
 21
552.322194049039
 31
0.0
  0
LINE
  5
444D
330
4449
100
AcDbEntity
  8
寸法線
 62
     0
 48
10.0
100
AcDbLine
 10
246.983927960336
 20
629.058274819007
 30
0.0
 11
246.983927960336
 21
552.322194049039
 31
0.0
  0
LINE
  5
444E
330
4449
100
AcDbEntity
  8
寸法線
 62
     0
 48
10.0
100
AcDbLine
 10
159.883959460336
 20
553.572194049039
 30
0.0
 11
240.983927960336
 21
553.572194049039
 31
0.0
  0
INSERT
  5
444F
330
4449
100
AcDbEntity
  8
寸法線
 62
     0
100
AcDbBlockReference
  2
_OPEN30
 10
153.883959460336
 20
553.572194049039
 30
0.0
 41
6.0
 42
6.0
 43
6.0
 50
180.0
  0
INSERT
  5
4450
330
4449
100
AcDbEntity
  8
寸法線
 62
     0
100
AcDbBlockReference
  2
_OPEN30
 10
246.983927960336
 20
553.572194049039
 30
0.0
 41
6.0
 42
6.0
 43
6.0
  0
POINT
  5
4451
330
4449
100
AcDbEntity
  8
DEFPOINTS
 62
     0
100
AcDbPoint
 10
153.883959460336
 20
592.719523809145
 30
0.0
  0
POINT
  5
4452
330
4449
100
AcDbEntity
  8
DEFPOINTS
 62
     0
100
AcDbPoint
 10
246.983927960336
 20
629.683274819007
 30
0.0
  0
POINT
  5
4453
330
4449
100
AcDbEntity
  8
DEFPOINTS
 62
     0
100
AcDbPoint
 10
246.983927960336
 20
553.572194049039
 30
0.0
  0
ENDBLK
  5
444B
330
4449
100
AcDbEntity
  8
0
100
AcDbBlockEnd
  0
ENDSEC
  0
SECTION
  2
ENTITIES
  0
LINE
  5
308A
330
1A
100
AcDbEntity
  8
外形線
100
AcDbLine
 10
220.283945960337
 20
651.583274819007
 30
0.0
 11
211.565542960336
 21
651.583274819007
 31
0.0
  0
LINE
  5
308C
330
1A
100
AcDbEntity
  8
外形線
100
AcDbLine
 10
220.283945960337
 20
645.583274819008
 30
0.0
 11
211.565542960336
 21
645.583274819008
 31
0.0
  0
LINE
  5
30DE
330
1A
100
AcDbEntity
  8
中心線
 48
10.0
100
AcDbLine
 10
145.689908484846
 20
648.583274819007
 30
0.0
 11
262.900388925885
 21
648.583274819007
 31
0.0
  0
DIMENSION
  5
347D
330
1A
100
AcDbEntity
  8
寸法線
 48
10.0
100
AcDbDimension
  2
*D8
 10
215.992917786399
 20
645.583274819007
 30
0.0
 11
215.992917786399
 21
670.083274819007
 31
0.0
 70
   160
  1
φ<>
  3
ISO-25
100
AcDbAlignedDimension
 13
215.992917786399
 23
651.583274819007
 33
0.0
 14
215.992917786399
 24
645.583274819007
 34
0.0
 50
90.0
100
AcDbRotatedDimension
1001
ACAD
1000
DSTYLE
1002
{
1070
     5
1000
OPEN30
1070
    41
1040
6.0
1070
    47
1040
0.1
1070
    48
1040
0.1
1070
    73
1070
     0
1070
   140
1040
6.0
1070
   271
1070
     1
1070
   272
1070
     1
1070
   341
1005
2AF4
1002
}
  0
LEADER
  5
35B1
330
1A
100
AcDbEntity
  8
寸法線
 48
10.0
100
AcDbLeader
  3
ISO-25
 76
     3
 10
196.008947800083
 20
647.593254375311
 30
0.0
 10
201.052706951241
 20
590.272585470137
 30
0.0
 10
211.640092979562
 20
590.272585470137
 30
0.0
213
-17.14069724121083
223
0.0
233
0.0
1001
ACAD
1000
DSTYLE
1002
{
1070
     5
1000
OPEN30
1070
   147
1040
0.625
1070
    77
1070
     0
1070
    41
1040
6.0
1070
    47
1040
0.1
1070
    48
1040
0.1
1070
    73
1070
     0
1070
   140
1040
5.0
1070
   271
1070
     1
1070
   272
1070
     1
1070
   341
1005
2AF4
1070
   342
1005
2AF4
1002
}
  0
MTEXT
  5
35B2
330
1A
100
AcDbEntity
  8
寸法線
 48
10.0
100
AcDbMText
 10
201.784761926295
 20
618.146815827267
 30
0.0
 40
6.0
 41
40.648329948739
 71
     1
 72
     5
  1
φ2\Pスプリングピン
  0
LINE
  5
35B4
330
1A
100
AcDbEntity
  8
下書線
 48
10.0
100
AcDbLine
 10
169.350235842215
 20
709.891424869204
 30
0.0
 11
337.289124142863
 21
709.891424869204
 31
0.0
  0
LINE
  5
35B5
330
1A
100
AcDbEntity
  8
下書線
 48
10.0
100
AcDbLine
 10
133.251222132834
 20
735.514729455143
 30
0.0
 11
438.915278455231
 21
735.514729455143
 31
0.0
  0
LEADER
  5
35B6
330
1A
100
AcDbEntity
  8
寸法線
 48
10.0
100
AcDbLeader
  3
ISO-25
 76
     3
 10
163.850192154525
 20
688.642270241192
 30
0.0
 10
150.928523669976
 20
735.514729455143
 30
0.0
 10
143.614011510166
 20
735.514729455143
 30
0.0
1001
ACAD
1000
DSTYLE
1002
{
1070
     5
1000
OPEN30
1070
   147
1040
0.625
1070
    77
1070
     0
1070
    41
1040
6.0
1070
    47
1040
0.1
1070
    48
1040
0.1
1070
    73
1070
     0
1070
   140
1040
5.0
1070
   271
1070
     1
1070
   272
1070
     1
1070
   341
1005
2AF4
1070
   342
1005
2AF4
1002
}
  0
MTEXT
  5
35B7
330
1A
100
AcDbEntity
  8
寸法線
 48
10.0
100
AcDbMText
 10
124.134234852247
 20
742.336736504587
 30
0.0
 40
6.0
 41
21.514934650843
 71
     1
 72
     5
  1
SUS304
  0
LEADER
  5
35B9
330
1A
100
AcDbEntity
  8
寸法線
 48
10.0
100
AcDbLeader
  3
ISO-25
 76
     3
 10
224.398919896807
 20
665.901977784019
 30
0.0
 10
196.572685227235
 20
735.514729455143
 30
0.0
 10
189.566963442458
 20
735.514729455143
 30
0.0
1001
ACAD
1000
DSTYLE
1002
{
1070
     5
1000
OPEN30
1070
   147
1040
0.625
1070
    77
1070
     0
1070
    41
1040
6.0
1070
    47
1040
0.1
1070
    48
1040
0.1
1070
    73
1070
     0
1070
   140
1040
5.0
1070
   271
1070
     1
1070
   272
1070
     1
1070
   341
1005
2AF4
1070
   342
1005
2AF4
1002
}
  0
MTEXT
  5
35C0
330
1A
100
AcDbEntity
  8
寸法線
 48
10.0
100
AcDbMText
 10
170.907618407947
 20
716.230313505846
 30
0.0
 40
6.0
 41
21.514934650843
 71
     1
 72
     5
  1
SUS304
  0
MTEXT
  5
35C2
330
1A
100
AcDbEntity
  8
寸法線
 48
10.0
100
AcDbMText
 10
233.431280499002
 20
736.223711029193
 30
0.0
 40
6.0
 41
21.958515023009
 71
     9
 72
     5
  1
座金\PSS400
  0
LEADER
  5
35C4
330
1A
100
AcDbEntity
  8
寸法線
 48
10.0
100
AcDbLeader
  3
ISO-25
 76
     3
 10
240.969028249935
 20
671.110278761521
 30
0.0
 10
233.98730400285
 20
735.514729455143
 30
0.0
 10
223.906091158008
 20
735.514729455143
 30
0.0
1001
ACAD
1000
DSTYLE
1002
{
1070
     5
1000
OPEN30
1070
   147
1040
0.625
1070
    77
1070
     0
1070
    41
1040
6.0
1070
    47
1040
0.1
1070
    48
1040
0.1
1070
    73
1070
     0
1070
   140
1040
5.0
1070
   271
1070
     1
1070
   272
1070
     1
1070
   341
1005
2AF4
1070
   342
1005
2AF4
1002
}
  0
MTEXT
  5
35C5
330
1A
100
AcDbEntity
  8
寸法線
 48
10.0
100
AcDbMText
 10
231.882993732053
 20
710.606419642881
 30
0.0
 40
6.0
 41
21.829737978125
 71
     9
 72
     5
  1
ナット\PSS400
  0
LEADER
  5
35C7
330
1A
100
AcDbEntity
  8
寸法線
 48
10.0
100
AcDbLeader
  3
ISO-25
 76
     3
 10
237.329541159854
 20
669.583274819007
 30
0.0
 10
232.727152825995
 20
709.891424869203
 30
0.0
 10
223.276016427082
 20
709.891424869203
 30
0.0
1001
ACAD
1000
DSTYLE
1002
{
1070
     5
1000
OPEN30
1070
   147
1040
0.625
1070
    77
1070
     0
1070
    41
1040
6.0
1070
    47
1040
0.1
1070
    48
1040
0.1
1070
    73
1070
     0
1070
   140
1040
5.0
1070
   271
1070
     1
1070
   272
1070
     1
1070
   341
1005
2AF4
1070
   342
1005
2AF4
1002
}
  0
LEADER
  5
35C8
330
1A
100
AcDbEntity
  8
寸法線
 48
10.0
100
AcDbLeader
  3
ISO-25
 76
     3
 10
243.632606060617
 20
694.909204919608
 30
0.0
 10
253.546562598618
 20
735.514729455143
 30
0.0
 10
262.655750565053
 20
735.514729455143
 30
0.0
1001
ACAD
1000
DSTYLE
1002
{
1070
     5
1000
OPEN30
1070
   147
1040
0.625
1070
    77
1070
     0
1070
    41
1040
6.0
1070
    47
1040
0.1
1070
    48
1040
0.1
1070
    73
1070
     0
1070
   140
1040
5.0
1070
   271
1070
     1
1070
   272
1070
     1
1070
   341
1005
2AF4
1070
   342
1005
2AF4
1002
}
  0
MTEXT
  5
35C9
330
1A
100
AcDbEntity
  8
寸法線
 48
10.0
100
AcDbMText
 10
253.415404796375
 20
742.755022510796
 30
0.0
 40
6.0
 41
33.823791364006
 71
     1
 72
     5
  1
貴取付板
  0
LEADER
  5
35CB
330
1A
100
AcDbEntity
  8
寸法線
 48
10.0
100
AcDbLeader
  3
ISO-25
 76
     3
 10
246.138983456365
 20
667.589068697053
 30
0.0
 10
253.319679992539
 20
709.891424869204
 30
0.0
 10
262.025674119124
 20
709.891424869204
 30
0.0
1001
ACAD
1000
DSTYLE
1002
{
1070
     5
1000
OPEN30
1070
   147
1040
0.625
1070
    77
1070
     0
1070
    41
1040
6.0
1070
    47
1040
0.1
1070
    48
1040
0.1
1070
    73
1070
     0
1070
   140
1040
5.0
1070
   271
1070
     1
1070
   272
1070
     1
1070
   341
1005
2AF4
1070
   342
1005
2AF4
1002
}
  0
MTEXT
  5
35CC
330
1A
100
AcDbEntity
  8
寸法線
 48
10.0
100
AcDbMText
 10
254.082892842609
 20
726.525463915048
 30
0.0
 40
6.0
 41
37.362712126936
 71
     1
 72
     5
  1
ゴム\Pパッキン
  0
LEADER
  5
35D0
330
1A
100
AcDbEntity
  8
寸法線
 48
10.0
100
AcDbLeader
  3
ISO-25
 76
     3
 10
280.231636659096
 20
674.109432150497
 30
0.0
 10
290.590390512993
 20
709.891424869203
 30
0.0
 10
298.761023273283
 20
709.891424869203
 30
0.0
1001
ACAD
1000
DSTYLE
1002
{
1070
     5
1000
OPEN30
1070
   147
1040
0.625
1070
    77
1070
     0
1070
    41
1040
6.0
1070
    47
1040
0.1
1070
    48
1040
0.1
1070
    73
1070
     0
1070
   140
1040
5.0
1070
   271
1070
     1
1070
   272
1070
     1
1070
   341
1005
2AF4
1070
   342
1005
2AF4
1002
}
  0
MTEXT
  5
35D1
330
1A
100
AcDbEntity
  8
寸法線
 48
10.0
100
AcDbMText
 10
292.385286607625
 20
717.109575534012
 30
0.0
 40
6.0
 41
29.897847667347
 71
     1
 72
     5
  1
Oリング
  0
LEADER
  5
35D5
330
1A
100
AcDbEntity
  8
寸法線
 48
10.0
100
AcDbLeader
  3
ISO-25
 76
     3
 10
270.479151981049
 20
671.910342468192
 30
0.0
 10
290.491919081943
 20
735.305016391779
 30
0.0
 10
300.621000919387
 20
735.305016391779
 30
0.0
1001
ACAD
1000
DSTYLE
1002
{
1070
     5
1000
OPEN30
1070
   147
1040
0.625
1070
    77
1070
     0
1070
    41
1040
6.0
1070
    47
1040
0.1
1070
    48
1040
0.1
1070
    73
1070
     0
1070
   140
1040
5.0
1070
   271
1070
     1
1070
   272
1070
     1
1070
   341
1005
2AF4
1070
   342
1005
2AF4
1002
}
  0
MTEXT
  5
35D6
330
1A
100
AcDbEntity
  8
寸法線
 48
10.0
100
AcDbMText
 10
291.575354944079
 20
742.446978578903
 30
0.0
 40
6.0
 41
47.209932370019
 71
     1
 72
     5
  1
亜鉛ダイカスト
  0
LEADER
  5
35D8
330
1A
100
AcDbEntity
  8
寸法線
 48
10.0
100
AcDbLeader
  3
ISO-25
 76
     3
 10
317.366994540161
 20
671.723721174743
 30
0.0
 10
350.542753688104
 20
735.514729455143
 30
0.0
 10
359.137129938822
 20
735.514729455143
 30
0.0
1001
ACAD
1000
DSTYLE
1002
{
1070
     5
1000
OPEN30
1070
   147
1040
0.625
1070
    77
1070
     0
1070
    41
1040
6.0
1070
    47
1040
0.1
1070
    48
1040
0.1
1070
    73
1070
     0
1070
   140
1040
5.0
1070
   271
1070
     1
1070
   272
1070
     1
1070
   341
1005
2AF4
1070
   342
1005
2AF4
1002
}
  0
MTEXT
  5
35DF
330
1A
100
AcDbEntity
  8
寸法線
 48
10.0
100
AcDbMText
 10
350.764505669605
 20
742.513795238353
 30
0.0
 40
6.0
 41
50.778753617101
 71
     1
 72
     5
  1
亜鉛ダイカスト
  0
MTEXT
  5
3814
330
1A
100
AcDbEntity
  8
寸法線
 48
10.0
100
AcDbMText
 10
178.955924767769
 20
742.510472159675
 30
0.0
 40
6.0
 41
17.413930288556
 71
     1
 72
     5
  1
BsBM
  0
LEADER
  5
3821
330
1A
100
AcDbEntity
  8
寸法線
 48
10.0
100
AcDbLeader
  3
ISO-25
 76
     3
 10
206.339595997772
 20
651.583274819007
 30
0.0
 10
196.093392826986
 20
709.891424869203
 30
0.0
 10
188.306810550601
 20
709.891424869203
 30
0.0
1001
ACAD
1000
DSTYLE
1002
{
1070
     5
1000
OPEN30
1070
   147
1040
0.625
1070
    77
1070
     0
1070
    41
1040
6.0
1070
    47
1040
0.1
1070
    48
1040
0.1
1070
    73
1070
     0
1070
   140
1040
5.0
1070
   271
1070
     1
1070
   272
1070
     1
1070
   341
1005
2AF4
1070
   342
1005
2AF4
1002
}
  0
ARC
  5
38EA
330
1A
100
AcDbEntity
  8
寸法線
100
AcDbCircle
 10
205.461120669387
 20
555.898241581585
 30
0.0
 40
1.3204605
100
AcDbArc
 50
252.904086432761
 51
337.411923467787
  0
ARC
  5
38EB
330
1A
100
AcDbEntity
  8
寸法線
100
AcDbCircle
 10
205.461120669387
 20
555.898196581585
 30
0.0
 40
1.3204425
100
AcDbArc
 50
252.903398883406
 51
337.412611017141
  0
ARC
  5
38EC
330
1A
100
AcDbEntity
  8
寸法線
100
AcDbCircle
 10
202.051604169387
 20
558.389117581585
 30
0.0
 40
3.7652925
100
AcDbArc
 50
274.628927150736
 51
33.374029121142
  0
ARC
  5
38ED
330
1A
100
AcDbEntity
  8
寸法線
100
AcDbCircle
 10
202.057830669387
 20
558.389804581585
 30
0.0
 40
3.7598535
100
AcDbArc
 50
273.280470979895
 51
33.415912335968
  0
ARC
  5
38EE
330
1A
100
AcDbEntity
  8
寸法線
100
AcDbCircle
 10
206.820815169387
 20
557.636141581585
 30
0.0
 40
3.472035
100
AcDbArc
 50
123.469024399698
 51
239.774013712205
  0
ARC
  5
38EF
330
1A
100
AcDbEntity
  8
寸法線
100
AcDbCircle
 10
206.820815169387
 20
557.636141581585
 30
0.0
 40
3.4720395
100
AcDbArc
 50
123.469024399698
 51
239.773899120646
  0
ARC
  5
38F0
330
1A
100
AcDbEntity
  8
寸法線
100
AcDbCircle
 10
205.018463169387
 20
560.364962581585
 30
0.0
 40
0.2017125
100
AcDbArc
 50
28.23094836902
 51
123.883845843379
  0
LINE
  5
391B
330
1A
100
AcDbEntity
  8
隠れ線
 48
10.0
100
AcDbLine
 10
241.483927960336
 20
695.298987876817
 30
0.0
 11
241.483927960336
 21
671.083274819007
 31
0.0
  0
LINE
  5
391D
330
1A
100
AcDbEntity
  8
隠れ線
 48
10.0
100
AcDbLine
 10
241.483927960336
 20
597.264147546171
 30
0.0
 11
241.483927960336
 21
626.083274819007
 31
0.0
  0
DIMENSION
  5
39FA
330
1A
100
AcDbEntity
  8
寸法線
 48
10.0
100
AcDbDimension
  2
*D15
 10
188.883952960336
 20
592.719523809145
 30
0.0
 11
171.383956210336
 21
592.719523809145
 31
0.0
 70
   160
  3
ISO-25
100
AcDbAlignedDimension
 13
153.883959460336
 23
608.583337319007
 33
0.0
 14
188.883952960336
 24
608.583337319007
 34
0.0
100
AcDbRotatedDimension
1001
ACAD
1000
DSTYLE
1002
{
1070
     5
1000
OPEN30
1070
    41
1040
6.0
1070
    47
1040
0.1
1070
    48
1040
0.1
1070
    73
1070
     0
1070
   140
1040
6.0
1070
   271
1070
     1
1070
   272
1070
     1
1070
   341
1005
2AF4
1002
}
  0
DIMENSION
  5
39FB
330
1A
100
AcDbEntity
  8
寸法線
 48
10.0
100
AcDbDimension
  2
*D16
 10
134.51250328833
 20
608.583337319007
 30
0.0
 11
130.88750328833
 21
648.583229819007
 31
0.0
 70
    32
  3
ISO-25
100
AcDbAlignedDimension
 13
153.883959460336
 23
688.583122319007
 33
0.0
 14
153.883959460336
 24
608.583337319007
 34
0.0
 50
90.0
100
AcDbRotatedDimension
1001
ACAD
1000
DSTYLE
1002
{
1070
     5
1000
OPEN30
1070
    41
1040
6.0
1070
    47
1040
0.1
1070
    48
1040
0.1
1070
    73
1070
     0
1070
   140
1040
6.0
1070
   271
1070
     1
1070
   272
1070
     1
1070
   341
1005
2AF4
1002
}
  0
LINE
  5
3A00
330
1A
100
AcDbEntity
  8
中心線
 48
10.0
100
AcDbLine
 10
195.883959460336
 20
650.646965819007
 30
0.0
 11
195.883959460336
 21
646.519583819007
 31
0.0
  0
LINE
  5
3A01
330
1A
100
AcDbEntity
  8
中心線
 48
10.0
100
AcDbLine
 10
177.382960960336
 20
651.473228819007
 30
0.0
 11
177.382960960336
 21
645.693230819007
 31
0.0
  0
ARC
  5
3A02
330
1A
100
AcDbEntity
  8
細線
 62
     6
100
AcDbCircle
 10
200.213716960336
 20
654.049526008259
 30
0.0
 40
3.1994565
100
AcDbArc
 50
306.512518911655
 51
352.250078119342
  0
ARC
  5
3A03
330
1A
100
AcDbEntity
  8
細線
 62
     6
100
AcDbCircle
 10
200.213716960336
 20
643.126644508259
 30
0.0
 40
3.1994565
100
AcDbArc
 50
7.749961576341
 51
53.487520784033
  0
ARC
  5
3A04
330
1A
100
AcDbEntity
  8
細線
 62
     6
100
AcDbCircle
 10
199.453531960336
 20
648.588131008259
 30
0.0
 40
3.9304305
100
AcDbArc
 50
312.668434758325
 51
47.331604937361
  0
LINE
  5
3A05
330
1A
100
AcDbEntity
  8
外形線
100
AcDbLine
 10
202.183954960336
 20
654.368084008259
 30
0.0
 11
203.383959460336
 21
653.618084008259
 31
0.0
  0
LINE
  5
3A06
330
1A
100
AcDbEntity
  8
外形線
100
AcDbLine
 10
202.183954960336
 20
642.808086508259
 30
0.0
 11
203.383959460336
 21
643.558086508259
 31
0.0
  0
LINE
  5
3A07
330
1A
100
AcDbEntity
  8
外形線
100
AcDbLine
 10
203.383959460336
 20
653.618084008259
 30
0.0
 11
203.383959460336
 21
643.558086508259
 31
0.0
  0
ARC
  5
3A0A
330
1A
100
AcDbEntity
  8
細線
 62
     6
100
AcDbCircle
 10
176.554201960336
 20
643.121834819007
 30
0.0
 40
3.1994565
100
AcDbArc
 50
126.512518911655
 51
172.250078119342
  0
ARC
  5
3A0B
330
1A
100
AcDbEntity
  8
細線
 62
     6
100
AcDbCircle
 10
176.554201960336
 20
654.044716319007
 30
0.0
 40
3.1994565
100
AcDbArc
 50
187.749961576341
 51
233.487520784033
  0
ARC
  5
3A0C
330
1A
100
AcDbEntity
  8
細線
 62
     6
100
AcDbCircle
 10
177.314386960336
 20
648.583229819007
 30
0.0
 40
3.9304305
100
AcDbArc
 50
132.668434758325
 51
227.331604937361
  0
CIRCLE
  5
3A10
330
1A
100
AcDbEntity
  8
外形線
100
AcDbCircle
 10
195.883959460336
 20
648.583274819007
 30
0.0
 40
0.9999
  0
LINE
  5
3A11
330
1A
100
AcDbEntity
  8
細線
 62
     6
100
AcDbLine
 10
174.650523460336
 20
645.693230819007
 30
0.0
 11
202.123993538446
 21
645.693230819007
 31
0.0
  0
LINE
  5
3A12
330
1A
100
AcDbEntity
  8
外形線
100
AcDbLine
 10
174.583963960336
 20
642.803276819007
 30
0.0
 11
202.183954960336
 21
642.803276819007
 31
0.0
  0
LINE
  5
3A13
330
1A
100
AcDbEntity
  8
外形線
100
AcDbLine
 10
174.583963960336
 20
642.803276819007
 30
0.0
 11
173.383959460336
 21
643.553276819007
 31
0.0
  0
LINE
  5
3A14
330
1A
100
AcDbEntity
  8
細線
 62
     6
100
AcDbLine
 10
174.650523460336
 20
651.473228819007
 30
0.0
 11
202.117450598259
 21
651.473228819007
 31
0.0
  0
LINE
  5
3A15
330
1A
100
AcDbEntity
  8
外形線
100
AcDbLine
 10
174.583963960336
 20
654.363274319007
 30
0.0
 11
173.383959460336
 21
653.613274319007
 31
0.0
  0
LINE
  5
3A16
330
1A
100
AcDbEntity
  8
外形線
100
AcDbLine
 10
174.583963960336
 20
654.363274319007
 30
0.0
 11
202.191650491998
 21
654.363274319007
 31
0.0
  0
LINE
  5
3A17
330
1A
100
AcDbEntity
  8
外形線
100
AcDbLine
 10
173.383959460336
 20
643.553276819007
 30
0.0
 11
173.383959460336
 21
653.613274319007
 31
0.0
  0
CIRCLE
  5
3A18
330
1A
100
AcDbEntity
  8
外形線
100
AcDbCircle
 10
177.382960960336
 20
648.583274819007
 30
0.0
 40
2.499
  0
ARC
  5
3A1B
330
1A
100
AcDbEntity
  8
細線
100
AcDbCircle
 10
211.426054152075
 20
650.083275719007
 30
0.0
 40
3.0
100
AcDbArc
 50
150.000019847839
 51
210.000019847843
  0
ARC
  5
3A1C
330
1A
100
AcDbEntity
  8
細線
100
AcDbCircle
 10
206.229901729368
 20
650.083273919007
 30
0.0
 40
3.0
100
AcDbArc
 50
330.000019847839
 51
30.000019847843
  0
ARC
  5
3A1D
330
1A
100
AcDbEntity
  8
細線
100
AcDbCircle
 10
206.229902768599
 20
647.083273919007
 30
0.0
 40
3.0
100
AcDbArc
 50
330.000019847839
 51
30.000019847843
  0
ARC
  5
3A1E
330
1A
100
AcDbEntity
  8
細線
100
AcDbCircle
 10
208.967466748983
 20
647.083274819007
 30
0.0
 40
3.0
100
AcDbArc
 50
330.0
 51
30.0
  0
ARC
  5
3A1F
330
1A
100
AcDbEntity
  8
細線
100
AcDbCircle
 10
214.16361917169
 20
647.083274819007
 30
0.0
 40
3.0
100
AcDbArc
 50
150.0
 51
210.0
  0
ARC
  5
3A20
330
1A
100
AcDbEntity
  8
細線
100
AcDbCircle
 10
214.16361917169
 20
650.083274819007
 30
0.0
 40
3.0
100
AcDbArc
 50
150.0
 51
210.0
  0
LINE
  5
3A21
330
1A
100
AcDbEntity
  8
外形線
100
AcDbLine
 10
208.827979499566
 20
645.583274819007
 30
0.0
 11
203.383959460336
 21
645.583274819007
 31
0.0
  0
LINE
  5
3A23
330
1A
100
AcDbEntity
  8
外形線
100
AcDbLine
 10
208.827979499566
 20
651.583274819007
 30
0.0
 11
203.383959460336
 21
651.583274819007
 31
0.0
  0
LINE
  5
3A31
330
1A
100
AcDbEntity
  8
外形線
100
AcDbLine
 10
191.293825960336
 20
642.803276819007
 30
0.0
 11
188.883952960336
 21
608.583337319007
 31
0.0
  0
LINE
  5
3A32
330
1A
100
AcDbEntity
  8
外形線
100
AcDbLine
 10
153.883959460336
 20
608.583337319007
 30
0.0
 11
188.883952960336
 21
608.583337319007
 31
0.0
  0
LINE
  5
3A33
330
1A
100
AcDbEntity
  8
外形線
100
AcDbLine
 10
153.883959460336
 20
688.583122319007
 30
0.0
 11
153.883959460336
 21
608.583337319007
 31
0.0
  0
LINE
  5
3A34
330
1A
100
AcDbEntity
  8
外形線
100
AcDbLine
 10
191.293825960336
 20
654.363274319007
 30
0.0
 11
188.883952960336
 21
688.583122319007
 31
0.0
  0
LINE
  5
3A35
330
1A
100
AcDbEntity
  8
外形線
100
AcDbLine
 10
153.883959460336
 20
688.583122319007
 30
0.0
 11
188.883952960336
 21
688.583122319007
 31
0.0
  0
ARC
  5
3EEF
330
1A
100
AcDbEntity
  8
細線
100
AcDbCircle
 10
25.443031485598
 20
648.583274819007
 30
0.0
 40
9.5
100
AcDbArc
 50
95.436173663809
 51
264.563826336191
  0
ARC
  5
3EF2
330
1A
100
AcDbEntity
  8
外形線
100
AcDbCircle
 10
25.443031485598
 20
648.583274819007
 30
0.0
 40
8.0
100
AcDbArc
 50
96.459449777355
 51
263.540550222645
  0
ARC
  5
3EF3
330
1A
100
AcDbEntity
  8
細線
100
AcDbCircle
 10
25.443031485598
 20
648.583274819007
 30
0.0
 40
15.0
100
AcDbArc
 50
93.439812767515
 51
266.560187232485
  0
LWPOLYLINE
  5
3EF7
330
1A
100
AcDbEntity
  8
外形線
100
AcDbPolyline
 90
        4
 70
     0
 43
0.0
 10
24.543031485598
 20
665.384167652426
 10
10.443031485598
 20
657.243528856852
 10
10.443031485598
 20
639.923020781163
 10
24.543031485598
 20
631.782381985589
  0
LINE
  5
3EF8
330
1A
100
AcDbEntity
  8
外形線
100
AcDbLine
 10
221.623691922492
 20
665.903782894696
 30
0.0
 11
229.944199998181
 21
665.903782894696
 31
0.0
  0
LINE
  5
3EF9
330
1A
100
AcDbEntity
  8
外形線
100
AcDbLine
 10
221.623691922492
 20
631.262766743319
 30
0.0
 11
229.944199998181
 21
631.262766743319
 31
0.0
  0
LINE
  5
3EFA
330
1A
100
AcDbEntity
  8
外形線
100
AcDbLine
 10
220.283945960337
 20
663.583274819007
 30
0.0
 11
220.283945960337
 21
633.583274819007
 31
0.0
  0
LINE
  5
3EFB
330
1A
100
AcDbEntity
  8
外形線
100
AcDbLine
 10
231.283945960337
 20
663.583274819007
 30
0.0
 11
231.283945960336
 21
633.583274819007
 31
0.0
  0
LINE
  5
3EFC
330
1A
100
AcDbEntity
  8
外形線
100
AcDbLine
 10
220.283945960337
 20
663.583274819007
 30
0.0
 11
221.623691922492
 21
665.903782894696
 31
0.0
  0
LINE
  5
3EFD
330
1A
100
AcDbEntity
  8
外形線
100
AcDbLine
 10
220.283945960337
 20
633.583274819007
 30
0.0
 11
221.623691922492
 21
631.262766743319
 31
0.0
  0
LINE
  5
3EFE
330
1A
100
AcDbEntity
  8
外形線
100
AcDbLine
 10
231.283945960337
 20
663.583274819007
 30
0.0
 11
229.944199998181
 21
665.903782894696
 31
0.0
  0
LINE
  5
3EFF
330
1A
100
AcDbEntity
  8
外形線
100
AcDbLine
 10
231.283945960337
 20
633.583274819007
 30
0.0
 11
229.944199998181
 21
631.262766743319
 31
0.0
  0
LINE
  5
3F00
330
1A
100
AcDbEntity
  8
細線
100
AcDbLine
 10
221.623691922492
 20
657.243528856852
 30
0.0
 11
229.944199998181
 21
657.243528856852
 31
0.0
  0
ARC
  5
3F01
330
1A
100
AcDbEntity
  8
細線
100
AcDbCircle
 10
248.944199998181
 20
648.583274819007
 30
0.0
 40
28.66025403784492
100
AcDbArc
 50
162.412046226006
 51
197.587953773993
  0
ARC
  5
3F02
330
1A
100
AcDbEntity
  8
細線
100
AcDbCircle
 10
202.623691922492
 20
648.583274819007
 30
0.0
 40
28.66025403784492
100
AcDbArc
 50
342.412046226006
 51
17.587953773994
  0
ARC
  5
3F03
330
1A
100
AcDbEntity
  8
細線
100
AcDbCircle
 10
248.815083142406
 20
666.301179745222
 30
0.0
 40
28.6603
100
AcDbArc
 50
185.441633109601
 51
198.423292306448
  0
ARC
  5
3F04
330
1A
100
AcDbEntity
  8
細線
100
AcDbCircle
 10
202.752808778267
 20
666.301179745222
 30
0.0
 40
28.6603
100
AcDbArc
 50
341.576707693552
 51
354.558366890399
  0
ARC
  5
41DA
330
1A
100
AcDbEntity
  8
外形線
 48
10.0
100
AcDbCircle
 10
25.443031485598
 20
638.67181070224
 30
0.0
 40
36.0
100
AcDbArc
 50
91.432543737566
 51
88.567456262433
  0
ARC
  5
41DB
330
1A
100
AcDbEntity
  8
細線
 48
10.0
100
AcDbCircle
 10
25.443031485598
 20
638.67181070224
 30
0.0
 40
34.5
100
AcDbArc
 50
91.494842089047
 51
88.505157910953
  0
LINE
  5
41DC
330
1A
100
AcDbEntity
  8
中心線
 48
10.0
100
AcDbLine
 10
41.074988473127
 20
611.828160270661
 30
0.0
 11
69.638465985598
 21
562.35500870224
 31
0.0
  0
LINE
  5
41DD
330
1A
100
AcDbEntity
  8
外形線
100
AcDbLine
 10
32.635491607196
 20
599.445832348365
 30
0.0
 11
56.018174107196
 21
612.945832348365
 31
0.0
  0
LINE
  5
41DE
330
1A
100
AcDbEntity
  8
外形線
100
AcDbLine
 10
33.235509679035
 20
598.406575987863
 30
0.0
 11
56.618178189702
 21
611.906615473414
 31
0.0
  0
LINE
  5
41DF
330
1A
100
AcDbEntity
  8
外形線
100
AcDbLine
 10
66.462123186683
 20
591.904374348093
 30
0.0
 11
45.635944276475
 21
579.880374348093
 31
0.0
  0
LINE
  5
41E0
330
1A
100
AcDbEntity
  8
外形線
100
AcDbLine
 10
37.018744276476
 20
594.805802567074
 30
0.0
 11
57.844923186683
 21
606.829802567074
 31
0.0
  0
LINE
  5
41E1
330
1A
100
AcDbEntity
  8
外形線
100
AcDbLine
 10
60.349923186683
 20
602.491015294114
 30
0.0
 11
39.523744276476
 21
590.467015294114
 31
0.0
  0
ARC
  5
41E2
330
1A
100
AcDbEntity
  8
外形線
100
AcDbCircle
 10
50.312489203951
 20
580.497760929826
 30
0.0
 40
4.007999999999999
100
AcDbArc
 50
210.000000000002
 51
300.000000000002
  0
LINE
  5
41E3
330
1A
100
AcDbEntity
  8
外形線
100
AcDbLine
 10
49.936833731579
 20
596.479015294114
 30
0.0
 11
54.94683373158
 21
587.801440748194
 31
0.0
  0
ARC
  5
41E4
330
1A
100
AcDbEntity
  8
外形線
100
AcDbCircle
 10
46.192298094937
 20
590.940741267532
 30
0.0
 40
9.30038181818205
100
AcDbArc
 50
259.727393143495
 51
340.272606856496
  0
LINE
  5
41E5
330
1A
100
AcDbEntity
  8
外形線
100
AcDbLine
 10
33.235494607197
 20
598.406593348365
 30
0.0
 11
30.571926607196
 21
603.020050348365
 31
0.0
  0
LINE
  5
41E6
330
1A
100
AcDbEntity
  8
外形線
100
AcDbLine
 10
45.939659385583
 20
580.055724348093
 30
0.0
 11
46.841459385583
 21
578.493760929826
 31
0.0
  0
LINE
  5
41E7
330
1A
100
AcDbEntity
  8
細線
100
AcDbLine
 10
42.018546958427
 20
591.907390294114
 30
0.0
 11
39.513546958427
 21
596.246177567074
 31
0.0
  0
LINE
  5
41E8
330
1A
100
AcDbEntity
  8
外形線
100
AcDbLine
 10
38.339905001092
 20
595.568575067074
 30
0.0
 11
40.844905001092
 21
591.229787794114
 31
0.0
  0
LINE
  5
41E9
330
1A
100
AcDbEntity
  8
外形線
100
AcDbLine
 10
34.513744276476
 20
599.144589840034
 30
0.0
 11
37.018744276476
 21
594.805802567074
 31
0.0
  0
LINE
  5
41EA
330
1A
100
AcDbEntity
  8
外形線
100
AcDbLine
 10
39.523744276476
 20
590.467015294114
 30
0.0
 11
45.635944276475
 21
579.880374348093
 31
0.0
  0
LINE
  5
41EB
330
1A
100
AcDbEntity
  8
外形線
100
AcDbLine
 10
44.926833731579
 20
605.156589840034
 30
0.0
 11
47.431833731579
 21
600.817802567074
 31
0.0
  0
LINE
  5
41EC
330
1A
100
AcDbEntity
  8
外形線
100
AcDbLine
 10
62.8520085159
 20
583.109416022265
 30
0.0
 11
70.948997985598
 21
569.08504970224
 31
0.0
  0
LINE
  5
41ED
330
1A
100
AcDbEntity
  8
外形線
100
AcDbLine
 10
55.057781677934
 20
578.60939498145
 30
0.0
 11
63.154804035886
 21
564.585047649561
 31
0.0
  0
ARC
  5
41EE
330
1A
100
AcDbEntity
  8
外形線
100
AcDbCircle
 10
63.154757898953
 20
569.085050101278
 30
0.0
 40
4.5
100
AcDbArc
 50
269.999994133302
 51
329.999994133297
  0
ARC
  5
41EF
330
1A
100
AcDbEntity
  8
外形線
100
AcDbCircle
 10
67.051872446368
 20
571.33504970224
 30
0.0
 40
4.5
100
AcDbArc
 50
269.999994133302
 51
329.999994133297
  0
ARC
  5
41F0
330
1A
100
AcDbEntity
  8
外形線
100
AcDbCircle
 10
70.948986072244
 20
564.585049303203
 30
0.0
 40
4.5
100
AcDbArc
 50
89.999994133303
 51
149.999994133297
  0
ARC
  5
41F1
330
1A
100
AcDbEntity
  8
外形線
100
AcDbCircle
 10
25.576833607196
 20
638.671783348365
 30
0.0
 40
36.0
100
AcDbArc
 50
322.013338948965
 51
322.019297710041
  0
ARC
  5
41F2
330
1A
100
AcDbEntity
  8
外形線
100
AcDbCircle
 10
25.576833607196
 20
638.671783348365
 30
0.0
 40
36.0
100
AcDbArc
 50
322.019297710041
 51
322.02995472503
  0
LINE
  5
41F3
330
1A
100
AcDbEntity
  8
外形線
100
AcDbLine
 10
56.618177107196
 20
611.906617348365
 30
0.0
 11
53.953019107197
 21
616.522796848365
 31
0.0
  0
LINE
  5
41F4
330
1A
100
AcDbEntity
  8
外形線
100
AcDbLine
 10
66.158408077578
 20
591.729024348093
 30
0.0
 11
67.060208077577
 21
590.167060929826
 31
0.0
  0
ARC
  5
41F5
330
1A
100
AcDbEntity
  8
外形線
100
AcDbCircle
 10
63.58917825921
 20
588.163060929826
 30
0.0
 40
4.007999999999999
100
AcDbArc
 50
300.000000000002
 51
29.999999999998
  0
LINE
  5
41F6
330
1A
100
AcDbEntity
  8
外形線
100
AcDbLine
 10
52.316489203951
 20
577.026731111458
 30
0.0
 11
65.593178259209
 21
584.692031111459
 31
0.0
  0
LINE
  5
41F7
330
1A
100
AcDbEntity
  8
外形線
100
AcDbLine
 10
56.523762462068
 20
606.067030067074
 30
0.0
 11
59.028762462068
 21
601.728242794114
 31
0.0
  0
LINE
  5
41F8
330
1A
100
AcDbEntity
  8
細線
100
AcDbLine
 10
57.855120504731
 20
601.050640294114
 30
0.0
 11
55.350120504731
 21
605.389427567074
 31
0.0
  0
LINE
  5
41F9
330
1A
100
AcDbEntity
  8
外形線
100
AcDbLine
 10
55.339923186684
 20
611.168589840034
 30
0.0
 11
57.844923186683
 21
606.829802567074
 31
0.0
  0
LINE
  5
41FA
330
1A
100
AcDbEntity
  8
外形線
100
AcDbLine
 10
60.349923186683
 20
602.491015294114
 30
0.0
 11
66.462123186683
 21
591.904374348093
 31
0.0
  0
ARC
  5
41FB
330
1A
100
AcDbEntity
  8
外形線
100
AcDbCircle
 10
56.605387550041
 20
596.952741267532
 30
0.0
 40
9.30038181818205
100
AcDbArc
 50
259.727393143495
 51
340.272606856496
  0
ARC
  5
41FC
330
1A
100
AcDbEntity
  8
外形線
 48
10.0
100
AcDbCircle
 10
25.576880985608
 20
648.671841202248
 30
0.0
 40
22.5
100
AcDbArc
 50
92.633603408823
 51
267.366396591176
  0
LINE
  5
41FD
330
1A
100
AcDbEntity
  8
外形線
 48
10.0
100
AcDbLine
 10
30.443031485598
 20
645.69652347306
 30
0.0
 11
30.443031485598
 21
651.470026164956
 31
0.0
  0
LINE
  5
41FE
330
1A
100
AcDbEntity
  8
外形線
 48
10.0
100
AcDbLine
 10
20.443031485598
 20
645.69652347306
 30
0.0
 11
20.443031485598
 21
651.470026164956
 31
0.0
  0
LINE
  5
41FF
330
1A
100
AcDbEntity
  8
外形線
 48
10.0
100
AcDbLine
 10
26.343031485598
 20
643.329387369382
 30
0.0
 11
30.443031485598
 21
645.69652347306
 31
0.0
  0
LINE
  5
4200
330
1A
100
AcDbEntity
  8
外形線
 48
10.0
100
AcDbLine
 10
20.443031485598
 20
651.470026164956
 30
0.0
 11
24.543031485598
 21
653.837162268634
 31
0.0
  0
LINE
  5
4201
330
1A
100
AcDbEntity
  8
外形線
 48
10.0
100
AcDbLine
 10
30.443031485598
 20
651.470026164956
 30
0.0
 11
26.343031485598
 21
653.837162268634
 31
0.0
  0
LINE
  5
4202
330
1A
100
AcDbEntity
  8
外形線
 48
10.0
100
AcDbLine
 10
24.543031485598
 20
643.329387369382
 30
0.0
 11
20.443031485598
 21
645.69652347306
 31
0.0
  0
ARC
  5
4203
330
1A
100
AcDbEntity
  8
細線
 48
10.0
100
AcDbCircle
 10
25.443031485598
 20
648.583274819007
 30
0.0
 40
5.0
100
AcDbArc
 50
100.369759805477
 51
259.630240194523
  0
LINE
  5
4228
330
1A
100
AcDbEntity
  8
中心線
 48
10.0
100
AcDbLine
 10
25.443031485598
 20
692.768840694172
 30
0.0
 11
25.443031485598
 21
595.045344785193
 31
0.0
  0
LINE
  5
4229
330
1A
100
AcDbEntity
  8
外形線
 48
10.0
100
AcDbLine
 10
24.543031485598
 20
688.583274819007
 30
0.0
 11
26.343031485598
 21
688.583274819007
 31
0.0
  0
LINE
  5
422A
330
1A
100
AcDbEntity
  8
外形線
 48
10.0
100
AcDbLine
 10
26.343031485598
 20
688.583274819007
 30
0.0
 11
26.343031485598
 21
608.583274819007
 31
0.0
  0
LINE
  5
422B
330
1A
100
AcDbEntity
  8
外形線
 48
10.0
100
AcDbLine
 10
24.543031485598
 20
688.583274819007
 30
0.0
 11
24.543031485598
 21
608.583274819007
 31
0.0
  0
LINE
  5
422C
330
1A
100
AcDbEntity
  8
外形線
 48
10.0
100
AcDbLine
 10
26.343031485598
 20
608.583274819007
 30
0.0
 11
24.543031485598
 21
608.583274819007
 31
0.0
  0
ARC
  5
422D
330
1A
100
AcDbEntity
  8
細線
 48
10.0
100
AcDbCircle
 10
25.443031485598
 20
648.583274819007
 30
0.0
 40
5.0
100
AcDbArc
 50
280.369759805478
 51
79.630240194522
  0
ARC
  5
422E
330
1A
100
AcDbEntity
  8
外形線
 48
10.0
100
AcDbCircle
 10
25.576880985608
 20
648.671841202248
 30
0.0
 40
22.5
100
AcDbArc
 50
271.951363445946
 51
88.048636554054
  0
TEXT
  5
422F
330
1A
100
AcDbEntity
  8
寸法線
100
AcDbText
 10
-41.696949699168
 20
491.766440642116
 30
0.0
 40
6.573033707865
  1
ク　ロ
  7
EXCADVERT
 72
     3
 11
-41.696949699168
 21
472.266440642116
 31
0.0
100
AcDbText
  0
TEXT
  5
4230
330
1A
100
AcDbEntity
  8
寸法線
100
AcDbText
 10
-71.247608199168
 20
491.616431642116
 30
0.0
 40
6.030927835052
  1
ア　カ
  7
EXCADVERT
 72
     3
 11
-71.247608199168
 21
472.116431642116
 31
0.0
100
AcDbText
  0
TEXT
  5
4231
330
1A
100
AcDbEntity
  8
寸法線
100
AcDbText
 10
-86.997882699168
 20
484.941253142116
 30
0.0
 40
6.428571428571
  1
キ
  7
EXCADVERT
 72
     3
 11
-86.997882699168
 21
478.941253142116
 31
0.0
100
AcDbText
  0
TEXT
  5
4232
330
1A
100
AcDbEntity
  8
寸法線
100
AcDbText
 10
-102.373254699168
 20
491.766440642116
 30
0.0
 40
5.636363639073
  1
ミドリ
  7
EXCADVERT
 72
     3
 11
-102.373254699168
 21
473.166440633175
 31
0.0
100
AcDbText
  0
LINE
  5
4233
330
1A
100
AcDbEntity
  8
寸法線
100
AcDbLine
 10
-98.630298699168
 20
535.782842642115
 30
0.0
 11
-98.630298699168
 21
442.782838142116
 31
0.0
  0
LINE
  5
4234
330
1A
100
AcDbEntity
  8
寸法線
100
AcDbLine
 10
-67.571309199168
 20
535.782842642115
 30
0.0
 11
-67.571309199168
 21
451.782838142116
 31
0.0
  0
LINE
  5
4235
330
1A
100
AcDbEntity
  8
寸法線
100
AcDbLine
 10
-98.630298699168
 20
442.782832142116
 30
0.0
 11
-23.389092699168
 21
442.782832142116
 31
0.0
  0
LINE
  5
4236
330
1A
100
AcDbEntity
  8
寸法線
100
AcDbLine
 10
-83.100861699168
 20
506.437445642115
 30
0.0
 11
-83.100861699168
 21
447.282838142116
 31
0.0
  0
LINE
  5
4237
330
1A
100
AcDbEntity
  8
寸法線
100
AcDbLine
 10
-83.100861699168
 20
447.282838142116
 30
0.0
 11
-23.026589199168
 21
447.282838142116
 31
0.0
  0
LINE
  5
4238
330
1A
100
AcDbEntity
  8
寸法線
100
AcDbLine
 10
-52.791539199168
 20
506.437445642115
 30
0.0
 11
-52.791539199168
 21
456.282838142116
 31
0.0
  0
LINE
  5
4239
330
1A
100
AcDbEntity
  8
寸法線
100
AcDbLine
 10
-37.797536199168
 20
460.782838142116
 30
0.0
 11
-37.797536199168
 21
506.069723642115
 31
0.0
  0
LINE
  5
423A
330
1A
100
AcDbEntity
  8
寸法線
100
AcDbLine
 10
-67.571309199168
 20
451.782838142116
 30
0.0
 11
-17.321319699168
 21
451.782838142116
 31
0.0
  0
LINE
  5
423B
330
1A
100
AcDbEntity
  8
寸法線
100
AcDbLine
 10
-21.380906199168
 20
447.774509642116
 30
0.0
 11
-19.515255699168
 21
448.998547142116
 31
0.0
  0
LINE
  5
423C
330
1A
100
AcDbEntity
  8
寸法線
100
AcDbLine
 10
-21.248406699168
 20
443.681062142116
 30
0.0
 11
-19.291832199168
 21
445.673855642116
 31
0.0
  0
LINE
  5
423D
330
1A
100
AcDbEntity
  8
寸法線
100
AcDbLine
 10
-17.321319699168
 20
449.521976642116
 30
0.0
 11
-18.021893199168
 21
449.486351642116
 31
0.0
  0
LINE
  5
423E
330
1A
100
AcDbEntity
  8
寸法線
100
AcDbLine
 10
-17.321319699168
 20
446.570488142116
 30
0.0
 11
-17.459850699168
 21
446.556160142116
 31
0.0
  0
ARC
  5
423F
330
1A
100
AcDbEntity
  8
寸法線
100
AcDbCircle
 10
-23.026589199168
 20
450.282838142116
 30
0.0
 40
3.0
100
AcDbArc
 50
270.0
 51
303.268623610808
  0
ARC
  5
4240
330
1A
100
AcDbEntity
  8
寸法線
100
AcDbCircle
 10
-17.869560699168
 20
446.490230642116
 30
0.0
 40
3.0
100
AcDbArc
 50
92.910721466855
 51
123.268603762964
  0
ARC
  5
4241
330
1A
100
AcDbEntity
  8
寸法線
100
AcDbCircle
 10
-17.151146199168
 20
443.572085642116
 30
0.0
 40
3.0
100
AcDbArc
 50
95.906259411358
 51
135.525546099522
  0
ARC
  5
4242
330
1A
100
AcDbEntity
  8
寸法線
100
AcDbCircle
 10
-23.389092699168
 20
445.782838142116
 30
0.0
 40
3.0
100
AcDbArc
 50
270.0
 51
315.525565947365
  0
ARC
  5
4243
330
1A
100
AcDbEntity
  8
寸法線
100
AcDbCircle
 10
-23.026589199168
 20
453.282838142116
 30
0.0
 40
3.0
100
AcDbArc
 50
56.731416084878
 51
89.999981276032
  0
LINE
  5
4244
330
1A
100
AcDbEntity
  8
寸法線
100
AcDbLine
 10
-21.380906199168
 20
455.791165142116
 30
0.0
 11
-19.515255699168
 21
454.567127642116
 31
0.0
  0
LINE
  5
4245
330
1A
100
AcDbEntity
  8
寸法線
100
AcDbLine
 10
-17.321319699168
 20
454.043698142116
 30
0.0
 11
-18.021893199168
 21
454.079323142116
 31
0.0
  0
ARC
  5
4246
330
1A
100
AcDbEntity
  8
寸法線
100
AcDbCircle
 10
-17.869560699168
 20
457.075444142116
 30
0.0
 40
3.0
100
AcDbArc
 50
236.731435932721
 51
267.089318228831
  0
LINE
  5
4247
330
1A
100
AcDbEntity
  8
寸法線
100
AcDbLine
 10
-17.321319699168
 20
456.995186642116
 30
0.0
 11
-17.459850699168
 21
457.009514642116
 31
0.0
  0
ARC
  5
4248
330
1A
100
AcDbEntity
  8
寸法線
100
AcDbCircle
 10
-17.151146199168
 20
459.993584642116
 30
0.0
 40
3.0
100
AcDbArc
 50
224.474436300384
 51
264.093722988548
  0
LINE
  5
4249
330
1A
100
AcDbEntity
  8
寸法線
100
AcDbLine
 10
-21.248406699168
 20
459.884614142116
 30
0.0
 11
-19.291832199168
 21
457.891819142116
 31
0.0
  0
ARC
  5
424A
330
1A
100
AcDbEntity
  8
寸法線
100
AcDbCircle
 10
-23.389092699168
 20
457.782838142116
 30
0.0
 40
3.0
100
AcDbArc
 50
44.474473748322
 51
89.999981276032
  0
LINE
  5
424B
330
1A
100
AcDbEntity
  8
寸法線
100
AcDbLine
 10
-37.797536199168
 20
460.782838142116
 30
0.0
 11
-23.389092699168
 21
460.782838142116
 31
0.0
  0
LINE
  5
424C
330
1A
100
AcDbEntity
  8
寸法線
100
AcDbLine
 10
-52.791539199168
 20
456.282838142116
 30
0.0
 11
-23.026589199168
 21
456.282838142116
 31
0.0
  0
LINE
  5
424D
330
1A
100
AcDbEntity
  8
寸法線
100
AcDbLine
 10
-14.321319699168
 20
457.782838142116
 30
0.0
 11
38.178668300832
 21
457.782838142116
 31
0.0
  0
LINE
  5
424E
330
1A
100
AcDbEntity
  8
寸法線
100
AcDbLine
 10
-14.321319699168
 20
445.782838142116
 30
0.0
 11
38.178668300832
 21
445.782838142116
 31
0.0
  0
ARC
  5
424F
330
1A
100
AcDbEntity
  8
寸法線
100
AcDbCircle
 10
32.982516917357
 20
448.782836342116
 30
0.0
 40
6.0
100
AcDbArc
 50
330.000019847844
 51
30.000019847843
  0
ARC
  5
4250
330
1A
100
AcDbEntity
  8
寸法線
100
AcDbCircle
 10
32.982514838895
 20
454.782836342115
 30
0.0
 40
6.0
100
AcDbArc
 50
330.000019847844
 51
30.000019847843
  0
ARC
  5
4251
330
1A
100
AcDbEntity
  8
寸法線
100
AcDbCircle
 10
43.374819684308
 20
454.782839942116
 30
0.0
 40
6.0
100
AcDbArc
 50
150.000019847843
 51
210.000019847843
  0
ARC
  5
4252
330
1A
100
AcDbEntity
  8
寸法線
100
AcDbCircle
 10
-9.125167276461
 20
454.782838142116
 30
0.0
 40
6.0
100
AcDbArc
 50
150.0
 51
210.0
  0
ARC
  5
4253
330
1A
100
AcDbEntity
  8
寸法線
100
AcDbCircle
 10
-9.125167276461
 20
448.782838142116
 30
0.0
 40
6.0
100
AcDbArc
 50
150.0
 51
209.999999999999
  0
ARC
  5
4254
330
1A
100
AcDbEntity
  8
寸法線
100
AcDbCircle
 10
-19.517472121875
 20
448.782838142116
 30
0.0
 40
6.0
100
AcDbArc
 50
330.0
 51
30.0
  0
LINE
  5
4255
330
1A
100
AcDbEntity
  8
寸法線
100
AcDbLine
 10
41.178668300832
 20
451.782838142116
 30
0.0
 11
75.678668300832
 21
451.782838142116
 31
0.0
  0
LINE
  5
4256
330
1A
100
AcDbEntity
  8
寸法線
100
AcDbLine
 10
75.678668300832
 20
459.282838142116
 30
0.0
 11
47.660853800832
 21
459.282838142116
 31
0.0
  0
LINE
  5
4257
330
1A
100
AcDbEntity
  8
寸法線
100
AcDbLine
 10
75.678668300832
 20
466.782838142116
 30
0.0
 11
47.810793800832
 21
466.782838142116
 31
0.0
  0
LINE
  5
4258
330
1A
100
AcDbEntity
  8
寸法線
100
AcDbLine
 10
44.977602800832
 20
464.769272642116
 30
0.0
 11
42.643580300832
 21
458.065552142116
 31
0.0
  0
LINE
  5
4259
330
1A
100
AcDbEntity
  8
寸法線
100
AcDbLine
 10
41.226984800832
 20
457.058770142116
 30
0.0
 11
41.178668300832
 21
457.058770142116
 31
0.0
  0
LINE
  5
425A
330
1A
100
AcDbEntity
  8
寸法線
100
AcDbLine
 10
44.901248300832
 20
457.459484642116
 30
0.0
 11
44.226161300832
 21
455.876228642116
 31
0.0
  0
LINE
  5
425B
330
1A
100
AcDbEntity
  8
寸法線
100
AcDbLine
 10
42.156452300832
 20
454.508717642116
 30
0.0
 11
41.178668300832
 21
454.508717642116
 31
0.0
  0
ARC
  5
425C
330
1A
100
AcDbEntity
  8
寸法線
100
AcDbCircle
 10
47.810793800832
 20
463.782838142116
 30
0.0
 40
3.0
100
AcDbArc
 50
89.999981276032
 51
160.80341269666
  0
ARC
  5
425D
330
1A
100
AcDbEntity
  8
寸法線
100
AcDbCircle
 10
47.660853800832
 20
456.282838142116
 30
0.0
 40
3.0
100
AcDbArc
 50
89.999981276032
 51
156.907528872886
  0
ARC
  5
425E
330
1A
100
AcDbEntity
  8
寸法線
100
AcDbCircle
 10
41.226984800832
 20
458.558770142116
 30
0.0
 40
1.5
100
AcDbArc
 50
270.0
 51
340.803432544508
  0
ARC
  5
425F
330
1A
100
AcDbEntity
  8
寸法線
100
AcDbCircle
 10
42.156452300832
 20
456.758717642116
 30
0.0
 40
2.25
100
AcDbArc
 50
270.0
 51
336.907491424955
  0
LINE
  5
4260
330
1A
100
AcDbEntity
  8
寸法線
100
AcDbLine
 10
75.678668300832
 20
436.782838142116
 30
0.0
 11
47.810793800832
 21
436.782838142116
 31
0.0
  0
ARC
  5
4261
330
1A
100
AcDbEntity
  8
寸法線
100
AcDbCircle
 10
47.810793800832
 20
439.782838142116
 30
0.0
 40
3.0
100
AcDbArc
 50
199.196626999025
 51
270.0
  0
LINE
  5
4262
330
1A
100
AcDbEntity
  8
寸法線
100
AcDbLine
 10
75.678668300832
 20
444.282838142116
 30
0.0
 11
47.660853800832
 21
444.282838142116
 31
0.0
  0
ARC
  5
4263
330
1A
100
AcDbEntity
  8
寸法線
100
AcDbCircle
 10
47.660853800832
 20
447.282838142116
 30
0.0
 40
3.0
100
AcDbArc
 50
203.092510822796
 51
270.0
  0
LINE
  5
4264
330
1A
100
AcDbEntity
  8
寸法線
100
AcDbLine
 10
41.226984800832
 20
446.506904642116
 30
0.0
 11
41.178668300832
 21
446.506904642116
 31
0.0
  0
LINE
  5
4265
330
1A
100
AcDbEntity
  8
寸法線
100
AcDbLine
 10
44.977602800832
 20
438.796402142116
 30
0.0
 11
42.643580300832
 21
445.500122642116
 31
0.0
  0
ARC
  5
4266
330
1A
100
AcDbEntity
  8
寸法線
100
AcDbCircle
 10
41.226984800832
 20
445.006904642116
 30
0.0
 40
1.5
100
AcDbArc
 50
19.196607151181
 51
89.999981276032
  0
LINE
  5
4267
330
1A
100
AcDbEntity
  8
寸法線
100
AcDbLine
 10
44.901248300832
 20
446.106190142116
 30
0.0
 11
44.226161300832
 21
447.689446142116
 31
0.0
  0
LINE
  5
4268
330
1A
100
AcDbEntity
  8
寸法線
100
AcDbLine
 10
42.156452300832
 20
449.056958642116
 30
0.0
 11
41.178668300832
 21
449.056958642116
 31
0.0
  0
ARC
  5
4269
330
1A
100
AcDbEntity
  8
寸法線
100
AcDbCircle
 10
42.156452300832
 20
446.806958642116
 30
0.0
 40
2.25
100
AcDbArc
 50
23.092490974952
 51
89.999981276031
  0
TEXT
  5
426A
330
1A
100
AcDbEntity
  8
寸法線
100
AcDbText
 10
-1.425167199168
 20
448.635163142116
 30
0.0
 40
6.75
  1
リード線
 41
0.869565217391
  7
EXCADSTD
 72
     5
 11
25.574832800832
 21
448.635163142116
 31
0.0
100
AcDbText
  0
TEXT
  5
426B
330
1A
100
AcDbEntity
  8
寸法線
100
AcDbText
 10
59.626064300832
 20
467.910556142116
 30
0.0
 40
5.25
  1
ク　ロ
 41
0.918367346939
  7
EXCADSTD
 72
     5
 11
75.376064300832
 21
467.910556142116
 31
0.0
100
AcDbText
  0
TEXT
  5
426C
330
1A
100
AcDbEntity
  8
寸法線
100
AcDbText
 10
59.776073300832
 20
460.260397142116
 30
0.0
 40
5.25
  1
シ　ロ
 41
0.918367346939
  7
EXCADSTD
 72
     5
 11
75.526073300832
 21
460.260397142116
 31
0.0
100
AcDbText
  0
TEXT
  5
426D
330
1A
100
AcDbEntity
  8
寸法線
100
AcDbText
 10
59.776073300832
 20
452.610245642116
 30
0.0
 40
5.25
  1
ア　カ
 41
0.909090909091
  7
EXCADSTD
 72
     5
 11
75.526073300832
 21
452.610245642116
 31
0.0
100
AcDbText
  0
TEXT
  5
426E
330
1A
100
AcDbEntity
  8
寸法線
100
AcDbText
 10
65.026187300832
 20
445.110085142116
 30
0.0
 40
5.25
  1
キ
 41
1.071428571429
  7
EXCADSTD
 72
     5
 11
70.276187300832
 21
445.110085142116
 31
0.0
100
AcDbText
  0
TEXT
  5
426F
330
1A
100
AcDbEntity
  8
寸法線
100
AcDbText
 10
59.776073300832
 20
437.459927642116
 30
0.0
 40
5.25
  1
ミドリ
 41
0.947368421053
  7
EXCADSTD
 72
     5
 11
75.526073300832
 21
437.459927642116
 31
0.0
100
AcDbText
  0
TEXT
  5
4270
330
1A
100
AcDbEntity
  8
寸法線
100
AcDbText
 10
-56.56039177169
 20
491.424536642116
 30
0.0
 40
6.724137931034
  1
シ　ロ
  7
EXCADVERT
 72
     3
 11
-56.56039177169
 21
471.924536642116
 31
0.0
100
AcDbText
  0
TEXT
  5
4271
330
1A
100
AcDbEntity
  8
寸法線
100
AcDbText
 10
80.328059300832
 20
459.849034142116
 30
0.0
 40
7.5
  1
電源
 41
0.923076923077
  7
EXCADSTD
 72
     5
 11
95.328059300832
 21
459.849034142116
 31
0.0
100
AcDbText
  0
TEXT
  5
4272
330
1A
100
AcDbEntity
  8
寸法線
100
AcDbText
 10
83.403063800832
 20
455.498813642116
 30
0.0
 40
7.336956521739
  1
ＨＣＬ
  7
EXCADVERT
 72
     3
 11
83.403063800832
 21
432.998813642116
 31
0.0
100
AcDbText
  0
LINE
  5
4273
330
1A
100
AcDbEntity
  8
寸法線
100
AcDbLine
 10
-98.630298699168
 20
535.782842642115
 30
0.0
 11
-88.991306199168
 21
535.782842642115
 31
0.0
  0
LINE
  5
4274
330
1A
100
AcDbEntity
  8
寸法線
100
AcDbLine
 10
-88.991306199168
 20
535.782842642115
 30
0.0
 11
-88.991306199168
 21
521.003027642116
 31
0.0
  0
LINE
  5
4275
330
1A
100
AcDbEntity
  8
寸法線
100
AcDbLine
 10
-77.210301699168
 20
535.782842642115
 30
0.0
 11
-67.571309199168
 21
535.782842642115
 31
0.0
  0
LINE
  5
4276
330
1A
100
AcDbEntity
  8
寸法線
100
AcDbLine
 10
-52.791515199168
 20
535.782842642115
 30
0.0
 11
-37.797512199168
 21
535.782842642115
 31
0.0
  0
TEXT
  5
4277
330
1A
100
AcDbEntity
  8
寸法線
100
AcDbText
 10
-42.298473699168
 20
508.307684642116
 30
0.0
 40
9.0
  1
Ｍ
 41
1.25
  7
EXCADSTD
 72
     5
 11
-33.298473699168
 21
508.307684642116
 31
0.0
100
AcDbText
  0
LINE
  5
4278
330
1A
100
AcDbEntity
  8
寸法線
100
AcDbLine
 10
-37.797512199168
 20
535.782842642115
 30
0.0
 11
-37.797512199168
 21
519.858115142115
 31
0.0
  0
CIRCLE
  5
4279
330
1A
100
AcDbEntity
  8
寸法線
100
AcDbCircle
 10
-83.100804699168
 20
507.637450142116
 30
0.0
 40
1.2000045
  0
CIRCLE
  5
427A
330
1A
100
AcDbEntity
  8
寸法線
100
AcDbCircle
 10
-52.791515199168
 20
507.637450142116
 30
0.0
 40
1.2000045
  0
CIRCLE
  5
427B
330
1A
100
AcDbEntity
  8
寸法線
100
AcDbCircle
 10
-88.991306199168
 20
519.803023142116
 30
0.0
 40
1.2000045
  0
LINE
  5
427C
330
1A
100
AcDbEntity
  8
寸法線
100
AcDbLine
 10
-77.210301699168
 20
535.782842642115
 30
0.0
 11
-77.210301699168
 21
521.003027642116
 31
0.0
  0
CIRCLE
  5
427D
330
1A
100
AcDbEntity
  8
寸法線
100
AcDbCircle
 10
-77.210301699168
 20
519.803023142116
 30
0.0
 40
1.2000045
  0
LINE
  5
427E
330
1A
100
AcDbEntity
  8
寸法線
100
AcDbLine
 10
-52.791515199168
 20
535.782842642115
 30
0.0
 11
-52.791515199168
 21
521.003027642116
 31
0.0
  0
CIRCLE
  5
427F
330
1A
100
AcDbEntity
  8
寸法線
100
AcDbCircle
 10
-52.791515199168
 20
519.803023142116
 30
0.0
 40
1.2000045
  0
LINE
  5
4280
330
1A
100
AcDbEntity
  8
寸法線
100
AcDbLine
 10
-83.100804699168
 20
508.837442642116
 30
0.0
 11
-87.791301699168
 21
519.803023142116
 31
0.0
  0
LINE
  5
4281
330
1A
100
AcDbEntity
  8
寸法線
100
AcDbLine
 10
-52.791515199168
 20
508.837442642116
 30
0.0
 11
-51.591510699168
 21
519.803023142116
 31
0.0
  0
CIRCLE
  5
4282
330
1A
100
AcDbEntity
  8
寸法線
100
AcDbCircle
 10
-37.791836199168
 20
512.974768142116
 30
0.0
 40
6.883348499999999
  0
LINE
  5
4283
330
1A
100
AcDbEntity
  8
寸法線
100
AcDbLine
 10
331.571319281625
 20
493.457979191874
 30
0.0
 11
331.571319281625
 21
535.457934191874
 31
0.0
  0
LINE
  5
4284
330
1A
100
AcDbEntity
  8
寸法線
100
AcDbLine
 10
411.071319281625
 20
524.957934191874
 30
0.0
 11
259.571227781625
 21
524.957934191874
 31
0.0
  0
LINE
  5
4285
330
1A
100
AcDbEntity
  8
寸法線
100
AcDbLine
 10
411.071319281625
 20
514.457934191874
 30
0.0
 11
259.571227781625
 21
514.457934191874
 31
0.0
  0
LINE
  5
4286
330
1A
100
AcDbEntity
  8
寸法線
100
AcDbLine
 10
411.071319281625
 20
503.957934191874
 30
0.0
 11
259.571227781625
 21
503.957934191874
 31
0.0
  0
LINE
  5
4287
330
1A
100
AcDbEntity
  8
寸法線
100
AcDbLine
 10
259.571227781625
 20
535.457934191874
 30
0.0
 11
411.071319281625
 21
535.457934191874
 31
0.0
  0
LINE
  5
4288
330
1A
100
AcDbEntity
  8
寸法線
100
AcDbLine
 10
283.571250281625
 20
493.457979191874
 30
0.0
 11
283.571250281625
 21
535.457934191874
 31
0.0
  0
ARC
  5
4289
330
1A
100
AcDbEntity
  8
寸法線
100
AcDbCircle
 10
308.012466281625
 20
528.297868691874
 30
0.0
 40
1.3204605
100
AcDbArc
 50
252.904086432758
 51
337.411923467783
  0
ARC
  5
428A
330
1A
100
AcDbEntity
  8
寸法線
100
AcDbCircle
 10
308.012466281625
 20
528.297823691874
 30
0.0
 40
1.3204425
100
AcDbArc
 50
252.903398883408
 51
337.412611017143
  0
ARC
  5
428B
330
1A
100
AcDbEntity
  8
寸法線
100
AcDbCircle
 10
304.609176281625
 20
530.789431691874
 30
0.0
 40
3.7598535
100
AcDbArc
 50
273.280470979894
 51
33.415912335968
  0
ARC
  5
428C
330
1A
100
AcDbEntity
  8
寸法線
100
AcDbCircle
 10
309.372160781625
 20
530.035768691874
 30
0.0
 40
3.472035
100
AcDbArc
 50
123.469024399701
 51
239.774013712206
  0
ARC
  5
428D
330
1A
100
AcDbEntity
  8
寸法線
100
AcDbCircle
 10
309.372160781625
 20
530.035768691874
 30
0.0
 40
3.4720395
100
AcDbArc
 50
123.469024399702
 51
239.773899120646
  0
ARC
  5
428E
330
1A
100
AcDbEntity
  8
寸法線
100
AcDbCircle
 10
307.569808781625
 20
532.764589691874
 30
0.0
 40
0.2017125
100
AcDbArc
 50
28.230948369036
 51
123.883845843371
  0
LINE
  5
428F
330
1A
100
AcDbEntity
  8
寸法線
100
AcDbLine
 10
411.071319281625
 20
493.457979191874
 30
0.0
 11
259.571227781625
 21
493.457979191874
 31
0.0
  0
LINE
  5
4290
330
1A
100
AcDbEntity
  8
寸法線
100
AcDbLine
 10
259.571250281625
 20
493.457979191874
 30
0.0
 11
259.571250281625
 21
535.457934191874
 31
0.0
  0
TEXT
  5
4291
330
1A
100
AcDbEntity
  8
寸法線
100
AcDbText
 10
261.599554781625
 20
527.020113191874
 30
0.0
 40
6.75
  1
御仕様
 41
0.882352941176
  7
EXCADSTD
 72
     5
 11
281.849554781625
 21
527.020113191874
 31
0.0
100
AcDbText
  0
LINE
  5
4292
330
1A
100
AcDbEntity
  8
寸法線
100
AcDbLine
 10
411.071319281625
 20
493.457979191874
 30
0.0
 11
411.071319281625
 21
535.457934191874
 31
0.0
  0
LINE
  5
4293
330
1A
100
AcDbEntity
  8
寸法線
100
AcDbLine
 10
381.071319281625
 20
493.457979191874
 30
0.0
 11
381.071319281625
 21
535.457934191874
 31
0.0
  0
TEXT
  5
4294
330
1A
100
AcDbEntity
  8
寸法線
100
AcDbText
 10
389.326995281625
 20
526.870057691874
 30
0.0
 40
6.75
  1
台数
 41
0.909090909091
  7
EXCADSTD
 72
     5
 11
402.826995281625
 21
526.870057691874
 31
0.0
100
AcDbText
  0
TEXT
  5
4295
330
1A
100
AcDbEntity
  8
寸法線
100
AcDbText
 10
349.876098281625
 20
527.020068191874
 30
0.0
 40
6.75
  1
記事
 41
0.909090909091
  7
EXCADSTD
 72
     5
 11
363.376098281625
 21
527.020068191874
 31
0.0
100
AcDbText
  0
MTEXT
  5
4296
102
{ACAD_XDICTIONARY
360
4297
102
}
330
1A
100
AcDbEntity
  8
寸法線
 48
10.0
100
AcDbMText
 10
75.046695536118
 20
534.658896299126
 30
0.0
 40
7.0
 41
158.221086696158
 71
     1
 72
     5
  1
\H0.8571x;塗　装　色：7.5BG4/1.5\P接点　容量：AC250V5A\P静止トルク：約4.9N・cm（約500g・cm）\P回　転　数：1RPM
1001
ACADANNOTATIVE
1000
AnnotativeData
1002
{
1070
     1
1070
     0
1002
}
  0
DIMENSION
  5
429E
330
1A
100
AcDbEntity
  8
寸法線
 48
10.0
100
AcDbDimension
  2
*D53
 10
329.983927960336
 20
553.572194049039
 30
0.0
 11
288.483927960336
 21
557.206569049039
 31
0.0
 70
    32
  1
83
  3
ISO-25
100
AcDbAlignedDimension
 13
246.983927960336
 23
629.683274819007
 33
0.0
 14
329.983927960336
 24
573.756056494491
 34
0.0
100
AcDbRotatedDimension
1001
ACAD
1000
DSTYLE
1002
{
1070
     5
1000
OPEN30
1070
    41
1040
6.0
1070
    47
1040
0.1
1070
    48
1040
0.1
1070
    73
1070
     0
1070
   140
1040
6.0
1070
   271
1070
     1
1070
   272
1070
     1
1070
   341
1005
2AF4
1002
}
  0
MTEXT
  5
42AB
330
1A
100
AcDbEntity
  8
寸法線
 48
10.0
100
AcDbMText
 10
283.008540266164
 20
581.680819344191
 30
0.0
 40
6.0
 41
51.077111820171
 71
     1
 72
     5
  1
リード線0.5m付
  0
LEADER
  5
42AC
330
1A
100
AcDbEntity
  8
寸法線
 48
10.0
100
AcDbLeader
  3
ISO-25
 76
     2
 10
268.785518973278
 20
571.224933279072
 30
0.0
 10
282.182538569866
 20
576.243885892146
 30
0.0
1001
ACAD
1000
DSTYLE
1002
{
1070
     5
1000
OPEN30
1070
   147
1040
0.625
1070
    77
1070
     0
1070
    41
1040
6.0
1070
    47
1040
0.1
1070
    48
1040
0.1
1070
    73
1070
     0
1070
   140
1040
5.0
1070
   271
1070
     1
1070
   272
1070
     1
1070
   341
1005
2AF4
1070
   342
1005
2AF4
1002
}
  0
LINE
  5
42C6
330
1A
100
AcDbEntity
  8
中心線
 48
10.0
100
AcDbLine
 10
-23.526057309542
 20
638.67181070224
 30
0.0
 11
74.412120280737
 21
638.67181070224
 31
0.0
  0
LINE
  5
42C7
330
1A
100
AcDbEntity
  8
中心線
 48
10.0
100
AcDbLine
 10
74.412120280737
 20
648.583274819007
 30
0.0
 11
-23.526057309542
 21
648.583274819007
 31
0.0
  0
DIMENSION
  5
42C8
330
1A
100
AcDbEntity
  8
寸法線
 48
10.0
100
AcDbDimension
  2
*D54
 10
79.80002052744
 20
638.67181070224
 30
0.0
 11
79.80002052744
 21
643.627542760624
 31
0.0
 70
   160
  1
10
  3
ISO-25
100
AcDbAlignedDimension
 13
74.412120280737
 23
648.583274819007
 33
0.0
 14
74.412120280737
 24
638.67181070224
 34
0.0
 50
90.0
100
AcDbRotatedDimension
1001
ACAD
1000
DSTYLE
1002
{
1070
     5
1000
OPEN30
1070
    41
1040
6.0
1070
    47
1040
0.1
1070
    48
1040
0.1
1070
    73
1070
     0
1070
   140
1040
6.0
1070
   271
1070
     1
1070
   272
1070
     1
1070
   341
1005
2AF4
1002
}
  0
DIMENSION
  5
42C9
330
1A
100
AcDbEntity
  8
寸法線
 48
10.0
100
AcDbDimension
  2
*D55
 10
43.443031485598
 20
698.570391707726
 30
0.0
 11
25.443031485598
 21
702.198516707726
 31
0.0
 70
    32
  3
ISO-25
100
AcDbAlignedDimension
 13
7.443031485598
 23
658.975579664421
 33
0.0
 14
43.443031485598
 24
658.975579664421
 34
0.0
100
AcDbRotatedDimension
1001
ACAD
1000
DSTYLE
1002
{
1070
     5
1000
OPEN30
1070
    41
1040
6.0
1070
    47
1040
0.1
1070
    48
1040
0.1
1070
    73
1070
     0
1070
   140
1040
6.0
1070
   271
1070
     1
1070
   272
1070
     1
1070
   341
1005
2AF4
1002
}
  0
MTEXT
  5
42CA
330
1A
100
AcDbEntity
  8
寸法線
 48
10.0
100
AcDbMText
 10
19.467503744962
 20
715.153480865995
 30
0.0
 40
6.0
 41
18.538303897182
 71
     1
 72
     5
  1
平径
  0
DIMENSION
  5
42CB
330
1A
100
AcDbEntity
  8
寸法線
 48
10.0
100
AcDbDimension
  2
*D56
 10
26.343031485598
 20
617.504800942311
 30
0.0
 11
39.568031485598
 21
621.129800942311
 31
0.0
 70
    32
  1
1
  3
ISO-25
100
AcDbAlignedDimension
 13
24.543031485598
 23
617.504800942311
 33
0.0
 14
26.343031485598
 24
617.504800942311
 34
0.0
100
AcDbRotatedDimension
1001
ACAD
1000
DSTYLE
1002
{
1070
     5
1000
OPEN30
1070
    41
1040
6.0
1070
    47
1040
0.1
1070
    48
1040
0.1
1070
    73
1070
     0
1070
   140
1040
6.0
1070
   271
1070
     1
1070
   272
1070
     1
1070
   341
1005
2AF4
1002
}
  0
LEADER
  5
42CC
330
1A
100
AcDbEntity
  8
寸法線
 48
10.0
100
AcDbLeader
  3
ISO-25
 76
     3
 10
42.579844276476
 20
585.173694821104
 30
0.0
 10
26.922941504048
 20
564.901265367288
 30
0.0
 10
11.881072087935
 20
564.901265367288
 30
0.0
1001
ACAD
1000
DSTYLE
1002
{
1070
     5
1000
OPEN30
1070
   147
1040
0.625
1070
    77
1070
     0
1070
    41
1040
6.0
1070
    47
1040
0.1
1070
    48
1040
0.1
1070
    73
1070
     0
1070
   140
1040
5.0
1070
   271
1070
     1
1070
   272
1070
     1
1070
   341
1005
2AF4
1070
   342
1005
2AF4
1002
}
  0
MTEXT
  5
42CD
330
1A
100
AcDbEntity
  8
寸法線
 48
10.0
100
AcDbMText
 10
-37.171676882466
 20
580.505250719668
 30
0.0
 40
6.0
 41
75.272292791406
 71
     1
 72
     5
  1
コードロック\PビメットBMS050B
1001
ACAD
1000
MTEXTBEGIN
1070
    44
1040
0.8
1000
MTEXTEND
  0
MTEXT
  5
42CE
102
{ACAD_XDICTIONARY
360
42CF
102
}
330
1A
100
AcDbEntity
  8
隠れ線
 48
10.0
100
AcDbMText
 10
306.467213732376
 20
521.885941069502
 30
0.0
 40
6.0
 41
19.035286317203
 71
     2
 72
     5
  1
\C1;85\P100\P135
1001
ACADANNOTATIVE
1000
AnnotativeData
1002
{
1070
     1
1070
     0
1002
}
  0
MTEXT
  5
42D2
330
1A
100
AcDbEntity
  8
隠れ線
 48
10.0
100
AcDbMText
 10
310.355385600075
 20
489.459222333462
 30
0.0
 40
6.0
 41
102.645465564322
 71
     1
 72
     5
  1
{\C1;○印が今回の貴社の御仕様です。}
  0
ARC
  5
42D3
330
1A
100
AcDbEntity
  8
細線
 48
10.0
100
AcDbCircle
 10
25.443031485598
 20
648.583274819007
 30
0.0
 40
18.0
100
AcDbArc
 50
272.865983982599
 51
87.134016017401
  0
LINE
  5
42D4
330
1A
100
AcDbEntity
  8
外形線
 48
10.0
100
AcDbLine
 10
24.543031485598
 20
628.318280370452
 30
0.0
 11
7.443031485598
 21
638.190969973594
 31
0.0
  0
LINE
  5
42D5
330
1A
100
AcDbEntity
  8
外形線
 48
10.0
100
AcDbLine
 10
43.443031485598
 20
658.975579664421
 30
0.0
 11
26.343031485598
 21
668.848269267564
 31
0.0
  0
LINE
  5
42D6
330
1A
100
AcDbEntity
  8
外形線
 48
10.0
100
AcDbLine
 10
7.443031485598
 20
658.975579664421
 30
0.0
 11
24.543031485598
 21
668.848269267564
 31
0.0
  0
LINE
  5
42D7
330
1A
100
AcDbEntity
  8
外形線
 48
10.0
100
AcDbLine
 10
26.343031485598
 20
628.318280370452
 30
0.0
 11
43.443031485598
 21
638.190969973594
 31
0.0
  0
LINE
  5
42D8
330
1A
100
AcDbEntity
  8
外形線
 48
10.0
100
AcDbLine
 10
7.443031485598
 20
658.975579664421
 30
0.0
 11
7.443031485598
 21
638.190969973594
 31
0.0
  0
LINE
  5
42D9
330
1A
100
AcDbEntity
  8
外形線
 48
10.0
100
AcDbLine
 10
43.443031485598
 20
658.975579664421
 30
0.0
 11
43.443031485598
 21
638.190969973594
 31
0.0
  0
ARC
  5
42DA
330
1A
100
AcDbEntity
  8
細線
 48
10.0
100
AcDbCircle
 10
25.443031485598
 20
648.583274819007
 30
0.0
 40
18.0
100
AcDbArc
 50
92.865983982599
 51
267.134016017401
  0
MTEXT
  5
42DB
102
{ACAD_XDICTIONARY
360
42DC
102
}
330
1A
100
AcDbEntity
  8
寸法線
 48
10.0
100
AcDbMText
 10
-15.563186485076
 20
532.781633344321
 30
0.0
 40
6.0
 41
168.503621648242
 71
     1
 72
     5
  1
御仕様   電源電圧\P       AC100/110V\P       AC200/220V
1001
ACADANNOTATIVE
1000
AnnotativeData
1002
{
1070
     1
1070
     0
1002
}
  0
MTEXT
  5
42DF
102
{ACAD_XDICTIONARY
360
42E0
102
}
330
1A
100
AcDbEntity
  8
寸法線
 48
10.0
100
AcDbMText
 10
-14.382464892265
 20
503.234459621757
 30
0.0
 40
6.0
 41
161.650793650794
 71
     1
 72
     5
  1
\W0.7;○印が今回の貴社の御仕様です。
1001
ACADANNOTATIVE
1000
AnnotativeData
1002
{
1070
     1
1070
     0
1002
}
  0
LINE
  5
42E3
330
1A
100
AcDbEntity
  8
寸法線
 48
10.0
100
AcDbLine
 10
7.703751521459
 20
534.891094004585
 30
0.0
 11
7.703751521459
 21
505.448965047966
 31
0.0
  0
LINE
  5
42E4
330
1A
100
AcDbEntity
  8
寸法線
 48
10.0
100
AcDbLine
 10
-17.913470971548
 20
524.587609185198
 30
0.0
 11
55.534370016818
 21
524.587609185198
 31
0.0
  0
LINE
  5
42E5
330
1A
100
AcDbEntity
  8
寸法線
 48
10.0
100
AcDbLine
 10
-17.913470971548
 20
534.891094004585
 30
0.0
 11
55.534370016818
 21
534.891094004585
 31
0.0
  0
LINE
  5
42E6
330
1A
100
AcDbEntity
  8
寸法線
 48
10.0
100
AcDbLine
 10
55.534370016818
 20
534.891094004585
 30
0.0
 11
55.534370016818
 21
505.448965047966
 31
0.0
  0
LINE
  5
42E7
330
1A
100
AcDbEntity
  8
寸法線
 48
10.0
100
AcDbLine
 10
-17.913470971548
 20
514.701629963512
 30
0.0
 11
55.534370016818
 21
514.701629963512
 31
0.0
  0
LINE
  5
42E8
330
1A
100
AcDbEntity
  8
寸法線
 48
10.0
100
AcDbLine
 10
-17.913470971548
 20
505.448965047966
 30
0.0
 11
55.534370016818
 21
505.448965047966
 31
0.0
  0
LINE
  5
42E9
330
1A
100
AcDbEntity
  8
寸法線
 48
10.0
100
AcDbLine
 10
-17.913470971548
 20
534.891094004585
 30
0.0
 11
-17.913470971548
 21
505.448965047966
 31
0.0
  0
LINE
  5
42EA
330
1A
100
AcDbEntity
  8
外形線
100
AcDbLine
 10
276.983927960336
 20
612.883247819008
 30
0.0
 11
276.983927960336
 21
674.083274819007
 31
0.0
  0
LINE
  5
42EB
330
1A
100
AcDbEntity
  8
外形線
100
AcDbLine
 10
276.983927960336
 20
674.083274819007
 30
0.0
 11
289.183908460337
 21
674.083274819007
 31
0.0
  0
LINE
  5
42EC
330
1A
100
AcDbEntity
  8
外形線
100
AcDbLine
 10
279.483927960336
 20
603.083274819007
 30
0.0
 11
279.483927960336
 21
674.083274819007
 31
0.0
  0
LINE
  5
42ED
330
1A
100
AcDbEntity
  8
外形線
100
AcDbLine
 10
278.218038233808
 20
603.083274819007
 30
0.0
 11
289.183908460337
 21
603.083274819007
 31
0.0
  0
LINE
  5
42EE
330
1A
100
AcDbEntity
  8
外形線
100
AcDbLine
 10
276.983927960336
 20
671.983274819007
 30
0.0
 11
251.183927960336
 21
671.683274819007
 31
0.0
  0
LINE
  5
42EF
330
1A
100
AcDbEntity
  8
外形線
100
AcDbLine
 10
245.183909960336
 20
667.483274819007
 30
0.0
 11
248.983927960336
 21
667.483274819007
 31
0.0
  0
LINE
  5
42F0
330
1A
100
AcDbEntity
  8
外形線
100
AcDbLine
 10
248.983927960336
 20
667.483274819007
 30
0.0
 11
248.983927960336
 21
667.483274819007
 31
0.0
  0
LINE
  5
42F1
330
1A
100
AcDbEntity
  8
外形線
100
AcDbLine
 10
245.183909960336
 20
629.683274819007
 30
0.0
 11
248.983927960336
 21
629.683274819007
 31
0.0
  0
LINE
  5
42F2
330
1A
100
AcDbEntity
  8
外形線
100
AcDbLine
 10
246.983927960336
 20
629.683274819007
 30
0.0
 11
246.983927960336
 21
667.483274819007
 31
0.0
  0
LINE
  5
42F3
330
1A
100
AcDbEntity
  8
外形線
100
AcDbLine
 10
248.983927960336
 20
669.483274819007
 30
0.0
 11
248.983927960336
 21
607.683274819007
 31
0.0
  0
ARC
  5
42F4
330
1A
100
AcDbEntity
  8
外形線
100
AcDbCircle
 10
251.183927960336
 20
669.483274819007
 30
0.0
 40
2.2
100
AcDbArc
 50
90.0
 51
180.0
  0
ARC
  5
42F5
330
1A
100
AcDbEntity
  8
外形線
100
AcDbCircle
 10
251.183927960336
 20
607.683274819007
 30
0.0
 40
2.2
100
AcDbArc
 50
180.0
 51
263.748538621027
  0
LWPOLYLINE
  5
42F6
330
1A
100
AcDbEntity
  8
細線
100
AcDbPolyline
 90
        2
 70
     0
 43
0.0
 10
231.283945960336
 20
636.524774819007
 10
232.883927960336
 20
636.524774819007
  0
LWPOLYLINE
  5
42F7
330
1A
100
AcDbEntity
  8
細線
100
AcDbPolyline
 90
        2
 70
     0
 43
0.0
 10
232.883927960336
 20
660.641774819008
 10
231.283945960337
 20
660.641774819008
  0
LWPOLYLINE
  5
42F8
330
1A
100
AcDbEntity
  8
外形線
100
AcDbPolyline
 90
        2
 70
     0
 43
0.0
 10
232.883927960336
 20
661.803774819007
 10
231.283945960337
 20
661.803774819007
  0
LINE
  5
42F9
330
1A
100
AcDbEntity
  8
外形線
100
AcDbLine
 10
235.883895455484
 20
659.060115893276
 30
0.0
 11
239.883927960336
 21
659.083274819007
 31
0.0
  0
LINE
  5
42FA
330
1A
100
AcDbEntity
  8
外形線
100
AcDbLine
 10
239.883927960336
 20
671.083274819007
 30
0.0
 11
239.883927960336
 21
626.083274819007
 31
0.0
  0
LINE
  5
42FB
330
1A
100
AcDbEntity
  8
外形線
100
AcDbLine
 10
239.883927960336
 20
671.083274819007
 30
0.0
 11
241.483927960336
 21
671.083274819007
 31
0.0
  0
LINE
  5
42FC
330
1A
100
AcDbEntity
  8
外形線
100
AcDbLine
 10
232.883927960336
 20
630.560109579899
 30
0.0
 11
232.883927960336
 21
666.560109579899
 31
0.0
  0
LINE
  5
42FD
330
1A
100
AcDbEntity
  8
外形線
100
AcDbLine
 10
232.883927960336
 20
666.560109579899
 30
0.0
 11
235.907070525705
 21
669.583274819008
 31
0.0
  0
LINE
  5
42FE
330
1A
100
AcDbEntity
  8
外形線
100
AcDbLine
 10
235.860740394967
 20
627.583274819007
 30
0.0
 11
239.883927960336
 21
627.583274819007
 31
0.0
  0
LINE
  5
42FF
330
1A
100
AcDbEntity
  8
外形線
100
AcDbLine
 10
235.869499767281
 20
638.083274819007
 30
0.0
 11
239.883927960336
 21
638.083274819007
 31
0.0
  0
LINE
  5
4300
330
1A
100
AcDbEntity
  8
外形線
100
AcDbLine
 10
239.883927960336
 20
626.083274819007
 30
0.0
 11
241.483927960336
 21
626.083274819007
 31
0.0
  0
LINE
  5
4301
330
1A
100
AcDbEntity
  8
外形線
100
AcDbLine
 10
232.883927960336
 20
630.560109579899
 30
0.0
 11
235.860740394967
 21
627.583274819008
 31
0.0
  0
ARC
  5
4302
330
1A
100
AcDbEntity
  8
外形線
100
AcDbCircle
 10
252.759043460336
 20
648.560109579899
 30
0.0
 40
19.875129
100
AcDbArc
 50
148.109418153979
 51
211.890564245926
  0
ARC
  5
4303
330
1A
100
AcDbEntity
  8
外形線
100
AcDbCircle
 10
243.885568460336
 20
666.610716579899
 30
0.0
 40
11.0017755
100
AcDbArc
 50
180.263580433607
 51
223.338604767318
  0
ARC
  5
4304
330
1A
100
AcDbEntity
  8
外形線
100
AcDbCircle
 10
243.885568460336
 20
630.509504079899
 30
0.0
 40
11.0017755
100
AcDbArc
 50
136.66137763259
 51
179.736401966304
  0
LINE
  5
4305
330
1A
100
AcDbEntity
  8
外形線
100
AcDbLine
 10
241.483927960336
 20
671.083274819007
 30
0.0
 11
241.483927960336
 21
626.083274819007
 31
0.0
  0
LINE
  5
4306
330
1A
100
AcDbEntity
  8
外形線
 48
10.0
100
AcDbLine
 10
245.183909960336
 20
629.683274819007
 30
0.0
 11
245.183909960336
 21
667.483274819007
 31
0.0
  0
LINE
  5
4308
330
1A
100
AcDbEntity
  8
隠れ線
 48
10.0
100
AcDbLine
 10
245.183909960336
 20
695.298987876817
 30
0.0
 11
245.183909960336
 21
667.483274819007
 31
0.0
  0
LINE
  5
430A
330
1A
100
AcDbEntity
  8
隠れ線
 48
10.0
100
AcDbLine
 10
245.183909960336
 20
629.683274819007
 30
0.0
 11
245.183909960336
 21
597.464655771535
 31
0.0
  0
LINE
  5
430B
330
1A
100
AcDbEntity
  8
外形線
 48
10.0
100
AcDbLine
 10
239.883927960336
 20
669.583274819007
 30
0.0
 11
235.907070525705
 21
669.583274819008
 31
0.0
  0
LINE
  5
430C
330
1A
100
AcDbEntity
  8
中心線
 48
10.0
100
AcDbLine
 10
336.370384244046
 20
638.758247819008
 30
0.0
 11
245.597471676626
 21
638.758247819008
 31
0.0
  0
DIMENSION
  5
430D
330
1A
100
AcDbEntity
  8
寸法線
 48
10.0
100
AcDbDimension
  2
*D57
 10
347.936685879562
 20
603.083274819007
 30
0.0
 11
347.936685879562
 21
638.758247819008
 31
0.0
 70
   160
  1
φ72
  3
ISO-25
100
AcDbAlignedDimension
 13
289.183908460337
 23
674.083274819007
 33
0.0
 14
289.183908460337
 24
603.083274819007
 34
0.0
 50
90.0
100
AcDbRotatedDimension
1001
ACAD
1000
DSTYLE
1002
{
1070
     5
1000
OPEN30
1070
    41
1040
6.0
1070
    47
1040
0.1
1070
    48
1040
0.1
1070
    73
1070
     0
1070
   140
1040
6.0
1070
   271
1070
     1
1070
   272
1070
     1
1070
   341
1005
2AF4
1002
}
  0
LINE
  5
430E
330
1A
100
AcDbEntity
  8
外形線
100
AcDbLine
 10
329.983927960336
 20
614.008247819008
 30
0.0
 11
329.983927960336
 21
663.508247819008
 31
0.0
  0
LINE
  5
430F
330
1A
100
AcDbEntity
  8
外形線
100
AcDbLine
 10
328.483927960336
 20
610.798637819008
 30
0.0
 11
328.483927960336
 21
666.717857819007
 31
0.0
  0
LINE
  5
4310
330
1A
100
AcDbEntity
  8
外形線
100
AcDbLine
 10
289.183908460337
 20
674.083274819007
 30
0.0
 11
289.183908460337
 21
603.083274819007
 31
0.0
  0
LINE
  5
4311
330
1A
100
AcDbEntity
  8
外形線
100
AcDbLine
 10
289.183908460337
 20
604.633247819008
 30
0.0
 11
324.198388960337
 21
606.303764819008
 31
0.0
  0
LINE
  5
4312
330
1A
100
AcDbEntity
  8
外形線
100
AcDbLine
 10
329.983927960336
 20
614.008247819008
 30
0.0
 11
328.483927960336
 21
614.008247819008
 31
0.0
  0
ARC
  5
4313
330
1A
100
AcDbEntity
  8
外形線
100
AcDbCircle
 10
323.983927960336
 20
610.798637819008
 30
0.0
 40
4.5
100
AcDbArc
 50
272.731520116378
 51
359.999982399908
  0
LINE
  5
4314
330
1A
100
AcDbEntity
  8
外形線
100
AcDbLine
 10
289.183908460337
 20
672.883247819008
 30
0.0
 11
324.198388960337
 21
671.212730819008
 31
0.0
  0
LINE
  5
4315
330
1A
100
AcDbEntity
  8
外形線
100
AcDbLine
 10
329.983927960336
 20
663.508247819008
 30
0.0
 11
328.483927960336
 21
663.508247819008
 31
0.0
  0
ARC
  5
4316
330
1A
100
AcDbEntity
  8
外形線
100
AcDbCircle
 10
323.983927960336
 20
666.717857819007
 30
0.0
 40
4.5
100
AcDbArc
 50
0.0
 51
87.268519579299
  0
LINE
  5
4317
330
1A
100
AcDbEntity
  8
外形線
100
AcDbLine
 10
280.983927960336
 20
603.083274819007
 30
0.0
 11
280.983927960336
 21
674.083274819007
 31
0.0
  0
LINE
  5
4318
330
1A
100
AcDbEntity
  8
中心線
 48
10.0
100
AcDbLine
 10
264.333918960336
 20
617.548088819008
 30
0.0
 11
264.333918960336
 21
562.114469819007
 31
0.0
  0
LINE
  5
4319
330
1A
100
AcDbEntity
  8
外形線
100
AcDbLine
 10
260.096400960336
 20
565.145866446475
 30
0.0
 11
260.096400960336
 21
578.329469819008
 31
0.0
  0
LINE
  5
431A
330
1A
100
AcDbEntity
  8
外形線
100
AcDbLine
 10
268.496364960336
 20
565.145866446475
 30
0.0
 11
268.496364960336
 21
578.329469819008
 31
0.0
  0
ARC
  5
431B
330
1A
100
AcDbEntity
  8
細線
100
AcDbCircle
 10
262.196393148984
 20
568.783159612711
 30
0.0
 40
4.199982
100
AcDbArc
 50
239.999981276044
 51
299.999981276019
  0
ARC
  5
431C
330
1A
100
AcDbEntity
  8
細線
100
AcDbCircle
 10
266.396375148984
 20
568.783158240179
 30
0.0
 40
4.199982
100
AcDbArc
 50
239.999981276044
 51
299.999981276019
  0
ARC
  5
431D
330
1A
100
AcDbEntity
  8
細線
100
AcDbCircle
 10
266.396372771688
 20
561.508576025305
 30
0.0
 40
4.199982
100
AcDbArc
 50
59.999981276043
 51
119.999981276019
  0
LINE
  5
431E
330
1A
100
AcDbEntity
  8
外形線
100
AcDbLine
 10
257.3918593236
 20
602.402476264757
 30
0.0
 11
250.449799686864
 21
596.390476264757
 31
0.0
  0
LINE
  5
431F
330
1A
100
AcDbEntity
  8
外形線
100
AcDbLine
 10
271.275978597072
 20
602.402476264757
 30
0.0
 11
278.218038233808
 21
596.390476264757
 31
0.0
  0
LINE
  5
4320
330
1A
100
AcDbEntity
  8
外形線
100
AcDbLine
 10
271.275978597072
 20
593.724901718837
 30
0.0
 11
271.275978597072
 21
602.402476264757
 31
0.0
  0
LINE
  5
4321
330
1A
100
AcDbEntity
  8
外形線
100
AcDbLine
 10
257.3918593236
 20
593.724901718837
 30
0.0
 11
257.3918593236
 21
602.402476264757
 31
0.0
  0
LWPOLYLINE
  5
4322
330
1A
100
AcDbEntity
  8
外形線
100
AcDbPolyline
 90
       47
 70
     0
 43
0.0
 10
268.496363460335
 20
577.238162156227
 10
268.955617251234
 20
577.353032600581
 10
269.364234748503
 20
577.479252218426
 10
269.717739053337
 20
577.615438121218
 10
270.012257098595
 20
577.760098227706
 10
270.24456208294
 20
577.911647611492
 10
270.412108824354
 20
578.068425865811
 10
270.513061645674
 20
578.228715295304
 10
270.546314486665
 20
578.390759735437
 10
270.511503022242
 20
578.552783793415
 10
270.409008654094
 20
578.713012299752
 10
270.239954331967
 20
578.869689757403
 10
270.006192250391
 20
579.021099575354
 10
269.71028355565
 20
579.165582875957
 10
269.355470285328
 20
579.301556669935
 10
268.945639847859
 20
579.427531199945
 10
268.485282431283
 20
579.542126262677
 10
267.979441807791
 20
579.644086330642
 10
267.433660073108
 20
579.732294307999
 10
266.853916926128
 20
579.805783769688
 10
266.246564154094
 20
579.86374954979
 10
265.618256041071
 20
579.905556563087
 10
264.975876462225
 20
579.930746763193
 10
264.326463462651
 20
579.939044161004
 10
263.677132147069
 20
579.930357848494
 10
263.034996725254
 20
579.90478299472
 10
262.407092567264
 20
579.862599803131
 10
261.800299122453
 20
579.804270441602
 10
261.221264546778
 20
579.730433978825
 10
260.676332864223
 20
579.641899382537
 10
260.171474460336
 20
579.539636656303
 10
259.712220669438
 20
579.424766211949
 10
259.303603172169
 20
579.298546594103
 10
258.950098867335
 20
579.162360691312
 10
258.655580822078
 20
579.017700584823
 10
258.423275837731
 20
578.866151201038
 10
258.255729096318
 20
578.709372946718
 10
258.154776274998
 20
578.549083517226
 10
258.121523434006
 20
578.387039077091
 10
258.15633489843
 20
578.225015019114
 10
258.258829266577
 20
578.064786512777
 10
258.427883588704
 20
577.908109055126
 10
258.66164567028
 20
577.756699237175
 10
258.957554365021
 20
577.612215936572
 10
259.312367635345
 20
577.476242142595
 10
259.722198072813
 20
577.350267612582
 10
260.096400960336
 20
577.255350730715
  0
ARC
  5
4323
330
1A
100
AcDbEntity
  8
外形線
100
AcDbCircle
 10
264.333918960336
 20
610.575680472965
 30
0.0
 40
34.15159996140045
100
AcDbArc
 50
255.26831657715
 51
262.87239111701
  0
LWPOLYLINE
  5
4324
330
1A
100
AcDbEntity
  8
外形線
100
AcDbPolyline
 90
       34
 70
     0
 43
0.0
 10
276.007218960336
 20
585.803835318736
 10
275.953477402736
 20
586.363253430182
 10
275.792747560875
 20
586.917520641599
 10
275.526509371372
 20
587.461533480401
 10
275.157214249851
 20
587.990282892196
 10
274.688262519276
 20
588.498900362175
 10
274.123972101133
 20
588.982702742456
 10
273.469538757721
 20
589.437235372665
 10
272.730988251628
 20
589.858313096675
 10
271.915120862909
 20
590.242058797855
 10
271.029448774792
 20
590.584939098035
 10
270.082126904491
 20
590.883796891444
 10
269.081877815954
 20
591.135880414085
 10
268.03791140595
 20
591.338868580896
 10
266.959840103008
 20
591.490892357365
 10
265.857590359978
 20
591.590551968872
 10
264.741311255193
 20
591.636929789257
 10
263.621281043784
 20
591.629598789944
 10
262.507812519582
 20
591.568626471871
 10
261.411158059007
 20
591.454574243948
 10
260.341415221252
 20
591.288492253846
 10
259.308433773964
 20
591.071909718637
 10
258.321725000488
 20
590.806820844379
 10
257.390374123752
 20
590.495666464256
 10
256.522956653127
 20
590.141311564358
 10
255.72745942455
 20
589.747018904016
 10
255.011207060901
 20
589.316418973616
 10
254.380794529782
 20
588.853476566485
 10
253.842026419672
 20
588.362454272642
 10
253.399863493582
 20
587.847873230564
 10
253.058377012315
 20
587.314471498333
 10
252.820711247911
 20
586.767160427482
 10
252.689054532438
 20
586.210979441215
 10
252.660618960336
 20
585.803835318736
  0
ARC
  5
4325
330
1A
100
AcDbEntity
  8
外形線
100
AcDbCircle
 10
264.333918960336
 20
605.392295131034
 30
0.0
 40
13.57645981229912
100
AcDbArc
 50
239.247497502359
 51
300.752502497641
  0
LINE
  5
4326
330
1A
100
AcDbEntity
  8
外形線
100
AcDbLine
 10
252.660618960335
 20
585.803835318736
 30
0.0
 11
252.660618960335
 21
581.422982578208
 31
0.0
  0
ARC
  5
4327
330
1A
100
AcDbEntity
  8
外形線
100
AcDbCircle
 10
256.668618960336
 20
581.422982578208
 30
0.0
 40
4.007999999999999
100
AcDbArc
 50
180.0
 51
255.26831657715
  0
ARC
  5
4328
330
1A
100
AcDbEntity
  8
外形線
100
AcDbCircle
 10
249.941167769362
 20
595.314219267814
 30
0.0
 40
7.618315752702329
100
AcDbArc
 50
273.828163206422
 51
347.958626091838
  0
LINE
  5
4329
330
1A
100
AcDbEntity
  8
外形線
100
AcDbLine
 10
252.657867843133
 20
585.800658602221
 30
0.0
 11
250.449799686864
 21
587.712901718837
 31
0.0
  0
LINE
  5
432A
330
1A
100
AcDbEntity
  8
外形線
100
AcDbLine
 10
250.449799686864
 20
596.390476264757
 30
0.0
 11
250.449799686864
 21
587.712901718837
 31
0.0
  0
LINE
  5
432B
330
1A
100
AcDbEntity
  8
外形線
100
AcDbLine
 10
276.007218960336
 20
585.803835318736
 30
0.0
 11
276.007218960336
 21
581.422982578208
 31
0.0
  0
LWPOLYLINE
  5
432C
330
1A
100
AcDbEntity
  8
外形線
100
AcDbPolyline
 90
       29
 70
     0
 43
0.0
 10
268.496363460335
 20
578.329469819008
 10
268.469365374705
 20
578.431441286335
 10
268.388718212996
 20
578.532101779043
 10
268.255458798395
 20
578.630157176785
 10
268.071300352404
 20
578.724346851062
 10
267.83861046916
 20
578.813459872236
 10
267.560380676968
 20
578.896350577583
 10
267.240187978347
 20
578.971953300269
 10
266.882148863051
 20
579.03929606987
 10
266.490866385296
 20
579.0975131083
 10
266.071370985554
 20
579.145855960509
 10
265.629055817775
 20
579.183703116838
 10
265.169607413427
 20
579.210568003316
 10
264.698932573813
 20
579.226105237211
 10
264.223082430532
 20
579.23011506736
 10
263.748174650377
 20
579.222545942227
 10
263.280314784853
 20
579.20349517267
 10
262.825517775435
 20
579.17320768088
 10
262.389630623753
 20
579.132072851597
 10
261.978257220845
 20
579.08061952606
 10
261.596686301921
 20
579.019509203069
 10
261.249823452853
 20
578.949527534581
 10
260.942128042554
 20
578.871574225123
 10
260.677555892028
 20
578.786651464943
 10
260.459508417214
 20
578.69585104556
 10
260.290788899386
 20
578.600340323374
 10
260.173566445365
 20
578.501347211795
 10
260.109348100857
 20
578.400144394846
 10
260.096400960336
 20
578.329469819008
  0
ARC
  5
432D
330
1A
100
AcDbEntity
  8
外形線
100
AcDbCircle
 10
264.333918960336
 20
610.575680472965
 30
0.0
 40
34.15159996140045
100
AcDbArc
 50
277.000695446903
 51
284.73168342285
  0
ARC
  5
432E
330
1A
100
AcDbEntity
  8
外形線
100
AcDbCircle
 10
271.999218960336
 20
581.422982578208
 30
0.0
 40
4.007999999999999
100
AcDbArc
 50
284.73168342285
 51
0.0
  0
LINE
  5
432F
330
1A
100
AcDbEntity
  8
外形線
100
AcDbLine
 10
276.009970077538
 20
585.800658602221
 30
0.0
 11
278.218038233808
 21
587.712901718837
 31
0.0
  0
ARC
  5
4330
330
1A
100
AcDbEntity
  8
外形線
100
AcDbCircle
 10
278.726670151309
 20
595.314219267814
 30
0.0
 40
7.618315752702329
100
AcDbArc
 50
192.041373908162
 51
266.171836793578
  0
LINE
  5
4331
330
1A
100
AcDbEntity
  8
外形線
100
AcDbLine
 10
278.218038233808
 20
587.712901718837
 30
0.0
 11
278.218038233808
 21
596.390476264757
 31
0.0
  0
LWPOLYLINE
  5
4332
330
1A
100
AcDbEntity
  8
外形線
100
AcDbPolyline
 90
       34
 70
     0
 43
0.0
 10
274.832373960336
 20
602.109379212572
 10
274.784041156065
 20
602.480217147038
 10
274.639487772538
 20
602.847640552928
 10
274.400044799961
 20
603.20826634129
 10
274.067916934231
 20
603.558774012935
 10
273.646162276969
 20
603.895936232285
 10
273.138664177735
 20
604.216648543385
 10
272.550095477683
 20
604.517957954513
 10
271.8858754839
 20
604.797090128152
 10
271.152120070569
 20
605.051474925986
 10
270.355585366427
 20
605.278770073723
 10
269.503605547021
 20
605.476882727816
 10
268.604025304518
 20
605.643988745545
 10
267.665127616895
 20
605.778549480995
 10
266.695557481567
 20
605.879325952301
 10
265.704242315679
 20
605.945390249693
 10
264.70030975599
 20
605.976134079334
 10
263.693003615214
 20
605.971274364236
 10
262.691598768662
 20
605.930855850727
 10
261.70531575487
 20
605.855250696446
 10
260.743235876538
 20
605.745155043658
 10
259.814217583494
 20
605.601582609452
 10
258.926814907606
 20
605.425855351847
 10
258.089198700652
 20
605.219591297711
 10
257.309081400355
 20
604.984689644623
 10
256.593646017315
 20
604.72331327381
 10
255.949479996702
 20
604.4378688352
 10
255.382514563672
 20
604.130984587936
 10
254.897970110997
 20
603.805486200416
 10
254.50030813176
 20
603.464370732656
 10
254.193190139702
 20
603.110779040552
 10
253.979443955449
 20
602.747966856119
 10
253.861037669065
 20
602.379274810016
 10
253.835463960335
 20
602.109379212572
  0
LINE
  5
4333
330
1A
100
AcDbEntity
  8
外形線
100
AcDbLine
 10
257.3918593236
 20
602.402476264757
 30
0.0
 11
271.275978597072
 21
602.402476264757
 31
0.0
  0
LINE
  5
4334
330
1A
100
AcDbEntity
  8
外形線
100
AcDbLine
 10
257.3918593236
 20
611.080050810677
 30
0.0
 11
271.275978597072
 21
611.080050810677
 31
0.0
  0
LINE
  5
4335
330
1A
100
AcDbEntity
  8
外形線
100
AcDbLine
 10
257.3918593236
 20
606.741263537717
 30
0.0
 11
271.275978597072
 21
606.741263537717
 31
0.0
  0
LINE
  5
4336
330
1A
100
AcDbEntity
  8
外形線
100
AcDbLine
 10
279.483927960336
 20
612.883247819008
 30
0.0
 11
256.383936960336
 21
612.883247819008
 31
0.0
  0
LINE
  5
4337
330
1A
100
AcDbEntity
  8
外形線
100
AcDbLine
 10
256.702720195507
 20
610.483238819008
 30
0.0
 11
253.983927960336
 21
610.483238819008
 31
0.0
  0
LINE
  5
4338
330
1A
100
AcDbEntity
  8
外形線
100
AcDbLine
 10
250.449799686864
 20
605.068050810677
 30
0.0
 11
257.3918593236
 21
611.080050810677
 31
0.0
  0
ARC
  5
4339
330
1A
100
AcDbEntity
  8
外形線
100
AcDbCircle
 10
256.383936960336
 20
607.483238819008
 30
0.0
 40
5.4
100
AcDbArc
 50
89.999981276021
 51
180.00001984784
  0
LINE
  5
433A
330
1A
100
AcDbEntity
  8
外形線
100
AcDbLine
 10
257.3918593236
 20
606.741263537717
 30
0.0
 11
250.449799686864
 21
600.729263537717
 31
0.0
  0
ARC
  5
433B
330
1A
100
AcDbEntity
  8
外形線
100
AcDbCircle
 10
253.983927960336
 20
607.483238819008
 30
0.0
 40
3.0
100
AcDbArc
 50
89.999981276021
 51
211.533239298814
  0
LINE
  5
433C
330
1A
100
AcDbEntity
  8
外形線
100
AcDbLine
 10
252.954799686864
 20
598.559869901237
 30
0.0
 11
250.449799686864
 21
600.729263537717
 31
0.0
  0
LINE
  5
433D
330
1A
100
AcDbEntity
  8
外形線
100
AcDbLine
 10
253.835463960336
 20
602.109379212572
 30
0.0
 11
253.835463960336
 21
599.32254753427
 31
0.0
  0
LINE
  5
433E
330
1A
100
AcDbEntity
  8
外形線
100
AcDbLine
 10
250.449799686864
 20
600.729263537717
 30
0.0
 11
250.449799686864
 21
605.068050810677
 31
0.0
  0
LINE
  5
433F
330
1A
100
AcDbEntity
  8
細線
100
AcDbLine
 10
255.190668960336
 20
600.496189491605
 30
0.0
 11
255.190668960336
 21
604.047730701251
 31
0.0
  0
LINE
  5
4340
330
1A
100
AcDbEntity
  8
外形線
100
AcDbLine
 10
257.3918593236
 20
606.741263537717
 30
0.0
 11
257.3918593236
 21
611.080050810677
 31
0.0
  0
LINE
  5
4341
330
1A
100
AcDbEntity
  8
細線
100
AcDbLine
 10
273.477168960335
 20
600.496189491605
 30
0.0
 11
273.477168960335
 21
604.151135019098
 31
0.0
  0
LINE
  5
4342
330
1A
100
AcDbEntity
  8
外形線
100
AcDbLine
 10
279.483927960336
 20
610.483238819008
 30
0.0
 11
271.965117725164
 21
610.483238819008
 31
0.0
  0
LINE
  5
4343
330
1A
100
AcDbEntity
  8
外形線
100
AcDbLine
 10
278.218038233808
 20
605.068050810677
 30
0.0
 11
271.275978597072
 21
611.080050810677
 31
0.0
  0
LINE
  5
4344
330
1A
100
AcDbEntity
  8
外形線
100
AcDbLine
 10
271.275978597072
 20
606.741263537717
 30
0.0
 11
271.275978597072
 21
611.080050810677
 31
0.0
  0
LINE
  5
4345
330
1A
100
AcDbEntity
  8
外形線
100
AcDbLine
 10
275.713038233808
 20
598.559869901237
 30
0.0
 11
278.218038233808
 21
600.729263537717
 31
0.0
  0
LINE
  5
4346
330
1A
100
AcDbEntity
  8
外形線
100
AcDbLine
 10
271.275978597072
 20
606.741263537717
 30
0.0
 11
278.218038233808
 21
600.729263537717
 31
0.0
  0
LINE
  5
4347
330
1A
100
AcDbEntity
  8
外形線
100
AcDbLine
 10
274.832373960336
 20
602.109379212572
 30
0.0
 11
274.832373960336
 21
599.32254753427
 31
0.0
  0
LINE
  5
4348
330
1A
100
AcDbEntity
  8
外形線
100
AcDbLine
 10
278.218038233808
 20
600.729263537717
 30
0.0
 11
278.218038233808
 21
605.068050810677
 31
0.0
  0
LINE
  5
434D
330
1A
100
AcDbEntity
  8
寸法線
 48
10.0
100
AcDbLine
 10
329.983927960336
 20
612.284807832366
 30
0.0
 11
329.983927960336
 21
582.909515257376
 31
0.0
  0
LWPOLYLINE
  5
43C6
330
1A
100
AcDbEntity
  8
外形線
100
AcDbPolyline
 90
        2
 70
     0
 43
0.0
 10
231.283945960336
 20
635.362774819007
 10
232.883927960336
 20
635.362774819007
  0
ARC
  5
43CF
330
1A
100
AcDbEntity
  8
細線
100
AcDbCircle
 10
25.443031485598
 20
648.583274819007
 30
0.0
 40
9.5
100
AcDbArc
 50
275.43617366381
 51
84.56382633619
  0
ARC
  5
43D0
330
1A
100
AcDbEntity
  8
外形線
100
AcDbCircle
 10
25.443031485598
 20
648.583274819007
 30
0.0
 40
8.0
100
AcDbArc
 50
276.459449777355
 51
83.540550222645
  0
ARC
  5
43D1
330
1A
100
AcDbEntity
  8
細線
100
AcDbCircle
 10
25.443031485598
 20
648.583274819007
 30
0.0
 40
15.0
100
AcDbArc
 50
273.439812767515
 51
86.560187232485
  0
LWPOLYLINE
  5
43D2
330
1A
100
AcDbEntity
  8
外形線
100
AcDbPolyline
 90
        4
 70
     0
 43
0.0
 10
26.343031485598
 20
631.782381985589
 10
40.443031485598
 20
639.923020781163
 10
40.443031485598
 20
657.243528856852
 10
26.343031485598
 20
665.384167652426
  0
DIMENSION
  5
440B
330
1A
100
AcDbEntity
  8
寸法線
 48
10.0
100
AcDbDimension
  2
*D59
 10
-10.347081601975
 20
686.567214320134
 30
0.0
 11
-20.989130020081
 21
675.390895763367
 31
0.0
 70
    32
  3
ISO-25
100
AcDbAlignedDimension
 13
10.443031485598
 23
639.923020781163
 33
0.0
 14
25.443031485598
 24
665.903782894696
 34
0.0
 50
60.0
100
AcDbRotatedDimension
1001
ACAD
1000
DSTYLE
1002
{
1070
     5
1000
OPEN30
1070
    41
1040
6.0
1070
    47
1040
0.1
1070
    48
1040
0.1
1070
    73
1070
     0
1070
   140
1040
6.0
1070
   271
1070
     1
1070
   272
1070
     1
1070
   341
1005
2AF4
1002
}
  0
MTEXT
  5
440C
330
1A
100
AcDbEntity
  8
寸法線
 48
10.0
100
AcDbMText
 10
-35.196221956576
 20
676.693419018092
 30
0.0
 40
6.0
 41
18.538303897182
 71
     1
 72
     5
  1
平径
 11
0.5000000000000001
 21
0.8660254037844386
 31
0.0
  0
ARC
  5
4444
330
1A
100
AcDbEntity
  8
細線
100
AcDbCircle
 10
202.752808778267
 20
630.865369892793
 30
0.0
 40
28.6603
100
AcDbArc
 50
5.4416331096
 51
18.423292306447
  0
ARC
  5
4445
330
1A
100
AcDbEntity
  8
細線
100
AcDbCircle
 10
248.815083142406
 20
630.865369892792
 30
0.0
 40
28.6603
100
AcDbArc
 50
161.57670769355
 51
174.558366890397
  0
LINE
  5
4446
330
1A
100
AcDbEntity
  8
細線
100
AcDbLine
 10
221.623691922492
 20
639.923020781163
 30
0.0
 11
229.944199998181
 21
639.923020781163
 31
0.0
  0
DIMENSION
  5
4448
330
1A
100
AcDbEntity
  8
寸法線
 48
10.0
100
AcDbDimension
  2
*D61
 10
246.983927960336
 20
553.572194049039
 30
0.0
 11
200.433943710336
 21
556.699798215706
 31
0.0
 70
    32
  1
 
  3
ISO-25
100
AcDbAlignedDimension
 13
153.883959460336
 23
592.719523809145
 33
0.0
 14
246.983927960336
 24
629.683274819007
 34
0.0
100
AcDbRotatedDimension
1001
ACAD
1000
DSTYLE
1002
{
1070
     5
1000
OPEN30
1070
    41
1040
6.0
1070
   271
1070
     1
1070
   341
1005
2AF4
1070
   272
1070
     1
1070
    73
1070
     0
1070
    48
1040
0.1
1070
    47
1040
0.1
1070
   140
1040
5.0
1002
}
  0
VIEWPORT
  5
2902
330
28FB
100
AcDbEntity
 67
     1
  8
0
 48
10.0
100
AcDbViewport
 10
205.355493011475
 20
143.154085822105
 30
0.0
 40
497.328649889938
 41
317.809327218095
 68
     1
 69
     1
1001
ACAD
1000
MVIEW
1002
{
1070
    16
1010
0.0
1020
0.0
1030
0.0
1010
0.0
1020
0.0
1030
1.0
1040
0.0
1040
317.809327218095
1040
205.355493011475
1040
143.154085822105
1040
50.0
1040
0.0
1040
0.0
1070
     0
1070
   100
1070
     0
1070
     1
1070
     0
1070
     0
1070
     0
1070
     0
1040
0.0
1040
0.0
1040
0.0
1040
10.0
1040
10.0
1040
10.0
1040
10.0
1070
     0
1002
{
1002
}
1002
}
  0
VIEWPORT
  5
2904
330
28FB
100
AcDbEntity
 67
     1
  8
図枠太線
 48
10.0
100
AcDbViewport
 10
204.746305129083
 20
161.396645458131
 30
0.0
 40
400.0
 41
240.0
 68
     2
 69
     2
1001
ACAD
1000
MVIEW
1002
{
1070
    16
1010
0.0
1020
0.0
1030
0.0
1010
0.0
1020
0.0
1030
1.0
1040
0.0
1040
360.000000650148
1040
166.457816680205
1040
592.108057846484
1040
50.0
1040
0.0
1040
0.0
1070
     0
1070
   100
1070
     0
1070
     0
1070
     0
1070
     0
1070
     0
1070
     0
1040
0.0
1040
0.0
1040
0.0
1040
1.0
1040
1.0
1040
0.0
1040
0.0
1070
     0
1002
{
1002
}
1002
}
  0
INSERT
  5
2A59
330
28FB
100
AcDbEntity
 67
     1
  8
図枠太線
100
AcDbBlockReference
  2
A3横用_タイトル
 10
-0.352109406709
 20
-2.129314295396
 30
0.0
  0
MTEXT
  5
322B
330
28FB
100
AcDbEntity
 67
     1
  8
寸法線
 48
10.0
100
AcDbMText
 10
146.778370616794
 20
13.813697882368
 30
0.0
 40
7.0
 41
20.13579853524
 71
     1
 72
     5
  1
1:1.5
  0
MTEXT
  5
322C
102
{ACAD_XDICTIONARY
360
3DE1
102
}
330
28FB
100
AcDbEntity
 67
     1
  8
寸法線
 48
10.0
100
AcDbMText
 10
175.322824279557
 20
12.573033279747
 30
0.0
 40
5.0
 41
27.082042865391
 71
     1
 72
     5
  1
2015.6.15
1001
ACADANNOTATIVE
1000
AnnotativeData
1002
{
1070
     1
1070
     0
1002
}
  0
MTEXT
  5
322D
102
{ACAD_XDICTIONARY
360
3DE4
102
}
330
28FB
100
AcDbEntity
 67
     1
  8
寸法線
 48
10.0
100
AcDbMText
 10
181.015608913286
 20
32.448193246353
 30
0.0
 40
5.0
 41
33.4
 71
     1
 72
     5
  1
ohno
1001
ACADANNOTATIVE
1000
AnnotativeData
1002
{
1070
     1
1070
     0
1002
}
  0
MTEXT
  5
322F
330
28FB
100
AcDbEntity
 67
     1
  8
寸法線
 48
10.0
100
AcDbMText
 10
312.831551930329
 20
33.656722730889
 30
0.0
 40
7.0
 41
37.345612043362
 71
     1
 72
     5
  1
HL-400N
  0
MTEXT
  5
3230
330
28FB
100
AcDbEntity
 67
     1
  8
寸法線
 48
10.0
100
AcDbMText
 10
361.819918635276
 20
38.167964124636
 30
0.0
 40
5.0
 41
42.043281739348
 71
     1
 72
     5
  1
パドル式\Pレベルスイッチ
  0
MTEXT
  5
3231
102
{ACAD_XDICTIONARY
360
3DE7
102
}
330
28FB
100
AcDbEntity
 67
     1
  8
寸法線
 48
10.0
100
AcDbMText
 10
347.266472765904
 20
14.50279691064
 30
0.0
 40
7.0
 41
36.545313751788
 71
     1
 72
     5
  1
\H1.143x;HB-6009
1001
ACADANNOTATIVE
1000
AnnotativeData
1002
{
1070
     1
1070
     0
1002
}
  0
MTEXT
  5
3234
330
28FB
100
AcDbEntity
 67
     1
  8
寸法線
 48
10.0
100
AcDbMText
 10
373.486813801897
 20
51.017838896669
 30
0.0
 40
5.0
 41
34.334449052711
 71
     1
 72
     5
  1
台数   台
  0
ENDSEC
  0
SECTION
  2
OBJECTS
  0
DICTIONARY
  5
C
330
0
100
AcDbDictionary
  3
ACAD_COLOR
350
2948
  3
ACAD_GROUP
350
D
  3
ACAD_LAYOUT
350
2816
  3
ACAD_MATERIAL
350
2947
  3
ACAD_MLEADERSTYLE
350
3DDD
  3
ACAD_MLINESTYLE
350
E
  3
ACAD_PLOTSETTINGS
350
2817
  3
ACAD_SCALELIST
350
3DB6
  3
ACAD_VISUALSTYLE
350
3D9D
  3
ACDBHEADERROUNDTRIPXREC
350
4455
  3
ACDBVARIABLEDICTIONARY
350
43C7
  3
DWGPROPS
350
447A
  0
DICTIONARY
  5
447B
330
8
100
AcDbDictionary
280
     1
  3
ACAD_XREC_ROUNDTRIP
360
447C
  0
DICTIONARY
  5
29EA
330
2
100
AcDbDictionary
280
     1
  3
ACAD_LAYERFILTERS
360
2B0C
  3
ACAD_LAYERSTATES
360
29EB
  0
DICTIONARY
  5
4297
330
4296
100
AcDbDictionary
280
     1
  3
ACDBCONTEXTDATAMANAGER
360
4298
  0
DICTIONARY
  5
42CF
330
42CE
100
AcDbDictionary
280
     1
  3
ACDBCONTEXTDATAMANAGER
360
42D0
  0
DICTIONARY
  5
42DC
330
42DB
100
AcDbDictionary
280
     1
  3
ACDBCONTEXTDATAMANAGER
360
42DD
  0
DICTIONARY
  5
42E0
330
42DF
100
AcDbDictionary
280
     1
  3
ACDBCONTEXTDATAMANAGER
360
42E1
  0
DICTIONARY
  5
3DE1
330
322C
100
AcDbDictionary
280
     1
  3
ACDBCONTEXTDATAMANAGER
360
3DE2
  0
DICTIONARY
  5
3DE4
330
322D
100
AcDbDictionary
280
     1
  3
ACDBCONTEXTDATAMANAGER
360
3DE5
  0
DICTIONARY
  5
3DE7
330
3231
100
AcDbDictionary
280
     1
  3
ACDBCONTEXTDATAMANAGER
360
3DE8
  0
DICTIONARY
  5
2948
102
{ACAD_REACTORS
330
C
102
}
330
C
100
AcDbDictionary
  0
DICTIONARY
  5
D
102
{ACAD_REACTORS
330
C
102
}
330
C
100
AcDbDictionary
  0
DICTIONARY
  5
2816
102
{ACAD_REACTORS
330
C
102
}
330
C
100
AcDbDictionary
  0
DICTIONARY
  5
2947
102
{ACAD_REACTORS
330
C
102
}
330
C
100
AcDbDictionary
  3
BYBLOCK
350
3DD9
  3
BYLAYER
350
3DD8
  3
GLOBAL
350
3DDA
  0
DICTIONARY
  5
3DDD
102
{ACAD_REACTORS
330
C
102
}
330
C
100
AcDbDictionary
  3
STANDARD
350
3DDE
  0
DICTIONARY
  5
E
102
{ACAD_REACTORS
330
C
102
}
330
C
100
AcDbDictionary
  3
STANDARD
350
13
  0
DICTIONARY
  5
2817
102
{ACAD_REACTORS
330
C
102
}
330
C
100
AcDbDictionary
  0
DICTIONARY
  5
3DB6
102
{ACAD_REACTORS
330
C
102
}
330
C
100
AcDbDictionary
  3
A0
350
3DB7
  3
A1
350
3DB8
  3
A2
350
3DB9
  3
A3
350
3DBA
  3
A4
350
3DBB
  3
A5
350
3DBC
  3
A6
350
3DBD
  3
A7
350
3DBE
  3
A8
350
3DBF
  3
A9
350
3DC0
  3
B0
350
3DC1
  3
B1
350
3DC2
  3
B2
350
3DC3
  3
B3
350
3DC4
  3
B4
350
3DC5
  3
B5
350
3DC6
  3
B6
350
3DC7
  3
B7
350
3DC8
  3
B8
350
3DC9
  3
B9
350
3DCA
  3
C0
350
3DCB
  3
C1
350
3DCC
  3
C2
350
3DCD
  3
C3
350
3DCE
  3
C4
350
3DCF
  3
C5
350
3DD0
  3
C6
350
3DD1
  3
C7
350
3DD2
  3
C8
350
3DD3
  3
C9
350
3DD4
  3
D0
350
3DD5
  3
D1
350
3DD6
  3
D2
350
3DD7
  0
DICTIONARY
  5
3D9D
102
{ACAD_REACTORS
330
C
102
}
330
C
100
AcDbDictionary
  3
2DWIREFRAME
350
3DA2
  3
BASIC
350
3DA5
  3
BRIGHTEN
350
3DA9
  3
COLORCHANGE
350
3DAD
  3
CONCEPTUAL
350
3DA7
  3
DIM
350
3DA8
  3
EDGECOLOROFF
350
3DB0
  3
FACEPATTERN
350
3DAC
  3
FLAT
350
3D9E
  3
FLATWITHEDGES
350
3D9F
  3
GOURAUD
350
3DA0
  3
GOURAUDWITHEDGES
350
3DA1
  3
HIDDEN
350
3DA4
  3
JITTEROFF
350
3DAE
  3
LINEPATTERN
350
3DAB
  3
OVERHANGOFF
350
3DAF
  3
REALISTIC
350
3DA6
  3
SHADED
350
3DB5
  3
SHADED_WITH_EDGES
350
3DB4
  3
SHADES_OF_GRAY
350
3DB1
  3
SKETCHY
350
3DB2
  3
THICKEN
350
3DAA
  3
WIREFRAME
350
3DA3
  3
X-RAY
350
3DB3
  0
DICTIONARY
  5
4455
102
{ACAD_REACTORS
330
C
102
}
330
C
100
AcDbDictionary
  3
CEPSNID
350
445F
  3
CEPSNTYPE
350
445E
  3
COLORDICT
350
4478
  3
DIMSTYLEDATA
350
4475
  3
FINGERPRINTGUID
350
4460
  3
HYPERLINKBASE
350
4458
  3
INSUNITS
350
445D
  3
LAYOUTDICT
350
445A
  3
LWETCUNION
350
445C
  3
MATERIALDICT
350
4479
  3
PLOTSETDICT
350
445B
  3
PSVPSCALE
350
4462
  3
PUCSBASE
350
4465
  3
PUCSORGBACK
350
446B
  3
PUCSORGBOTTOM
350
4467
  3
PUCSORGFRONT
350
446A
  3
PUCSORGLEFT
350
4468
  3
PUCSORGRIGHT
350
4469
  3
PUCSORGTOP
350
4466
  3
PUCSORTHOREF
350
4463
  3
PUCSORTHOVIEW
350
4464
  3
STYLESHEET
350
4459
  3
TSTACKALIGN
350
4456
  3
TSTACKSIZE
350
4457
  3
UCSBASE
350
446E
  3
UCSORGBACK
350
4474
  3
UCSORGBOTTOM
350
4470
  3
UCSORGFRONT
350
4473
  3
UCSORGLEFT
350
4471
  3
UCSORGRIGHT
350
4472
  3
UCSORGTOP
350
446F
  3
UCSORTHOREF
350
446C
  3
UCSORTHOVIEW
350
446D
  3
VERSIONGUID
350
4461
  0
DICTIONARY
  5
43C7
102
{ACAD_REACTORS
330
C
102
}
330
C
100
AcDbDictionary
  3
CANNOSCALE
350
43C8
  3
CMLEADERSTYLE
350
43CA
  3
CTABLESTYLE
350
43C9
  3
DIMASSOC
350
4476
  3
HIDETEXT
350
4477
  3
MSLTSCALE
350
43CB
  3
XCLIPFRAME
350
43CC
  0
XRECORD
  5
447A
102
{ACAD_REACTORS
330
C
102
}
330
C
100
AcDbXrecord
  1
DWGPROPS COOKIE
  2

  3

  4

  6

  7

  8
y-ohno
  9

300
=
301
=
302
=
303
=
304
=
305
=
306
=
307
=
308
=
309
=
 40
0.0
 41
2450576.222302431
 42
2457191.290668958
  1

 90
        0
  0
XRECORD
  5
447C
102
{ACAD_REACTORS
330
447B
102
}
330
447B
100
AcDbXrecord
102
VTR_0.000_0.000_1.000_1.000_VISUALSTYLE
340
3DA2
102
VTR_0.000_0.000_1.000_1.000_GRIDDISPLAY
 70
     3
102
VTR_0.000_0.000_1.000_1.000_GRIDMAJOR
 70
     5
102
VTR_0.000_0.000_1.000_1.000_DEFAULTLIGHTING
280
     1
102
VTR_0.000_0.000_1.000_1.000_DEFAULTLIGHTINGTYPE
 70
     1
102
VTR_0.000_0.000_1.000_1.000_BRIGHTNESS
141
0.0
102
VTR_0.000_0.000_1.000_1.000_CONTRAST
142
0.0
  0
DICTIONARY
  5
2B0C
102
{ACAD_REACTORS
330
29EA
102
}
330
29EA
100
AcDbDictionary
  0
DICTIONARY
  5
29EB
102
{ACAD_REACTORS
330
29EA
102
}
330
29EA
100
AcDbDictionary
  0
DICTIONARY
  5
4298
102
{ACAD_REACTORS
330
4297
102
}
330
4297
100
AcDbDictionary
  3
ACDB_ANNOTATIONSCALES
350
4299
  0
DICTIONARY
  5
42D0
102
{ACAD_REACTORS
330
42CF
102
}
330
42CF
100
AcDbDictionary
  3
ACDB_ANNOTATIONSCALES
350
42D1
  0
DICTIONARY
  5
42DD
102
{ACAD_REACTORS
330
42DC
102
}
330
42DC
100
AcDbDictionary
  3
ACDB_ANNOTATIONSCALES
350
42DE
  0
DICTIONARY
  5
42E1
102
{ACAD_REACTORS
330
42E0
102
}
330
42E0
100
AcDbDictionary
  3
ACDB_ANNOTATIONSCALES
350
42E2
  0
DICTIONARY
  5
3DE2
102
{ACAD_REACTORS
330
3DE1
102
}
330
3DE1
100
AcDbDictionary
  3
ACDB_ANNOTATIONSCALES
350
3DE3
  0
DICTIONARY
  5
3DE5
102
{ACAD_REACTORS
330
3DE4
102
}
330
3DE4
100
AcDbDictionary
  3
ACDB_ANNOTATIONSCALES
350
3DE6
  0
DICTIONARY
  5
3DE8
102
{ACAD_REACTORS
330
3DE7
102
}
330
3DE7
100
AcDbDictionary
  3
ACDB_ANNOTATIONSCALES
350
3DE9
  0
MATERIAL
  5
3DD9
102
{ACAD_REACTORS
330
2947
102
}
102
{ACAD_XDICTIONARY
360
447F
102
}
330
2947
100
AcDbMaterial
  1
BYBLOCK
  0
MATERIAL
  5
3DD8
102
{ACAD_REACTORS
330
2947
102
}
102
{ACAD_XDICTIONARY
360
447D
102
}
330
2947
100
AcDbMaterial
  1
BYLAYER
  0
MATERIAL
  5
3DDA
102
{ACAD_REACTORS
330
2947
102
}
102
{ACAD_XDICTIONARY
360
4481
102
}
330
2947
100
AcDbMaterial
  1
GLOBAL
  0
ACAD_PROXY_OBJECT
  5
3DDE
102
{ACAD_REACTORS
330
3DDD
102
}
330
3DDD
100
AcDbProxyObject
 90
      499
 91
      507
 93
      610
310
40901902A4063FBFFFFFE0000000000000020400000000000020404214DD185B99185C990000000000000104090141901A00000000000004100000000000000041025764000000000000039000
340
14
340
0
340
10
340
0
 94
        0
1001
ACAD_MLEADERVER
1070
     2
  0
MLINESTYLE
  5
13
102
{ACAD_REACTORS
330
E
102
}
330
E
100
AcDbMlineStyle
  2
STANDARD
 70
     0
  3

 62
     0
 51
90.0
 52
90.0
 71
     2
 49
0.5
 62
   256
  6
BYLAYER
 49
-0.5
 62
   256
  6
BYLAYER
  0
ACAD_PROXY_OBJECT
  5
3DB7
102
{ACAD_REACTORS
330
3DB6
102
}
330
3DB6
100
AcDbProxyObject
 90
      499
 91
      504
 93
       41
310
903313A31580
  0
ACAD_PROXY_OBJECT
  5
3DB8
102
{ACAD_REACTORS
330
3DB6
102
}
330
3DB6
100
AcDbProxyObject
 90
      499
 91
      504
 93
      105
310
903313A324000000000000004000
  0
ACAD_PROXY_OBJECT
  5
3DB9
102
{ACAD_REACTORS
330
3DB6
102
}
330
3DB6
100
AcDbProxyObject
 90
      499
 91
      504
 93
      105
310
903313A344000000000000104000
  0
ACAD_PROXY_OBJECT
  5
3DBA
102
{ACAD_REACTORS
330
3DB6
102
}
330
3DB6
100
AcDbProxyObject
 90
      499
 91
      504
 93
      105
310
903313A354000000000000144000
  0
ACAD_PROXY_OBJECT
  5
3DBB
102
{ACAD_REACTORS
330
3DB6
102
}
330
3DB6
100
AcDbProxyObject
 90
      499
 91
      504
 93
      105
310
903313A384000000000000204000
  0
ACAD_PROXY_OBJECT
  5
3DBC
102
{ACAD_REACTORS
330
3DB6
102
}
330
3DB6
100
AcDbProxyObject
 90
      499
 91
      504
 93
      113
310
904313A31304000000000000244000
  0
ACAD_PROXY_OBJECT
  5
3DBD
102
{ACAD_REACTORS
330
3DB6
102
}
330
3DB6
100
AcDbProxyObject
 90
      499
 91
      504
 93
      113
310
904313A31364000000000000304000
  0
ACAD_PROXY_OBJECT
  5
3DBE
102
{ACAD_REACTORS
330
3DB6
102
}
330
3DB6
100
AcDbProxyObject
 90
      499
 91
      504
 93
      113
310
904313A32304000000000000344000
  0
ACAD_PROXY_OBJECT
  5
3DBF
102
{ACAD_REACTORS
330
3DB6
102
}
330
3DB6
100
AcDbProxyObject
 90
      499
 91
      504
 93
      113
310
904313A333040000000000003E4000
  0
ACAD_PROXY_OBJECT
  5
3DC0
102
{ACAD_REACTORS
330
3DB6
102
}
330
3DB6
100
AcDbProxyObject
 90
      499
 91
      504
 93
      113
310
904313A34304000000000000444000
  0
ACAD_PROXY_OBJECT
  5
3DC1
102
{ACAD_REACTORS
330
3DB6
102
}
330
3DB6
100
AcDbProxyObject
 90
      499
 91
      504
 93
      113
310
904313A35304000000000000494000
  0
ACAD_PROXY_OBJECT
  5
3DC2
102
{ACAD_REACTORS
330
3DB6
102
}
330
3DB6
100
AcDbProxyObject
 90
      499
 91
      504
 93
      121
310
905313A3130304000000000000594000
  0
ACAD_PROXY_OBJECT
  5
3DC3
102
{ACAD_REACTORS
330
3DB6
102
}
330
3DB6
100
AcDbProxyObject
 90
      499
 91
      504
 93
      105
310
903323A310000000000000010100
  0
ACAD_PROXY_OBJECT
  5
3DC4
102
{ACAD_REACTORS
330
3DB6
102
}
330
3DB6
100
AcDbProxyObject
 90
      499
 91
      504
 93
      105
310
903343A310000000000000410100
  0
ACAD_PROXY_OBJECT
  5
3DC5
102
{ACAD_REACTORS
330
3DB6
102
}
330
3DB6
100
AcDbProxyObject
 90
      499
 91
      504
 93
      105
310
903383A310000000000000810100
  0
ACAD_PROXY_OBJECT
  5
3DC6
102
{ACAD_REACTORS
330
3DB6
102
}
330
3DB6
100
AcDbProxyObject
 90
      499
 91
      504
 93
      113
310
90431303A310000000000000910100
  0
ACAD_PROXY_OBJECT
  5
3DC7
102
{ACAD_REACTORS
330
3DB6
102
}
330
3DB6
100
AcDbProxyObject
 90
      499
 91
      504
 93
      121
310
9053130303A310000000000001650100
  0
ACAD_PROXY_OBJECT
  5
3DC8
102
{ACAD_REACTORS
330
3DB6
102
}
330
3DB6
100
AcDbProxyObject
 90
      499
 91
      504
 93
      257
310
90E312F31323822203D2031272D3022000000000000200FC000000000000284000
  0
ACAD_PROXY_OBJECT
  5
3DC9
102
{ACAD_REACTORS
330
3DB6
102
}
330
3DB6
100
AcDbProxyObject
 90
      499
 91
      504
 93
      249
310
90D312F363422203D2031272D3022000000000000240FC000000000000284000
  0
ACAD_PROXY_OBJECT
  5
3DCA
102
{ACAD_REACTORS
330
3DB6
102
}
330
3DB6
100
AcDbProxyObject
 90
      499
 91
      504
 93
      249
310
90D312F333222203D2031272D3022000000000000280FC000000000000284000
  0
ACAD_PROXY_OBJECT
  5
3DCB
102
{ACAD_REACTORS
330
3DB6
102
}
330
3DB6
100
AcDbProxyObject
 90
      499
 91
      504
 93
      249
310
90D312F313622203D2031272D30220000000000002C0FC000000000000284000
  0
ACAD_PROXY_OBJECT
  5
3DCC
102
{ACAD_REACTORS
330
3DB6
102
}
330
3DB6
100
AcDbProxyObject
 90
      499
 91
      504
 93
      249
310
90D332F333222203D2031272D30220000000000002E0FC000000000000284000
  0
ACAD_PROXY_OBJECT
  5
3DCD
102
{ACAD_REACTORS
330
3DB6
102
}
330
3DB6
100
AcDbProxyObject
 90
      499
 91
      504
 93
      241
310
90C312F3822203D2031272D3022000000000000300FC000000000000284000
  0
ACAD_PROXY_OBJECT
  5
3DCE
102
{ACAD_REACTORS
330
3DB6
102
}
330
3DB6
100
AcDbProxyObject
 90
      499
 91
      504
 93
      249
310
90D332F313622203D2031272D3022000000000000320FC000000000000284000
  0
ACAD_PROXY_OBJECT
  5
3DCF
102
{ACAD_REACTORS
330
3DB6
102
}
330
3DB6
100
AcDbProxyObject
 90
      499
 91
      504
 93
      241
310
90C312F3422203D2031272D3022000000000000340FC000000000000284000
  0
ACAD_PROXY_OBJECT
  5
3DD0
102
{ACAD_REACTORS
330
3DB6
102
}
330
3DB6
100
AcDbProxyObject
 90
      499
 91
      504
 93
      241
310
90C332F3822203D2031272D3022000000000000360FC000000000000284000
  0
ACAD_PROXY_OBJECT
  5
3DD1
102
{ACAD_REACTORS
330
3DB6
102
}
330
3DB6
100
AcDbProxyObject
 90
      499
 91
      504
 93
      241
310
90C312F3222203D2031272D3022000000000000380FC000000000000284000
  0
ACAD_PROXY_OBJECT
  5
3DD2
102
{ACAD_REACTORS
330
3DB6
102
}
330
3DB6
100
AcDbProxyObject
 90
      499
 91
      504
 93
      241
310
90C332F3422203D2031272D30220000000000003A0FC000000000000284000
  0
ACAD_PROXY_OBJECT
  5
3DD3
102
{ACAD_REACTORS
330
3DB6
102
}
330
3DB6
100
AcDbProxyObject
 90
      499
 91
      504
 93
      161
310
90A3122203D2031272D30224000000000000284000
  0
ACAD_PROXY_OBJECT
  5
3DD4
102
{ACAD_REACTORS
330
3DB6
102
}
330
3DB6
100
AcDbProxyObject
 90
      499
 91
      504
 93
      257
310
90E312D312F3222203D2031272D30220000000000003E0FC000000000000284000
  0
ACAD_PROXY_OBJECT
  5
3DD5
102
{ACAD_REACTORS
330
3DB6
102
}
330
3DB6
100
AcDbProxyObject
 90
      499
 91
      504
 93
      225
310
90A3322203D2031272D302200000000000002100000000000000284000
  0
ACAD_PROXY_OBJECT
  5
3DD6
102
{ACAD_REACTORS
330
3DB6
102
}
330
3DB6
100
AcDbProxyObject
 90
      499
 91
      504
 93
      225
310
90A3622203D2031272D302200000000000006100000000000000284000
  0
ACAD_PROXY_OBJECT
  5
3DD7
102
{ACAD_REACTORS
330
3DB6
102
}
330
3DB6
100
AcDbProxyObject
 90
      499
 91
      504
 93
      249
310
90D31272D3022203D2031272D30220000000000000A100000000000000284000
  0
ACAD_PROXY_OBJECT
  5
3DA2
102
{ACAD_REACTORS
330
3D9D
102
}
330
3D9D
100
AcDbProxyObject
 90
      499
 91
      503
 93
      436
310
42CC9915DA5C99599C985B595049028333333333333E33F0000000000000F90107901411070040501600405405064090741402480A0340
1001
ACAD
1000
AcDbSavedByObjectVersion
1070
     0
  0
ACAD_PROXY_OBJECT
  5
3DA5
102
{ACAD_REACTORS
330
3D9D
102
}
330
3D9D
100
AcDbProxyObject
 90
      499
 91
      503
 93
      388
310
4150985CDA58D07406404333333333333E33F0000000000000F90107A41107004050150841D405064090741402480A0350
1001
ACAD
1000
AcDbSavedByObjectVersion
1070
     0
  0
ACAD_PROXY_OBJECT
  5
3DA9
102
{ACAD_REACTORS
330
3D9D
102
}
330
3D9D
100
AcDbProxyObject
 90
      499
 91
      503
 93
      428
310
42109C9A59DA1D195B90C409028333333333333E33F0000000000000F9010790141107004050150841D405064090741402480A029950
1001
ACAD
1000
AcDbSavedByObjectVersion
1070
     0
  0
ACAD_PROXY_OBJECT
  5
3DAD
102
{ACAD_REACTORS
330
3D9D
102
}
330
3D9D
100
AcDbProxyObject
 90
      499
 91
      503
 93
      452
310
42D0DBDB1BDC90DA185B99D95104090240C333333333333E33F0000000000000F90108901411070040501508421405064090741402480A0350
1001
ACAD
1000
AcDbSavedByObjectVersion
1070
     0
  0
ACAD_PROXY_OBJECT
  5
3DA7
102
{ACAD_REACTORS
330
3D9D
102
}
330
3D9D
100
AcDbProxyObject
 90
      499
 91
      503
 93
      500
310
4290DBDB98D95C1D1D585B10940D028333333333333E33F0000000000000F90107902409070040501000000000018199010841D405064090740C02480A0340
1001
ACAD
1000
AcDbSavedByObjectVersion
1070
     0
  0
ACAD_PROXY_OBJECT
  5
3DA8
102
{ACAD_REACTORS
330
3D9D
102
}
330
3D9D
100
AcDbProxyObject
 90
      499
 91
      503
 93
      412
310
40D11A5B50B409028333333333333E33F0000000000000F9010790141107004050150841D405064090741402480A02677FFFFFD0
1001
ACAD
1000
AcDbSavedByObjectVersion
1070
     0
  0
ACAD_PROXY_OBJECT
  5
3DB0
102
{ACAD_REACTORS
330
3D9D
102
}
330
3D9D
100
AcDbProxyObject
 90
      499
 91
      503
 93
      452
310
43115919D950DBDB1BDC93D999916409028333333333333E33F0000000000000F9010790141107004050150841D405064090741402480A0350
1001
ACAD
1000
AcDbSavedByObjectVersion
1070
     0
  0
ACAD_PROXY_OBJECT
  5
3DAC
102
{ACAD_REACTORS
330
3D9D
102
}
330
3D9D
100
AcDbProxyObject
 90
      499
 91
      503
 93
      444
310
42D19858D95C185D1D195C9B90F409028333333333333E33F0000000000000F9010790141107004050150841D405064090741402480A0350
1001
ACAD
1000
AcDbSavedByObjectVersion
1070
     0
  0
ACAD_PROXY_OBJECT
  5
3D9E
102
{ACAD_REACTORS
330
3D9D
102
}
330
3D9D
100
AcDbProxyObject
 90
      499
 91
      503
 93
      380
310
41119B185D240901404333333333333E33F0000000000000F9010740A907004050150841D405064090741402480A1B50
1001
ACAD
1000
AcDbSavedByObjectVersion
1070
     0
  0
ACAD_PROXY_OBJECT
  5
3D9F
102
{ACAD_REACTORS
330
3D9D
102
}
330
3D9D
100
AcDbProxyObject
 90
      499
 91
      503
 93
      468
310
43519B185D15DA5D1A115919D95CD0140901404333333333333E33F0000000000000F90107409019070040501600405405064090741402480A1B50
1001
ACAD
1000
AcDbSavedByObjectVersion
1070
     0
  0
ACAD_PROXY_OBJECT
  5
3DA0
102
{ACAD_REACTORS
330
3D9D
102
}
330
3D9D
100
AcDbProxyObject
 90
      499
 91
      503
 93
      404
310
41D1DBDD5C985D5910240902404333333333333E33F0000000000000F9010740A9070040501641D405064090741402480A1B50
1001
ACAD
1000
AcDbSavedByObjectVersion
1070
     0
  0
ACAD_PROXY_OBJECT
  5
3DA1
102
{ACAD_REACTORS
330
3D9D
102
}
330
3D9D
100
AcDbProxyObject
 90
      499
 91
      503
 93
      492
310
4411DBDD5C985D5915DA5D1A115919D95CD0340902404333333333333E33F0000000000000F90107409019070040501600405405064090741402480A1B50
1001
ACAD
1000
AcDbSavedByObjectVersion
1070
     0
  0
ACAD_PROXY_OBJECT
  5
3DA4
102
{ACAD_REACTORS
330
3D9D
102
}
330
3D9D
100
AcDbProxyObject
 90
      499
 91
      503
 93
      476
310
41921A5919195B90640502408333333333333E33F0000000000000F901079024090700405020000000000001110200405405064090740C02480A0340
1001
ACAD
1000
AcDbSavedByObjectVersion
1070
     0
  0
ACAD_PROXY_OBJECT
  5
3DAE
102
{ACAD_REACTORS
330
3D9D
102
}
330
3D9D
100
AcDbProxyObject
 90
      499
 91
      503
 93
      428
310
42529A5D1D195C93D999914409028333333333333E33F0000000000000F9010790141107004050150A41D405064090741402480A0350
1001
ACAD
1000
AcDbSavedByObjectVersion
1070
     0
  0
ACAD_PROXY_OBJECT
  5
3DAB
102
{ACAD_REACTORS
330
3D9D
102
}
330
3D9D
100
AcDbProxyObject
 90
      499
 91
      503
 93
      444
310
42D31A5B995C185D1D195C9B90E409028333333333333E33F0000000000000F9010790141107004050750841D405064090741402483A0350
1001
ACAD
1000
AcDbSavedByObjectVersion
1070
     0
  0
ACAD_PROXY_OBJECT
  5
3DAF
102
{ACAD_REACTORS
330
3D9D
102
}
330
3D9D
100
AcDbProxyObject
 90
      499
 91
      503
 93
      444
310
42D3DD995C9A185B99D3D999915409028333333333333E33F0000000000000F9010790141107004050150941D405064090741402480A0350
1001
ACAD
1000
AcDbSavedByObjectVersion
1070
     0
  0
ACAD_PROXY_OBJECT
  5
3DA6
102
{ACAD_REACTORS
330
3D9D
102
}
330
3D9D
100
AcDbProxyObject
 90
      499
 91
      503
 93
      428
310
425499585B1A5CDD1A58D08409038333333333333E33F0000000000000F9010740A907004050150800405405064090740C02480A1B40
1001
ACAD
1000
AcDbSavedByObjectVersion
1070
     0
  0
ACAD_PROXY_OBJECT
  5
3DB5
102
{ACAD_REACTORS
330
3D9D
102
}
330
3D9D
100
AcDbProxyObject
 90
      499
 91
      503
 93
      420
310
4194DA1859195911B40902404333333333333E33F0000000000000F9010740A41107004050150800405405064090840C02480A0B40
1001
ACAD
1000
AcDbSavedByObjectVersion
1070
     0
  0
ACAD_PROXY_OBJECT
  5
3DB4
102
{ACAD_REACTORS
330
3D9D
102
}
330
3D9D
100
AcDbProxyObject
 90
      499
 91
      503
 93
      516
310
4454DA18591959081DDA5D1A08195919D95CD1A40902404333333333333E33F0000000000000F901074090142907004050250800405405064090740C02480A0B40
1001
ACAD
1000
AcDbSavedByObjectVersion
1070
     0
  0
ACAD_PROXY_OBJECT
  5
3DB1
102
{ACAD_REACTORS
330
3D9D
102
}
330
3D9D
100
AcDbProxyObject
 90
      499
 91
      503
 93
      532
310
4394DA1859195CC81BD98811DC985E5174090240C333333333333E33F0000000000000F901079024090741D01000000000000111010841D405064090740C02480A0340
1001
ACAD
1000
AcDbSavedByObjectVersion
1070
     0
  0
ACAD_PROXY_OBJECT
  5
3DB2
102
{ACAD_REACTORS
330
3D9D
102
}
330
3D9D
100
AcDbProxyObject
 90
      499
 91
      503
 93
      476
310
41D4DAD95D18DA1E51840502408333333333333E33F0000000000000F901079024090741D01000000000000111010B41D405064090741802480A0340
1001
ACAD
1000
AcDbSavedByObjectVersion
1070
     0
  0
ACAD_PROXY_OBJECT
  5
3DAA
102
{ACAD_REACTORS
330
3D9D
102
}
330
3D9D
100
AcDbProxyObject
 90
      499
 91
      503
 93
      412
310
41D51A1A58DAD95B90D409028333333333333E33F0000000000000F9010790141107004050150C41D405064090741402480A0350
1001
ACAD
1000
AcDbSavedByObjectVersion
1070
     0
  0
ACAD_PROXY_OBJECT
  5
3DA3
102
{ACAD_REACTORS
330
3D9D
102
}
330
3D9D
100
AcDbProxyObject
 90
      499
 91
      503
 93
      420
310
4255DA5C99599C985B595059028333333333333E33F0000000000000F90107901411070040501600405405064090740C02480A0340
1001
ACAD
1000
AcDbSavedByObjectVersion
1070
     0
  0
ACAD_PROXY_OBJECT
  5
3DB3
102
{ACAD_REACTORS
330
3D9D
102
}
330
3D9D
100
AcDbProxyObject
 90
      499
 91
      503
 93
      404
310
41560B54985E51940902404000000000000E03F0000000000000F9010740501907004050150841D405064090740C02480A1B40
1001
ACAD
1000
AcDbSavedByObjectVersion
1070
     0
  0
XRECORD
  5
445F
102
{ACAD_REACTORS
330
4455
102
}
330
4455
100
AcDbXrecord
340
0
  0
XRECORD
  5
445E
102
{ACAD_REACTORS
330
4455
102
}
330
4455
100
AcDbXrecord
 90
        0
  0
XRECORD
  5
4478
102
{ACAD_REACTORS
330
4455
102
}
330
4455
100
AcDbXrecord
340
2948
  0
XRECORD
  5
4475
102
{ACAD_REACTORS
330
4455
102
}
330
4455
100
AcDbXrecord
1000
DSTYLE
1002
{
1070
   171
 70
     2
1070
   143
 40
0.0394
1070
   274
 70
     2
1070
    41
 40
6.0
1070
   342
340
2AF4
1070
   271
 70
     1
1070
   278
 70
    46
1070
   341
340
2AF4
1070
   272
 70
     1
1070
    48
 40
0.1
1070
   283
 70
     1
1070
    47
 40
0.1
1070
   145
 40
1.0
1070
   340
340
10
1070
   140
 40
5.0
1070
   284
 70
     0
1002
}
  0
XRECORD
  5
4460
102
{ACAD_REACTORS
330
4455
102
}
330
4455
100
AcDbXrecord
  1
{23698909-1D67-4744-B0E2-8DE11E3ED422}
  0
XRECORD
  5
4458
102
{ACAD_REACTORS
330
4455
102
}
330
4455
100
AcDbXrecord
  1

  0
XRECORD
  5
445D
102
{ACAD_REACTORS
330
4455
102
}
330
4455
100
AcDbXrecord
 90
        0
  0
XRECORD
  5
445A
102
{ACAD_REACTORS
330
4455
102
}
330
4455
100
AcDbXrecord
340
2816
  0
XRECORD
  5
445C
102
{ACAD_REACTORS
330
4455
102
}
330
4455
100
AcDbXrecord
 90
    10781
  0
XRECORD
  5
4479
102
{ACAD_REACTORS
330
4455
102
}
330
4455
100
AcDbXrecord
340
2947
  0
XRECORD
  5
445B
102
{ACAD_REACTORS
330
4455
102
}
330
4455
100
AcDbXrecord
340
2817
  0
XRECORD
  5
4462
102
{ACAD_REACTORS
330
4455
102
}
330
4455
100
AcDbXrecord
 40
0.25
  0
XRECORD
  5
4465
102
{ACAD_REACTORS
330
4455
102
}
330
4455
100
AcDbXrecord
340
0
  0
XRECORD
  5
446B
102
{ACAD_REACTORS
330
4455
102
}
330
4455
100
AcDbXrecord
 10
0.0
 20
0.0
 30
0.0
  0
XRECORD
  5
4467
102
{ACAD_REACTORS
330
4455
102
}
330
4455
100
AcDbXrecord
 10
0.0
 20
0.0
 30
0.0
  0
XRECORD
  5
446A
102
{ACAD_REACTORS
330
4455
102
}
330
4455
100
AcDbXrecord
 10
0.0
 20
0.0
 30
0.0
  0
XRECORD
  5
4468
102
{ACAD_REACTORS
330
4455
102
}
330
4455
100
AcDbXrecord
 10
0.0
 20
0.0
 30
0.0
  0
XRECORD
  5
4469
102
{ACAD_REACTORS
330
4455
102
}
330
4455
100
AcDbXrecord
 10
0.0
 20
0.0
 30
0.0
  0
XRECORD
  5
4466
102
{ACAD_REACTORS
330
4455
102
}
330
4455
100
AcDbXrecord
 10
0.0
 20
0.0
 30
0.0
  0
XRECORD
  5
4463
102
{ACAD_REACTORS
330
4455
102
}
330
4455
100
AcDbXrecord
340
0
  0
XRECORD
  5
4464
102
{ACAD_REACTORS
330
4455
102
}
330
4455
100
AcDbXrecord
 70
     0
  0
XRECORD
  5
4459
102
{ACAD_REACTORS
330
4455
102
}
330
4455
100
AcDbXrecord
  1

  0
XRECORD
  5
4456
102
{ACAD_REACTORS
330
4455
102
}
330
4455
100
AcDbXrecord
 90
        1
  0
XRECORD
  5
4457
102
{ACAD_REACTORS
330
4455
102
}
330
4455
100
AcDbXrecord
 90
       70
  0
XRECORD
  5
446E
102
{ACAD_REACTORS
330
4455
102
}
330
4455
100
AcDbXrecord
340
0
  0
XRECORD
  5
4474
102
{ACAD_REACTORS
330
4455
102
}
330
4455
100
AcDbXrecord
 10
0.0
 20
0.0
 30
0.0
  0
XRECORD
  5
4470
102
{ACAD_REACTORS
330
4455
102
}
330
4455
100
AcDbXrecord
 10
0.0
 20
0.0
 30
0.0
  0
XRECORD
  5
4473
102
{ACAD_REACTORS
330
4455
102
}
330
4455
100
AcDbXrecord
 10
0.0
 20
0.0
 30
0.0
  0
XRECORD
  5
4471
102
{ACAD_REACTORS
330
4455
102
}
330
4455
100
AcDbXrecord
 10
0.0
 20
0.0
 30
0.0
  0
XRECORD
  5
4472
102
{ACAD_REACTORS
330
4455
102
}
330
4455
100
AcDbXrecord
 10
0.0
 20
0.0
 30
0.0
  0
XRECORD
  5
446F
102
{ACAD_REACTORS
330
4455
102
}
330
4455
100
AcDbXrecord
 10
0.0
 20
0.0
 30
0.0
  0
XRECORD
  5
446C
102
{ACAD_REACTORS
330
4455
102
}
330
4455
100
AcDbXrecord
340
0
  0
XRECORD
  5
446D
102
{ACAD_REACTORS
330
4455
102
}
330
4455
100
AcDbXrecord
 70
     0
  0
XRECORD
  5
4461
102
{ACAD_REACTORS
330
4455
102
}
330
4455
100
AcDbXrecord
  1
{C107947E-8C9C-40A5-8778-D9562699BCB1}
  0
DICTIONARYVAR
  5
43C8
102
{ACAD_REACTORS
330
43C7
102
}
330
43C7
100
DictionaryVariables
280
     0
  1
1:1
  0
DICTIONARYVAR
  5
43CA
102
{ACAD_REACTORS
330
43C7
102
}
330
43C7
100
DictionaryVariables
280
     0
  1
Standard
  0
DICTIONARYVAR
  5
43C9
102
{ACAD_REACTORS
330
43C7
102
}
330
43C7
100
DictionaryVariables
280
     0
  1
Standard
  0
DICTIONARYVAR
  5
4476
102
{ACAD_REACTORS
330
43C7
102
}
330
43C7
100
DictionaryVariables
280
     0
  1
1
  0
DICTIONARYVAR
  5
4477
102
{ACAD_REACTORS
330
43C7
102
}
330
43C7
100
DictionaryVariables
280
     0
  1
0
  0
DICTIONARYVAR
  5
43CB
102
{ACAD_REACTORS
330
43C7
102
}
330
43C7
100
DictionaryVariables
280
     0
  1
0
  0
DICTIONARYVAR
  5
43CC
102
{ACAD_REACTORS
330
43C7
102
}
330
43C7
100
DictionaryVariables
280
     0
  1
0
  0
DICTIONARY
  5
4299
102
{ACAD_REACTORS
330
4298
102
}
330
4298
100
AcDbDictionary
  0
DICTIONARY
  5
42D1
102
{ACAD_REACTORS
330
42D0
102
}
330
42D0
100
AcDbDictionary
  0
DICTIONARY
  5
42DE
102
{ACAD_REACTORS
330
42DD
102
}
330
42DD
100
AcDbDictionary
  0
DICTIONARY
  5
42E2
102
{ACAD_REACTORS
330
42E1
102
}
330
42E1
100
AcDbDictionary
  0
DICTIONARY
  5
3DE3
102
{ACAD_REACTORS
330
3DE2
102
}
330
3DE2
100
AcDbDictionary
  0
DICTIONARY
  5
3DE6
102
{ACAD_REACTORS
330
3DE5
102
}
330
3DE5
100
AcDbDictionary
  0
DICTIONARY
  5
3DE9
102
{ACAD_REACTORS
330
3DE8
102
}
330
3DE8
100
AcDbDictionary
  0
DICTIONARY
  5
447F
330
3DD9
100
AcDbDictionary
280
     1
  3
ACAD_XREC_ROUNDTRIP
360
4480
  0
DICTIONARY
  5
447D
330
3DD8
100
AcDbDictionary
280
     1
  3
ACAD_XREC_ROUNDTRIP
360
447E
  0
DICTIONARY
  5
4481
330
3DDA
100
AcDbDictionary
280
     1
  3
ACAD_XREC_ROUNDTRIP
360
4482
  0
XRECORD
  5
4480
102
{ACAD_REACTORS
330
447F
102
}
330
447F
100
AcDbXrecord
102
MATERIAL
148
0.0
149
0.0
149
0.0
 93
        0
 94
      127
282
     0
 72
     1
 77
     1
171
     1
175
     1
179
     1
273
     0
  0
XRECORD
  5
447E
102
{ACAD_REACTORS
330
447D
102
}
330
447D
100
AcDbXrecord
102
MATERIAL
148
0.0
149
0.0
149
0.0
 93
        0
 94
      127
282
     0
 72
     1
 77
     1
171
     1
175
     1
179
     1
273
     0
  0
XRECORD
  5
4482
102
{ACAD_REACTORS
330
4481
102
}
330
4481
100
AcDbXrecord
102
MATERIAL
148
0.0
149
0.0
149
0.0
 93
        0
 94
      127
282
     0
 72
     1
 77
     1
171
     1
175
     1
179
     1
273
     0
  0
ENDSEC
  0
EOF
