  0
SECTION
  2
HEADER
  9
$ACADVER
  1
AC1014
  9
$ACADMAINTVER
 70
     9
  9
$DWGCODEPAGE
  3
ANSI_932
  9
$INSBASE
 10
0.0
 20
0.0
 30
0.0
  9
$EXTMIN
 10
-41.157124819656
 20
-3.014599532756
 30
0.0
  9
$EXTMAX
 10
938.730448979294
 20
575.101449204641
 30
0.0
  9
$LIMMIN
 10
-360.747566795242
 20
4.457354754526
  9
$LIMMAX
 10
-162.153696144267
 20
287.675440264018
  9
$ORTHOMODE
 70
     1
  9
$REGENMODE
 70
     1
  9
$FILLMODE
 70
     1
  9
$QTEXTMODE
 70
     0
  9
$MIRRTEXT
 70
     1
  9
$DRAGMODE
 70
     2
  9
$LTSCALE
 40
1.0
  9
$OSMODE
 70
    32
  9
$ATTMODE
 70
     1
  9
$TEXTSIZE
 40
2.333873885063
  9
$TRACEWID
 40
1.0
  9
$TEXTSTYLE
  7
STANDARD
  9
$CLAYER
  8
寸法線
  9
$CELTYPE
  6
BYLAYER
  9
$CECOLOR
 62
   256
  9
$CELTSCALE
 40
10.0
  9
$DELOBJ
 70
     1
  9
$DISPSILH
 70
     0
  9
$DIMSCALE
 40
1.0
  9
$DIMASZ
 40
6.0
  9
$DIMEXO
 40
0.625
  9
$DIMDLI
 40
3.75
  9
$DIMRND
 40
0.0
  9
$DIMDLE
 40
0.0
  9
$DIMEXE
 40
1.25
  9
$DIMTP
 40
0.1
  9
$DIMTM
 40
0.1
  9
$DIMTXT
 40
5.0
  9
$DIMCEN
 40
2.5
  9
$DIMTSZ
 40
0.0
  9
$DIMTOL
 70
     0
  9
$DIMLIM
 70
     0
  9
$DIMTIH
 70
     0
  9
$DIMTOH
 70
     0
  9
$DIMSE1
 70
     0
  9
$DIMSE2
 70
     0
  9
$DIMTAD
 70
     1
  9
$DIMZIN
 70
     8
  9
$DIMBLK
  1
OPEN30
  9
$DIMASO
 70
     1
  9
$DIMSHO
 70
     1
  9
$DIMPOST
  1

  9
$DIMAPOST
  1

  9
$DIMALT
 70
     0
  9
$DIMALTD
 70
     2
  9
$DIMALTF
 40
0.0394
  9
$DIMLFAC
 40
1.0
  9
$DIMTOFL
 70
     1
  9
$DIMTVP
 40
1.0
  9
$DIMTIX
 70
     0
  9
$DIMSOXD
 70
     0
  9
$DIMSAH
 70
     0
  9
$DIMBLK1
  1

  9
$DIMBLK2
  1

  9
$DIMSTYLE
  2
ISO-25
  9
$DIMCLRD
 70
     0
  9
$DIMCLRE
 70
     0
  9
$DIMCLRT
 70
     0
  9
$DIMTFAC
 40
1.0
  9
$DIMGAP
 40
0.625
  9
$DIMJUST
 70
     0
  9
$DIMSD1
 70
     0
  9
$DIMSD2
 70
     0
  9
$DIMTOLJ
 70
     1
  9
$DIMTZIN
 70
     0
  9
$DIMALTZ
 70
     0
  9
$DIMALTTZ
 70
     0
  9
$DIMFIT
 70
     3
  9
$DIMUPT
 70
     0
  9
$DIMUNIT
 70
     2
  9
$DIMDEC
 70
     1
  9
$DIMTDEC
 70
     1
  9
$DIMALTU
 70
     2
  9
$DIMALTTD
 70
     2
  9
$DIMTXSTY
  7
STANDARD
  9
$DIMAUNIT
 70
     0
  9
$LUNITS
 70
     2
  9
$LUPREC
 70
     4
  9
$SKETCHINC
 40
1.0
  9
$FILLETRAD
 40
6.5
  9
$AUNITS
 70
     0
  9
$AUPREC
 70
     0
  9
$MENU
  1
.
  9
$ELEVATION
 40
0.0
  9
$PELEVATION
 40
0.0
  9
$THICKNESS
 40
0.0
  9
$LIMCHECK
 70
     0
  9
$CHAMFERA
 40
10.0
  9
$CHAMFERB
 40
10.0
  9
$CHAMFERC
 40
20.0
  9
$CHAMFERD
 40
0.0
  9
$SKPOLY
 70
     0
  9
$TDCREATE
 40
2450576.597302431
  9
$TDUPDATE
 40
2457191.670301123
  9
$TDINDWG
 40
1.4467991782
  9
$TDUSRTIMER
 40
1.4467991782
  9
$USRTIMER
 70
     1
  9
$ANGBASE
 50
0.0
  9
$ANGDIR
 70
     0
  9
$PDMODE
 70
     0
  9
$PDSIZE
 40
0.0
  9
$PLINEWID
 40
0.0
  9
$COORDS
 70
     1
  9
$SPLFRAME
 70
     0
  9
$SPLINETYPE
 70
     6
  9
$SPLINESEGS
 70
     8
  9
$ATTDIA
 70
     0
  9
$ATTREQ
 70
     1
  9
$HANDLING
 70
     1
  9
$HANDSEED
  5
5EA6
  9
$SURFTAB1
 70
     6
  9
$SURFTAB2
 70
     6
  9
$SURFTYPE
 70
     6
  9
$SURFU
 70
     6
  9
$SURFV
 70
     6
  9
$UCSNAME
  2

  9
$UCSORG
 10
0.0
 20
0.0
 30
0.0
  9
$UCSXDIR
 10
1.0
 20
0.0
 30
0.0
  9
$UCSYDIR
 10
0.0
 20
1.0
 30
0.0
  9
$PUCSNAME
  2

  9
$PUCSORG
 10
0.0
 20
0.0
 30
0.0
  9
$PUCSXDIR
 10
1.0
 20
0.0
 30
0.0
  9
$PUCSYDIR
 10
0.0
 20
1.0
 30
0.0
  9
$USERI1
 70
     0
  9
$USERI2
 70
     0
  9
$USERI3
 70
     0
  9
$USERI4
 70
     0
  9
$USERI5
 70
     0
  9
$USERR1
 40
0.0
  9
$USERR2
 40
0.0
  9
$USERR3
 40
0.0
  9
$USERR4
 40
0.0
  9
$USERR5
 40
0.0
  9
$WORLDVIEW
 70
     1
  9
$SHADEDGE
 70
     3
  9
$SHADEDIF
 70
    70
  9
$TILEMODE
 70
     0
  9
$MAXACTVP
 70
    16
  9
$PINSBASE
 10
0.0
 20
0.0
 30
0.0
  9
$PLIMCHECK
 70
     0
  9
$PEXTMIN
 10
4.746305129083
 20
3.457123274536
 30
0.0
  9
$PEXTMAX
 10
404.746305129083
 20
283.457123274536
 30
0.0
  9
$PLIMMIN
 10
-7.007122192383
 20
-7.007118782997
  9
$PLIMMAX
 10
417.718108215332
 20
293.315290427208
  9
$UNITMODE
 70
     0
  9
$VISRETAIN
 70
     0
  9
$PLINEGEN
 70
     0
  9
$PSLTSCALE
 70
     1
  9
$TREEDEPTH
 70
  3020
  9
$PICKSTYLE
 70
     1
  9
$CMLSTYLE
  2
STANDARD
  9
$CMLJUST
 70
     0
  9
$CMLSCALE
 40
1.0
  9
$PROXYGRAPHICS
 70
     1
  9
$MEASUREMENT
 70
     1
  0
ENDSEC
  0
SECTION
  2
CLASSES
  0
CLASS
  1
ACDBDICTIONARYWDFLT
  2
AcDbDictionaryWithDefault
  3
ObjectDBX Classes
 90
        0
280
     0
281
     0
  0
CLASS
  1
ACDBPLACEHOLDER
  2
AcDbPlaceHolder
  3
ObjectDBX Classes
 90
        0
280
     0
281
     0
  0
CLASS
  1
LAYOUT
  2
AcDbLayout
  3
ObjectDBX Classes
 90
        0
280
     0
281
     0
  0
CLASS
  1
SORTENTSTABLE
  2
AcDbSortentsTable
  3
ObjectDBX Classes
 90
        0
280
     0
281
     0
  0
CLASS
  1
VISUALSTYLE
  2
AcDbVisualStyle
  3
ObjectDBX Classes
 90
     4095
280
     0
281
     0
  0
CLASS
  1
SCALE
  2
AcDbScale
  3
ObjectDBX Classes
 90
     1153
280
     0
281
     0
  0
CLASS
  1
MATERIAL
  2
AcDbMaterial
  3
ObjectDBX Classes
 90
     1153
280
     0
281
     0
  0
CLASS
  1
TABLESTYLE
  2
AcDbTableStyle
  3
ObjectDBX Classes
 90
     4095
280
     0
281
     0
  0
CLASS
  1
MLEADERSTYLE
  2
AcDbMLeaderStyle
  3
ACDB_MLEADERSTYLE_CLASS
 90
     4095
280
     0
281
     0
  0
CLASS
  1
SUN
  2
AcDbSun
  3
SCENEOE
 90
     1153
280
     0
281
     0
  0
CLASS
  1
DICTIONARYVAR
  2
AcDbDictionaryVar
  3
ObjectDBX Classes
 90
        0
280
     0
281
     0
  0
CLASS
  1
XRECORD
  2
AcDbXrecord
  3
ObjectDBX Classes
 90
        0
280
     0
281
     0
  0
CLASS
  1
LWPOLYLINE
  2
AcDbPolyline
  3
ObjectDBX Classes
 90
        0
280
     0
281
     1
  0
CLASS
  1
HATCH
  2
AcDbHatch
  3
ObjectDBX Classes
 90
        0
280
     0
281
     1
  0
ENDSEC
  0
SECTION
  2
TABLES
  0
TABLE
  2
VPORT
  5
8
102
{ACAD_XDICTIONARY
360
5E9D
102
}
330
0
100
AcDbSymbolTable
 70
     4
  0
VPORT
  5
5A3F
330
8
100
AcDbSymbolTableRecord
100
AcDbViewportTableRecord
  2
*ACTIVE
 70
     0
 10
0.0
 20
0.0
 11
1.0
 21
1.0
 12
559.624846545404
 22
281.239821435344
 13
0.0
 23
0.0
 14
1.0
 24
1.0
 15
0.0
 25
0.0
 16
0.0
 26
0.0
 36
1.0
 17
0.0
 27
0.0
 37
0.0
 40
453.080695422867
 41
1.56746031746
 42
50.0
 43
0.0
 44
0.0
 50
0.0
 51
0.0
 71
    16
 72
   100
 73
     1
 74
     0
 75
     0
 76
     0
 77
     0
 78
     0
  0
ENDTAB
  0
TABLE
  2
LTYPE
  5
5
330
0
100
AcDbSymbolTable
 70
     5
  0
LTYPE
  5
14
330
5
100
AcDbSymbolTableRecord
100
AcDbLinetypeTableRecord
  2
BYBLOCK
 70
     0
  3

 72
    65
 73
     0
 40
0.0
  0
LTYPE
  5
15
330
5
100
AcDbSymbolTableRecord
100
AcDbLinetypeTableRecord
  2
BYLAYER
 70
     0
  3

 72
    65
 73
     0
 40
0.0
  0
LTYPE
  5
16
330
5
100
AcDbSymbolTableRecord
100
AcDbLinetypeTableRecord
  2
CONTINUOUS
 70
     0
  3
Solid line
 72
    65
 73
     0
 40
0.0
  0
LTYPE
  5
1EC
330
5
100
AcDbSymbolTableRecord
100
AcDbLinetypeTableRecord
  2
CENTER
 70
     0
  3
____ _ ____ _ ____ _ ____ _ ____ _ ____ _ ____ 
 72
    65
 73
     4
 40
2.0
 49
1.25
 74
     0
 49
-0.25
 74
     0
 49
0.25
 74
     0
 49
-0.25
 74
     0
  0
LTYPE
  5
1ED
330
5
100
AcDbSymbolTableRecord
100
AcDbLinetypeTableRecord
  2
DASHED
 70
     0
  3
__ __ __ __ __ __ __ __ __ __ __ __ __ __ __ __
 72
    65
 73
     2
 40
0.75
 49
0.5
 74
     0
 49
-0.25
 74
     0
  0
LTYPE
  5
4D7E
330
5
100
AcDbSymbolTableRecord
100
AcDbLinetypeTableRecord
  2
DASHDOT
 70
     0
  3
一点鎖線
 72
    65
 73
     4
 40
25.6
 49
20.0
 74
     0
 49
-2.0
 74
     0
 49
1.6
 74
     0
 49
-2.0
 74
     0
  0
LTYPE
  5
4D7F
330
5
100
AcDbSymbolTableRecord
100
AcDbLinetypeTableRecord
  2
DIVIDE
 70
     0
  3
二点鎖線
 72
    65
 73
     6
 40
31.2
 49
20.0
 74
     0
 49
-2.4
 74
     0
 49
2.0
 74
     0
 49
-2.4
 74
     0
 49
2.0
 74
     0
 49
-2.4
 74
     0
  0
ENDTAB
  0
TABLE
  2
LAYER
  5
2
102
{ACAD_XDICTIONARY
360
29EA
102
}
330
0
100
AcDbSymbolTable
 70
    12
  0
LAYER
  5
F
330
2
100
AcDbSymbolTableRecord
100
AcDbLayerTableRecord
  2
0
 70
     0
 62
     7
  6
CONTINUOUS
  0
LAYER
  5
61
330
2
100
AcDbSymbolTableRecord
100
AcDbLayerTableRecord
  2
図枠太線
 70
     0
 62
   251
  6
CONTINUOUS
  0
LAYER
  5
62
330
2
100
AcDbSymbolTableRecord
100
AcDbLayerTableRecord
  2
図枠細線
 70
     0
 62
   252
  6
CONTINUOUS
  0
LAYER
  5
63
330
2
100
AcDbSymbolTableRecord
100
AcDbLayerTableRecord
  2
図枠ロゴマーク
 70
     0
 62
   253
  6
CONTINUOUS
  0
LAYER
  5
1EF
330
2
100
AcDbSymbolTableRecord
100
AcDbLayerTableRecord
  2
外形線
 70
     0
 62
     7
  6
CONTINUOUS
  0
LAYER
  5
1F0
330
2
100
AcDbSymbolTableRecord
100
AcDbLayerTableRecord
  2
寸法線
 70
     0
 62
     1
  6
CONTINUOUS
  0
LAYER
  5
1F1
330
2
100
AcDbSymbolTableRecord
100
AcDbLayerTableRecord
  2
中心線
 70
     0
 62
     4
  6
CENTER
  0
LAYER
  5
1F4
330
2
100
AcDbSymbolTableRecord
100
AcDbLayerTableRecord
  2
DEFPOINTS
 70
     0
 62
     7
  6
CONTINUOUS
  0
LAYER
  5
2AA2
330
2
100
AcDbSymbolTableRecord
100
AcDbLayerTableRecord
  2
下書線
 70
     0
 62
     2
  6
CONTINUOUS
  0
LAYER
  5
2AA4
330
2
100
AcDbSymbolTableRecord
100
AcDbLayerTableRecord
  2
細線
 70
     0
 62
     6
  6
CONTINUOUS
  0
LAYER
  5
3C9C
330
2
100
AcDbSymbolTableRecord
100
AcDbLayerTableRecord
  2
LAY-1
 70
     0
 62
     7
  6
CONTINUOUS
  0
LAYER
  5
4D80
330
2
100
AcDbSymbolTableRecord
100
AcDbLayerTableRecord
  2
隠れ線
 70
     0
 62
     3
  6
DASHED
  0
ENDTAB
  0
TABLE
  2
STYLE
  5
3
330
0
100
AcDbSymbolTable
 70
     3
  0
STYLE
  5
10
330
3
100
AcDbSymbolTableRecord
100
AcDbTextStyleTableRecord
  2
STANDARD
 70
     0
 40
0.0
 41
1.0
 50
0.0
 71
     0
 42
2.333873885063
  3
ISOCP
  4
bigfont.shx
  0
STYLE
  5
64
330
3
100
AcDbSymbolTableRecord
100
AcDbTextStyleTableRecord
  2
EXCADSTD
 70
     0
 40
0.0
 41
1.0
 50
0.0
 71
     0
 42
0.2
  3
monotxt
  4
bigfont
  0
STYLE
  5
433F
330
3
100
AcDbSymbolTableRecord
100
AcDbTextStyleTableRecord
  2
EXCADVERT
 70
     4
 40
0.0
 41
1.0
 50
0.0
 71
     0
 42
0.286885
  3
monotxt
  4
bigfont
  0
ENDTAB
  0
TABLE
  2
VIEW
  5
6
330
0
100
AcDbSymbolTable
 70
     0
  0
ENDTAB
  0
TABLE
  2
UCS
  5
7
330
0
100
AcDbSymbolTable
 70
     0
  0
ENDTAB
  0
TABLE
  2
APPID
  5
9
330
0
100
AcDbSymbolTable
 70
     3
  0
APPID
  5
11
330
9
100
AcDbSymbolTableRecord
100
AcDbRegAppTableRecord
  2
ACAD
 70
     0
  0
APPID
  5
5A83
330
9
100
AcDbSymbolTableRecord
100
AcDbRegAppTableRecord
  2
ACADANNOTATIVE
 70
     0
  0
APPID
  5
5EA5
330
9
100
AcDbSymbolTableRecord
100
AcDbRegAppTableRecord
  2
ACAD_MLEADERVER
 70
     0
  0
ENDTAB
  0
TABLE
  2
DIMSTYLE
  5
A
330
0
100
AcDbSymbolTable
 70
     2
  0
DIMSTYLE
105
1D
330
A
100
AcDbSymbolTableRecord
100
AcDbDimStyleTableRecord
  2
STANDARD
 70
     0
  3

  4

  5

  6

  7

 40
1.0
 41
0.18
 42
0.0625
 43
0.38
 44
0.18
 45
0.0
 46
0.0
 47
0.0
 48
0.0
140
0.18
141
0.09
142
0.0
143
25.4
144
1.0
145
0.0
146
1.0
147
0.09
 71
     0
 72
     0
 73
     1
 74
     1
 75
     0
 76
     0
 77
     0
 78
     0
170
     0
171
     2
172
     0
173
     0
174
     0
175
     0
176
     0
177
     0
178
     0
270
     2
271
     4
272
     4
273
     2
274
     2
340
10
275
     0
280
     0
281
     0
282
     0
283
     1
284
     0
285
     0
286
     0
287
     3
288
     0
  0
DIMSTYLE
105
24
102
{ACAD_REACTORS
330
43DD
330
43DE
330
43DF
330
43E0
330
43E1
330
54DE
330
54E1
330
5558
330
5559
330
5575
330
5576
330
5577
330
5578
330
557A
330
55A7
330
55A8
330
579F
330
5AE0
330
5AE3
330
5B26
330
5B29
330
5B2A
330
5B74
330
5D3D
102
}
330
A
100
AcDbSymbolTableRecord
100
AcDbDimStyleTableRecord
  2
ISO-25
 70
     0
  3

  4

  5

  6

  7

 40
1.0
 41
2.5
 42
0.625
 43
3.75
 44
1.25
 45
0.0
 46
0.0
 47
0.0
 48
0.0
140
2.5
141
2.5
142
0.0
143
0.0394
144
1.0
145
1.0
146
1.0
147
0.625
 71
     0
 72
     0
 73
     1
 74
     0
 75
     0
 76
     0
 77
     1
 78
     8
170
     0
171
     2
172
     1
173
     0
174
     0
175
     0
176
     0
177
     0
178
     0
270
     2
271
     4
272
     4
273
     2
274
     2
340
10
275
     0
280
     0
281
     0
282
     0
283
     1
284
     0
285
     0
286
     0
287
     3
288
     0
  0
ENDTAB
  0
TABLE
  2
BLOCK_RECORD
  5
1
330
0
100
AcDbSymbolTable
 70
    54
  0
BLOCK_RECORD
  5
1A
102
{ACAD_XDICTIONARY
360
5B8B
102
}
330
1
100
AcDbSymbolTableRecord
100
AcDbBlockTableRecord
  2
*MODEL_SPACE
  0
BLOCK_RECORD
  5
28FB
330
1
100
AcDbSymbolTableRecord
100
AcDbBlockTableRecord
  2
*PAPER_SPACE
  0
BLOCK_RECORD
  5
2A32
330
1
100
AcDbSymbolTableRecord
100
AcDbBlockTableRecord
  2
A3横用_タイトル
1001
ACAD
1000
DesignCenter Data
1002
{
1070
     1
1070
     4
1002
}
  0
BLOCK_RECORD
  5
2AEB
330
1
100
AcDbSymbolTableRecord
100
AcDbBlockTableRecord
  2
_OPEN30
  0
BLOCK_RECORD
  5
3A78
330
1
100
AcDbSymbolTableRecord
100
AcDbBlockTableRecord
  2
ケース外形図_HL-100
  0
BLOCK_RECORD
  5
3F30
330
1
100
AcDbSymbolTableRecord
100
AcDbBlockTableRecord
  2
ケース外形図_HL101
  0
BLOCK_RECORD
  5
3F7D
330
1
100
AcDbSymbolTableRecord
100
AcDbBlockTableRecord
  2
A$C16143EC0
  0
BLOCK_RECORD
  5
4200
330
1
100
AcDbSymbolTableRecord
100
AcDbBlockTableRecord
  2
パドル_W1
  0
BLOCK_RECORD
  5
4218
330
1
100
AcDbSymbolTableRecord
100
AcDbBlockTableRecord
  2
パドル_W1立面図
  0
BLOCK_RECORD
  5
42BD
330
1
100
AcDbSymbolTableRecord
100
AcDbBlockTableRecord
  2
ケース外形図_PRL-101
  0
BLOCK_RECORD
  5
4323
330
1
100
AcDbSymbolTableRecord
100
AcDbBlockTableRecord
  2
A$C480F1F2B
  0
BLOCK_RECORD
  5
4478
330
1
100
AcDbSymbolTableRecord
100
AcDbBlockTableRecord
  2
*D9
  0
BLOCK_RECORD
  5
4484
330
1
100
AcDbSymbolTableRecord
100
AcDbBlockTableRecord
  2
*D10
  0
BLOCK_RECORD
  5
4492
330
1
100
AcDbSymbolTableRecord
100
AcDbBlockTableRecord
  2
*D11
  0
BLOCK_RECORD
  5
449E
330
1
100
AcDbSymbolTableRecord
100
AcDbBlockTableRecord
  2
*D12
  0
BLOCK_RECORD
  5
44AA
330
1
100
AcDbSymbolTableRecord
100
AcDbBlockTableRecord
  2
*D13
  0
BLOCK_RECORD
  5
55AD
330
1
100
AcDbSymbolTableRecord
100
AcDbBlockTableRecord
  2
*D15
  0
BLOCK_RECORD
  5
55B9
330
1
100
AcDbSymbolTableRecord
100
AcDbBlockTableRecord
  2
*D16
  0
BLOCK_RECORD
  5
560F
330
1
100
AcDbSymbolTableRecord
100
AcDbBlockTableRecord
  2
*D17
  0
BLOCK_RECORD
  5
561B
330
1
100
AcDbSymbolTableRecord
100
AcDbBlockTableRecord
  2
*D18
  0
BLOCK_RECORD
  5
5629
330
1
100
AcDbSymbolTableRecord
100
AcDbBlockTableRecord
  2
*D19
  0
BLOCK_RECORD
  5
5635
330
1
100
AcDbSymbolTableRecord
100
AcDbBlockTableRecord
  2
*D20
  0
BLOCK_RECORD
  5
5642
330
1
100
AcDbSymbolTableRecord
100
AcDbBlockTableRecord
  2
*D21
  0
BLOCK_RECORD
  5
564E
330
1
100
AcDbSymbolTableRecord
100
AcDbBlockTableRecord
  2
*D22
  0
BLOCK_RECORD
  5
565A
330
1
100
AcDbSymbolTableRecord
100
AcDbBlockTableRecord
  2
*D23
  0
BLOCK_RECORD
  5
5668
330
1
100
AcDbSymbolTableRecord
100
AcDbBlockTableRecord
  2
*D24
  0
BLOCK_RECORD
  5
5674
330
1
100
AcDbSymbolTableRecord
100
AcDbBlockTableRecord
  2
*D25
  0
BLOCK_RECORD
  5
57A0
330
1
100
AcDbSymbolTableRecord
100
AcDbBlockTableRecord
  2
*D26
  0
BLOCK_RECORD
  5
595A
330
1
100
AcDbSymbolTableRecord
100
AcDbBlockTableRecord
  2
エル2
  0
BLOCK_RECORD
  5
5B0C
330
1
100
AcDbSymbolTableRecord
100
AcDbBlockTableRecord
  2
*D31
  0
BLOCK_RECORD
  5
5B18
330
1
100
AcDbSymbolTableRecord
100
AcDbBlockTableRecord
  2
*D32
  0
BLOCK_RECORD
  5
5B2B
330
1
100
AcDbSymbolTableRecord
100
AcDbBlockTableRecord
  2
*D33
  0
BLOCK_RECORD
  5
5B3A
330
1
100
AcDbSymbolTableRecord
100
AcDbBlockTableRecord
  2
*D34
  0
BLOCK_RECORD
  5
5B46
330
1
100
AcDbSymbolTableRecord
100
AcDbBlockTableRecord
  2
*D35
  0
BLOCK_RECORD
  5
5B75
330
1
100
AcDbSymbolTableRecord
100
AcDbBlockTableRecord
  2
*D36
  0
BLOCK_RECORD
  5
5E06
330
1
100
AcDbSymbolTableRecord
100
AcDbBlockTableRecord
  2
*D53
  0
ENDTAB
  0
ENDSEC
  0
SECTION
  2
BLOCKS
  0
BLOCK
  5
1B
330
1A
100
AcDbEntity
  8
0
100
AcDbBlockBegin
  2
*MODEL_SPACE
 70
     0
 10
0.0
 20
0.0
 30
0.0
  3
*MODEL_SPACE
  1

  0
ENDBLK
  5
1C
330
1A
100
AcDbEntity
  8
0
100
AcDbBlockEnd
  0
BLOCK
  5
28FD
330
28FB
100
AcDbEntity
 67
     1
  8
0
 48
10.0
100
AcDbBlockBegin
  2
*PAPER_SPACE
 70
     0
 10
0.0
 20
0.0
 30
0.0
  3
*PAPER_SPACE
  1

  0
ENDBLK
  5
28FE
330
28FB
100
AcDbEntity
 67
     1
  8
0
 48
10.0
100
AcDbBlockEnd
  0
BLOCK
  5
2A33
330
2A32
100
AcDbEntity
  8
0
100
AcDbBlockBegin
  2
A3横用_タイトル
 70
     0
 10
0.0
 20
0.0
 30
0.0
  3
A3横用_タイトル
  1
A3横用_タイトル
  0
LINE
  5
2A34
330
2A32
100
AcDbEntity
  8
図枠細線
  6
CONTINUOUS
 62
   252
100
AcDbLine
 10
205.098414535793
 20
33.525959753527
 30
0.0
 11
305.098414535793
 21
33.525959753527
 31
0.0
  0
LINE
  5
2A35
330
2A32
100
AcDbEntity
  8
図枠太線
  6
CONTINUOUS
 62
   251
100
AcDbLine
 10
205.098414535793
 20
23.525959753527
 30
0.0
 11
305.098414535793
 21
23.525959753527
 31
0.0
  0
LINE
  5
2A36
330
2A32
100
AcDbEntity
  8
図枠細線
  6
CONTINUOUS
100
AcDbLine
 10
5.098414535793
 20
23.525959753527
 30
0.0
 11
105.098414535793
 21
23.525959753527
 31
0.0
  0
LINE
  5
2A37
330
2A32
100
AcDbEntity
  8
図枠細線
  6
CONTINUOUS
 62
   252
100
AcDbLine
 10
5.098414535793
 20
36.725957753527
 30
0.0
 11
105.098414535793
 21
36.725957753527
 31
0.0
  0
LINE
  5
2A38
330
2A32
100
AcDbEntity
  8
図枠細線
  6
CONTINUOUS
 62
   252
100
AcDbLine
 10
5.098414535793
 20
30.125957753527
 30
0.0
 11
105.098414535793
 21
30.125957753527
 31
0.0
  0
LINE
  5
2A39
330
2A32
100
AcDbEntity
  8
図枠細線
  6
CONTINUOUS
 62
   252
100
AcDbLine
 10
5.098414535793
 20
16.725959753527
 30
0.0
 11
105.098414535793
 21
16.725959753527
 31
0.0
  0
LINE
  5
2A3A
330
2A32
100
AcDbEntity
  8
図枠細線
  6
CONTINUOUS
 62
   252
100
AcDbLine
 10
5.098414535793
 20
10.125959753527
 30
0.0
 11
105.098414535793
 21
10.125959753527
 31
0.0
  0
LINE
  5
2A3B
330
2A32
100
AcDbEntity
  8
図枠細線
  6
CONTINUOUS
100
AcDbLine
 10
105.098414535793
 20
23.525961753527
 30
0.0
 11
205.098414535793
 21
23.525959753527
 31
0.0
  0
LINE
  5
2A3C
330
2A32
100
AcDbEntity
  8
図枠細線
  6
CONTINUOUS
 62
   252
100
AcDbLine
 10
138.398414535793
 20
43.525959753527
 30
0.0
 11
138.398414535793
 21
18.525957753527
 31
0.0
  0
LINE
  5
2A3D
330
2A32
100
AcDbEntity
  8
図枠細線
  6
CONTINUOUS
 62
   252
100
AcDbLine
 10
171.698414535793
 20
43.525959753527
 30
0.0
 11
171.698414535793
 21
18.525957753527
 31
0.0
  0
LINE
  5
2A3E
330
2A32
100
AcDbEntity
  8
図枠細線
  6
CONTINUOUS
 62
   252
100
AcDbLine
 10
305.098414535793
 20
23.525959753527
 30
0.0
 11
405.098414535793
 21
23.525959753527
 31
0.0
  0
TEXT
  5
2A3F
330
2A32
100
AcDbEntity
  8
図枠ロゴマーク
  6
CONTINUOUS
 62
   253
100
AcDbText
 10
206.102509212755
 20
13.294257570546
 30
0.0
 40
7.0
  1
東和制電工業株式会社
 50
0.016555220185
 41
1.186384129432
  7
EXCADSTD
 72
     5
 11
303.544188309143
 21
13.322412672217
 31
0.0
100
AcDbText
  0
MTEXT
  5
2A40
330
2A32
100
AcDbEntity
  8
図枠細線
100
AcDbMText
 10
6.356764112375
 20
41.976594175478
 30
0.0
 40
2.5
 41
49.938282706292
 71
     1
 72
     5
  1
{\Fmonotxt.shx,bigfont.shx|c128;図暦　CHANGE　NOTICE}
  0
MTEXT
  5
2A41
330
2A32
100
AcDbEntity
  8
図枠細線
 48
10.0
100
AcDbMText
 10
306.544114926828
 20
41.701835800934
 30
0.0
 40
2.5
 41
28.002809618823
 71
     1
 72
     5
  1
{\Fmonotxt.shx,bigfont.shx|c128;名称　TITLE}
  0
MTEXT
  5
2A42
330
2A32
100
AcDbEntity
  8
図枠細線
 48
10.0
100
AcDbMText
 10
307.329617114284
 20
21.606206797226
 30
0.0
 40
2.5
 41
24.385612216707
 71
     1
 72
     5
  1
{\Fmonotxt.shx,bigfont.shx|c128;図面番号\PDRG.　No.}
  0
MTEXT
  5
2A43
330
2A32
100
AcDbEntity
  8
図枠細線
 48
10.0
100
AcDbMText
 10
173.726349404609
 20
21.73680662198
 30
0.0
 40
2.5
 41
25.735090160813
 71
     1
 72
     5
  1
{\Fmonotxt.shx,bigfont.shx|c128;日付 DATE}
  0
MTEXT
  5
2A44
330
2A32
100
AcDbEntity
  8
図枠細線
 48
10.0
100
AcDbMText
 10
173.48708833982
 20
41.621592044998
 30
0.0
 40
2.5
 41
24.983741184205
 71
     1
 72
     5
  1
{\Fmonotxt.shx,bigfont.shx|c128;製図　DRAWN}
  0
MTEXT
  5
2A45
330
2A32
100
AcDbEntity
  8
図枠細線
 48
10.0
100
AcDbMText
 10
139.28009927741
 20
21.866713069868
 30
0.0
 40
2.5
 41
22.629632913243
 71
     1
 72
     5
  1
{\Fmonotxt.shx,bigfont.shx|c128;尺度　SCALE}
  0
MTEXT
  5
2A46
330
2A32
100
AcDbEntity
  8
図枠細線
 48
10.0
100
AcDbMText
 10
139.910091179835
 20
41.311840415554
 30
0.0
 40
2.5
 41
28.998753428368
 71
     1
 72
     5
  1
{\Fmonotxt.shx,bigfont.shx|c128;検図  CHECKED}
  0
MTEXT
  5
2A47
330
2A32
100
AcDbEntity
  8
図枠細線
 48
10.0
100
AcDbMText
 10
114.253294667728
 20
21.916124850174
 30
0.0
 40
3.0
 41
19.692400475383
 71
     1
 72
     5
  1
{\Fmonotxt.shx,bigfont.shx|c128;第三角法}
  0
MTEXT
  5
2A48
330
2A32
100
AcDbEntity
  8
図枠細線
 48
10.0
100
AcDbMText
 10
108.986959929915
 20
15.282880185837
 30
0.0
 40
2.5
 41
27.954882823547
 71
     1
 72
     5
  1
{\Fmonotxt.shx,bigfont.shx|c128;THIRD ANGLE\PPROJECTION}
  0
MTEXT
  5
2A49
330
2A32
100
AcDbEntity
  8
図枠細線
 48
10.0
100
AcDbMText
 10
106.319432640184
 20
41.511437145487
 30
0.0
 40
2.5
 41
28.233595265074
 71
     1
 72
     5
  1
{\Fmonotxt.shx,bigfont.shx|c128;承認 APPROVED}
  0
LINE
  5
2A4A
330
2A32
100
AcDbEntity
  8
図枠太線
  6
CONTINUOUS
 62
   251
100
AcDbLine
 10
5.098414535793
 20
3.525959753527
 30
0.0
 11
405.098414535793
 21
3.525959753527
 31
0.0
  0
LINE
  5
2A4B
330
2A32
100
AcDbEntity
  8
図枠太線
 48
10.0
100
AcDbLine
 10
5.098414535793
 20
3.525959753527
 30
0.0
 11
5.098414535793
 21
43.525959753527
 31
0.0
  0
LINE
  5
2A4C
330
2A32
100
AcDbEntity
  8
図枠太線
  6
CONTINUOUS
 62
   251
100
AcDbLine
 10
105.098414535793
 20
3.525959753527
 30
0.0
 11
105.098414535793
 21
43.525959753527
 31
0.0
  0
LINE
  5
2A4D
330
2A32
100
AcDbEntity
  8
図枠細線
  6
CONTINUOUS
 62
   252
100
AcDbLine
 10
138.398414535793
 20
3.525959753527
 30
0.0
 11
138.398414535793
 21
18.525957753527
 31
0.0
  0
LINE
  5
2A4E
330
2A32
100
AcDbEntity
  8
図枠細線
  6
CONTINUOUS
 62
   252
100
AcDbLine
 10
171.698414535793
 20
3.525959753527
 30
0.0
 11
171.698414535793
 21
18.525957753527
 31
0.0
  0
LINE
  5
2A4F
330
2A32
100
AcDbEntity
  8
図枠太線
  6
CONTINUOUS
 62
   251
100
AcDbLine
 10
205.098414535793
 20
3.525959753527
 30
0.0
 11
205.098414535793
 21
43.525959753527
 31
0.0
  0
LINE
  5
2A50
330
2A32
100
AcDbEntity
  8
図枠太線
 48
10.0
100
AcDbLine
 10
405.098414535793
 20
43.525959753527
 30
0.0
 11
405.098414535793
 21
3.525959753527
 31
0.0
  0
TEXT
  5
2A51
330
2A32
100
AcDbEntity
  8
図枠細線
  6
CONTINUOUS
 62
   252
100
AcDbText
 10
208.519754474572
 20
6.482358407285
 30
0.0
 40
3.5
  1
ＴＯＷＡ　ＳＥＩＤＥＮ　ＩＮＤＵＳＴＲＩＡＬ　ＣＯ．，ＬＴＤ．
 41
0.746656297509
  7
EXCADSTD
 72
     5
 11
303.295327171727
 21
6.482358407285
 31
0.0
100
AcDbText
  0
LINE
  5
2A52
330
2A32
100
AcDbEntity
  8
図枠太線
  6
CONTINUOUS
 62
   251
100
AcDbLine
 10
305.098414535793
 20
3.525959753527
 30
0.0
 11
305.098414535793
 21
43.525959753527
 31
0.0
  0
ENDBLK
  5
2A53
330
2A32
100
AcDbEntity
  8
0
100
AcDbBlockEnd
  0
BLOCK
  5
2AEF
330
2AEB
100
AcDbEntity
  8
0
 48
10.0
100
AcDbBlockBegin
  2
_OPEN30
 70
     0
 10
0.0
 20
0.0
 30
0.0
  3
_OPEN30
  1
_OPEN30
  0
LINE
  5
2AEC
330
2AEB
100
AcDbEntity
  8
0
  6
BYBLOCK
 62
     0
100
AcDbLine
 10
-1.0
 20
0.26794919
 30
0.0
 11
0.0
 21
0.0
 31
0.0
  0
LINE
  5
2AED
330
2AEB
100
AcDbEntity
  8
0
  6
BYBLOCK
 62
     0
100
AcDbLine
 10
0.0
 20
0.0
 30
0.0
 11
-1.0
 21
-0.26794919
 31
0.0
  0
LINE
  5
2AEE
330
2AEB
100
AcDbEntity
  8
0
  6
BYBLOCK
 62
     0
100
AcDbLine
 10
0.0
 20
0.0
 30
0.0
 11
-1.0
 21
0.0
 31
0.0
  0
ENDBLK
  5
2AF0
330
2AEB
100
AcDbEntity
  8
0
 48
10.0
100
AcDbBlockEnd
  0
BLOCK
  5
3A79
330
3A78
100
AcDbEntity
  8
0
 48
10.0
100
AcDbBlockBegin
  2
ケース外形図_HL-100
 70
     0
 10
0.0
 20
0.0
 30
0.0
  3
ケース外形図_HL-100
  1
ケース外形図_HL-100
  0
ARC
  5
3A7A
330
3A78
100
AcDbEntity
  8
外形線
100
AcDbCircle
 10
-2925.377906671296
 20
152.118815834594
 30
0.0
 40
7.5
100
AcDbArc
 50
0.0
 51
86.629979268965
  0
LINE
  5
3A7B
330
3A78
100
AcDbEntity
  8
外形線
100
AcDbLine
 10
-3002.377829171295
 20
141.457735857521
 30
0.0
 11
-2990.377829171296
 21
165.457828357521
 31
0.0
  0
LINE
  5
3A7C
330
3A78
100
AcDbEntity
  8
外形線
100
AcDbLine
 10
-2924.937026299913
 20
159.605846253801
 30
0.0
 11
-2966.627829171296
 21
162.060845849639
 31
0.0
  0
LINE
  5
3A7D
330
3A78
100
AcDbEntity
  8
外形線
100
AcDbLine
 10
-2990.377829171296
 20
165.457828357521
 30
0.0
 11
-2990.377829171296
 21
62.457798357521
 31
0.0
  0
LINE
  5
3A7E
330
3A78
100
AcDbEntity
  8
外形線
100
AcDbLine
 10
-2983.377861671295
 20
167.457798357521
 30
0.0
 11
-2983.377861671295
 21
60.457828357521
 31
0.0
  0
LINE
  5
3A7F
330
3A78
100
AcDbEntity
  8
外形線
100
AcDbLine
 10
-2975.377829171296
 20
60.457828357521
 30
0.0
 11
-2975.377829171296
 21
167.457798357521
 31
0.0
  0
LINE
  5
3A80
330
3A78
100
AcDbEntity
  8
外形線
100
AcDbLine
 10
-2973.627829171295
 20
167.457798357521
 30
0.0
 11
-2973.627829171295
 21
60.457828357521
 31
0.0
  0
LINE
  5
3A81
330
3A78
100
AcDbEntity
  8
外形線
100
AcDbLine
 10
-2966.627829171296
 20
60.457828357521
 30
0.0
 11
-2966.627829171296
 21
167.457798357521
 31
0.0
  0
LINE
  5
3A82
330
3A78
100
AcDbEntity
  8
外形線
100
AcDbLine
 10
-3027.377829171295
 20
40.957783357521
 30
0.0
 11
-3027.377829171295
 21
195.957783357521
 31
0.0
  0
LINE
  5
3A83
330
3A78
100
AcDbEntity
  8
外形線
100
AcDbLine
 10
-3037.377829171295
 20
40.957860857521
 30
0.0
 11
-3037.377829171295
 21
195.957860857521
 31
0.0
  0
LINE
  5
3A84
330
3A78
100
AcDbEntity
  8
外形線
100
AcDbLine
 10
-2983.377861671295
 20
60.457828357521
 30
0.0
 11
-2966.627829171296
 21
60.457828357521
 31
0.0
  0
LINE
  5
3A85
330
3A78
100
AcDbEntity
  8
外形線
100
AcDbLine
 10
-3002.377829171295
 20
95.457828357521
 30
0.0
 11
-2990.377829171296
 21
62.457798357521
 31
0.0
  0
LINE
  5
3A86
330
3A78
100
AcDbEntity
  8
外形線
100
AcDbLine
 10
-3037.377829171295
 20
40.957783357521
 30
0.0
 11
-3027.377829171295
 21
40.957783357521
 31
0.0
  0
LINE
  5
3A87
330
3A78
100
AcDbEntity
  8
中心線
 48
10.0
100
AcDbLine
 10
-3044.864706671296
 20
53.457783357521
 30
0.0
 11
-3019.114164171296
 21
53.457783357521
 31
0.0
  0
LINE
  5
3A88
330
3A78
100
AcDbEntity
  8
外形線
100
AcDbLine
 10
-2990.377829171296
 20
62.457798357521
 30
0.0
 11
-2983.377861671295
 21
61.457735857521
 31
0.0
  0
LINE
  5
3A89
330
3A78
100
AcDbEntity
  8
外形線
100
AcDbLine
 10
-3002.377829171295
 20
95.457828357521
 30
0.0
 11
-3002.377829171295
 21
141.457735857521
 31
0.0
  0
ARC
  5
3A8A
330
3A78
100
AcDbEntity
  8
細線
100
AcDbCircle
 10
-3053.115528206043
 20
118.457782357522
 30
0.0
 40
9.86227696525272
100
AcDbArc
 50
131.155220883625
 51
228.844779116375
  0
LINE
  5
3A8B
330
3A78
100
AcDbEntity
  8
外形線
100
AcDbLine
 10
-3062.977805171295
 20
130.157856357522
 30
0.0
 11
-3062.977805171295
 21
106.757710357522
 31
0.0
  0
LINE
  5
3A8C
330
3A78
100
AcDbEntity
  8
細線
100
AcDbLine
 10
-3042.804099171295
 20
133.308980357522
 30
0.0
 11
-3042.804099171295
 21
103.606586357521
 31
0.0
  0
LINE
  5
3A8D
330
3A78
100
AcDbEntity
  8
外形線
100
AcDbLine
 10
-3062.977805171295
 20
106.757710357522
 30
0.0
 11
-3059.446677171295
 21
103.457782357522
 31
0.0
  0
LINE
  5
3A8E
330
3A78
100
AcDbEntity
  8
外形線
100
AcDbLine
 10
-3059.605906697185
 20
103.606586357521
 30
0.0
 11
-3037.377829171295
 21
103.606586357521
 31
0.0
  0
LINE
  5
3A8F
330
3A78
100
AcDbEntity
  8
細線
100
AcDbLine
 10
-3042.804099171295
 20
111.032183357522
 30
0.0
 11
-3059.605904653565
 21
111.032183357522
 31
0.0
  0
ARC
  5
3A90
330
3A78
100
AcDbEntity
  8
細線
100
AcDbCircle
 10
-3055.384420729553
 20
104.23489277973
 30
0.0
 40
8.00150521587242
100
AcDbArc
 50
121.842510322088
 51
161.621519846142
  0
ARC
  5
3A91
330
3A78
100
AcDbEntity
  8
外形線
100
AcDbCircle
 10
-3021.377921671296
 20
89.457765857521
 30
0.0
 40
6.0
100
AcDbArc
 50
89.999981276021
 51
180.00001984784
  0
LINE
  5
3A92
330
3A78
100
AcDbEntity
  8
外形線
100
AcDbLine
 10
-3021.377921671296
 20
95.457828357521
 30
0.0
 11
-3002.377829171295
 21
95.457828357521
 31
0.0
  0
LINE
  5
3A93
330
3A78
100
AcDbEntity
  8
外形線
100
AcDbLine
 10
-3059.605904653565
 20
133.308980357522
 30
0.0
 11
-3037.377829171295
 21
133.308980357522
 31
0.0
  0
LINE
  5
3A94
330
3A78
100
AcDbEntity
  8
細線
100
AcDbLine
 10
-3042.804099171295
 20
125.883381357521
 30
0.0
 11
-3059.605904653565
 21
125.883381357521
 31
0.0
  0
ARC
  5
3A95
330
3A78
100
AcDbEntity
  8
細線
100
AcDbCircle
 10
-3055.384420729553
 20
132.680671935313
 30
0.0
 40
8.00150521587242
100
AcDbArc
 50
198.378480153858
 51
238.157489677912
  0
LINE
  5
3A96
330
3A78
100
AcDbEntity
  8
外形線
100
AcDbLine
 10
-3062.977805171295
 20
130.157856357522
 30
0.0
 11
-3059.605904653565
 21
133.308980357522
 31
0.0
  0
ARC
  5
3A97
330
3A78
100
AcDbEntity
  8
外形線
100
AcDbCircle
 10
-3021.377921671296
 20
147.457798357521
 30
0.0
 40
6.0
100
AcDbArc
 50
180.00001984784
 51
270.0
  0
LINE
  5
3A98
330
3A78
100
AcDbEntity
  8
外形線
100
AcDbLine
 10
-3021.377921671296
 20
141.457735857521
 30
0.0
 11
-3002.377829171295
 21
141.457735857521
 31
0.0
  0
LINE
  5
3A99
330
3A78
100
AcDbEntity
  8
外形線
100
AcDbLine
 10
-2917.877906671296
 20
152.118815834594
 30
0.0
 11
-2917.877906671296
 21
75.796810880449
 31
0.0
  0
LINE
  5
3A9A
330
3A78
100
AcDbEntity
  8
外形線
100
AcDbLine
 10
-2925.789370913838
 20
67.122885519941
 30
0.0
 11
-2926.321109507413
 21
51.266759702689
 31
0.0
  0
LINE
  5
3A9B
330
3A78
100
AcDbEntity
  8
外形線
100
AcDbLine
 10
-2954.86089061111
 20
63.980015655949
 30
0.0
 11
-2954.434548835178
 21
51.266759702689
 31
0.0
  0
LINE
  5
3A9C
330
3A78
100
AcDbEntity
  8
中心線
 48
10.0
100
AcDbLine
 10
-2940.377829171296
 20
75.649935857521
 30
0.0
 11
-2940.377829171296
 21
33.510113357521
 31
0.0
  0
ARC
  5
3A9D
330
3A78
100
AcDbEntity
  8
細線
100
AcDbCircle
 10
-2940.377906671296
 20
52.324970857521
 30
0.0
 40
12.7495375
100
AcDbArc
 50
241.926501556963
 51
298.073500690785
  0
LINE
  5
3A9E
330
3A78
100
AcDbEntity
  8
外形線
100
AcDbLine
 10
-2952.377876671295
 20
45.575473357521
 30
0.0
 11
-2928.377936671295
 21
45.575473357521
 31
0.0
  0
LINE
  5
3A9F
330
3A78
100
AcDbEntity
  8
外形線
100
AcDbLine
 10
-2952.685532040298
 20
49.575413357521
 30
0.0
 11
-2928.070126302293
 21
49.575413357521
 31
0.0
  0
LINE
  5
3AA0
330
3A78
100
AcDbEntity
  8
外形線
100
AcDbLine
 10
-2949.377844171295
 20
39.575413357521
 30
0.0
 11
-2931.377891671295
 21
39.575413357521
 31
0.0
  0
ARC
  5
3AA1
330
3A78
100
AcDbEntity
  8
細線
100
AcDbCircle
 10
-2950.887549171296
 20
46.344820857521
 30
0.0
 40
6.935630000000001
100
AcDbArc
 50
282.571898360404
 51
310.557678088908
  0
LINE
  5
3AA2
330
3A78
100
AcDbEntity
  8
細線
100
AcDbLine
 10
-2946.377891671295
 20
45.575473357521
 30
0.0
 11
-2946.377891671295
 21
41.075428357521
 31
0.0
  0
LINE
  5
3AA3
330
3A78
100
AcDbEntity
  8
外形線
100
AcDbLine
 10
-2950.627921671295
 20
45.575473357521
 30
0.0
 11
-2950.627921671295
 21
49.575413357521
 31
0.0
  0
LINE
  5
3AA4
330
3A78
100
AcDbEntity
  8
細線
100
AcDbLine
 10
-2948.127921671295
 20
49.575413357521
 30
0.0
 11
-2948.127921671295
 21
45.575473357521
 31
0.0
  0
ARC
  5
3AA5
330
3A78
100
AcDbEntity
  8
外形線
100
AcDbCircle
 10
-2952.685532040298
 20
51.325413357521
 30
0.0
 40
1.75
100
AcDbArc
 50
181.920706503578
 51
270.0
  0
LINE
  5
3AA6
330
3A78
100
AcDbEntity
  8
外形線
100
AcDbLine
 10
-2949.377844171295
 20
39.575413357521
 30
0.0
 11
-2952.377876671295
 21
41.075428357521
 31
0.0
  0
LINE
  5
3AA7
330
3A78
100
AcDbEntity
  8
外形線
100
AcDbLine
 10
-2952.377876671295
 20
45.575473357521
 30
0.0
 11
-2952.377876671295
 21
41.075428357521
 31
0.0
  0
ARC
  5
3AA8
330
3A78
100
AcDbEntity
  8
細線
100
AcDbCircle
 10
-2929.868261671295
 20
46.344820857521
 30
0.0
 40
6.935630000000001
100
AcDbArc
 50
229.442381454627
 51
257.428103887329
  0
LINE
  5
3AA9
330
3A78
100
AcDbEntity
  8
細線
100
AcDbLine
 10
-2934.377921671295
 20
45.575473357521
 30
0.0
 11
-2934.377921671295
 21
41.075428357521
 31
0.0
  0
LINE
  5
3AAA
330
3A78
100
AcDbEntity
  8
外形線
100
AcDbLine
 10
-2930.127891671295
 20
45.575473357521
 30
0.0
 11
-2930.127891671295
 21
49.575413357521
 31
0.0
  0
LINE
  5
3AAB
330
3A78
100
AcDbEntity
  8
細線
100
AcDbLine
 10
-2932.627891671295
 20
49.575413357521
 30
0.0
 11
-2932.627891671295
 21
45.575473357521
 31
0.0
  0
ARC
  5
3AAC
330
3A78
100
AcDbEntity
  8
外形線
100
AcDbCircle
 10
-2928.070126302293
 20
51.325413357521
 30
0.0
 40
1.75
100
AcDbArc
 50
270.0
 51
358.079293496422
  0
LINE
  5
3AAD
330
3A78
100
AcDbEntity
  8
外形線
100
AcDbLine
 10
-2931.377966671296
 20
39.575413357521
 30
0.0
 11
-2928.377936671295
 21
41.075428357521
 31
0.0
  0
LINE
  5
3AAE
330
3A78
100
AcDbEntity
  8
外形線
100
AcDbLine
 10
-2928.377936671295
 20
45.575473357521
 30
0.0
 11
-2928.377936671295
 21
41.075428357521
 31
0.0
  0
ARC
  5
3AAF
330
3A78
100
AcDbEntity
  8
外形線
100
AcDbCircle
 10
-2925.377906671296
 20
75.796810880449
 30
0.0
 40
7.5
100
AcDbArc
 50
273.370020731035
 51
0.0
  0
LINE
  5
3AB0
330
3A78
100
AcDbEntity
  8
外形線
100
AcDbLine
 10
-2924.937026299913
 20
68.309780461244
 30
0.0
 11
-2966.627829171296
 21
65.854780865404
 31
0.0
  0
ARC
  5
3AB1
330
3A78
100
AcDbEntity
  8
外形線
100
AcDbCircle
 10
-2957.359486032368
 20
63.896224720476
 30
0.0
 40
2.5
100
AcDbArc
 50
1.920706503578
 51
93.370020731035
  0
LINE
  5
3AB2
330
3A78
100
AcDbEntity
  8
外形線
100
AcDbLine
 10
-2924.598459495897
 20
67.694343137641
 30
0.0
 11
-2924.603574782856
 21
67.694122607611
 31
0.0
  0
ARC
  5
3AB3
330
3A78
100
AcDbEntity
  8
外形線
100
AcDbCircle
 10
-2924.540073203208
 20
67.080990052204
 30
0.0
 40
1.25
100
AcDbArc
 50
93.370020731035
 51
178.079293496422
  0
LINE
  5
3AB4
330
3A78
100
AcDbEntity
  8
外形線
100
AcDbLine
 10
-2915.377981671295
 20
138.457783357521
 30
0.0
 11
-2915.377981671295
 21
98.457783357521
 31
0.0
  0
ARC
  5
3AB5
330
3A78
100
AcDbEntity
  8
外形線
100
AcDbCircle
 10
-2915.712531671295
 20
96.243655857521
 30
0.0
 40
2.2392525
100
AcDbArc
 50
81.407104039339
 51
165.246528510565
  0
ARC
  5
3AB6
330
3A78
100
AcDbEntity
  8
外形線
100
AcDbCircle
 10
-2915.712531671295
 20
140.671908357521
 30
0.0
 40
2.2392525
100
AcDbArc
 50
194.753453889343
 51
278.592935656363
  0
LINE
  5
3AB7
330
3A78
100
AcDbEntity
  8
外形線
100
AcDbLine
 10
-2966.627829171296
 20
167.457798357521
 30
0.0
 11
-2983.377861671295
 21
167.457798357521
 31
0.0
  0
LINE
  5
3AB8
330
3A78
100
AcDbEntity
  8
中心線
 48
10.0
100
AcDbLine
 10
-3044.864706671296
 20
183.457783357521
 30
0.0
 11
-3019.114164171296
 21
183.457783357521
 31
0.0
  0
LINE
  5
3AB9
330
3A78
100
AcDbEntity
  8
外形線
100
AcDbLine
 10
-2990.377829171296
 20
165.457828357521
 30
0.0
 11
-2983.377861671295
 21
166.457735857521
 31
0.0
  0
LINE
  5
3ABA
330
3A78
100
AcDbEntity
  8
外形線
100
AcDbLine
 10
-3037.377829171295
 20
195.957783357521
 30
0.0
 11
-3027.377829171295
 21
195.957783357521
 31
0.0
  0
ENDBLK
  5
3ABB
330
3A78
100
AcDbEntity
  8
0
 48
10.0
100
AcDbBlockEnd
  0
BLOCK
  5
3F31
330
3F30
100
AcDbEntity
  8
0
 48
10.0
100
AcDbBlockBegin
  2
ケース外形図_HL101
 70
     0
 10
0.0
 20
0.0
 30
0.0
  3
ケース外形図_HL101
  1
ケース外形図_HL101
  0
LINE
  5
3F32
330
3F30
100
AcDbEntity
  8
外形線
100
AcDbLine
 10
-2746.476279393282
 20
140.090942491455
 30
0.0
 11
-2734.476279393282
 21
164.091034991455
 31
0.0
  0
LINE
  5
3F33
330
3F30
100
AcDbEntity
  8
外形線
100
AcDbLine
 10
-2669.035476521899
 20
158.239052887735
 30
0.0
 11
-2710.726279393282
 21
160.694052483573
 31
0.0
  0
LINE
  5
3F34
330
3F30
100
AcDbEntity
  8
外形線
100
AcDbLine
 10
-2710.726279393282
 20
59.091034991455
 30
0.0
 11
-2710.726279393282
 21
166.091004991455
 31
0.0
  0
LINE
  5
3F35
330
3F30
100
AcDbEntity
  8
外形線
100
AcDbLine
 10
-2717.726279393282
 20
166.091004991455
 30
0.0
 11
-2717.726279393282
 21
59.091034991455
 31
0.0
  0
LINE
  5
3F36
330
3F30
100
AcDbEntity
  8
外形線
100
AcDbLine
 10
-2719.476279393282
 20
59.091034991455
 30
0.0
 11
-2719.476279393282
 21
166.091004991455
 31
0.0
  0
LINE
  5
3F37
330
3F30
100
AcDbEntity
  8
外形線
100
AcDbLine
 10
-2727.476311893282
 20
166.091004991455
 30
0.0
 11
-2727.476311893282
 21
59.091034991455
 31
0.0
  0
LINE
  5
3F38
330
3F30
100
AcDbEntity
  8
外形線
100
AcDbLine
 10
-2734.476279393282
 20
164.091034991455
 30
0.0
 11
-2734.476279393282
 21
61.091004991455
 31
0.0
  0
LINE
  5
3F39
330
3F30
100
AcDbEntity
  8
外形線
100
AcDbLine
 10
-2781.476279393282
 20
194.590989991455
 30
0.0
 11
-2781.476279393282
 21
39.590989991455
 31
0.0
  0
LINE
  5
3F3A
330
3F30
100
AcDbEntity
  8
外形線
100
AcDbLine
 10
-2771.476279393282
 20
39.590989991455
 30
0.0
 11
-2771.476279393282
 21
194.590989991455
 31
0.0
  0
LINE
  5
3F3B
330
3F30
100
AcDbEntity
  8
外形線
100
AcDbLine
 10
-2746.476279393282
 20
94.091034991455
 30
0.0
 11
-2734.476279393282
 21
61.091004991455
 31
0.0
  0
LINE
  5
3F3C
330
3F30
100
AcDbEntity
  8
外形線
100
AcDbLine
 10
-2781.476279393282
 20
39.590989991455
 30
0.0
 11
-2771.476279393282
 21
39.590989991455
 31
0.0
  0
LINE
  5
3F3D
330
3F30
100
AcDbEntity
  8
中心線
 48
10.0
100
AcDbLine
 10
-2788.963156893282
 20
52.090989991455
 30
0.0
 11
-2763.212614393282
 21
52.090989991455
 31
0.0
  0
LINE
  5
3F3E
330
3F30
100
AcDbEntity
  8
外形線
100
AcDbLine
 10
-2746.476279393282
 20
94.091034991455
 30
0.0
 11
-2746.476279393282
 21
140.090942491455
 31
0.0
  0
ARC
  5
3F3F
330
3F30
100
AcDbEntity
  8
外形線
100
AcDbCircle
 10
-2765.476371893282
 20
88.090972491455
 30
0.0
 40
6.0
100
AcDbArc
 50
89.999981276021
 51
180.000019847843
  0
LINE
  5
3F40
330
3F30
100
AcDbEntity
  8
外形線
100
AcDbLine
 10
-2765.476371893282
 20
94.091034991455
 30
0.0
 11
-2746.476279393282
 21
94.091034991455
 31
0.0
  0
ARC
  5
3F41
330
3F30
100
AcDbEntity
  8
外形線
100
AcDbCircle
 10
-2765.476371893282
 20
146.091004991455
 30
0.0
 40
6.0
100
AcDbArc
 50
180.000019847842
 51
270.0
  0
LINE
  5
3F42
330
3F30
100
AcDbEntity
  8
外形線
100
AcDbLine
 10
-2765.476371893282
 20
140.090942491455
 30
0.0
 11
-2746.476279393282
 21
140.090942491455
 31
0.0
  0
LINE
  5
3F43
330
3F30
100
AcDbEntity
  8
外形線
100
AcDbLine
 10
-2661.976356893282
 20
150.752022468528
 30
0.0
 11
-2661.976356893282
 21
74.430017514385
 31
0.0
  0
LINE
  5
3F44
330
3F30
100
AcDbEntity
  8
外形線
100
AcDbLine
 10
-2698.959340833097
 20
62.613222289882
 30
0.0
 11
-2698.532999057164
 21
49.899966336623
 31
0.0
  0
LINE
  5
3F45
330
3F30
100
AcDbEntity
  8
外形線
100
AcDbLine
 10
-2669.887821135825
 20
65.756092153875
 30
0.0
 11
-2670.419559729399
 21
49.899966336623
 31
0.0
  0
LINE
  5
3F46
330
3F30
100
AcDbEntity
  8
中心線
 48
10.0
100
AcDbLine
 10
-2684.476279393282
 20
28.023838696997
 30
0.0
 11
-2684.476279393282
 21
76.214502130929
 31
0.0
  0
ARC
  5
3F47
330
3F30
100
AcDbEntity
  8
細線
100
AcDbCircle
 10
-2684.476356893282
 20
50.958177491455
 30
0.0
 40
12.7495375
100
AcDbArc
 50
241.926501556961
 51
298.073500690787
  0
LINE
  5
3F48
330
3F30
100
AcDbEntity
  8
外形線
100
AcDbLine
 10
-2696.783982262284
 20
48.208619991455
 30
0.0
 11
-2672.16857652428
 21
48.208619991455
 31
0.0
  0
LINE
  5
3F49
330
3F30
100
AcDbEntity
  8
外形線
100
AcDbLine
 10
-2693.476294393282
 20
38.208619991455
 30
0.0
 11
-2675.476341893282
 21
38.208619991455
 31
0.0
  0
LINE
  5
3F4A
330
3F30
100
AcDbEntity
  8
外形線
100
AcDbLine
 10
-2696.476326893282
 20
44.208679991455
 30
0.0
 11
-2672.476386893281
 21
44.208679991455
 31
0.0
  0
ARC
  5
3F4B
330
3F30
100
AcDbEntity
  8
細線
100
AcDbCircle
 10
-2694.985999393282
 20
44.978027491455
 30
0.0
 40
6.935630000000001
100
AcDbArc
 50
282.571898360404
 51
310.557678088908
  0
LINE
  5
3F4C
330
3F30
100
AcDbEntity
  8
細線
100
AcDbLine
 10
-2690.476341893282
 20
44.208679991455
 30
0.0
 11
-2690.476341893282
 21
39.708634991455
 31
0.0
  0
ARC
  5
3F4D
330
3F30
100
AcDbEntity
  8
外形線
100
AcDbCircle
 10
-2696.783982262284
 20
49.958619991455
 30
0.0
 40
1.75
100
AcDbArc
 50
181.920706503579
 51
270.0
  0
LINE
  5
3F4E
330
3F30
100
AcDbEntity
  8
外形線
100
AcDbLine
 10
-2693.476294393282
 20
38.208619991455
 30
0.0
 11
-2696.476326893282
 21
39.708634991455
 31
0.0
  0
LINE
  5
3F4F
330
3F30
100
AcDbEntity
  8
外形線
100
AcDbLine
 10
-2696.476326893282
 20
44.208679991455
 30
0.0
 11
-2696.476326893282
 21
39.708634991455
 31
0.0
  0
LINE
  5
3F50
330
3F30
100
AcDbEntity
  8
外形線
100
AcDbLine
 10
-2694.726371893282
 20
44.208679991455
 30
0.0
 11
-2694.726371893282
 21
48.208619991455
 31
0.0
  0
LINE
  5
3F51
330
3F30
100
AcDbEntity
  8
細線
100
AcDbLine
 10
-2692.226371893282
 20
48.208619991455
 30
0.0
 11
-2692.226371893282
 21
44.208679991455
 31
0.0
  0
ARC
  5
3F52
330
3F30
100
AcDbEntity
  8
細線
100
AcDbCircle
 10
-2673.966711893282
 20
44.978027491455
 30
0.0
 40
6.935630000000001
100
AcDbArc
 50
229.442381454625
 51
257.428103887329
  0
LINE
  5
3F53
330
3F30
100
AcDbEntity
  8
細線
100
AcDbLine
 10
-2678.476371893282
 20
44.208679991455
 30
0.0
 11
-2678.476371893282
 21
39.708634991455
 31
0.0
  0
ARC
  5
3F54
330
3F30
100
AcDbEntity
  8
外形線
100
AcDbCircle
 10
-2672.16857652428
 20
49.958619991455
 30
0.0
 40
1.75
100
AcDbArc
 50
270.0
 51
358.079293496421
  0
LINE
  5
3F55
330
3F30
100
AcDbEntity
  8
外形線
100
AcDbLine
 10
-2675.476416893282
 20
38.208619991455
 30
0.0
 11
-2672.476386893281
 21
39.708634991455
 31
0.0
  0
LINE
  5
3F56
330
3F30
100
AcDbEntity
  8
外形線
100
AcDbLine
 10
-2672.476386893281
 20
44.208679991455
 30
0.0
 11
-2672.476386893281
 21
39.708634991455
 31
0.0
  0
LINE
  5
3F57
330
3F30
100
AcDbEntity
  8
外形線
100
AcDbLine
 10
-2674.226341893282
 20
44.208679991455
 30
0.0
 11
-2674.226341893282
 21
48.208619991455
 31
0.0
  0
LINE
  5
3F58
330
3F30
100
AcDbEntity
  8
細線
100
AcDbLine
 10
-2676.726341893282
 20
48.208619991455
 30
0.0
 11
-2676.726341893282
 21
44.208679991455
 31
0.0
  0
LINE
  5
3F59
330
3F30
100
AcDbEntity
  8
外形線
100
AcDbLine
 10
-2669.035476521899
 20
66.942987095177
 30
0.0
 11
-2710.726279393282
 21
64.487987499337
 31
0.0
  0
LINE
  5
3F5A
330
3F30
100
AcDbEntity
  8
外形線
100
AcDbLine
 10
-2727.476311893282
 20
59.091034991455
 30
0.0
 11
-2710.726279393282
 21
59.091034991455
 31
0.0
  0
LINE
  5
3F5B
330
3F30
100
AcDbEntity
  8
外形線
100
AcDbLine
 10
-2734.476279393282
 20
61.091004991455
 30
0.0
 11
-2727.476311893282
 21
60.090942491455
 31
0.0
  0
ARC
  5
3F5C
330
3F30
100
AcDbEntity
  8
外形線
100
AcDbCircle
 10
-2701.457936254356
 20
62.52943135441
 30
0.0
 40
2.5
100
AcDbArc
 50
1.920706503578
 51
93.370020731035
  0
ARC
  5
3F5D
330
3F30
100
AcDbEntity
  8
外形線
100
AcDbCircle
 10
-2669.476356893282
 20
74.430017514385
 30
0.0
 40
7.5
100
AcDbArc
 50
273.370020731035
 51
0.0
  0
ARC
  5
3F5E
330
3F30
100
AcDbEntity
  8
外形線
100
AcDbCircle
 10
-2668.638523425194
 20
65.714196686138
 30
0.0
 40
1.25
100
AcDbArc
 50
93.370020731035
 51
178.079293496416
  0
LINE
  5
3F5F
330
3F30
100
AcDbEntity
  8
外形線
100
AcDbLine
 10
-2668.696909717885
 20
66.327549771575
 30
0.0
 11
-2668.702025004842
 21
66.327329241545
 31
0.0
  0
LINE
  5
3F60
330
3F30
100
AcDbEntity
  8
外形線
100
AcDbLine
 10
-2659.476431893282
 20
137.090989991455
 30
0.0
 11
-2659.476431893282
 21
97.090989991455
 31
0.0
  0
ARC
  5
3F61
330
3F30
100
AcDbEntity
  8
外形線
100
AcDbCircle
 10
-2659.810981893283
 20
94.876862491455
 30
0.0
 40
2.2392525
100
AcDbArc
 50
81.407104039339
 51
165.246528510564
  0
ARC
  5
3F62
330
3F30
100
AcDbEntity
  8
外形線
100
AcDbCircle
 10
-2659.810981893283
 20
139.305114991455
 30
0.0
 40
2.2392525
100
AcDbArc
 50
194.753453889341
 51
278.592935656337
  0
ARC
  5
3F63
330
3F30
100
AcDbEntity
  8
外形線
100
AcDbCircle
 10
-2669.476356893282
 20
150.752022468528
 30
0.0
 40
7.5
100
AcDbArc
 50
0.0
 51
86.629979268965
  0
LINE
  5
3F64
330
3F30
100
AcDbEntity
  8
外形線
100
AcDbLine
 10
-2781.476279393282
 20
194.590989991455
 30
0.0
 11
-2771.476279393282
 21
194.590989991455
 31
0.0
  0
LINE
  5
3F65
330
3F30
100
AcDbEntity
  8
中心線
 48
10.0
100
AcDbLine
 10
-2788.963156893282
 20
182.090989991455
 30
0.0
 11
-2763.212614393282
 21
182.090989991455
 31
0.0
  0
LINE
  5
3F66
330
3F30
100
AcDbEntity
  8
外形線
100
AcDbLine
 10
-2710.726279393282
 20
166.091004991455
 30
0.0
 11
-2727.476311893282
 21
166.091004991455
 31
0.0
  0
LINE
  5
3F67
330
3F30
100
AcDbEntity
  8
外形線
100
AcDbLine
 10
-2734.476279393282
 20
164.091034991455
 30
0.0
 11
-2727.476311893282
 21
165.090942491455
 31
0.0
  0
ENDBLK
  5
3F68
330
3F30
100
AcDbEntity
  8
0
 48
10.0
100
AcDbBlockEnd
  0
BLOCK
  5
3F7F
330
3F7D
100
AcDbEntity
  8
0
 48
10.0
100
AcDbBlockBegin
  2
A$C16143EC0
 70
     0
 10
0.0
 20
0.0
 30
0.0
  3
A$C16143EC0
  1
A$C16143EC0
  0
INSERT
  5
3F7E
330
3F7D
100
AcDbEntity
  8
外形線
100
AcDbBlockReference
  2
ケース外形図_HL101
 10
2788.963159465442
 20
-28.023839097048
 30
0.0
  0
ENDBLK
  5
3F80
330
3F7D
100
AcDbEntity
  8
0
 48
10.0
100
AcDbBlockEnd
  0
BLOCK
  5
4201
330
4200
100
AcDbEntity
  8
0
 48
10.0
100
AcDbBlockBegin
  2
パドル_W1
 70
     0
 10
0.0
 20
0.0
 30
0.0
  3
パドル_W1
  1
パドル_W1
  0
LINE
  5
4202
330
4200
100
AcDbEntity
  8
中心線
 48
10.0
100
AcDbLine
 10
124.6832879095
 20
220.674073777677
 30
0.0
 11
131.9189439095
 21
220.674073777677
 31
0.0
  0
LINE
  5
4203
330
4200
100
AcDbEntity
  8
外形線
 48
10.0
100
AcDbLine
 10
58.3011159095
 20
260.651761921811
 30
0.0
 11
58.3011159095
 21
180.651761921811
 31
0.0
  0
LINE
  5
4204
330
4200
100
AcDbEntity
  8
外形線
 48
10.0
100
AcDbLine
 10
58.3011159095
 20
180.651761921811
 30
0.0
 11
123.3011159095
 21
180.651761921811
 31
0.0
  0
LINE
  5
4205
330
4200
100
AcDbEntity
  8
外形線
 48
10.0
100
AcDbLine
 10
138.3011159095
 20
208.651761921811
 30
0.0
 11
138.3011159095
 21
212.376811207105
 31
0.0
  0
LINE
  5
4206
330
4200
100
AcDbEntity
  8
外形線
 48
10.0
100
AcDbLine
 10
123.3011159095
 20
260.651761921811
 30
0.0
 11
58.3011159095
 21
260.651761921811
 31
0.0
  0
LINE
  5
4207
330
4200
100
AcDbEntity
  8
外形線
 48
10.0
100
AcDbLine
 10
138.3011159095
 20
232.651761921811
 30
0.0
 11
123.3011159095
 21
260.651761921811
 31
0.0
  0
LINE
  5
4208
330
4200
100
AcDbEntity
  8
外形線
 48
10.0
100
AcDbLine
 10
138.3011159095
 20
208.651761921811
 30
0.0
 11
123.3011159095
 21
180.651761921811
 31
0.0
  0
LINE
  5
4209
330
4200
100
AcDbEntity
  8
外形線
 48
10.0
100
AcDbLine
 10
153.3011159095
 20
212.376811207105
 30
0.0
 11
153.3011159095
 21
228.941629207105
 31
0.0
  0
LINE
  5
420A
330
4200
100
AcDbEntity
  8
外形線
100
AcDbLine
 10
125.0147379095
 20
212.376811207105
 30
0.0
 11
153.3011159095
 21
212.376811207105
 31
0.0
  0
LINE
  5
420B
330
4200
100
AcDbEntity
  8
細線
100
AcDbLine
 10
153.2891519095
 20
216.518045207105
 30
0.0
 11
124.6692799095
 21
216.518045207105
 31
0.0
  0
LINE
  5
420C
330
4200
100
AcDbEntity
  8
外形線
100
AcDbLine
 10
125.0147379095
 20
228.941629207105
 30
0.0
 11
123.3011159095
 21
227.228007207105
 31
0.0
  0
ARC
  5
420D
330
4200
100
AcDbEntity
  8
細線
100
AcDbCircle
 10
126.4810479095
 20
227.420755207105
 30
0.0
 40
3.18575
100
AcDbArc
 50
183.469852255156
 51
235.339263082109
  0
LINE
  5
420E
330
4200
100
AcDbEntity
  8
細線
100
AcDbLine
 10
153.2891519095
 20
224.800395207105
 30
0.0
 11
124.6692799095
 21
224.800395207105
 31
0.0
  0
ARC
  5
420F
330
4200
100
AcDbEntity
  8
細線
100
AcDbCircle
 10
126.4810479095
 20
213.897685207105
 30
0.0
 40
3.18575
100
AcDbArc
 50
124.660776613574
 51
176.530130144749
  0
LINE
  5
4210
330
4200
100
AcDbEntity
  8
外形線
100
AcDbLine
 10
123.3011159095
 20
227.228007207105
 30
0.0
 11
123.3011159095
 21
214.090433207105
 31
0.0
  0
CIRCLE
  5
4211
330
4200
100
AcDbEntity
  8
外形線
100
AcDbCircle
 10
128.3011159095
 20
220.674073777677
 30
0.0
 40
2.28479
  0
ARC
  5
4212
330
4200
100
AcDbEntity
  8
細線
100
AcDbCircle
 10
130.2525019095
 20
220.659219207105
 30
0.0
 40
6.951389999999999
100
AcDbArc
 50
143.43540034864
 51
216.564582051267
  0
LINE
  5
4213
330
4200
100
AcDbEntity
  8
中心線
 48
10.0
100
AcDbLine
 10
128.3011159095
 20
224.291901777677
 30
0.0
 11
128.3011159095
 21
217.056245777676
 31
0.0
  0
LINE
  5
4214
330
4200
100
AcDbEntity
  8
外形線
100
AcDbLine
 10
125.0147379095
 20
212.376811207105
 30
0.0
 11
123.3011159095
 21
214.090433207105
 31
0.0
  0
LINE
  5
4215
330
4200
100
AcDbEntity
  8
外形線
100
AcDbLine
 10
125.0147379095
 20
228.941629207105
 30
0.0
 11
153.3011159095
 21
228.941629207105
 31
0.0
  0
LINE
  5
4216
330
4200
100
AcDbEntity
  8
外形線
 48
10.0
100
AcDbLine
 10
138.3011159095
 20
228.941629207105
 30
0.0
 11
138.3011159095
 21
232.651761921811
 31
0.0
  0
ENDBLK
  5
4217
330
4200
100
AcDbEntity
  8
0
 48
10.0
100
AcDbBlockEnd
  0
BLOCK
  5
4219
330
4218
100
AcDbEntity
  8
0
 48
10.0
100
AcDbBlockBegin
  2
パドル_W1立面図
 70
     0
 10
0.0
 20
0.0
 30
0.0
  3
パドル_W1立面図
  1
パドル_W1立面図
  0
LINE
  5
421A
330
4218
100
AcDbEntity
  8
外形線
 48
10.0
100
AcDbLine
 10
-4.385455455444
 20
189.61846140322
 30
0.0
 11
-7.241459969979
 21
189.61846140322
 31
0.0
  0
LINE
  5
421B
330
4218
100
AcDbEntity
  8
外形線
 48
10.0
100
AcDbLine
 10
-4.385455455444
 20
269.61846140322
 30
0.0
 11
-7.241459969979
 21
269.61846140322
 31
0.0
  0
LINE
  5
421C
330
4218
100
AcDbEntity
  8
外形線
 48
10.0
100
AcDbLine
 10
-4.385455455444
 20
189.61846140322
 30
0.0
 11
-4.385455455444
 21
269.61846140322
 31
0.0
  0
LINE
  5
421D
330
4218
100
AcDbEntity
  8
外形線
 48
10.0
100
AcDbLine
 10
-7.241459969979
 20
269.61846140322
 30
0.0
 11
-7.241459969979
 21
189.61846140322
 31
0.0
  0
LINE
  5
421E
330
4218
100
AcDbEntity
  8
外形線
100
AcDbLine
 10
-4.385468503734
 20
237.376935973808
 30
0.0
 11
1.606659496266
 21
233.917433973808
 31
0.0
  0
ARC
  5
421F
330
4218
100
AcDbEntity
  8
細線
100
AcDbCircle
 10
-5.813446503734
 20
229.633375973808
 30
0.0
 40
8.568
100
AcDbArc
 50
279.594007516002
 51
80.406014579591
  0
LINE
  5
4220
330
4218
100
AcDbEntity
  8
外形線
100
AcDbLine
 10
1.606659496266
 20
233.917433973808
 30
0.0
 11
1.606659496266
 21
225.349439973808
 31
0.0
  0
LINE
  5
4221
330
4218
100
AcDbEntity
  8
外形線
100
AcDbLine
 10
-4.385468503734
 20
221.889815973808
 30
0.0
 11
1.606659496266
 21
225.349439973808
 31
0.0
  0
ARC
  5
4222
330
4218
100
AcDbEntity
  8
細線
100
AcDbCircle
 10
-5.813446503734
 20
229.633375973808
 30
0.0
 40
7.458525999999999
100
AcDbArc
 50
281.037746568172
 51
78.962275527419
  0
LINE
  5
4223
330
4218
100
AcDbEntity
  8
外形線
100
AcDbLine
 10
-7.241454503734
 20
221.889845973808
 30
0.0
 11
-13.233550503734
 21
225.349439973808
 31
0.0
  0
LINE
  5
4224
330
4218
100
AcDbEntity
  8
外形線
100
AcDbLine
 10
-13.233550503734
 20
225.349439973808
 30
0.0
 11
-13.233550503734
 21
233.917433973808
 31
0.0
  0
LINE
  5
4225
330
4218
100
AcDbEntity
  8
外形線
100
AcDbLine
 10
-7.241454503734
 20
237.376905973808
 30
0.0
 11
-13.233550503734
 21
233.917433973808
 31
0.0
  0
ARC
  5
4226
330
4218
100
AcDbEntity
  8
細線
100
AcDbCircle
 10
-5.813446503734
 20
229.633375973808
 30
0.0
 40
7.458525999999999
100
AcDbArc
 50
101.038013199227
 51
258.962026496458
  0
ARC
  5
4227
330
4218
100
AcDbEntity
  8
細線
100
AcDbCircle
 10
-5.813446503734
 20
229.633375973808
 30
0.0
 40
8.568
100
AcDbArc
 50
99.594159555498
 51
260.405880140189
  0
ENDBLK
  5
4228
330
4218
100
AcDbEntity
  8
0
 48
10.0
100
AcDbBlockEnd
  0
BLOCK
  5
42BE
330
42BD
100
AcDbEntity
  8
0
 48
10.0
100
AcDbBlockBegin
  2
ケース外形図_PRL-101
 70
     0
 10
0.0
 20
0.0
 30
0.0
  3
ケース外形図_PRL-101
  1
ケース外形図_PRL-101
  0
LINE
  5
42BF
330
42BD
100
AcDbEntity
  8
細線
100
AcDbLine
 10
-2665.991042960005
 20
861.623968537874
 30
0.0
 11
-2665.991042960005
 21
873.047918537874
 31
0.0
  0
LINE
  5
42C0
330
42BD
100
AcDbEntity
  8
外形線
100
AcDbLine
 10
-2631.433426960005
 20
830.779118537874
 30
0.0
 11
-2631.433426960005
 21
873.267522537874
 31
0.0
  0
LINE
  5
42C1
330
42BD
100
AcDbEntity
  8
細線
100
AcDbLine
 10
-2662.278274960006
 20
879.331120537874
 30
0.0
 11
-2662.278274960006
 21
782.227116537874
 31
0.0
  0
LINE
  5
42C2
330
42BD
100
AcDbEntity
  8
細線
100
AcDbLine
 10
-2690.838210960005
 20
876.475164537874
 30
0.0
 11
-2690.838210960005
 21
787.771428537874
 31
0.0
  0
LINE
  5
42C3
330
42BD
100
AcDbEntity
  8
外形線
100
AcDbLine
 10
-2681.699050960005
 20
779.779118537874
 30
0.0
 11
-2681.699050960005
 21
881.779118537874
 31
0.0
  0
LINE
  5
42C4
330
42BD
100
AcDbEntity
  8
外形線
100
AcDbLine
 10
-2683.698196960006
 20
881.779118537874
 30
0.0
 11
-2683.698196960006
 21
779.779118537874
 31
0.0
  0
LINE
  5
42C5
330
42BD
100
AcDbEntity
  8
細線
100
AcDbLine
 10
-2687.982254960006
 20
881.779118537874
 30
0.0
 11
-2687.982254960006
 21
779.779118537874
 31
0.0
  0
LWPOLYLINE
  5
42C6
330
42BD
100
AcDbEntity
  8
外形線
100
AcDbPolyline
 90
       67
 70
     0
 43
0.0
 10
-2727.912532980931
 20
874.395574537874
 10
-2727.953293836579
 20
874.383826783906
 10
-2728.068477575312
 20
874.349444977304
 10
-2728.247435954815
 20
874.293721301034
 10
-2728.479520732777
 20
874.21794793805
 10
-2728.754083666881
 20
874.123417071316
 10
-2729.060476514815
 20
874.011420883788
 10
-2729.388051034263
 20
873.88325155843
 10
-2729.726158982913
 20
873.7402012782
 10
-2730.064152118452
 20
873.583562226056
 10
-2730.391382198563
 20
873.414626584962
 10
-2730.697200980931
 20
873.234686537874
 10
-2731.041719305219
 20
872.992715407982
 10
-2731.339825881913
 20
872.736545218548
 10
-2731.596572968897
 20
872.467567585962
 10
-2731.817012824054
 20
872.187174126604
 10
-2732.006197705261
 20
871.89675645686
 10
-2732.169179870401
 20
871.597706193118
 10
-2732.311011577355
 20
871.29141495176
 10
-2732.436745084005
 20
870.979274349172
 10
-2732.551432648232
 20
870.662676001738
 10
-2732.660126527911
 20
870.343011525844
 10
-2732.767878980932
 20
870.021672537874
 10
-2732.995558529487
 20
869.37320130124
 10
-2733.238969065791
 20
868.724486172106
 10
-2733.497161102815
 20
868.07643116072
 10
-2733.769185153524
 20
867.429940277324
 10
-2734.054091730885
 20
866.785917532164
 10
-2734.350931347865
 20
866.145266935484
 10
-2734.658754517435
 20
865.508892497532
 10
-2734.976611752558
 20
864.87769822855
 10
-2735.303553566203
 20
864.252588138782
 10
-2735.63863047134
 20
863.634466238476
 10
-2735.980892980931
 20
863.024236537874
 10
-2736.239184000456
 20
862.576129792738
 10
-2736.499800442533
 20
862.13135252633
 10
-2736.761624540767
 20
861.688377507542
 10
-2737.023538528765
 20
861.245677505256
 10
-2737.284424640132
 20
860.801725288362
 10
-2737.543165108469
 20
860.354993625746
 10
-2737.798642167385
 20
859.903955286294
 10
-2738.049738050485
 20
859.447083038896
 10
-2738.295334991371
 20
858.982849652434
 10
-2738.534315223654
 20
858.509727895798
 10
-2738.765560980932
 20
858.026190537874
 10
-2738.926994170605
 20
857.672921160886
 10
-2739.088946663412
 20
857.318424143266
 10
-2739.256494321417
 20
856.967619238842
 10
-2739.434713006694
 20
856.625426201446
 10
-2739.628678581305
 20
856.2967647849
 10
-2739.843466907328
 20
855.986554743034
 10
-2740.084153846823
 20
855.699715829676
 10
-2740.355815261862
 20
855.441167798654
 10
-2740.663527014515
 20
855.215830403794
 10
-2741.012364966849
 20
855.028623398926
 10
-2741.407404980931
 20
854.884466537874
 10
-2741.846256471285
 20
854.786974295384
 10
-2742.319481250513
 20
854.73005829347
 10
-2742.811030401751
 20
854.707125389318
 10
-2743.304855008141
 20
854.711582440116
 10
-2743.784906152826
 20
854.736836303046
 10
-2744.235134918943
 20
854.776293835296
 10
-2744.639492389633
 20
854.823361894054
 10
-2744.981929648037
 20
854.871447336504
 10
-2745.246397777295
 20
854.913957019834
 10
-2745.416847860545
 20
854.944297801228
 10
-2745.477230980931
 20
854.955876537874
  0
LINE
  5
42C7
330
42BD
100
AcDbEntity
  8
細線
100
AcDbLine
 10
-2731.710140980931
 20
869.906346537874
 30
0.0
 11
-2731.710140980931
 21
791.651952537874
 31
0.0
  0
LINE
  5
42C8
330
42BD
100
AcDbEntity
  8
外形線
100
AcDbLine
 10
-2761.698196960006
 20
908.279118537874
 30
0.0
 11
-2761.698196960006
 21
753.279118537874
 31
0.0
  0
LINE
  5
42C9
330
42BD
100
AcDbEntity
  8
外形線
100
AcDbLine
 10
-2771.698196960006
 20
753.279118537874
 30
0.0
 11
-2771.698196960006
 21
908.279118537874
 31
0.0
  0
LINE
  5
42CA
330
42BD
100
AcDbEntity
  8
中心線
 48
10.0
100
AcDbLine
 10
-2781.983253975795
 20
765.779118537874
 30
0.0
 11
-2749.379418022688
 21
765.779118537874
 31
0.0
  0
LINE
  5
42CB
330
42BD
100
AcDbEntity
  8
中心線
 48
10.0
100
AcDbLine
 10
-2704.698196960006
 20
804.438298537874
 30
0.0
 11
-2704.698196960006
 21
748.836004537874
 31
0.0
  0
LINE
  5
42CC
330
42BD
100
AcDbEntity
  8
外形線
100
AcDbLine
 10
-2689.051423549413
 20
778.91101237705
 30
0.0
 11
-2690.659505049885
 21
766.825284453168
 31
0.0
  0
LINE
  5
42CD
330
42BD
100
AcDbEntity
  8
外形線
100
AcDbLine
 10
-2720.961012960005
 20
784.312322537874
 30
0.0
 11
-2718.725906960005
 21
766.839604537874
 31
0.0
  0
LINE
  5
42CE
330
42BD
100
AcDbEntity
  8
外形線
100
AcDbLine
 10
-2771.698196960006
 20
753.279118537874
 30
0.0
 11
-2761.698196960006
 21
753.279118537874
 31
0.0
  0
ARC
  5
42CF
330
42BD
100
AcDbEntity
  8
外形線
100
AcDbCircle
 10
-2693.490554960005
 20
767.201970537874
 30
0.0
 40
2.856
100
AcDbArc
 50
270.0
 51
352.421011277475
  0
ARC
  5
42D0
330
42BD
100
AcDbEntity
  8
細線
100
AcDbCircle
 10
-2691.275832960006
 20
773.224066537874
 30
0.0
 40
18.322924
100
AcDbArc
 50
247.068453993571
 51
267.322397459894
  0
LINE
  5
42D1
330
42BD
100
AcDbEntity
  8
外形線
100
AcDbLine
 10
-2717.264602960006
 20
754.921148537874
 30
0.0
 11
-2692.131788960005
 21
754.921148537874
 31
0.0
  0
LINE
  5
42D2
330
42BD
100
AcDbEntity
  8
外形線
100
AcDbLine
 10
-2718.692580960005
 20
760.061956537874
 30
0.0
 11
-2690.703688960005
 21
760.061956537874
 31
0.0
  0
LINE
  5
42D3
330
42BD
100
AcDbEntity
  8
細線
100
AcDbLine
 10
-2697.558180960005
 20
764.345952537874
 30
0.0
 11
-2697.558180960005
 21
760.061956537874
 31
0.0
  0
LINE
  5
42D4
330
42BD
100
AcDbEntity
  8
外形線
100
AcDbLine
 10
-2695.273390960006
 20
760.061956537874
 30
0.0
 11
-2695.273390960006
 21
764.345952537874
 31
0.0
  0
LINE
  5
42D5
330
42BD
100
AcDbEntity
  8
細線
100
AcDbLine
 10
-2698.414992960005
 20
756.349188537874
 30
0.0
 11
-2698.414992960005
 21
760.061956537874
 31
0.0
  0
LINE
  5
42D6
330
42BD
100
AcDbEntity
  8
細線
100
AcDbLine
 10
-2711.838210960005
 20
764.345952537874
 30
0.0
 11
-2711.838210960005
 21
760.061956537874
 31
0.0
  0
LINE
  5
42D7
330
42BD
100
AcDbEntity
  8
外形線
100
AcDbLine
 10
-2714.123000960005
 20
760.061956537874
 30
0.0
 11
-2714.123000960005
 21
764.345952537874
 31
0.0
  0
ARC
  5
42D8
330
42BD
100
AcDbEntity
  8
外形線
100
AcDbCircle
 10
-2715.893020960006
 20
767.201970537874
 30
0.0
 40
2.856
100
AcDbArc
 50
187.289418100615
 51
270.0
  0
ARC
  5
42D9
330
42BD
100
AcDbEntity
  8
細線
100
AcDbCircle
 10
-2718.120558960006
 20
773.224066537874
 30
0.0
 40
18.322924
100
AcDbArc
 50
272.67766208363
 51
292.93154825417
  0
LINE
  5
42DA
330
42BD
100
AcDbEntity
  8
外形線
100
AcDbLine
 10
-2718.692580960005
 20
756.349188537874
 30
0.0
 11
-2717.264602960006
 21
754.921148537874
 31
0.0
  0
LINE
  5
42DB
330
42BD
100
AcDbEntity
  8
細線
100
AcDbLine
 10
-2710.981398960005
 20
756.349188537874
 30
0.0
 11
-2710.981398960005
 21
760.061956537874
 31
0.0
  0
LINE
  5
42DC
330
42BD
100
AcDbEntity
  8
外形線
100
AcDbLine
 10
-2718.692580960005
 20
760.061956537874
 30
0.0
 11
-2718.692580960005
 21
756.349188537874
 31
0.0
  0
LINE
  5
42DD
330
42BD
100
AcDbEntity
  8
外形線
100
AcDbLine
 10
-2715.893020960006
 20
764.345982537874
 30
0.0
 11
-2693.490554960005
 21
764.345982537874
 31
0.0
  0
ARC
  5
42DE
330
42BD
100
AcDbEntity
  8
細線
100
AcDbCircle
 10
-2704.698196960006
 20
769.457830537874
 30
0.0
 40
14.53669
100
AcDbArc
 50
244.390793033801
 51
295.609209213941
  0
LINE
  5
42DF
330
42BD
100
AcDbEntity
  8
外形線
100
AcDbLine
 10
-2690.703688960005
 20
756.349188537874
 30
0.0
 11
-2692.131788960005
 21
754.921148537874
 31
0.0
  0
LINE
  5
42E0
330
42BD
100
AcDbEntity
  8
外形線
100
AcDbLine
 10
-2690.703688960005
 20
760.061956537874
 30
0.0
 11
-2690.703688960005
 21
756.349188537874
 31
0.0
  0
ARC
  5
42E1
330
42BD
100
AcDbEntity
  8
外形線
100
AcDbCircle
 10
-2666.317092960006
 20
857.629704537874
 30
0.0
 40
4.015794000000001
100
AcDbArc
 50
274.656944786914
 51
84.065438721313
  0
ARC
  5
42E2
330
42BD
100
AcDbEntity
  8
外形線
100
AcDbCircle
 10
-2667.278152960005
 20
830.196722537874
 30
0.0
 40
5.033766
100
AcDbArc
 50
6.644133183896
 51
75.184725088441
  0
ARC
  5
42E3
330
42BD
100
AcDbEntity
  8
外形線
100
AcDbCircle
 10
-2667.278152960005
 20
831.361638537874
 30
0.0
 40
5.033766
100
AcDbArc
 50
284.815257311477
 51
353.355849216014
  0
ARC
  5
42E4
330
42BD
100
AcDbEntity
  8
外形線
100
AcDbCircle
 10
-2666.317092960006
 20
803.928656537874
 30
0.0
 40
4.015794000000001
100
AcDbArc
 50
275.934583374273
 51
85.343077308664
  0
LINE
  5
42E5
330
42BD
100
AcDbEntity
  8
外形線
100
AcDbLine
 10
-2662.278274960006
 20
782.227116537874
 30
0.0
 11
-2665.991042960005
 21
779.779118537874
 31
0.0
  0
LINE
  5
42E6
330
42BD
100
AcDbEntity
  8
外形線
100
AcDbLine
 10
-2663.950942960006
 20
788.510320537874
 30
0.0
 11
-2681.699050960005
 21
788.510320537874
 31
0.0
  0
LINE
  5
42E7
330
42BD
100
AcDbEntity
  8
外形線
100
AcDbLine
 10
-2663.950942960006
 20
785.083196537874
 30
0.0
 11
-2681.699050960005
 21
785.083196537874
 31
0.0
  0
LINE
  5
42E8
330
42BD
100
AcDbEntity
  8
細線
100
AcDbLine
 10
-2665.991042960005
 20
826.495184537874
 30
0.0
 11
-2665.991042960005
 21
807.931096537874
 31
0.0
  0
LINE
  5
42E9
330
42BD
100
AcDbEntity
  8
細線
100
AcDbLine
 10
-2743.991024980932
 20
853.627142537874
 30
0.0
 11
-2743.991024980932
 21
807.931096537874
 31
0.0
  0
ARC
  5
42EA
330
42BD
100
AcDbEntity
  8
外形線
100
AcDbCircle
 10
-2723.793898960005
 20
783.949896537874
 30
0.0
 40
2.856
100
AcDbArc
 50
7.289398252773
 51
86.905894590757
  0
LWPOLYLINE
  5
42EB
330
42BD
100
AcDbEntity
  8
外形線
100
AcDbPolyline
 90
       67
 70
     0
 43
0.0
 10
-2727.912532980931
 20
787.162664537874
 10
-2727.953293899852
 20
787.174412216412
 10
-2728.068477803089
 20
787.208793826894
 10
-2728.247436410369
 20
787.264517231616
 10
-2728.479521441415
 20
787.340290292878
 10
-2728.754084615951
 20
787.434820872976
 10
-2729.060477653697
 20
787.546816834212
 10
-2729.388052274381
 20
787.674986038882
 10
-2729.726160197723
 20
787.818036349284
 10
-2730.064153143446
 20
787.974675627718
 10
-2730.391382831275
 20
788.143611736482
 10
-2730.697200980931
 20
788.323552537874
 10
-2731.041726713515
 20
788.565531765468
 10
-2731.339837921853
 20
788.821711229278
 10
-2731.596587295491
 20
789.09069912024
 10
-2731.817027523977
 20
789.371103629292
 10
-2732.006211296854
 20
789.66153294737
 10
-2732.169191303669
 20
789.960595265412
 10
-2732.311020233969
 20
790.266898774354
 10
-2732.436750777299
 20
790.579051665134
 10
-2732.551435623205
 20
790.89566212869
 10
-2732.660127461236
 20
791.215338355958
 10
-2732.767878980932
 20
791.536688537874
 10
-2732.995551300265
 20
792.185153437188
 10
-2733.238958623558
 20
792.833859637758
 10
-2733.497150606985
 20
793.48190367618
 10
-2733.769176906731
 20
794.128382089052
 10
-2734.054087178974
 20
794.77239141297
 10
-2734.350931079894
 20
795.413028184532
 10
-2734.658758265669
 20
796.049388940332
 10
-2734.976618392481
 20
796.680570216972
 10
-2735.30356111651
 20
797.305668551042
 10
-2735.638636093933
 20
797.923780479144
 10
-2735.980892980931
 20
798.534002537874
 10
-2736.239185655735
 20
798.982120060822
 10
-2736.499801955925
 20
799.426909071612
 10
-2736.761624603811
 20
799.869896500038
 10
-2737.0235363217
 20
800.312609275896
 10
-2737.284419831899
 20
800.756574328984
 10
-2737.543157856721
 20
801.203318589094
 10
-2737.798633118471
 20
801.654368986026
 10
-2738.049728339459
 20
802.111252449574
 10
-2738.295326241991
 20
802.575495909534
 10
-2738.534309548381
 20
803.048626295702
 10
-2738.765560980932
 20
803.532170537874
 10
-2738.926993461338
 20
803.885428916062
 10
-2739.088946755864
 20
804.239913758744
 10
-2739.256496270204
 20
804.590705697996
 10
-2739.434717410046
 20
804.932885365896
 10
-2739.628685581078
 20
805.261533394522
 10
-2739.843476188994
 20
805.571730415952
 10
-2740.084164639479
 20
805.858557062262
 10
-2740.355826338227
 20
806.117093965532
 10
-2740.663536690926
 20
806.34242175784
 10
-2741.012371103264
 20
806.52962107126
 10
-2741.407404980931
 20
806.673772537874
 10
-2741.846258080313
 20
806.771263661646
 10
-2742.319483857135
 20
806.828178969956
 10
-2742.811033491082
 20
806.851111538492
 10
-2743.304858161833
 20
806.846654442948
 10
-2743.784909049074
 20
806.821400759012
 10
-2744.235137332481
 20
806.781943562376
 10
-2744.639494191742
 20
806.73487592873
 10
-2744.981930806535
 20
806.686790933768
 10
-2745.246398356543
 20
806.644281653176
 10
-2745.416848021449
 20
806.613941162648
 10
-2745.477230980931
 20
806.602362537874
  0
LINE
  5
42EC
330
42BD
100
AcDbEntity
  8
外形線
100
AcDbLine
 10
-2727.912532980931
 20
787.162664537874
 30
0.0
 11
-2723.639743266303
 21
786.801733142958
 31
0.0
  0
LINE
  5
42ED
330
42BD
100
AcDbEntity
  8
外形線
100
AcDbLine
 10
-2745.477230980931
 20
806.602362537874
 30
0.0
 11
-2760.043024980931
 21
804.603094537874
 31
0.0
  0
ARC
  5
42EE
330
42BD
100
AcDbEntity
  8
外形線
100
AcDbCircle
 10
-2758.924616980931
 20
802.060124537874
 30
0.0
 40
2.778136
100
AcDbArc
 50
113.741117770862
 51
176.718232188895
  0
LINE
  5
42EF
330
42BD
100
AcDbEntity
  8
細線
100
AcDbLine
 10
-2665.991042960005
 20
799.934392537874
 30
0.0
 11
-2665.991042960005
 21
788.510320537874
 31
0.0
  0
ARC
  5
42F0
330
42BD
100
AcDbEntity
  8
細線
100
AcDbCircle
 10
-2704.082716960005
 20
753.578984537874
 30
0.0
 40
36.766532
100
AcDbArc
 50
68.885514212383
 51
115.211785839404
  0
LINE
  5
42F1
330
42BD
100
AcDbEntity
  8
細線
100
AcDbLine
 10
-2665.991042960005
 20
785.083196537874
 30
0.0
 11
-2665.991042960005
 21
779.779118537874
 31
0.0
  0
LINE
  5
42F2
330
42BD
100
AcDbEntity
  8
細線
100
AcDbLine
 10
-2687.982254960006
 20
779.779118537874
 30
0.0
 11
-2690.838210960005
 21
787.877103088648
 31
0.0
  0
ARC
  5
42F3
330
42BD
100
AcDbEntity
  8
外形線
100
AcDbCircle
 10
-2688.060159702001
 20
778.779118537874
 30
0.0
 40
1.0
100
AcDbArc
 50
90.0
 51
172.420956229591
  0
LINE
  5
42F4
330
42BD
100
AcDbEntity
  8
外形線
100
AcDbLine
 10
-2688.060159702001
 20
779.779118537874
 30
0.0
 11
-2665.991042960005
 21
779.779118537874
 31
0.0
  0
LINE
  5
42F5
330
42BD
100
AcDbEntity
  8
外形線
100
AcDbLine
 10
-2681.699050960005
 20
799.934392537874
 30
0.0
 11
-2665.901932960005
 21
799.934392537874
 31
0.0
  0
LINE
  5
42F6
330
42BD
100
AcDbEntity
  8
外形線
100
AcDbLine
 10
-2681.699050960005
 20
807.931096537874
 30
0.0
 11
-2665.991042960005
 21
807.931096537874
 31
0.0
  0
LINE
  5
42F7
330
42BD
100
AcDbEntity
  8
外形線
100
AcDbLine
 10
-2745.477230980931
 20
854.955876537874
 30
0.0
 11
-2760.043024980931
 21
856.955144537874
 31
0.0
  0
ARC
  5
42F8
330
42BD
100
AcDbEntity
  8
外形線
100
AcDbCircle
 10
-2758.924616980931
 20
859.498236537874
 30
0.0
 40
2.778136
100
AcDbArc
 50
183.281807506792
 51
246.258864629059
  0
LINE
  5
42F9
330
42BD
100
AcDbEntity
  8
細線
100
AcDbLine
 10
-2665.991042960005
 20
835.063176537874
 30
0.0
 11
-2665.991042960005
 21
853.627142537874
 31
0.0
  0
LINE
  5
42FA
330
42BD
100
AcDbEntity
  8
外形線
100
AcDbLine
 10
-2681.699050960005
 20
835.063176537874
 30
0.0
 11
-2665.991042960005
 21
835.063176537874
 31
0.0
  0
LINE
  5
42FB
330
42BD
100
AcDbEntity
  8
外形線
100
AcDbLine
 10
-2681.699050960005
 20
826.495184537874
 30
0.0
 11
-2665.991042960005
 21
826.495184537874
 31
0.0
  0
LINE
  5
42FC
330
42BD
100
AcDbEntity
  8
外形線
100
AcDbLine
 10
-2681.699050960005
 20
853.627142537874
 30
0.0
 11
-2665.991042960005
 21
853.627142537874
 31
0.0
  0
LINE
  5
42FD
330
42BD
100
AcDbEntity
  8
外形線
100
AcDbLine
 10
-2681.699050960005
 20
861.623968537874
 30
0.0
 11
-2665.901932960005
 21
861.623968537874
 31
0.0
  0
LINE
  5
42FE
330
42BD
100
AcDbEntity
  8
外形線
100
AcDbLine
 10
-2621.722976960005
 20
807.359930537874
 30
0.0
 11
-2621.722976960005
 21
824.781560537874
 31
0.0
  0
LINE
  5
42FF
330
42BD
100
AcDbEntity
  8
外形線
100
AcDbLine
 10
-2631.433426960005
 20
830.779118537874
 30
0.0
 11
-2631.433426960005
 21
788.290838537874
 31
0.0
  0
ARC
  5
4300
330
42BD
100
AcDbEntity
  8
外形線
100
AcDbCircle
 10
-2636.288650960006
 20
788.290838537874
 30
0.0
 40
4.8552
100
AcDbArc
 50
272.650733067261
 51
359.999982399901
  0
ARC
  5
4301
330
42BD
100
AcDbEntity
  8
外形線
100
AcDbCircle
 10
-2664.004958960005
 20
786.796698537874
 30
0.0
 40
1.714446
100
AcDbArc
 50
271.804703586974
 51
88.195318508605
  0
LINE
  5
4302
330
42BD
100
AcDbEntity
  8
外形線
100
AcDbLine
 10
-2662.278274960006
 20
782.227116537874
 30
0.0
 11
-2636.064040960006
 21
783.440802537874
 31
0.0
  0
ARC
  5
4303
330
42BD
100
AcDbEntity
  8
外形線
100
AcDbCircle
 10
-2623.585158960005
 20
799.511052537874
 30
0.0
 40
1.86215
100
AcDbArc
 50
268.482178628784
 51
83.815801009983
  0
ARC
  5
4304
330
42BD
100
AcDbEntity
  8
外形線
100
AcDbCircle
 10
-2623.722244960006
 20
807.359930537874
 30
0.0
 40
1.9992
100
AcDbArc
 50
270.0
 51
359.999982399901
  0
ARC
  5
4305
330
42BD
100
AcDbEntity
  8
外形線
100
AcDbCircle
 10
-2629.432936960005
 20
803.361608537874
 30
0.0
 40
2.000724
100
AcDbArc
 50
87.757023395436
 51
272.242959004484
  0
LINE
  5
4306
330
42BD
100
AcDbEntity
  8
外形線
100
AcDbLine
 10
-2629.354690960005
 20
801.362370537874
 30
0.0
 11
-2623.384598960006
 21
801.362370537874
 31
0.0
  0
LINE
  5
4307
330
42BD
100
AcDbEntity
  8
外形線
100
AcDbLine
 10
-2631.433426960005
 20
797.649602537874
 30
0.0
 11
-2623.634476960005
 21
797.649602537874
 31
0.0
  0
LINE
  5
4308
330
42BD
100
AcDbEntity
  8
外形線
100
AcDbLine
 10
-2629.354628960005
 20
805.360784537874
 30
0.0
 11
-2623.722244960006
 21
805.360784537874
 31
0.0
  0
LINE
  5
4309
330
42BD
100
AcDbEntity
  8
外形線
100
AcDbLine
 10
-2621.722976960005
 20
854.198308537874
 30
0.0
 11
-2621.722976960005
 21
836.776678537874
 31
0.0
  0
ARC
  5
430A
330
42BD
100
AcDbEntity
  8
外形線
100
AcDbCircle
 10
-2623.722244960006
 20
836.776678537874
 30
0.0
 40
1.9992
100
AcDbArc
 50
270.0
 51
359.999982399908
  0
ARC
  5
430B
330
42BD
100
AcDbEntity
  8
外形線
100
AcDbCircle
 10
-2629.279006960005
 20
832.632024537874
 30
0.0
 40
2.15556
100
AcDbArc
 50
95.512637406103
 51
178.08903371374
  0
LINE
  5
430C
330
42BD
100
AcDbEntity
  8
外形線
100
AcDbLine
 10
-2629.486038960005
 20
834.777532537874
 30
0.0
 11
-2623.722244960006
 21
834.777532537874
 31
0.0
  0
LINE
  5
430D
330
42BD
100
AcDbEntity
  8
外形線
100
AcDbLine
 10
-2629.486038960005
 20
826.780828537874
 30
0.0
 11
-2623.722244960006
 21
826.780828537874
 31
0.0
  0
ARC
  5
430E
330
42BD
100
AcDbEntity
  8
外形線
100
AcDbCircle
 10
-2623.722244960006
 20
824.781560537874
 30
0.0
 40
1.9992
100
AcDbArc
 50
0.0
 51
89.999981276021
  0
ARC
  5
430F
330
42BD
100
AcDbEntity
  8
外形線
100
AcDbCircle
 10
-2629.279006960005
 20
828.926336537874
 30
0.0
 40
2.15556
100
AcDbArc
 50
181.910948686163
 51
264.487402289583
  0
LINE
  5
4310
330
42BD
100
AcDbEntity
  8
外形線
100
AcDbLine
 10
-2631.433426960005
 20
863.908758537874
 30
0.0
 11
-2623.634476960005
 21
863.908758537874
 31
0.0
  0
ARC
  5
4311
330
42BD
100
AcDbEntity
  8
外形線
100
AcDbCircle
 10
-2623.722244960006
 20
854.198308537874
 30
0.0
 40
1.9992
100
AcDbArc
 50
0.0
 51
89.999981276021
  0
ARC
  5
4312
330
42BD
100
AcDbEntity
  8
外形線
100
AcDbCircle
 10
-2629.434218960006
 20
858.196722537874
 30
0.0
 40
2.000726
100
AcDbArc
 50
87.722187561485
 51
272.27785213419
  0
LINE
  5
4313
330
42BD
100
AcDbEntity
  8
外形線
100
AcDbLine
 10
-2629.354690960005
 20
856.197576537874
 30
0.0
 11
-2623.722244960006
 21
856.197576537874
 31
0.0
  0
LINE
  5
4314
330
42BD
100
AcDbEntity
  8
外形線
100
AcDbLine
 10
-2629.354690960005
 20
860.195866537874
 30
0.0
 11
-2623.384598960006
 21
860.195866537874
 31
0.0
  0
ARC
  5
4315
330
42BD
100
AcDbEntity
  8
外形線
100
AcDbCircle
 10
-2623.585158960005
 20
862.047308537874
 30
0.0
 40
1.86215
100
AcDbArc
 50
276.18422108563
 51
91.517843466792
  0
LINE
  5
4316
330
42BD
100
AcDbEntity
  8
中心線
 48
10.0
100
AcDbLine
 10
-2781.852691728484
 20
895.779118537874
 30
0.0
 11
-2749.248855775376
 21
895.779118537874
 31
0.0
  0
LINE
  5
4317
330
42BD
100
AcDbEntity
  8
外形線
100
AcDbLine
 10
-2663.950942960006
 20
873.047918537874
 30
0.0
 11
-2681.699050960005
 21
873.047918537874
 31
0.0
  0
LINE
  5
4318
330
42BD
100
AcDbEntity
  8
外形線
100
AcDbLine
 10
-2663.950942960006
 20
876.475164537874
 30
0.0
 11
-2681.699050960005
 21
876.475164537874
 31
0.0
  0
LINE
  5
4319
330
42BD
100
AcDbEntity
  8
外形線
100
AcDbLine
 10
-2665.991042960005
 20
881.779118537874
 30
0.0
 11
-2662.278274960006
 21
879.331120537874
 31
0.0
  0
LINE
  5
431A
330
42BD
100
AcDbEntity
  8
外形線
100
AcDbLine
 10
-2727.912532980931
 20
874.395574537874
 30
0.0
 11
-2690.838210960005
 21
876.475164537874
 31
0.0
  0
LINE
  5
431B
330
42BD
100
AcDbEntity
  8
外形線
100
AcDbLine
 10
-2771.698196960006
 20
908.279118537874
 30
0.0
 11
-2761.698196960006
 21
908.279118537874
 31
0.0
  0
LINE
  5
431C
330
42BD
100
AcDbEntity
  8
外形線
100
AcDbLine
 10
-2687.982254960006
 20
881.779118537874
 30
0.0
 11
-2665.991042960005
 21
881.779118537874
 31
0.0
  0
LINE
  5
431D
330
42BD
100
AcDbEntity
  8
外形線
100
AcDbLine
 10
-2690.838210960005
 20
876.475164537874
 30
0.0
 11
-2687.982254960006
 21
881.779118537874
 31
0.0
  0
LINE
  5
431E
330
42BD
100
AcDbEntity
  8
細線
100
AcDbLine
 10
-2665.991042960005
 20
876.475164537874
 30
0.0
 11
-2665.991042960005
 21
881.779118537874
 31
0.0
  0
ARC
  5
431F
330
42BD
100
AcDbEntity
  8
外形線
100
AcDbCircle
 10
-2636.288650960006
 20
873.267522537874
 30
0.0
 40
4.8552
100
AcDbArc
 50
0.0
 51
87.349306628423
  0
ARC
  5
4320
330
42BD
100
AcDbEntity
  8
外形線
100
AcDbCircle
 10
-2664.004958960005
 20
874.761540537874
 30
0.0
 40
1.714446
100
AcDbArc
 50
271.804703586974
 51
88.195318508605
  0
LINE
  5
4321
330
42BD
100
AcDbEntity
  8
外形線
100
AcDbLine
 10
-2662.278274960006
 20
879.331120537874
 30
0.0
 11
-2636.064040960006
 21
878.117498537874
 31
0.0
  0
ENDBLK
  5
4322
330
42BD
100
AcDbEntity
  8
0
 48
10.0
100
AcDbBlockEnd
  0
BLOCK
  5
4324
330
4323
100
AcDbEntity
  8
0
 48
10.0
100
AcDbBlockBegin
  2
A$C480F1F2B
 70
     0
 10
0.0
 20
0.0
 30
0.0
  3
A$C480F1F2B
  1
A$C480F1F2B
  0
LINE
  5
4325
330
4323
100
AcDbEntity
  8
外形線
100
AcDbLine
 10
8.500001501512
 20
2.385002184348
 30
0.0
 11
8.500001501512
 21
14.179664684348
 31
0.0
  0
ARC
  5
4326
330
4323
100
AcDbEntity
  8
細線
100
AcDbCircle
 10
1.216144001512
 20
8.282372184348
 30
0.0
 40
7.2838425
100
AcDbArc
 50
326.010120640452
 51
33.98932849733
  0
ARC
  5
4327
330
4323
100
AcDbEntity
  8
細線
100
AcDbCircle
 10
4.911364001511
 20
1.275229684348
 30
0.0
 40
3.7563025
100
AcDbArc
 50
17.184150191555
 51
51.38761061704
  0
LINE
  5
4328
330
4323
100
AcDbEntity
  8
細線
100
AcDbLine
 10
2.000001501511
 20
4.210487184348
 30
0.0
 11
7.255442473881
 21
4.210487184348
 31
0.0
  0
LINE
  5
4329
330
4323
100
AcDbEntity
  8
外形線
100
AcDbLine
 10
2.000001501511
 20
16.564818684348
 30
0.0
 11
2.000001501511
 21
0.000000684348
 31
0.0
  0
LINE
  5
432A
330
4323
100
AcDbEntity
  8
外形線
100
AcDbLine
 10
0.000001501512
 20
16.564818684348
 30
0.0
 11
0.000001501512
 21
0.000000684348
 31
0.0
  0
LINE
  5
432B
330
4323
100
AcDbEntity
  8
外形線
100
AcDbLine
 10
6.114929777464
 20
0.000000684348
 30
0.0
 11
8.499926501511
 21
2.385079684348
 31
0.0
  0
LINE
  5
432C
330
4323
100
AcDbEntity
  8
外形線
100
AcDbLine
 10
0.000001501512
 20
0.000000684348
 30
0.0
 11
6.114929777464
 21
0.000000684348
 31
0.0
  0
ARC
  5
432D
330
4323
100
AcDbEntity
  8
細線
100
AcDbCircle
 10
4.911364001511
 20
15.289437184348
 30
0.0
 40
3.7563025
100
AcDbArc
 50
308.612371782873
 51
342.81588950412
  0
LINE
  5
432E
330
4323
100
AcDbEntity
  8
細線
100
AcDbLine
 10
2.000001501511
 20
12.354369684348
 30
0.0
 11
7.25548242852
 21
12.354369684348
 31
0.0
  0
LINE
  5
432F
330
4323
100
AcDbEntity
  8
外形線
100
AcDbLine
 10
6.11493439904
 20
16.564818684348
 30
0.0
 11
8.499926501511
 21
14.179664684348
 31
0.0
  0
LINE
  5
4330
330
4323
100
AcDbEntity
  8
外形線
100
AcDbLine
 10
0.000001501512
 20
16.564818684348
 30
0.0
 11
6.11493439904
 21
16.564818684348
 31
0.0
  0
ENDBLK
  5
4331
330
4323
100
AcDbEntity
  8
0
 48
10.0
100
AcDbBlockEnd
  0
BLOCK
  5
4482
330
4478
100
AcDbEntity
  8
0
 48
10.0
100
AcDbBlockBegin
  2
*D9
 70
     1
 10
0.0
 20
0.0
 30
0.0
  3
*D9
  1
*D9
  0
LINE
  5
5A36
330
4478
100
AcDbEntity
  8
寸法線
 62
     0
 48
10.0
100
AcDbLine
 10
758.189741244244
 20
327.901267571207
 30
0.0
 11
758.189741244244
 21
307.501717042712
 31
0.0
  0
LINE
  5
5A37
330
4478
100
AcDbEntity
  8
寸法線
 62
     0
 48
10.0
100
AcDbLine
 10
908.164929244244
 20
337.961352723829
 30
0.0
 11
908.164929244244
 21
307.501717042712
 31
0.0
  0
LINE
  5
5A38
330
4478
100
AcDbEntity
  8
寸法線
 62
     0
 48
10.0
100
AcDbLine
 10
764.189741244244
 20
308.751717042712
 30
0.0
 11
902.164929244244
 21
308.751717042712
 31
0.0
  0
INSERT
  5
5A39
330
4478
100
AcDbEntity
  8
寸法線
 62
     0
100
AcDbBlockReference
  2
_OPEN30
 10
758.189741244244
 20
308.751717042712
 30
0.0
 41
6.0
 42
6.0
 43
6.0
 50
180.0
  0
INSERT
  5
5A3A
330
4478
100
AcDbEntity
  8
寸法線
 62
     0
100
AcDbBlockReference
  2
_OPEN30
 10
908.164929244244
 20
308.751717042712
 30
0.0
 41
6.0
 42
6.0
 43
6.0
  0
MTEXT
  5
5A3B
330
4478
100
AcDbEntity
  8
寸法線
 62
     0
 48
10.0
100
AcDbMText
 10
833.177335244244
 20
314.376717042712
 30
0.0
 40
10.0
 41
0.0
 71
     5
 72
     1
  1
\A1;150
  0
POINT
  5
5A3C
330
4478
100
AcDbEntity
  8
DEFPOINTS
 62
     0
100
AcDbPoint
 10
758.189741244244
 20
328.526267571207
 30
0.0
  0
POINT
  5
5A3D
330
4478
100
AcDbEntity
  8
DEFPOINTS
 62
     0
100
AcDbPoint
 10
908.164929244244
 20
338.586352723829
 30
0.0
  0
POINT
  5
5A3E
330
4478
100
AcDbEntity
  8
DEFPOINTS
 62
     0
100
AcDbPoint
 10
908.164929244244
 20
308.751717042712
 30
0.0
  0
ENDBLK
  5
4483
330
4478
100
AcDbEntity
  8
0
 48
10.0
100
AcDbBlockEnd
  0
BLOCK
  5
4490
330
4484
100
AcDbEntity
  8
0
 48
10.0
100
AcDbBlockBegin
  2
*D10
 70
     1
 10
0.0
 20
0.0
 30
0.0
  3
*D10
  1
*D10
  0
LINE
  5
5A2B
330
4484
100
AcDbEntity
  8
寸法線
 62
     0
 48
10.0
100
AcDbLine
 10
758.189741244244
 20
361.181525864275
 30
0.0
 11
758.189741244244
 21
328.526267571207
 31
0.0
  0
LINE
  5
5A2C
330
4484
100
AcDbEntity
  8
寸法線
 62
     0
 48
10.0
100
AcDbLine
 10
768.189741244244
 20
361.181525864275
 30
0.0
 11
768.189741244244
 21
328.526267571207
 31
0.0
  0
LINE
  5
5A2D
330
4484
100
AcDbEntity
  8
寸法線
 62
     0
 48
10.0
100
AcDbLine
 10
758.189741244244
 20
329.776267571207
 30
0.0
 11
768.189741244244
 21
329.776267571207
 31
0.0
  0
LINE
  5
5A2E
330
4484
100
AcDbEntity
  8
寸法線
 62
     0
 48
10.0
100
AcDbLine
 10
752.189741244244
 20
329.776267571207
 30
0.0
 11
746.189741244244
 21
329.776267571207
 31
0.0
  0
LINE
  5
5A2F
330
4484
100
AcDbEntity
  8
寸法線
 62
     0
 48
10.0
100
AcDbLine
 10
774.189741244244
 20
329.776267571207
 30
0.0
 11
780.189741244244
 21
329.776267571207
 31
0.0
  0
INSERT
  5
5A30
330
4484
100
AcDbEntity
  8
寸法線
 62
     0
100
AcDbBlockReference
  2
_OPEN30
 10
758.189741244244
 20
329.776267571207
 30
0.0
 41
6.0
 42
6.0
 43
6.0
  0
INSERT
  5
5A31
330
4484
100
AcDbEntity
  8
寸法線
 62
     0
100
AcDbBlockReference
  2
_OPEN30
 10
768.189741244244
 20
329.776267571207
 30
0.0
 41
6.0
 42
6.0
 43
6.0
 50
180.0
  0
MTEXT
  5
5A32
330
4484
100
AcDbEntity
  8
寸法線
 62
     0
 48
10.0
100
AcDbMText
 10
763.189741244244
 20
334.401267571207
 30
0.0
 40
8.0
 41
0.0
 71
     5
 72
     1
  1
\A1;10
  0
POINT
  5
5A33
330
4484
100
AcDbEntity
  8
DEFPOINTS
 62
     0
100
AcDbPoint
 10
758.189741244244
 20
361.806525864275
 30
0.0
  0
POINT
  5
5A34
330
4484
100
AcDbEntity
  8
DEFPOINTS
 62
     0
100
AcDbPoint
 10
768.189741244244
 20
361.806525864275
 30
0.0
  0
POINT
  5
5A35
330
4484
100
AcDbEntity
  8
DEFPOINTS
 62
     0
100
AcDbPoint
 10
768.189741244244
 20
329.776267571207
 30
0.0
  0
ENDBLK
  5
4491
330
4484
100
AcDbEntity
  8
0
 48
10.0
100
AcDbBlockEnd
  0
BLOCK
  5
449C
330
4492
100
AcDbEntity
  8
0
 48
10.0
100
AcDbBlockBegin
  2
*D11
 70
     1
 10
0.0
 20
0.0
 30
0.0
  3
*D11
  1
*D11
  0
LINE
  5
5A22
330
4492
100
AcDbEntity
  8
寸法線
 62
     0
 48
10.0
100
AcDbLine
 10
768.189741244244
 20
361.181525864275
 30
0.0
 11
768.189741244244
 21
328.526267571207
 31
0.0
  0
LINE
  5
5A23
330
4492
100
AcDbEntity
  8
寸法線
 62
     0
 48
10.0
100
AcDbLine
 10
825.189741244244
 20
356.738489364275
 30
0.0
 11
825.189741244244
 21
328.526267571207
 31
0.0
  0
LINE
  5
5A24
330
4492
100
AcDbEntity
  8
寸法線
 62
     0
 48
10.0
100
AcDbLine
 10
774.189741244244
 20
329.776267571207
 30
0.0
 11
819.189741244244
 21
329.776267571207
 31
0.0
  0
INSERT
  5
5A25
330
4492
100
AcDbEntity
  8
寸法線
 62
     0
100
AcDbBlockReference
  2
_OPEN30
 10
768.189741244244
 20
329.776267571207
 30
0.0
 41
6.0
 42
6.0
 43
6.0
 50
180.0
  0
INSERT
  5
5A26
330
4492
100
AcDbEntity
  8
寸法線
 62
     0
100
AcDbBlockReference
  2
_OPEN30
 10
825.189741244244
 20
329.776267571207
 30
0.0
 41
6.0
 42
6.0
 43
6.0
  0
MTEXT
  5
5A27
330
4492
100
AcDbEntity
  8
寸法線
 62
     0
 48
10.0
100
AcDbMText
 10
796.689741244244
 20
335.401267571207
 30
0.0
 40
10.0
 41
0.0
 71
     5
 72
     1
  1
\A1;57
  0
POINT
  5
5A28
330
4492
100
AcDbEntity
  8
DEFPOINTS
 62
     0
100
AcDbPoint
 10
768.189741244244
 20
361.806525864275
 30
0.0
  0
POINT
  5
5A29
330
4492
100
AcDbEntity
  8
DEFPOINTS
 62
     0
100
AcDbPoint
 10
825.189741244244
 20
357.363489364275
 30
0.0
  0
POINT
  5
5A2A
330
4492
100
AcDbEntity
  8
DEFPOINTS
 62
     0
100
AcDbPoint
 10
825.189741244244
 20
329.776267571207
 30
0.0
  0
ENDBLK
  5
449D
330
4492
100
AcDbEntity
  8
0
 48
10.0
100
AcDbBlockEnd
  0
BLOCK
  5
44A8
330
449E
100
AcDbEntity
  8
0
 48
10.0
100
AcDbBlockBegin
  2
*D12
 70
     1
 10
0.0
 20
0.0
 30
0.0
  3
*D12
  1
*D12
  0
LINE
  5
5A19
330
449E
100
AcDbEntity
  8
寸法線
 62
     0
 48
10.0
100
AcDbLine
 10
825.189741244244
 20
356.738489364275
 30
0.0
 11
825.189741244244
 21
328.526267571207
 31
0.0
  0
LINE
  5
5A1A
330
449E
100
AcDbEntity
  8
寸法線
 62
     0
 48
10.0
100
AcDbLine
 10
846.189741244244
 20
387.681603364275
 30
0.0
 11
846.189741244244
 21
328.526267571207
 31
0.0
  0
LINE
  5
5A1B
330
449E
100
AcDbEntity
  8
寸法線
 62
     0
 48
10.0
100
AcDbLine
 10
831.189741244244
 20
329.776267571207
 30
0.0
 11
840.189741244244
 21
329.776267571207
 31
0.0
  0
INSERT
  5
5A1C
330
449E
100
AcDbEntity
  8
寸法線
 62
     0
100
AcDbBlockReference
  2
_OPEN30
 10
825.189741244244
 20
329.776267571207
 30
0.0
 41
6.0
 42
6.0
 43
6.0
 50
180.0
  0
INSERT
  5
5A1D
330
449E
100
AcDbEntity
  8
寸法線
 62
     0
100
AcDbBlockReference
  2
_OPEN30
 10
846.189741244244
 20
329.776267571207
 30
0.0
 41
6.0
 42
6.0
 43
6.0
  0
MTEXT
  5
5A1E
330
449E
100
AcDbEntity
  8
寸法線
 62
     0
 48
10.0
100
AcDbMText
 10
835.689741244244
 20
335.40647590454
 30
0.0
 40
10.0
 41
0.0
 71
     5
 72
     1
  1
\A1;21
  0
POINT
  5
5A1F
330
449E
100
AcDbEntity
  8
DEFPOINTS
 62
     0
100
AcDbPoint
 10
825.189741244244
 20
357.363489364275
 30
0.0
  0
POINT
  5
5A20
330
449E
100
AcDbEntity
  8
DEFPOINTS
 62
     0
100
AcDbPoint
 10
846.189741244244
 20
388.306603364275
 30
0.0
  0
POINT
  5
5A21
330
449E
100
AcDbEntity
  8
DEFPOINTS
 62
     0
100
AcDbPoint
 10
846.189741244244
 20
329.776267571207
 30
0.0
  0
ENDBLK
  5
44A9
330
449E
100
AcDbEntity
  8
0
 48
10.0
100
AcDbBlockEnd
  0
BLOCK
  5
44B4
330
44AA
100
AcDbEntity
  8
0
 48
10.0
100
AcDbBlockBegin
  2
*D13
 70
     1
 10
0.0
 20
0.0
 30
0.0
  3
*D13
  1
*D13
  0
LINE
  5
5A10
330
44AA
100
AcDbEntity
  8
寸法線
 62
     0
 48
10.0
100
AcDbLine
 10
908.164929244244
 20
372.238171287537
 30
0.0
 11
908.164929244244
 21
328.526267571207
 31
0.0
  0
LINE
  5
5A11
330
44AA
100
AcDbEntity
  8
寸法線
 62
     0
 48
10.0
100
AcDbLine
 10
846.189741244244
 20
387.681603364275
 30
0.0
 11
846.189741244244
 21
328.526267571207
 31
0.0
  0
LINE
  5
5A12
330
44AA
100
AcDbEntity
  8
寸法線
 62
     0
 48
10.0
100
AcDbLine
 10
902.164929244244
 20
329.776267571207
 30
0.0
 11
852.189741244244
 21
329.776267571207
 31
0.0
  0
INSERT
  5
5A13
330
44AA
100
AcDbEntity
  8
寸法線
 62
     0
100
AcDbBlockReference
  2
_OPEN30
 10
908.164929244244
 20
329.776267571207
 30
0.0
 41
6.0
 42
6.0
 43
6.0
  0
INSERT
  5
5A14
330
44AA
100
AcDbEntity
  8
寸法線
 62
     0
100
AcDbBlockReference
  2
_OPEN30
 10
846.189741244244
 20
329.776267571207
 30
0.0
 41
6.0
 42
6.0
 43
6.0
 50
180.0
  0
MTEXT
  5
5A15
330
44AA
100
AcDbEntity
  8
寸法線
 62
     0
 48
10.0
100
AcDbMText
 10
877.177335244244
 20
335.401267571207
 30
0.0
 40
10.0
 41
0.0
 71
     5
 72
     1
  1
\A1;62
  0
POINT
  5
5A16
330
44AA
100
AcDbEntity
  8
DEFPOINTS
 62
     0
100
AcDbPoint
 10
908.164929244244
 20
372.863171287537
 30
0.0
  0
POINT
  5
5A17
330
44AA
100
AcDbEntity
  8
DEFPOINTS
 62
     0
100
AcDbPoint
 10
846.189741244244
 20
388.306603364275
 30
0.0
  0
POINT
  5
5A18
330
44AA
100
AcDbEntity
  8
DEFPOINTS
 62
     0
100
AcDbPoint
 10
846.189741244244
 20
329.776267571207
 30
0.0
  0
ENDBLK
  5
44B5
330
44AA
100
AcDbEntity
  8
0
 48
10.0
100
AcDbBlockEnd
  0
BLOCK
  5
55B7
330
55AD
100
AcDbEntity
  8
0
 48
10.0
100
AcDbBlockBegin
  2
*D15
 70
     1
 10
0.0
 20
0.0
 30
0.0
  3
*D15
  1
*D15
  0
ARC
  5
59FE
330
55AD
100
AcDbEntity
  8
寸法線
 62
     0
 48
10.0
100
AcDbCircle
 10
330.791628527873
 20
439.306603364275
 30
0.0
 40
299.9387700811019
100
AcDbArc
 50
251.146143023897
 51
268.853831369779
  0
INSERT
  5
59FF
330
55AD
100
AcDbEntity
  8
寸法線
 62
     0
100
AcDbBlockReference
  2
_OPEN30
 10
228.206401432812
 20
157.456400278276
 30
0.0
 41
6.0
 42
6.0
 43
6.0
 50
160.573058708787
  0
INSERT
  5
5A00
330
55AD
100
AcDbEntity
  8
寸法線
 62
     0
100
AcDbBlockReference
  2
_OPEN30
 10
330.791628527873
 20
139.367833283174
 30
0.0
 41
6.0
 42
6.0
 43
6.0
 50
359.426915684889
  0
MTEXT
  5
5A01
330
55AD
100
AcDbEntity
  8
寸法線
 62
     0
 48
10.0
100
AcDbMText
 10
279.686322761056
 20
149.474390604096
 30
0.0
 40
10.0
 41
0.0
 71
     5
 72
     1
  1
約\A1;20%%d
 11
0.9848077142092256
 21
-0.1736483977294361
 31
0.0
  0
POINT
  5
5A02
330
55AD
100
AcDbEntity
  8
DEFPOINTS
 62
     0
100
AcDbPoint
 10
261.620900940354
 20
147.452742257767
 30
0.0
  0
POINT
  5
5A03
330
55AD
100
AcDbEntity
  8
DEFPOINTS
 62
     0
100
AcDbPoint
 10
314.568521027873
 20
394.734043815093
 30
0.0
  0
POINT
  5
5A04
330
55AD
100
AcDbEntity
  8
DEFPOINTS
 62
     0
100
AcDbPoint
 10
330.791628527873
 20
246.108121315093
 30
0.0
  0
POINT
  5
5A05
330
55AD
100
AcDbEntity
  8
DEFPOINTS
 62
     0
100
AcDbPoint
 10
330.791628527873
 20
129.306643815093
 30
0.0
  0
POINT
  5
5A06
330
55AD
100
AcDbEntity
  8
DEFPOINTS
 62
     0
100
AcDbPoint
 10
225.389538527873
 20
149.717143815093
 30
0.0
  0
ENDBLK
  5
55B8
330
55AD
100
AcDbEntity
  8
0
 48
10.0
100
AcDbBlockEnd
  0
BLOCK
  5
55C3
330
55B9
100
AcDbEntity
  8
0
 48
10.0
100
AcDbBlockBegin
  2
*D16
 70
     1
 10
0.0
 20
0.0
 30
0.0
  3
*D16
  1
*D16
  0
ARC
  5
59F5
330
55B9
100
AcDbEntity
  8
寸法線
 62
     0
 48
10.0
100
AcDbCircle
 10
330.79160542356
 20
439.306539885786
 30
0.0
 40
222.7362534445427
100
AcDbArc
 50
251.543436971614
 51
253.456520561642
  0
INSERT
  5
59F6
330
55B9
100
AcDbEntity
  8
寸法線
 62
     0
100
AcDbBlockReference
  2
_OPEN30
 10
254.61122655579
 20
230.002960188557
 30
0.0
 41
6.0
 42
6.0
 43
6.0
 50
160.771705682645
  0
INSERT
  5
59F7
330
55B9
100
AcDbEntity
  8
寸法線
 62
     0
100
AcDbBlockReference
  2
_OPEN30
 10
273.143157686145
 20
224.159857197026
 30
0.0
 41
6.0
 42
6.0
 43
6.0
 50
344.22825185061
  0
MTEXT
  5
59F8
330
55B9
100
AcDbEntity
  8
寸法線
 62
     0
 48
10.0
100
AcDbMText
 10
274.668005591554
 20
234.739699570958
 30
0.0
 40
10.0
 41
0.0
 71
     5
 72
     1
  1
約\A1;5%%d
 11
0.9643646507510649
 21
-0.2645766814777465
 31
0.0
  0
POINT
  5
59F9
330
55B9
100
AcDbEntity
  8
DEFPOINTS
 62
     0
100
AcDbPoint
 10
260.731001164162
 20
227.875817592834
 30
0.0
  0
POINT
  5
59FA
330
55B9
100
AcDbEntity
  8
DEFPOINTS
 62
     0
100
AcDbPoint
 10
314.568521027873
 20
394.734043815093
 30
0.0
  0
POINT
  5
59FB
330
55B9
100
AcDbEntity
  8
DEFPOINTS
 62
     0
100
AcDbPoint
 10
273.702393527873
 20
226.246951315093
 30
0.0
  0
POINT
  5
59FC
330
55B9
100
AcDbEntity
  8
DEFPOINTS
 62
     0
100
AcDbPoint
 10
262.204516027873
 20
183.336338815093
 30
0.0
  0
POINT
  5
59FD
330
55B9
100
AcDbEntity
  8
DEFPOINTS
 62
     0
100
AcDbPoint
 10
225.389538527873
 20
149.717143815093
 30
0.0
  0
ENDBLK
  5
55C4
330
55B9
100
AcDbEntity
  8
0
 48
10.0
100
AcDbBlockEnd
  0
BLOCK
  5
5619
330
560F
100
AcDbEntity
  8
0
 48
10.0
100
AcDbBlockBegin
  2
*D17
 70
     1
 10
0.0
 20
0.0
 30
0.0
  3
*D17
  1
*D17
  0
LINE
  5
59EC
330
560F
100
AcDbEntity
  8
寸法線
 62
     0
 48
10.0
100
AcDbLine
 10
466.218041348212
 20
198.681602114275
 30
0.0
 11
466.218041348212
 21
178.2101652775
 31
0.0
  0
LINE
  5
59ED
330
560F
100
AcDbEntity
  8
寸法線
 62
     0
 48
10.0
100
AcDbLine
 10
616.218041348212
 20
198.681602114275
 30
0.0
 11
616.218041348212
 21
178.2101652775
 31
0.0
  0
LINE
  5
59EE
330
560F
100
AcDbEntity
  8
寸法線
 62
     0
 48
10.0
100
AcDbLine
 10
472.218041348212
 20
179.4601652775
 30
0.0
 11
610.218041348212
 21
179.4601652775
 31
0.0
  0
INSERT
  5
59EF
330
560F
100
AcDbEntity
  8
寸法線
 62
     0
100
AcDbBlockReference
  2
_OPEN30
 10
466.218041348212
 20
179.4601652775
 30
0.0
 41
6.0
 42
6.0
 43
6.0
 50
180.0
  0
INSERT
  5
59F0
330
560F
100
AcDbEntity
  8
寸法線
 62
     0
100
AcDbBlockReference
  2
_OPEN30
 10
616.218041348212
 20
179.4601652775
 30
0.0
 41
6.0
 42
6.0
 43
6.0
  0
MTEXT
  5
59F1
330
560F
100
AcDbEntity
  8
寸法線
 62
     0
 48
10.0
100
AcDbMText
 10
541.218041348212
 20
185.0851652775
 30
0.0
 40
10.0
 41
0.0
 71
     5
 72
     1
  1
\A1;150
  0
POINT
  5
59F2
330
560F
100
AcDbEntity
  8
DEFPOINTS
 62
     0
100
AcDbPoint
 10
466.218041348212
 20
199.306602114275
 30
0.0
  0
POINT
  5
59F3
330
560F
100
AcDbEntity
  8
DEFPOINTS
 62
     0
100
AcDbPoint
 10
616.218041348212
 20
199.306602114275
 30
0.0
  0
POINT
  5
59F4
330
560F
100
AcDbEntity
  8
DEFPOINTS
 62
     0
100
AcDbPoint
 10
616.218041348212
 20
179.4601652775
 30
0.0
  0
ENDBLK
  5
561A
330
560F
100
AcDbEntity
  8
0
 48
10.0
100
AcDbBlockEnd
  0
BLOCK
  5
5627
330
561B
100
AcDbEntity
  8
0
 48
10.0
100
AcDbBlockBegin
  2
*D18
 70
     1
 10
0.0
 20
0.0
 30
0.0
  3
*D18
  1
*D18
  0
LINE
  5
59E1
330
561B
100
AcDbEntity
  8
寸法線
 62
     0
 48
10.0
100
AcDbLine
 10
621.048390407141
 20
444.166220864275
 30
0.0
 11
620.423390407141
 21
444.166220864275
 31
0.0
  0
LINE
  5
59E2
330
561B
100
AcDbEntity
  8
寸法線
 62
     0
 48
10.0
100
AcDbLine
 10
621.048390407141
 20
434.446983364275
 30
0.0
 11
620.423390407141
 21
434.446983364275
 31
0.0
  0
LINE
  5
59E3
330
561B
100
AcDbEntity
  8
寸法線
 62
     0
 48
10.0
100
AcDbLine
 10
621.673390407141
 20
444.166220864275
 30
0.0
 11
621.673390407141
 21
477.586824538816
 31
0.0
  0
LINE
  5
59E4
330
561B
100
AcDbEntity
  8
寸法線
 62
     0
 48
10.0
100
AcDbLine
 10
621.673390407141
 20
444.166220864275
 30
0.0
 11
621.673390407141
 21
434.446983364275
 31
0.0
  0
LINE
  5
59E5
330
561B
100
AcDbEntity
  8
寸法線
 62
     0
 48
10.0
100
AcDbLine
 10
621.673390407141
 20
450.166220864275
 30
0.0
 11
621.673390407141
 21
456.166220864275
 31
0.0
  0
LINE
  5
59E6
330
561B
100
AcDbEntity
  8
寸法線
 62
     0
 48
10.0
100
AcDbLine
 10
621.673390407141
 20
428.446983364275
 30
0.0
 11
621.673390407141
 21
422.446983364275
 31
0.0
  0
INSERT
  5
59E7
330
561B
100
AcDbEntity
  8
寸法線
 62
     0
100
AcDbBlockReference
  2
_OPEN30
 10
621.673390407141
 20
444.166220864275
 30
0.0
 41
6.0
 42
6.0
 43
6.0
 50
270.0
  0
INSERT
  5
59E8
330
561B
100
AcDbEntity
  8
寸法線
 62
     0
100
AcDbBlockReference
  2
_OPEN30
 10
621.673390407141
 20
434.446983364275
 30
0.0
 41
6.0
 42
6.0
 43
6.0
 50
90.0
  0
MTEXT
  5
59E9
330
561B
100
AcDbEntity
  8
寸法線
 62
     0
 48
10.0
100
AcDbMText
 10
616.048390407141
 20
467.045157872149
 30
0.0
 40
10.0
 41
0.0
 71
     5
 72
     1
  1
\A1;φ10
 11
0.0
 21
1.0
 31
0.0
  0
POINT
  5
59EA
330
561B
100
AcDbEntity
  8
DEFPOINTS
 62
     0
100
AcDbPoint
 10
621.673390407141
 20
444.166220864275
 30
0.0
  0
POINT
  5
59EB
330
561B
100
AcDbEntity
  8
DEFPOINTS
 62
     0
100
AcDbPoint
 10
621.673390407141
 20
434.446983364275
 30
0.0
  0
POINT
  5
5B70
330
561B
100
AcDbEntity
  8
DEFPOINTS
 62
     0
100
AcDbPoint
 10
621.673390407141
 20
434.446983364275
 30
0.0
  0
ENDBLK
  5
5628
330
561B
100
AcDbEntity
  8
0
 48
10.0
100
AcDbBlockEnd
  0
BLOCK
  5
5633
330
5629
100
AcDbEntity
  8
0
 48
10.0
100
AcDbBlockBegin
  2
*D19
 70
     1
 10
0.0
 20
0.0
 30
0.0
  3
*D19
  1
*D19
  0
LINE
  5
59D8
330
5629
100
AcDbEntity
  8
寸法線
 62
     0
 48
10.0
100
AcDbLine
 10
636.218041348212
 20
421.681603364275
 30
0.0
 11
636.218041348212
 21
394.226458336277
 31
0.0
  0
LINE
  5
59D9
330
5629
100
AcDbEntity
  8
寸法線
 62
     0
 48
10.0
100
AcDbLine
 10
616.218041348212
 20
421.681603364275
 30
0.0
 11
616.218041348212
 21
394.226458336277
 31
0.0
  0
LINE
  5
59DA
330
5629
100
AcDbEntity
  8
寸法線
 62
     0
 48
10.0
100
AcDbLine
 10
630.218041348212
 20
395.476458336277
 30
0.0
 11
622.218041348212
 21
395.476458336277
 31
0.0
  0
INSERT
  5
59DB
330
5629
100
AcDbEntity
  8
寸法線
 62
     0
100
AcDbBlockReference
  2
_OPEN30
 10
636.218041348212
 20
395.476458336277
 30
0.0
 41
6.0
 42
6.0
 43
6.0
  0
INSERT
  5
59DC
330
5629
100
AcDbEntity
  8
寸法線
 62
     0
100
AcDbBlockReference
  2
_OPEN30
 10
616.218041348212
 20
395.476458336277
 30
0.0
 41
6.0
 42
6.0
 43
6.0
 50
180.0
  0
MTEXT
  5
59DD
330
5629
100
AcDbEntity
  8
寸法線
 62
     0
 48
10.0
100
AcDbMText
 10
626.218041348212
 20
401.106666669611
 30
0.0
 40
10.0
 41
0.0
 71
     5
 72
     1
  1
\A1;20
  0
POINT
  5
59DE
330
5629
100
AcDbEntity
  8
DEFPOINTS
 62
     0
100
AcDbPoint
 10
636.218041348212
 20
422.306603364275
 30
0.0
  0
POINT
  5
59DF
330
5629
100
AcDbEntity
  8
DEFPOINTS
 62
     0
100
AcDbPoint
 10
616.218041348212
 20
422.306603364275
 30
0.0
  0
POINT
  5
59E0
330
5629
100
AcDbEntity
  8
DEFPOINTS
 62
     0
100
AcDbPoint
 10
616.218041348212
 20
395.476458336277
 30
0.0
  0
ENDBLK
  5
5634
330
5629
100
AcDbEntity
  8
0
 48
10.0
100
AcDbBlockEnd
  0
BLOCK
  5
5640
330
5635
100
AcDbEntity
  8
0
 48
10.0
100
AcDbBlockBegin
  2
*D20
 70
     1
 10
0.0
 20
0.0
 30
0.0
  3
*D20
  1
*D20
  0
LINE
  5
59CE
330
5635
100
AcDbEntity
  8
寸法線
 62
     0
 48
10.0
100
AcDbLine
 10
728.119339691115
 20
456.306603364275
 30
0.0
 11
727.494339691115
 21
456.306603364275
 31
0.0
  0
LINE
  5
59CF
330
5635
100
AcDbEntity
  8
寸法線
 62
     0
 48
10.0
100
AcDbLine
 10
728.119351434799
 20
422.306603364275
 30
0.0
 11
727.494339691115
 21
422.306603364275
 31
0.0
  0
LINE
  5
59D0
330
5635
100
AcDbEntity
  8
寸法線
 62
     0
 48
10.0
100
AcDbLine
 10
728.744339691115
 20
456.306603364275
 30
0.0
 11
728.744339691115
 21
486.723270030942
 31
0.0
  0
LINE
  5
59D1
330
5635
100
AcDbEntity
  8
寸法線
 62
     0
 48
10.0
100
AcDbLine
 10
728.744339691115
 20
450.306603364275
 30
0.0
 11
728.744339691115
 21
428.306603364275
 31
0.0
  0
INSERT
  5
59D2
330
5635
100
AcDbEntity
  8
寸法線
 62
     0
100
AcDbBlockReference
  2
_OPEN30
 10
728.744339691115
 20
456.306603364275
 30
0.0
 41
6.0
 42
6.0
 43
6.0
 50
90.0
  0
INSERT
  5
59D3
330
5635
100
AcDbEntity
  8
寸法線
 62
     0
100
AcDbBlockReference
  2
_OPEN30
 10
728.744339691115
 20
422.306603364275
 30
0.0
 41
6.0
 42
6.0
 43
6.0
 50
270.0
  0
MTEXT
  5
59D4
330
5635
100
AcDbEntity
  8
寸法線
 62
     0
 48
10.0
100
AcDbMText
 10
723.114131357782
 20
474.681603364276
 30
0.0
 40
10.0
 41
0.0
 71
     5
 72
     1
  1
\A1;φ34
 11
0.0
 21
1.0
 31
0.0
  0
POINT
  5
59D5
330
5635
100
AcDbEntity
  8
DEFPOINTS
 62
     0
100
AcDbPoint
 10
728.744339691115
 20
456.306603364275
 30
0.0
  0
POINT
  5
59D6
330
5635
100
AcDbEntity
  8
DEFPOINTS
 62
     0
100
AcDbPoint
 10
728.744351434799
 20
422.306603364275
 30
0.0
  0
POINT
  5
59D7
330
5635
100
AcDbEntity
  8
DEFPOINTS
 62
     0
100
AcDbPoint
 10
728.744339691115
 20
422.306603364275
 30
0.0
  0
ENDBLK
  5
5641
330
5635
100
AcDbEntity
  8
0
 48
10.0
100
AcDbBlockEnd
  0
BLOCK
  5
564C
330
5642
100
AcDbEntity
  8
0
 48
10.0
100
AcDbBlockBegin
  2
*D21
 70
     1
 10
0.0
 20
0.0
 30
0.0
  3
*D21
  1
*D21
  0
LINE
  5
59C5
330
5642
100
AcDbEntity
  8
寸法線
 62
     0
 48
10.0
100
AcDbLine
 10
566.218041348212
 20
413.541258364275
 30
0.0
 11
566.218041348212
 21
394.226458336277
 31
0.0
  0
LINE
  5
59C6
330
5642
100
AcDbEntity
  8
寸法線
 62
     0
 48
10.0
100
AcDbLine
 10
616.218041348212
 20
413.541258364275
 30
0.0
 11
616.218041348212
 21
394.226458336277
 31
0.0
  0
LINE
  5
59C7
330
5642
100
AcDbEntity
  8
寸法線
 62
     0
 48
10.0
100
AcDbLine
 10
572.218041348212
 20
395.476458336277
 30
0.0
 11
610.218041348212
 21
395.476458336277
 31
0.0
  0
INSERT
  5
59C8
330
5642
100
AcDbEntity
  8
寸法線
 62
     0
100
AcDbBlockReference
  2
_OPEN30
 10
566.218041348212
 20
395.476458336277
 30
0.0
 41
6.0
 42
6.0
 43
6.0
 50
180.0
  0
INSERT
  5
59C9
330
5642
100
AcDbEntity
  8
寸法線
 62
     0
100
AcDbBlockReference
  2
_OPEN30
 10
616.218041348212
 20
395.476458336277
 30
0.0
 41
6.0
 42
6.0
 43
6.0
  0
MTEXT
  5
59CA
330
5642
100
AcDbEntity
  8
寸法線
 62
     0
 48
10.0
100
AcDbMText
 10
591.218041348212
 20
401.101458336277
 30
0.0
 40
10.0
 41
0.0
 71
     5
 72
     1
  1
\A1;50
  0
POINT
  5
59CB
330
5642
100
AcDbEntity
  8
DEFPOINTS
 62
     0
100
AcDbPoint
 10
566.218041348212
 20
414.166258364275
 30
0.0
  0
POINT
  5
59CC
330
5642
100
AcDbEntity
  8
DEFPOINTS
 62
     0
100
AcDbPoint
 10
616.218041348212
 20
414.166258364275
 30
0.0
  0
POINT
  5
59CD
330
5642
100
AcDbEntity
  8
DEFPOINTS
 62
     0
100
AcDbPoint
 10
616.218041348212
 20
395.476458336277
 30
0.0
  0
ENDBLK
  5
564D
330
5642
100
AcDbEntity
  8
0
 48
10.0
100
AcDbBlockEnd
  0
BLOCK
  5
5658
330
564E
100
AcDbEntity
  8
0
 48
10.0
100
AcDbBlockBegin
  2
*D22
 70
     1
 10
0.0
 20
0.0
 30
0.0
  3
*D22
  1
*D22
  0
LINE
  5
59BC
330
564E
100
AcDbEntity
  8
寸法線
 62
     0
 48
10.0
100
AcDbLine
 10
465.593041348212
 20
199.306602114275
 30
0.0
 11
435.552943583997
 21
199.306602114275
 31
0.0
  0
LINE
  5
59BD
330
564E
100
AcDbEntity
  8
寸法線
 62
     0
 48
10.0
100
AcDbLine
 10
526.220673848211
 20
439.306603364275
 30
0.0
 11
435.552943583997
 21
439.306603364275
 31
0.0
  0
LINE
  5
59BE
330
564E
100
AcDbEntity
  8
寸法線
 62
     0
 48
10.0
100
AcDbLine
 10
436.802943583997
 20
205.306602114275
 30
0.0
 11
436.802943583997
 21
433.306603364275
 31
0.0
  0
INSERT
  5
59BF
330
564E
100
AcDbEntity
  8
寸法線
 62
     0
100
AcDbBlockReference
  2
_OPEN30
 10
436.802943583997
 20
199.306602114275
 30
0.0
 41
6.0
 42
6.0
 43
6.0
 50
270.0
  0
INSERT
  5
59C0
330
564E
100
AcDbEntity
  8
寸法線
 62
     0
100
AcDbBlockReference
  2
_OPEN30
 10
436.802943583997
 20
439.306603364275
 30
0.0
 41
6.0
 42
6.0
 43
6.0
 50
90.0
  0
MTEXT
  5
59C1
330
564E
100
AcDbEntity
  8
寸法線
 62
     0
 48
10.0
100
AcDbMText
 10
431.172735250664
 20
319.306602739275
 30
0.0
 40
10.0
 41
0.0
 71
     5
 72
     1
  1
\A1;240
 11
0.0
 21
1.0
 31
0.0
  0
POINT
  5
59C2
330
564E
100
AcDbEntity
  8
DEFPOINTS
 62
     0
100
AcDbPoint
 10
466.218041348212
 20
199.306602114275
 30
0.0
  0
POINT
  5
59C3
330
564E
100
AcDbEntity
  8
DEFPOINTS
 62
     0
100
AcDbPoint
 10
526.845673848211
 20
439.306603364275
 30
0.0
  0
POINT
  5
59C4
330
564E
100
AcDbEntity
  8
DEFPOINTS
 62
     0
100
AcDbPoint
 10
436.802943583997
 20
439.306603364275
 30
0.0
  0
ENDBLK
  5
5659
330
564E
100
AcDbEntity
  8
0
 48
10.0
100
AcDbBlockEnd
  0
BLOCK
  5
5666
330
565A
100
AcDbEntity
  8
0
 48
10.0
100
AcDbBlockBegin
  2
*D23
 70
     1
 10
0.0
 20
0.0
 30
0.0
  3
*D23
  1
*D23
  0
LINE
  5
59B1
330
565A
100
AcDbEntity
  8
寸法線
 62
     0
 48
10.0
100
AcDbLine
 10
328.85678090874
 20
284.724883058328
 30
0.0
 11
328.85678090874
 21
285.349883058328
 31
0.0
  0
LINE
  5
59B2
330
565A
100
AcDbEntity
  8
寸法線
 62
     0
 48
10.0
100
AcDbLine
 10
332.60678090874
 20
284.724883058328
 30
0.0
 11
332.60678090874
 21
285.349883058328
 31
0.0
  0
LINE
  5
59B3
330
565A
100
AcDbEntity
  8
寸法線
 62
     0
 48
10.0
100
AcDbLine
 10
332.60678090874
 20
284.099883058328
 30
0.0
 11
358.063887689927
 21
284.099883058328
 31
0.0
  0
LINE
  5
59B4
330
565A
100
AcDbEntity
  8
寸法線
 62
     0
 48
10.0
100
AcDbLine
 10
328.85678090874
 20
284.099883058328
 30
0.0
 11
332.60678090874
 21
284.099883058328
 31
0.0
  0
LINE
  5
59B5
330
565A
100
AcDbEntity
  8
寸法線
 62
     0
 48
10.0
100
AcDbLine
 10
322.85678090874
 20
284.099883058328
 30
0.0
 11
316.85678090874
 21
284.099883058328
 31
0.0
  0
LINE
  5
59B6
330
565A
100
AcDbEntity
  8
寸法線
 62
     0
 48
10.0
100
AcDbLine
 10
338.60678090874
 20
284.099883058328
 30
0.0
 11
344.60678090874
 21
284.099883058328
 31
0.0
  0
INSERT
  5
59B7
330
565A
100
AcDbEntity
  8
寸法線
 62
     0
100
AcDbBlockReference
  2
_OPEN30
 10
328.85678090874
 20
284.099883058328
 30
0.0
 41
6.0
 42
6.0
 43
6.0
  0
INSERT
  5
59B8
330
565A
100
AcDbEntity
  8
寸法線
 62
     0
100
AcDbBlockReference
  2
_OPEN30
 10
332.60678090874
 20
284.099883058328
 30
0.0
 41
6.0
 42
6.0
 43
6.0
 50
180.0
  0
MTEXT
  5
59B9
330
565A
100
AcDbEntity
  8
寸法線
 62
     0
 48
10.0
100
AcDbMText
 10
351.438887689927
 20
289.724883058328
 30
0.0
 40
10.0
 41
0.0
 71
     5
 72
     1
  1
\A1;1.5
  0
POINT
  5
59BA
330
565A
100
AcDbEntity
  8
DEFPOINTS
 62
     0
100
AcDbPoint
 10
328.85678090874
 20
284.099883058328
 30
0.0
  0
POINT
  5
59BB
330
565A
100
AcDbEntity
  8
DEFPOINTS
 62
     0
100
AcDbPoint
 10
332.60678090874
 20
284.099883058328
 30
0.0
  0
POINT
  5
5A8F
330
565A
100
AcDbEntity
  8
DEFPOINTS
 62
     0
100
AcDbPoint
 10
332.60678090874
 20
284.099883058328
 30
0.0
  0
ENDBLK
  5
5667
330
565A
100
AcDbEntity
  8
0
 48
10.0
100
AcDbBlockEnd
  0
BLOCK
  5
5672
330
5668
100
AcDbEntity
  8
0
 48
10.0
100
AcDbBlockBegin
  2
*D24
 70
     1
 10
0.0
 20
0.0
 30
0.0
  3
*D24
  1
*D24
  0
LINE
  5
59A8
330
5668
100
AcDbEntity
  8
寸法線
 62
     0
 48
10.0
100
AcDbLine
 10
253.524293273243
 20
432.776392378311
 30
0.0
 11
253.447703793143
 21
433.681180648453
 31
0.0
  0
LINE
  5
59A9
330
5668
100
AcDbEntity
  8
寸法線
 62
     0
 48
10.0
100
AcDbLine
 10
407.960810670772
 20
445.849299008716
 30
0.0
 11
407.884221190673
 21
446.754087278857
 31
0.0
  0
LINE
  5
59AA
330
5668
100
AcDbEntity
  8
寸法線
 62
     0
 48
10.0
100
AcDbLine
 10
259.531756500721
 20
432.94171959375
 30
0.0
 11
402.011037005974
 21
445.002457314336
 31
0.0
  0
INSERT
  5
59AB
330
5668
100
AcDbEntity
  8
寸法線
 62
     0
100
AcDbBlockReference
  2
_OPEN30
 10
253.553138054583
 20
432.435635138841
 30
0.0
 41
6.0
 42
6.0
 43
6.0
 50
184.838499403605
  0
INSERT
  5
59AC
330
5668
100
AcDbEntity
  8
寸法線
 62
     0
100
AcDbBlockReference
  2
_OPEN30
 10
407.989655452112
 20
445.508541769245
 30
0.0
 41
6.0
 42
6.0
 43
6.0
 50
4.838499403605
  0
MTEXT
  5
59AD
330
5668
100
AcDbEntity
  8
寸法線
 62
     0
 48
10.0
100
AcDbMText
 10
376.888240184937
 20
448.520952975926
 30
0.0
 40
10.0
 41
0.0
 71
     5
 72
     1
  1
\A1;φ155
 11
0.9964364076896375
 21
0.08434740915149971
 31
0.0
  0
POINT
  5
59AE
330
5668
100
AcDbEntity
  8
DEFPOINTS
 62
     0
100
AcDbPoint
 10
253.577010403963
 20
432.153619623505
 30
0.0
  0
POINT
  5
59AF
330
5668
100
AcDbEntity
  8
DEFPOINTS
 62
     0
100
AcDbPoint
 10
408.013527801492
 20
445.22652625391
 30
0.0
  0
POINT
  5
59B0
330
5668
100
AcDbEntity
  8
DEFPOINTS
 62
     0
100
AcDbPoint
 10
407.989655452112
 20
445.508541769245
 30
0.0
  0
ENDBLK
  5
5673
330
5668
100
AcDbEntity
  8
0
 48
10.0
100
AcDbBlockEnd
  0
BLOCK
  5
567E
330
5674
100
AcDbEntity
  8
0
 48
10.0
100
AcDbBlockBegin
  2
*D25
 70
     1
 10
0.0
 20
0.0
 30
0.0
  3
*D25
  1
*D25
  0
LINE
  5
599F
330
5674
100
AcDbEntity
  8
寸法線
 62
     0
 48
10.0
100
AcDbLine
 10
271.430976104722
 20
412.538293302281
 30
0.0
 11
271.687554565785
 21
411.954725120737
 31
0.0
  0
LINE
  5
59A0
330
5674
100
AcDbEntity
  8
寸法線
 62
     0
 48
10.0
100
AcDbLine
 10
390.436304560516
 20
464.861577879844
 30
0.0
 11
390.692883021578
 21
464.278009698299
 31
0.0
  0
LINE
  5
59A1
330
5674
100
AcDbEntity
  8
寸法線
 62
     0
 48
10.0
100
AcDbLine
 10
276.677000521226
 20
415.513928550958
 30
0.0
 11
384.697219885633
 21
463.007370662116
 31
0.0
  0
INSERT
  5
59A2
330
5674
100
AcDbEntity
  8
寸法線
 62
     0
100
AcDbBlockReference
  2
_OPEN30
 10
271.184445975532
 20
413.099007317756
 30
0.0
 41
6.0
 42
6.0
 43
6.0
 50
203.733737201751
  0
INSERT
  5
59A3
330
5674
100
AcDbEntity
  8
寸法線
 62
     0
100
AcDbBlockReference
  2
_OPEN30
 10
390.189774431327
 20
465.422291895319
 30
0.0
 41
6.0
 42
6.0
 43
6.0
 50
23.733737201751
  0
MTEXT
  5
59A4
330
5674
100
AcDbEntity
  8
寸法線
 62
     0
 48
10.0
100
AcDbMText
 10
371.279884016504
 20
463.258518048119
 30
0.0
 40
10.0
 41
0.0
 71
     5
 72
     1
  1
\A1;φ130
 11
0.9154257576157172
 21
0.4024868722004364
 31
0.0
  0
POINT
  5
59A5
330
5674
100
AcDbEntity
  8
DEFPOINTS
 62
     0
100
AcDbPoint
 10
271.179421809595
 20
413.11043440079
 30
0.0
  0
POINT
  5
59A6
330
5674
100
AcDbEntity
  8
DEFPOINTS
 62
     0
100
AcDbPoint
 10
390.18475026539
 20
465.433718978354
 30
0.0
  0
POINT
  5
59A7
330
5674
100
AcDbEntity
  8
DEFPOINTS
 62
     0
100
AcDbPoint
 10
390.189774431327
 20
465.422291895319
 30
0.0
  0
ENDBLK
  5
567F
330
5674
100
AcDbEntity
  8
0
 48
10.0
100
AcDbBlockEnd
  0
BLOCK
  5
57AA
330
57A0
100
AcDbEntity
  8
0
 48
10.0
100
AcDbBlockBegin
  2
*D26
 70
     1
 10
0.0
 20
0.0
 30
0.0
  3
*D26
  1
*D26
  0
LINE
  5
5997
330
57A0
100
AcDbEntity
  8
寸法線
 62
     0
 48
10.0
100
AcDbLine
 10
466.218041348212
 20
178.8351652775
 30
0.0
 11
466.218041348212
 21
153.504280711635
 31
0.0
  0
LINE
  5
5998
330
57A0
100
AcDbEntity
  8
寸法線
 62
     0
 48
10.0
100
AcDbLine
 10
758.189741244244
 20
308.126717042712
 30
0.0
 11
758.189741244244
 21
153.504280711635
 31
0.0
  0
LINE
  5
5999
330
57A0
100
AcDbEntity
  8
寸法線
 62
     0
 48
10.0
100
AcDbLine
 10
472.218041348212
 20
154.754280711635
 30
0.0
 11
752.189741244244
 21
154.754280711635
 31
0.0
  0
INSERT
  5
599A
330
57A0
100
AcDbEntity
  8
寸法線
 62
     0
100
AcDbBlockReference
  2
_OPEN30
 10
466.218041348212
 20
154.754280711635
 30
0.0
 41
6.0
 42
6.0
 43
6.0
 50
180.0
  0
INSERT
  5
599B
330
57A0
100
AcDbEntity
  8
寸法線
 62
     0
100
AcDbBlockReference
  2
_OPEN30
 10
758.189741244244
 20
154.754280711635
 30
0.0
 41
6.0
 42
6.0
 43
6.0
  0
MTEXT
  5
599C
330
57A0
100
AcDbEntity
  8
寸法線
 62
     0
 48
10.0
100
AcDbMText
 10
612.203891296228
 20
160.379280711635
 30
0.0
 40
10.0
 41
0.0
 71
     5
 72
     1
  1
\A1;400
  0
POINT
  5
599D
330
57A0
100
AcDbEntity
  8
DEFPOINTS
 62
     0
100
AcDbPoint
 10
466.218041348212
 20
179.4601652775
 30
0.0
  0
POINT
  5
599E
330
57A0
100
AcDbEntity
  8
DEFPOINTS
 62
     0
100
AcDbPoint
 10
758.189741244244
 20
308.751717042712
 30
0.0
  0
POINT
  5
5A8E
330
57A0
100
AcDbEntity
  8
DEFPOINTS
 62
     0
100
AcDbPoint
 10
758.189741244244
 20
154.754280711635
 30
0.0
  0
ENDBLK
  5
57AB
330
57A0
100
AcDbEntity
  8
0
 48
10.0
100
AcDbBlockEnd
  0
BLOCK
  5
595B
330
595A
100
AcDbEntity
  8
0
 48
10.0
100
AcDbBlockBegin
  2
エル2
 70
     0
 10
0.0
 20
0.0
 30
0.0
  3
エル2
  1
エル2
  0
SPLINE
  5
595C
330
595A
100
AcDbEntity
  8
寸法線
 48
10.0
100
AcDbSpline
210
0.0
220
0.0
230
1.0
 70
  1064
 71
     3
 72
    13
 73
     9
 74
     7
 42
0.000000001
 43
0.0000000001
 44
0.0000000001
 40
0.0
 40
0.0
 40
0.0
 40
0.0
 40
1.733053107167099
 40
4.534898454324925
 40
6.793163002857423
 40
8.354986571146187
 40
9.185484699869415
 40
9.787764058431359
 40
9.787764058431359
 40
9.787764058431359
 40
9.787764058431359
 10
0.3404176863031978
 20
-0.0801601613338576
 30
0.0
 10
0.855794411263654
 20
0.157912936400826
 30
0.0
 10
2.204386155944025
 20
0.7808813373508533
 30
0.0
 10
2.529358956725083
 20
5.12979989628467
 30
0.0
 10
0.6070464993675231
 20
2.001902917601772
 30
0.0
 10
0.6912230258019734
 20
0.4140194271594778
 30
0.0
 10
1.704003608216778
 20
-0.2080419689248963
 30
0.0
 10
2.151973019543756
 20
0.0160478349734519
 30
0.0
 10
2.340280507694345
 20
0.110245757923721
 30
0.0
 11
0.3404176863031978
 21
-0.0801601613338576
 31
0.0
 11
1.721275265169794
 21
0.967076879239201
 31
0.0
 11
2.03077788643197
 21
3.751775332720619
 31
0.0
 11
0.8165758350102692
 21
1.847708067763307
 31
0.0
 11
1.030847060394152
 21
0.3006525741126325
 31
0.0
 11
1.768890963108987
 21
-0.0801601613338576
 31
0.0
 11
2.340280507694345
 21
0.110245757923721
 31
0.0
  0
ENDBLK
  5
595D
330
595A
100
AcDbEntity
  8
0
 48
10.0
100
AcDbBlockEnd
  0
BLOCK
  5
5B0D
330
5B0C
100
AcDbEntity
  8
0
100
AcDbBlockBegin
  2
*D31
 70
     1
 10
0.0
 20
0.0
 30
0.0
  3
*D31
  1
*D31
  0
ARC
  5
5B0F
330
5B0C
100
AcDbEntity
  8
寸法線
 62
     0
 48
10.0
100
AcDbCircle
 10
53.928870017946
 20
439.306539885786
 30
0.0
 40
222.7362534445427
100
AcDbArc
 50
286.543479438358
 51
288.456563028386
  0
INSERT
  5
5B10
330
5B0C
100
AcDbEntity
  8
寸法線
 62
     0
100
AcDbBlockReference
  2
_OPEN30
 10
111.577317755361
 20
224.159857197026
 30
0.0
 41
6.0
 42
6.0
 43
6.0
 50
195.77174814939
  0
INSERT
  5
5B11
330
5B0C
100
AcDbEntity
  8
寸法線
 62
     0
100
AcDbBlockReference
  2
_OPEN30
 10
130.109248885717
 20
230.002960188557
 30
0.0
 41
6.0
 42
6.0
 43
6.0
 50
19.228294317355
  0
MTEXT
  5
5B12
330
5B0C
100
AcDbEntity
  8
寸法線
 62
     0
 48
10.0
100
AcDbMText
 10
110.052469849953
 20
234.739699570958
 30
0.0
 40
10.0
 41
0.0
 71
     5
 72
     1
  1
約\A1;5%%d
 11
0.9643646507510649
 21
0.2645766814777465
 31
0.0
  0
POINT
  5
5B13
330
5B0C
100
AcDbEntity
  8
DEFPOINTS
 62
     0
100
AcDbPoint
 10
123.989474277345
 20
227.875817592834
 30
0.0
  0
POINT
  5
5B14
330
5B0C
100
AcDbEntity
  8
DEFPOINTS
 62
     0
100
AcDbPoint
 10
70.151954413634
 20
394.734043815093
 30
0.0
  0
POINT
  5
5B15
330
5B0C
100
AcDbEntity
  8
DEFPOINTS
 62
     0
100
AcDbPoint
 10
111.018081913633
 20
226.246951315093
 30
0.0
  0
POINT
  5
5B16
330
5B0C
100
AcDbEntity
  8
DEFPOINTS
 62
     0
100
AcDbPoint
 10
122.515959413633
 20
183.336338815093
 30
0.0
  0
POINT
  5
5B17
330
5B0C
100
AcDbEntity
  8
DEFPOINTS
 62
     0
100
AcDbPoint
 10
159.330936913634
 20
149.717143815093
 30
0.0
  0
ENDBLK
  5
5B0E
330
5B0C
100
AcDbEntity
  8
0
100
AcDbBlockEnd
  0
BLOCK
  5
5B19
330
5B18
100
AcDbEntity
  8
0
100
AcDbBlockBegin
  2
*D32
 70
     1
 10
0.0
 20
0.0
 30
0.0
  3
*D32
  1
*D32
  0
ARC
  5
5B1B
330
5B18
100
AcDbEntity
  8
寸法線
 62
     0
 48
10.0
100
AcDbCircle
 10
53.928846913634
 20
439.306603364275
 30
0.0
 40
299.9387700811019
100
AcDbArc
 50
271.146168630221
 51
288.853856976103
  0
INSERT
  5
5B1C
330
5B18
100
AcDbEntity
  8
寸法線
 62
     0
100
AcDbBlockReference
  2
_OPEN30
 10
53.928846913634
 20
139.367833283174
 30
0.0
 41
6.0
 42
6.0
 43
6.0
 50
180.573084315111
  0
INSERT
  5
5B1D
330
5B18
100
AcDbEntity
  8
寸法線
 62
     0
100
AcDbBlockReference
  2
_OPEN30
 10
156.514074008694
 20
157.456400278276
 30
0.0
 41
6.0
 42
6.0
 43
6.0
 50
19.426941291213
  0
MTEXT
  5
5B1E
330
5B18
100
AcDbEntity
  8
寸法線
 62
     0
 48
10.0
100
AcDbMText
 10
105.03415268045
 20
149.474390604096
 30
0.0
 40
10.0
 41
0.0
 71
     5
 72
     1
  1
約\A1;20%%d
 11
0.9848077142092256
 21
0.1736483977294361
 31
0.0
  0
POINT
  5
5B1F
330
5B18
100
AcDbEntity
  8
DEFPOINTS
 62
     0
100
AcDbPoint
 10
88.749657171704
 20
141.39591713309
 30
0.0
  0
POINT
  5
5B20
330
5B18
100
AcDbEntity
  8
DEFPOINTS
 62
     0
100
AcDbPoint
 10
70.151954413634
 20
394.734043815093
 30
0.0
  0
POINT
  5
5B21
330
5B18
100
AcDbEntity
  8
DEFPOINTS
 62
     0
100
AcDbPoint
 10
53.928846913634
 20
246.108121315093
 30
0.0
  0
POINT
  5
5B22
330
5B18
100
AcDbEntity
  8
DEFPOINTS
 62
     0
100
AcDbPoint
 10
53.928846913634
 20
129.306643815093
 30
0.0
  0
POINT
  5
5B23
330
5B18
100
AcDbEntity
  8
DEFPOINTS
 62
     0
100
AcDbPoint
 10
159.330936913634
 20
149.717143815093
 30
0.0
  0
ENDBLK
  5
5B1A
330
5B18
100
AcDbEntity
  8
0
100
AcDbBlockEnd
  0
BLOCK
  5
5B2C
330
5B2B
100
AcDbEntity
  8
0
100
AcDbBlockBegin
  2
*D33
 70
     1
 10
0.0
 20
0.0
 30
0.0
  3
*D33
  1
*D33
  0
LINE
  5
5B2E
330
5B2B
100
AcDbEntity
  8
寸法線
 62
     0
 48
10.0
100
AcDbLine
 10
52.11369453276
 20
284.724883058328
 30
0.0
 11
52.11369453276
 21
285.349883058328
 31
0.0
  0
LINE
  5
5B2F
330
5B2B
100
AcDbEntity
  8
寸法線
 62
     0
 48
10.0
100
AcDbLine
 10
55.86369453276
 20
284.724883058328
 30
0.0
 11
55.86369453276
 21
285.349883058328
 31
0.0
  0
LINE
  5
5B30
330
5B2B
100
AcDbEntity
  8
寸法線
 62
     0
 48
10.0
100
AcDbLine
 10
55.86369453276
 20
284.099883058328
 30
0.0
 11
81.320801313947
 21
284.099883058328
 31
0.0
  0
LINE
  5
5B31
330
5B2B
100
AcDbEntity
  8
寸法線
 62
     0
 48
10.0
100
AcDbLine
 10
52.11369453276
 20
284.099883058328
 30
0.0
 11
55.86369453276
 21
284.099883058328
 31
0.0
  0
LINE
  5
5B32
330
5B2B
100
AcDbEntity
  8
寸法線
 62
     0
 48
10.0
100
AcDbLine
 10
46.11369453276
 20
284.099883058328
 30
0.0
 11
40.11369453276
 21
284.099883058328
 31
0.0
  0
LINE
  5
5B33
330
5B2B
100
AcDbEntity
  8
寸法線
 62
     0
 48
10.0
100
AcDbLine
 10
61.86369453276
 20
284.099883058328
 30
0.0
 11
67.86369453276
 21
284.099883058328
 31
0.0
  0
INSERT
  5
5B34
330
5B2B
100
AcDbEntity
  8
寸法線
 62
     0
100
AcDbBlockReference
  2
_OPEN30
 10
52.11369453276
 20
284.099883058328
 30
0.0
 41
6.0
 42
6.0
 43
6.0
  0
INSERT
  5
5B35
330
5B2B
100
AcDbEntity
  8
寸法線
 62
     0
100
AcDbBlockReference
  2
_OPEN30
 10
55.86369453276
 20
284.099883058328
 30
0.0
 41
6.0
 42
6.0
 43
6.0
 50
180.0
  0
MTEXT
  5
5B36
330
5B2B
100
AcDbEntity
  8
寸法線
 62
     0
 48
10.0
100
AcDbMText
 10
74.695801313947
 20
289.724883058328
 30
0.0
 40
10.0
 41
0.0
 71
     5
 72
     1
  1
\A1;1.5
  0
POINT
  5
5B37
330
5B2B
100
AcDbEntity
  8
DEFPOINTS
 62
     0
100
AcDbPoint
 10
52.11369453276
 20
284.099883058328
 30
0.0
  0
POINT
  5
5B38
330
5B2B
100
AcDbEntity
  8
DEFPOINTS
 62
     0
100
AcDbPoint
 10
55.86369453276
 20
284.099883058328
 30
0.0
  0
POINT
  5
5B39
330
5B2B
100
AcDbEntity
  8
DEFPOINTS
 62
     0
100
AcDbPoint
 10
55.86369453276
 20
284.099883058328
 30
0.0
  0
ENDBLK
  5
5B2D
330
5B2B
100
AcDbEntity
  8
0
100
AcDbBlockEnd
  0
BLOCK
  5
5B3B
330
5B3A
100
AcDbEntity
  8
0
100
AcDbBlockBegin
  2
*D34
 70
     1
 10
0.0
 20
0.0
 30
0.0
  3
*D34
  1
*D34
  0
LINE
  5
5B3D
330
5B3A
100
AcDbEntity
  8
寸法線
 62
     0
 48
10.0
100
AcDbLine
 10
-23.218793102737
 20
432.776392378311
 30
0.0
 11
-23.295382582837
 21
433.681180648453
 31
0.0
  0
LINE
  5
5B3E
330
5B3A
100
AcDbEntity
  8
寸法線
 62
     0
 48
10.0
100
AcDbLine
 10
131.217724294792
 20
445.849299008716
 30
0.0
 11
131.141134814693
 21
446.754087278858
 31
0.0
  0
LINE
  5
5B3F
330
5B3A
100
AcDbEntity
  8
寸法線
 62
     0
 48
10.0
100
AcDbLine
 10
-17.21132987526
 20
432.94171959375
 30
0.0
 11
125.267950629994
 21
445.002457314336
 31
0.0
  0
INSERT
  5
5B40
330
5B3A
100
AcDbEntity
  8
寸法線
 62
     0
100
AcDbBlockReference
  2
_OPEN30
 10
-23.189948321397
 20
432.435635138841
 30
0.0
 41
6.0
 42
6.0
 43
6.0
 50
184.838499403605
  0
INSERT
  5
5B41
330
5B3A
100
AcDbEntity
  8
寸法線
 62
     0
100
AcDbBlockReference
  2
_OPEN30
 10
131.246569076132
 20
445.508541769245
 30
0.0
 41
6.0
 42
6.0
 43
6.0
 50
4.838499403605
  0
MTEXT
  5
5B42
330
5B3A
100
AcDbEntity
  8
寸法線
 62
     0
 48
10.0
100
AcDbMText
 10
100.145153808957
 20
448.520952975926
 30
0.0
 40
10.0
 41
0.0
 71
     5
 72
     1
  1
\A1;φ155
 11
0.9964364076896375
 21
0.08434740915149971
 31
0.0
  0
POINT
  5
5B43
330
5B3A
100
AcDbEntity
  8
DEFPOINTS
 62
     0
100
AcDbPoint
 10
-23.166075972018
 20
432.153619623505
 30
0.0
  0
POINT
  5
5B44
330
5B3A
100
AcDbEntity
  8
DEFPOINTS
 62
     0
100
AcDbPoint
 10
131.270441425512
 20
445.22652625391
 30
0.0
  0
POINT
  5
5B45
330
5B3A
100
AcDbEntity
  8
DEFPOINTS
 62
     0
100
AcDbPoint
 10
131.246569076132
 20
445.508541769245
 30
0.0
  0
ENDBLK
  5
5B3C
330
5B3A
100
AcDbEntity
  8
0
100
AcDbBlockEnd
  0
BLOCK
  5
5B47
330
5B46
100
AcDbEntity
  8
0
100
AcDbBlockBegin
  2
*D35
 70
     1
 10
0.0
 20
0.0
 30
0.0
  3
*D35
  1
*D35
  0
LINE
  5
5B49
330
5B46
100
AcDbEntity
  8
寸法線
 62
     0
 48
10.0
100
AcDbLine
 10
-5.31211027126
 20
412.53829330228
 30
0.0
 11
-5.055531810199
 21
411.954725120735
 31
0.0
  0
LINE
  5
5B4A
330
5B46
100
AcDbEntity
  8
寸法線
 62
     0
 48
10.0
100
AcDbLine
 10
113.693218184534
 20
464.861577879843
 30
0.0
 11
113.949796645596
 21
464.278009698298
 31
0.0
  0
LINE
  5
5B4B
330
5B46
100
AcDbEntity
  8
寸法線
 62
     0
 48
10.0
100
AcDbLine
 10
-0.066085854754
 20
415.513928550958
 30
0.0
 11
107.954133509652
 21
463.007370662116
 31
0.0
  0
INSERT
  5
5B4C
330
5B46
100
AcDbEntity
  8
寸法線
 62
     0
100
AcDbBlockReference
  2
_OPEN30
 10
-5.558640400448
 20
413.099007317756
 30
0.0
 41
6.0
 42
6.0
 43
6.0
 50
203.733737201751
  0
INSERT
  5
5B4D
330
5B46
100
AcDbEntity
  8
寸法線
 62
     0
100
AcDbBlockReference
  2
_OPEN30
 10
113.446688055347
 20
465.422291895319
 30
0.0
 41
6.0
 42
6.0
 43
6.0
 50
23.733737201751
  0
MTEXT
  5
5B4E
330
5B46
100
AcDbEntity
  8
寸法線
 62
     0
 48
10.0
100
AcDbMText
 10
94.536797640524
 20
463.258518048119
 30
0.0
 40
10.0
 41
0.0
 71
     5
 72
     1
  1
\A1;φ130
 11
0.9154257576157172
 21
0.4024868722004364
 31
0.0
  0
POINT
  5
5B4F
330
5B46
100
AcDbEntity
  8
DEFPOINTS
 62
     0
100
AcDbPoint
 10
-5.563664566385
 20
413.11043440079
 30
0.0
  0
POINT
  5
5B50
330
5B46
100
AcDbEntity
  8
DEFPOINTS
 62
     0
100
AcDbPoint
 10
113.44166388941
 20
465.433718978354
 30
0.0
  0
POINT
  5
5B51
330
5B46
100
AcDbEntity
  8
DEFPOINTS
 62
     0
100
AcDbPoint
 10
113.446688055347
 20
465.422291895319
 30
0.0
  0
ENDBLK
  5
5B48
330
5B46
100
AcDbEntity
  8
0
100
AcDbBlockEnd
  0
BLOCK
  5
5B76
330
5B75
100
AcDbEntity
  8
0
100
AcDbBlockBegin
  2
*D36
 70
     1
 10
0.0
 20
0.0
 30
0.0
  3
*D36
  1
*D36
  0
LINE
  5
5B78
330
5B75
100
AcDbEntity
  8
寸法線
 62
     0
 48
10.0
100
AcDbLine
 10
541.218041348212
 20
413.541258364275
 30
0.0
 11
541.218041348212
 21
394.226458336277
 31
0.0
  0
LINE
  5
5B79
330
5B75
100
AcDbEntity
  8
寸法線
 62
     0
 48
10.0
100
AcDbLine
 10
566.218041348212
 20
413.541258364275
 30
0.0
 11
566.218041348212
 21
394.226458336277
 31
0.0
  0
LINE
  5
5B7A
330
5B75
100
AcDbEntity
  8
寸法線
 62
     0
 48
10.0
100
AcDbLine
 10
547.218041348212
 20
395.476458336277
 30
0.0
 11
560.218041348212
 21
395.476458336277
 31
0.0
  0
INSERT
  5
5B7B
330
5B75
100
AcDbEntity
  8
寸法線
 62
     0
100
AcDbBlockReference
  2
_OPEN30
 10
541.218041348212
 20
395.476458336277
 30
0.0
 41
6.0
 42
6.0
 43
6.0
 50
180.0
  0
INSERT
  5
5B7C
330
5B75
100
AcDbEntity
  8
寸法線
 62
     0
100
AcDbBlockReference
  2
_OPEN30
 10
566.218041348212
 20
395.476458336277
 30
0.0
 41
6.0
 42
6.0
 43
6.0
  0
MTEXT
  5
5B7D
330
5B75
100
AcDbEntity
  8
寸法線
 62
     0
 48
10.0
100
AcDbMText
 10
553.718041348212
 20
401.106666669611
 30
0.0
 40
10.0
 41
0.0
 71
     5
 72
     1
  1
\A1;25
  0
POINT
  5
5B7E
330
5B75
100
AcDbEntity
  8
DEFPOINTS
 62
     0
100
AcDbPoint
 10
541.218041348212
 20
414.166258364275
 30
0.0
  0
POINT
  5
5B7F
330
5B75
100
AcDbEntity
  8
DEFPOINTS
 62
     0
100
AcDbPoint
 10
566.218041348212
 20
414.166258364275
 30
0.0
  0
POINT
  5
5B80
330
5B75
100
AcDbEntity
  8
DEFPOINTS
 62
     0
100
AcDbPoint
 10
566.218041348212
 20
395.476458336277
 30
0.0
  0
ENDBLK
  5
5B77
330
5B75
100
AcDbEntity
  8
0
100
AcDbBlockEnd
  0
BLOCK
  5
5E07
330
5E06
100
AcDbEntity
  8
0
100
AcDbBlockBegin
  2
*D53
 70
     1
 10
0.0
 20
0.0
 30
0.0
  3
*D53
  1
*D53
  0
LINE
  5
5E09
330
5E06
100
AcDbEntity
  8
寸法線
 62
     0
 48
10.0
100
AcDbLine
 10
864.521895244246
 20
490.306603364275
 30
0.0
 11
930.558519854468
 21
490.306603364275
 31
0.0
  0
LINE
  5
5E0A
330
5E06
100
AcDbEntity
  8
寸法線
 62
     0
 48
10.0
100
AcDbLine
 10
864.521895244246
 20
388.306603364275
 30
0.0
 11
930.558519854468
 21
388.306603364275
 31
0.0
  0
LINE
  5
5E0B
330
5E06
100
AcDbEntity
  8
寸法線
 62
     0
 48
10.0
100
AcDbLine
 10
929.308519854468
 20
484.306603364275
 30
0.0
 11
929.308519854468
 21
394.306603364275
 31
0.0
  0
INSERT
  5
5E0C
330
5E06
100
AcDbEntity
  8
寸法線
 62
     0
100
AcDbBlockReference
  2
_OPEN30
 10
929.308519854468
 20
490.306603364275
 30
0.0
 41
6.0
 42
6.0
 43
6.0
 50
90.0
  0
INSERT
  5
5E0D
330
5E06
100
AcDbEntity
  8
寸法線
 62
     0
100
AcDbBlockReference
  2
_OPEN30
 10
929.308519854468
 20
388.306603364275
 30
0.0
 41
6.0
 42
6.0
 43
6.0
 50
270.0
  0
MTEXT
  5
5E0E
330
5E06
100
AcDbEntity
  8
寸法線
 62
     0
 48
10.0
100
AcDbMText
 10
924.679353187801
 20
438.694603864275
 30
0.0
 40
8.0
 41
0.0
 71
     5
 72
     1
  1
\A1;φ102
 11
0.0
 21
1.0
 31
0.0
  0
POINT
  5
5E0F
330
5E06
100
AcDbEntity
  8
DEFPOINTS
 62
     0
100
AcDbPoint
 10
863.896895244246
 20
490.306603364275
 30
0.0
  0
POINT
  5
5E10
330
5E06
100
AcDbEntity
  8
DEFPOINTS
 62
     0
100
AcDbPoint
 10
863.896895244246
 20
388.306603364275
 30
0.0
  0
POINT
  5
5E11
330
5E06
100
AcDbEntity
  8
DEFPOINTS
 62
     0
100
AcDbPoint
 10
929.308519854468
 20
388.306603364275
 30
0.0
  0
ENDBLK
  5
5E08
330
5E06
100
AcDbEntity
  8
0
100
AcDbBlockEnd
  0
ENDSEC
  0
SECTION
  2
ENTITIES
  0
TEXT
  5
3002
330
1A
100
AcDbEntity
  8
寸法線
100
AcDbText
 10
599.040698045144
 20
0.031803735848
 30
0.0
 40
10.0
  1
    Ｃ－Ｈ間：ＯＮ
 41
0.865384615385
  7
EXCADSTD
 72
     5
 11
689.040698045144
 21
0.031803735848
 31
0.0
100
AcDbText
  0
TEXT
  5
3003
330
1A
100
AcDbEntity
  8
寸法線
100
AcDbText
 10
599.040698045144
 20
12.421537392677
 30
0.0
 40
10.0
  1
端子Ｃ－Ｌ間：ＯＦＦ
 41
0.859598853868
  7
EXCADSTD
 72
     5
 11
699.040698045144
 21
12.421537392677
 31
0.0
100
AcDbText
  0
TEXT
  5
3004
330
1A
100
AcDbEntity
  8
寸法線
100
AcDbText
 10
599.040698045144
 20
30.293997869778
 30
0.0
 40
10.0
  1
    Ｃ－Ｈ間：ＯＦＦ
 41
0.859598853868
  7
EXCADSTD
 72
     5
 11
699.040698045144
 21
30.293997869778
 31
0.0
100
AcDbText
  0
TEXT
  5
3005
330
1A
100
AcDbEntity
  8
寸法線
100
AcDbText
 10
599.040698045144
 20
43.172194892677
 30
0.0
 40
10.0
  1
端子Ｃ－Ｌ間：ＯＮ
 41
0.865384615385
  7
EXCADSTD
 72
     5
 11
689.040698045144
 21
43.172194892677
 31
0.0
100
AcDbText
  0
LINE
  5
3008
102
{ACAD_REACTORS
330
36B7
102
}
330
1A
100
AcDbEntity
  8
寸法線
100
AcDbLine
 10
589.415726557438
 20
9.671614892677
 30
0.0
 11
589.792620545144
 21
10.048508880384
 31
0.0
  0
TEXT
  5
3081
330
1A
100
AcDbEntity
  8
寸法線
100
AcDbText
 10
497.76407923815
 20
-4.264594532756
 30
0.0
 40
10.0
  1
Ｈ
100
AcDbText
  0
TEXT
  5
3082
330
1A
100
AcDbEntity
  8
寸法線
100
AcDbText
 10
472.01357673815
 20
-4.014599532756
 30
0.0
 40
10.0
  1
Ｃ
100
AcDbText
  0
TEXT
  5
3083
330
1A
100
AcDbEntity
  8
寸法線
100
AcDbText
 10
446.13802673815
 20
-4.264594532756
 30
0.0
 40
10.0
  1
Ｌ
100
AcDbText
  0
TEXT
  5
308A
330
1A
100
AcDbEntity
  8
寸法線
100
AcDbText
 10
438.75765673815
 20
39.116848035007
 30
0.0
 40
10.0
  1
キ
100
AcDbText
  0
TEXT
  5
308B
330
1A
100
AcDbEntity
  8
寸法線
100
AcDbText
 10
491.75875423815
 20
39.866893035007
 30
0.0
 40
10.0
  1
キ
100
AcDbText
  0
TEXT
  5
308C
330
1A
100
AcDbEntity
  8
寸法線
100
AcDbText
 10
465.25820423815
 20
39.866893035007
 30
0.0
 40
10.0
  1
キ
100
AcDbText
  0
CIRCLE
  5
308D
330
1A
100
AcDbEntity
  8
寸法線
100
AcDbCircle
 10
502.57387923815
 20
9.827592967244
 30
0.0
 40
1.9999975
  0
CIRCLE
  5
308E
330
1A
100
AcDbEntity
  8
寸法線
100
AcDbCircle
 10
476.69138673815
 20
9.827592967244
 30
0.0
 40
1.9999975
  0
CIRCLE
  5
308F
330
1A
100
AcDbEntity
  8
寸法線
100
AcDbCircle
 10
450.80889423815
 20
9.827592967244
 30
0.0
 40
1.9999975
  0
LINE
  5
3090
330
1A
100
AcDbEntity
  8
寸法線
100
AcDbLine
 10
502.57387923815
 20
117.076737967244
 30
0.0
 11
502.57387923815
 21
11.827637967244
 31
0.0
  0
LINE
  5
3091
330
1A
100
AcDbEntity
  8
寸法線
100
AcDbLine
 10
476.69138673815
 20
68.167742967244
 30
0.0
 11
476.69138673815
 21
11.827637967244
 31
0.0
  0
LINE
  5
3092
330
1A
100
AcDbEntity
  8
寸法線
100
AcDbLine
 10
450.80889423815
 20
117.076737967244
 30
0.0
 11
450.80889423815
 21
11.827637967244
 31
0.0
  0
LINE
  5
3093
330
1A
100
AcDbEntity
  8
寸法線
100
AcDbLine
 10
476.69138673815
 20
72.167757967244
 30
0.0
 11
468.87385173815
 21
90.443742967244
 31
0.0
  0
CIRCLE
  5
3094
330
1A
100
AcDbEntity
  8
寸法線
100
AcDbCircle
 10
486.50889173815
 20
90.443742967244
 30
0.0
 40
2.0000075
  0
LINE
  5
3095
330
1A
100
AcDbEntity
  8
寸法線
100
AcDbLine
 10
486.50889173815
 20
117.076737967244
 30
0.0
 11
486.50889173815
 21
92.443712967244
 31
0.0
  0
CIRCLE
  5
3096
330
1A
100
AcDbEntity
  8
寸法線
100
AcDbCircle
 10
466.87388173815
 20
90.443742967244
 30
0.0
 40
2.0000075
  0
CIRCLE
  5
3097
330
1A
100
AcDbEntity
  8
寸法線
100
AcDbCircle
 10
476.69138673815
 20
70.167787967244
 30
0.0
 40
2.0000075
  0
LINE
  5
3098
330
1A
100
AcDbEntity
  8
寸法線
100
AcDbLine
 10
486.50889173815
 20
117.076737967244
 30
0.0
 11
502.57387923815
 21
117.076737967244
 31
0.0
  0
LINE
  5
3099
330
1A
100
AcDbEntity
  8
寸法線
100
AcDbLine
 10
466.87388173815
 20
117.076737967244
 30
0.0
 11
466.87388173815
 21
92.443712967244
 31
0.0
  0
LINE
  5
309A
330
1A
100
AcDbEntity
  8
寸法線
100
AcDbLine
 10
450.80889423815
 20
117.076737967244
 30
0.0
 11
466.87388173815
 21
117.076737967244
 31
0.0
  0
LINE
  5
30BE
102
{ACAD_REACTORS
330
36B7
102
}
330
1A
100
AcDbEntity
  8
寸法線
100
AcDbLine
 10
552.292620545144
 20
22.171614892677
 30
0.0
 11
552.292620545144
 21
9.671614892677
 31
0.0
  0
LINE
  5
30BF
102
{ACAD_REACTORS
330
36B7
102
}
330
1A
100
AcDbEntity
  8
寸法線
100
AcDbLine
 10
589.792620545144
 20
22.171614892677
 30
0.0
 11
552.292620545144
 21
22.171614892677
 31
0.0
  0
LINE
  5
30C0
102
{ACAD_REACTORS
330
36B7
102
}
330
1A
100
AcDbEntity
  8
寸法線
100
AcDbLine
 10
589.792620545144
 20
9.671614892677
 30
0.0
 11
589.792620545144
 21
22.171614892677
 31
0.0
  0
LINE
  5
30C1
102
{ACAD_REACTORS
330
36B7
102
}
330
1A
100
AcDbEntity
  8
寸法線
100
AcDbLine
 10
552.292620545144
 20
9.671614892677
 30
0.0
 11
589.792620545144
 21
9.671614892677
 31
0.0
  0
LINE
  5
30C2
330
1A
100
AcDbEntity
  8
寸法線
100
AcDbLine
 10
552.042605545144
 20
53.172284892677
 30
0.0
 11
552.042605545144
 21
40.672284892677
 31
0.0
  0
LINE
  5
30C3
330
1A
100
AcDbEntity
  8
寸法線
100
AcDbLine
 10
589.542605545144
 20
53.172284892677
 30
0.0
 11
552.042605545144
 21
53.172284892677
 31
0.0
  0
LINE
  5
30C4
330
1A
100
AcDbEntity
  8
寸法線
100
AcDbLine
 10
589.542605545144
 20
40.672284892677
 30
0.0
 11
589.542605545144
 21
53.172284892677
 31
0.0
  0
LINE
  5
30C5
330
1A
100
AcDbEntity
  8
寸法線
100
AcDbLine
 10
552.042605545144
 20
40.672284892677
 30
0.0
 11
589.542605545144
 21
40.672284892677
 31
0.0
  0
LINE
  5
314D
330
1A
100
AcDbEntity
  8
下書線
100
AcDbLine
 10
431.378084864805
 20
534.808617114275
 30
0.0
 11
894.207976238539
 21
534.808617114275
 31
0.0
  0
MTEXT
  5
33D6
330
1A
100
AcDbEntity
  8
寸法線
 48
10.0
100
AcDbMText
 10
503.608496712686
 20
545.809889265935
 30
0.0
 40
10.0
 41
0.0
 71
     1
 72
     5
  1
SUS304
  0
MTEXT
  5
33E8
330
1A
100
AcDbEntity
  8
寸法線
 48
10.0
100
AcDbMText
 10
561.271610728742
 20
546.372084470503
 30
0.0
 40
10.0
 41
0.0
 71
     1
 72
     5
  1
SUS304
  0
MTEXT
  5
34A7
330
1A
100
AcDbEntity
  8
寸法線
 48
10.0
100
AcDbMText
 10
440.919436455752
 20
545.783923036547
 30
0.0
 40
10.0
 41
0.0
 71
     1
 72
     5
  1
SUS304
  0
HATCH
  5
36B7
330
1A
100
AcDbEntity
  8
細線
 48
10.0
100
AcDbHatch
 10
0.0
 20
0.0
 30
0.0
210
0.0
220
0.0
230
1.0
  2
ANSI31
 70
     0
 71
     1
 91
        1
 92
        7
 72
     0
 73
     1
 93
        5
 10
589.4157265574378
 20
9.67161489267744
 10
589.7926205451439
 20
10.04850888038368
 10
589.7926205451439
 20
22.17161489267744
 10
552.2926205451439
 20
22.17161489267744
 10
552.2926205451439
 20
9.67161489267744
 97
        5
330
3008
330
30C0
330
30BF
330
30BE
330
30C1
 75
     0
 76
     1
 52
0.0
 41
1.0
 77
     0
 78
     1
 53
45.0
 43
400.3984118891667
 44
-36.63825244731646
 45
-2.245064030267288
 46
2.245064030267288
 79
     0
 47
0.103426171505
 98
        1
 10
581.5430911178508
 20
17.39910654057036
  0
LINE
  5
3B85
330
1A
100
AcDbEntity
  8
中心線
 48
10.0
100
AcDbLine
 10
508.269304555826
 20
439.306603364275
 30
0.0
 11
908.164961244244
 21
439.306603364275
 31
0.0
  0
MTEXT
  5
4006
330
1A
100
AcDbEntity
  8
寸法線
 48
10.0
100
AcDbMText
 10
620.419672011978
 20
546.532710797707
 30
0.0
 40
10.0
 41
0.0
 71
     1
 72
     5
  1
SUS304
  0
DIMENSION
  5
43DD
330
1A
100
AcDbEntity
  8
寸法線
 48
10.0
100
AcDbDimension
  2
*D9
 10
908.164929244244
 20
308.751717042712
 30
0.0
 11
833.177335244244
 21
314.376717042712
 31
0.0
 70
    32
  3
ISO-25
100
AcDbAlignedDimension
 13
758.189741244244
 23
328.526267571207
 33
0.0
 14
908.164929244244
 24
338.586352723829
 34
0.0
100
AcDbRotatedDimension
1001
ACAD
1000
DSTYLE
1002
{
1070
     5
1000
OPEN30
1070
    41
1040
6.0
1070
    47
1040
0.1
1070
    48
1040
0.1
1070
    73
1070
     0
1070
   140
1040
10.0
1070
   271
1070
     1
1070
   272
1070
     1
1070
   341
1005
2AEB
1002
}
  0
DIMENSION
  5
43DE
330
1A
100
AcDbEntity
  8
寸法線
 48
10.0
100
AcDbDimension
  2
*D10
 10
768.189741244244
 20
329.776267571207
 30
0.0
 11
763.189741244244
 21
334.401267571207
 31
0.0
 70
    32
  3
ISO-25
100
AcDbAlignedDimension
 13
758.189741244244
 23
361.806525864275
 33
0.0
 14
768.189741244244
 24
361.806525864275
 34
0.0
100
AcDbRotatedDimension
1001
ACAD
1000
DSTYLE
1002
{
1070
     5
1000
OPEN30
1070
    41
1040
6.0
1070
    47
1040
0.1
1070
    48
1040
0.1
1070
    73
1070
     0
1070
   140
1040
8.0
1070
   271
1070
     1
1070
   272
1070
     1
1070
   341
1005
2AEB
1002
}
  0
DIMENSION
  5
43DF
330
1A
100
AcDbEntity
  8
寸法線
 48
10.0
100
AcDbDimension
  2
*D11
 10
825.189741244244
 20
329.776267571207
 30
0.0
 11
796.689741244244
 21
329.776267571207
 31
0.0
 70
   160
  3
ISO-25
100
AcDbAlignedDimension
 13
768.189741244244
 23
361.806525864275
 33
0.0
 14
825.189741244244
 24
357.363489364275
 34
0.0
100
AcDbRotatedDimension
1001
ACAD
1000
DSTYLE
1002
{
1070
     5
1000
OPEN30
1070
    41
1040
6.0
1070
    47
1040
0.1
1070
    48
1040
0.1
1070
    73
1070
     0
1070
   140
1040
10.0
1070
   271
1070
     1
1070
   272
1070
     1
1070
   341
1005
2AEB
1002
}
  0
DIMENSION
  5
43E0
330
1A
100
AcDbEntity
  8
寸法線
 48
10.0
100
AcDbDimension
  2
*D12
 10
846.189741244244
 20
329.776267571207
 30
0.0
 11
835.689741244244
 21
335.40647590454
 31
0.0
 70
    32
  3
ISO-25
100
AcDbAlignedDimension
 13
825.189741244244
 23
357.363489364275
 33
0.0
 14
846.189741244244
 24
388.306603364275
 34
0.0
100
AcDbRotatedDimension
1001
ACAD
1000
DSTYLE
1002
{
1070
     5
1000
OPEN30
1070
    41
1040
6.0
1070
    47
1040
0.1
1070
    48
1040
0.1
1070
    73
1070
     0
1070
   140
1040
10.0
1070
   271
1070
     1
1070
   272
1070
     1
1070
   341
1005
2AEB
1002
}
  0
DIMENSION
  5
43E1
330
1A
100
AcDbEntity
  8
寸法線
 48
10.0
100
AcDbDimension
  2
*D13
 10
846.189741244244
 20
329.776267571207
 30
0.0
 11
877.177335244244
 21
335.401267571207
 31
0.0
 70
    32
  3
ISO-25
100
AcDbAlignedDimension
 13
908.164929244244
 23
372.863171287537
 33
0.0
 14
846.189741244244
 24
388.306603364275
 34
0.0
100
AcDbRotatedDimension
1001
ACAD
1000
DSTYLE
1002
{
1070
     5
1000
OPEN30
1070
    41
1040
6.0
1070
    47
1040
0.1
1070
    48
1040
0.1
1070
    73
1070
     0
1070
   140
1040
10.0
1070
   271
1070
     1
1070
   272
1070
     1
1070
   341
1005
2AEB
1002
}
  0
MTEXT
  5
4435
102
{ACAD_XDICTIONARY
360
5B71
102
}
330
1A
100
AcDbEntity
  8
寸法線
 48
10.0
100
AcDbMText
 10
686.191630235991
 20
535.808160338988
 30
0.0
 40
10.0
 41
0.0
 71
     7
 72
     1
  1
\A1;フランジ\Pアルミ鋳物
1001
ACADANNOTATIVE
1000
AnnotativeData
1002
{
1070
     1
1070
     0
1002
}
  0
MTEXT
  5
4436
330
1A
100
AcDbEntity
  8
寸法線
 48
10.0
100
AcDbMText
 10
759.455520911483
 20
535.685203786417
 30
0.0
 40
10.0
 41
0.0
 71
     7
 72
     1
  1
\A1;アルミ鋳物
  0
MTEXT
  5
4437
330
1A
100
AcDbEntity
  8
寸法線
 48
10.0
100
AcDbMText
 10
831.263711667482
 20
535.112804554703
 30
0.0
 40
10.0
 41
0.0
 71
     7
 72
     1
  1
\A1;Oリング
  0
MTEXT
  5
4438
330
1A
100
AcDbEntity
  8
寸法線
 48
10.0
100
AcDbMText
 10
881.063782312628
 20
534.826604938846
 30
0.0
 40
10.0
 41
0.0
 71
     7
 72
     1
  1
\A1;アルミ鋳物
  0
LINE
  5
4729
330
1A
100
AcDbEntity
  8
外形線
100
AcDbLine
 10
704.01091452902
 20
422.506615364275
 30
0.0
 11
758.189741244244
 21
422.506615364275
 31
0.0
  0
LINE
  5
4733
330
1A
100
AcDbEntity
  8
外形線
100
AcDbLine
 10
704.018282530737
 20
456.106591364275
 30
0.0
 11
758.189741244244
 21
456.106591364275
 31
0.0
  0
LEADER
  5
4AB0
330
1A
100
AcDbEntity
  8
寸法線
 48
10.0
100
AcDbLeader
  3
ISO-25
 76
     3
 10
664.960653542708
 20
456.368622742634
 30
0.0
 10
664.960653542708
 20
534.855474789143
 30
0.0
 10
655.339275794121
 20
534.855474789143
 30
0.0
1001
ACAD
1000
DSTYLE
1002
{
1070
     5
1000
OPEN30
1070
   147
1040
0.625
1070
    77
1070
     0
1070
    41
1040
6.0
1070
    47
1040
0.1
1070
    48
1040
0.1
1070
    73
1070
     0
1070
   140
1040
5.0
1070
   271
1070
     1
1070
   272
1070
     1
1070
   341
1005
2AEB
1070
   342
1005
2AEB
1002
}
  0
LEADER
  5
4AB1
330
1A
100
AcDbEntity
  8
寸法線
 48
10.0
100
AcDbLeader
  3
ISO-25
 76
     3
 10
760.951093557305
 20
516.803500328597
 30
0.0
 10
746.251434768688
 20
534.855474789143
 30
0.0
 10
735.844640261497
 20
534.855474789143
 30
0.0
1001
ACAD
1000
DSTYLE
1002
{
1070
     5
1000
OPEN30
1070
   147
1040
0.625
1070
    77
1070
     0
1070
    41
1040
6.0
1070
    47
1040
0.1
1070
    48
1040
0.1
1070
    73
1070
     0
1070
   140
1040
5.0
1070
   271
1070
     1
1070
   272
1070
     1
1070
   341
1005
2AEB
1070
   342
1005
2AEB
1002
}
  0
LEADER
  5
4AB2
330
1A
100
AcDbEntity
  8
寸法線
 48
10.0
100
AcDbLeader
  3
ISO-25
 76
     3
 10
585.030284665001
 20
444.207043814214
 30
0.0
 10
603.305321222736
 20
534.855474789143
 30
0.0
 10
591.916757264339
 20
534.855474789143
 30
0.0
1001
ACAD
1000
DSTYLE
1002
{
1070
     5
1000
OPEN30
1070
   147
1040
0.625
1070
    77
1070
     0
1070
    41
1040
6.0
1070
    47
1040
0.1
1070
    48
1040
0.1
1070
    73
1070
     0
1070
   140
1040
5.0
1070
   271
1070
     1
1070
   272
1070
     1
1070
   341
1005
2AEB
1070
   342
1005
2AEB
1002
}
  0
LEADER
  5
4AB3
330
1A
100
AcDbEntity
  8
寸法線
 48
10.0
100
AcDbLeader
  3
ISO-25
 76
     3
 10
554.383861773887
 20
459.084956172065
 30
0.0
 10
547.147924177545
 20
534.855474789143
 30
0.0
 10
535.759360219149
 20
534.855474789143
 30
0.0
1001
ACAD
1000
DSTYLE
1002
{
1070
     5
1000
OPEN30
1070
   147
1040
0.625
1070
    77
1070
     0
1070
    41
1040
6.0
1070
    47
1040
0.1
1070
    48
1040
0.1
1070
    73
1070
     0
1070
   140
1040
5.0
1070
   271
1070
     1
1070
   272
1070
     1
1070
   341
1005
2AEB
1070
   342
1005
2AEB
1002
}
  0
LEADER
  5
4AB4
330
1A
100
AcDbEntity
  8
寸法線
 48
10.0
100
AcDbLeader
  3
ISO-25
 76
     3
 10
498.573481786049
 20
428.54608382083
 30
0.0
 10
485.443883934376
 20
534.84419709556
 30
0.0
 10
473.073550524773
 20
534.84419709556
 30
0.0
1001
ACAD
1000
DSTYLE
1002
{
1070
     5
1000
OPEN30
1070
   147
1040
0.625
1070
    77
1070
     0
1070
    41
1040
6.0
1070
    47
1040
0.1
1070
    48
1040
0.1
1070
    73
1070
     0
1070
   140
1040
5.0
1070
   271
1070
     1
1070
   272
1070
     1
1070
   341
1005
2AEB
1070
   342
1005
2AEB
1002
}
  0
LEADER
  5
4ACA
330
1A
100
AcDbEntity
  8
寸法線
 48
10.0
100
AcDbLeader
  3
ISO-25
 76
     3
 10
847.051053362283
 20
490.332049823984
 30
0.0
 10
831.066204895864
 20
534.778647994786
 30
0.0
 10
839.600385150977
 20
534.778647994786
 30
0.0
1001
ACAD
1000
DSTYLE
1002
{
1070
     5
1000
OPEN30
1070
   147
1040
0.625
1070
    77
1070
     0
1070
    41
1040
6.0
1070
    47
1040
0.1
1070
    48
1040
0.1
1070
    73
1070
     0
1070
   140
1040
5.0
1070
   271
1070
     1
1070
   272
1070
     1
1070
   341
1005
2AEB
1070
   342
1005
2AEB
1002
}
  0
LEADER
  5
4ACB
330
1A
100
AcDbEntity
  8
寸法線
 48
10.0
100
AcDbLeader
  3
ISO-25
 76
     3
 10
820.510404895716
 20
484.111495986164
 30
0.0
 10
818.540238473735
 20
534.778647994786
 30
0.0
 10
807.666041921149
 20
534.778647994786
 30
0.0
1001
ACAD
1000
DSTYLE
1002
{
1070
     5
1000
OPEN30
1070
   147
1040
0.625
1070
    77
1070
     0
1070
    41
1040
6.0
1070
    47
1040
0.1
1070
    48
1040
0.1
1070
    73
1070
     0
1070
   140
1040
5.0
1070
   271
1070
     1
1070
   272
1070
     1
1070
   341
1005
2AEB
1070
   342
1005
2AEB
1002
}
  0
LEADER
  5
4ACC
330
1A
100
AcDbEntity
  8
寸法線
 48
10.0
100
AcDbLeader
  3
ISO-25
 76
     3
 10
880.150586873313
 20
487.241207971604
 30
0.0
 10
880.012272204247
 20
534.778647994786
 30
0.0
 10
889.922927350647
 20
534.778647994786
 30
0.0
1001
ACAD
1000
DSTYLE
1002
{
1070
     5
1000
OPEN30
1070
   147
1040
0.625
1070
    77
1070
     0
1070
    41
1040
6.0
1070
    47
1040
0.1
1070
    48
1040
0.1
1070
    73
1070
     0
1070
   140
1040
5.0
1070
   271
1070
     1
1070
   272
1070
     1
1070
   341
1005
2AEB
1070
   342
1005
2AEB
1002
}
  0
MTEXT
  5
4AF0
330
1A
100
AcDbEntity
  8
寸法線
 48
10.0
100
AcDbMText
 10
759.259401025082
 20
358.99400612833
 30
0.0
 40
5.0
 41
0.0
 71
     1
 72
     1
  1
\A1;
  0
LINE
  5
4EEE
330
1A
100
AcDbEntity
  8
中心線
 48
10.0
100
AcDbLine
 10
239.066169004708
 20
439.306603364276
 30
0.0
 11
419.701492460204
 21
439.306603364275
 31
0.0
  0
TEXT
  5
4FB4
330
1A
100
AcDbEntity
  8
寸法線
100
AcDbText
 10
523.376974170572
 20
67.106093529935
 30
0.0
 40
10.0
  1
接点容量 AC250V 10A 抵抗負荷
 50
359.866852582298
 41
1.120559791418
 72
     5
 11
723.583116313202
 21
66.640841480893
 31
0.0
100
AcDbText
  0
DIMENSION
  5
54DE
330
1A
100
AcDbEntity
  8
寸法線
 48
10.0
100
AcDbDimension
  2
*D15
 10
225.389538527873
 20
149.717143815093
 30
0.0
 11
279.686322761056
 21
149.474390604096
 31
0.0
 70
    34
  1
約<>
  3
ISO-25
100
AcDb2LineAngularDimension
 13
330.791628527873
 23
246.108121315093
 33
0.0
 14
330.791628527873
 24
129.306643815093
 34
0.0
 15
314.568521027873
 25
394.734043815093
 35
0.0
 16
261.620900940354
 26
147.452742257767
 36
0.0
1001
ACAD
1000
DSTYLE
1002
{
1070
     5
1000
OPEN30
1070
    41
1040
6.0
1070
    47
1040
0.1
1070
    48
1040
0.1
1070
    73
1070
     0
1070
   140
1040
10.0
1070
   271
1070
     1
1070
   272
1070
     1
1070
   341
1005
2AEB
1002
}
  0
MTEXT
  5
54DF
330
1A
100
AcDbEntity
  8
寸法線
 48
10.0
100
AcDbMText
 10
285.676991175564
 20
126.797586717628
 30
0.0
 40
10.0
 41
99.133838612953
 71
     1
 72
     5
  1
羽根通常停止位置
  0
MTEXT
  5
54E0
330
1A
100
AcDbEntity
  8
寸法線
 48
10.0
100
AcDbMText
 10
201.363840532606
 20
145.873753677383
 30
0.0
 40
10.0
 41
57.444083257344
 71
     1
 72
     5
  1
動作角度
  0
DIMENSION
  5
54E1
330
1A
100
AcDbEntity
  8
寸法線
 48
10.0
100
AcDbDimension
  2
*D16
 10
225.389538527873
 20
149.717143815093
 30
0.0
 11
274.668005591554
 21
234.739699570958
 31
0.0
 70
   162
  1
約<>
  3
ISO-25
100
AcDb2LineAngularDimension
 13
273.702393527873
 23
226.246951315093
 33
0.0
 14
262.204516027873
 24
183.336338815093
 34
0.0
 15
314.568521027873
 25
394.734043815093
 35
0.0
 16
260.731001164162
 26
227.875817592834
 36
0.0
1001
ACAD
1000
DSTYLE
1002
{
1070
   287
1070
     5
1070
     5
1000
OPEN30
1070
    41
1040
6.0
1070
    47
1040
0.1
1070
    48
1040
0.1
1070
    73
1070
     0
1070
   140
1040
10.0
1070
   271
1070
     1
1070
   272
1070
     1
1070
   279
1070
     2
1070
   341
1005
2AEB
1002
}
  0
LINE
  5
54E2
330
1A
100
AcDbEntity
  8
寸法線
100
AcDbLine
 10
330.73178090874
 20
193.387298151297
 30
0.0
 11
330.791628527873
 21
129.306643815093
 31
0.0
  0
LINE
  5
54E3
330
1A
100
AcDbEntity
  8
寸法線
100
AcDbLine
 10
314.568521027873
 20
394.734043815093
 30
0.0
 11
225.389538527873
 21
149.717143815093
 31
0.0
  0
LINE
  5
54E4
330
1A
100
AcDbEntity
  8
寸法線
100
AcDbLine
 10
273.702393527873
 20
226.246951315093
 30
0.0
 11
262.204516027873
 21
183.336338815093
 31
0.0
  0
ARC
  5
54E5
330
1A
100
AcDbEntity
  8
寸法線
100
AcDbCircle
 10
330.790903527873
 20
439.304736315093
 30
0.0
 40
252.4979775
100
AcDbArc
 50
244.999904465812
 51
270.000173011206
  0
ARC
  5
54E6
330
1A
100
AcDbEntity
  8
寸法線
100
AcDbCircle
 10
330.791686027873
 20
439.306948815093
 30
0.0
 40
265.000285
100
AcDbArc
 50
244.999955716752
 51
269.999943828088
  0
ARC
  5
54E7
330
1A
100
AcDbEntity
  8
寸法線
100
AcDbCircle
 10
330.791761027873
 20
439.307178815093
 30
0.0
 40
277.5005725
100
AcDbArc
 50
244.999962036421
 51
269.999943828088
  0
ARC
  5
54E8
330
1A
100
AcDbEntity
  8
寸法線
100
AcDbCircle
 10
330.831376027873
 20
439.533543815093
 30
0.0
 40
258.976785
100
AcDbArc
 50
256.867464684795
 51
265.57900148087
  0
ARC
  5
54E9
330
1A
100
AcDbEntity
  8
寸法線
100
AcDbCircle
 10
333.046438527873
 20
452.094426315093
 30
0.0
 40
284.046765
100
AcDbArc
 50
257.014371063464
 51
265.317446247383
  0
LWPOLYLINE
  5
54EA
330
1A
100
AcDbEntity
  8
寸法線
100
AcDbPolyline
 90
        4
 70
     0
 43
0.0
 10
310.868456027873
 20
181.327288815093
 10
309.559691027873
 20
181.431811315093
 10
309.559691027873
 20
181.431811315093
 10
309.559691027873
 20
181.431811315093
  0
LINE
  5
54EB
330
1A
100
AcDbEntity
  8
寸法線
100
AcDbLine
 10
303.492471210631
 20
179.969037006401
 30
0.0
 11
310.868456027873
 21
181.327288815093
 31
0.0
  0
LINE
  5
54EC
330
1A
100
AcDbEntity
  8
寸法線
100
AcDbLine
 10
310.868456027873
 20
181.327288815093
 30
0.0
 11
303.801539893867
 21
183.83900065265
 31
0.0
  0
LWPOLYLINE
  5
54ED
330
1A
100
AcDbEntity
  8
寸法線
100
AcDbPolyline
 90
        4
 70
     0
 43
0.0
 10
269.219476027873
 20
175.311741315093
 10
271.228678527873
 20
174.856036315093
 10
271.228678527873
 20
174.856036315093
 10
271.228678527873
 20
174.856036315093
  0
LINE
  5
54EE
330
1A
100
AcDbEntity
  8
寸法線
100
AcDbLine
 10
276.713841839166
 20
175.602397618165
 30
0.0
 11
269.219476027873
 21
175.311741315093
 31
0.0
  0
LINE
  5
54EF
330
1A
100
AcDbEntity
  8
寸法線
100
AcDbLine
 10
269.219476027873
 20
175.311741315093
 30
0.0
 11
275.855115357243
 21
171.816274151678
 31
0.0
  0
LINE
  5
54F0
330
1A
100
AcDbEntity
  8
寸法線
100
AcDbLine
 10
273.702393527873
 20
226.246951315093
 30
0.0
 11
262.204516027873
 21
183.336338815093
 31
0.0
  0
LINE
  5
54F1
330
1A
100
AcDbEntity
  8
細線
100
AcDbLine
 10
220.207837940637
 20
202.159598632
 30
0.0
 11
227.128462844056
 21
209.080223535418
 31
0.0
  0
LINE
  5
54F2
330
1A
100
AcDbEntity
  8
細線
100
AcDbLine
 10
215.574122421164
 20
192.222582253628
 30
0.0
 11
230.810020743799
 21
207.458480576263
 31
0.0
  0
LINE
  5
54F3
330
1A
100
AcDbEntity
  8
細線
100
AcDbLine
 10
215.554425701303
 20
186.899584674868
 30
0.0
 11
234.54976750534
 21
205.894926478905
 31
0.0
  0
LINE
  5
54F4
330
1A
100
AcDbEntity
  8
細線
100
AcDbLine
 10
219.225648823205
 20
185.267506937871
 30
0.0
 11
238.363204268367
 21
204.405062383033
 31
0.0
  0
LINE
  5
54F5
330
1A
100
AcDbEntity
  8
細線
100
AcDbLine
 10
222.903324287023
 20
183.64188154279
 30
0.0
 11
242.176641031393
 21
202.915198287158
 31
0.0
  0
LINE
  5
54F6
330
1A
100
AcDbEntity
  8
細線
100
AcDbLine
 10
226.670190452012
 20
182.105446848878
 30
0.0
 11
246.033078083867
 21
201.468334480736
 31
0.0
  0
LINE
  5
54F7
330
1A
100
AcDbEntity
  8
細線
100
AcDbLine
 10
230.460537059145
 20
180.592492597113
 30
0.0
 11
240.156199532794
 21
190.288155070763
 31
0.0
  0
LINE
  5
54F8
330
1A
100
AcDbEntity
  8
細線
100
AcDbLine
 10
240.156199532794
 20
190.288155070763
 30
0.0
 11
249.980733969318
 21
200.112689507285
 31
0.0
  0
LINE
  5
54F9
330
1A
100
AcDbEntity
  8
細線
100
AcDbLine
 10
234.308247148442
 20
179.13690182751
 30
0.0
 11
237.121360630458
 21
181.950015309528
 31
0.0
  0
LINE
  5
54FA
330
1A
100
AcDbEntity
  8
細線
100
AcDbLine
 10
244.082784070964
 20
188.911438750033
 30
0.0
 11
254.008661078314
 21
198.837315757383
 31
0.0
  0
LINE
  5
54FB
330
1A
100
AcDbEntity
  8
細線
100
AcDbLine
 10
248.047739318382
 20
187.573093138553
 30
0.0
 11
258.036588187309
 21
197.56194200748
 31
0.0
  0
LINE
  5
54FC
330
1A
100
AcDbEntity
  8
細線
100
AcDbLine
 10
252.052864336426
 20
186.274917297695
 30
0.0
 11
262.11668293292
 21
196.33873589419
 31
0.0
  0
LINE
  5
54FD
330
1A
100
AcDbEntity
  8
細線
100
AcDbLine
 10
256.132092814749
 20
185.05084491712
 30
0.0
 11
265.054734557612
 21
193.973486659983
 31
0.0
  0
LINE
  5
54FE
330
1A
100
AcDbEntity
  8
細線
100
AcDbLine
 10
260.261772598516
 20
183.877223841988
 30
0.0
 11
263.113588598138
 21
186.72903984161
 31
0.0
  0
MTEXT
  5
552A
330
1A
100
AcDbEntity
  8
寸法線
 48
10.0
100
AcDbMText
 10
808.589456879996
 20
575.101449204641
 30
0.0
 40
10.0
 41
110.27752351871
 71
     1
 72
     5
  1
塗装色:10YR7.5/14
  0
CIRCLE
  5
5531
330
1A
100
AcDbEntity
  8
外形線
100
AcDbCircle
 10
561.218041348212
 20
419.166258364275
 30
0.0
 40
2.5
  0
CIRCLE
  5
5532
330
1A
100
AcDbEntity
  8
外形線
100
AcDbCircle
 10
546.218041348212
 20
419.166258364275
 30
0.0
 40
2.5
  0
LINE
  5
5533
330
1A
100
AcDbEntity
  8
外形線
100
AcDbLine
 10
541.218041348212
 20
414.166258364275
 30
0.0
 11
566.218041348212
 21
414.166258364275
 31
0.0
  0
LINE
  5
5534
330
1A
100
AcDbEntity
  8
外形線
100
AcDbLine
 10
541.218041348212
 20
459.166258364275
 30
0.0
 11
541.218041348212
 21
414.166258364275
 31
0.0
  0
LINE
  5
5535
330
1A
100
AcDbEntity
  8
外形線
100
AcDbLine
 10
566.218041348212
 20
414.166258364275
 30
0.0
 11
566.218041348212
 21
459.166258364275
 31
0.0
  0
LINE
  5
5536
330
1A
100
AcDbEntity
  8
細線
100
AcDbLine
 10
563.144947871632
 20
453.053758364275
 30
0.0
 11
561.218041348212
 21
451.941258364273
 31
0.0
  0
LINE
  5
5537
330
1A
100
AcDbEntity
  8
細線
100
AcDbLine
 10
563.144947871632
 20
455.278758364275
 30
0.0
 11
563.144947871632
 21
453.053758364275
 31
0.0
  0
LINE
  5
5538
330
1A
100
AcDbEntity
  8
細線
100
AcDbLine
 10
561.218041348212
 20
456.391258364275
 30
0.0
 11
559.291134824792
 21
455.278758364275
 31
0.0
  0
LINE
  5
5539
330
1A
100
AcDbEntity
  8
細線
100
AcDbLine
 10
559.291134824792
 20
453.053758364275
 30
0.0
 11
561.218041348212
 21
451.941258364273
 31
0.0
  0
LINE
  5
553A
330
1A
100
AcDbEntity
  8
細線
100
AcDbLine
 10
559.291134824792
 20
455.278758364275
 30
0.0
 11
559.291134824792
 21
453.053758364275
 31
0.0
  0
LINE
  5
553B
330
1A
100
AcDbEntity
  8
細線
100
AcDbLine
 10
561.218041348212
 20
456.391258364275
 30
0.0
 11
563.144947871632
 21
455.278758364275
 31
0.0
  0
CIRCLE
  5
553C
330
1A
100
AcDbEntity
  8
外形線
100
AcDbCircle
 10
561.218041348212
 20
454.166258364275
 30
0.0
 40
4.25000000000005
  0
LINE
  5
553D
330
1A
100
AcDbEntity
  8
外形線
100
AcDbLine
 10
566.218041348212
 20
459.166258364275
 30
0.0
 11
541.218041348212
 21
459.166258364275
 31
0.0
  0
LINE
  5
553E
330
1A
100
AcDbEntity
  8
細線
100
AcDbLine
 10
548.144947871632
 20
453.053758364275
 30
0.0
 11
546.218041348212
 21
451.941258364273
 31
0.0
  0
LINE
  5
553F
330
1A
100
AcDbEntity
  8
細線
100
AcDbLine
 10
548.144947871632
 20
455.278758364275
 30
0.0
 11
548.144947871632
 21
453.053758364275
 31
0.0
  0
LINE
  5
5540
330
1A
100
AcDbEntity
  8
細線
100
AcDbLine
 10
544.291134824792
 20
453.053758364275
 30
0.0
 11
546.218041348212
 21
451.941258364273
 31
0.0
  0
LINE
  5
5541
330
1A
100
AcDbEntity
  8
細線
100
AcDbLine
 10
544.291134824792
 20
455.278758364275
 30
0.0
 11
544.291134824792
 21
453.053758364275
 31
0.0
  0
LINE
  5
5542
330
1A
100
AcDbEntity
  8
細線
100
AcDbLine
 10
546.218041348212
 20
456.391258364275
 30
0.0
 11
548.144947871632
 21
455.278758364275
 31
0.0
  0
LINE
  5
5543
330
1A
100
AcDbEntity
  8
細線
100
AcDbLine
 10
546.218041348212
 20
456.391258364275
 30
0.0
 11
544.291134824792
 21
455.278758364275
 31
0.0
  0
CIRCLE
  5
5544
330
1A
100
AcDbEntity
  8
外形線
100
AcDbCircle
 10
546.218041348212
 20
454.166258364275
 30
0.0
 40
4.25000000000005
  0
LINE
  5
5545
330
1A
100
AcDbEntity
  8
中心線
 48
10.0
100
AcDbLine
 10
541.218041348212
 20
454.166258364275
 30
0.0
 11
551.218041348212
 21
454.166258364275
 31
0.0
  0
LINE
  5
5546
330
1A
100
AcDbEntity
  8
中心線
 48
10.0
100
AcDbLine
 10
546.218041348212
 20
459.166258364275
 30
0.0
 11
546.218041348212
 21
449.166258364275
 31
0.0
  0
LINE
  5
5547
330
1A
100
AcDbEntity
  8
中心線
 48
10.0
100
AcDbLine
 10
556.218041348212
 20
454.166258364275
 30
0.0
 11
566.218041348212
 21
454.166258364275
 31
0.0
  0
LINE
  5
5548
330
1A
100
AcDbEntity
  8
中心線
 48
10.0
100
AcDbLine
 10
561.218041348212
 20
459.166258364275
 30
0.0
 11
561.218041348212
 21
449.166258364275
 31
0.0
  0
LINE
  5
5549
330
1A
100
AcDbEntity
  8
中心線
 48
10.0
100
AcDbLine
 10
541.218041348212
 20
419.166258364275
 30
0.0
 11
551.218041348212
 21
419.166258364275
 31
0.0
  0
LINE
  5
554A
330
1A
100
AcDbEntity
  8
中心線
 48
10.0
100
AcDbLine
 10
546.218041348212
 20
424.166258364275
 30
0.0
 11
546.218041348212
 21
414.166258364275
 31
0.0
  0
LINE
  5
554B
330
1A
100
AcDbEntity
  8
中心線
 48
10.0
100
AcDbLine
 10
556.218041348212
 20
419.166258364275
 30
0.0
 11
566.218041348212
 21
419.166258364275
 31
0.0
  0
LINE
  5
554C
330
1A
100
AcDbEntity
  8
中心線
 48
10.0
100
AcDbLine
 10
561.218041348212
 20
424.166258364275
 30
0.0
 11
561.218041348212
 21
414.166258364275
 31
0.0
  0
LINE
  5
554D
330
1A
100
AcDbEntity
  8
外形線
100
AcDbLine
 10
616.218041348212
 20
428.409270864275
 30
0.0
 11
616.218041348212
 21
199.306602114275
 31
0.0
  0
LINE
  5
554E
330
1A
100
AcDbEntity
  8
外形線
100
AcDbLine
 10
566.218041348212
 20
434.446983364275
 30
0.0
 11
636.218041348212
 21
434.446983364275
 31
0.0
  0
LINE
  5
554F
330
1A
100
AcDbEntity
  8
外形線
100
AcDbLine
 10
566.218041348212
 20
444.166220864275
 30
0.0
 11
636.218041348212
 21
444.166220864275
 31
0.0
  0
LINE
  5
5550
330
1A
100
AcDbEntity
  8
外形線
100
AcDbLine
 10
466.218041348212
 20
428.409270864275
 30
0.0
 11
466.218041348212
 21
199.306602114275
 31
0.0
  0
LINE
  5
5551
330
1A
100
AcDbEntity
  8
外形線
100
AcDbLine
 10
616.218041348212
 20
199.306602114275
 30
0.0
 11
466.218041348212
 21
199.306602114275
 31
0.0
  0
LINE
  5
5552
330
1A
100
AcDbEntity
  8
外形線
100
AcDbLine
 10
538.218041348212
 20
434.446983364275
 30
0.0
 11
538.218041348212
 21
444.166220864275
 31
0.0
  0
LINE
  5
5553
330
1A
100
AcDbEntity
  8
外形線
100
AcDbLine
 10
538.218041348212
 20
434.446983364275
 30
0.0
 11
541.218041348212
 21
434.446983364275
 31
0.0
  0
LINE
  5
5554
330
1A
100
AcDbEntity
  8
外形線
100
AcDbLine
 10
541.218041348212
 20
428.409270864275
 30
0.0
 11
466.218041348212
 21
428.409270864275
 31
0.0
  0
LINE
  5
5555
330
1A
100
AcDbEntity
  8
外形線
100
AcDbLine
 10
566.218041348212
 20
428.409270864275
 30
0.0
 11
616.218041348212
 21
428.409270864275
 31
0.0
  0
LINE
  5
5556
330
1A
100
AcDbEntity
  8
外形線
100
AcDbLine
 10
538.218041348212
 20
444.166220864275
 30
0.0
 11
541.218041348212
 21
444.166220864275
 31
0.0
  0
DIMENSION
  5
5558
330
1A
100
AcDbEntity
  8
寸法線
 48
10.0
100
AcDbDimension
  2
*D17
 10
616.218041348212
 20
179.4601652775
 30
0.0
 11
541.218041348212
 21
185.0851652775
 31
0.0
 70
    32
  3
ISO-25
100
AcDbAlignedDimension
 13
466.218041348212
 23
199.306602114275
 33
0.0
 14
616.218041348212
 24
199.306602114275
 34
0.0
100
AcDbRotatedDimension
1001
ACAD
1000
DSTYLE
1002
{
1070
     5
1000
OPEN30
1070
    41
1040
6.0
1070
    47
1040
0.1
1070
    48
1040
0.1
1070
    73
1070
     0
1070
   140
1040
10.0
1070
   271
1070
     1
1070
   272
1070
     1
1070
   341
1005
2AEB
1002
}
  0
DIMENSION
  5
5559
330
1A
100
AcDbEntity
  8
寸法線
 48
10.0
100
AcDbDimension
  2
*D18
 10
621.673390407141
 20
434.446983364275
 30
0.0
 11
621.673390407141
 21
467.045157872149
 31
0.0
 70
   160
  1
φ10
  3
ISO-25
100
AcDbAlignedDimension
 13
621.673390407141
 23
444.166220864275
 33
0.0
 14
621.673390407141
 24
434.446983364275
 34
0.0
 50
90.0
100
AcDbRotatedDimension
1001
ACAD
1000
DSTYLE
1002
{
1070
     5
1000
OPEN30
1070
    41
1040
6.0
1070
    47
1040
0.1
1070
    48
1040
0.1
1070
    73
1070
     0
1070
   140
1040
10.0
1070
   271
1070
     1
1070
   272
1070
     1
1070
   341
1005
2AEB
1002
}
  0
LINE
  5
555E
330
1A
100
AcDbEntity
  8
外形線
 48
10.0
100
AcDbLine
 10
636.218041348212
 20
422.306603364275
 30
0.0
 11
636.218041348212
 21
456.306603364275
 31
0.0
  0
LINE
  5
555F
330
1A
100
AcDbEntity
  8
外形線
 48
10.0
100
AcDbLine
 10
636.218041348212
 20
456.306603364275
 30
0.0
 11
689.859865026055
 21
456.306603364275
 31
0.0
  0
LINE
  5
5560
330
1A
100
AcDbEntity
  8
外形線
 48
10.0
100
AcDbLine
 10
636.218041348212
 20
422.306603364275
 30
0.0
 11
689.859888513421
 21
422.306603364275
 31
0.0
  0
ARC
  5
5562
330
1A
100
AcDbEntity
  8
細線
100
AcDbCircle
 10
703.175830992386
 20
441.667003237061
 30
0.0
 40
4.720773714285714
100
AcDbArc
 50
150.000000000003
 51
209.999999999997
  0
LINE
  5
5563
330
1A
100
AcDbEntity
  8
外形線
100
AcDbLine
 10
702.330811451091
 20
444.027387665632
 30
0.0
 11
699.087521030295
 21
444.027387665632
 31
0.0
  0
ARC
  5
5564
330
1A
100
AcDbEntity
  8
細線
100
AcDbCircle
 10
719.354680601724
 20
447.806616379918
 30
0.0
 40
17.438311
100
AcDbArc
 50
150.828102891867
 51
209.171879508037
  0
ARC
  5
5565
330
1A
100
AcDbEntity
  8
細線
100
AcDbCircle
 10
698.476107317579
 20
441.667004653292
 30
0.0
 40
4.720773714285714
100
AcDbArc
 50
150.000019847849
 51
210.000019847844
  0
ARC
  5
5566
330
1A
100
AcDbEntity
  8
細線
100
AcDbCircle
 10
690.299487393401
 20
441.667001820827
 30
0.0
 40
4.720773714285714
100
AcDbArc
 50
330.000019847849
 51
30.000019847844
  0
LINE
  5
5567
330
1A
100
AcDbEntity
  8
外形線
100
AcDbLine
 10
687.986553076532
 20
444.027387665632
 30
0.0
 11
694.387798173153
 21
444.027387665632
 31
0.0
  0
ARC
  5
5568
330
1A
100
AcDbEntity
  8
細線
100
AcDbCircle
 10
676.504002173153
 20
448.157544951347
 30
0.0
 40
15.64564642857143
100
AcDbArc
 50
344.693586790326
 51
31.389360614582
  0
ARC
  5
5569
330
1A
100
AcDbEntity
  8
細線
100
AcDbCircle
 10
704.394848173152
 20
447.806616379918
 30
0.0
 40
16.83789528571429
100
AcDbArc
 50
149.681041386025
 51
210.318998309663
  0
ARC
  5
556A
330
1A
100
AcDbEntity
  8
細線
100
AcDbCircle
 10
694.999211068205
 20
436.946229522775
 30
0.0
 40
4.720773714285714
100
AcDbArc
 50
330.000000000003
 51
29.999999999997
  0
ARC
  5
556B
330
1A
100
AcDbEntity
  8
細線
100
AcDbCircle
 10
703.175830992386
 20
436.946229522775
 30
0.0
 40
4.720773714285714
100
AcDbArc
 50
150.000000000003
 51
209.999999999997
  0
LINE
  5
556C
330
1A
100
AcDbEntity
  8
外形線
100
AcDbLine
 10
705.947249835739
 20
434.585842665632
 30
0.0
 11
699.087521030295
 21
434.585842665632
 31
0.0
  0
ARC
  5
556D
330
1A
100
AcDbEntity
  8
細線
100
AcDbCircle
 10
717.901523030295
 20
430.52001580849
 30
0.0
 40
16.036321
100
AcDbArc
 50
165.312991614798
 51
210.808590745603
  0
ARC
  5
556E
330
1A
100
AcDbEntity
  8
細線
100
AcDbCircle
 10
689.103965030296
 20
430.806616379918
 30
0.0
 40
17.26206228571429
100
AcDbArc
 50
330.501021134477
 51
29.499000961113
  0
ARC
  5
556F
330
1A
100
AcDbEntity
  8
細線
100
AcDbCircle
 10
690.299489028726
 20
436.946228106544
 30
0.0
 40
4.720773714285714
100
AcDbArc
 50
330.000019847849
 51
30.000019847844
  0
LINE
  5
5570
330
1A
100
AcDbEntity
  8
外形線
100
AcDbLine
 10
694.387798173153
 20
434.585842665632
 30
0.0
 11
691.738896044388
 21
434.585842665632
 31
0.0
  0
ARC
  5
5571
330
1A
100
AcDbEntity
  8
細線
100
AcDbCircle
 10
675.374315744581
 20
430.806616379918
 30
0.0
 40
16.79529814285714
100
AcDbArc
 50
329.59597700129
 51
30.404045094304
  0
DIMENSION
  5
5575
330
1A
100
AcDbEntity
  8
寸法線
 48
10.0
100
AcDbDimension
  2
*D19
 10
616.218041348212
 20
395.476458336277
 30
0.0
 11
626.218041348212
 21
401.106666669611
 31
0.0
 70
    32
  3
ISO-25
100
AcDbAlignedDimension
 13
636.218041348212
 23
422.306603364275
 33
0.0
 14
616.218041348212
 24
422.306603364275
 34
0.0
100
AcDbRotatedDimension
1001
ACAD
1000
DSTYLE
1002
{
1070
     5
1000
OPEN30
1070
    41
1040
6.0
1070
    47
1040
0.1
1070
    48
1040
0.1
1070
    73
1070
     0
1070
   140
1040
10.0
1070
   271
1070
     1
1070
   272
1070
     1
1070
   341
1005
2AEB
1002
}
  0
DIMENSION
  5
5576
330
1A
100
AcDbEntity
  8
寸法線
 48
10.0
100
AcDbDimension
  2
*D20
 10
728.744339691115
 20
422.306603364275
 30
0.0
 11
728.744339691115
 21
474.681603364276
 31
0.0
 70
   160
  1
φ<>
  3
ISO-25
100
AcDbAlignedDimension
 13
728.744339691115
 23
456.306603364275
 33
0.0
 14
728.744351434799
 24
422.306603364275
 34
0.0
 50
90.0
100
AcDbRotatedDimension
1001
ACAD
1000
DSTYLE
1002
{
1070
     5
1000
OPEN30
1070
    41
1040
6.0
1070
    47
1040
0.1
1070
    48
1040
0.1
1070
    73
1070
     0
1070
   140
1040
10.0
1070
   271
1070
     1
1070
   272
1070
     1
1070
   341
1005
2AEB
1002
}
  0
DIMENSION
  5
5577
330
1A
100
AcDbEntity
  8
寸法線
 48
10.0
100
AcDbDimension
  2
*D21
 10
616.218041348212
 20
395.476458336277
 30
0.0
 11
591.218041348212
 21
401.101458336277
 31
0.0
 70
    32
  3
ISO-25
100
AcDbAlignedDimension
 13
566.218041348212
 23
414.166258364275
 33
0.0
 14
616.218041348212
 24
414.166258364275
 34
0.0
100
AcDbRotatedDimension
1001
ACAD
1000
DSTYLE
1002
{
1070
     5
1000
OPEN30
1070
    41
1040
6.0
1070
    47
1040
0.1
1070
    48
1040
0.1
1070
    73
1070
     0
1070
   140
1040
10.0
1070
   271
1070
     1
1070
   272
1070
     1
1070
   341
1005
2AEB
1002
}
  0
DIMENSION
  5
5578
330
1A
100
AcDbEntity
  8
寸法線
 48
10.0
100
AcDbDimension
  2
*D22
 10
436.802943583997
 20
439.306603364275
 30
0.0
 11
431.172735250664
 21
319.306602739275
 31
0.0
 70
    32
  3
ISO-25
100
AcDbAlignedDimension
 13
466.218041348212
 23
199.306602114275
 33
0.0
 14
526.845673848211
 24
439.306603364275
 34
0.0
 50
90.0
100
AcDbRotatedDimension
1001
ACAD
1000
DSTYLE
1002
{
1070
     5
1000
OPEN30
1070
    41
1040
6.0
1070
    47
1040
0.1
1070
    48
1040
0.1
1070
    73
1070
     0
1070
   140
1040
10.0
1070
   271
1070
     1
1070
   272
1070
     1
1070
   341
1005
2AEB
1002
}
  0
LINE
  5
5579
330
1A
100
AcDbEntity
  8
外形線
 48
10.0
100
AcDbLine
 10
332.60678090874
 20
199.306603364276
 30
0.0
 11
328.85678090874
 21
199.306603364275
 31
0.0
  0
DIMENSION
  5
557A
330
1A
100
AcDbEntity
  8
寸法線
 48
10.0
100
AcDbDimension
  2
*D23
 10
332.60678090874
 20
284.099883058328
 30
0.0
 11
351.438887689927
 21
284.099883058328
 31
0.0
 70
   160
  1
1.5
  3
ISO-25
100
AcDbAlignedDimension
 13
328.85678090874
 23
284.099883058328
 33
0.0
 14
332.60678090874
 24
284.099883058328
 34
0.0
100
AcDbRotatedDimension
1001
ACAD
1000
DSTYLE
1002
{
1070
     5
1000
OPEN30
1070
    41
1040
6.0
1070
    47
1040
0.1
1070
    48
1040
0.1
1070
    73
1070
     0
1070
   140
1040
10.0
1070
   271
1070
     1
1070
   272
1070
     1
1070
   341
1005
2AEB
1002
}
  0
LINE
  5
557B
330
1A
100
AcDbEntity
  8
中心線
 48
10.0
100
AcDbLine
 10
330.731780908744
 20
528.289810877605
 30
0.0
 11
330.73178090874
 21
193.387298151297
 31
0.0
  0
LINE
  5
557C
330
1A
100
AcDbEntity
  8
外形線
100
AcDbLine
 10
332.60678090874
 20
199.306603364276
 30
0.0
 11
332.60678090874
 21
343.327600375441
 31
0.0
  0
LINE
  5
557D
330
1A
100
AcDbEntity
  8
外形線
100
AcDbLine
 10
328.85678090874
 20
199.306603364276
 30
0.0
 11
328.85678090874
 21
341.064171478307
 31
0.0
  0
LINE
  5
557E
330
1A
100
AcDbEntity
  8
外形線
100
AcDbLine
 10
332.60678090874
 20
343.327600375441
 30
0.0
 11
332.60678090874
 21
428.409270864276
 31
0.0
  0
LINE
  5
557F
330
1A
100
AcDbEntity
  8
外形線
100
AcDbLine
 10
328.85678090874
 20
341.064171478307
 30
0.0
 11
328.85678090874
 21
428.409270864276
 31
0.0
  0
LINE
  5
5580
330
1A
100
AcDbEntity
  8
中心線
 48
10.0
100
AcDbLine
 10
319.841410908743
 20
419.166258364276
 30
0.0
 11
341.576278408742
 21
419.166258364276
 31
0.0
  0
LINE
  5
5581
330
1A
100
AcDbEntity
  8
中心線
 48
10.0
100
AcDbLine
 10
318.431135908742
 20
454.166258364276
 30
0.0
 11
347.776133408743
 21
454.166258364276
 31
0.0
  0
LINE
  5
5582
330
1A
100
AcDbEntity
  8
外形線
100
AcDbLine
 10
328.856760908742
 20
428.409270864276
 30
0.0
 11
332.60678090874
 21
428.409270864276
 31
0.0
  0
ARC
  5
5583
330
1A
100
AcDbEntity
  8
外形線
100
AcDbCircle
 10
323.231780908743
 20
419.166258364276
 30
0.0
 40
2.5
100
AcDbArc
 50
89.999981276034
 51
270.0
  0
LINE
  5
5584
330
1A
100
AcDbEntity
  8
外形線
100
AcDbLine
 10
328.856780908743
 20
414.166258364276
 30
0.0
 11
323.231780908743
 21
414.166258364276
 31
0.0
  0
ARC
  5
5585
330
1A
100
AcDbEntity
  8
外形線
100
AcDbCircle
 10
338.231780908743
 20
419.166258364276
 30
0.0
 40
2.5
100
AcDbArc
 50
270.0
 51
90.000020971714
  0
LINE
  5
5586
330
1A
100
AcDbEntity
  8
外形線
100
AcDbLine
 10
338.231780908743
 20
414.166258364276
 30
0.0
 11
332.606780908743
 21
414.166258364276
 31
0.0
  0
LINE
  5
5587
330
1A
100
AcDbEntity
  8
外形線
100
AcDbLine
 10
338.231780908743
 20
459.166258364276
 30
0.0
 11
338.231780908743
 21
414.166258364276
 31
0.0
  0
CIRCLE
  5
5588
330
1A
100
AcDbEntity
  8
外形線
100
AcDbCircle
 10
330.731780908743
 20
439.306603364275
 30
0.0
 40
5.0
  0
LINE
  5
5589
330
1A
100
AcDbEntity
  8
外形線
100
AcDbLine
 10
328.856780908743
 20
451.666258364276
 30
0.0
 11
332.606780908743
 21
451.666258364276
 31
0.0
  0
LINE
  5
558A
330
1A
100
AcDbEntity
  8
細線
100
AcDbLine
 10
332.606780908743
 20
452.633933364276
 30
0.0
 11
328.856780908743
 21
452.633933364276
 31
0.0
  0
LINE
  5
558B
330
1A
100
AcDbEntity
  8
外形線
100
AcDbLine
 10
332.606780908743
 20
459.166258364276
 30
0.0
 11
338.231780908743
 21
459.166258364276
 31
0.0
  0
LINE
  5
558C
330
1A
100
AcDbEntity
  8
外形線
100
AcDbLine
 10
332.606780908743
 20
443.941725864275
 30
0.0
 11
332.606780908743
 21
459.166258364276
 31
0.0
  0
LINE
  5
558D
330
1A
100
AcDbEntity
  8
外形線
100
AcDbLine
 10
323.231780908743
 20
459.166258364276
 30
0.0
 11
323.231780908743
 21
414.166258364276
 31
0.0
  0
LINE
  5
558E
330
1A
100
AcDbEntity
  8
外形線
100
AcDbLine
 10
328.856780908743
 20
443.941725864275
 30
0.0
 11
328.856780908743
 21
459.166258364276
 31
0.0
  0
LINE
  5
558F
330
1A
100
AcDbEntity
  8
外形線
100
AcDbLine
 10
328.856780908743
 20
456.666258364276
 30
0.0
 11
332.606780908743
 21
456.666258364276
 31
0.0
  0
LINE
  5
5590
330
1A
100
AcDbEntity
  8
細線
100
AcDbLine
 10
332.606780908743
 20
455.698583364276
 30
0.0
 11
328.856780908743
 21
455.698583364276
 31
0.0
  0
LINE
  5
5591
330
1A
100
AcDbEntity
  8
外形線
100
AcDbLine
 10
328.856780908743
 20
459.166258364276
 30
0.0
 11
323.231780908743
 21
459.166258364276
 31
0.0
  0
LINE
  5
5592
330
1A
100
AcDbEntity
  8
細線
100
AcDbLine
 10
339.531780908743
 20
456.510008364276
 30
0.0
 11
344.531780908742
 21
456.510008364276
 31
0.0
  0
LINE
  5
5593
330
1A
100
AcDbEntity
  8
細線
100
AcDbLine
 10
339.531780908743
 20
454.947508364276
 30
0.0
 11
344.531780908742
 21
454.947508364276
 31
0.0
  0
LINE
  5
5594
330
1A
100
AcDbEntity
  8
細線
100
AcDbLine
 10
339.531780908743
 20
453.385008364276
 30
0.0
 11
344.531780908742
 21
453.385008364276
 31
0.0
  0
LINE
  5
5595
330
1A
100
AcDbEntity
  8
細線
100
AcDbLine
 10
339.531780908743
 20
451.822508364276
 30
0.0
 11
344.531780908742
 21
451.822508364276
 31
0.0
  0
LINE
  5
5596
330
1A
100
AcDbEntity
  8
外形線
100
AcDbLine
 10
338.231780908743
 20
458.416258364275
 30
0.0
 11
344.531780908742
 21
458.416258364275
 31
0.0
  0
LINE
  5
5597
330
1A
100
AcDbEntity
  8
外形線
100
AcDbLine
 10
344.531780908742
 20
449.916258364275
 30
0.0
 11
344.531780908742
 21
458.416258364275
 31
0.0
  0
LINE
  5
5598
330
1A
100
AcDbEntity
  8
外形線
100
AcDbLine
 10
338.231780908743
 20
449.916258364275
 30
0.0
 11
344.531780908742
 21
449.916258364275
 31
0.0
  0
LINE
  5
5599
330
1A
100
AcDbEntity
  8
細線
100
AcDbLine
 10
339.531780908743
 20
458.072508364276
 30
0.0
 11
344.531780908742
 21
458.072508364276
 31
0.0
  0
LINE
  5
559A
330
1A
100
AcDbEntity
  8
細線
100
AcDbLine
 10
339.531780908743
 20
450.260008364276
 30
0.0
 11
344.531780908742
 21
450.260008364276
 31
0.0
  0
LINE
  5
559B
330
1A
100
AcDbEntity
  8
中心線
 48
10.0
100
AcDbLine
 10
275.967958554088
 20
384.542781556289
 30
0.0
 11
293.47997365585
 21
402.05479665805
 31
0.0
  0
LINE
  5
559C
330
1A
100
AcDbEntity
  8
中心線
 48
10.0
100
AcDbLine
 10
367.89184010834
 20
402.05479665805
 30
0.0
 11
385.403855210101
 21
384.542781556289
 31
0.0
  0
LINE
  5
559D
330
1A
100
AcDbEntity
  8
中心線
 48
10.0
100
AcDbLine
 10
367.89184010834
 20
476.46666311054
 30
0.0
 11
385.403855210101
 21
493.978678212301
 31
0.0
  0
LINE
  5
559E
330
1A
100
AcDbEntity
  8
中心線
 48
10.0
100
AcDbLine
 10
275.99484041583
 20
493.978623330591
 30
0.0
 11
293.506855517591
 21
476.46660822883
 31
0.0
  0
CIRCLE
  5
559F
330
1A
100
AcDbEntity
  8
外形線
 48
10.0
100
AcDbCircle
 10
284.769862745266
 20
485.268521515982
 30
0.0
 40
7.5
  0
CIRCLE
  5
55A0
330
1A
100
AcDbEntity
  8
外形線
 48
10.0
100
AcDbCircle
 10
376.64784765922
 20
485.222670661421
 30
0.0
 40
7.5
  0
CIRCLE
  5
55A1
330
1A
100
AcDbEntity
  8
外形線
 48
10.0
100
AcDbCircle
 10
376.64784765922
 20
393.298789107169
 30
0.0
 40
7.5
  0
CIRCLE
  5
55A2
330
1A
100
AcDbEntity
  8
外形線
 48
10.0
100
AcDbCircle
 10
284.723966104969
 20
393.298789107169
 30
0.0
 40
7.5
  0
CIRCLE
  5
55A3
330
1A
100
AcDbEntity
  8
中心線
 48
10.0
100
AcDbCircle
 10
330.666905632972
 20
439.306603364275
 30
0.0
 40
65.0
  0
ARC
  5
55A4
330
1A
100
AcDbEntity
  8
外形線
 48
10.0
100
AcDbCircle
 10
330.745641370884
 20
439.312697405671
 30
0.0
 40
77.5
100
AcDbArc
 50
271.376073455675
 51
268.603426453827
  0
MTEXT
  5
55A5
330
1A
100
AcDbEntity
  8
寸法線
 48
10.0
100
AcDbMText
 10
236.024943204493
 20
545.503047173835
 30
0.0
 40
10.0
 41
38.512865038577
 71
     1
 72
     5
  1
4-φ15
  0
LEADER
  5
55A6
330
1A
100
AcDbEntity
  8
寸法線
 48
10.0
100
AcDbLeader
  3
ISO-25
 76
     3
 10
284.769862745266
 20
492.768521515982
 30
0.0
 10
273.045549295154
 20
534.808618364276
 30
0.0
 10
235.585961556324
 20
534.808618364276
 30
0.0
1001
ACAD
1000
DSTYLE
1002
{
1070
     5
1000
OPEN30
1070
   147
1040
0.625
1070
    77
1070
     0
1070
    41
1040
6.0
1070
    47
1040
0.1
1070
    48
1040
0.1
1070
    73
1070
     0
1070
   140
1040
5.0
1070
   271
1070
     1
1070
   272
1070
     1
1070
   341
1005
2AEB
1070
   342
1005
2AEB
1002
}
  0
DIMENSION
  5
55A7
330
1A
100
AcDbEntity
  8
寸法線
 48
10.0
100
AcDbDimension
  2
*D24
 10
407.989655452112
 20
445.508541769245
 30
0.0
 11
377.362694361414
 21
442.915998182672
 31
0.0
 70
   161
  1
φ155
  3
ISO-25
100
AcDbAlignedDimension
 13
253.577010403963
 23
432.153619623505
 33
0.0
 14
408.013527801492
 24
445.22652625391
 34
0.0
1001
ACAD
1000
DSTYLE
1002
{
1070
     5
1000
OPEN30
1070
    41
1040
6.0
1070
    47
1040
0.1
1070
    48
1040
0.1
1070
    73
1070
     0
1070
   140
1040
10.0
1070
   271
1070
     1
1070
   272
1070
     1
1070
   341
1005
2AEB
1002
}
  0
DIMENSION
  5
55A8
330
1A
100
AcDbEntity
  8
寸法線
 48
10.0
100
AcDbDimension
  2
*D25
 10
390.189774431327
 20
465.422291895319
 30
0.0
 11
373.545968958424
 21
458.104480319043
 31
0.0
 70
   161
  1
φ130
  3
ISO-25
100
AcDbAlignedDimension
 13
271.179421809595
 23
413.11043440079
 33
0.0
 14
390.18475026539
 24
465.433718978354
 34
0.0
1001
ACAD
1000
DSTYLE
1002
{
1070
     5
1000
OPEN30
1070
    41
1040
6.0
1070
    47
1040
0.1
1070
    48
1040
0.1
1070
    73
1070
     0
1070
   140
1040
10.0
1070
   271
1070
     1
1070
   272
1070
     1
1070
   341
1005
2AEB
1002
}
  0
ARC
  5
55AA
330
1A
100
AcDbEntity
  8
外形線
100
AcDbCircle
 10
330.73178090874
 20
439.306603364275
 30
0.0
 40
16.99999999999982
100
AcDbArc
 50
296.178968704016
 51
38.615966185811
  0
ARC
  5
55AB
330
1A
100
AcDbEntity
  8
外形線
100
AcDbCircle
 10
330.73178090874
 20
439.306603364275
 30
0.0
 40
16.99999999999988
100
AcDbArc
 50
116.178968704002
 51
243.821031295998
  0
DIMENSION
  5
579F
330
1A
100
AcDbEntity
  8
寸法線
 48
10.0
100
AcDbDimension
  2
*D26
 10
758.189741244244
 20
154.754280711635
 30
0.0
 11
612.203891296228
 21
160.379280711635
 31
0.0
 70
    32
  1
400
  3
ISO-25
100
AcDbAlignedDimension
 13
466.218041348212
 23
179.4601652775
 33
0.0
 14
758.189741244244
 24
308.751717042712
 34
0.0
100
AcDbRotatedDimension
1001
ACAD
1000
DSTYLE
1002
{
1070
     5
1000
OPEN30
1070
    41
1040
6.0
1070
    47
1040
0.1
1070
    48
1040
0.1
1070
    73
1070
     0
1070
   140
1040
10.0
1070
   271
1070
     1
1070
   272
1070
     1
1070
   341
1005
2AEB
1002
}
  0
ARC
  5
5A97
330
1A
100
AcDbEntity
  8
外形線
 48
10.0
100
AcDbCircle
 10
53.974834070623
 20
439.312697405671
 30
0.0
 40
77.5
100
AcDbArc
 50
271.396573546173
 51
268.623926544325
  0
CIRCLE
  5
5A98
330
1A
100
AcDbEntity
  8
中心線
 48
10.0
100
AcDbCircle
 10
54.053569808534
 20
439.306603364275
 30
0.0
 40
65.0
  0
CIRCLE
  5
5A99
330
1A
100
AcDbEntity
  8
外形線
 48
10.0
100
AcDbCircle
 10
99.996509336537
 20
393.298789107169
 30
0.0
 40
7.5
  0
CIRCLE
  5
5A9A
330
1A
100
AcDbEntity
  8
外形線
 48
10.0
100
AcDbCircle
 10
8.072627782286
 20
393.298789107169
 30
0.0
 40
7.5
  0
CIRCLE
  5
5A9B
330
1A
100
AcDbEntity
  8
外形線
 48
10.0
100
AcDbCircle
 10
8.072627782286
 20
485.222670661421
 30
0.0
 40
7.5
  0
CIRCLE
  5
5A9C
330
1A
100
AcDbEntity
  8
外形線
 48
10.0
100
AcDbCircle
 10
99.950612696241
 20
485.268521515982
 30
0.0
 40
7.5
  0
LINE
  5
5A9D
330
1A
100
AcDbEntity
  8
中心線
 48
10.0
100
AcDbLine
 10
108.725635025676
 20
493.978623330591
 30
0.0
 11
91.213619923915
 21
476.46660822883
 31
0.0
  0
LINE
  5
5A9E
330
1A
100
AcDbEntity
  8
中心線
 48
10.0
100
AcDbLine
 10
16.828635333167
 20
476.46666311054
 30
0.0
 11
-0.683379768595
 21
493.978678212301
 31
0.0
  0
LINE
  5
5A9F
330
1A
100
AcDbEntity
  8
中心線
 48
10.0
100
AcDbLine
 10
16.828635333167
 20
402.05479665805
 30
0.0
 11
-0.683379768595
 21
384.542781556289
 31
0.0
  0
LINE
  5
5AA0
330
1A
100
AcDbEntity
  8
中心線
 48
10.0
100
AcDbLine
 10
108.752516887418
 20
384.542781556289
 30
0.0
 11
91.240501785657
 21
402.05479665805
 31
0.0
  0
LINE
  5
5ABC
330
1A
100
AcDbEntity
  8
外形線
100
AcDbLine
 10
55.863694532767
 20
341.064171478307
 30
0.0
 11
55.863694532767
 21
428.409270864276
 31
0.0
  0
LINE
  5
5ABD
330
1A
100
AcDbEntity
  8
外形線
100
AcDbLine
 10
52.113694532767
 20
343.327600375441
 30
0.0
 11
52.113694532767
 21
428.409270864276
 31
0.0
  0
LINE
  5
5ABE
330
1A
100
AcDbEntity
  8
外形線
100
AcDbLine
 10
55.863694532767
 20
199.306603364276
 30
0.0
 11
55.863694532767
 21
341.064171478307
 31
0.0
  0
LINE
  5
5ABF
330
1A
100
AcDbEntity
  8
外形線
100
AcDbLine
 10
52.113694532767
 20
199.306603364276
 30
0.0
 11
52.113694532767
 21
343.327600375441
 31
0.0
  0
LINE
  5
5AC0
330
1A
100
AcDbEntity
  8
中心線
 48
10.0
100
AcDbLine
 10
53.988694532763
 20
528.289810877605
 30
0.0
 11
53.988694532767
 21
193.387298151297
 31
0.0
  0
LINE
  5
5AC2
330
1A
100
AcDbEntity
  8
外形線
 48
10.0
100
AcDbLine
 10
52.113694532767
 20
199.306603364276
 30
0.0
 11
55.863694532767
 21
199.306603364275
 31
0.0
  0
LINE
  5
5AD1
102
{ACAD_REACTORS
330
5B87
102
}
330
1A
100
AcDbEntity
  8
寸法線
100
AcDbLine
 10
111.018081913633
 20
226.246951315093
 30
0.0
 11
122.515959413633
 21
183.336338815093
 31
0.0
  0
LINE
  5
5AD2
330
1A
100
AcDbEntity
  8
寸法線
100
AcDbLine
 10
115.500999413633
 20
175.311741315093
 30
0.0
 11
108.865360084263
 21
171.816274151678
 31
0.0
  0
LINE
  5
5AD3
330
1A
100
AcDbEntity
  8
寸法線
100
AcDbLine
 10
108.00663360234
 20
175.602397618165
 30
0.0
 11
115.500999413633
 21
175.311741315093
 31
0.0
  0
LWPOLYLINE
  5
5AD4
330
1A
100
AcDbEntity
  8
寸法線
100
AcDbPolyline
 90
        4
 70
     0
 43
0.0
 10
115.500999413633
 20
175.311741315093
 10
113.491796913634
 20
174.856036315093
 10
113.491796913634
 20
174.856036315093
 10
113.491796913634
 20
174.856036315093
  0
LINE
  5
5AD5
330
1A
100
AcDbEntity
  8
寸法線
100
AcDbLine
 10
73.852019413634
 20
181.327288815093
 30
0.0
 11
80.91893554764
 21
183.83900065265
 31
0.0
  0
LINE
  5
5AD6
330
1A
100
AcDbEntity
  8
寸法線
100
AcDbLine
 10
81.228004230875
 20
179.969037006401
 30
0.0
 11
73.852019413634
 21
181.327288815093
 31
0.0
  0
LWPOLYLINE
  5
5AD7
330
1A
100
AcDbEntity
  8
寸法線
100
AcDbPolyline
 90
        4
 70
     0
 43
0.0
 10
73.852019413634
 20
181.327288815093
 10
75.160784413634
 20
181.431811315093
 10
75.160784413634
 20
181.431811315093
 10
75.160784413634
 20
181.431811315093
  0
ARC
  5
5AD8
330
1A
100
AcDbEntity
  8
寸法線
100
AcDbCircle
 10
51.674036913633
 20
452.094426315093
 30
0.0
 40
284.046765
100
AcDbArc
 50
274.682553752617
 51
282.985628936536
  0
ARC
  5
5AD9
330
1A
100
AcDbEntity
  8
寸法線
100
AcDbCircle
 10
53.889099413634
 20
439.533543815093
 30
0.0
 40
258.976785
100
AcDbArc
 50
274.42099851913
 51
283.132535315205
  0
ARC
  5
5ADA
102
{ACAD_REACTORS
330
5B87
102
}
330
1A
100
AcDbEntity
  8
寸法線
100
AcDbCircle
 10
53.928714413633
 20
439.307178815093
 30
0.0
 40
277.5005725
100
AcDbArc
 50
270.000056171912
 51
295.000037963579
  0
ARC
  5
5ADB
102
{ACAD_REACTORS
330
5B87
102
}
330
1A
100
AcDbEntity
  8
寸法線
100
AcDbCircle
 10
53.928789413633
 20
439.306948815093
 30
0.0
 40
265.000285
100
AcDbArc
 50
270.000056171912
 51
295.000044283248
  0
ARC
  5
5ADC
102
{ACAD_REACTORS
330
5B87
102
}
330
1A
100
AcDbEntity
  8
寸法線
100
AcDbCircle
 10
53.929571913633
 20
439.304736315093
 30
0.0
 40
252.4979775
100
AcDbArc
 50
269.999826988794
 51
295.000095534187
  0
LINE
  5
5ADD
102
{ACAD_REACTORS
330
5B87
102
}
330
1A
100
AcDbEntity
  8
寸法線
100
AcDbLine
 10
111.018081913633
 20
226.246951315093
 30
0.0
 11
122.515959413633
 21
183.336338815093
 31
0.0
  0
LINE
  5
5ADE
102
{ACAD_REACTORS
330
5B87
102
}
330
1A
100
AcDbEntity
  8
寸法線
100
AcDbLine
 10
70.151954413634
 20
394.734043815093
 30
0.0
 11
159.330936913634
 21
149.717143815093
 31
0.0
  0
LINE
  5
5ADF
330
1A
100
AcDbEntity
  8
寸法線
100
AcDbLine
 10
53.988694532767
 20
193.387298151297
 30
0.0
 11
53.928846913634
 21
129.306643815093
 31
0.0
  0
DIMENSION
  5
5AE0
330
1A
100
AcDbEntity
  8
寸法線
 48
10.0
100
AcDbDimension
  2
*D31
 10
159.330936913634
 20
149.717143815093
 30
0.0
 11
110.052469849953
 21
234.739699570958
 31
0.0
 70
   162
  1
約<>
  3
ISO-25
100
AcDb2LineAngularDimension
 13
111.018081913633
 23
226.246951315093
 33
0.0
 14
122.515959413633
 24
183.336338815093
 34
0.0
 15
70.151954413634
 25
394.734043815093
 35
0.0
 16
123.989474277345
 26
227.875817592834
 36
0.0
1001
ACAD
1000
DSTYLE
1002
{
1070
   287
1070
     5
1070
     5
1000
OPEN30
1070
    41
1040
6.0
1070
    47
1040
0.1
1070
    48
1040
0.1
1070
    73
1070
     0
1070
   140
1040
10.0
1070
   271
1070
     1
1070
   272
1070
     1
1070
   279
1070
     2
1070
   341
1005
2AEB
1002
}
  0
DIMENSION
  5
5AE3
330
1A
100
AcDbEntity
  8
寸法線
 48
10.0
100
AcDbDimension
  2
*D32
 10
159.330936913634
 20
149.717143815093
 30
0.0
 11
105.03415268045
 21
149.474390604096
 31
0.0
 70
    34
  1
約<>
  3
ISO-25
100
AcDb2LineAngularDimension
 13
53.928846913634
 23
246.108121315093
 33
0.0
 14
53.928846913634
 24
129.306643815093
 34
0.0
 15
70.151954413634
 25
394.734043815093
 35
0.0
 16
88.749657171704
 26
141.39591713309
 36
0.0
1001
ACAD
1000
DSTYLE
1002
{
1070
     5
1000
OPEN30
1070
    41
1040
6.0
1070
    47
1040
0.1
1070
    48
1040
0.1
1070
    73
1070
     0
1070
   140
1040
10.0
1070
   271
1070
     1
1070
   272
1070
     1
1070
   341
1005
2AEB
1002
}
  0
LINE
  5
5AE4
330
1A
100
AcDbEntity
  8
中心線
 48
10.0
100
AcDbLine
 10
145.654306436798
 20
439.306603364276
 30
0.0
 11
-35.340505757813
 21
439.306603364275
 31
0.0
  0
MTEXT
  5
5B24
330
1A
100
AcDbEntity
  8
寸法線
 48
10.0
100
AcDbMText
 10
3.256223134594
 20
126.797586717628
 30
0.0
 40
10.0
 41
99.133838612953
 71
     1
 72
     5
  1
羽根通常停止位置
  0
MTEXT
  5
5B25
330
1A
100
AcDbEntity
  8
寸法線
 48
10.0
100
AcDbMText
 10
135.770965801874
 20
145.873753677383
 30
0.0
 40
10.0
 41
57.444083257344
 71
     1
 72
     5
  1
動作角度
  0
DIMENSION
  5
5B26
330
1A
100
AcDbEntity
  8
寸法線
 48
10.0
100
AcDbDimension
  2
*D33
 10
55.86369453276
 20
284.099883058328
 30
0.0
 11
74.695801313947
 21
284.099883058328
 31
0.0
 70
   160
  1
1.5
  3
ISO-25
100
AcDbAlignedDimension
 13
52.11369453276
 23
284.099883058328
 33
0.0
 14
55.86369453276
 24
284.099883058328
 34
0.0
100
AcDbRotatedDimension
1001
ACAD
1000
DSTYLE
1002
{
1070
     5
1000
OPEN30
1070
    41
1040
6.0
1070
    47
1040
0.1
1070
    48
1040
0.1
1070
    73
1070
     0
1070
   140
1040
10.0
1070
   271
1070
     1
1070
   272
1070
     1
1070
   341
1005
2AEB
1002
}
  0
MTEXT
  5
5B27
330
1A
100
AcDbEntity
  8
寸法線
 48
10.0
100
AcDbMText
 10
-40.718143171487
 20
545.503047173835
 30
0.0
 40
10.0
 41
38.512865038577
 71
     1
 72
     5
  1
4-φ15
  0
LEADER
  5
5B28
330
1A
100
AcDbEntity
  8
寸法線
 48
10.0
100
AcDbLeader
  3
ISO-25
 76
     3
 10
8.026776369285
 20
492.768521515982
 30
0.0
 10
-3.697537080826
 20
534.808618364276
 30
0.0
 10
-41.157124819656
 20
534.808618364276
 30
0.0
1001
ACAD
1000
DSTYLE
1002
{
1070
     5
1000
OPEN30
1070
   147
1040
0.625
1070
    77
1070
     0
1070
    41
1040
6.0
1070
    47
1040
0.1
1070
    48
1040
0.1
1070
    73
1070
     0
1070
   140
1040
5.0
1070
   271
1070
     1
1070
   272
1070
     1
1070
   341
1005
2AEB
1070
   342
1005
2AEB
1002
}
  0
DIMENSION
  5
5B29
330
1A
100
AcDbEntity
  8
寸法線
 48
10.0
100
AcDbDimension
  2
*D34
 10
131.246569076132
 20
445.508541769245
 30
0.0
 11
100.619607985434
 21
442.915998182672
 31
0.0
 70
   161
  1
φ155
  3
ISO-25
100
AcDbAlignedDimension
 13
-23.166075972018
 23
432.153619623505
 33
0.0
 14
131.270441425512
 24
445.22652625391
 34
0.0
1001
ACAD
1000
DSTYLE
1002
{
1070
     5
1000
OPEN30
1070
    41
1040
6.0
1070
    47
1040
0.1
1070
    48
1040
0.1
1070
    73
1070
     0
1070
   140
1040
10.0
1070
   271
1070
     1
1070
   272
1070
     1
1070
   341
1005
2AEB
1002
}
  0
DIMENSION
  5
5B2A
330
1A
100
AcDbEntity
  8
寸法線
 48
10.0
100
AcDbDimension
  2
*D35
 10
113.446688055347
 20
465.422291895319
 30
0.0
 11
96.802882582444
 21
458.104480319043
 31
0.0
 70
   161
  1
φ130
  3
ISO-25
100
AcDbAlignedDimension
 13
-5.563664566385
 23
413.11043440079
 33
0.0
 14
113.44166388941
 24
465.433718978354
 34
0.0
1001
ACAD
1000
DSTYLE
1002
{
1070
     5
1000
OPEN30
1070
    41
1040
6.0
1070
    47
1040
0.1
1070
    48
1040
0.1
1070
    73
1070
     0
1070
   140
1040
10.0
1070
   271
1070
     1
1070
   272
1070
     1
1070
   341
1005
2AEB
1002
}
  0
LINE
  5
5B52
330
1A
100
AcDbEntity
  8
中心線
 48
10.0
100
AcDbLine
 10
43.098324532762
 20
419.166258364276
 30
0.0
 11
64.833192032762
 21
419.166258364276
 31
0.0
  0
LINE
  5
5B53
330
1A
100
AcDbEntity
  8
中心線
 48
10.0
100
AcDbLine
 10
41.688049532762
 20
454.166258364276
 30
0.0
 11
71.033047032762
 21
454.166258364276
 31
0.0
  0
LINE
  5
5B54
330
1A
100
AcDbEntity
  8
外形線
100
AcDbLine
 10
52.113674532762
 20
428.409270864276
 30
0.0
 11
55.86369453276
 21
428.409270864276
 31
0.0
  0
ARC
  5
5B55
330
1A
100
AcDbEntity
  8
外形線
100
AcDbCircle
 10
46.488694532762
 20
419.166258364276
 30
0.0
 40
2.5
100
AcDbArc
 50
89.999981276034
 51
270.0
  0
LINE
  5
5B56
330
1A
100
AcDbEntity
  8
外形線
100
AcDbLine
 10
52.113694532762
 20
414.166258364276
 30
0.0
 11
46.488694532762
 21
414.166258364276
 31
0.0
  0
ARC
  5
5B57
330
1A
100
AcDbEntity
  8
外形線
100
AcDbCircle
 10
61.488694532762
 20
419.166258364276
 30
0.0
 40
2.5
100
AcDbArc
 50
270.0
 51
90.000020971714
  0
LINE
  5
5B58
330
1A
100
AcDbEntity
  8
外形線
100
AcDbLine
 10
61.488694532762
 20
414.166258364276
 30
0.0
 11
55.863694532762
 21
414.166258364276
 31
0.0
  0
LINE
  5
5B59
330
1A
100
AcDbEntity
  8
外形線
100
AcDbLine
 10
61.488694532762
 20
459.166258364276
 30
0.0
 11
61.488694532762
 21
414.166258364276
 31
0.0
  0
CIRCLE
  5
5B5A
330
1A
100
AcDbEntity
  8
外形線
100
AcDbCircle
 10
53.988694532762
 20
439.306603364275
 30
0.0
 40
5.0
  0
LINE
  5
5B5B
330
1A
100
AcDbEntity
  8
外形線
100
AcDbLine
 10
52.113694532762
 20
451.666258364276
 30
0.0
 11
55.863694532762
 21
451.666258364276
 31
0.0
  0
LINE
  5
5B5C
330
1A
100
AcDbEntity
  8
細線
100
AcDbLine
 10
55.863694532762
 20
452.633933364276
 30
0.0
 11
52.113694532762
 21
452.633933364276
 31
0.0
  0
LINE
  5
5B5D
330
1A
100
AcDbEntity
  8
外形線
100
AcDbLine
 10
55.863694532762
 20
459.166258364276
 30
0.0
 11
61.488694532762
 21
459.166258364276
 31
0.0
  0
LINE
  5
5B5E
330
1A
100
AcDbEntity
  8
外形線
100
AcDbLine
 10
55.863694532762
 20
443.941725864275
 30
0.0
 11
55.863694532762
 21
459.166258364276
 31
0.0
  0
LINE
  5
5B5F
330
1A
100
AcDbEntity
  8
外形線
100
AcDbLine
 10
46.488694532762
 20
459.166258364276
 30
0.0
 11
46.488694532762
 21
414.166258364276
 31
0.0
  0
LINE
  5
5B60
330
1A
100
AcDbEntity
  8
外形線
100
AcDbLine
 10
52.113694532762
 20
443.941725864275
 30
0.0
 11
52.113694532762
 21
459.166258364276
 31
0.0
  0
LINE
  5
5B61
330
1A
100
AcDbEntity
  8
外形線
100
AcDbLine
 10
52.113694532762
 20
456.666258364276
 30
0.0
 11
55.863694532762
 21
456.666258364276
 31
0.0
  0
LINE
  5
5B62
330
1A
100
AcDbEntity
  8
細線
100
AcDbLine
 10
55.863694532762
 20
455.698583364276
 30
0.0
 11
52.113694532762
 21
455.698583364276
 31
0.0
  0
LINE
  5
5B63
330
1A
100
AcDbEntity
  8
外形線
100
AcDbLine
 10
52.113694532762
 20
459.166258364276
 30
0.0
 11
46.488694532762
 21
459.166258364276
 31
0.0
  0
LINE
  5
5B64
330
1A
100
AcDbEntity
  8
細線
100
AcDbLine
 10
62.788694532762
 20
456.510008364276
 30
0.0
 11
67.788694532762
 21
456.510008364276
 31
0.0
  0
LINE
  5
5B65
330
1A
100
AcDbEntity
  8
細線
100
AcDbLine
 10
62.788694532762
 20
454.947508364276
 30
0.0
 11
67.788694532762
 21
454.947508364276
 31
0.0
  0
LINE
  5
5B66
330
1A
100
AcDbEntity
  8
細線
100
AcDbLine
 10
62.788694532762
 20
453.385008364276
 30
0.0
 11
67.788694532762
 21
453.385008364276
 31
0.0
  0
LINE
  5
5B67
330
1A
100
AcDbEntity
  8
細線
100
AcDbLine
 10
62.788694532762
 20
451.822508364276
 30
0.0
 11
67.788694532762
 21
451.822508364276
 31
0.0
  0
LINE
  5
5B68
330
1A
100
AcDbEntity
  8
外形線
100
AcDbLine
 10
61.488694532762
 20
458.416258364275
 30
0.0
 11
67.788694532762
 21
458.416258364275
 31
0.0
  0
LINE
  5
5B69
330
1A
100
AcDbEntity
  8
外形線
100
AcDbLine
 10
67.788694532762
 20
449.916258364275
 30
0.0
 11
67.788694532762
 21
458.416258364275
 31
0.0
  0
LINE
  5
5B6A
330
1A
100
AcDbEntity
  8
外形線
100
AcDbLine
 10
61.488694532762
 20
449.916258364275
 30
0.0
 11
67.788694532762
 21
449.916258364275
 31
0.0
  0
LINE
  5
5B6B
330
1A
100
AcDbEntity
  8
細線
100
AcDbLine
 10
62.788694532762
 20
458.072508364276
 30
0.0
 11
67.788694532762
 21
458.072508364276
 31
0.0
  0
LINE
  5
5B6C
330
1A
100
AcDbEntity
  8
細線
100
AcDbLine
 10
62.788694532762
 20
450.260008364276
 30
0.0
 11
67.788694532762
 21
450.260008364276
 31
0.0
  0
ARC
  5
5B6D
330
1A
100
AcDbEntity
  8
外形線
100
AcDbCircle
 10
53.98869453276
 20
439.306603364275
 30
0.0
 40
16.99999999999982
100
AcDbArc
 50
296.178968704016
 51
38.615966185811
  0
ARC
  5
5B6E
330
1A
100
AcDbEntity
  8
外形線
100
AcDbCircle
 10
53.98869453276
 20
439.306603364275
 30
0.0
 40
16.99999999999988
100
AcDbArc
 50
116.178968704002
 51
243.821031295998
  0
LINE
  5
5B6F
330
1A
100
AcDbEntity
  8
中心線
 48
10.0
100
AcDbLine
 10
541.218041348212
 20
414.166258364275
 30
0.0
 11
541.218041348212
 21
193.187656656319
 31
0.0
  0
DIMENSION
  5
5B74
330
1A
100
AcDbEntity
  8
寸法線
 48
10.0
100
AcDbDimension
  2
*D36
 10
566.218041348212
 20
395.476458336277
 30
0.0
 11
553.718041348212
 21
401.106666669611
 31
0.0
 70
    32
  3
ISO-25
100
AcDbAlignedDimension
 13
541.218041348212
 23
414.166258364275
 33
0.0
 14
566.218041348212
 24
414.166258364275
 34
0.0
100
AcDbRotatedDimension
1001
ACAD
1000
DSTYLE
1002
{
1070
     5
1000
OPEN30
1070
    41
1040
6.0
1070
   271
1070
     1
1070
   341
1005
2AEB
1070
   272
1070
     1
1070
    73
1070
     0
1070
    48
1040
0.1
1070
    47
1040
0.1
1070
   140
1040
10.0
1002
}
  0
MTEXT
  5
5B81
102
{ACAD_XDICTIONARY
360
5B98
102
}
330
1A
100
AcDbEntity
  8
寸法線
 48
10.0
100
AcDbMText
 10
285.167445570646
 20
573.881446429894
 30
0.0
 40
12.0
 41
107.19903052202
 71
     1
 72
     1
  1
《時計方向動作》
1001
ACADANNOTATIVE
1000
AnnotativeData
1002
{
1070
     1
1070
     0
1002
}
  0
MTEXT
  5
5B82
102
{ACAD_XDICTIONARY
360
5B83
102
}
330
1A
100
AcDbEntity
  8
寸法線
 48
10.0
100
AcDbMText
 10
-2.768111094776
 20
573.881446429894
 30
0.0
 40
12.0
 41
144.853176884485
 71
     1
 72
     1
  1
《反時計方向動作》
1001
ACADANNOTATIVE
1000
AnnotativeData
1002
{
1070
     1
1070
     0
1002
}
  0
LINE
  5
5B86
102
{ACAD_REACTORS
330
5B87
102
}
330
1A
100
AcDbEntity
  8
下書線
 48
10.0
100
AcDbLine
 10
160.64020982369
 20
210.464031023357
 30
0.0
 11
171.20569063747
 21
187.806326757647
 31
0.0
  0
HATCH
  5
5B87
102
{ACAD_XDICTIONARY
360
5B88
102
}
330
1A
100
AcDbEntity
  8
細線
 48
10.0
100
AcDbHatch
 10
0.0
 20
0.0
 30
0.0
210
0.0
220
0.0
230
1.0
  2
ANSI31
 70
     0
 71
     1
 91
        3
 92
        7
 72
     1
 73
     1
 93
        5
 10
119.2807251268657
 20
195.4103833355884
 42
0.0
 10
122.5159594136334
 20
183.336338815093
 42
0.0
 10
122.515958426068
 20
183.3363425007333
 42
0.0218200816929291
 10
144.5642759087125
 20
190.2881550707623
 42
0.0
 10
140.2890322750508
 20
202.0342740833283
 42
-0.0218202826865669
 97
        5
330
5AD1
330
5ADD
330
5ADB
330
5ADE
330
5ADC
 92
        7
 72
     1
 73
     1
 93
        5
 10
165.9229342223345
 20
199.1352132202298
 42
0.0
 10
160.6402098236897
 20
210.4640310233566
 42
-0.0218204251907369
 10
140.2890322750507
 20
202.0342740833283
 42
0.0
 10
144.5642759087125
 20
190.2881550707623
 42
0.0218202196727318
 10
165.9229348471246
 20
199.1352135115748
 42
0.0
 97
        4
330
5B86
330
5ADC
330
5ADE
330
5ADB
 92
        7
 72
     1
 73
     1
 93
        5
 10
148.8395485867156
 20
178.5419562596351
 42
0.0218201967386258
 10
171.2056906374697
 20
187.8063267576466
 42
0.0
 10
165.9229342223345
 20
199.1352132202298
 42
0.0
 10
165.9229348471246
 20
199.1352135115748
 42
-0.0218202196727318
 10
144.5642759087125
 20
190.2881550707623
 42
0.0
 97
        4
330
5ADA
330
5B86
330
5ADB
330
5ADE
 75
     0
 76
     1
 52
0.0
 41
1.0
 77
     0
 78
     1
 53
45.0
 43
-243.6425951561588
 44
0.0
 45
-2.245064030267288
 46
2.245064030267288
 79
     0
 47
0.0
 98
        3
 10
135.7298411889947
 20
191.8411781435902
 10
147.3726256906916
 20
195.0335545392168
 10
159.2970904625909
 20
184.7052779651309
1001
ACAD
1010
0.0
1020
0.0
1030
0.0
1001
ACADANNOTATIVE
1000
AnnotativeData
1002
{
1070
     1
1070
     0
1002
}
  0
LINE
  5
5B9B
330
1A
100
AcDbEntity
  8
隠れ線
 48
10.0
100
AcDbLine
 10
192.523114416391
 20
111.703426434069
 30
0.0
 11
192.523114416391
 21
572.147531022291
 31
0.0
  0
MTEXT
  5
5B9C
102
{ACAD_XDICTIONARY
360
5B9D
102
}
330
1A
100
AcDbEntity
  8
寸法線
 48
10.0
100
AcDbMText
 10
11.811180895208
 20
69.619825477081
 30
0.0
 40
10.0
 41
514.080066592226
 71
     1
 72
     1
  1
※通過警報スイッチには「時計方向動作型」と「反時計方向動作型」\P　が御座います。　貴社の御仕様をご確認下さい。
1001
ACADANNOTATIVE
1000
AnnotativeData
1002
{
1070
     1
1070
     0
1002
}
  0
LINE
  5
5D2C
330
1A
100
AcDbEntity
  8
外形線
100
AcDbLine
 10
758.189741244244
 20
362.306603364275
 30
0.0
 11
758.189741244244
 21
516.306603364275
 31
0.0
  0
LINE
  5
5D39
330
1A
100
AcDbEntity
  8
外形線
100
AcDbLine
 10
758.189741244244
 20
362.306603364275
 30
0.0
 11
758.189741244244
 21
516.306603364275
 31
0.0
  0
MTEXT
  5
5D3A
330
1A
100
AcDbEntity
  8
寸法線
 48
10.0
100
AcDbMText
 10
858.655841017869
 20
356.954836332678
 30
0.0
 40
10.0
 41
0.0
 71
     7
 72
     1
  1
導線取出口\PG 1/2"
  0
DIMENSION
  5
5D3D
330
1A
100
AcDbEntity
  8
寸法線
 48
10.0
100
AcDbDimension
  2
*D53
 10
929.308519854468
 20
388.306603364275
 30
0.0
 11
929.308519854468
 21
438.694603864275
 31
0.0
 70
   160
  1
φ102
  3
ISO-25
100
AcDbAlignedDimension
 13
863.896895244246
 23
490.306603364275
 33
0.0
 14
863.896895244246
 24
388.306603364275
 34
0.0
 50
90.0
100
AcDbRotatedDimension
1001
ACAD
1000
DSTYLE
1002
{
1070
     5
1000
OPEN30
1070
    41
1040
6.0
1070
    47
1040
0.1
1070
    48
1040
0.1
1070
    73
1070
     0
1070
   140
1040
8.0
1070
   271
1070
     1
1070
   272
1070
     1
1070
   341
1005
2AEB
1002
}
  0
LEADER
  5
5D3E
330
1A
100
AcDbEntity
  8
寸法線
 62
     1
 48
10.0
100
AcDbLeader
  3
ISO-25
 76
     3
 10
834.926611678557
 20
370.934091741003
 30
0.0
 10
857.904552952598
 20
355.58549512662
 30
0.0
 10
866.678049832004
 20
355.58549512662
 30
0.0
213
-32.80685794901018
223
0.0
233
0.0
1001
ACAD
1000
DSTYLE
1002
{
1070
     5
1000
OPEN30
1070
   147
1040
0.625
1070
    77
1070
     0
1070
    41
1040
6.0
1070
    47
1040
0.1
1070
    48
1040
0.1
1070
    73
1070
     0
1070
   140
1040
8.0
1070
   271
1070
     1
1070
   272
1070
     1
1070
   341
1005
2AEB
1070
   342
1005
2AEB
1002
}
  0
ARC
  5
5D3F
330
1A
100
AcDbEntity
  8
外形線
100
AcDbCircle
 10
771.184447476161
 20
411.306603364275
 30
0.0
 40
3.0
100
AcDbArc
 50
90.0
 51
176.595735140967
  0
LINE
  5
5D40
330
1A
100
AcDbEntity
  8
外形線
100
AcDbLine
 10
767.189741244244
 20
361.806603364276
 30
0.0
 11
758.689741244244
 21
361.806603364276
 31
0.0
  0
LINE
  5
5D41
330
1A
100
AcDbEntity
  8
外形線
100
AcDbLine
 10
768.189741244244
 20
362.806603364276
 30
0.0
 11
768.189741244244
 21
515.806603364275
 31
0.0
  0
LINE
  5
5D42
330
1A
100
AcDbEntity
  8
外形線
100
AcDbLine
 10
845.684447476161
 20
388.306603364275
 30
0.0
 11
840.184447476162
 21
388.306603364275
 31
0.0
  0
LINE
  5
5D43
330
1A
100
AcDbEntity
  8
外形線
100
AcDbLine
 10
813.066141196111
 20
373.306603364275
 30
0.0
 11
837.313341292379
 21
373.306603364275
 31
0.0
  0
LINE
  5
5D44
330
1A
100
AcDbEntity
  8
外形線
100
AcDbLine
 10
840.184447476162
 20
388.306603364275
 30
0.0
 11
839.308911608092
 21
375.173565343228
 31
0.0
  0
LINE
  5
5D45
330
1A
100
AcDbEntity
  8
外形線
100
AcDbLine
 10
809.922404765431
 20
393.991526706188
 30
0.0
 11
811.069853382948
 21
375.184804484895
 31
0.0
  0
LINE
  5
5D46
330
1A
100
AcDbEntity
  8
外形線
100
AcDbLine
 10
808.979730878472
 20
394.929087619703
 30
0.0
 11
803.72864300319
 21
395.220814723885
 31
0.0
  0
LINE
  5
5D47
330
1A
100
AcDbEntity
  8
中心線
  6
CENTER
 48
10.0
100
AcDbLine
 10
825.189741244244
 20
357.405412427637
 30
0.0
 11
825.189741244244
 21
407.012049373896
 31
0.0
  0
LINE
  5
5D48
330
1A
100
AcDbEntity
  8
外形線
100
AcDbLine
 10
801.358586352965
 20
396.614216809337
 30
0.0
 11
791.067408124058
 21
412.908582338439
 31
0.0
  0
ARC
  5
5D49
330
1A
100
AcDbEntity
  8
外形線
100
AcDbCircle
 10
803.895053062058
 20
398.216195783501
 30
0.0
 40
3.0
100
AcDbArc
 50
212.275644314582
 51
266.820169880132
  0
ARC
  5
5D4A
330
1A
100
AcDbEntity
  8
外形線
100
AcDbCircle
 10
808.924260858849
 20
393.930627266497
 30
0.0
 40
1.0
100
AcDbArc
 50
3.491441283441
 51
86.820169880132
  0
ARC
  5
5D4B
330
1A
100
AcDbEntity
  8
外形線
100
AcDbCircle
 10
837.313341292379
 20
375.306603364275
 30
0.0
 40
2.0
100
AcDbArc
 50
270.0
 51
356.185925165712
  0
ARC
  5
5D4C
330
1A
100
AcDbEntity
  8
外形線
100
AcDbCircle
 10
813.066141196111
 20
375.306603364275
 30
0.0
 40
2.0
100
AcDbArc
 50
183.491441283441
 51
270.0
  0
LINE
  5
5D4D
330
1A
100
AcDbEntity
  8
外形線
100
AcDbLine
 10
845.684447476161
 20
388.306603364275
 30
0.0
 11
846.184447476161
 21
388.806603364275
 31
0.0
  0
LINE
  5
5D4E
330
1A
100
AcDbEntity
  8
細線
 62
     6
 48
10.0
100
AcDbLine
 10
841.184447476161
 20
490.306603364275
 30
0.0
 11
841.184447476161
 21
388.306603364275
 31
0.0
  0
LINE
  5
5D4F
330
1A
100
AcDbEntity
  8
細線
 62
     6
 48
10.0
100
AcDbLine
 10
838.184447476161
 20
485.306603364275
 30
0.0
 11
838.184447476161
 21
397.159435421716
 31
0.0
  0
LINE
  5
5D50
330
1A
100
AcDbEntity
  8
細線
 62
     6
 48
10.0
100
AcDbLine
 10
802.786469931143
 20
480.232225426406
 30
0.0
 11
802.786469931143
 21
398.255901917456
 31
0.0
  0
LINE
  5
5D51
330
1A
100
AcDbEntity
  8
細線
100
AcDbLine
 10
867.604369476162
 20
487.858605364275
 30
0.0
 11
867.604369476162
 21
390.754601364275
 31
0.0
  0
LINE
  5
5D52
330
1A
100
AcDbEntity
  8
外形線
100
AcDbLine
 10
848.183593476161
 20
388.306603364275
 30
0.0
 11
848.183593476161
 21
490.306603364275
 31
0.0
  0
LINE
  5
5D53
330
1A
100
AcDbEntity
  8
外形線
100
AcDbLine
 10
846.184447476161
 20
490.306603364275
 30
0.0
 11
846.184447476161
 21
388.306603364275
 31
0.0
  0
ARC
  5
5D54
330
1A
100
AcDbEntity
  8
細線
100
AcDbCircle
 10
838.612105244244
 20
382.184687364275
 30
0.0
 40
18.322924
100
AcDbArc
 50
247.068453993571
 51
267.322397459919
  0
LINE
  5
5D55
330
1A
100
AcDbEntity
  8
外形線
100
AcDbLine
 10
812.623335244244
 20
363.881769364275
 30
0.0
 11
837.756149244245
 21
363.881769364275
 31
0.0
  0
LINE
  5
5D56
330
1A
100
AcDbEntity
  8
外形線
100
AcDbLine
 10
811.195357244244
 20
369.022577364275
 30
0.0
 11
839.184249244246
 21
369.022577364275
 31
0.0
  0
LINE
  5
5D57
330
1A
100
AcDbEntity
  8
細線
100
AcDbLine
 10
832.329757244245
 20
373.306573364275
 30
0.0
 11
832.329757244245
 21
369.022577364275
 31
0.0
  0
LINE
  5
5D58
330
1A
100
AcDbEntity
  8
外形線
100
AcDbLine
 10
834.614547244245
 20
369.022577364275
 30
0.0
 11
834.614547244245
 21
373.306573364275
 31
0.0
  0
LINE
  5
5D59
330
1A
100
AcDbEntity
  8
細線
100
AcDbLine
 10
831.472945244245
 20
365.309809364275
 30
0.0
 11
831.472945244245
 21
369.022577364275
 31
0.0
  0
LINE
  5
5D5A
330
1A
100
AcDbEntity
  8
細線
100
AcDbLine
 10
818.049727244245
 20
373.306573364275
 30
0.0
 11
818.049727244245
 21
369.022577364275
 31
0.0
  0
LINE
  5
5D5B
330
1A
100
AcDbEntity
  8
外形線
100
AcDbLine
 10
815.764937244246
 20
369.022577364275
 30
0.0
 11
815.764937244246
 21
373.306573364275
 31
0.0
  0
ARC
  5
5D5C
330
1A
100
AcDbEntity
  8
細線
100
AcDbCircle
 10
811.767379244245
 20
382.184687364275
 30
0.0
 40
18.322924
100
AcDbArc
 50
272.67766208363
 51
292.931548254146
  0
LINE
  5
5D5D
330
1A
100
AcDbEntity
  8
外形線
100
AcDbLine
 10
811.195357244244
 20
365.309809364275
 30
0.0
 11
812.623335244244
 21
363.881769364275
 31
0.0
  0
LINE
  5
5D5E
330
1A
100
AcDbEntity
  8
細線
100
AcDbLine
 10
818.906539244245
 20
365.309809364275
 30
0.0
 11
818.906539244245
 21
369.022577364275
 31
0.0
  0
LINE
  5
5D5F
330
1A
100
AcDbEntity
  8
外形線
100
AcDbLine
 10
811.195357244244
 20
369.022577364275
 30
0.0
 11
811.195357244244
 21
365.309809364275
 31
0.0
  0
ARC
  5
5D60
330
1A
100
AcDbEntity
  8
細線
100
AcDbCircle
 10
825.189741244244
 20
378.418451364275
 30
0.0
 40
14.53669
100
AcDbArc
 50
244.3907930338
 51
295.609209213942
  0
LINE
  5
5D61
330
1A
100
AcDbEntity
  8
外形線
100
AcDbLine
 10
839.184249244246
 20
365.309809364275
 30
0.0
 11
837.756149244245
 21
363.881769364275
 31
0.0
  0
LINE
  5
5D62
330
1A
100
AcDbEntity
  8
外形線
100
AcDbLine
 10
839.184249244246
 20
369.022577364275
 30
0.0
 11
839.184249244246
 21
365.309809364275
 31
0.0
  0
ARC
  5
5D63
330
1A
100
AcDbEntity
  8
外形線
100
AcDbCircle
 10
863.565551476161
 20
412.456141364275
 30
0.0
 40
4.015794000000001
100
AcDbArc
 50
275.934583374273
 51
85.343077308689
  0
LINE
  5
5D64
330
1A
100
AcDbEntity
  8
外形線
100
AcDbLine
 10
867.604369476162
 20
390.754601364275
 30
0.0
 11
863.891601476163
 21
388.306603364275
 31
0.0
  0
LINE
  5
5D65
330
1A
100
AcDbEntity
  8
外形線
100
AcDbLine
 10
865.931701476161
 20
397.037805364275
 30
0.0
 11
848.183593476161
 21
397.037805364275
 31
0.0
  0
LINE
  5
5D66
330
1A
100
AcDbEntity
  8
外形線
100
AcDbLine
 10
865.931701476161
 20
393.610681364275
 30
0.0
 11
848.183593476161
 21
393.610681364275
 31
0.0
  0
LINE
  5
5D67
330
1A
100
AcDbEntity
  8
細線
100
AcDbLine
 10
863.891601476163
 20
408.461877364275
 30
0.0
 11
863.891601476163
 21
397.037805364275
 31
0.0
  0
LINE
  5
5D68
330
1A
100
AcDbEntity
  8
細線
100
AcDbLine
 10
863.891601476163
 20
393.610681364275
 30
0.0
 11
863.891601476163
 21
388.306603364275
 31
0.0
  0
LINE
  5
5D69
330
1A
100
AcDbEntity
  8
外形線
100
AcDbLine
 10
846.184447476161
 20
388.306603364275
 30
0.0
 11
863.891601476163
 21
388.306603364275
 31
0.0
  0
LINE
  5
5D6A
330
1A
100
AcDbEntity
  8
外形線
100
AcDbLine
 10
848.183593476161
 20
408.461877364275
 30
0.0
 11
863.980711476162
 21
408.461877364275
 31
0.0
  0
LINE
  5
5D6B
330
1A
100
AcDbEntity
  8
外形線
100
AcDbLine
 10
898.479291244245
 20
439.306603364275
 30
0.0
 11
898.479291244245
 21
396.818323364275
 31
0.0
  0
ARC
  5
5D6C
330
1A
100
AcDbEntity
  8
外形線
100
AcDbCircle
 10
893.625945278016
 20
396.817570784645
 30
0.0
 40
4.853322024346461
100
AcDbArc
 50
272.337565725697
 51
0.008866954304
  0
ARC
  5
5D6D
330
1A
100
AcDbEntity
  8
外形線
100
AcDbCircle
 10
865.877685476163
 20
395.324183364275
 30
0.0
 40
1.714446
100
AcDbArc
 50
271.804703587001
 51
88.195318508631
  0
LINE
  5
5D6E
330
1A
100
AcDbEntity
  8
外形線
100
AcDbLine
 10
867.604369476162
 20
390.754601364275
 30
0.0
 11
893.823897244244
 21
391.968287364275
 31
0.0
  0
ARC
  5
5D6F
330
1A
100
AcDbEntity
  8
外形線
100
AcDbCircle
 10
906.327559244245
 20
408.038537364275
 30
0.0
 40
1.86215
100
AcDbArc
 50
268.482178628786
 51
83.815801009984
  0
ARC
  5
5D70
330
1A
100
AcDbEntity
  8
外形線
100
AcDbCircle
 10
900.479781244244
 20
411.889093364275
 30
0.0
 40
2.000724
100
AcDbArc
 50
87.75702339541
 51
272.242959004483
  0
LINE
  5
5D71
330
1A
100
AcDbEntity
  8
外形線
100
AcDbLine
 10
900.558027244245
 20
409.889855364275
 30
0.0
 11
906.528119244244
 21
409.889855364275
 31
0.0
  0
LINE
  5
5D72
330
1A
100
AcDbEntity
  8
外形線
100
AcDbLine
 10
898.479291244245
 20
406.177087364275
 30
0.0
 11
906.278241244244
 21
406.177087364275
 31
0.0
  0
ARC
  5
5D73
330
1A
100
AcDbEntity
  8
細線
100
AcDbCircle
 10
825.805221244244
 20
362.539605364273
 30
0.0
 40
36.76653200000171
100
AcDbArc
 50
70.324160459507
 51
115.211785839405
  0
LINE
  5
5D74
330
1A
100
AcDbEntity
  8
細線
 62
     6
 48
10.0
100
AcDbLine
 10
838.184447476161
 20
397.159435421716
 30
0.0
 11
841.184447476161
 21
388.306603364275
 31
0.0
  0
LINE
  5
5D75
330
1A
100
AcDbEntity
  8
中心線
  6
CENTER
 48
10.0
100
AcDbLine
 10
753.187253801992
 20
374.306603364275
 30
0.0
 11
773.189741244244
 21
374.306603364275
 31
0.0
  0
LINE
  5
5D76
330
1A
100
AcDbEntity
  8
中心線
  6
CENTER
 48
10.0
100
AcDbLine
 10
753.187253801992
 20
504.306603364275
 30
0.0
 11
773.189741244244
 21
504.306603364275
 31
0.0
  0
LINE
  5
5D77
330
1A
100
AcDbEntity
  8
外形線
100
AcDbLine
 10
788.530941414965
 20
414.306603364275
 30
0.0
 11
771.184447476161
 21
414.306603364275
 31
0.0
  0
LINE
  5
5D78
330
1A
100
AcDbEntity
  8
外形線
100
AcDbLine
 10
767.189741244244
 20
516.806603364275
 30
0.0
 11
758.689741244244
 21
516.806603364275
 31
0.0
  0
ARC
  5
5D79
330
1A
100
AcDbEntity
  8
外形線
100
AcDbCircle
 10
771.184447476161
 20
467.306603364275
 30
0.0
 40
3.0
100
AcDbArc
 50
183.404264859033
 51
270.0
  0
LINE
  5
5D7A
330
1A
100
AcDbEntity
  8
外形線
100
AcDbLine
 10
845.684447476161
 20
490.306603364275
 30
0.0
 11
841.184447476161
 21
490.306603364275
 31
0.0
  0
LINE
  5
5D7B
330
1A
100
AcDbEntity
  8
外形線
100
AcDbLine
 10
841.184447476161
 20
490.306603364275
 30
0.0
 11
838.184447476161
 21
485.306603364275
 31
0.0
  0
LINE
  5
5D7C
330
1A
100
AcDbEntity
  8
外形線
100
AcDbLine
 10
838.184447476161
 20
485.306603364275
 30
0.0
 11
803.72864300319
 21
483.392392004666
 31
0.0
  0
LINE
  5
5D7D
330
1A
100
AcDbEntity
  8
外形線
100
AcDbLine
 10
801.358586352964
 20
481.998989919214
 30
0.0
 11
791.067408124058
 21
465.704624390111
 31
0.0
  0
LINE
  5
5D7E
330
1A
100
AcDbEntity
  8
外形線
100
AcDbLine
 10
788.530941414965
 20
464.306603364275
 30
0.0
 11
771.184447476161
 21
464.306603364275
 31
0.0
  0
ARC
  5
5D7F
330
1A
100
AcDbEntity
  8
外形線
100
AcDbCircle
 10
788.530941414965
 20
467.306603364275
 30
0.0
 40
3.0
100
AcDbArc
 50
270.0
 51
327.724355685418
  0
ARC
  5
5D80
330
1A
100
AcDbEntity
  8
外形線
100
AcDbCircle
 10
788.530941414965
 20
411.306603364275
 30
0.0
 40
3.0
100
AcDbArc
 50
32.275644314582
 51
90.0
  0
ARC
  5
5D81
330
1A
100
AcDbEntity
  8
外形線
100
AcDbCircle
 10
803.895053062058
 20
480.39701094505
 30
0.0
 40
3.0
100
AcDbArc
 50
93.179830119868
 51
147.724355685418
  0
LINE
  5
5D82
330
1A
100
AcDbEntity
  8
外形線
100
AcDbLine
 10
845.684447476161
 20
490.306603364275
 30
0.0
 11
846.184447476161
 21
489.806603364275
 31
0.0
  0
LINE
  5
5D83
330
1A
100
AcDbEntity
  8
細線
 62
     6
 48
10.0
100
AcDbLine
 10
790.403590381116
 20
462.444909110534
 30
0.0
 11
790.403590381116
 21
415.656536601703
 31
0.0
  0
LINE
  5
5D84
330
1A
100
AcDbEntity
  8
細線
100
AcDbLine
 10
863.891601476163
 20
470.151453364275
 30
0.0
 11
863.891601476163
 21
481.575403364275
 31
0.0
  0
LINE
  5
5D85
330
1A
100
AcDbEntity
  8
外形線
100
AcDbLine
 10
898.479291244245
 20
439.306603364275
 30
0.0
 11
898.479291244245
 21
481.795007364275
 31
0.0
  0
ARC
  5
5D86
330
1A
100
AcDbEntity
  8
外形線
100
AcDbCircle
 10
863.565551476161
 20
466.157189364275
 30
0.0
 40
4.015794000000001
100
AcDbArc
 50
274.656944786914
 51
84.065438721313
  0
ARC
  5
5D87
330
1A
100
AcDbEntity
  8
外形線
100
AcDbCircle
 10
862.604491476161
 20
438.724207364275
 30
0.0
 40
5.033766
100
AcDbArc
 50
6.644133183896
 51
75.184725088468
  0
ARC
  5
5D88
330
1A
100
AcDbEntity
  8
外形線
100
AcDbCircle
 10
862.604491476161
 20
439.889123364275
 30
0.0
 40
5.033766
100
AcDbArc
 50
284.815257311503
 51
353.35584921602
  0
LINE
  5
5D89
330
1A
100
AcDbEntity
  8
細線
100
AcDbLine
 10
863.891601476163
 20
435.022669364275
 30
0.0
 11
863.891601476163
 21
416.458581364275
 31
0.0
  0
LINE
  5
5D8A
330
1A
100
AcDbEntity
  8
外形線
100
AcDbLine
 10
848.183593476161
 20
416.458581364275
 30
0.0
 11
863.891601476163
 21
416.458581364275
 31
0.0
  0
LINE
  5
5D8B
330
1A
100
AcDbEntity
  8
細線
100
AcDbLine
 10
863.891601476163
 20
443.590661364275
 30
0.0
 11
863.891601476163
 21
462.154627364275
 31
0.0
  0
LINE
  5
5D8C
330
1A
100
AcDbEntity
  8
外形線
100
AcDbLine
 10
848.183593476161
 20
443.590661364275
 30
0.0
 11
863.891601476163
 21
443.590661364275
 31
0.0
  0
LINE
  5
5D8D
330
1A
100
AcDbEntity
  8
外形線
100
AcDbLine
 10
848.183593476161
 20
435.022669364275
 30
0.0
 11
863.891601476163
 21
435.022669364275
 31
0.0
  0
LINE
  5
5D8E
330
1A
100
AcDbEntity
  8
外形線
100
AcDbLine
 10
848.183593476161
 20
462.154627364275
 30
0.0
 11
863.891601476163
 21
462.154627364275
 31
0.0
  0
LINE
  5
5D8F
330
1A
100
AcDbEntity
  8
外形線
100
AcDbLine
 10
848.183593476161
 20
470.151453364275
 30
0.0
 11
863.980711476162
 21
470.151453364275
 31
0.0
  0
LINE
  5
5D90
330
1A
100
AcDbEntity
  8
外形線
100
AcDbLine
 10
908.189741244244
 20
415.887415364275
 30
0.0
 11
908.189741244244
 21
433.309045364275
 31
0.0
  0
ARC
  5
5D91
330
1A
100
AcDbEntity
  8
外形線
100
AcDbCircle
 10
906.190473244244
 20
415.887415364275
 30
0.0
 40
1.9992
100
AcDbArc
 50
270.0
 51
359.999982399883
  0
LINE
  5
5D92
330
1A
100
AcDbEntity
  8
外形線
100
AcDbLine
 10
900.558089244244
 20
413.888269364275
 30
0.0
 11
906.190473244244
 21
413.888269364275
 31
0.0
  0
LINE
  5
5D93
330
1A
100
AcDbEntity
  8
外形線
100
AcDbLine
 10
908.189741244244
 20
462.725793364275
 30
0.0
 11
908.189741244244
 21
445.304163364275
 31
0.0
  0
ARC
  5
5D94
330
1A
100
AcDbEntity
  8
外形線
100
AcDbCircle
 10
906.190473244244
 20
445.304163364275
 30
0.0
 40
1.9992
100
AcDbArc
 50
270.0
 51
359.999982399909
  0
ARC
  5
5D95
330
1A
100
AcDbEntity
  8
外形線
100
AcDbCircle
 10
900.633711244244
 20
441.159509364275
 30
0.0
 40
2.15556
100
AcDbArc
 50
95.512637406102
 51
178.089033713719
  0
LINE
  5
5D96
330
1A
100
AcDbEntity
  8
外形線
100
AcDbLine
 10
900.426679244244
 20
443.305017364275
 30
0.0
 11
906.190473244244
 21
443.305017364275
 31
0.0
  0
LINE
  5
5D97
330
1A
100
AcDbEntity
  8
外形線
100
AcDbLine
 10
900.426679244244
 20
435.308313364275
 30
0.0
 11
906.190473244244
 21
435.308313364275
 31
0.0
  0
ARC
  5
5D98
330
1A
100
AcDbEntity
  8
外形線
100
AcDbCircle
 10
906.190473244244
 20
433.309045364275
 30
0.0
 40
1.9992
100
AcDbArc
 50
0.0
 51
89.999981276019
  0
ARC
  5
5D99
330
1A
100
AcDbEntity
  8
外形線
100
AcDbCircle
 10
900.633711244244
 20
437.453821364275
 30
0.0
 40
2.15556
100
AcDbArc
 50
181.91094868617
 51
264.487402289581
  0
LINE
  5
5D9A
330
1A
100
AcDbEntity
  8
外形線
100
AcDbLine
 10
898.479291244245
 20
472.436243364275
 30
0.0
 11
906.278241244244
 21
472.436243364275
 31
0.0
  0
ARC
  5
5D9B
330
1A
100
AcDbEntity
  8
外形線
100
AcDbCircle
 10
906.190473244244
 20
462.725793364275
 30
0.0
 40
1.9992
100
AcDbArc
 50
0.0
 51
89.999981276019
  0
ARC
  5
5D9C
330
1A
100
AcDbEntity
  8
外形線
100
AcDbCircle
 10
900.478499244245
 20
466.724207364275
 30
0.0
 40
2.000726
100
AcDbArc
 50
87.722187561485
 51
272.277852134191
  0
LINE
  5
5D9D
330
1A
100
AcDbEntity
  8
外形線
100
AcDbLine
 10
900.558027244245
 20
464.725061364275
 30
0.0
 11
906.190473244244
 21
464.725061364275
 31
0.0
  0
LINE
  5
5D9E
330
1A
100
AcDbEntity
  8
外形線
100
AcDbLine
 10
900.558027244245
 20
468.723351364275
 30
0.0
 11
906.528119244244
 21
468.723351364275
 31
0.0
  0
ARC
  5
5D9F
330
1A
100
AcDbEntity
  8
外形線
100
AcDbCircle
 10
906.327559244245
 20
470.574793364275
 30
0.0
 40
1.86215
100
AcDbArc
 50
276.184221085604
 51
91.517843466766
  0
LINE
  5
5DA0
330
1A
100
AcDbEntity
  8
外形線
100
AcDbLine
 10
865.931701476161
 20
481.575403364275
 30
0.0
 11
848.183593476161
 21
481.575403364275
 31
0.0
  0
LINE
  5
5DA1
330
1A
100
AcDbEntity
  8
外形線
100
AcDbLine
 10
865.931701476161
 20
485.002649364275
 30
0.0
 11
848.183593476161
 21
485.002649364275
 31
0.0
  0
LINE
  5
5DA2
330
1A
100
AcDbEntity
  8
外形線
100
AcDbLine
 10
863.891601476163
 20
490.306603364275
 30
0.0
 11
867.604369476162
 21
487.858605364275
 31
0.0
  0
LINE
  5
5DA3
330
1A
100
AcDbEntity
  8
外形線
100
AcDbLine
 10
846.184447476161
 20
490.306603364275
 30
0.0
 11
863.891601476163
 21
490.306603364275
 31
0.0
  0
LINE
  5
5DA4
330
1A
100
AcDbEntity
  8
細線
100
AcDbLine
 10
863.891601476163
 20
485.002649364275
 30
0.0
 11
863.891601476163
 21
490.306603364275
 31
0.0
  0
ARC
  5
5DA5
330
1A
100
AcDbEntity
  8
外形線
100
AcDbCircle
 10
893.626052568433
 20
481.795802937986
 30
0.0
 40
4.853214741019798
100
AcDbArc
 50
359.990607665518
 51
87.663650269118
  0
ARC
  5
5DA6
330
1A
100
AcDbEntity
  8
外形線
100
AcDbCircle
 10
865.877685476163
 20
483.289025364275
 30
0.0
 40
1.714446
100
AcDbArc
 50
271.804703587001
 51
88.195318508631
  0
LINE
  5
5DA7
330
1A
100
AcDbEntity
  8
外形線
100
AcDbLine
 10
867.604369476162
 20
487.858605364275
 30
0.0
 11
893.823897244244
 21
486.644983364275
 31
0.0
  0
LINE
  5
5DA8
330
1A
100
AcDbEntity
  8
外形線
100
AcDbLine
 10
767.189741244244
 20
516.806603364275
 30
0.0
 11
758.689741244244
 21
516.806603364275
 31
0.0
  0
LINE
  5
5DA9
330
1A
100
AcDbEntity
  8
外形線
100
AcDbLine
 10
758.689741244244
 20
516.806603364275
 30
0.0
 11
758.189741244244
 21
516.306603364275
 31
0.0
  0
LINE
  5
5DAA
330
1A
100
AcDbEntity
  8
外形線
100
AcDbLine
 10
767.189741244244
 20
516.806603364275
 30
0.0
 11
768.189741244244
 21
515.806603364275
 31
0.0
  0
LINE
  5
5DAB
330
1A
100
AcDbEntity
  8
外形線
100
AcDbLine
 10
758.689741244244
 20
361.806603364276
 30
0.0
 11
758.189741244244
 21
362.306603364276
 31
0.0
  0
LINE
  5
5DAC
330
1A
100
AcDbEntity
  8
外形線
100
AcDbLine
 10
767.189741244244
 20
361.806603364276
 30
0.0
 11
768.189741244244
 21
362.806603364276
 31
0.0
  0
LINE
  5
5E75
330
1A
100
AcDbEntity
  8
寸法線
 48
10.0
100
AcDbLine
 10
908.164929244244
 20
385.04085873983
 30
0.0
 11
908.164929244244
 21
404.974034548226
 31
0.0
  0
VIEWPORT
  5
2902
330
28FB
100
AcDbEntity
 67
     1
  8
0
 48
10.0
100
AcDbViewport
 10
217.780029971632
 20
144.247718425406
 30
0.0
 40
550.843925109419
 41
325.85133598022
 68
     1
 69
     1
1001
ACAD
1000
MVIEW
1002
{
1070
    16
1010
0.0
1020
0.0
1030
0.0
1010
0.0
1020
0.0
1030
1.0
1040
0.0
1040
325.85133598022
1040
217.780029971632
1040
144.247718425406
1040
50.0
1040
0.0
1040
0.0
1070
     0
1070
   100
1070
     0
1070
     1
1070
     0
1070
     0
1070
     0
1070
     0
1040
0.0
1040
0.0
1040
0.0
1040
10.0
1040
10.0
1040
10.0
1040
10.0
1070
     0
1002
{
1002
}
1002
}
  0
VIEWPORT
  5
2904
330
28FB
100
AcDbEntity
 67
     1
  8
図枠太線
 48
10.0
100
AcDbViewport
 10
204.746305129083
 20
163.457123274536
 30
0.0
 40
400.0
 41
240.0
 68
     2
 69
     2
1001
ACAD
1000
MVIEW
1002
{
1070
    16
1010
0.0
1020
0.0
1030
0.0
1010
0.0
1020
0.0
1030
1.0
1040
0.0
1040
600.000000380771
1040
453.709209614386
1040
287.634879862605
1040
50.0
1040
0.0
1040
0.0
1070
     0
1070
   100
1070
     0
1070
     0
1070
     0
1070
     0
1070
     0
1070
     0
1040
0.0
1040
0.0
1040
0.0
1040
1.0
1040
1.0
1040
0.0
1040
0.0
1070
     0
1002
{
1002
}
1002
}
  0
INSERT
  5
2A59
330
28FB
100
AcDbEntity
 67
     1
  8
図枠太線
100
AcDbBlockReference
  2
A3横用_タイトル
 10
-0.352109406709
 20
-0.068836478991
 30
0.0
  0
MTEXT
  5
31AF
102
{ACAD_XDICTIONARY
360
5A87
102
}
330
28FB
100
AcDbEntity
 67
     1
  8
寸法線
 48
10.0
100
AcDbMText
 10
175.55966480532
 20
13.567063368041
 30
0.0
 40
5.0
 41
33.4
 71
     1
 72
     5
  1
2015.6.16
1001
ACADANNOTATIVE
1000
AnnotativeData
1002
{
1070
     1
1070
     0
1002
}
  0
MTEXT
  5
31B0
102
{ACAD_XDICTIONARY
360
5A8A
102
}
330
28FB
100
AcDbEntity
 67
     1
  8
寸法線
 48
10.0
100
AcDbMText
 10
181.185362215805
 20
34.536203268393
 30
0.0
 40
5.0
 41
24.095370007442
 71
     1
 72
     5
  1
ohno
1001
ACADANNOTATIVE
1000
AnnotativeData
1002
{
1070
     1
1070
     0
1002
}
  0
MTEXT
  5
31B1
330
28FB
100
AcDbEntity
 67
     1
  8
寸法線
 48
10.0
100
AcDbMText
 10
146.607621275113
 20
14.955532564486
 30
0.0
 40
7.0
 41
17.722495000522
 71
     1
 72
     5
  1
1:2.5
  0
MTEXT
  5
31B4
102
{ACAD_XDICTIONARY
360
5A84
102
}
330
28FB
100
AcDbEntity
 67
     1
  8
寸法線
 48
10.0
100
AcDbMText
 10
343.41411075628
 20
17.345158694154
 30
0.0
 40
7.0
 41
36.987144228194
 71
     1
 72
     5
  1
\H1.143x;HY-5001
1001
ACADANNOTATIVE
1000
AnnotativeData
1002
{
1070
     1
1070
     0
1002
}
  0
MTEXT
  5
31B5
330
28FB
100
AcDbEntity
 67
     1
  8
寸法線
 48
10.0
100
AcDbMText
 10
320.165597342587
 20
35.989079454545
 30
0.0
 40
8.0
 41
24.128904612543
 71
     1
 72
     5
  1
PA-1
  0
MTEXT
  5
31B6
330
28FB
100
AcDbEntity
 67
     1
  8
寸法線
 48
10.0
100
AcDbMText
 10
377.701941238986
 20
40.080736974002
 30
0.0
 40
5.0
 41
0.0
 71
     1
 72
     5
  1
通過警報\Pスイッチ
  0
MTEXT
  5
31B7
102
{ACAD_XDICTIONARY
360
5B8D
102
}
330
28FB
100
AcDbEntity
 67
     1
  8
寸法線
 48
10.0
100
AcDbMText
 10
375.145429271661
 20
50.972862699633
 30
0.0
 40
5.0
 41
52.347826086957
 71
     1
 72
     5
  1
台数 　 台
1001
ACADANNOTATIVE
1000
AnnotativeData
1002
{
1070
     1
1070
     0
1002
}
  0
ENDSEC
  0
SECTION
  2
OBJECTS
  0
DICTIONARY
  5
C
330
0
100
AcDbDictionary
  3
ACAD_COLOR
350
2948
  3
ACAD_GROUP
350
D
  3
ACAD_LAYOUT
350
2816
  3
ACAD_MATERIAL
350
2947
  3
ACAD_MLEADERSTYLE
350
5A80
  3
ACAD_MLINESTYLE
350
E
  3
ACAD_PLOTSETTINGS
350
2817
  3
ACAD_SCALELIST
350
5A59
  3
ACAD_VISUALSTYLE
350
5A40
  3
ACADDIM
350
4AF1
  3
ACDBHEADERROUNDTRIPXREC
350
5E77
  3
ACDBVARIABLEDICTIONARY
350
5B90
  3
DWGPROPS
350
5E9C
  0
DICTIONARY
  5
5E9D
330
8
100
AcDbDictionary
280
     1
  3
ACAD_XREC_ROUNDTRIP
360
5E9E
  0
DICTIONARY
  5
29EA
330
2
100
AcDbDictionary
280
     1
  3
ACAD_LAYERFILTERS
360
2B03
  3
ACAD_LAYERSTATES
360
29EB
  0
DICTIONARY
  5
5B8B
330
1A
100
AcDbDictionary
280
     1
  3
ACAD_SORTENTS
360
5B8C
  0
DICTIONARY
  5
5B71
330
4435
100
AcDbDictionary
280
     1
  3
ACDBCONTEXTDATAMANAGER
360
5B72
  0
DICTIONARY
  5
5B98
330
5B81
100
AcDbDictionary
280
     1
  3
ACDBCONTEXTDATAMANAGER
360
5B99
  0
DICTIONARY
  5
5B83
330
5B82
100
AcDbDictionary
280
     1
  3
ACDBCONTEXTDATAMANAGER
360
5B84
  0
DICTIONARY
  5
5B88
330
5B87
100
AcDbDictionary
280
     1
  3
ACDBCONTEXTDATAMANAGER
360
5B89
  0
DICTIONARY
  5
5B9D
330
5B9C
100
AcDbDictionary
280
     1
  3
ACDBCONTEXTDATAMANAGER
360
5B9E
  0
DICTIONARY
  5
5A87
330
31AF
100
AcDbDictionary
280
     1
  3
ACDBCONTEXTDATAMANAGER
360
5A88
  0
DICTIONARY
  5
5A8A
330
31B0
100
AcDbDictionary
280
     1
  3
ACDBCONTEXTDATAMANAGER
360
5A8B
  0
DICTIONARY
  5
5A84
330
31B4
100
AcDbDictionary
280
     1
  3
ACDBCONTEXTDATAMANAGER
360
5A85
  0
DICTIONARY
  5
5B8D
330
31B7
100
AcDbDictionary
280
     1
  3
ACDBCONTEXTDATAMANAGER
360
5B8E
  0
DICTIONARY
  5
2948
102
{ACAD_REACTORS
330
C
102
}
330
C
100
AcDbDictionary
  0
DICTIONARY
  5
D
102
{ACAD_REACTORS
330
C
102
}
330
C
100
AcDbDictionary
  0
DICTIONARY
  5
2816
102
{ACAD_REACTORS
330
C
102
}
330
C
100
AcDbDictionary
  0
DICTIONARY
  5
2947
102
{ACAD_REACTORS
330
C
102
}
330
C
100
AcDbDictionary
  3
BYBLOCK
350
5A7C
  3
BYLAYER
350
5A7B
  3
GLOBAL
350
5A7D
  0
DICTIONARY
  5
5A80
102
{ACAD_REACTORS
330
C
102
}
330
C
100
AcDbDictionary
  3
STANDARD
350
5A81
  0
DICTIONARY
  5
E
102
{ACAD_REACTORS
330
C
102
}
330
C
100
AcDbDictionary
  3
STANDARD
350
13
  0
DICTIONARY
  5
2817
102
{ACAD_REACTORS
330
C
102
}
330
C
100
AcDbDictionary
  0
DICTIONARY
  5
5A59
102
{ACAD_REACTORS
330
C
102
}
330
C
100
AcDbDictionary
  3
A0
350
5A5A
  3
A1
350
5A5B
  3
A2
350
5A5C
  3
A3
350
5A5D
  3
A4
350
5A5E
  3
A5
350
5A5F
  3
A6
350
5A60
  3
A7
350
5A61
  3
A8
350
5A62
  3
A9
350
5A63
  3
B0
350
5A64
  3
B1
350
5A65
  3
B2
350
5A66
  3
B3
350
5A67
  3
B4
350
5A68
  3
B5
350
5A69
  3
B6
350
5A6A
  3
B7
350
5A6B
  3
B8
350
5A6C
  3
B9
350
5A6D
  3
C0
350
5A6E
  3
C1
350
5A6F
  3
C2
350
5A70
  3
C3
350
5A71
  3
C4
350
5A72
  3
C5
350
5A73
  3
C6
350
5A74
  3
C7
350
5A75
  3
C8
350
5A76
  3
C9
350
5A77
  3
D0
350
5A78
  3
D1
350
5A79
  3
D2
350
5A7A
  0
DICTIONARY
  5
5A40
102
{ACAD_REACTORS
330
C
102
}
330
C
100
AcDbDictionary
  3
2DWIREFRAME
350
5A45
  3
BASIC
350
5A48
  3
BRIGHTEN
350
5A4C
  3
COLORCHANGE
350
5A50
  3
CONCEPTUAL
350
5A4A
  3
DIM
350
5A4B
  3
EDGECOLOROFF
350
5A53
  3
FACEPATTERN
350
5A4F
  3
FLAT
350
5A41
  3
FLATWITHEDGES
350
5A42
  3
GOURAUD
350
5A43
  3
GOURAUDWITHEDGES
350
5A44
  3
HIDDEN
350
5A47
  3
JITTEROFF
350
5A51
  3
LINEPATTERN
350
5A4E
  3
OVERHANGOFF
350
5A52
  3
REALISTIC
350
5A49
  3
SHADED
350
5A58
  3
SHADED_WITH_EDGES
350
5A57
  3
SHADES_OF_GRAY
350
5A54
  3
SKETCHY
350
5A55
  3
THICKEN
350
5A4D
  3
WIREFRAME
350
5A46
  3
X-RAY
350
5A56
  0
XRECORD
  5
4AF1
102
{ACAD_REACTORS
330
C
102
}
330
C
100
AcDbXrecord
 90
   990106
  3

 60
     0
 61
     0
 62
     1
 63
     3
 64
     0
 65
     0
 66
     0
 67
     3
 68
     1
 69
     0
 70
     0
 71
     0
 72
     0
 40
0.0
170
     0
  0
DICTIONARY
  5
5E77
102
{ACAD_REACTORS
330
C
102
}
330
C
100
AcDbDictionary
  3
CEPSNID
350
5E81
  3
CEPSNTYPE
350
5E80
  3
COLORDICT
350
5E9A
  3
DIMSTYLEDATA
350
5E97
  3
FINGERPRINTGUID
350
5E82
  3
HYPERLINKBASE
350
5E7A
  3
INSUNITS
350
5E7F
  3
LAYOUTDICT
350
5E7C
  3
LWETCUNION
350
5E7E
  3
MATERIALDICT
350
5E9B
  3
PLOTSETDICT
350
5E7D
  3
PSVPSCALE
350
5E84
  3
PUCSBASE
350
5E87
  3
PUCSORGBACK
350
5E8D
  3
PUCSORGBOTTOM
350
5E89
  3
PUCSORGFRONT
350
5E8C
  3
PUCSORGLEFT
350
5E8A
  3
PUCSORGRIGHT
350
5E8B
  3
PUCSORGTOP
350
5E88
  3
PUCSORTHOREF
350
5E85
  3
PUCSORTHOVIEW
350
5E86
  3
STYLESHEET
350
5E7B
  3
TSTACKALIGN
350
5E78
  3
TSTACKSIZE
350
5E79
  3
UCSBASE
350
5E90
  3
UCSORGBACK
350
5E96
  3
UCSORGBOTTOM
350
5E92
  3
UCSORGFRONT
350
5E95
  3
UCSORGLEFT
350
5E93
  3
UCSORGRIGHT
350
5E94
  3
UCSORGTOP
350
5E91
  3
UCSORTHOREF
350
5E8E
  3
UCSORTHOVIEW
350
5E8F
  3
VERSIONGUID
350
5E83
  0
DICTIONARY
  5
5B90
102
{ACAD_REACTORS
330
C
102
}
330
C
100
AcDbDictionary
  3
CANNOSCALE
350
5B91
  3
CMLEADERSTYLE
350
5B93
  3
CTABLESTYLE
350
5B92
  3
DIMASSOC
350
5E98
  3
HIDETEXT
350
5E99
  3
MSLTSCALE
350
5B94
  3
XCLIPFRAME
350
5B95
  0
XRECORD
  5
5E9C
102
{ACAD_REACTORS
330
C
102
}
330
C
100
AcDbXrecord
  1
DWGPROPS COOKIE
  2

  3

  4

  6

  7

  8
y-ohno
  9

300
=
301
=
302
=
303
=
304
=
305
=
306
=
307
=
308
=
309
=
 40
0.0
 41
2450576.222302431
 42
2457191.295301123
  1

 90
        0
  0
XRECORD
  5
5E9E
102
{ACAD_REACTORS
330
5E9D
102
}
330
5E9D
100
AcDbXrecord
102
VTR_0.000_0.000_1.000_1.000_VISUALSTYLE
340
5A45
102
VTR_0.000_0.000_1.000_1.000_GRIDDISPLAY
 70
     3
102
VTR_0.000_0.000_1.000_1.000_GRIDMAJOR
 70
     5
102
VTR_0.000_0.000_1.000_1.000_DEFAULTLIGHTING
280
     1
102
VTR_0.000_0.000_1.000_1.000_DEFAULTLIGHTINGTYPE
 70
     1
102
VTR_0.000_0.000_1.000_1.000_BRIGHTNESS
141
0.0
102
VTR_0.000_0.000_1.000_1.000_CONTRAST
142
0.0
  0
DICTIONARY
  5
2B03
102
{ACAD_REACTORS
330
29EA
102
}
330
29EA
100
AcDbDictionary
  0
DICTIONARY
  5
29EB
102
{ACAD_REACTORS
330
29EA
102
}
330
29EA
100
AcDbDictionary
  0
SORTENTSTABLE
  5
5B8C
102
{ACAD_REACTORS
330
5B8B
102
}
330
5B8B
100
AcDbSortentsTable
330
1A
331
0
  5
5AE2
331
5AD1
  5
5AD2
331
5AD2
  5
5AD3
331
5AD3
  5
5AD4
331
5AD4
  5
5AD5
331
5AD5
  5
5AD6
331
5AD6
  5
5AD7
331
5AD7
  5
5AD8
331
5AD8
  5
5AD9
331
5AD9
  5
5ADA
331
5ADA
  5
5ADB
331
5ADB
  5
5ADC
331
5ADC
  5
5ADD
331
5ADD
  5
5ADE
331
5ADE
  5
5ADF
331
5ADF
  5
5AE0
331
5AE0
  5
5AE1
331
5AE3
  5
5AE4
331
5AE4
  5
5B24
331
5B24
  5
5B25
331
5B25
  5
5B26
331
5B26
  5
5B27
331
5B27
  5
5B28
331
5B28
  5
5B29
331
5B29
  5
5B2A
331
5B2A
  5
5B52
331
5B52
  5
5B53
331
5B53
  5
5B54
331
5B54
  5
5B55
331
5B55
  5
5B56
331
5B56
  5
5B57
331
5B57
  5
5B58
331
5B58
  5
5B59
331
5B59
  5
5B5A
331
5B5A
  5
5B5B
331
5B5B
  5
5B5C
331
5B5C
  5
5B5D
331
5B5D
  5
5B5E
331
5B5E
  5
5B5F
331
5B5F
  5
5B60
331
5B60
  5
5B61
331
5B61
  5
5B62
331
5B62
  5
5B63
331
5B63
  5
5B64
331
5B64
  5
5B65
331
5B65
  5
5B66
331
5B66
  5
5B67
331
5B67
  5
5B68
331
5B68
  5
5B69
331
5B69
  5
5B6A
331
5B6A
  5
5B6B
331
5B6B
  5
5B6C
331
5B6C
  5
5B6D
331
5B6D
  5
5B6E
331
5B6E
  5
5B6F
331
5B6F
  5
5B74
331
5B74
  5
5B81
331
5B81
  5
5B82
331
5B82
  5
5B86
331
5B86
  5
5B87
331
5B87
  5
5AD1
  0
DICTIONARY
  5
5B72
102
{ACAD_REACTORS
330
5B71
102
}
330
5B71
100
AcDbDictionary
  3
ACDB_ANNOTATIONSCALES
350
5B73
  0
DICTIONARY
  5
5B99
102
{ACAD_REACTORS
330
5B98
102
}
330
5B98
100
AcDbDictionary
  3
ACDB_ANNOTATIONSCALES
350
5B9A
  0
DICTIONARY
  5
5B84
102
{ACAD_REACTORS
330
5B83
102
}
330
5B83
100
AcDbDictionary
  3
ACDB_ANNOTATIONSCALES
350
5B85
  0
DICTIONARY
  5
5B89
102
{ACAD_REACTORS
330
5B88
102
}
330
5B88
100
AcDbDictionary
  3
ACDB_ANNOTATIONSCALES
350
5B8A
  0
DICTIONARY
  5
5B9E
102
{ACAD_REACTORS
330
5B9D
102
}
330
5B9D
100
AcDbDictionary
  3
ACDB_ANNOTATIONSCALES
350
5B9F
  0
DICTIONARY
  5
5A88
102
{ACAD_REACTORS
330
5A87
102
}
330
5A87
100
AcDbDictionary
  3
ACDB_ANNOTATIONSCALES
350
5A89
  0
DICTIONARY
  5
5A8B
102
{ACAD_REACTORS
330
5A8A
102
}
330
5A8A
100
AcDbDictionary
  3
ACDB_ANNOTATIONSCALES
350
5A8C
  0
DICTIONARY
  5
5A85
102
{ACAD_REACTORS
330
5A84
102
}
330
5A84
100
AcDbDictionary
  3
ACDB_ANNOTATIONSCALES
350
5A86
  0
DICTIONARY
  5
5B8E
102
{ACAD_REACTORS
330
5B8D
102
}
330
5B8D
100
AcDbDictionary
  3
ACDB_ANNOTATIONSCALES
350
5B8F
  0
MATERIAL
  5
5A7C
102
{ACAD_REACTORS
330
2947
102
}
102
{ACAD_XDICTIONARY
360
5EA1
102
}
330
2947
100
AcDbMaterial
  1
BYBLOCK
  0
MATERIAL
  5
5A7B
102
{ACAD_REACTORS
330
2947
102
}
102
{ACAD_XDICTIONARY
360
5E9F
102
}
330
2947
100
AcDbMaterial
  1
BYLAYER
  0
MATERIAL
  5
5A7D
102
{ACAD_REACTORS
330
2947
102
}
102
{ACAD_XDICTIONARY
360
5EA3
102
}
330
2947
100
AcDbMaterial
  1
GLOBAL
  0
ACAD_PROXY_OBJECT
  5
5A81
102
{ACAD_REACTORS
330
5A80
102
}
330
5A80
100
AcDbProxyObject
 90
      499
 91
      508
 93
      610
310
40901902A4063FBFFFFFE0000000000000020400000000000020404214DD185B99185C990000000000000104090141901A00000000000004100000000000000041025764000000000000039000
340
14
340
0
340
10
340
0
 94
        0
1001
ACAD_MLEADERVER
1070
     2
  0
MLINESTYLE
  5
13
102
{ACAD_REACTORS
330
E
102
}
330
E
100
AcDbMlineStyle
  2
STANDARD
 70
     0
  3

 62
     0
 51
90.0
 52
90.0
 71
     2
 49
0.5
 62
   256
  6
BYLAYER
 49
-0.5
 62
   256
  6
BYLAYER
  0
ACAD_PROXY_OBJECT
  5
5A5A
102
{ACAD_REACTORS
330
5A59
102
}
330
5A59
100
AcDbProxyObject
 90
      499
 91
      505
 93
       41
310
903313A31580
  0
ACAD_PROXY_OBJECT
  5
5A5B
102
{ACAD_REACTORS
330
5A59
102
}
330
5A59
100
AcDbProxyObject
 90
      499
 91
      505
 93
      105
310
903313A324000000000000004000
  0
ACAD_PROXY_OBJECT
  5
5A5C
102
{ACAD_REACTORS
330
5A59
102
}
330
5A59
100
AcDbProxyObject
 90
      499
 91
      505
 93
      105
310
903313A344000000000000104000
  0
ACAD_PROXY_OBJECT
  5
5A5D
102
{ACAD_REACTORS
330
5A59
102
}
330
5A59
100
AcDbProxyObject
 90
      499
 91
      505
 93
      105
310
903313A354000000000000144000
  0
ACAD_PROXY_OBJECT
  5
5A5E
102
{ACAD_REACTORS
330
5A59
102
}
330
5A59
100
AcDbProxyObject
 90
      499
 91
      505
 93
      105
310
903313A384000000000000204000
  0
ACAD_PROXY_OBJECT
  5
5A5F
102
{ACAD_REACTORS
330
5A59
102
}
330
5A59
100
AcDbProxyObject
 90
      499
 91
      505
 93
      113
310
904313A31304000000000000244000
  0
ACAD_PROXY_OBJECT
  5
5A60
102
{ACAD_REACTORS
330
5A59
102
}
330
5A59
100
AcDbProxyObject
 90
      499
 91
      505
 93
      113
310
904313A31364000000000000304000
  0
ACAD_PROXY_OBJECT
  5
5A61
102
{ACAD_REACTORS
330
5A59
102
}
330
5A59
100
AcDbProxyObject
 90
      499
 91
      505
 93
      113
310
904313A32304000000000000344000
  0
ACAD_PROXY_OBJECT
  5
5A62
102
{ACAD_REACTORS
330
5A59
102
}
330
5A59
100
AcDbProxyObject
 90
      499
 91
      505
 93
      113
310
904313A333040000000000003E4000
  0
ACAD_PROXY_OBJECT
  5
5A63
102
{ACAD_REACTORS
330
5A59
102
}
330
5A59
100
AcDbProxyObject
 90
      499
 91
      505
 93
      113
310
904313A34304000000000000444000
  0
ACAD_PROXY_OBJECT
  5
5A64
102
{ACAD_REACTORS
330
5A59
102
}
330
5A59
100
AcDbProxyObject
 90
      499
 91
      505
 93
      113
310
904313A35304000000000000494000
  0
ACAD_PROXY_OBJECT
  5
5A65
102
{ACAD_REACTORS
330
5A59
102
}
330
5A59
100
AcDbProxyObject
 90
      499
 91
      505
 93
      121
310
905313A3130304000000000000594000
  0
ACAD_PROXY_OBJECT
  5
5A66
102
{ACAD_REACTORS
330
5A59
102
}
330
5A59
100
AcDbProxyObject
 90
      499
 91
      505
 93
      105
310
903323A310000000000000010100
  0
ACAD_PROXY_OBJECT
  5
5A67
102
{ACAD_REACTORS
330
5A59
102
}
330
5A59
100
AcDbProxyObject
 90
      499
 91
      505
 93
      105
310
903343A310000000000000410100
  0
ACAD_PROXY_OBJECT
  5
5A68
102
{ACAD_REACTORS
330
5A59
102
}
330
5A59
100
AcDbProxyObject
 90
      499
 91
      505
 93
      105
310
903383A310000000000000810100
  0
ACAD_PROXY_OBJECT
  5
5A69
102
{ACAD_REACTORS
330
5A59
102
}
330
5A59
100
AcDbProxyObject
 90
      499
 91
      505
 93
      113
310
90431303A310000000000000910100
  0
ACAD_PROXY_OBJECT
  5
5A6A
102
{ACAD_REACTORS
330
5A59
102
}
330
5A59
100
AcDbProxyObject
 90
      499
 91
      505
 93
      121
310
9053130303A310000000000001650100
  0
ACAD_PROXY_OBJECT
  5
5A6B
102
{ACAD_REACTORS
330
5A59
102
}
330
5A59
100
AcDbProxyObject
 90
      499
 91
      505
 93
      257
310
90E312F31323822203D2031272D3022000000000000200FC000000000000284000
  0
ACAD_PROXY_OBJECT
  5
5A6C
102
{ACAD_REACTORS
330
5A59
102
}
330
5A59
100
AcDbProxyObject
 90
      499
 91
      505
 93
      249
310
90D312F363422203D2031272D3022000000000000240FC000000000000284000
  0
ACAD_PROXY_OBJECT
  5
5A6D
102
{ACAD_REACTORS
330
5A59
102
}
330
5A59
100
AcDbProxyObject
 90
      499
 91
      505
 93
      249
310
90D312F333222203D2031272D3022000000000000280FC000000000000284000
  0
ACAD_PROXY_OBJECT
  5
5A6E
102
{ACAD_REACTORS
330
5A59
102
}
330
5A59
100
AcDbProxyObject
 90
      499
 91
      505
 93
      249
310
90D312F313622203D2031272D30220000000000002C0FC000000000000284000
  0
ACAD_PROXY_OBJECT
  5
5A6F
102
{ACAD_REACTORS
330
5A59
102
}
330
5A59
100
AcDbProxyObject
 90
      499
 91
      505
 93
      249
310
90D332F333222203D2031272D30220000000000002E0FC000000000000284000
  0
ACAD_PROXY_OBJECT
  5
5A70
102
{ACAD_REACTORS
330
5A59
102
}
330
5A59
100
AcDbProxyObject
 90
      499
 91
      505
 93
      241
310
90C312F3822203D2031272D3022000000000000300FC000000000000284000
  0
ACAD_PROXY_OBJECT
  5
5A71
102
{ACAD_REACTORS
330
5A59
102
}
330
5A59
100
AcDbProxyObject
 90
      499
 91
      505
 93
      249
310
90D332F313622203D2031272D3022000000000000320FC000000000000284000
  0
ACAD_PROXY_OBJECT
  5
5A72
102
{ACAD_REACTORS
330
5A59
102
}
330
5A59
100
AcDbProxyObject
 90
      499
 91
      505
 93
      241
310
90C312F3422203D2031272D3022000000000000340FC000000000000284000
  0
ACAD_PROXY_OBJECT
  5
5A73
102
{ACAD_REACTORS
330
5A59
102
}
330
5A59
100
AcDbProxyObject
 90
      499
 91
      505
 93
      241
310
90C332F3822203D2031272D3022000000000000360FC000000000000284000
  0
ACAD_PROXY_OBJECT
  5
5A74
102
{ACAD_REACTORS
330
5A59
102
}
330
5A59
100
AcDbProxyObject
 90
      499
 91
      505
 93
      241
310
90C312F3222203D2031272D3022000000000000380FC000000000000284000
  0
ACAD_PROXY_OBJECT
  5
5A75
102
{ACAD_REACTORS
330
5A59
102
}
330
5A59
100
AcDbProxyObject
 90
      499
 91
      505
 93
      241
310
90C332F3422203D2031272D30220000000000003A0FC000000000000284000
  0
ACAD_PROXY_OBJECT
  5
5A76
102
{ACAD_REACTORS
330
5A59
102
}
330
5A59
100
AcDbProxyObject
 90
      499
 91
      505
 93
      161
310
90A3122203D2031272D30224000000000000284000
  0
ACAD_PROXY_OBJECT
  5
5A77
102
{ACAD_REACTORS
330
5A59
102
}
330
5A59
100
AcDbProxyObject
 90
      499
 91
      505
 93
      257
310
90E312D312F3222203D2031272D30220000000000003E0FC000000000000284000
  0
ACAD_PROXY_OBJECT
  5
5A78
102
{ACAD_REACTORS
330
5A59
102
}
330
5A59
100
AcDbProxyObject
 90
      499
 91
      505
 93
      225
310
90A3322203D2031272D302200000000000002100000000000000284000
  0
ACAD_PROXY_OBJECT
  5
5A79
102
{ACAD_REACTORS
330
5A59
102
}
330
5A59
100
AcDbProxyObject
 90
      499
 91
      505
 93
      225
310
90A3622203D2031272D302200000000000006100000000000000284000
  0
ACAD_PROXY_OBJECT
  5
5A7A
102
{ACAD_REACTORS
330
5A59
102
}
330
5A59
100
AcDbProxyObject
 90
      499
 91
      505
 93
      249
310
90D31272D3022203D2031272D30220000000000000A100000000000000284000
  0
ACAD_PROXY_OBJECT
  5
5A45
102
{ACAD_REACTORS
330
5A40
102
}
330
5A40
100
AcDbProxyObject
 90
      499
 91
      504
 93
      436
310
42CC9915DA5C99599C985B595049028333333333333E33F0000000000000F90107901411070040501600405405064090741402480A0340
1001
ACAD
1000
AcDbSavedByObjectVersion
1070
     0
  0
ACAD_PROXY_OBJECT
  5
5A48
102
{ACAD_REACTORS
330
5A40
102
}
330
5A40
100
AcDbProxyObject
 90
      499
 91
      504
 93
      388
310
4150985CDA58D07406404333333333333E33F0000000000000F90107A41107004050150841D405064090741402480A0350
1001
ACAD
1000
AcDbSavedByObjectVersion
1070
     0
  0
ACAD_PROXY_OBJECT
  5
5A4C
102
{ACAD_REACTORS
330
5A40
102
}
330
5A40
100
AcDbProxyObject
 90
      499
 91
      504
 93
      428
310
42109C9A59DA1D195B90C409028333333333333E33F0000000000000F9010790141107004050150841D405064090741402480A029950
1001
ACAD
1000
AcDbSavedByObjectVersion
1070
     0
  0
ACAD_PROXY_OBJECT
  5
5A50
102
{ACAD_REACTORS
330
5A40
102
}
330
5A40
100
AcDbProxyObject
 90
      499
 91
      504
 93
      452
310
42D0DBDB1BDC90DA185B99D95104090240C333333333333E33F0000000000000F90108901411070040501508421405064090741402480A0350
1001
ACAD
1000
AcDbSavedByObjectVersion
1070
     0
  0
ACAD_PROXY_OBJECT
  5
5A4A
102
{ACAD_REACTORS
330
5A40
102
}
330
5A40
100
AcDbProxyObject
 90
      499
 91
      504
 93
      500
310
4290DBDB98D95C1D1D585B10940D028333333333333E33F0000000000000F90107902409070040501000000000018199010841D405064090740C02480A0340
1001
ACAD
1000
AcDbSavedByObjectVersion
1070
     0
  0
ACAD_PROXY_OBJECT
  5
5A4B
102
{ACAD_REACTORS
330
5A40
102
}
330
5A40
100
AcDbProxyObject
 90
      499
 91
      504
 93
      412
310
40D11A5B50B409028333333333333E33F0000000000000F9010790141107004050150841D405064090741402480A02677FFFFFD0
1001
ACAD
1000
AcDbSavedByObjectVersion
1070
     0
  0
ACAD_PROXY_OBJECT
  5
5A53
102
{ACAD_REACTORS
330
5A40
102
}
330
5A40
100
AcDbProxyObject
 90
      499
 91
      504
 93
      452
310
43115919D950DBDB1BDC93D999916409028333333333333E33F0000000000000F9010790141107004050150841D405064090741402480A0350
1001
ACAD
1000
AcDbSavedByObjectVersion
1070
     0
  0
ACAD_PROXY_OBJECT
  5
5A4F
102
{ACAD_REACTORS
330
5A40
102
}
330
5A40
100
AcDbProxyObject
 90
      499
 91
      504
 93
      444
310
42D19858D95C185D1D195C9B90F409028333333333333E33F0000000000000F9010790141107004050150841D405064090741402480A0350
1001
ACAD
1000
AcDbSavedByObjectVersion
1070
     0
  0
ACAD_PROXY_OBJECT
  5
5A41
102
{ACAD_REACTORS
330
5A40
102
}
330
5A40
100
AcDbProxyObject
 90
      499
 91
      504
 93
      380
310
41119B185D240901404333333333333E33F0000000000000F9010740A907004050150841D405064090741402480A1B50
1001
ACAD
1000
AcDbSavedByObjectVersion
1070
     0
  0
ACAD_PROXY_OBJECT
  5
5A42
102
{ACAD_REACTORS
330
5A40
102
}
330
5A40
100
AcDbProxyObject
 90
      499
 91
      504
 93
      468
310
43519B185D15DA5D1A115919D95CD0140901404333333333333E33F0000000000000F90107409019070040501600405405064090741402480A1B50
1001
ACAD
1000
AcDbSavedByObjectVersion
1070
     0
  0
ACAD_PROXY_OBJECT
  5
5A43
102
{ACAD_REACTORS
330
5A40
102
}
330
5A40
100
AcDbProxyObject
 90
      499
 91
      504
 93
      404
310
41D1DBDD5C985D5910240902404333333333333E33F0000000000000F9010740A9070040501641D405064090741402480A1B50
1001
ACAD
1000
AcDbSavedByObjectVersion
1070
     0
  0
ACAD_PROXY_OBJECT
  5
5A44
102
{ACAD_REACTORS
330
5A40
102
}
330
5A40
100
AcDbProxyObject
 90
      499
 91
      504
 93
      492
310
4411DBDD5C985D5915DA5D1A115919D95CD0340902404333333333333E33F0000000000000F90107409019070040501600405405064090741402480A1B50
1001
ACAD
1000
AcDbSavedByObjectVersion
1070
     0
  0
ACAD_PROXY_OBJECT
  5
5A47
102
{ACAD_REACTORS
330
5A40
102
}
330
5A40
100
AcDbProxyObject
 90
      499
 91
      504
 93
      476
310
41921A5919195B90640502408333333333333E33F0000000000000F901079024090700405020000000000001110200405405064090740C02480A0340
1001
ACAD
1000
AcDbSavedByObjectVersion
1070
     0
  0
ACAD_PROXY_OBJECT
  5
5A51
102
{ACAD_REACTORS
330
5A40
102
}
330
5A40
100
AcDbProxyObject
 90
      499
 91
      504
 93
      428
310
42529A5D1D195C93D999914409028333333333333E33F0000000000000F9010790141107004050150A41D405064090741402480A0350
1001
ACAD
1000
AcDbSavedByObjectVersion
1070
     0
  0
ACAD_PROXY_OBJECT
  5
5A4E
102
{ACAD_REACTORS
330
5A40
102
}
330
5A40
100
AcDbProxyObject
 90
      499
 91
      504
 93
      444
310
42D31A5B995C185D1D195C9B90E409028333333333333E33F0000000000000F9010790141107004050750841D405064090741402483A0350
1001
ACAD
1000
AcDbSavedByObjectVersion
1070
     0
  0
ACAD_PROXY_OBJECT
  5
5A52
102
{ACAD_REACTORS
330
5A40
102
}
330
5A40
100
AcDbProxyObject
 90
      499
 91
      504
 93
      444
310
42D3DD995C9A185B99D3D999915409028333333333333E33F0000000000000F9010790141107004050150941D405064090741402480A0350
1001
ACAD
1000
AcDbSavedByObjectVersion
1070
     0
  0
ACAD_PROXY_OBJECT
  5
5A49
102
{ACAD_REACTORS
330
5A40
102
}
330
5A40
100
AcDbProxyObject
 90
      499
 91
      504
 93
      428
310
425499585B1A5CDD1A58D08409038333333333333E33F0000000000000F9010740A907004050150800405405064090740C02480A1B40
1001
ACAD
1000
AcDbSavedByObjectVersion
1070
     0
  0
ACAD_PROXY_OBJECT
  5
5A58
102
{ACAD_REACTORS
330
5A40
102
}
330
5A40
100
AcDbProxyObject
 90
      499
 91
      504
 93
      420
310
4194DA1859195911B40902404333333333333E33F0000000000000F9010740A41107004050150800405405064090840C02480A0B40
1001
ACAD
1000
AcDbSavedByObjectVersion
1070
     0
  0
ACAD_PROXY_OBJECT
  5
5A57
102
{ACAD_REACTORS
330
5A40
102
}
330
5A40
100
AcDbProxyObject
 90
      499
 91
      504
 93
      516
310
4454DA18591959081DDA5D1A08195919D95CD1A40902404333333333333E33F0000000000000F901074090142907004050250800405405064090740C02480A0B40
1001
ACAD
1000
AcDbSavedByObjectVersion
1070
     0
  0
ACAD_PROXY_OBJECT
  5
5A54
102
{ACAD_REACTORS
330
5A40
102
}
330
5A40
100
AcDbProxyObject
 90
      499
 91
      504
 93
      532
310
4394DA1859195CC81BD98811DC985E5174090240C333333333333E33F0000000000000F901079024090741D01000000000000111010841D405064090740C02480A0340
1001
ACAD
1000
AcDbSavedByObjectVersion
1070
     0
  0
ACAD_PROXY_OBJECT
  5
5A55
102
{ACAD_REACTORS
330
5A40
102
}
330
5A40
100
AcDbProxyObject
 90
      499
 91
      504
 93
      476
310
41D4DAD95D18DA1E51840502408333333333333E33F0000000000000F901079024090741D01000000000000111010B41D405064090741802480A0340
1001
ACAD
1000
AcDbSavedByObjectVersion
1070
     0
  0
ACAD_PROXY_OBJECT
  5
5A4D
102
{ACAD_REACTORS
330
5A40
102
}
330
5A40
100
AcDbProxyObject
 90
      499
 91
      504
 93
      412
310
41D51A1A58DAD95B90D409028333333333333E33F0000000000000F9010790141107004050150C41D405064090741402480A0350
1001
ACAD
1000
AcDbSavedByObjectVersion
1070
     0
  0
ACAD_PROXY_OBJECT
  5
5A46
102
{ACAD_REACTORS
330
5A40
102
}
330
5A40
100
AcDbProxyObject
 90
      499
 91
      504
 93
      420
310
4255DA5C99599C985B595059028333333333333E33F0000000000000F90107901411070040501600405405064090740C02480A0340
1001
ACAD
1000
AcDbSavedByObjectVersion
1070
     0
  0
ACAD_PROXY_OBJECT
  5
5A56
102
{ACAD_REACTORS
330
5A40
102
}
330
5A40
100
AcDbProxyObject
 90
      499
 91
      504
 93
      404
310
41560B54985E51940902404000000000000E03F0000000000000F9010740501907004050150841D405064090740C02480A1B40
1001
ACAD
1000
AcDbSavedByObjectVersion
1070
     0
  0
XRECORD
  5
5E81
102
{ACAD_REACTORS
330
5E77
102
}
330
5E77
100
AcDbXrecord
340
0
  0
XRECORD
  5
5E80
102
{ACAD_REACTORS
330
5E77
102
}
330
5E77
100
AcDbXrecord
 90
        0
  0
XRECORD
  5
5E9A
102
{ACAD_REACTORS
330
5E77
102
}
330
5E77
100
AcDbXrecord
340
2948
  0
XRECORD
  5
5E97
102
{ACAD_REACTORS
330
5E77
102
}
330
5E77
100
AcDbXrecord
1000
DSTYLE
1002
{
1070
   171
 70
     2
1070
   143
 40
0.0394
1070
   274
 70
     2
1070
    41
 40
6.0
1070
   342
340
2AEB
1070
   271
 70
     1
1070
   278
 70
    46
1070
   341
340
2AEB
1070
   272
 70
     1
1070
    48
 40
0.1
1070
   283
 70
     1
1070
    47
 40
0.1
1070
   145
 40
1.0
1070
   340
340
10
1070
   140
 40
5.0
1070
   284
 70
     0
1002
}
  0
XRECORD
  5
5E82
102
{ACAD_REACTORS
330
5E77
102
}
330
5E77
100
AcDbXrecord
  1
{23698909-1D67-4744-B0E2-8DE11E3ED422}
  0
XRECORD
  5
5E7A
102
{ACAD_REACTORS
330
5E77
102
}
330
5E77
100
AcDbXrecord
  1

  0
XRECORD
  5
5E7F
102
{ACAD_REACTORS
330
5E77
102
}
330
5E77
100
AcDbXrecord
 90
        0
  0
XRECORD
  5
5E7C
102
{ACAD_REACTORS
330
5E77
102
}
330
5E77
100
AcDbXrecord
340
2816
  0
XRECORD
  5
5E7E
102
{ACAD_REACTORS
330
5E77
102
}
330
5E77
100
AcDbXrecord
 90
    10781
  0
XRECORD
  5
5E9B
102
{ACAD_REACTORS
330
5E77
102
}
330
5E77
100
AcDbXrecord
340
2947
  0
XRECORD
  5
5E7D
102
{ACAD_REACTORS
330
5E77
102
}
330
5E77
100
AcDbXrecord
340
2817
  0
XRECORD
  5
5E84
102
{ACAD_REACTORS
330
5E77
102
}
330
5E77
100
AcDbXrecord
 40
0.25
  0
XRECORD
  5
5E87
102
{ACAD_REACTORS
330
5E77
102
}
330
5E77
100
AcDbXrecord
340
0
  0
XRECORD
  5
5E8D
102
{ACAD_REACTORS
330
5E77
102
}
330
5E77
100
AcDbXrecord
 10
0.0
 20
0.0
 30
0.0
  0
XRECORD
  5
5E89
102
{ACAD_REACTORS
330
5E77
102
}
330
5E77
100
AcDbXrecord
 10
0.0
 20
0.0
 30
0.0
  0
XRECORD
  5
5E8C
102
{ACAD_REACTORS
330
5E77
102
}
330
5E77
100
AcDbXrecord
 10
0.0
 20
0.0
 30
0.0
  0
XRECORD
  5
5E8A
102
{ACAD_REACTORS
330
5E77
102
}
330
5E77
100
AcDbXrecord
 10
0.0
 20
0.0
 30
0.0
  0
XRECORD
  5
5E8B
102
{ACAD_REACTORS
330
5E77
102
}
330
5E77
100
AcDbXrecord
 10
0.0
 20
0.0
 30
0.0
  0
XRECORD
  5
5E88
102
{ACAD_REACTORS
330
5E77
102
}
330
5E77
100
AcDbXrecord
 10
0.0
 20
0.0
 30
0.0
  0
XRECORD
  5
5E85
102
{ACAD_REACTORS
330
5E77
102
}
330
5E77
100
AcDbXrecord
340
0
  0
XRECORD
  5
5E86
102
{ACAD_REACTORS
330
5E77
102
}
330
5E77
100
AcDbXrecord
 70
     0
  0
XRECORD
  5
5E7B
102
{ACAD_REACTORS
330
5E77
102
}
330
5E77
100
AcDbXrecord
  1

  0
XRECORD
  5
5E78
102
{ACAD_REACTORS
330
5E77
102
}
330
5E77
100
AcDbXrecord
 90
        1
  0
XRECORD
  5
5E79
102
{ACAD_REACTORS
330
5E77
102
}
330
5E77
100
AcDbXrecord
 90
       70
  0
XRECORD
  5
5E90
102
{ACAD_REACTORS
330
5E77
102
}
330
5E77
100
AcDbXrecord
340
0
  0
XRECORD
  5
5E96
102
{ACAD_REACTORS
330
5E77
102
}
330
5E77
100
AcDbXrecord
 10
0.0
 20
0.0
 30
0.0
  0
XRECORD
  5
5E92
102
{ACAD_REACTORS
330
5E77
102
}
330
5E77
100
AcDbXrecord
 10
0.0
 20
0.0
 30
0.0
  0
XRECORD
  5
5E95
102
{ACAD_REACTORS
330
5E77
102
}
330
5E77
100
AcDbXrecord
 10
0.0
 20
0.0
 30
0.0
  0
XRECORD
  5
5E93
102
{ACAD_REACTORS
330
5E77
102
}
330
5E77
100
AcDbXrecord
 10
0.0
 20
0.0
 30
0.0
  0
XRECORD
  5
5E94
102
{ACAD_REACTORS
330
5E77
102
}
330
5E77
100
AcDbXrecord
 10
0.0
 20
0.0
 30
0.0
  0
XRECORD
  5
5E91
102
{ACAD_REACTORS
330
5E77
102
}
330
5E77
100
AcDbXrecord
 10
0.0
 20
0.0
 30
0.0
  0
XRECORD
  5
5E8E
102
{ACAD_REACTORS
330
5E77
102
}
330
5E77
100
AcDbXrecord
340
0
  0
XRECORD
  5
5E8F
102
{ACAD_REACTORS
330
5E77
102
}
330
5E77
100
AcDbXrecord
 70
     0
  0
XRECORD
  5
5E83
102
{ACAD_REACTORS
330
5E77
102
}
330
5E77
100
AcDbXrecord
  1
{AB87E4E9-6F27-4485-8457-335B72B1BAB1}
  0
DICTIONARYVAR
  5
5B91
102
{ACAD_REACTORS
330
5B90
102
}
330
5B90
100
DictionaryVariables
280
     0
  1
1:1
  0
DICTIONARYVAR
  5
5B93
102
{ACAD_REACTORS
330
5B90
102
}
330
5B90
100
DictionaryVariables
280
     0
  1
Standard
  0
DICTIONARYVAR
  5
5B92
102
{ACAD_REACTORS
330
5B90
102
}
330
5B90
100
DictionaryVariables
280
     0
  1
Standard
  0
DICTIONARYVAR
  5
5E98
102
{ACAD_REACTORS
330
5B90
102
}
330
5B90
100
DictionaryVariables
280
     0
  1
1
  0
DICTIONARYVAR
  5
5E99
102
{ACAD_REACTORS
330
5B90
102
}
330
5B90
100
DictionaryVariables
280
     0
  1
0
  0
DICTIONARYVAR
  5
5B94
102
{ACAD_REACTORS
330
5B90
102
}
330
5B90
100
DictionaryVariables
280
     0
  1
0
  0
DICTIONARYVAR
  5
5B95
102
{ACAD_REACTORS
330
5B90
102
}
330
5B90
100
DictionaryVariables
280
     0
  1
0
  0
DICTIONARY
  5
5B73
102
{ACAD_REACTORS
330
5B72
102
}
330
5B72
100
AcDbDictionary
  0
DICTIONARY
  5
5B9A
102
{ACAD_REACTORS
330
5B99
102
}
330
5B99
100
AcDbDictionary
  0
DICTIONARY
  5
5B85
102
{ACAD_REACTORS
330
5B84
102
}
330
5B84
100
AcDbDictionary
  0
DICTIONARY
  5
5B8A
102
{ACAD_REACTORS
330
5B89
102
}
330
5B89
100
AcDbDictionary
  0
DICTIONARY
  5
5B9F
102
{ACAD_REACTORS
330
5B9E
102
}
330
5B9E
100
AcDbDictionary
  0
DICTIONARY
  5
5A89
102
{ACAD_REACTORS
330
5A88
102
}
330
5A88
100
AcDbDictionary
  0
DICTIONARY
  5
5A8C
102
{ACAD_REACTORS
330
5A8B
102
}
330
5A8B
100
AcDbDictionary
  0
DICTIONARY
  5
5A86
102
{ACAD_REACTORS
330
5A85
102
}
330
5A85
100
AcDbDictionary
  0
DICTIONARY
  5
5B8F
102
{ACAD_REACTORS
330
5B8E
102
}
330
5B8E
100
AcDbDictionary
  0
DICTIONARY
  5
5EA1
330
5A7C
100
AcDbDictionary
280
     1
  3
ACAD_XREC_ROUNDTRIP
360
5EA2
  0
DICTIONARY
  5
5E9F
330
5A7B
100
AcDbDictionary
280
     1
  3
ACAD_XREC_ROUNDTRIP
360
5EA0
  0
DICTIONARY
  5
5EA3
330
5A7D
100
AcDbDictionary
280
     1
  3
ACAD_XREC_ROUNDTRIP
360
5EA4
  0
XRECORD
  5
5EA2
102
{ACAD_REACTORS
330
5EA1
102
}
330
5EA1
100
AcDbXrecord
102
MATERIAL
148
0.0
149
0.0
149
0.0
 93
        0
 94
      127
282
     0
 72
     1
 77
     1
171
     1
175
     1
179
     1
273
     0
  0
XRECORD
  5
5EA0
102
{ACAD_REACTORS
330
5E9F
102
}
330
5E9F
100
AcDbXrecord
102
MATERIAL
148
0.0
149
0.0
149
0.0
 93
        0
 94
      127
282
     0
 72
     1
 77
     1
171
     1
175
     1
179
     1
273
     0
  0
XRECORD
  5
5EA4
102
{ACAD_REACTORS
330
5EA3
102
}
330
5EA3
100
AcDbXrecord
102
MATERIAL
148
0.0
149
0.0
149
0.0
 93
        0
 94
      127
282
     0
 72
     1
 77
     1
171
     1
175
     1
179
     1
273
     0
  0
ENDSEC
  0
EOF
