  0
SECTION
  2
HEADER
  9
$ACADVER
  1
AC1014
  9
$ACADMAINTVER
 70
     9
  9
$DWGCODEPAGE
  3
ANSI_932
  9
$INSBASE
 10
0.0
 20
0.0
 30
0.0
  9
$EXTMIN
 10
22.009398357707
 20
4.259668678577
 30
0.0
  9
$EXTMAX
 10
1009.036298394465
 20
584.069679860553
 30
0.0
  9
$LIMMIN
 10
-360.747566795242
 20
4.457354754526
  9
$LIMMAX
 10
-162.153696144267
 20
287.675440264018
  9
$ORTHOMODE
 70
     1
  9
$REGENMODE
 70
     1
  9
$FILLMODE
 70
     1
  9
$QTEXTMODE
 70
     0
  9
$MIRRTEXT
 70
     1
  9
$DRAGMODE
 70
     2
  9
$LTSCALE
 40
1.0
  9
$OSMODE
 70
    32
  9
$ATTMODE
 70
     1
  9
$TEXTSIZE
 40
2.333873885063
  9
$TRACEWID
 40
1.0
  9
$TEXTSTYLE
  7
STANDARD
  9
$CLAYER
  8
寸法線
  9
$CELTYPE
  6
BYLAYER
  9
$CECOLOR
 62
   256
  9
$CELTSCALE
 40
10.0
  9
$DELOBJ
 70
     1
  9
$DISPSILH
 70
     0
  9
$DIMSCALE
 40
1.0
  9
$DIMASZ
 40
6.0
  9
$DIMEXO
 40
0.625
  9
$DIMDLI
 40
3.75
  9
$DIMRND
 40
0.0
  9
$DIMDLE
 40
0.0
  9
$DIMEXE
 40
1.25
  9
$DIMTP
 40
0.1
  9
$DIMTM
 40
0.1
  9
$DIMTXT
 40
10.0
  9
$DIMCEN
 40
2.5
  9
$DIMTSZ
 40
0.0
  9
$DIMTOL
 70
     0
  9
$DIMLIM
 70
     0
  9
$DIMTIH
 70
     0
  9
$DIMTOH
 70
     0
  9
$DIMSE1
 70
     0
  9
$DIMSE2
 70
     0
  9
$DIMTAD
 70
     1
  9
$DIMZIN
 70
     8
  9
$DIMBLK
  1
OPEN30
  9
$DIMASO
 70
     1
  9
$DIMSHO
 70
     1
  9
$DIMPOST
  1

  9
$DIMAPOST
  1

  9
$DIMALT
 70
     0
  9
$DIMALTD
 70
     2
  9
$DIMALTF
 40
0.0394
  9
$DIMLFAC
 40
1.0
  9
$DIMTOFL
 70
     1
  9
$DIMTVP
 40
1.0
  9
$DIMTIX
 70
     0
  9
$DIMSOXD
 70
     0
  9
$DIMSAH
 70
     0
  9
$DIMBLK1
  1

  9
$DIMBLK2
  1

  9
$DIMSTYLE
  2
ISO-25
  9
$DIMCLRD
 70
     0
  9
$DIMCLRE
 70
     0
  9
$DIMCLRT
 70
     0
  9
$DIMTFAC
 40
1.0
  9
$DIMGAP
 40
0.625
  9
$DIMJUST
 70
     0
  9
$DIMSD1
 70
     0
  9
$DIMSD2
 70
     0
  9
$DIMTOLJ
 70
     1
  9
$DIMTZIN
 70
     0
  9
$DIMALTZ
 70
     0
  9
$DIMALTTZ
 70
     0
  9
$DIMFIT
 70
     3
  9
$DIMUPT
 70
     0
  9
$DIMUNIT
 70
     2
  9
$DIMDEC
 70
     1
  9
$DIMTDEC
 70
     1
  9
$DIMALTU
 70
     2
  9
$DIMALTTD
 70
     2
  9
$DIMTXSTY
  7
STANDARD
  9
$DIMAUNIT
 70
     0
  9
$LUNITS
 70
     2
  9
$LUPREC
 70
     4
  9
$SKETCHINC
 40
1.0
  9
$FILLETRAD
 40
6.5
  9
$AUNITS
 70
     0
  9
$AUPREC
 70
     0
  9
$MENU
  1
.
  9
$ELEVATION
 40
0.0
  9
$PELEVATION
 40
0.0
  9
$THICKNESS
 40
0.0
  9
$LIMCHECK
 70
     0
  9
$CHAMFERA
 40
0.5
  9
$CHAMFERB
 40
0.5
  9
$CHAMFERC
 40
20.0
  9
$CHAMFERD
 40
0.0
  9
$SKPOLY
 70
     0
  9
$TDCREATE
 40
2450576.597302431
  9
$TDUPDATE
 40
2457193.654577107
  9
$TDINDWG
 40
1.4890809028
  9
$TDUSRTIMER
 40
1.4890809028
  9
$USRTIMER
 70
     1
  9
$ANGBASE
 50
0.0
  9
$ANGDIR
 70
     0
  9
$PDMODE
 70
     0
  9
$PDSIZE
 40
0.0
  9
$PLINEWID
 40
0.0
  9
$COORDS
 70
     1
  9
$SPLFRAME
 70
     0
  9
$SPLINETYPE
 70
     6
  9
$SPLINESEGS
 70
     8
  9
$ATTDIA
 70
     0
  9
$ATTREQ
 70
     1
  9
$HANDLING
 70
     1
  9
$HANDSEED
  5
748F
  9
$SURFTAB1
 70
     6
  9
$SURFTAB2
 70
     6
  9
$SURFTYPE
 70
     6
  9
$SURFU
 70
     6
  9
$SURFV
 70
     6
  9
$UCSNAME
  2

  9
$UCSORG
 10
0.0
 20
0.0
 30
0.0
  9
$UCSXDIR
 10
1.0
 20
0.0
 30
0.0
  9
$UCSYDIR
 10
0.0
 20
1.0
 30
0.0
  9
$PUCSNAME
  2

  9
$PUCSORG
 10
0.0
 20
0.0
 30
0.0
  9
$PUCSXDIR
 10
1.0
 20
0.0
 30
0.0
  9
$PUCSYDIR
 10
0.0
 20
1.0
 30
0.0
  9
$USERI1
 70
     0
  9
$USERI2
 70
     0
  9
$USERI3
 70
     0
  9
$USERI4
 70
     0
  9
$USERI5
 70
     0
  9
$USERR1
 40
0.0
  9
$USERR2
 40
0.0
  9
$USERR3
 40
0.0
  9
$USERR4
 40
0.0
  9
$USERR5
 40
0.0
  9
$WORLDVIEW
 70
     1
  9
$SHADEDGE
 70
     3
  9
$SHADEDIF
 70
    70
  9
$TILEMODE
 70
     0
  9
$MAXACTVP
 70
    16
  9
$PINSBASE
 10
0.0
 20
0.0
 30
0.0
  9
$PLIMCHECK
 70
     0
  9
$PEXTMIN
 10
4.746305129083
 20
3.457123274536
 30
0.0
  9
$PEXTMAX
 10
404.746305129083
 20
283.457123274536
 30
0.0
  9
$PLIMMIN
 10
-6.946593322754
 20
-6.94658241272
  9
$PLIMMAX
 10
417.718108215332
 20
293.315276107788
  9
$UNITMODE
 70
     0
  9
$VISRETAIN
 70
     0
  9
$PLINEGEN
 70
     0
  9
$PSLTSCALE
 70
     1
  9
$TREEDEPTH
 70
  3020
  9
$PICKSTYLE
 70
     1
  9
$CMLSTYLE
  2
STANDARD
  9
$CMLJUST
 70
     0
  9
$CMLSCALE
 40
1.0
  9
$PROXYGRAPHICS
 70
     1
  9
$MEASUREMENT
 70
     1
  0
ENDSEC
  0
SECTION
  2
CLASSES
  0
CLASS
  1
ACDBDICTIONARYWDFLT
  2
AcDbDictionaryWithDefault
  3
ObjectDBX Classes
 90
        0
280
     0
281
     0
  0
CLASS
  1
ACDBPLACEHOLDER
  2
AcDbPlaceHolder
  3
ObjectDBX Classes
 90
        0
280
     0
281
     0
  0
CLASS
  1
LAYOUT
  2
AcDbLayout
  3
ObjectDBX Classes
 90
        0
280
     0
281
     0
  0
CLASS
  1
DIMASSOC
  2
AcDbDimAssoc
  3
"AcDbDimAssoc|Product Desc:     AcDim ARX App For Dimension|Company:          Autodesk, Inc.|WEB Address:      www.autodesk.com"
 90
        0
280
     0
281
     0
  0
CLASS
  1
VISUALSTYLE
  2
AcDbVisualStyle
  3
ObjectDBX Classes
 90
     4095
280
     0
281
     0
  0
CLASS
  1
SCALE
  2
AcDbScale
  3
ObjectDBX Classes
 90
     1153
280
     0
281
     0
  0
CLASS
  1
MATERIAL
  2
AcDbMaterial
  3
ObjectDBX Classes
 90
     1153
280
     0
281
     0
  0
CLASS
  1
TABLESTYLE
  2
AcDbTableStyle
  3
ObjectDBX Classes
 90
     4095
280
     0
281
     0
  0
CLASS
  1
MLEADERSTYLE
  2
AcDbMLeaderStyle
  3
ACDB_MLEADERSTYLE_CLASS
 90
     4095
280
     0
281
     0
  0
CLASS
  1
SUN
  2
AcDbSun
  3
SCENEOE
 90
     1153
280
     0
281
     0
  0
CLASS
  1
SORTENTSTABLE
  2
AcDbSortentsTable
  3
ObjectDBX Classes
 90
        0
280
     0
281
     0
  0
CLASS
  1
DICTIONARYVAR
  2
AcDbDictionaryVar
  3
ObjectDBX Classes
 90
        0
280
     0
281
     0
  0
CLASS
  1
XRECORD
  2
AcDbXrecord
  3
ObjectDBX Classes
 90
        0
280
     0
281
     0
  0
CLASS
  1
LWPOLYLINE
  2
AcDbPolyline
  3
ObjectDBX Classes
 90
        0
280
     0
281
     1
  0
CLASS
  1
HATCH
  2
AcDbHatch
  3
ObjectDBX Classes
 90
        0
280
     0
281
     1
  0
ENDSEC
  0
SECTION
  2
TABLES
  0
TABLE
  2
VPORT
  5
8
102
{ACAD_XDICTIONARY
360
7486
102
}
330
0
100
AcDbSymbolTable
 70
     2
  0
VPORT
  5
68CC
330
8
100
AcDbSymbolTableRecord
100
AcDbViewportTableRecord
  2
*ACTIVE
 70
     0
 10
0.0
 20
0.0
 11
1.0
 21
1.0
 12
764.509645997026
 22
278.390523549039
 13
0.0
 23
0.0
 14
1.0
 24
1.0
 15
0.0
 25
0.0
 16
0.0
 26
0.0
 36
1.0
 17
0.0
 27
0.0
 37
0.0
 40
547.76743044313
 41
1.56746031746
 42
50.0
 43
0.0
 44
0.0
 50
0.0
 51
0.0
 71
    16
 72
   100
 73
     1
 74
     0
 75
     0
 76
     0
 77
     0
 78
     0
  0
ENDTAB
  0
TABLE
  2
LTYPE
  5
5
330
0
100
AcDbSymbolTable
 70
     5
  0
LTYPE
  5
14
330
5
100
AcDbSymbolTableRecord
100
AcDbLinetypeTableRecord
  2
BYBLOCK
 70
     0
  3

 72
    65
 73
     0
 40
0.0
  0
LTYPE
  5
15
330
5
100
AcDbSymbolTableRecord
100
AcDbLinetypeTableRecord
  2
BYLAYER
 70
     0
  3

 72
    65
 73
     0
 40
0.0
  0
LTYPE
  5
16
330
5
100
AcDbSymbolTableRecord
100
AcDbLinetypeTableRecord
  2
CONTINUOUS
 70
     0
  3
Solid line
 72
    65
 73
     0
 40
0.0
  0
LTYPE
  5
1EC
330
5
100
AcDbSymbolTableRecord
100
AcDbLinetypeTableRecord
  2
CENTER
 70
     0
  3
____ _ ____ _ ____ _ ____ _ ____ _ ____ _ ____ 
 72
    65
 73
     4
 40
2.0
 49
1.25
 74
     0
 49
-0.25
 74
     0
 49
0.25
 74
     0
 49
-0.25
 74
     0
  0
LTYPE
  5
1ED
330
5
100
AcDbSymbolTableRecord
100
AcDbLinetypeTableRecord
  2
DASHED
 70
     0
  3
__ __ __ __ __ __ __ __ __ __ __ __ __ __ __ __
 72
    65
 73
     2
 40
0.75
 49
0.5
 74
     0
 49
-0.25
 74
     0
  0
LTYPE
  5
2B0D
330
5
100
AcDbSymbolTableRecord
100
AcDbLinetypeTableRecord
  2
DASHDOT
 70
     0
  3
一点鎖線
 72
    65
 73
     4
 40
25.6
 49
20.0
 74
     0
 49
-2.0
 74
     0
 49
1.6
 74
     0
 49
-2.0
 74
     0
  0
LTYPE
  5
6441
330
5
100
AcDbSymbolTableRecord
100
AcDbLinetypeTableRecord
  2
CENTER2
 70
     0
  3
Center (.5x) ___ _ ___ _ ___ _ ___ _ ___ _ ___
 72
    65
 73
     4
 40
28.575
 49
19.05
 74
     0
 49
-3.175
 74
     0
 49
3.175
 74
     0
 49
-3.175
 74
     0
  0
ENDTAB
  0
TABLE
  2
LAYER
  5
2
102
{ACAD_XDICTIONARY
360
29EA
102
}
330
0
100
AcDbSymbolTable
 70
    14
  0
LAYER
  5
F
330
2
100
AcDbSymbolTableRecord
100
AcDbLayerTableRecord
  2
0
 70
     0
 62
     7
  6
CONTINUOUS
  0
LAYER
  5
61
330
2
100
AcDbSymbolTableRecord
100
AcDbLayerTableRecord
  2
図枠太線
 70
     0
 62
   251
  6
CONTINUOUS
  0
LAYER
  5
62
330
2
100
AcDbSymbolTableRecord
100
AcDbLayerTableRecord
  2
図枠細線
 70
     0
 62
   252
  6
CONTINUOUS
  0
LAYER
  5
63
330
2
100
AcDbSymbolTableRecord
100
AcDbLayerTableRecord
  2
図枠ロゴマーク
 70
     0
 62
   253
  6
CONTINUOUS
  0
LAYER
  5
1EF
330
2
100
AcDbSymbolTableRecord
100
AcDbLayerTableRecord
  2
外形線
 70
     0
 62
     7
  6
CONTINUOUS
  0
LAYER
  5
1F0
330
2
100
AcDbSymbolTableRecord
100
AcDbLayerTableRecord
  2
寸法線
 70
     0
 62
     1
  6
CONTINUOUS
  0
LAYER
  5
1F1
330
2
100
AcDbSymbolTableRecord
100
AcDbLayerTableRecord
  2
中心線
 70
     0
 62
     4
  6
CENTER
  0
LAYER
  5
1F4
330
2
100
AcDbSymbolTableRecord
100
AcDbLayerTableRecord
  2
DEFPOINTS
 70
     0
 62
     7
  6
CONTINUOUS
  0
LAYER
  5
2AA2
330
2
100
AcDbSymbolTableRecord
100
AcDbLayerTableRecord
  2
下書線
 70
     0
 62
     2
  6
CONTINUOUS
  0
LAYER
  5
2AA3
330
2
100
AcDbSymbolTableRecord
100
AcDbLayerTableRecord
  2
隠れ線
 70
     0
 62
     3
  6
DASHED
  0
LAYER
  5
2AA4
330
2
100
AcDbSymbolTableRecord
100
AcDbLayerTableRecord
  2
細線
 70
     0
 62
     6
  6
CONTINUOUS
  0
LAYER
  5
2AA5
330
2
100
AcDbSymbolTableRecord
100
AcDbLayerTableRecord
  2
太線
 70
     0
 62
   190
  6
CONTINUOUS
  0
LAYER
  5
2B0E
330
2
100
AcDbSymbolTableRecord
100
AcDbLayerTableRecord
  2
LAY-1
 70
     0
 62
     7
  6
CONTINUOUS
  0
LAYER
  5
6442
330
2
100
AcDbSymbolTableRecord
100
AcDbLayerTableRecord
  2
寸法線_文字
 70
     0
 62
     1
  6
CONTINUOUS
  0
ENDTAB
  0
TABLE
  2
STYLE
  5
3
330
0
100
AcDbSymbolTable
 70
     2
  0
STYLE
  5
10
330
3
100
AcDbSymbolTableRecord
100
AcDbTextStyleTableRecord
  2
STANDARD
 70
     0
 40
0.0
 41
1.0
 50
0.0
 71
     0
 42
2.333873885063
  3
ISOCP
  4
bigfont.shx
  0
STYLE
  5
64
330
3
100
AcDbSymbolTableRecord
100
AcDbTextStyleTableRecord
  2
EXCADSTD
 70
     0
 40
0.0
 41
1.0
 50
0.0
 71
     0
 42
0.2
  3
monotxt
  4
bigfont
  0
ENDTAB
  0
TABLE
  2
VIEW
  5
6
330
0
100
AcDbSymbolTable
 70
     0
  0
ENDTAB
  0
TABLE
  2
UCS
  5
7
330
0
100
AcDbSymbolTable
 70
     0
  0
ENDTAB
  0
TABLE
  2
APPID
  5
9
330
0
100
AcDbSymbolTable
 70
     3
  0
APPID
  5
11
330
9
100
AcDbSymbolTableRecord
100
AcDbRegAppTableRecord
  2
ACAD
 70
     0
  0
APPID
  5
6910
330
9
100
AcDbSymbolTableRecord
100
AcDbRegAppTableRecord
  2
ACADANNOTATIVE
 70
     0
  0
APPID
  5
748E
330
9
100
AcDbSymbolTableRecord
100
AcDbRegAppTableRecord
  2
ACAD_MLEADERVER
 70
     0
  0
ENDTAB
  0
TABLE
  2
DIMSTYLE
  5
A
330
0
100
AcDbSymbolTable
 70
     2
  0
DIMSTYLE
105
1D
330
A
100
AcDbSymbolTableRecord
100
AcDbDimStyleTableRecord
  2
STANDARD
 70
     0
  3

  4

  5

  6

  7

 40
1.0
 41
0.18
 42
0.0625
 43
0.38
 44
0.18
 45
0.0
 46
0.0
 47
0.0
 48
0.0
140
0.18
141
0.09
142
0.0
143
25.4
144
1.0
145
0.0
146
1.0
147
0.09
 71
     0
 72
     0
 73
     1
 74
     1
 75
     0
 76
     0
 77
     0
 78
     0
170
     0
171
     2
172
     0
173
     0
174
     0
175
     0
176
     0
177
     0
178
     0
270
     2
271
     4
272
     4
273
     2
274
     2
340
10
275
     0
280
     0
281
     0
282
     0
283
     1
284
     0
285
     0
286
     0
287
     3
288
     0
  0
DIMSTYLE
105
24
102
{ACAD_REACTORS
330
495F
330
49A3
330
49B0
330
49BD
330
51DC
330
524C
330
546E
330
5B17
330
5BBE
330
5CB0
330
61C1
330
61CE
330
626D
330
627A
330
6287
330
6294
330
6890
330
7331
330
733E
330
733F
330
739C
330
739D
330
73FA
330
73FB
330
73FC
102
}
330
A
100
AcDbSymbolTableRecord
100
AcDbDimStyleTableRecord
  2
ISO-25
 70
     0
  3

  4

  5

  6

  7

 40
1.0
 41
2.5
 42
0.625
 43
3.75
 44
1.25
 45
0.0
 46
0.0
 47
0.0
 48
0.0
140
2.5
141
2.5
142
0.0
143
0.0394
144
1.0
145
1.0
146
1.0
147
0.625
 71
     0
 72
     0
 73
     1
 74
     0
 75
     0
 76
     0
 77
     1
 78
     8
170
     0
171
     2
172
     1
173
     0
174
     0
175
     0
176
     0
177
     0
178
     0
270
     2
271
     4
272
     4
273
     2
274
     2
340
10
275
     0
280
     0
281
     0
282
     0
283
     1
284
     0
285
     0
286
     0
287
     3
288
     0
  0
ENDTAB
  0
TABLE
  2
BLOCK_RECORD
  5
1
330
0
100
AcDbSymbolTable
 70
   144
  0
BLOCK_RECORD
  5
1A
102
{ACAD_XDICTIONARY
360
745A
102
}
330
1
100
AcDbSymbolTableRecord
100
AcDbBlockTableRecord
  2
*MODEL_SPACE
  0
BLOCK_RECORD
  5
28FB
330
1
100
AcDbSymbolTableRecord
100
AcDbBlockTableRecord
  2
*PAPER_SPACE
  0
BLOCK_RECORD
  5
65
330
1
100
AcDbSymbolTableRecord
100
AcDbBlockTableRecord
  2
A$C3392
  0
BLOCK_RECORD
  5
29BF
330
1
100
AcDbSymbolTableRecord
100
AcDbBlockTableRecord
  2
A4横用_タイトル
1001
ACAD
1000
DesignCenter Data
1002
{
1070
     1
1070
     4
1002
}
  0
BLOCK_RECORD
  5
29F4
330
1
100
AcDbSymbolTableRecord
100
AcDbBlockTableRecord
  2
A4縦用_タイトル
1001
ACAD
1000
DesignCenter Data
1002
{
1070
     1
1070
     4
1002
}
  0
BLOCK_RECORD
  5
2A32
330
1
100
AcDbSymbolTableRecord
100
AcDbBlockTableRecord
  2
A3横用_タイトル
1001
ACAD
1000
DesignCenter Data
1002
{
1070
     1
1070
     4
1002
}
  0
BLOCK_RECORD
  5
2A6C
330
1
100
AcDbSymbolTableRecord
100
AcDbBlockTableRecord
  2
A3縦用_タイトル
1001
ACAD
1000
DesignCenter Data
1002
{
1070
     1
1070
     4
1002
}
  0
BLOCK_RECORD
  5
2AEB
330
1
100
AcDbSymbolTableRecord
100
AcDbBlockTableRecord
  2
_OPEN30
  0
BLOCK_RECORD
  5
3285
330
1
100
AcDbSymbolTableRecord
100
AcDbBlockTableRecord
  2
ケース外形図_HL2
  0
BLOCK_RECORD
  5
4960
330
1
100
AcDbSymbolTableRecord
100
AcDbBlockTableRecord
  2
*D7
  0
BLOCK_RECORD
  5
49A4
330
1
100
AcDbSymbolTableRecord
100
AcDbBlockTableRecord
  2
*D8
  0
BLOCK_RECORD
  5
49B1
330
1
100
AcDbSymbolTableRecord
100
AcDbBlockTableRecord
  2
*D9
  0
BLOCK_RECORD
  5
49BE
330
1
100
AcDbSymbolTableRecord
100
AcDbBlockTableRecord
  2
*D10
  0
BLOCK_RECORD
  5
4AEE
330
1
100
AcDbSymbolTableRecord
100
AcDbBlockTableRecord
  2
_DOTSMALL
  0
BLOCK_RECORD
  5
519F
330
1
100
AcDbSymbolTableRecord
100
AcDbBlockTableRecord
  2
_NONE
  0
BLOCK_RECORD
  5
51DD
330
1
100
AcDbSymbolTableRecord
100
AcDbBlockTableRecord
  2
*D15
  0
BLOCK_RECORD
  5
524D
330
1
100
AcDbSymbolTableRecord
100
AcDbBlockTableRecord
  2
*D16
  0
BLOCK_RECORD
  5
546F
330
1
100
AcDbSymbolTableRecord
100
AcDbBlockTableRecord
  2
*D17
  0
BLOCK_RECORD
  5
5B18
330
1
100
AcDbSymbolTableRecord
100
AcDbBlockTableRecord
  2
*D18
  0
BLOCK_RECORD
  5
5BBF
330
1
100
AcDbSymbolTableRecord
100
AcDbBlockTableRecord
  2
*D19
  0
BLOCK_RECORD
  5
5CB1
330
1
100
AcDbSymbolTableRecord
100
AcDbBlockTableRecord
  2
*D20
  0
BLOCK_RECORD
  5
5E13
330
1
100
AcDbSymbolTableRecord
100
AcDbBlockTableRecord
  2
ケース外形図_PRL-101
  0
BLOCK_RECORD
  5
61C2
330
1
100
AcDbSymbolTableRecord
100
AcDbBlockTableRecord
  2
*D22
  0
BLOCK_RECORD
  5
61CF
330
1
100
AcDbSymbolTableRecord
100
AcDbBlockTableRecord
  2
*D23
  0
BLOCK_RECORD
  5
626E
330
1
100
AcDbSymbolTableRecord
100
AcDbBlockTableRecord
  2
*D24
  0
BLOCK_RECORD
  5
627B
330
1
100
AcDbSymbolTableRecord
100
AcDbBlockTableRecord
  2
*D25
  0
BLOCK_RECORD
  5
6288
330
1
100
AcDbSymbolTableRecord
100
AcDbBlockTableRecord
  2
*D26
  0
BLOCK_RECORD
  5
6295
330
1
100
AcDbSymbolTableRecord
100
AcDbBlockTableRecord
  2
*D27
  0
BLOCK_RECORD
  5
6891
330
1
100
AcDbSymbolTableRecord
100
AcDbBlockTableRecord
  2
*D28
  0
BLOCK_RECORD
  5
7332
330
1
100
AcDbSymbolTableRecord
100
AcDbBlockTableRecord
  2
*D133
  0
BLOCK_RECORD
  5
7340
330
1
100
AcDbSymbolTableRecord
100
AcDbBlockTableRecord
  2
*D134
  0
BLOCK_RECORD
  5
734C
330
1
100
AcDbSymbolTableRecord
100
AcDbBlockTableRecord
  2
*D135
  0
BLOCK_RECORD
  5
73DE
330
1
100
AcDbSymbolTableRecord
100
AcDbBlockTableRecord
  2
*D139
  0
BLOCK_RECORD
  5
73EA
330
1
100
AcDbSymbolTableRecord
100
AcDbBlockTableRecord
  2
*D140
  0
BLOCK_RECORD
  5
73FD
330
1
100
AcDbSymbolTableRecord
100
AcDbBlockTableRecord
  2
*D141
  0
BLOCK_RECORD
  5
740B
330
1
100
AcDbSymbolTableRecord
100
AcDbBlockTableRecord
  2
*D142
  0
BLOCK_RECORD
  5
7417
330
1
100
AcDbSymbolTableRecord
100
AcDbBlockTableRecord
  2
*D143
  0
ENDTAB
  0
ENDSEC
  0
SECTION
  2
BLOCKS
  0
BLOCK
  5
1B
330
1A
100
AcDbEntity
  8
0
100
AcDbBlockBegin
  2
*MODEL_SPACE
 70
     0
 10
0.0
 20
0.0
 30
0.0
  3
*MODEL_SPACE
  1

  0
ENDBLK
  5
1C
330
1A
100
AcDbEntity
  8
0
100
AcDbBlockEnd
  0
BLOCK
  5
28FD
330
28FB
100
AcDbEntity
 67
     1
  8
0
 48
10.0
100
AcDbBlockBegin
  2
*PAPER_SPACE
 70
     0
 10
0.0
 20
0.0
 30
0.0
  3
*PAPER_SPACE
  1

  0
ENDBLK
  5
28FE
330
28FB
100
AcDbEntity
 67
     1
  8
0
 48
10.0
100
AcDbBlockEnd
  0
BLOCK
  5
93
330
65
100
AcDbEntity
  8
0
100
AcDbBlockBegin
  2
A$C3392
 70
     0
 10
0.0
 20
0.0
 30
0.0
  3
A$C3392
  1
A$C3392
  0
LINE
  5
66
330
65
100
AcDbEntity
  8
図枠太線
  6
CONTINUOUS
100
AcDbLine
 10
211.858584505185
 20
30.927375675439
 30
0.0
 11
211.858584505185
 21
0.927375675439
 31
0.0
  0
LINE
  5
67
330
65
100
AcDbEntity
  8
図枠細線
  6
CONTINUOUS
100
AcDbLine
 10
231.858592505185
 20
15.927377675439
 30
0.0
 11
287.858592505185
 21
15.927375675439
 31
0.0
  0
LINE
  5
68
330
65
100
AcDbEntity
  8
図枠細線
  6
CONTINUOUS
100
AcDbLine
 10
211.858592505185
 20
15.927377675439
 30
0.0
 11
231.858592505185
 21
15.927377675439
 31
0.0
  0
LINE
  5
69
330
65
100
AcDbEntity
  8
図枠太線
  6
CONTINUOUS
 62
   251
100
AcDbLine
 10
1.858584505185
 20
0.927375675439
 30
0.0
 11
1.858584505185
 21
275.927375675439
 31
0.0
  0
TEXT
  5
6A
330
65
100
AcDbEntity
  8
図枠細線
  6
CONTINUOUS
 62
   252
100
AcDbText
 10
351.358592505185
 20
28.427377675439
 30
0.0
 40
2.0
  1
ＴＩＴＬＥ
 41
0.903614457831
  7
EXCADSTD
 72
     5
 11
361.358592505185
 21
28.427377675439
 31
0.0
100
AcDbText
  0
TEXT
  5
6B
330
65
100
AcDbEntity
  8
図枠細線
  6
CONTINUOUS
 62
   252
100
AcDbText
 10
345.358592505185
 20
28.427377675439
 30
0.0
 40
2.0
  1
名称
 41
1.171875
  7
EXCADSTD
 72
     5
 11
350.358592505185
 21
28.427377675439
 31
0.0
100
AcDbText
  0
TEXT
  5
6C
330
65
100
AcDbEntity
  8
図枠細線
  6
CONTINUOUS
 62
   252
100
AcDbText
 10
274.358592505185
 20
25.927377675439
 30
0.0
 40
2.0
  1
ＤＲＡＷＮ
 41
0.882352941176
  7
EXCADSTD
 72
     5
 11
284.358592505185
 21
25.927377675439
 31
0.0
100
AcDbText
  0
TEXT
  5
6D
330
65
100
AcDbEntity
  8
図枠細線
  6
CONTINUOUS
 62
   252
100
AcDbText
 10
260.358592505185
 20
25.927377675439
 30
0.0
 40
2.0
  1
ＤＥＳＩＧＮＥＤ
 41
0.713043472041
  7
EXCADSTD
 72
     5
 11
273.478592390744
 21
25.927377675439
 31
0.0
100
AcDbText
  0
TEXT
  5
6E
330
65
100
AcDbEntity
  8
図枠細線
  6
CONTINUOUS
 62
   252
100
AcDbText
 10
246.358592505185
 20
25.927377675439
 30
0.0
 40
2.0
  1
ＣＨＥＣＫＥＤ
 41
0.831249989569
  7
EXCADSTD
 72
     5
 11
259.658592338292
 21
25.927377675439
 31
0.0
100
AcDbText
  0
TEXT
  5
6F
330
65
100
AcDbEntity
  8
図枠細線
  6
CONTINUOUS
 62
   252
100
AcDbText
 10
274.358592505185
 20
28.427377675439
 30
0.0
 40
2.0
  1
製図
 41
1.209677419355
  7
EXCADSTD
 72
     5
 11
279.358592505185
 21
28.427377675439
 31
0.0
100
AcDbText
  0
TEXT
  5
70
330
65
100
AcDbEntity
  8
図枠細線
  6
CONTINUOUS
 62
   252
100
AcDbText
 10
260.358592505185
 20
28.427377675439
 30
0.0
 40
2.0
  1
設計
 41
1.171875
  7
EXCADSTD
 72
     5
 11
265.358592505185
 21
28.427377675439
 31
0.0
100
AcDbText
  0
TEXT
  5
71
330
65
100
AcDbEntity
  8
図枠細線
  6
CONTINUOUS
 62
   252
100
AcDbText
 10
246.358592505185
 20
28.427377675439
 30
0.0
 40
2.0
  1
検図
 41
1.209677419355
  7
EXCADSTD
 72
     5
 11
251.358592505185
 21
28.427377675439
 31
0.0
100
AcDbText
  0
TEXT
  5
72
330
65
100
AcDbEntity
  8
図枠細線
  6
CONTINUOUS
 62
   252
100
AcDbText
 10
232.358592505185
 20
25.927377675439
 30
0.0
 40
2.0
  1
ＡＰＰＲＯＶＥＤ
 41
0.695652184279
  7
EXCADSTD
 72
     5
 11
245.15859269592
 21
25.927377675439
 31
0.0
100
AcDbText
  0
TEXT
  5
73
330
65
100
AcDbEntity
  8
図枠細線
  6
CONTINUOUS
 62
   252
100
AcDbText
 10
232.358592505185
 20
28.427377675439
 30
0.0
 40
2.0
  1
承認
 41
1.171875
  7
EXCADSTD
 72
     5
 11
237.358592505185
 21
28.427377675439
 31
0.0
100
AcDbText
  0
TEXT
  5
74
330
65
100
AcDbEntity
  8
図枠細線
  6
CONTINUOUS
 62
   252
100
AcDbText
 10
290.069888505185
 20
2.574868675439
 30
0.0
 40
3.5
  1
ＴＯＷＡ　ＳＥＩＤＥＮ　ＩＮＤＵＳＴＲＩＡＬ　ＣＯ．，ＬＴＤ．
 41
0.414568012377
  7
EXCADSTD
 72
     5
 11
342.692388209546
 21
2.574868675439
 31
0.0
100
AcDbText
  0
TEXT
  5
75
330
65
100
AcDbEntity
  8
図枠ロゴマーク
  6
CONTINUOUS
 62
   253
100
AcDbText
 10
290.107348505185
 20
7.519769675439
 30
0.0
 40
7.0
  1
東和制電工業株式会社
 41
0.639204545455
  7
EXCADSTD
 72
     5
 11
342.607348505185
 21
7.519769675439
 31
0.0
100
AcDbText
  0
TEXT
  5
76
330
65
100
AcDbEntity
  8
図枠細線
  6
CONTINUOUS
 62
   252
100
AcDbText
 10
232.499705505185
 20
5.759088675439
 30
0.0
 40
2.0
  1
ＰＲＯＪＥＣＴＩＯＮ
 41
0.754285710199
  7
EXCADSTD
 72
     5
 11
250.099705409817
 21
5.759088675439
 31
0.0
100
AcDbText
  0
TEXT
  5
77
330
65
100
AcDbEntity
  8
図枠細線
  6
CONTINUOUS
 62
   252
100
AcDbText
 10
232.574629505185
 20
8.681077675439
 30
0.0
 40
2.0
  1
ＴＨＩＲＤ　ＡＮＧＬＥ
 41
0.691099486738
  7
EXCADSTD
 72
     5
 11
250.174629767445
 21
8.681077675439
 31
0.0
100
AcDbText
  0
TEXT
  5
78
330
65
100
AcDbEntity
  8
図枠細線
  6
CONTINUOUS
 62
   252
100
AcDbText
 10
256.823999505185
 20
13.427377675439
 30
0.0
 40
2.0
  1
ＳＣＡＬＥ
 41
0.903614457831
  7
EXCADSTD
 72
     5
 11
266.823999505185
 21
13.427377675439
 31
0.0
100
AcDbText
  0
TEXT
  5
79
330
65
100
AcDbEntity
  8
図枠細線
  6
CONTINUOUS
 62
   252
100
AcDbText
 10
274.858592505185
 20
13.427377675439
 30
0.0
 40
2.0
  1
ＤＡＴＥ
 41
0.923076923077
  7
EXCADSTD
 72
     5
 11
282.858592505185
 21
13.427377675439
 31
0.0
100
AcDbText
  0
TEXT
  5
7A
330
65
100
AcDbEntity
  8
図枠細線
  6
CONTINUOUS
 62
   252
100
AcDbText
 10
356.358592505185
 20
13.427377675439
 30
0.0
 40
2.0
  1
ＤＲＧ．ＮＯ．
 41
0.9375
  7
EXCADSTD
 72
     5
 11
370.358592505185
 21
13.427377675439
 31
0.0
100
AcDbText
  0
TEXT
  5
7B
330
65
100
AcDbEntity
  8
図枠細線
  6
CONTINUOUS
 62
   252
100
AcDbText
 10
345.358592505185
 20
13.427377675439
 30
0.0
 40
2.0
  1
図面番号
 41
1.102941176471
  7
EXCADSTD
 72
     5
 11
355.358592505185
 21
13.427377675439
 31
0.0
100
AcDbText
  0
TEXT
  5
7C
330
65
100
AcDbEntity
  8
図枠細線
  6
CONTINUOUS
 62
   252
100
AcDbText
 10
269.358592505185
 20
13.427377675439
 30
0.0
 40
2.0
  1
日付
 41
1.171875
  7
EXCADSTD
 72
     5
 11
274.358592505185
 21
13.427377675439
 31
0.0
100
AcDbText
  0
TEXT
  5
7D
330
65
100
AcDbEntity
  8
図枠細線
  6
CONTINUOUS
 62
   252
100
AcDbText
 10
251.451512505185
 20
13.427377675439
 30
0.0
 40
2.0
  1
尺度
 41
1.171875
  7
EXCADSTD
 72
     5
 11
256.451512505185
 21
13.427377675439
 31
0.0
100
AcDbText
  0
TEXT
  5
7E
330
65
100
AcDbEntity
  8
図枠細線
  6
CONTINUOUS
 62
   252
100
AcDbText
 10
232.358592505185
 20
13.427377675439
 30
0.0
 40
2.0
  1
第三角法
 41
1.102941176471
  7
EXCADSTD
 72
     5
 11
242.358592505185
 21
13.427377675439
 31
0.0
100
AcDbText
  0
TEXT
  5
7F
330
65
100
AcDbEntity
  8
図枠細線
  6
CONTINUOUS
 62
   252
100
AcDbText
 10
212.358592505185
 20
28.427377675439
 30
0.0
 40
2.0
  1
ＮＯＴＥ
 41
0.923076923077
  7
EXCADSTD
 72
     5
 11
220.358592505185
 21
28.427377675439
 31
0.0
100
AcDbText
  0
LINE
  5
80
330
65
100
AcDbEntity
  8
図枠細線
  6
CONTINUOUS
 62
   252
100
AcDbLine
 10
287.858592505185
 20
23.427375675439
 30
0.0
 11
344.858592505185
 21
23.427375675439
 31
0.0
  0
LINE
  5
81
330
65
100
AcDbEntity
  8
図枠太線
  6
CONTINUOUS
 62
   251
100
AcDbLine
 10
287.858584505185
 20
15.927375675439
 30
0.0
 11
344.858592505185
 21
15.927375675439
 31
0.0
  0
LINE
  5
82
330
65
100
AcDbEntity
  8
図枠細線
  6
CONTINUOUS
 62
   252
100
AcDbLine
 10
344.858592505185
 20
15.927375675439
 30
0.0
 11
401.858584505185
 21
15.927375675439
 31
0.0
  0
LINE
  5
83
330
65
100
AcDbEntity
  8
図枠太線
  6
CONTINUOUS
 62
   251
100
AcDbLine
 10
344.858592505185
 20
0.927377675439
 30
0.0
 11
344.858592505185
 21
30.927375675439
 31
0.0
  0
LINE
  5
84
330
65
100
AcDbEntity
  8
図枠太線
  6
CONTINUOUS
 62
   251
100
AcDbLine
 10
287.858592505185
 20
0.927377675439
 30
0.0
 11
287.858592505185
 21
30.927375675439
 31
0.0
  0
LINE
  5
85
330
65
100
AcDbEntity
  8
図枠細線
  6
CONTINUOUS
 62
   252
100
AcDbLine
 10
268.858592505185
 20
0.927377675439
 30
0.0
 11
268.858592505185
 21
15.927375675439
 31
0.0
  0
LINE
  5
86
330
65
100
AcDbEntity
  8
図枠細線
  6
CONTINUOUS
 62
   252
100
AcDbLine
 10
250.858592505185
 20
0.927377675439
 30
0.0
 11
250.858592505185
 21
15.927375675439
 31
0.0
  0
LINE
  5
87
330
65
100
AcDbEntity
  8
図枠細線
  6
CONTINUOUS
 62
   252
100
AcDbLine
 10
273.858592505185
 20
30.927375675439
 30
0.0
 11
273.858592505185
 21
15.927375675439
 31
0.0
  0
LINE
  5
88
330
65
100
AcDbEntity
  8
図枠細線
  6
CONTINUOUS
 62
   252
100
AcDbLine
 10
259.858592505185
 20
30.927375675439
 30
0.0
 11
259.858592505185
 21
15.927375675439
 31
0.0
  0
LINE
  5
89
330
65
100
AcDbEntity
  8
図枠細線
  6
CONTINUOUS
 62
   252
100
AcDbLine
 10
245.858592505185
 20
30.927375675439
 30
0.0
 11
245.858592505185
 21
15.927375675439
 31
0.0
  0
LINE
  5
8A
330
65
100
AcDbEntity
  8
図枠太線
  6
CONTINUOUS
 62
   251
100
AcDbLine
 10
231.858592505185
 20
0.927377675439
 30
0.0
 11
231.858592505185
 21
30.927375675439
 31
0.0
  0
LINE
  5
8B
330
65
100
AcDbEntity
  8
図枠細線
  6
CONTINUOUS
 62
   252
100
AcDbLine
 10
211.858592505185
 20
25.927375675439
 30
0.0
 11
231.858592505185
 21
25.927375675439
 31
0.0
  0
LINE
  5
8C
330
65
100
AcDbEntity
  8
図枠細線
  6
CONTINUOUS
 62
   252
100
AcDbLine
 10
211.858592505185
 20
20.927375675439
 30
0.0
 11
231.858592505185
 21
20.927375675439
 31
0.0
  0
LINE
  5
8D
330
65
100
AcDbEntity
  8
図枠細線
  6
CONTINUOUS
 62
   252
100
AcDbLine
 10
211.858592505185
 20
10.927375675439
 30
0.0
 11
231.858592505185
 21
10.927375675439
 31
0.0
  0
LINE
  5
8E
330
65
100
AcDbEntity
  8
図枠細線
  6
CONTINUOUS
 62
   252
100
AcDbLine
 10
211.858592505185
 20
5.927377675439
 30
0.0
 11
231.858592505185
 21
5.927377675439
 31
0.0
  0
LINE
  5
8F
330
65
100
AcDbEntity
  8
図枠太線
  6
CONTINUOUS
 62
   251
100
AcDbLine
 10
211.858592505185
 20
30.927375675439
 30
0.0
 11
401.858584505185
 21
30.927375675439
 31
0.0
  0
LINE
  5
90
330
65
100
AcDbEntity
  8
図枠太線
  6
CONTINUOUS
 62
   251
100
AcDbLine
 10
1.858584505185
 20
275.927375675439
 30
0.0
 11
401.858584505185
 21
275.927375675439
 31
0.0
  0
LINE
  5
91
330
65
100
AcDbEntity
  8
図枠太線
  6
CONTINUOUS
 62
   251
100
AcDbLine
 10
401.858584505185
 20
0.927375675439
 30
0.0
 11
401.858584505185
 21
275.927375675439
 31
0.0
  0
LINE
  5
92
330
65
100
AcDbEntity
  8
図枠太線
  6
CONTINUOUS
 62
   251
100
AcDbLine
 10
1.858584505185
 20
0.927375675439
 30
0.0
 11
401.858584505185
 21
0.927375675439
 31
0.0
  0
ENDBLK
  5
94
330
65
100
AcDbEntity
  8
0
100
AcDbBlockEnd
  0
BLOCK
  5
29C0
330
29BF
100
AcDbEntity
  8
0
100
AcDbBlockBegin
  2
A4横用_タイトル
 70
     0
 10
0.0
 20
0.0
 30
0.0
  3
A4横用_タイトル
  1
A4横用_タイトル
  0
LINE
  5
29C1
330
29BF
100
AcDbEntity
  8
図枠細線
  6
CONTINUOUS
100
AcDbLine
 10
75.061011071051
 20
16.806607253358
 30
0.0
 11
144.061011071051
 21
16.806604789072
 31
0.0
  0
LINE
  5
29C2
330
29BF
100
AcDbEntity
  8
図枠細線
  6
CONTINUOUS
 62
   252
100
AcDbLine
 10
4.061011071051
 20
11.806606253358
 30
0.0
 11
75.061011071051
 21
11.806606253358
 31
0.0
  0
LINE
  5
29C3
330
29BF
100
AcDbEntity
  8
図枠細線
  6
CONTINUOUS
 62
   252
100
AcDbLine
 10
4.061011071051
 20
21.806606253358
 30
0.0
 11
75.061011071051
 21
21.806606253358
 31
0.0
  0
LINE
  5
29C4
330
29BF
100
AcDbEntity
  8
図枠細線
  6
CONTINUOUS
 62
   252
100
AcDbLine
 10
4.061011071051
 20
26.806606253358
 30
0.0
 11
75.061011071051
 21
26.806606253358
 31
0.0
  0
LINE
  5
29C5
330
29BF
100
AcDbEntity
  8
図枠細線
  6
CONTINUOUS
100
AcDbLine
 10
4.061011071051
 20
16.806608253358
 30
0.0
 11
75.061011071051
 21
16.806608253358
 31
0.0
  0
TEXT
  5
29C6
330
29BF
100
AcDbEntity
  8
図枠細線
  6
CONTINUOUS
 62
   252
100
AcDbText
 10
76.405475827713
 20
9.560308253358
 30
0.0
 40
2.0
  1
ＴＨＩＲＤ　ＡＮＧＬＥ
 41
0.691099486738
  7
EXCADSTD
 72
     5
 11
94.005476089973
 21
9.560308253358
 31
0.0
100
AcDbText
  0
TEXT
  5
29C7
330
29BF
100
AcDbEntity
  8
図枠細線
  6
CONTINUOUS
 62
   252
100
AcDbText
 10
76.705775880921
 20
14.306608253358
 30
0.0
 40
2.0
  1
第三角法
 41
1.102941176471
  7
EXCADSTD
 72
     5
 11
86.705775880921
 21
14.306608253358
 31
0.0
100
AcDbText
  0
TEXT
  5
29C8
330
29BF
100
AcDbEntity
  8
図枠細線
  6
CONTINUOUS
 62
   252
100
AcDbText
 10
76.705775880921
 20
26.806608253358
 30
0.0
 40
2.0
  1
ＡＰＰＲＯＶＥＤ
 41
0.695652184279
  7
EXCADSTD
 72
     5
 11
89.505776071656
 21
26.806608253358
 31
0.0
100
AcDbText
  0
TEXT
  5
29C9
330
29BF
100
AcDbEntity
  8
図枠細線
  6
CONTINUOUS
 62
   252
100
AcDbText
 10
76.705775880921
 20
29.306608253358
 30
0.0
 40
2.0
  1
承認
 41
1.171875
  7
EXCADSTD
 72
     5
 11
81.705775880921
 21
29.306608253358
 31
0.0
100
AcDbText
  0
LINE
  5
29CA
330
29BF
100
AcDbEntity
  8
図枠細線
  6
CONTINUOUS
 62
   252
100
AcDbLine
 10
98.061011071051
 20
31.806606253358
 30
0.0
 11
98.061011071051
 21
16.806606253358
 31
0.0
  0
TEXT
  5
29CB
330
29BF
100
AcDbEntity
  8
図枠細線
  6
CONTINUOUS
 62
   252
100
AcDbText
 10
104.216531119804
 20
14.306608253358
 30
0.0
 40
2.0
  1
ＳＣＡＬＥ
 41
0.903614457831
  7
EXCADSTD
 72
     5
 11
114.216531119804
 21
14.306608253358
 31
0.0
100
AcDbText
  0
TEXT
  5
29CC
330
29BF
100
AcDbEntity
  8
図枠細線
  6
CONTINUOUS
 62
   252
100
AcDbText
 10
98.844044119804
 20
14.306608253358
 30
0.0
 40
2.0
  1
尺度
 41
1.171875
  7
EXCADSTD
 72
     5
 11
103.844044119804
 21
14.306608253358
 31
0.0
100
AcDbText
  0
TEXT
  5
29CD
330
29BF
100
AcDbEntity
  8
図枠細線
  6
CONTINUOUS
 62
   252
100
AcDbText
 10
98.968727707497
 20
26.806608253358
 30
0.0
 40
2.0
  1
ＣＨＥＣＫＥＤ
 41
0.831249989569
  7
EXCADSTD
 72
     5
 11
112.268727540604
 21
26.806608253358
 31
0.0
100
AcDbText
  0
TEXT
  5
29CE
330
29BF
100
AcDbEntity
  8
図枠細線
  6
CONTINUOUS
 62
   252
100
AcDbText
 10
98.968727707497
 20
29.306608253358
 30
0.0
 40
2.0
  1
検図
 41
1.209677419355
  7
EXCADSTD
 72
     5
 11
103.968727707497
 21
29.306608253358
 31
0.0
100
AcDbText
  0
LINE
  5
29CF
330
29BF
100
AcDbEntity
  8
図枠細線
  6
CONTINUOUS
 62
   252
100
AcDbLine
 10
121.061011071051
 20
31.806606253358
 30
0.0
 11
121.061011071051
 21
16.806606253358
 31
0.0
  0
TEXT
  5
29D0
330
29BF
100
AcDbEntity
  8
図枠細線
  6
CONTINUOUS
 62
   252
100
AcDbText
 10
128.001465247253
 20
14.306608253358
 30
0.0
 40
2.0
  1
ＤＡＴＥ
 41
0.923076923077
  7
EXCADSTD
 72
     5
 11
136.001465247253
 21
14.306608253358
 31
0.0
100
AcDbText
  0
TEXT
  5
29D1
330
29BF
100
AcDbEntity
  8
図枠細線
  6
CONTINUOUS
 62
   252
100
AcDbText
 10
122.066415498841
 20
14.306608253358
 30
0.0
 40
2.0
  1
日付
 41
1.171875
  7
EXCADSTD
 72
     5
 11
127.066415498841
 21
14.306608253358
 31
0.0
100
AcDbText
  0
TEXT
  5
29D2
330
29BF
100
AcDbEntity
  8
図枠細線
  6
CONTINUOUS
 62
   252
100
AcDbText
 10
121.59429406571
 20
29.306608253358
 30
0.0
 40
2.0
  1
製図
 41
1.209677419355
  7
EXCADSTD
 72
     5
 11
126.59429406571
 21
29.306608253358
 31
0.0
100
AcDbText
  0
TEXT
  5
29D3
330
29BF
100
AcDbEntity
  8
図枠細線
  6
CONTINUOUS
 62
   252
100
AcDbText
 10
121.59429406571
 20
26.806608253358
 30
0.0
 40
2.0
  1
ＤＲＡＷＮ
 41
0.882352941176
  7
EXCADSTD
 72
     5
 11
131.59429406571
 21
26.806608253358
 31
0.0
100
AcDbText
  0
TEXT
  5
29D4
330
29BF
100
AcDbEntity
  8
図枠細線
  6
CONTINUOUS
 62
   252
100
AcDbText
 10
226.591229661348
 20
14.306608253358
 30
0.0
 40
2.0
  1
ＤＲＧ．ＮＯ．
 41
0.9375
  7
EXCADSTD
 72
     5
 11
240.591229661348
 21
14.306608253358
 31
0.0
100
AcDbText
  0
LINE
  5
29D5
330
29BF
100
AcDbEntity
  8
図枠太線
  6
CONTINUOUS
 62
   251
100
AcDbLine
 10
144.061003071051
 20
16.806606253358
 30
0.0
 11
214.061011071051
 21
16.806606253358
 31
0.0
  0
LINE
  5
29D6
330
29BF
100
AcDbEntity
  8
図枠細線
  6
CONTINUOUS
 62
   252
100
AcDbLine
 10
144.061011071051
 20
24.306606253358
 30
0.0
 11
214.061011071051
 21
24.306606253358
 31
0.0
  0
TEXT
  5
29D7
330
29BF
100
AcDbEntity
  8
図枠ロゴマーク
  6
CONTINUOUS
 62
   253
100
AcDbText
 10
146.433776781596
 20
8.399000253358
 30
0.0
 40
7.0
  1
東和制電工業株式会社
 41
0.80361088462
  7
EXCADSTD
 72
     5
 11
212.437017438349
 21
8.399000253358
 31
0.0
100
AcDbText
  0
TEXT
  5
29D8
330
29BF
100
AcDbEntity
  8
図枠細線
  6
CONTINUOUS
 62
   252
100
AcDbText
 10
215.156179912936
 20
14.306608253358
 30
0.0
 40
2.0
  1
図面番号
 41
1.102941176471
  7
EXCADSTD
 72
     5
 11
225.156179912936
 21
14.306608253358
 31
0.0
100
AcDbText
  0
TEXT
  5
29D9
330
29BF
100
AcDbEntity
  8
図枠細線
  6
CONTINUOUS
 62
   252
100
AcDbText
 10
221.591229661348
 20
29.306608253358
 30
0.0
 40
2.0
  1
ＴＩＴＬＥ
 41
0.903614457831
  7
EXCADSTD
 72
     5
 11
231.591229661348
 21
29.306608253358
 31
0.0
100
AcDbText
  0
TEXT
  5
29DA
330
29BF
100
AcDbEntity
  8
図枠細線
  6
CONTINUOUS
 62
   252
100
AcDbText
 10
215.156179912936
 20
29.306608253358
 30
0.0
 40
2.0
  1
名称
 41
1.171875
  7
EXCADSTD
 72
     5
 11
220.156179912936
 21
29.306608253358
 31
0.0
100
AcDbText
  0
LINE
  5
29DB
330
29BF
100
AcDbEntity
  8
図枠太線
  6
CONTINUOUS
 62
   251
100
AcDbLine
 10
4.061011071051
 20
1.806608253358
 30
0.0
 11
284.061011071051
 21
1.806608253358
 31
0.0
  0
LINE
  5
29DC
330
29BF
100
AcDbEntity
  8
図枠細線
  6
CONTINUOUS
 62
   252
100
AcDbLine
 10
4.061011071051
 20
6.806608253358
 30
0.0
 11
75.061011071051
 21
6.806608253358
 31
0.0
  0
LINE
  5
29DD
330
29BF
100
AcDbEntity
  8
図枠太線
  6
CONTINUOUS
 62
   251
100
AcDbLine
 10
75.061011071051
 20
1.806608253358
 30
0.0
 11
75.061011071051
 21
31.806606253358
 31
0.0
  0
TEXT
  5
29DE
330
29BF
100
AcDbEntity
  8
図枠細線
  6
CONTINUOUS
 62
   252
100
AcDbText
 10
76.330551827713
 20
6.638319253358
 30
0.0
 40
2.0
  1
ＰＲＯＪＥＣＴＩＯＮ
 41
0.754285710199
  7
EXCADSTD
 72
     5
 11
93.930551732346
 21
6.638319253358
 31
0.0
100
AcDbText
  0
LINE
  5
29DF
330
29BF
100
AcDbEntity
  8
図枠細線
  6
CONTINUOUS
 62
   252
100
AcDbLine
 10
98.061011071051
 20
1.806606931929
 30
0.0
 11
98.061011071051
 21
16.806604931929
 31
0.0
  0
LINE
  5
29E0
330
29BF
100
AcDbEntity
  8
図枠細線
  6
CONTINUOUS
 62
   252
100
AcDbLine
 10
121.061011071051
 20
1.806607574787
 30
0.0
 11
121.061011071051
 21
16.806605574787
 31
0.0
  0
LINE
  5
29E1
330
29BF
100
AcDbEntity
  8
図枠太線
  6
CONTINUOUS
 62
   251
100
AcDbLine
 10
284.061011071051
 20
1.806608253358
 30
0.0
 11
284.061011071051
 21
31.806606253358
 31
0.0
  0
LINE
  5
29E2
330
29BF
100
AcDbEntity
  8
図枠細線
  6
CONTINUOUS
 62
   252
100
AcDbLine
 10
214.061011071051
 20
16.806606253358
 30
0.0
 11
284.061011071051
 21
16.806606253358
 31
0.0
  0
TEXT
  5
29E3
330
29BF
100
AcDbEntity
  8
図枠細線
  6
CONTINUOUS
 62
   252
100
AcDbText
 10
146.199593676182
 20
3.454099253358
 30
0.0
 40
3.5
  1
ＴＯＷＡ　ＳＥＩＤＥＮ　ＩＮＤＵＳＴＲＩＡＬ　ＣＯ．，ＬＴＤ．
 41
0.528937826907
  7
EXCADSTD
 72
     5
 11
213.339435171588
 21
3.454099253358
 31
0.0
100
AcDbText
  0
LINE
  5
29E4
330
29BF
100
AcDbEntity
  8
図枠太線
  6
CONTINUOUS
 62
   251
100
AcDbLine
 10
144.061011071051
 20
1.806608253358
 30
0.0
 11
144.061011071051
 21
31.806606253358
 31
0.0
  0
LINE
  5
29E5
330
29BF
100
AcDbEntity
  8
図枠太線
  6
CONTINUOUS
 62
   251
100
AcDbLine
 10
214.061011071051
 20
1.806608253358
 30
0.0
 11
214.061011071051
 21
31.806606253358
 31
0.0
  0
MTEXT
  5
29E6
330
29BF
100
AcDbEntity
  8
図枠太線
100
AcDbMText
 10
5.064337346478
 20
31.010982137407
 30
0.0
 40
2.5
 41
8.67856098472
 71
     1
 72
     5
  1
{\Fmonotxt.shx,bigfont.shx|c128;図暦}
  0
LINE
  5
29E7
330
29BF
100
AcDbEntity
  8
図枠太線
  6
CONTINUOUS
 62
   251
100
AcDbLine
 10
4.061011071051
 20
1.806608253358
 30
0.0
 11
4.061011071051
 21
31.806606253358
 31
0.0
  0
TEXT
  5
29E8
330
29BF
100
AcDbEntity
  8
図枠細線
 48
10.0
100
AcDbText
 10
12.260817420402
 20
28.625419626495
 30
0.0
 40
2.0
  1
CHANGE NOTICE
100
AcDbText
  0
ENDBLK
  5
29E9
330
29BF
100
AcDbEntity
  8
0
100
AcDbBlockEnd
  0
BLOCK
  5
29F5
330
29F4
100
AcDbEntity
  8
0
100
AcDbBlockBegin
  2
A4縦用_タイトル
 70
     0
 10
0.0
 20
0.0
 30
0.0
  3
A4縦用_タイトル
  1
A4縦用_タイトル
  0
LINE
  5
29F6
330
29F4
100
AcDbEntity
  8
図枠太線
  6
CONTINUOUS
 62
   251
100
AcDbLine
 10
2.368253864267
 20
4.525433224584
 30
0.0
 11
192.368245864267
 21
4.525433224584
 31
0.0
  0
LINE
  5
29F7
330
29F4
100
AcDbEntity
  8
図枠太線
  6
CONTINUOUS
 62
   251
100
AcDbLine
 10
78.368245864267
 20
19.525431224584
 30
0.0
 11
135.368253864267
 21
19.525431224584
 31
0.0
  0
LINE
  5
29F8
330
29F4
100
AcDbEntity
  8
図枠細線
  6
CONTINUOUS
 62
   252
100
AcDbLine
 10
78.368253864267
 20
27.025431224584
 30
0.0
 11
135.368253864267
 21
27.025431224584
 31
0.0
  0
TEXT
  5
29F9
330
29F4
100
AcDbEntity
  8
図枠ロゴマーク
  6
CONTINUOUS
 62
   253
100
AcDbText
 10
80.617009864267
 20
11.117825224584
 30
0.0
 40
7.0
  1
東和制電工業株式会社
 41
0.639204545455
  7
EXCADSTD
 72
     5
 11
133.117009864267
 21
11.117825224584
 31
0.0
100
AcDbText
  0
TEXT
  5
29FA
330
29F4
100
AcDbEntity
  8
図枠細線
  6
CONTINUOUS
 62
   252
100
AcDbText
 10
80.579549864267
 20
6.172924224584
 30
0.0
 40
3.5
  1
ＴＯＷＡ　ＳＥＩＤＥＮ　ＩＮＤＵＳＴＲＩＡＬ　ＣＯ．，ＬＴＤ．
 41
0.414568012377
  7
EXCADSTD
 72
     5
 11
133.202049568628
 21
6.172924224584
 31
0.0
100
AcDbText
  0
LINE
  5
29FB
330
29F4
100
AcDbEntity
  8
図枠太線
  6
CONTINUOUS
 62
   251
100
AcDbLine
 10
2.368253864267
 20
4.525433224584
 30
0.0
 11
2.368253864267
 21
34.525431224584
 31
0.0
  0
TEXT
  5
29FC
330
29F4
100
AcDbEntity
  8
図枠細線
  6
CONTINUOUS
 62
   252
100
AcDbText
 10
22.504308136501
 20
12.279133224584
 30
0.0
 40
2.0
  1
ＴＨＩＲＤ　ＡＮＧＬＥ
 41
0.691099486738
  7
EXCADSTD
 72
     5
 11
40.104308398762
 21
12.279133224584
 31
0.0
100
AcDbText
  0
TEXT
  5
29FD
330
29F4
100
AcDbEntity
  8
図枠細線
  6
CONTINUOUS
 62
   252
100
AcDbText
 10
22.429384136501
 20
9.357144224584
 30
0.0
 40
2.0
  1
ＰＲＯＪＥＣＴＩＯＮ
 41
0.754285710199
  7
EXCADSTD
 72
     5
 11
40.029384041134
 21
9.357144224584
 31
0.0
100
AcDbText
  0
LINE
  5
29FE
330
29F4
100
AcDbEntity
  8
図枠細線
  6
CONTINUOUS
100
AcDbLine
 10
22.368253864267
 20
19.525433224584
 30
0.0
 11
78.368253864267
 21
19.525431224584
 31
0.0
  0
TEXT
  5
29FF
330
29F4
100
AcDbEntity
  8
図枠細線
  6
CONTINUOUS
 62
   252
100
AcDbText
 10
22.868253864267
 20
17.025433224584
 30
0.0
 40
2.0
  1
第三角法
 41
1.102941176471
  7
EXCADSTD
 72
     5
 11
32.868253864267
 21
17.025433224584
 31
0.0
100
AcDbText
  0
TEXT
  5
2A00
330
29F4
100
AcDbEntity
  8
図枠細線
  6
CONTINUOUS
 62
   252
100
AcDbText
 10
22.868253864267
 20
29.525433224584
 30
0.0
 40
2.0
  1
ＡＰＰＲＯＶＥＤ
 41
0.695652184279
  7
EXCADSTD
 72
     5
 11
35.668254055002
 21
29.525433224584
 31
0.0
100
AcDbText
  0
LINE
  5
2A01
330
29F4
100
AcDbEntity
  8
図枠細線
  6
CONTINUOUS
 62
   252
100
AcDbLine
 10
2.368253864267
 20
9.525433224584
 30
0.0
 11
22.368253864267
 21
9.525433224584
 31
0.0
  0
LINE
  5
2A02
330
29F4
100
AcDbEntity
  8
図枠細線
  6
CONTINUOUS
 62
   252
100
AcDbLine
 10
2.368253864267
 20
14.525431224584
 30
0.0
 11
22.368253864267
 21
14.525431224584
 31
0.0
  0
LINE
  5
2A03
330
29F4
100
AcDbEntity
  8
図枠細線
  6
CONTINUOUS
 62
   252
100
AcDbLine
 10
2.368253864267
 20
24.525431224584
 30
0.0
 11
22.368253864267
 21
24.525431224584
 31
0.0
  0
LINE
  5
2A04
330
29F4
100
AcDbEntity
  8
図枠細線
  6
CONTINUOUS
 62
   252
100
AcDbLine
 10
2.368253864267
 20
29.525431224584
 30
0.0
 11
22.368253864267
 21
29.525431224584
 31
0.0
  0
LINE
  5
2A05
330
29F4
100
AcDbEntity
  8
図枠細線
  6
CONTINUOUS
100
AcDbLine
 10
2.368253864267
 20
19.525433224584
 30
0.0
 11
22.368253864267
 21
19.525433224584
 31
0.0
  0
TEXT
  5
2A06
330
29F4
100
AcDbEntity
  8
図枠細線
  6
CONTINUOUS
 62
   252
100
AcDbText
 10
2.868253864267
 20
32.025433224584
 30
0.0
 40
2.0
  1
ＮＯＴＥ
 41
0.923076923077
  7
EXCADSTD
 72
     5
 11
10.868253864267
 21
32.025433224584
 31
0.0
100
AcDbText
  0
LINE
  5
2A07
330
29F4
100
AcDbEntity
  8
図枠太線
  6
CONTINUOUS
 62
   251
100
AcDbLine
 10
22.368253864267
 20
4.525433224584
 30
0.0
 11
22.368253864267
 21
34.525431224584
 31
0.0
  0
TEXT
  5
2A08
330
29F4
100
AcDbEntity
  8
図枠細線
  6
CONTINUOUS
 62
   252
100
AcDbText
 10
22.868253864267
 20
32.025433224584
 30
0.0
 40
2.0
  1
承認
 41
1.171875
  7
EXCADSTD
 72
     5
 11
27.868253864267
 21
32.025433224584
 31
0.0
100
AcDbText
  0
TEXT
  5
2A09
330
29F4
100
AcDbEntity
  8
図枠細線
  6
CONTINUOUS
 62
   252
100
AcDbText
 10
60.711709035982
 20
32.025433224584
 30
0.0
 40
2.0
  1
製図
 41
1.209677419355
  7
EXCADSTD
 72
     5
 11
65.711709035982
 21
32.025433224584
 31
0.0
100
AcDbText
  0
TEXT
  5
2A0A
330
29F4
100
AcDbEntity
  8
図枠細線
  6
CONTINUOUS
 62
   252
100
AcDbText
 10
60.711709035982
 20
29.525433224584
 30
0.0
 40
2.0
  1
ＤＲＡＷＮ
 41
0.882352941176
  7
EXCADSTD
 72
     5
 11
70.711709035982
 21
29.525433224584
 31
0.0
100
AcDbText
  0
TEXT
  5
2A0B
330
29F4
100
AcDbEntity
  8
図枠細線
  6
CONTINUOUS
 62
   252
100
AcDbText
 10
60.834891743877
 20
17.025433224584
 30
0.0
 40
2.0
  1
日付
 41
1.171875
  7
EXCADSTD
 72
     5
 11
65.834891743877
 21
17.025433224584
 31
0.0
100
AcDbText
  0
TEXT
  5
2A0C
330
29F4
100
AcDbEntity
  8
図枠細線
  6
CONTINUOUS
 62
   252
100
AcDbText
 10
47.333660864267
 20
17.025433224584
 30
0.0
 40
2.0
  1
ＳＣＡＬＥ
 41
0.903614457831
  7
EXCADSTD
 72
     5
 11
57.333660864267
 21
17.025433224584
 31
0.0
100
AcDbText
  0
TEXT
  5
2A0D
330
29F4
100
AcDbEntity
  8
図枠細線
  6
CONTINUOUS
 62
   252
100
AcDbText
 10
42.281425990082
 20
29.525433224584
 30
0.0
 40
2.0
  1
ＣＨＥＣＫＥＤ
 41
0.831249989569
  7
EXCADSTD
 72
     5
 11
55.581425823189
 21
29.525433224584
 31
0.0
100
AcDbText
  0
LINE
  5
2A0E
330
29F4
100
AcDbEntity
  8
図枠細線
  6
CONTINUOUS
 62
   252
100
AcDbLine
 10
40.968253864267
 20
34.525431224584
 30
0.0
 11
40.968253864267
 21
19.525431224584
 31
0.0
  0
LINE
  5
2A0F
330
29F4
100
AcDbEntity
  8
図枠細線
  6
CONTINUOUS
 62
   252
100
AcDbLine
 10
40.968253864267
 20
4.525433224584
 30
0.0
 11
40.968253864267
 21
19.525431224584
 31
0.0
  0
TEXT
  5
2A10
330
29F4
100
AcDbEntity
  8
図枠細線
  6
CONTINUOUS
 62
   252
100
AcDbText
 10
41.961173864267
 20
17.025433224584
 30
0.0
 40
2.0
  1
尺度
 41
1.171875
  7
EXCADSTD
 72
     5
 11
46.961173864267
 21
17.025433224584
 31
0.0
100
AcDbText
  0
TEXT
  5
2A11
330
29F4
100
AcDbEntity
  8
図枠細線
  6
CONTINUOUS
 62
   252
100
AcDbText
 10
42.281425990082
 20
32.025433224584
 30
0.0
 40
2.0
  1
検図
 41
1.209677419355
  7
EXCADSTD
 72
     5
 11
47.281425990082
 21
32.025433224584
 31
0.0
100
AcDbText
  0
LINE
  5
2A12
330
29F4
100
AcDbEntity
  8
図枠細線
  6
CONTINUOUS
 62
   252
100
AcDbLine
 10
59.768253864267
 20
34.525431224584
 30
0.0
 11
59.768253864267
 21
19.525431224584
 31
0.0
  0
LINE
  5
2A13
330
29F4
100
AcDbEntity
  8
図枠細線
  6
CONTINUOUS
 62
   252
100
AcDbLine
 10
59.768253864267
 20
4.525433224584
 30
0.0
 11
59.768253864267
 21
19.525431224584
 31
0.0
  0
LINE
  5
2A14
330
29F4
100
AcDbEntity
  8
図枠太線
  6
CONTINUOUS
 62
   251
100
AcDbLine
 10
78.368253864267
 20
4.525433224584
 30
0.0
 11
78.368253864267
 21
34.525431224584
 31
0.0
  0
TEXT
  5
2A15
330
29F4
100
AcDbEntity
  8
図枠細線
  6
CONTINUOUS
 62
   252
100
AcDbText
 10
66.334891743877
 20
17.025433224584
 30
0.0
 40
2.0
  1
ＤＡＴＥ
 41
0.923076923077
  7
EXCADSTD
 72
     5
 11
74.334891743877
 21
17.025433224584
 31
0.0
100
AcDbText
  0
LINE
  5
2A16
330
29F4
100
AcDbEntity
  8
図枠細線
  6
CONTINUOUS
 62
   252
100
AcDbLine
 10
135.368253864267
 20
19.525431224584
 30
0.0
 11
192.368245864267
 21
19.525431224584
 31
0.0
  0
TEXT
  5
2A17
330
29F4
100
AcDbEntity
  8
図枠細線
  6
CONTINUOUS
 62
   252
100
AcDbText
 10
141.868253864267
 20
32.025433224584
 30
0.0
 40
2.0
  1
ＴＩＴＬＥ
 41
0.903614457831
  7
EXCADSTD
 72
     5
 11
151.868253864267
 21
32.025433224584
 31
0.0
100
AcDbText
  0
LINE
  5
2A18
330
29F4
100
AcDbEntity
  8
図枠太線
  6
CONTINUOUS
 62
   251
100
AcDbLine
 10
135.368253864267
 20
4.525433224584
 30
0.0
 11
135.368253864267
 21
34.525431224584
 31
0.0
  0
TEXT
  5
2A19
330
29F4
100
AcDbEntity
  8
図枠細線
  6
CONTINUOUS
 62
   252
100
AcDbText
 10
135.868253864267
 20
17.025433224584
 30
0.0
 40
2.0
  1
図面番号
 41
1.102941176471
  7
EXCADSTD
 72
     5
 11
145.868253864267
 21
17.025433224584
 31
0.0
100
AcDbText
  0
TEXT
  5
2A1A
330
29F4
100
AcDbEntity
  8
図枠細線
  6
CONTINUOUS
 62
   252
100
AcDbText
 10
135.868253864267
 20
32.025433224584
 30
0.0
 40
2.0
  1
名称
 41
1.171875
  7
EXCADSTD
 72
     5
 11
140.868253864267
 21
32.025433224584
 31
0.0
100
AcDbText
  0
TEXT
  5
2A1B
330
29F4
100
AcDbEntity
  8
図枠細線
  6
CONTINUOUS
 62
   252
100
AcDbText
 10
146.868253864267
 20
17.025433224584
 30
0.0
 40
2.0
  1
ＤＲＧ．ＮＯ．
 41
0.9375
  7
EXCADSTD
 72
     5
 11
160.868253864267
 21
17.025433224584
 31
0.0
100
AcDbText
  0
LINE
  5
2A1C
330
29F4
100
AcDbEntity
  8
図枠太線
  6
CONTINUOUS
 62
   251
100
AcDbLine
 10
192.368245864267
 20
4.525433224584
 30
0.0
 11
192.368245864267
 21
34.525431224584
 31
0.0
  0
ENDBLK
  5
2A1D
330
29F4
100
AcDbEntity
  8
0
100
AcDbBlockEnd
  0
BLOCK
  5
2A33
330
2A32
100
AcDbEntity
  8
0
100
AcDbBlockBegin
  2
A3横用_タイトル
 70
     0
 10
0.0
 20
0.0
 30
0.0
  3
A3横用_タイトル
  1
A3横用_タイトル
  0
LINE
  5
2A34
330
2A32
100
AcDbEntity
  8
図枠細線
  6
CONTINUOUS
 62
   252
100
AcDbLine
 10
205.098414535793
 20
33.525959753527
 30
0.0
 11
305.098414535793
 21
33.525959753527
 31
0.0
  0
LINE
  5
2A35
330
2A32
100
AcDbEntity
  8
図枠太線
  6
CONTINUOUS
 62
   251
100
AcDbLine
 10
205.098414535793
 20
23.525959753527
 30
0.0
 11
305.098414535793
 21
23.525959753527
 31
0.0
  0
LINE
  5
2A36
330
2A32
100
AcDbEntity
  8
図枠細線
  6
CONTINUOUS
100
AcDbLine
 10
5.098414535793
 20
23.525959753527
 30
0.0
 11
105.098414535793
 21
23.525959753527
 31
0.0
  0
LINE
  5
2A37
330
2A32
100
AcDbEntity
  8
図枠細線
  6
CONTINUOUS
 62
   252
100
AcDbLine
 10
5.098414535793
 20
36.725957753527
 30
0.0
 11
105.098414535793
 21
36.725957753527
 31
0.0
  0
LINE
  5
2A38
330
2A32
100
AcDbEntity
  8
図枠細線
  6
CONTINUOUS
 62
   252
100
AcDbLine
 10
5.098414535793
 20
30.125957753527
 30
0.0
 11
105.098414535793
 21
30.125957753527
 31
0.0
  0
LINE
  5
2A39
330
2A32
100
AcDbEntity
  8
図枠細線
  6
CONTINUOUS
 62
   252
100
AcDbLine
 10
5.098414535793
 20
16.725959753527
 30
0.0
 11
105.098414535793
 21
16.725959753527
 31
0.0
  0
LINE
  5
2A3A
330
2A32
100
AcDbEntity
  8
図枠細線
  6
CONTINUOUS
 62
   252
100
AcDbLine
 10
5.098414535793
 20
10.125959753527
 30
0.0
 11
105.098414535793
 21
10.125959753527
 31
0.0
  0
LINE
  5
2A3B
330
2A32
100
AcDbEntity
  8
図枠細線
  6
CONTINUOUS
100
AcDbLine
 10
105.098414535793
 20
23.525961753527
 30
0.0
 11
205.098414535793
 21
23.525959753527
 31
0.0
  0
LINE
  5
2A3C
330
2A32
100
AcDbEntity
  8
図枠細線
  6
CONTINUOUS
 62
   252
100
AcDbLine
 10
138.398414535793
 20
43.525959753527
 30
0.0
 11
138.398414535793
 21
18.525957753527
 31
0.0
  0
LINE
  5
2A3D
330
2A32
100
AcDbEntity
  8
図枠細線
  6
CONTINUOUS
 62
   252
100
AcDbLine
 10
171.698414535793
 20
43.525959753527
 30
0.0
 11
171.698414535793
 21
18.525957753527
 31
0.0
  0
LINE
  5
2A3E
330
2A32
100
AcDbEntity
  8
図枠細線
  6
CONTINUOUS
 62
   252
100
AcDbLine
 10
305.098414535793
 20
23.525959753527
 30
0.0
 11
405.098414535793
 21
23.525959753527
 31
0.0
  0
TEXT
  5
2A3F
330
2A32
100
AcDbEntity
  8
図枠ロゴマーク
  6
CONTINUOUS
 62
   253
100
AcDbText
 10
206.102509212755
 20
13.294257570546
 30
0.0
 40
7.0
  1
東和制電工業株式会社
 50
0.016555220185
 41
1.186384129432
  7
EXCADSTD
 72
     5
 11
303.544188309143
 21
13.322412672217
 31
0.0
100
AcDbText
  0
MTEXT
  5
2A40
330
2A32
100
AcDbEntity
  8
図枠細線
100
AcDbMText
 10
6.356764112375
 20
41.976594175478
 30
0.0
 40
2.5
 41
49.938282706292
 71
     1
 72
     5
  1
{\Fmonotxt.shx,bigfont.shx|c128;図暦　CHANGE　NOTICE}
  0
MTEXT
  5
2A41
330
2A32
100
AcDbEntity
  8
図枠細線
 48
10.0
100
AcDbMText
 10
306.544114926828
 20
41.701835800934
 30
0.0
 40
2.5
 41
28.002809618823
 71
     1
 72
     5
  1
{\Fmonotxt.shx,bigfont.shx|c128;名称　TITLE}
  0
MTEXT
  5
2A42
330
2A32
100
AcDbEntity
  8
図枠細線
 48
10.0
100
AcDbMText
 10
307.329617114284
 20
21.606206797226
 30
0.0
 40
2.5
 41
24.385612216707
 71
     1
 72
     5
  1
{\Fmonotxt.shx,bigfont.shx|c128;図面番号\PDRG.　No.}
  0
MTEXT
  5
2A43
330
2A32
100
AcDbEntity
  8
図枠細線
 48
10.0
100
AcDbMText
 10
173.726349404609
 20
21.73680662198
 30
0.0
 40
2.5
 41
25.735090160813
 71
     1
 72
     5
  1
{\Fmonotxt.shx,bigfont.shx|c128;日付 DATE}
  0
MTEXT
  5
2A44
330
2A32
100
AcDbEntity
  8
図枠細線
 48
10.0
100
AcDbMText
 10
173.48708833982
 20
41.621592044998
 30
0.0
 40
2.5
 41
24.983741184205
 71
     1
 72
     5
  1
{\Fmonotxt.shx,bigfont.shx|c128;製図　DRAWN}
  0
MTEXT
  5
2A45
330
2A32
100
AcDbEntity
  8
図枠細線
 48
10.0
100
AcDbMText
 10
139.28009927741
 20
21.866713069868
 30
0.0
 40
2.5
 41
22.629632913243
 71
     1
 72
     5
  1
{\Fmonotxt.shx,bigfont.shx|c128;尺度　SCALE}
  0
MTEXT
  5
2A46
330
2A32
100
AcDbEntity
  8
図枠細線
 48
10.0
100
AcDbMText
 10
139.910091179835
 20
41.311840415554
 30
0.0
 40
2.5
 41
28.998753428368
 71
     1
 72
     5
  1
{\Fmonotxt.shx,bigfont.shx|c128;検図  CHECKED}
  0
MTEXT
  5
2A47
330
2A32
100
AcDbEntity
  8
図枠細線
 48
10.0
100
AcDbMText
 10
114.253294667728
 20
21.916124850174
 30
0.0
 40
3.0
 41
19.692400475383
 71
     1
 72
     5
  1
{\Fmonotxt.shx,bigfont.shx|c128;第三角法}
  0
MTEXT
  5
2A48
330
2A32
100
AcDbEntity
  8
図枠細線
 48
10.0
100
AcDbMText
 10
108.986959929915
 20
15.282880185837
 30
0.0
 40
2.5
 41
27.954882823547
 71
     1
 72
     5
  1
{\Fmonotxt.shx,bigfont.shx|c128;THIRD ANGLE\PPROJECTION}
  0
MTEXT
  5
2A49
330
2A32
100
AcDbEntity
  8
図枠細線
 48
10.0
100
AcDbMText
 10
106.319432640184
 20
41.511437145487
 30
0.0
 40
2.5
 41
28.233595265074
 71
     1
 72
     5
  1
{\Fmonotxt.shx,bigfont.shx|c128;承認 APPROVED}
  0
LINE
  5
2A4A
330
2A32
100
AcDbEntity
  8
図枠太線
  6
CONTINUOUS
 62
   251
100
AcDbLine
 10
5.098414535793
 20
3.525959753527
 30
0.0
 11
405.098414535793
 21
3.525959753527
 31
0.0
  0
LINE
  5
2A4B
330
2A32
100
AcDbEntity
  8
図枠太線
 48
10.0
100
AcDbLine
 10
5.098414535793
 20
3.525959753527
 30
0.0
 11
5.098414535793
 21
43.525959753527
 31
0.0
  0
LINE
  5
2A4C
330
2A32
100
AcDbEntity
  8
図枠太線
  6
CONTINUOUS
 62
   251
100
AcDbLine
 10
105.098414535793
 20
3.525959753527
 30
0.0
 11
105.098414535793
 21
43.525959753527
 31
0.0
  0
LINE
  5
2A4D
330
2A32
100
AcDbEntity
  8
図枠細線
  6
CONTINUOUS
 62
   252
100
AcDbLine
 10
138.398414535793
 20
3.525959753527
 30
0.0
 11
138.398414535793
 21
18.525957753527
 31
0.0
  0
LINE
  5
2A4E
330
2A32
100
AcDbEntity
  8
図枠細線
  6
CONTINUOUS
 62
   252
100
AcDbLine
 10
171.698414535793
 20
3.525959753527
 30
0.0
 11
171.698414535793
 21
18.525957753527
 31
0.0
  0
LINE
  5
2A4F
330
2A32
100
AcDbEntity
  8
図枠太線
  6
CONTINUOUS
 62
   251
100
AcDbLine
 10
205.098414535793
 20
3.525959753527
 30
0.0
 11
205.098414535793
 21
43.525959753527
 31
0.0
  0
LINE
  5
2A50
330
2A32
100
AcDbEntity
  8
図枠太線
 48
10.0
100
AcDbLine
 10
405.098414535793
 20
43.525959753527
 30
0.0
 11
405.098414535793
 21
3.525959753527
 31
0.0
  0
TEXT
  5
2A51
330
2A32
100
AcDbEntity
  8
図枠細線
  6
CONTINUOUS
 62
   252
100
AcDbText
 10
208.519754474572
 20
6.482358407285
 30
0.0
 40
3.5
  1
ＴＯＷＡ　ＳＥＩＤＥＮ　ＩＮＤＵＳＴＲＩＡＬ　ＣＯ．，ＬＴＤ．
 41
0.746656297509
  7
EXCADSTD
 72
     5
 11
303.295327171727
 21
6.482358407285
 31
0.0
100
AcDbText
  0
LINE
  5
2A52
330
2A32
100
AcDbEntity
  8
図枠太線
  6
CONTINUOUS
 62
   251
100
AcDbLine
 10
305.098414535793
 20
3.525959753527
 30
0.0
 11
305.098414535793
 21
43.525959753527
 31
0.0
  0
ENDBLK
  5
2A53
330
2A32
100
AcDbEntity
  8
0
100
AcDbBlockEnd
  0
BLOCK
  5
2A6D
330
2A6C
100
AcDbEntity
  8
0
100
AcDbBlockBegin
  2
A3縦用_タイトル
 70
     0
 10
0.0
 20
0.0
 30
0.0
  3
A3縦用_タイトル
  1
A3縦用_タイトル
  0
MTEXT
  5
2A6E
330
2A6C
100
AcDbEntity
  8
図枠細線
100
AcDbMText
 10
5.040804501593
 20
31.626098649005
 30
0.0
 40
2.5
 41
49.938282706292
 71
     1
 72
     5
  1
{\Fmonotxt.shx,bigfont.shx|c128;図暦　CHANGE　NOTICE}
  0
LINE
  5
2A6F
330
2A6C
100
AcDbEntity
  8
図枠太線
  6
CONTINUOUS
 62
   251
100
AcDbLine
 10
283.577871882961
 20
2.820844689254
 30
0.0
 11
283.577871882961
 21
32.820842689254
 31
0.0
  0
MTEXT
  5
2A70
330
2A6C
100
AcDbEntity
  8
図枠細線
 48
10.0
100
AcDbMText
 10
214.912458947454
 20
31.621488632308
 30
0.0
 40
2.5
 41
28.002809618823
 71
     1
 72
     5
  1
{\Fmonotxt.shx,bigfont.shx|c128;名称　TITLE}
  0
MTEXT
  5
2A71
330
2A6C
100
AcDbEntity
  8
図枠細線
 48
10.0
100
AcDbMText
 10
214.740030458938
 20
16.310225796722
 30
0.0
 40
2.5
 41
24.385612216707
 71
     1
 72
     5
  1
{\Fmonotxt.shx,bigfont.shx|c128;図面番号\PDRG.　No.}
  0
LINE
  5
2A72
330
2A6C
100
AcDbEntity
  8
図枠太線
  6
CONTINUOUS
 62
   251
100
AcDbLine
 10
213.577871882961
 20
2.820844689254
 30
0.0
 11
213.577871882961
 21
32.820842689254
 31
0.0
  0
LINE
  5
2A73
330
2A6C
100
AcDbEntity
  8
図枠太線
  6
CONTINUOUS
 62
   251
100
AcDbLine
 10
143.577871882961
 20
2.820844689254
 30
0.0
 11
143.577871882961
 21
32.820842689254
 31
0.0
  0
TEXT
  5
2A74
330
2A6C
100
AcDbEntity
  8
図枠細線
  6
CONTINUOUS
 62
   252
100
AcDbText
 10
145.716454488093
 20
4.468335689254
 30
0.0
 40
3.5
  1
ＴＯＷＡ　ＳＥＩＤＥＮ　ＩＮＤＵＳＴＲＩＡＬ　ＣＯ．，ＬＴＤ．
 41
0.528937826907
  7
EXCADSTD
 72
     5
 11
212.856295983498
 21
4.468335689254
 31
0.0
100
AcDbText
  0
TEXT
  5
2A75
330
2A6C
100
AcDbEntity
  8
図枠ロゴマーク
  6
CONTINUOUS
 62
   253
100
AcDbText
 10
145.950637593507
 20
9.413236689254
 30
0.0
 40
7.0
  1
東和制電工業株式会社
 41
0.80361088462
  7
EXCADSTD
 72
     5
 11
211.953878250259
 21
9.413236689254
 31
0.0
100
AcDbText
  0
LINE
  5
2A76
330
2A6C
100
AcDbEntity
  8
図枠細線
  6
CONTINUOUS
 62
   252
100
AcDbLine
 10
143.577871882961
 20
25.320842689254
 30
0.0
 11
213.577871882961
 21
25.320842689254
 31
0.0
  0
LINE
  5
2A77
330
2A6C
100
AcDbEntity
  8
図枠太線
  6
CONTINUOUS
 62
   251
100
AcDbLine
 10
143.577863882961
 20
17.820842689254
 30
0.0
 11
213.577871882961
 21
17.820842689254
 31
0.0
  0
LINE
  5
2A78
330
2A6C
100
AcDbEntity
  8
図枠細線
  6
CONTINUOUS
 62
   252
100
AcDbLine
 10
213.577871882961
 20
17.820842689254
 30
0.0
 11
283.577871882961
 21
17.820842689254
 31
0.0
  0
LINE
  5
2A79
330
2A6C
100
AcDbEntity
  8
図枠細線
  6
CONTINUOUS
 62
   252
100
AcDbLine
 10
120.577871882961
 20
32.820842689254
 30
0.0
 11
120.577871882961
 21
17.820842689254
 31
0.0
  0
MTEXT
  5
2A7A
330
2A6C
100
AcDbEntity
  8
図枠細線
 48
10.0
100
AcDbMText
 10
121.100885670352
 20
16.33785922638
 30
0.0
 40
2.0
 41
17.705978285068
 71
     1
 72
     5
  1
{\Fmonotxt.shx,bigfont.shx|c128;日付 DATE}
  0
MTEXT
  5
2A7B
330
2A6C
100
AcDbEntity
  8
図枠細線
 48
10.0
100
AcDbMText
 10
121.254842273491
 20
31.208993514037
 30
0.0
 40
2.0
 41
18.363799568758
 71
     1
 72
     5
  1
{\Fmonotxt.shx,bigfont.shx|c128;製図　DRAWN}
  0
LINE
  5
2A7C
330
2A6C
100
AcDbEntity
  8
図枠細線
  6
CONTINUOUS
 62
   252
100
AcDbLine
 10
97.577871882961
 20
32.820842689254
 30
0.0
 11
97.577871882961
 21
17.820842689254
 31
0.0
  0
MTEXT
  5
2A7D
330
2A6C
100
AcDbEntity
  8
図枠細線
 48
10.0
100
AcDbMText
 10
98.239734796872
 20
16.467764839281
 30
0.0
 40
2.0
 41
17.757791689903
 71
     1
 72
     5
  1
{\Fmonotxt.shx,bigfont.shx|c128;尺度　SCALE}
  0
MTEXT
  5
2A7E
330
2A6C
100
AcDbEntity
  8
図枠細線
 48
10.0
100
AcDbMText
 10
97.864744625154
 20
31.298433377664
 30
0.0
 40
2.0
 41
23.162655920976
 71
     1
 72
     5
  1
{\Fmonotxt.shx,bigfont.shx|c128;検図  CHECKED}
  0
LINE
  5
2A7F
330
2A6C
100
AcDbEntity
  8
図枠細線
  6
CONTINUOUS
 62
   252
100
AcDbLine
 10
97.577871882961
 20
2.820843367826
 30
0.0
 11
97.577871882961
 21
17.820841367826
 31
0.0
  0
LINE
  5
2A80
330
2A6C
100
AcDbEntity
  8
図枠細線
  6
CONTINUOUS
 62
   252
100
AcDbLine
 10
120.577871882961
 20
2.820844010683
 30
0.0
 11
120.577871882961
 21
17.820842010683
 31
0.0
  0
MTEXT
  5
2A81
330
2A6C
100
AcDbEntity
  8
図枠細線
 48
10.0
100
AcDbMText
 10
81.402399084102
 20
16.316484117426
 30
0.0
 40
2.0
 41
12.920322819369
 71
     1
 72
     5
  1
{\Fmonotxt.shx,bigfont.shx|c128;第三角法}
  0
MTEXT
  5
2A82
330
2A6C
100
AcDbEntity
  8
図枠細線
 48
10.0
100
AcDbMText
 10
75.736576535096
 20
11.080410931319
 30
0.0
 40
2.0
 41
21.072870671471
 71
     1
 72
     5
  1
{\Fmonotxt.shx,bigfont.shx|c128;THIRD ANGLE\PPROJECTION}
  0
LINE
  5
2A83
330
2A6C
100
AcDbEntity
  8
図枠太線
  6
CONTINUOUS
 62
   251
100
AcDbLine
 10
74.577871882961
 20
2.820844689254
 30
0.0
 11
74.577871882961
 21
32.820842689254
 31
0.0
  0
MTEXT
  5
2A84
330
2A6C
100
AcDbEntity
  8
図枠細線
 48
10.0
100
AcDbMText
 10
75.060214781573
 20
31.298434778555
 30
0.0
 40
2.0
 41
22.240928805967
 71
     1
 72
     5
  1
{\Fmonotxt.shx,bigfont.shx|c128;承認 APPROVED}
  0
LINE
  5
2A85
330
2A6C
100
AcDbEntity
  8
図枠細線
  6
CONTINUOUS
100
AcDbLine
 10
3.577871882961
 20
17.820844689254
 30
0.0
 11
74.577871882961
 21
17.820844689254
 31
0.0
  0
LINE
  5
2A86
330
2A6C
100
AcDbEntity
  8
図枠細線
  6
CONTINUOUS
 62
   252
100
AcDbLine
 10
3.577871882961
 20
27.820842689254
 30
0.0
 11
74.577871882961
 21
27.820842689254
 31
0.0
  0
LINE
  5
2A87
330
2A6C
100
AcDbEntity
  8
図枠細線
  6
CONTINUOUS
 62
   252
100
AcDbLine
 10
3.577871882961
 20
22.820842689254
 30
0.0
 11
74.577871882961
 21
22.820842689254
 31
0.0
  0
LINE
  5
2A88
330
2A6C
100
AcDbEntity
  8
図枠細線
  6
CONTINUOUS
 62
   252
100
AcDbLine
 10
3.577871882961
 20
12.820842689254
 30
0.0
 11
74.577871882961
 21
12.820842689254
 31
0.0
  0
LINE
  5
2A89
330
2A6C
100
AcDbEntity
  8
図枠細線
  6
CONTINUOUS
 62
   252
100
AcDbLine
 10
3.577871882961
 20
7.820844689254
 30
0.0
 11
74.577871882961
 21
7.820844689254
 31
0.0
  0
LINE
  5
2A8A
330
2A6C
100
AcDbEntity
  8
図枠細線
  6
CONTINUOUS
100
AcDbLine
 10
74.577871882961
 20
17.820843689254
 30
0.0
 11
143.577871882961
 21
17.820841224969
 31
0.0
  0
LINE
  5
2A8B
330
2A6C
100
AcDbEntity
  8
図枠太線
  6
CONTINUOUS
 62
   251
100
AcDbLine
 10
3.577871882961
 20
2.820844689254
 30
0.0
 11
283.577871882961
 21
2.820844689254
 31
0.0
  0
LINE
  5
2A8C
330
2A6C
100
AcDbEntity
  8
図枠太線
  6
CONTINUOUS
 62
   251
100
AcDbLine
 10
3.577871882961
 20
2.820844689254
 30
0.0
 11
3.577871882961
 21
32.820842689254
 31
0.0
  0
ENDBLK
  5
2A8D
330
2A6C
100
AcDbEntity
  8
0
100
AcDbBlockEnd
  0
BLOCK
  5
2AEF
330
2AEB
100
AcDbEntity
  8
0
 48
10.0
100
AcDbBlockBegin
  2
_OPEN30
 70
     0
 10
0.0
 20
0.0
 30
0.0
  3
_OPEN30
  1
_OPEN30
  0
LINE
  5
2AEC
330
2AEB
100
AcDbEntity
  8
0
  6
BYBLOCK
 62
     0
100
AcDbLine
 10
-1.0
 20
0.26794919
 30
0.0
 11
0.0
 21
0.0
 31
0.0
  0
LINE
  5
2AED
330
2AEB
100
AcDbEntity
  8
0
  6
BYBLOCK
 62
     0
100
AcDbLine
 10
0.0
 20
0.0
 30
0.0
 11
-1.0
 21
-0.26794919
 31
0.0
  0
LINE
  5
2AEE
330
2AEB
100
AcDbEntity
  8
0
  6
BYBLOCK
 62
     0
100
AcDbLine
 10
0.0
 20
0.0
 30
0.0
 11
-1.0
 21
0.0
 31
0.0
  0
ENDBLK
  5
2AF0
330
2AEB
100
AcDbEntity
  8
0
 48
10.0
100
AcDbBlockEnd
  0
BLOCK
  5
3286
330
3285
100
AcDbEntity
  8
0
 48
10.0
100
AcDbBlockBegin
  2
ケース外形図_HL2
 70
     0
 10
0.0
 20
0.0
 30
0.0
  3
ケース外形図_HL2
  1
ケース外形図_HL2
  0
ARC
  5
3287
330
3285
100
AcDbEntity
  8
外形線
100
AcDbCircle
 10
1682.279657644674
 20
565.171922868013
 30
0.0
 40
7.5
100
AcDbArc
 50
0.0
 51
86.629979268965
  0
LINE
  5
3288
330
3285
100
AcDbEntity
  8
外形線
100
AcDbLine
 10
1682.720538016057
 20
572.658953287221
 30
0.0
 11
1641.029735144674
 21
575.113952883058
 31
0.0
  0
ARC
  5
3289
330
3285
100
AcDbEntity
  8
外形線
100
AcDbCircle
 10
1691.945032644673
 20
553.72501539094
 30
0.0
 40
2.2392525
100
AcDbArc
 50
194.75345388934
 51
278.592935656336
  0
ARC
  5
328A
330
3285
100
AcDbEntity
  8
外形線
100
AcDbCircle
 10
1691.945032644673
 20
509.29676289094
 30
0.0
 40
2.2392525
100
AcDbArc
 50
81.407104039339
 51
165.246528510562
  0
LINE
  5
328B
330
3285
100
AcDbEntity
  8
外形線
100
AcDbLine
 10
1681.868193402131
 20
480.175992553361
 30
0.0
 11
1681.336454808556
 21
464.319866736108
 31
0.0
  0
ARC
  5
328C
330
3285
100
AcDbEntity
  8
外形線
100
AcDbCircle
 10
1679.587438013676
 20
464.378520390941
 30
0.0
 40
1.75
100
AcDbArc
 50
270.0
 51
358.079293496419
  0
LINE
  5
328D
330
3285
100
AcDbEntity
  8
外形線
100
AcDbLine
 10
1677.529672644674
 20
458.628580390941
 30
0.0
 11
1677.529672644674
 21
462.628520390941
 31
0.0
  0
LINE
  5
328E
330
3285
100
AcDbEntity
  8
細線
100
AcDbLine
 10
1675.029672644674
 20
462.628520390941
 30
0.0
 11
1675.029672644674
 21
458.628580390941
 31
0.0
  0
ARC
  5
328F
330
3285
100
AcDbEntity
  8
外形線
100
AcDbCircle
 10
1683.117491112762
 20
480.134097085623
 30
0.0
 40
1.25
100
AcDbArc
 50
93.370020731035
 51
178.079293496416
  0
LINE
  5
3290
330
3285
100
AcDbEntity
  8
外形線
100
AcDbLine
 10
1683.059104820071
 20
480.747450171061
 30
0.0
 11
1683.053989533114
 21
480.747229641031
 31
0.0
  0
LINE
  5
3291
330
3285
100
AcDbEntity
  8
外形線
100
AcDbLine
 10
1652.796673704858
 20
477.033122689368
 30
0.0
 11
1653.223015480791
 21
464.319866736108
 31
0.0
  0
ARC
  5
3292
330
3285
100
AcDbEntity
  8
外形線
100
AcDbCircle
 10
1654.972032275672
 20
464.378520390941
 30
0.0
 40
1.75
100
AcDbArc
 50
181.920706503581
 51
270.0
  0
LINE
  5
3293
330
3285
100
AcDbEntity
  8
外形線
100
AcDbLine
 10
1657.029642644673
 20
458.628580390941
 30
0.0
 11
1657.029642644673
 21
462.628520390941
 31
0.0
  0
LINE
  5
3294
330
3285
100
AcDbEntity
  8
細線
100
AcDbLine
 10
1659.529642644673
 20
462.628520390941
 30
0.0
 11
1659.529642644673
 21
458.628580390941
 31
0.0
  0
ARC
  5
3295
330
3285
100
AcDbEntity
  8
外形線
100
AcDbCircle
 10
1650.298078283599
 20
476.949331753895
 30
0.0
 40
2.5
100
AcDbArc
 50
1.920706503578
 51
93.370020731035
  0
LINE
  5
3296
330
3285
100
AcDbEntity
  8
外形線
100
AcDbLine
 10
1654.972032275672
 20
462.628520390941
 30
0.0
 11
1679.587438013676
 21
462.628520390941
 31
0.0
  0
LINE
  5
3297
330
3285
100
AcDbEntity
  8
外形線
100
AcDbLine
 10
1655.279687644673
 20
458.628580390941
 30
0.0
 11
1679.279627644674
 21
458.628580390941
 31
0.0
  0
LINE
  5
3298
330
3285
100
AcDbEntity
  8
外形線
100
AcDbLine
 10
1682.720538016057
 20
481.362887494663
 30
0.0
 11
1641.029735144674
 21
478.907887898823
 31
0.0
  0
ARC
  5
3299
330
3285
100
AcDbEntity
  8
細線
100
AcDbCircle
 10
1677.789302644674
 20
459.39792789094
 30
0.0
 40
6.935630000000001
100
AcDbArc
 50
229.442381454624
 51
257.428103887328
  0
LINE
  5
329A
330
3285
100
AcDbEntity
  8
外形線
100
AcDbLine
 10
1676.279597644674
 20
452.628520390941
 30
0.0
 11
1679.279627644674
 21
454.12853539094
 31
0.0
  0
ARC
  5
329B
330
3285
100
AcDbEntity
  8
細線
100
AcDbCircle
 10
1656.770015144674
 20
459.39792789094
 30
0.0
 40
6.935630000000001
100
AcDbArc
 50
282.571898360403
 51
310.557678088911
  0
LINE
  5
329C
330
3285
100
AcDbEntity
  8
外形線
100
AcDbLine
 10
1658.279720144674
 20
452.628520390941
 30
0.0
 11
1655.279687644673
 21
454.12853539094
 31
0.0
  0
ARC
  5
329D
330
3285
100
AcDbEntity
  8
細線
100
AcDbCircle
 10
1667.279657644674
 20
465.378077890941
 30
0.0
 40
12.7495375
100
AcDbArc
 50
241.926501556963
 51
298.073500690785
  0
LINE
  5
329E
330
3285
100
AcDbEntity
  8
外形線
100
AcDbLine
 10
1658.279720144674
 20
452.628520390941
 30
0.0
 11
1676.279672644674
 21
452.628520390941
 31
0.0
  0
LINE
  5
329F
330
3285
100
AcDbEntity
  8
細線
100
AcDbLine
 10
1661.279672644674
 20
458.628580390941
 30
0.0
 11
1661.279672644674
 21
454.12853539094
 31
0.0
  0
LINE
  5
32A0
330
3285
100
AcDbEntity
  8
外形線
100
AcDbLine
 10
1655.279687644673
 20
458.628580390941
 30
0.0
 11
1655.279687644673
 21
454.12853539094
 31
0.0
  0
LINE
  5
32A1
330
3285
100
AcDbEntity
  8
細線
100
AcDbLine
 10
1673.279642644673
 20
458.628580390941
 30
0.0
 11
1673.279642644673
 21
454.12853539094
 31
0.0
  0
LINE
  5
32A2
330
3285
100
AcDbEntity
  8
外形線
100
AcDbLine
 10
1679.279627644674
 20
458.628580390941
 30
0.0
 11
1679.279627644674
 21
454.12853539094
 31
0.0
  0
LINE
  5
32A3
330
3285
100
AcDbEntity
  8
中心線
 48
10.0
100
AcDbLine
 10
1667.279735144674
 20
442.443739096483
 30
0.0
 11
1667.279735144674
 21
490.634402530415
 31
0.0
  0
ARC
  5
32A4
330
3285
100
AcDbEntity
  8
外形線
100
AcDbCircle
 10
1682.279657644674
 20
488.849917913871
 30
0.0
 40
7.5
100
AcDbArc
 50
273.370020731035
 51
0.0
  0
LINE
  5
32A5
330
3285
100
AcDbEntity
  8
外形線
100
AcDbLine
 10
1641.029735144674
 20
473.510935390941
 30
0.0
 11
1641.029735144674
 21
580.51090539094
 31
0.0
  0
LINE
  5
32A6
330
3285
100
AcDbEntity
  8
外形線
100
AcDbLine
 10
1689.779657644674
 20
565.171922868013
 30
0.0
 11
1689.779657644674
 21
488.849917913871
 31
0.0
  0
LINE
  5
32A7
330
3285
100
AcDbEntity
  8
外形線
100
AcDbLine
 10
1692.279582644674
 20
551.51089039094
 30
0.0
 11
1692.279582644674
 21
511.510890390941
 31
0.0
  0
LINE
  5
32A8
330
3285
100
AcDbEntity
  8
外形線
100
AcDbLine
 10
1617.279735144674
 20
578.510935390941
 30
0.0
 11
1624.279702644673
 21
579.51084289094
 31
0.0
  0
LINE
  5
32A9
330
3285
100
AcDbEntity
  8
外形線
100
AcDbLine
 10
1605.279735144673
 20
554.51084289094
 30
0.0
 11
1617.279735144674
 21
578.510935390941
 31
0.0
  0
LINE
  5
32AA
330
3285
100
AcDbEntity
  8
外形線
100
AcDbLine
 10
1617.279735144674
 20
475.51090539094
 30
0.0
 11
1624.279702644673
 21
474.51084289094
 31
0.0
  0
LINE
  5
32AB
330
3285
100
AcDbEntity
  8
外形線
100
AcDbLine
 10
1605.279735144673
 20
508.510935390941
 30
0.0
 11
1617.279735144674
 21
475.51090539094
 31
0.0
  0
LINE
  5
32AC
330
3285
100
AcDbEntity
  8
外形線
100
AcDbLine
 10
1634.029735144673
 20
580.51090539094
 30
0.0
 11
1634.029735144673
 21
473.510935390941
 31
0.0
  0
LINE
  5
32AD
330
3285
100
AcDbEntity
  8
外形線
100
AcDbLine
 10
1632.279735144674
 20
473.510935390941
 30
0.0
 11
1632.279735144674
 21
580.51090539094
 31
0.0
  0
LINE
  5
32AE
330
3285
100
AcDbEntity
  8
外形線
100
AcDbLine
 10
1624.279702644673
 20
580.51090539094
 30
0.0
 11
1624.279702644673
 21
473.510935390941
 31
0.0
  0
LINE
  5
32AF
330
3285
100
AcDbEntity
  8
外形線
100
AcDbLine
 10
1617.279735144674
 20
578.510935390941
 30
0.0
 11
1617.279735144674
 21
475.51090539094
 31
0.0
  0
LINE
  5
32B0
330
3285
100
AcDbEntity
  8
外形線
100
AcDbLine
 10
1605.279735144673
 20
508.510935390941
 30
0.0
 11
1605.279735144673
 21
554.51084289094
 31
0.0
  0
LINE
  5
32B1
330
3285
100
AcDbEntity
  8
外形線
100
AcDbLine
 10
1624.279702644673
 20
473.510935390941
 30
0.0
 11
1641.029735144674
 21
473.510935390941
 31
0.0
  0
LINE
  5
32B2
330
3285
100
AcDbEntity
  8
外形線
100
AcDbLine
 10
1641.029735144674
 20
580.51090539094
 30
0.0
 11
1624.279702644673
 21
580.51090539094
 31
0.0
  0
ENDBLK
  5
32B3
330
3285
100
AcDbEntity
  8
0
 48
10.0
100
AcDbBlockEnd
  0
BLOCK
  5
496A
330
4960
100
AcDbEntity
  8
0
 48
10.0
100
AcDbBlockBegin
  2
*D7
 70
     1
 10
0.0
 20
0.0
 30
0.0
  3
*D7
  1
*D7
  0
LINE
  5
619D
330
4960
100
AcDbEntity
  8
寸法線
 62
     0
 48
10.0
100
AcDbLine
 10
716.476371488998
 20
474.250017339994
 30
0.0
 11
716.476371488998
 21
505.995093698918
 31
0.0
  0
LINE
  5
619E
330
4960
100
AcDbEntity
  8
寸法線
 62
     0
 48
10.0
100
AcDbLine
 10
716.476371488998
 20
468.250017339994
 30
0.0
 11
716.476371488998
 21
446.250017339994
 31
0.0
  0
INSERT
  5
619F
330
4960
100
AcDbEntity
  8
寸法線
 62
     0
100
AcDbBlockReference
  2
_OPEN30
 10
716.476371488998
 20
474.250017339994
 30
0.0
 41
6.0
 42
6.0
 43
6.0
 50
90.0
  0
INSERT
  5
61A0
330
4960
100
AcDbEntity
  8
寸法線
 62
     0
100
AcDbBlockReference
  2
_OPEN30
 10
716.476371488998
 20
440.250017339994
 30
0.0
 41
6.0
 42
6.0
 43
6.0
 50
270.0
  0
MTEXT
  5
61A1
330
4960
100
AcDbEntity
  8
寸法線
 62
     0
 48
10.0
100
AcDbMText
 10
710.846163155665
 20
493.953427032251
 30
0.0
 40
10.0
 41
0.0
 71
     5
 72
     1
  1
\A1;φ34
 11
0.0
 21
1.0
 31
0.0
  0
POINT
  5
61A2
330
4960
100
AcDbEntity
  8
DEFPOINTS
 62
     0
100
AcDbPoint
 10
703.162794417206
 20
474.250017339994
 30
0.0
  0
POINT
  5
61A3
330
4960
100
AcDbEntity
  8
DEFPOINTS
 62
     0
100
AcDbPoint
 10
703.162794417206
 20
440.250017339994
 30
0.0
  0
POINT
  5
61A4
330
4960
100
AcDbEntity
  8
DEFPOINTS
 62
     0
100
AcDbPoint
 10
716.476371488998
 20
440.250017339994
 30
0.0
  0
ENDBLK
  5
496B
330
4960
100
AcDbEntity
  8
0
 48
10.0
100
AcDbBlockEnd
  0
BLOCK
  5
49AE
330
49A4
100
AcDbEntity
  8
0
 48
10.0
100
AcDbBlockBegin
  2
*D8
 70
     1
 10
0.0
 20
0.0
 30
0.0
  3
*D8
  1
*D8
  0
LINE
  5
6224
330
49A4
100
AcDbEntity
  8
寸法線
 62
     0
 48
10.0
100
AcDbLine
 10
974.284328265916
 20
530.250046473968
 30
0.0
 11
1005.580870447663
 21
530.250046473968
 31
0.0
  0
LINE
  5
6225
330
49A4
100
AcDbEntity
  8
寸法線
 62
     0
 48
10.0
100
AcDbLine
 10
974.284328265916
 20
384.249946473968
 30
0.0
 11
1005.580870447663
 21
384.249946473968
 31
0.0
  0
LINE
  5
6226
330
49A4
100
AcDbEntity
  8
寸法線
 62
     0
 48
10.0
100
AcDbLine
 10
1004.330870447663
 20
524.250046473968
 30
0.0
 11
1004.330870447663
 21
390.249946473968
 31
0.0
  0
INSERT
  5
6227
330
49A4
100
AcDbEntity
  8
寸法線
 62
     0
100
AcDbBlockReference
  2
_OPEN30
 10
1004.330870447663
 20
530.250046473968
 30
0.0
 41
6.0
 42
6.0
 43
6.0
 50
90.0
  0
INSERT
  5
6228
330
49A4
100
AcDbEntity
  8
寸法線
 62
     0
100
AcDbBlockReference
  2
_OPEN30
 10
1004.330870447663
 20
384.249946473968
 30
0.0
 41
6.0
 42
6.0
 43
6.0
 50
270.0
  0
MTEXT
  5
6229
330
49A4
100
AcDbEntity
  8
寸法線
 62
     0
 48
10.0
100
AcDbMText
 10
998.705870447663
 20
457.249996473968
 30
0.0
 40
10.0
 41
0.0
 71
     5
 72
     1
  1
\A1;φ146
 11
0.0
 21
1.0
 31
0.0
  0
POINT
  5
622A
330
49A4
100
AcDbEntity
  8
DEFPOINTS
 62
     0
100
AcDbPoint
 10
973.659328265916
 20
530.250046473968
 30
0.0
  0
POINT
  5
622B
330
49A4
100
AcDbEntity
  8
DEFPOINTS
 62
     0
100
AcDbPoint
 10
973.659328265916
 20
384.249946473968
 30
0.0
  0
POINT
  5
622C
330
49A4
100
AcDbEntity
  8
DEFPOINTS
 62
     0
100
AcDbPoint
 10
1004.330870447663
 20
384.249946473968
 30
0.0
  0
ENDBLK
  5
49AF
330
49A4
100
AcDbEntity
  8
0
 48
10.0
100
AcDbBlockEnd
  0
BLOCK
  5
49BB
330
49B1
100
AcDbEntity
  8
0
 48
10.0
100
AcDbBlockBegin
  2
*D9
 70
     1
 10
0.0
 20
0.0
 30
0.0
  3
*D9
  1
*D9
  0
LINE
  5
623A
330
49B1
100
AcDbEntity
  8
寸法線
 62
     0
 48
10.0
100
AcDbLine
 10
812.659388265916
 20
352.935235268849
 30
0.0
 11
812.659388265916
 21
329.338902505731
 31
0.0
  0
LINE
  5
623B
330
49B1
100
AcDbEntity
  8
寸法線
 62
     0
 48
10.0
100
AcDbLine
 10
973.659328265916
 20
383.624946473968
 30
0.0
 11
973.659328265916
 21
329.338902505731
 31
0.0
  0
LINE
  5
623C
330
49B1
100
AcDbEntity
  8
寸法線
 62
     0
 48
10.0
100
AcDbLine
 10
818.659388265916
 20
330.588902505731
 30
0.0
 11
967.659328265916
 21
330.588902505731
 31
0.0
  0
INSERT
  5
623D
330
49B1
100
AcDbEntity
  8
寸法線
 62
     0
100
AcDbBlockReference
  2
_OPEN30
 10
812.659388265916
 20
330.588902505731
 30
0.0
 41
6.0
 42
6.0
 43
6.0
 50
180.0
  0
INSERT
  5
623E
330
49B1
100
AcDbEntity
  8
寸法線
 62
     0
100
AcDbBlockReference
  2
_OPEN30
 10
973.659328265916
 20
330.588902505731
 30
0.0
 41
6.0
 42
6.0
 43
6.0
  0
MTEXT
  5
623F
330
49B1
100
AcDbEntity
  8
寸法線
 62
     0
 48
10.0
100
AcDbMText
 10
890.159388265916
 20
336.213902505731
 30
0.0
 40
10.0
 41
0.0
 71
     5
 72
     1
  1
\A1;161
  0
POINT
  5
6240
330
49B1
100
AcDbEntity
  8
DEFPOINTS
 62
     0
100
AcDbPoint
 10
812.659388265916
 20
353.560235268849
 30
0.0
  0
POINT
  5
6241
330
49B1
100
AcDbEntity
  8
DEFPOINTS
 62
     0
100
AcDbPoint
 10
973.659328265916
 20
384.249946473968
 30
0.0
  0
POINT
  5
6242
330
49B1
100
AcDbEntity
  8
DEFPOINTS
 62
     0
100
AcDbPoint
 10
973.659328265916
 20
330.588902505731
 30
0.0
  0
ENDBLK
  5
49BC
330
49B1
100
AcDbEntity
  8
0
 48
10.0
100
AcDbBlockEnd
  0
BLOCK
  5
49CA
330
49BE
100
AcDbEntity
  8
0
 48
10.0
100
AcDbBlockBegin
  2
*D10
 70
     1
 10
0.0
 20
0.0
 30
0.0
  3
*D10
  1
*D10
  0
LINE
  5
6314
330
49BE
100
AcDbEntity
  8
寸法線
 62
     0
 48
10.0
100
AcDbLine
 10
812.659388265916
 20
379.625017339994
 30
0.0
 11
812.659388265916
 21
353.984910203697
 31
0.0
  0
LINE
  5
6315
330
49BE
100
AcDbEntity
  8
寸法線
 62
     0
 48
10.0
100
AcDbLine
 10
822.659388265916
 20
379.625017339994
 30
0.0
 11
822.659388265916
 21
353.984910203697
 31
0.0
  0
LINE
  5
6316
330
49BE
100
AcDbEntity
  8
寸法線
 62
     0
 48
10.0
100
AcDbLine
 10
812.659388265916
 20
355.234910203697
 30
0.0
 11
822.659388265916
 21
355.234910203697
 31
0.0
  0
LINE
  5
6317
330
49BE
100
AcDbEntity
  8
寸法線
 62
     0
 48
10.0
100
AcDbLine
 10
806.659388265916
 20
355.234910203697
 30
0.0
 11
800.659388265916
 21
355.234910203697
 31
0.0
  0
LINE
  5
6318
330
49BE
100
AcDbEntity
  8
寸法線
 62
     0
 48
10.0
100
AcDbLine
 10
828.659388265916
 20
355.234910203697
 30
0.0
 11
834.659388265916
 21
355.234910203697
 31
0.0
  0
INSERT
  5
6319
330
49BE
100
AcDbEntity
  8
寸法線
 62
     0
100
AcDbBlockReference
  2
_OPEN30
 10
812.659388265916
 20
355.234910203697
 30
0.0
 41
6.0
 42
6.0
 43
6.0
  0
INSERT
  5
631A
330
49BE
100
AcDbEntity
  8
寸法線
 62
     0
100
AcDbBlockReference
  2
_OPEN30
 10
822.659388265916
 20
355.234910203697
 30
0.0
 41
6.0
 42
6.0
 43
6.0
 50
180.0
  0
MTEXT
  5
631B
330
49BE
100
AcDbEntity
  8
寸法線
 62
     0
 48
10.0
100
AcDbMText
 10
817.284889601958
 20
361.34904216714
 30
0.0
 40
10.0
 41
0.0
 71
     5
 72
     1
  1
\A1;10
  0
POINT
  5
631C
330
49BE
100
AcDbEntity
  8
DEFPOINTS
 62
     0
100
AcDbPoint
 10
812.659388265916
 20
380.250017339994
 30
0.0
  0
POINT
  5
631D
330
49BE
100
AcDbEntity
  8
DEFPOINTS
 62
     0
100
AcDbPoint
 10
822.659388265916
 20
380.250017339994
 30
0.0
  0
POINT
  5
631E
330
49BE
100
AcDbEntity
  8
DEFPOINTS
 62
     0
100
AcDbPoint
 10
822.659388265916
 20
355.234910203697
 30
0.0
  0
ENDBLK
  5
49CB
330
49BE
100
AcDbEntity
  8
0
 48
10.0
100
AcDbBlockEnd
  0
BLOCK
  5
4AF0
330
4AEE
100
AcDbEntity
  8
0
 48
10.0
100
AcDbBlockBegin
  2
_DOTSMALL
 70
     0
 10
0.0
 20
0.0
 30
0.0
  3
_DOTSMALL
  1
_DOTSMALL
  0
LWPOLYLINE
  5
4AEF
330
4AEE
100
AcDbEntity
  8
0
  6
BYBLOCK
 62
     0
100
AcDbPolyline
 90
        2
 70
     1
 43
0.5
 10
-0.0625
 20
0.0
 42
1.0
 10
0.0625
 20
0.0
 42
1.0
  0
ENDBLK
  5
4AF1
330
4AEE
100
AcDbEntity
  8
0
 48
10.0
100
AcDbBlockEnd
  0
BLOCK
  5
51A0
330
519F
100
AcDbEntity
  8
0
 48
10.0
100
AcDbBlockBegin
  2
_NONE
 70
     0
 10
0.0
 20
0.0
 30
0.0
  3
_NONE
  1
_NONE
  0
ENDBLK
  5
51A1
330
519F
100
AcDbEntity
  8
0
 48
10.0
100
AcDbBlockEnd
  0
BLOCK
  5
51E9
330
51DD
100
AcDbEntity
  8
0
 48
10.0
100
AcDbBlockBegin
  2
*D15
 70
     1
 10
0.0
 20
0.0
 30
0.0
  3
*D15
  1
*D15
  0
ARC
  5
68B5
330
51DD
100
AcDbEntity
  8
寸法線
 62
     0
 48
10.0
100
AcDbCircle
 10
374.207804092233
 20
457.249913410689
 30
0.0
 40
227.4998979279784
100
AcDbArc
 50
251.511116351446
 51
253.48884118181
  0
INSERT
  5
68B6
330
51DD
100
AcDbEntity
  8
寸法線
 62
     0
100
AcDbBlockReference
  2
_OPEN30
 10
296.398160854934
 20
243.469972872469
 30
0.0
 41
6.0
 42
6.0
 43
6.0
 50
160.755545372561
  0
INSERT
  5
68B7
330
51DD
100
AcDbEntity
  8
寸法線
 62
     0
100
AcDbBlockReference
  2
_OPEN30
 10
315.326433084375
 20
237.501903850931
 30
0.0
 41
6.0
 42
6.0
 43
6.0
 50
344.244412160694
  0
MTEXT
  5
68B8
330
51DD
100
AcDbEntity
  8
寸法線
 62
     0
 48
10.0
100
AcDbMText
 10
318.36489639513
 20
250.801294743528
 30
0.0
 40
10.0
 41
0.0
 71
     5
 72
     1
  1
約\A1;5%%d
 11
0.9653092172251645
 21
-0.2611093930522997
 31
0.0
  0
POINT
  5
68B9
330
51DD
100
AcDbEntity
  8
DEFPOINTS
 62
     0
100
AcDbPoint
 10
302.648818649596
 20
241.297337228647
 30
0.0
  0
POINT
  5
68BA
330
51DD
100
AcDbEntity
  8
DEFPOINTS
 62
     0
100
AcDbPoint
 10
357.984719696545
 20
412.677417339994
 30
0.0
  0
POINT
  5
68BB
330
51DD
100
AcDbEntity
  8
DEFPOINTS
 62
     0
100
AcDbPoint
 10
317.118592196545
 20
244.190324839994
 30
0.0
  0
POINT
  5
68BC
330
51DD
100
AcDbEntity
  8
DEFPOINTS
 62
     0
100
AcDbPoint
 10
305.620714696545
 20
201.279712339994
 30
0.0
  0
POINT
  5
68BD
330
51DD
100
AcDbEntity
  8
DEFPOINTS
 62
     0
100
AcDbPoint
 10
268.805737196545
 20
167.660517339994
 30
0.0
  0
ENDBLK
  5
51EA
330
51DD
100
AcDbEntity
  8
0
 48
10.0
100
AcDbBlockEnd
  0
BLOCK
  5
5257
330
524D
100
AcDbEntity
  8
0
 48
10.0
100
AcDbBlockBegin
  2
*D16
 70
     1
 10
0.0
 20
0.0
 30
0.0
  3
*D16
  1
*D16
  0
ARC
  5
5259
330
524D
100
AcDbEntity
  8
寸法線
 62
     0
 48
10.0
100
AcDbCircle
 10
374.207827196545
 20
457.249976889176
 30
0.0
 40
299.9387700811014
100
AcDbArc
 50
251.146143023897
 51
268.853831369779
  0
INSERT
  5
525A
330
524D
100
AcDbEntity
  8
寸法線
 62
     0
100
AcDbBlockReference
  2
_OPEN30
 10
271.622600101485
 20
175.399773803178
 30
0.0
 41
6.0
 42
6.0
 43
6.0
 50
160.573058708787
  0
INSERT
  5
525B
330
524D
100
AcDbEntity
  8
寸法線
 62
     0
100
AcDbBlockReference
  2
_OPEN30
 10
374.207827196545
 20
157.311206808075
 30
0.0
 41
6.0
 42
6.0
 43
6.0
 50
359.426915684889
  0
MTEXT
  5
525C
330
524D
100
AcDbEntity
  8
寸法線
 62
     0
 48
10.0
100
AcDbMText
 10
323.102521429729
 20
167.417764128997
 30
0.0
 40
10.0
 41
0.0
 71
     5
 72
     1
  1
約\A1;20%%d
 11
0.9848077142092255
 21
-0.1736483977294362
 31
0.0
  0
POINT
  5
525D
330
524D
100
AcDbEntity
  8
DEFPOINTS
 62
     0
100
AcDbPoint
 10
305.037099609027
 20
165.396115782668
 30
0.0
  0
POINT
  5
525E
330
524D
100
AcDbEntity
  8
DEFPOINTS
 62
     0
100
AcDbPoint
 10
357.984719696545
 20
412.677417339994
 30
0.0
  0
POINT
  5
525F
330
524D
100
AcDbEntity
  8
DEFPOINTS
 62
     0
100
AcDbPoint
 10
374.207827196545
 20
264.051494839994
 30
0.0
  0
POINT
  5
5260
330
524D
100
AcDbEntity
  8
DEFPOINTS
 62
     0
100
AcDbPoint
 10
374.207827196545
 20
147.250017339994
 30
0.0
  0
POINT
  5
5261
330
524D
100
AcDbEntity
  8
DEFPOINTS
 62
     0
100
AcDbPoint
 10
268.805737196545
 20
167.660517339994
 30
0.0
  0
ENDBLK
  5
5258
330
524D
100
AcDbEntity
  8
0
 48
10.0
100
AcDbBlockEnd
  0
BLOCK
  5
5479
330
546F
100
AcDbEntity
  8
0
 48
10.0
100
AcDbBlockBegin
  2
*D17
 70
     1
 10
0.0
 20
0.0
 30
0.0
  3
*D17
  1
*D17
  0
LINE
  5
61F6
330
546F
100
AcDbEntity
  8
寸法線
 62
     0
 48
10.0
100
AcDbLine
 10
511.341568193101
 20
188.558462309096
 30
0.0
 11
511.341568193101
 21
162.022821923799
 31
0.0
  0
LINE
  5
61F7
330
546F
100
AcDbEntity
  8
寸法線
 62
     0
 48
10.0
100
AcDbLine
 10
812.659388265916
 20
329.963902505731
 30
0.0
 11
812.659388265916
 21
162.022821923799
 31
0.0
  0
LINE
  5
61F8
330
546F
100
AcDbEntity
  8
寸法線
 62
     0
 48
10.0
100
AcDbLine
 10
517.341568193101
 20
163.272821923799
 30
0.0
 11
806.659388265916
 21
163.272821923799
 31
0.0
  0
INSERT
  5
61F9
330
546F
100
AcDbEntity
  8
寸法線
 62
     0
100
AcDbBlockReference
  2
_OPEN30
 10
511.341568193101
 20
163.272821923799
 30
0.0
 41
6.0
 42
6.0
 43
6.0
 50
180.0
  0
INSERT
  5
61FA
330
546F
100
AcDbEntity
  8
寸法線
 62
     0
100
AcDbBlockReference
  2
_OPEN30
 10
812.659388265916
 20
163.272821923799
 30
0.0
 41
6.0
 42
6.0
 43
6.0
  0
MTEXT
  5
61FB
330
546F
100
AcDbEntity
  8
寸法線
 62
     0
 48
10.0
100
AcDbMText
 10
666.146791647813
 20
168.897821923799
 30
0.0
 40
10.0
 41
0.0
 71
     5
 72
     1
  1
\A1;400
  0
POINT
  5
61FC
330
546F
100
AcDbEntity
  8
DEFPOINTS
 62
     0
100
AcDbPoint
 10
511.341568193101
 20
189.183462309096
 30
0.0
  0
POINT
  5
61FD
330
546F
100
AcDbEntity
  8
DEFPOINTS
 62
     0
100
AcDbPoint
 10
812.659388265916
 20
330.588902505731
 30
0.0
  0
POINT
  5
61FE
330
546F
100
AcDbEntity
  8
DEFPOINTS
 62
     0
100
AcDbPoint
 10
812.659388265916
 20
163.272821923799
 30
0.0
  0
ENDBLK
  5
547A
330
546F
100
AcDbEntity
  8
0
 48
10.0
100
AcDbBlockEnd
  0
BLOCK
  5
5B22
330
5B18
100
AcDbEntity
  8
0
 48
10.0
100
AcDbBlockBegin
  2
*D18
 70
     1
 10
0.0
 20
0.0
 30
0.0
  3
*D18
  1
*D18
  0
LINE
  5
5B50
330
5B18
100
AcDbEntity
  8
寸法線
 62
     0
 48
10.0
100
AcDbLine
 10
511.341568193101
 20
216.625017339994
 30
0.0
 11
511.341568193101
 21
189.183462309096
 31
0.0
  0
LINE
  5
5B51
330
5B18
100
AcDbEntity
  8
寸法線
 62
     0
 48
10.0
100
AcDbLine
 10
661.341568193101
 20
216.625017339994
 30
0.0
 11
661.341568193101
 21
189.183462309096
 31
0.0
  0
LINE
  5
5B52
330
5B18
100
AcDbEntity
  8
寸法線
 62
     0
 48
10.0
100
AcDbLine
 10
517.341568193101
 20
190.433462309096
 30
0.0
 11
655.341568193101
 21
190.433462309096
 31
0.0
  0
INSERT
  5
5B53
330
5B18
100
AcDbEntity
  8
寸法線
 62
     0
100
AcDbBlockReference
  2
_OPEN30
 10
511.341568193101
 20
190.433462309096
 30
0.0
 41
6.0
 42
6.0
 43
6.0
 50
180.0
  0
INSERT
  5
5B54
330
5B18
100
AcDbEntity
  8
寸法線
 62
     0
100
AcDbBlockReference
  2
_OPEN30
 10
661.341568193101
 20
190.433462309096
 30
0.0
 41
6.0
 42
6.0
 43
6.0
  0
MTEXT
  5
5B55
330
5B18
100
AcDbEntity
  8
寸法線
 62
     0
 48
10.0
100
AcDbMText
 10
586.341568193101
 20
196.058462309096
 30
0.0
 40
10.0
 41
0.0
 71
     5
 72
     1
  1
\A1;150
  0
POINT
  5
5B56
330
5B18
100
AcDbEntity
  8
DEFPOINTS
 62
     0
100
AcDbPoint
 10
511.341568193101
 20
217.250017339994
 30
0.0
  0
POINT
  5
5B57
330
5B18
100
AcDbEntity
  8
DEFPOINTS
 62
     0
100
AcDbPoint
 10
661.341568193101
 20
217.250017339994
 30
0.0
  0
POINT
  5
5B58
330
5B18
100
AcDbEntity
  8
DEFPOINTS
 62
     0
100
AcDbPoint
 10
661.341568193101
 20
190.433462309096
 30
0.0
  0
ENDBLK
  5
5B23
330
5B18
100
AcDbEntity
  8
0
 48
10.0
100
AcDbBlockEnd
  0
BLOCK
  5
5BC9
330
5BBF
100
AcDbEntity
  8
0
 48
10.0
100
AcDbBlockBegin
  2
*D19
 70
     1
 10
0.0
 20
0.0
 30
0.0
  3
*D19
  1
*D19
  0
LINE
  5
615D
330
5BBF
100
AcDbEntity
  8
寸法線
 62
     0
 48
10.0
100
AcDbLine
 10
571.396522291362
 20
457.250017339994
 30
0.0
 11
477.090895136857
 21
457.250017339994
 31
0.0
  0
LINE
  5
615E
330
5BBF
100
AcDbEntity
  8
寸法線
 62
     0
 48
10.0
100
AcDbLine
 10
510.716568193101
 20
217.250017339994
 30
0.0
 11
477.090895136857
 21
217.250017339994
 31
0.0
  0
LINE
  5
615F
330
5BBF
100
AcDbEntity
  8
寸法線
 62
     0
 48
10.0
100
AcDbLine
 10
478.340895136857
 20
451.250017339994
 30
0.0
 11
478.340895136857
 21
223.250017339994
 31
0.0
  0
INSERT
  5
6160
330
5BBF
100
AcDbEntity
  8
寸法線
 62
     0
100
AcDbBlockReference
  2
_OPEN30
 10
478.340895136857
 20
457.250017339994
 30
0.0
 41
6.0
 42
6.0
 43
6.0
 50
90.0
  0
INSERT
  5
6161
330
5BBF
100
AcDbEntity
  8
寸法線
 62
     0
100
AcDbBlockReference
  2
_OPEN30
 10
478.340895136857
 20
217.250017339994
 30
0.0
 41
6.0
 42
6.0
 43
6.0
 50
270.0
  0
MTEXT
  5
6162
330
5BBF
100
AcDbEntity
  8
寸法線
 62
     0
 48
10.0
100
AcDbMText
 10
472.710686803523
 20
336.603261843224
 30
0.0
 40
10.0
 41
0.0
 71
     5
 72
     1
  1
\A1;240
 11
0.0
 21
1.0
 31
0.0
  0
POINT
  5
6163
330
5BBF
100
AcDbEntity
  8
DEFPOINTS
 62
     0
100
AcDbPoint
 10
572.021522291362
 20
457.250017339994
 30
0.0
  0
POINT
  5
6164
330
5BBF
100
AcDbEntity
  8
DEFPOINTS
 62
     0
100
AcDbPoint
 10
511.341568193101
 20
217.250017339994
 30
0.0
  0
POINT
  5
6165
330
5BBF
100
AcDbEntity
  8
DEFPOINTS
 62
     0
100
AcDbPoint
 10
478.340895136857
 20
217.250017339994
 30
0.0
  0
ENDBLK
  5
5BCA
330
5BBF
100
AcDbEntity
  8
0
 48
10.0
100
AcDbBlockEnd
  0
BLOCK
  5
5CBD
330
5CB1
100
AcDbEntity
  8
0
 48
10.0
100
AcDbBlockBegin
  2
*D20
 70
     1
 10
0.0
 20
0.0
 30
0.0
  3
*D20
  1
*D20
  0
LINE
  5
61B5
330
5CB1
100
AcDbEntity
  8
寸法線
 62
     0
 48
10.0
100
AcDbLine
 10
681.17710560149
 20
452.250017339994
 30
0.0
 11
666.796890757447
 21
452.250017339994
 31
0.0
  0
LINE
  5
61B6
330
5CB1
100
AcDbEntity
  8
寸法線
 62
     0
 48
10.0
100
AcDbLine
 10
681.17710560149
 20
462.250017339994
 30
0.0
 11
666.796890757447
 21
462.250017339994
 31
0.0
  0
LINE
  5
61B7
330
5CB1
100
AcDbEntity
  8
寸法線
 62
     0
 48
10.0
100
AcDbLine
 10
668.046890757447
 20
462.250017339994
 30
0.0
 11
668.046890757447
 21
484.503954347868
 31
0.0
  0
LINE
  5
61B8
330
5CB1
100
AcDbEntity
  8
寸法線
 62
     0
 48
10.0
100
AcDbLine
 10
668.046890757447
 20
452.250017339994
 30
0.0
 11
668.046890757447
 21
462.250017339994
 31
0.0
  0
LINE
  5
61B9
330
5CB1
100
AcDbEntity
  8
寸法線
 62
     0
 48
10.0
100
AcDbLine
 10
668.046890757447
 20
446.250017339994
 30
0.0
 11
668.046890757447
 21
440.250017339994
 31
0.0
  0
LINE
  5
61BA
330
5CB1
100
AcDbEntity
  8
寸法線
 62
     0
 48
10.0
100
AcDbLine
 10
668.046890757447
 20
468.250017339994
 30
0.0
 11
668.046890757447
 21
474.250017339994
 31
0.0
  0
INSERT
  5
61BB
330
5CB1
100
AcDbEntity
  8
寸法線
 62
     0
100
AcDbBlockReference
  2
_OPEN30
 10
668.046890757447
 20
452.250017339994
 30
0.0
 41
6.0
 42
6.0
 43
6.0
 50
90.0
  0
INSERT
  5
61BC
330
5CB1
100
AcDbEntity
  8
寸法線
 62
     0
100
AcDbBlockReference
  2
_OPEN30
 10
668.046890757447
 20
462.250017339994
 30
0.0
 41
6.0
 42
6.0
 43
6.0
 50
270.0
  0
MTEXT
  5
61BD
330
5CB1
100
AcDbEntity
  8
寸法線
 62
     0
 48
10.0
100
AcDbMText
 10
662.421890757447
 20
479.378954347868
 30
0.0
 40
10.0
 41
0.0
 71
     5
 72
     1
  1
\A1;10
 11
0.0
 21
1.0
 31
0.0
  0
POINT
  5
61BE
330
5CB1
100
AcDbEntity
  8
DEFPOINTS
 62
     0
100
AcDbPoint
 10
681.80210560149
 20
452.250017339994
 30
0.0
  0
POINT
  5
61BF
330
5CB1
100
AcDbEntity
  8
DEFPOINTS
 62
     0
100
AcDbPoint
 10
681.80210560149
 20
462.250017339994
 30
0.0
  0
POINT
  5
7330
330
5CB1
100
AcDbEntity
  8
DEFPOINTS
 62
     0
100
AcDbPoint
 10
668.046890757447
 20
462.250017339994
 30
0.0
  0
ENDBLK
  5
5CBE
330
5CB1
100
AcDbEntity
  8
0
 48
10.0
100
AcDbBlockEnd
  0
BLOCK
  5
5E14
330
5E13
100
AcDbEntity
  8
0
 48
10.0
100
AcDbBlockBegin
  2
ケース外形図_PRL-101
 70
     0
 10
0.0
 20
0.0
 30
0.0
  3
ケース外形図_PRL-101
  1
ケース外形図_PRL-101
  0
LINE
  5
5E15
330
5E13
100
AcDbEntity
  8
細線
100
AcDbLine
 10
-2665.991042960005
 20
861.623968537874
 30
0.0
 11
-2665.991042960005
 21
873.047918537874
 31
0.0
  0
LINE
  5
5E16
330
5E13
100
AcDbEntity
  8
外形線
100
AcDbLine
 10
-2631.433426960005
 20
830.779118537874
 30
0.0
 11
-2631.433426960005
 21
873.267522537874
 31
0.0
  0
LINE
  5
5E17
330
5E13
100
AcDbEntity
  8
細線
100
AcDbLine
 10
-2662.278274960006
 20
879.331120537874
 30
0.0
 11
-2662.278274960006
 21
782.227116537874
 31
0.0
  0
LINE
  5
5E18
330
5E13
100
AcDbEntity
  8
細線
100
AcDbLine
 10
-2690.838210960005
 20
876.475164537874
 30
0.0
 11
-2690.838210960005
 21
787.771428537874
 31
0.0
  0
LINE
  5
5E19
330
5E13
100
AcDbEntity
  8
外形線
100
AcDbLine
 10
-2681.699050960005
 20
779.779118537874
 30
0.0
 11
-2681.699050960005
 21
881.779118537874
 31
0.0
  0
LINE
  5
5E1A
330
5E13
100
AcDbEntity
  8
外形線
100
AcDbLine
 10
-2683.698196960006
 20
881.779118537874
 30
0.0
 11
-2683.698196960006
 21
779.779118537874
 31
0.0
  0
LINE
  5
5E1B
330
5E13
100
AcDbEntity
  8
細線
100
AcDbLine
 10
-2687.982254960006
 20
881.779118537874
 30
0.0
 11
-2687.982254960006
 21
779.779118537874
 31
0.0
  0
LWPOLYLINE
  5
5E1C
330
5E13
100
AcDbEntity
  8
外形線
100
AcDbPolyline
 90
       67
 70
     0
 43
0.0
 10
-2727.912532980931
 20
874.395574537874
 10
-2727.953293836579
 20
874.383826783906
 10
-2728.068477575312
 20
874.349444977304
 10
-2728.247435954815
 20
874.293721301034
 10
-2728.479520732777
 20
874.21794793805
 10
-2728.754083666881
 20
874.123417071316
 10
-2729.060476514815
 20
874.011420883788
 10
-2729.388051034263
 20
873.88325155843
 10
-2729.726158982913
 20
873.7402012782
 10
-2730.064152118452
 20
873.583562226056
 10
-2730.391382198563
 20
873.414626584962
 10
-2730.697200980931
 20
873.234686537874
 10
-2731.041719305219
 20
872.992715407982
 10
-2731.339825881913
 20
872.736545218548
 10
-2731.596572968897
 20
872.467567585962
 10
-2731.817012824054
 20
872.187174126604
 10
-2732.006197705261
 20
871.89675645686
 10
-2732.169179870401
 20
871.597706193118
 10
-2732.311011577355
 20
871.29141495176
 10
-2732.436745084005
 20
870.979274349172
 10
-2732.551432648232
 20
870.662676001738
 10
-2732.660126527911
 20
870.343011525844
 10
-2732.767878980932
 20
870.021672537874
 10
-2732.995558529487
 20
869.37320130124
 10
-2733.238969065791
 20
868.724486172106
 10
-2733.497161102815
 20
868.07643116072
 10
-2733.769185153524
 20
867.429940277324
 10
-2734.054091730885
 20
866.785917532164
 10
-2734.350931347865
 20
866.145266935484
 10
-2734.658754517435
 20
865.508892497532
 10
-2734.976611752558
 20
864.87769822855
 10
-2735.303553566203
 20
864.252588138782
 10
-2735.63863047134
 20
863.634466238476
 10
-2735.980892980931
 20
863.024236537874
 10
-2736.239184000456
 20
862.576129792738
 10
-2736.499800442533
 20
862.13135252633
 10
-2736.761624540767
 20
861.688377507542
 10
-2737.023538528765
 20
861.245677505256
 10
-2737.284424640132
 20
860.801725288362
 10
-2737.543165108469
 20
860.354993625746
 10
-2737.798642167385
 20
859.903955286294
 10
-2738.049738050485
 20
859.447083038896
 10
-2738.295334991371
 20
858.982849652434
 10
-2738.534315223654
 20
858.509727895798
 10
-2738.765560980932
 20
858.026190537874
 10
-2738.926994170605
 20
857.672921160886
 10
-2739.088946663412
 20
857.318424143266
 10
-2739.256494321417
 20
856.967619238842
 10
-2739.434713006694
 20
856.625426201446
 10
-2739.628678581305
 20
856.2967647849
 10
-2739.843466907328
 20
855.986554743034
 10
-2740.084153846823
 20
855.699715829676
 10
-2740.355815261862
 20
855.441167798654
 10
-2740.663527014515
 20
855.215830403794
 10
-2741.012364966849
 20
855.028623398926
 10
-2741.407404980931
 20
854.884466537874
 10
-2741.846256471285
 20
854.786974295384
 10
-2742.319481250513
 20
854.73005829347
 10
-2742.811030401751
 20
854.707125389318
 10
-2743.304855008141
 20
854.711582440116
 10
-2743.784906152826
 20
854.736836303046
 10
-2744.235134918943
 20
854.776293835296
 10
-2744.639492389633
 20
854.823361894054
 10
-2744.981929648037
 20
854.871447336504
 10
-2745.246397777295
 20
854.913957019834
 10
-2745.416847860545
 20
854.944297801228
 10
-2745.477230980931
 20
854.955876537874
  0
LINE
  5
5E1D
330
5E13
100
AcDbEntity
  8
細線
100
AcDbLine
 10
-2731.710140980931
 20
869.906346537874
 30
0.0
 11
-2731.710140980931
 21
791.651952537874
 31
0.0
  0
LINE
  5
5E1E
330
5E13
100
AcDbEntity
  8
外形線
100
AcDbLine
 10
-2761.698196960006
 20
908.279118537874
 30
0.0
 11
-2761.698196960006
 21
753.279118537874
 31
0.0
  0
LINE
  5
5E1F
330
5E13
100
AcDbEntity
  8
外形線
100
AcDbLine
 10
-2771.698196960006
 20
753.279118537874
 30
0.0
 11
-2771.698196960006
 21
908.279118537874
 31
0.0
  0
LINE
  5
5E20
330
5E13
100
AcDbEntity
  8
中心線
 48
10.0
100
AcDbLine
 10
-2781.983253975795
 20
765.779118537874
 30
0.0
 11
-2749.379418022688
 21
765.779118537874
 31
0.0
  0
LINE
  5
5E21
330
5E13
100
AcDbEntity
  8
中心線
 48
10.0
100
AcDbLine
 10
-2704.698196960006
 20
804.438298537874
 30
0.0
 11
-2704.698196960006
 21
748.836004537874
 31
0.0
  0
LINE
  5
5E22
330
5E13
100
AcDbEntity
  8
外形線
100
AcDbLine
 10
-2689.051423549413
 20
778.91101237705
 30
0.0
 11
-2690.659505049885
 21
766.825284453168
 31
0.0
  0
LINE
  5
5E23
330
5E13
100
AcDbEntity
  8
外形線
100
AcDbLine
 10
-2720.961012960005
 20
784.312322537874
 30
0.0
 11
-2718.725906960005
 21
766.839604537874
 31
0.0
  0
LINE
  5
5E24
330
5E13
100
AcDbEntity
  8
外形線
100
AcDbLine
 10
-2771.698196960006
 20
753.279118537874
 30
0.0
 11
-2761.698196960006
 21
753.279118537874
 31
0.0
  0
ARC
  5
5E25
330
5E13
100
AcDbEntity
  8
外形線
100
AcDbCircle
 10
-2693.490554960005
 20
767.201970537874
 30
0.0
 40
2.856
100
AcDbArc
 50
270.0
 51
352.421011277475
  0
ARC
  5
5E26
330
5E13
100
AcDbEntity
  8
細線
100
AcDbCircle
 10
-2691.275832960006
 20
773.224066537874
 30
0.0
 40
18.322924
100
AcDbArc
 50
247.068453993571
 51
267.322397459894
  0
LINE
  5
5E27
330
5E13
100
AcDbEntity
  8
外形線
100
AcDbLine
 10
-2717.264602960006
 20
754.921148537874
 30
0.0
 11
-2692.131788960005
 21
754.921148537874
 31
0.0
  0
LINE
  5
5E28
330
5E13
100
AcDbEntity
  8
外形線
100
AcDbLine
 10
-2718.692580960005
 20
760.061956537874
 30
0.0
 11
-2690.703688960005
 21
760.061956537874
 31
0.0
  0
LINE
  5
5E29
330
5E13
100
AcDbEntity
  8
細線
100
AcDbLine
 10
-2697.558180960005
 20
764.345952537874
 30
0.0
 11
-2697.558180960005
 21
760.061956537874
 31
0.0
  0
LINE
  5
5E2A
330
5E13
100
AcDbEntity
  8
外形線
100
AcDbLine
 10
-2695.273390960006
 20
760.061956537874
 30
0.0
 11
-2695.273390960006
 21
764.345952537874
 31
0.0
  0
LINE
  5
5E2B
330
5E13
100
AcDbEntity
  8
細線
100
AcDbLine
 10
-2698.414992960005
 20
756.349188537874
 30
0.0
 11
-2698.414992960005
 21
760.061956537874
 31
0.0
  0
LINE
  5
5E2C
330
5E13
100
AcDbEntity
  8
細線
100
AcDbLine
 10
-2711.838210960005
 20
764.345952537874
 30
0.0
 11
-2711.838210960005
 21
760.061956537874
 31
0.0
  0
LINE
  5
5E2D
330
5E13
100
AcDbEntity
  8
外形線
100
AcDbLine
 10
-2714.123000960005
 20
760.061956537874
 30
0.0
 11
-2714.123000960005
 21
764.345952537874
 31
0.0
  0
ARC
  5
5E2E
330
5E13
100
AcDbEntity
  8
外形線
100
AcDbCircle
 10
-2715.893020960006
 20
767.201970537874
 30
0.0
 40
2.856
100
AcDbArc
 50
187.289418100615
 51
270.0
  0
ARC
  5
5E2F
330
5E13
100
AcDbEntity
  8
細線
100
AcDbCircle
 10
-2718.120558960006
 20
773.224066537874
 30
0.0
 40
18.322924
100
AcDbArc
 50
272.67766208363
 51
292.93154825417
  0
LINE
  5
5E30
330
5E13
100
AcDbEntity
  8
外形線
100
AcDbLine
 10
-2718.692580960005
 20
756.349188537874
 30
0.0
 11
-2717.264602960006
 21
754.921148537874
 31
0.0
  0
LINE
  5
5E31
330
5E13
100
AcDbEntity
  8
細線
100
AcDbLine
 10
-2710.981398960005
 20
756.349188537874
 30
0.0
 11
-2710.981398960005
 21
760.061956537874
 31
0.0
  0
LINE
  5
5E32
330
5E13
100
AcDbEntity
  8
外形線
100
AcDbLine
 10
-2718.692580960005
 20
760.061956537874
 30
0.0
 11
-2718.692580960005
 21
756.349188537874
 31
0.0
  0
LINE
  5
5E33
330
5E13
100
AcDbEntity
  8
外形線
100
AcDbLine
 10
-2715.893020960006
 20
764.345982537874
 30
0.0
 11
-2693.490554960005
 21
764.345982537874
 31
0.0
  0
ARC
  5
5E34
330
5E13
100
AcDbEntity
  8
細線
100
AcDbCircle
 10
-2704.698196960006
 20
769.457830537874
 30
0.0
 40
14.53669
100
AcDbArc
 50
244.390793033801
 51
295.609209213941
  0
LINE
  5
5E35
330
5E13
100
AcDbEntity
  8
外形線
100
AcDbLine
 10
-2690.703688960005
 20
756.349188537874
 30
0.0
 11
-2692.131788960005
 21
754.921148537874
 31
0.0
  0
LINE
  5
5E36
330
5E13
100
AcDbEntity
  8
外形線
100
AcDbLine
 10
-2690.703688960005
 20
760.061956537874
 30
0.0
 11
-2690.703688960005
 21
756.349188537874
 31
0.0
  0
ARC
  5
5E37
330
5E13
100
AcDbEntity
  8
外形線
100
AcDbCircle
 10
-2666.317092960006
 20
857.629704537874
 30
0.0
 40
4.015794000000001
100
AcDbArc
 50
274.656944786914
 51
84.065438721313
  0
ARC
  5
5E38
330
5E13
100
AcDbEntity
  8
外形線
100
AcDbCircle
 10
-2667.278152960005
 20
830.196722537874
 30
0.0
 40
5.033766
100
AcDbArc
 50
6.644133183896
 51
75.184725088441
  0
ARC
  5
5E39
330
5E13
100
AcDbEntity
  8
外形線
100
AcDbCircle
 10
-2667.278152960005
 20
831.361638537874
 30
0.0
 40
5.033766
100
AcDbArc
 50
284.815257311477
 51
353.355849216014
  0
ARC
  5
5E3A
330
5E13
100
AcDbEntity
  8
外形線
100
AcDbCircle
 10
-2666.317092960006
 20
803.928656537874
 30
0.0
 40
4.015794000000001
100
AcDbArc
 50
275.934583374273
 51
85.343077308664
  0
LINE
  5
5E3B
330
5E13
100
AcDbEntity
  8
外形線
100
AcDbLine
 10
-2662.278274960006
 20
782.227116537874
 30
0.0
 11
-2665.991042960005
 21
779.779118537874
 31
0.0
  0
LINE
  5
5E3C
330
5E13
100
AcDbEntity
  8
外形線
100
AcDbLine
 10
-2663.950942960006
 20
788.510320537874
 30
0.0
 11
-2681.699050960005
 21
788.510320537874
 31
0.0
  0
LINE
  5
5E3D
330
5E13
100
AcDbEntity
  8
外形線
100
AcDbLine
 10
-2663.950942960006
 20
785.083196537874
 30
0.0
 11
-2681.699050960005
 21
785.083196537874
 31
0.0
  0
LINE
  5
5E3E
330
5E13
100
AcDbEntity
  8
細線
100
AcDbLine
 10
-2665.991042960005
 20
826.495184537874
 30
0.0
 11
-2665.991042960005
 21
807.931096537874
 31
0.0
  0
LINE
  5
5E3F
330
5E13
100
AcDbEntity
  8
細線
100
AcDbLine
 10
-2743.991024980932
 20
853.627142537874
 30
0.0
 11
-2743.991024980932
 21
807.931096537874
 31
0.0
  0
ARC
  5
5E40
330
5E13
100
AcDbEntity
  8
外形線
100
AcDbCircle
 10
-2723.793898960005
 20
783.949896537874
 30
0.0
 40
2.856
100
AcDbArc
 50
7.289398252773
 51
86.905894590757
  0
LWPOLYLINE
  5
5E41
330
5E13
100
AcDbEntity
  8
外形線
100
AcDbPolyline
 90
       67
 70
     0
 43
0.0
 10
-2727.912532980931
 20
787.162664537874
 10
-2727.953293899852
 20
787.174412216412
 10
-2728.068477803089
 20
787.208793826894
 10
-2728.247436410369
 20
787.264517231616
 10
-2728.479521441415
 20
787.340290292878
 10
-2728.754084615951
 20
787.434820872976
 10
-2729.060477653697
 20
787.546816834212
 10
-2729.388052274381
 20
787.674986038882
 10
-2729.726160197723
 20
787.818036349284
 10
-2730.064153143446
 20
787.974675627718
 10
-2730.391382831275
 20
788.143611736482
 10
-2730.697200980931
 20
788.323552537874
 10
-2731.041726713515
 20
788.565531765468
 10
-2731.339837921853
 20
788.821711229278
 10
-2731.596587295491
 20
789.09069912024
 10
-2731.817027523977
 20
789.371103629292
 10
-2732.006211296854
 20
789.66153294737
 10
-2732.169191303669
 20
789.960595265412
 10
-2732.311020233969
 20
790.266898774354
 10
-2732.436750777299
 20
790.579051665134
 10
-2732.551435623205
 20
790.89566212869
 10
-2732.660127461236
 20
791.215338355958
 10
-2732.767878980932
 20
791.536688537874
 10
-2732.995551300265
 20
792.185153437188
 10
-2733.238958623558
 20
792.833859637758
 10
-2733.497150606985
 20
793.48190367618
 10
-2733.769176906731
 20
794.128382089052
 10
-2734.054087178974
 20
794.77239141297
 10
-2734.350931079894
 20
795.413028184532
 10
-2734.658758265669
 20
796.049388940332
 10
-2734.976618392481
 20
796.680570216972
 10
-2735.30356111651
 20
797.305668551042
 10
-2735.638636093933
 20
797.923780479144
 10
-2735.980892980931
 20
798.534002537874
 10
-2736.239185655735
 20
798.982120060822
 10
-2736.499801955925
 20
799.426909071612
 10
-2736.761624603811
 20
799.869896500038
 10
-2737.0235363217
 20
800.312609275896
 10
-2737.284419831899
 20
800.756574328984
 10
-2737.543157856721
 20
801.203318589094
 10
-2737.798633118471
 20
801.654368986026
 10
-2738.049728339459
 20
802.111252449574
 10
-2738.295326241991
 20
802.575495909534
 10
-2738.534309548381
 20
803.048626295702
 10
-2738.765560980932
 20
803.532170537874
 10
-2738.926993461338
 20
803.885428916062
 10
-2739.088946755864
 20
804.239913758744
 10
-2739.256496270204
 20
804.590705697996
 10
-2739.434717410046
 20
804.932885365896
 10
-2739.628685581078
 20
805.261533394522
 10
-2739.843476188994
 20
805.571730415952
 10
-2740.084164639479
 20
805.858557062262
 10
-2740.355826338227
 20
806.117093965532
 10
-2740.663536690926
 20
806.34242175784
 10
-2741.012371103264
 20
806.52962107126
 10
-2741.407404980931
 20
806.673772537874
 10
-2741.846258080313
 20
806.771263661646
 10
-2742.319483857135
 20
806.828178969956
 10
-2742.811033491082
 20
806.851111538492
 10
-2743.304858161833
 20
806.846654442948
 10
-2743.784909049074
 20
806.821400759012
 10
-2744.235137332481
 20
806.781943562376
 10
-2744.639494191742
 20
806.73487592873
 10
-2744.981930806535
 20
806.686790933768
 10
-2745.246398356543
 20
806.644281653176
 10
-2745.416848021449
 20
806.613941162648
 10
-2745.477230980931
 20
806.602362537874
  0
LINE
  5
5E42
330
5E13
100
AcDbEntity
  8
外形線
100
AcDbLine
 10
-2727.912532980931
 20
787.162664537874
 30
0.0
 11
-2723.639743266303
 21
786.801733142958
 31
0.0
  0
LINE
  5
5E43
330
5E13
100
AcDbEntity
  8
外形線
100
AcDbLine
 10
-2745.477230980931
 20
806.602362537874
 30
0.0
 11
-2760.043024980931
 21
804.603094537874
 31
0.0
  0
ARC
  5
5E44
330
5E13
100
AcDbEntity
  8
外形線
100
AcDbCircle
 10
-2758.924616980931
 20
802.060124537874
 30
0.0
 40
2.778136
100
AcDbArc
 50
113.741117770862
 51
176.718232188895
  0
LINE
  5
5E45
330
5E13
100
AcDbEntity
  8
細線
100
AcDbLine
 10
-2665.991042960005
 20
799.934392537874
 30
0.0
 11
-2665.991042960005
 21
788.510320537874
 31
0.0
  0
ARC
  5
5E46
330
5E13
100
AcDbEntity
  8
細線
100
AcDbCircle
 10
-2704.082716960005
 20
753.578984537874
 30
0.0
 40
36.766532
100
AcDbArc
 50
68.885514212383
 51
115.211785839404
  0
LINE
  5
5E47
330
5E13
100
AcDbEntity
  8
細線
100
AcDbLine
 10
-2665.991042960005
 20
785.083196537874
 30
0.0
 11
-2665.991042960005
 21
779.779118537874
 31
0.0
  0
LINE
  5
5E48
330
5E13
100
AcDbEntity
  8
細線
100
AcDbLine
 10
-2687.982254960006
 20
779.779118537874
 30
0.0
 11
-2690.838210960005
 21
787.877103088648
 31
0.0
  0
ARC
  5
5E49
330
5E13
100
AcDbEntity
  8
外形線
100
AcDbCircle
 10
-2688.060159702001
 20
778.779118537874
 30
0.0
 40
1.0
100
AcDbArc
 50
90.0
 51
172.420956229591
  0
LINE
  5
5E4A
330
5E13
100
AcDbEntity
  8
外形線
100
AcDbLine
 10
-2688.060159702001
 20
779.779118537874
 30
0.0
 11
-2665.991042960005
 21
779.779118537874
 31
0.0
  0
LINE
  5
5E4B
330
5E13
100
AcDbEntity
  8
外形線
100
AcDbLine
 10
-2681.699050960005
 20
799.934392537874
 30
0.0
 11
-2665.901932960005
 21
799.934392537874
 31
0.0
  0
LINE
  5
5E4C
330
5E13
100
AcDbEntity
  8
外形線
100
AcDbLine
 10
-2681.699050960005
 20
807.931096537874
 30
0.0
 11
-2665.991042960005
 21
807.931096537874
 31
0.0
  0
LINE
  5
5E4D
330
5E13
100
AcDbEntity
  8
外形線
100
AcDbLine
 10
-2745.477230980931
 20
854.955876537874
 30
0.0
 11
-2760.043024980931
 21
856.955144537874
 31
0.0
  0
ARC
  5
5E4E
330
5E13
100
AcDbEntity
  8
外形線
100
AcDbCircle
 10
-2758.924616980931
 20
859.498236537874
 30
0.0
 40
2.778136
100
AcDbArc
 50
183.281807506792
 51
246.258864629059
  0
LINE
  5
5E4F
330
5E13
100
AcDbEntity
  8
細線
100
AcDbLine
 10
-2665.991042960005
 20
835.063176537874
 30
0.0
 11
-2665.991042960005
 21
853.627142537874
 31
0.0
  0
LINE
  5
5E50
330
5E13
100
AcDbEntity
  8
外形線
100
AcDbLine
 10
-2681.699050960005
 20
835.063176537874
 30
0.0
 11
-2665.991042960005
 21
835.063176537874
 31
0.0
  0
LINE
  5
5E51
330
5E13
100
AcDbEntity
  8
外形線
100
AcDbLine
 10
-2681.699050960005
 20
826.495184537874
 30
0.0
 11
-2665.991042960005
 21
826.495184537874
 31
0.0
  0
LINE
  5
5E52
330
5E13
100
AcDbEntity
  8
外形線
100
AcDbLine
 10
-2681.699050960005
 20
853.627142537874
 30
0.0
 11
-2665.991042960005
 21
853.627142537874
 31
0.0
  0
LINE
  5
5E53
330
5E13
100
AcDbEntity
  8
外形線
100
AcDbLine
 10
-2681.699050960005
 20
861.623968537874
 30
0.0
 11
-2665.901932960005
 21
861.623968537874
 31
0.0
  0
LINE
  5
5E54
330
5E13
100
AcDbEntity
  8
外形線
100
AcDbLine
 10
-2621.722976960005
 20
807.359930537874
 30
0.0
 11
-2621.722976960005
 21
824.781560537874
 31
0.0
  0
LINE
  5
5E55
330
5E13
100
AcDbEntity
  8
外形線
100
AcDbLine
 10
-2631.433426960005
 20
830.779118537874
 30
0.0
 11
-2631.433426960005
 21
788.290838537874
 31
0.0
  0
ARC
  5
5E56
330
5E13
100
AcDbEntity
  8
外形線
100
AcDbCircle
 10
-2636.288650960006
 20
788.290838537874
 30
0.0
 40
4.8552
100
AcDbArc
 50
272.650733067261
 51
359.999982399901
  0
ARC
  5
5E57
330
5E13
100
AcDbEntity
  8
外形線
100
AcDbCircle
 10
-2664.004958960005
 20
786.796698537874
 30
0.0
 40
1.714446
100
AcDbArc
 50
271.804703586974
 51
88.195318508605
  0
LINE
  5
5E58
330
5E13
100
AcDbEntity
  8
外形線
100
AcDbLine
 10
-2662.278274960006
 20
782.227116537874
 30
0.0
 11
-2636.064040960006
 21
783.440802537874
 31
0.0
  0
ARC
  5
5E59
330
5E13
100
AcDbEntity
  8
外形線
100
AcDbCircle
 10
-2623.585158960005
 20
799.511052537874
 30
0.0
 40
1.86215
100
AcDbArc
 50
268.482178628784
 51
83.815801009983
  0
ARC
  5
5E5A
330
5E13
100
AcDbEntity
  8
外形線
100
AcDbCircle
 10
-2623.722244960006
 20
807.359930537874
 30
0.0
 40
1.9992
100
AcDbArc
 50
270.0
 51
359.999982399901
  0
ARC
  5
5E5B
330
5E13
100
AcDbEntity
  8
外形線
100
AcDbCircle
 10
-2629.432936960005
 20
803.361608537874
 30
0.0
 40
2.000724
100
AcDbArc
 50
87.757023395436
 51
272.242959004484
  0
LINE
  5
5E5C
330
5E13
100
AcDbEntity
  8
外形線
100
AcDbLine
 10
-2629.354690960005
 20
801.362370537874
 30
0.0
 11
-2623.384598960006
 21
801.362370537874
 31
0.0
  0
LINE
  5
5E5D
330
5E13
100
AcDbEntity
  8
外形線
100
AcDbLine
 10
-2631.433426960005
 20
797.649602537874
 30
0.0
 11
-2623.634476960005
 21
797.649602537874
 31
0.0
  0
LINE
  5
5E5E
330
5E13
100
AcDbEntity
  8
外形線
100
AcDbLine
 10
-2629.354628960005
 20
805.360784537874
 30
0.0
 11
-2623.722244960006
 21
805.360784537874
 31
0.0
  0
LINE
  5
5E5F
330
5E13
100
AcDbEntity
  8
外形線
100
AcDbLine
 10
-2621.722976960005
 20
854.198308537874
 30
0.0
 11
-2621.722976960005
 21
836.776678537874
 31
0.0
  0
ARC
  5
5E60
330
5E13
100
AcDbEntity
  8
外形線
100
AcDbCircle
 10
-2623.722244960006
 20
836.776678537874
 30
0.0
 40
1.9992
100
AcDbArc
 50
270.0
 51
359.999982399908
  0
ARC
  5
5E61
330
5E13
100
AcDbEntity
  8
外形線
100
AcDbCircle
 10
-2629.279006960005
 20
832.632024537874
 30
0.0
 40
2.15556
100
AcDbArc
 50
95.512637406103
 51
178.08903371374
  0
LINE
  5
5E62
330
5E13
100
AcDbEntity
  8
外形線
100
AcDbLine
 10
-2629.486038960005
 20
834.777532537874
 30
0.0
 11
-2623.722244960006
 21
834.777532537874
 31
0.0
  0
LINE
  5
5E63
330
5E13
100
AcDbEntity
  8
外形線
100
AcDbLine
 10
-2629.486038960005
 20
826.780828537874
 30
0.0
 11
-2623.722244960006
 21
826.780828537874
 31
0.0
  0
ARC
  5
5E64
330
5E13
100
AcDbEntity
  8
外形線
100
AcDbCircle
 10
-2623.722244960006
 20
824.781560537874
 30
0.0
 40
1.9992
100
AcDbArc
 50
0.0
 51
89.999981276021
  0
ARC
  5
5E65
330
5E13
100
AcDbEntity
  8
外形線
100
AcDbCircle
 10
-2629.279006960005
 20
828.926336537874
 30
0.0
 40
2.15556
100
AcDbArc
 50
181.910948686163
 51
264.487402289583
  0
LINE
  5
5E66
330
5E13
100
AcDbEntity
  8
外形線
100
AcDbLine
 10
-2631.433426960005
 20
863.908758537874
 30
0.0
 11
-2623.634476960005
 21
863.908758537874
 31
0.0
  0
ARC
  5
5E67
330
5E13
100
AcDbEntity
  8
外形線
100
AcDbCircle
 10
-2623.722244960006
 20
854.198308537874
 30
0.0
 40
1.9992
100
AcDbArc
 50
0.0
 51
89.999981276021
  0
ARC
  5
5E68
330
5E13
100
AcDbEntity
  8
外形線
100
AcDbCircle
 10
-2629.434218960006
 20
858.196722537874
 30
0.0
 40
2.000726
100
AcDbArc
 50
87.722187561485
 51
272.27785213419
  0
LINE
  5
5E69
330
5E13
100
AcDbEntity
  8
外形線
100
AcDbLine
 10
-2629.354690960005
 20
856.197576537874
 30
0.0
 11
-2623.722244960006
 21
856.197576537874
 31
0.0
  0
LINE
  5
5E6A
330
5E13
100
AcDbEntity
  8
外形線
100
AcDbLine
 10
-2629.354690960005
 20
860.195866537874
 30
0.0
 11
-2623.384598960006
 21
860.195866537874
 31
0.0
  0
ARC
  5
5E6B
330
5E13
100
AcDbEntity
  8
外形線
100
AcDbCircle
 10
-2623.585158960005
 20
862.047308537874
 30
0.0
 40
1.86215
100
AcDbArc
 50
276.18422108563
 51
91.517843466792
  0
LINE
  5
5E6C
330
5E13
100
AcDbEntity
  8
中心線
 48
10.0
100
AcDbLine
 10
-2781.852691728484
 20
895.779118537874
 30
0.0
 11
-2749.248855775376
 21
895.779118537874
 31
0.0
  0
LINE
  5
5E6D
330
5E13
100
AcDbEntity
  8
外形線
100
AcDbLine
 10
-2663.950942960006
 20
873.047918537874
 30
0.0
 11
-2681.699050960005
 21
873.047918537874
 31
0.0
  0
LINE
  5
5E6E
330
5E13
100
AcDbEntity
  8
外形線
100
AcDbLine
 10
-2663.950942960006
 20
876.475164537874
 30
0.0
 11
-2681.699050960005
 21
876.475164537874
 31
0.0
  0
LINE
  5
5E6F
330
5E13
100
AcDbEntity
  8
外形線
100
AcDbLine
 10
-2665.991042960005
 20
881.779118537874
 30
0.0
 11
-2662.278274960006
 21
879.331120537874
 31
0.0
  0
LINE
  5
5E70
330
5E13
100
AcDbEntity
  8
外形線
100
AcDbLine
 10
-2727.912532980931
 20
874.395574537874
 30
0.0
 11
-2690.838210960005
 21
876.475164537874
 31
0.0
  0
LINE
  5
5E71
330
5E13
100
AcDbEntity
  8
外形線
100
AcDbLine
 10
-2771.698196960006
 20
908.279118537874
 30
0.0
 11
-2761.698196960006
 21
908.279118537874
 31
0.0
  0
LINE
  5
5E72
330
5E13
100
AcDbEntity
  8
外形線
100
AcDbLine
 10
-2687.982254960006
 20
881.779118537874
 30
0.0
 11
-2665.991042960005
 21
881.779118537874
 31
0.0
  0
LINE
  5
5E73
330
5E13
100
AcDbEntity
  8
外形線
100
AcDbLine
 10
-2690.838210960005
 20
876.475164537874
 30
0.0
 11
-2687.982254960006
 21
881.779118537874
 31
0.0
  0
LINE
  5
5E74
330
5E13
100
AcDbEntity
  8
細線
100
AcDbLine
 10
-2665.991042960005
 20
876.475164537874
 30
0.0
 11
-2665.991042960005
 21
881.779118537874
 31
0.0
  0
ARC
  5
5E75
330
5E13
100
AcDbEntity
  8
外形線
100
AcDbCircle
 10
-2636.288650960006
 20
873.267522537874
 30
0.0
 40
4.8552
100
AcDbArc
 50
0.0
 51
87.349306628423
  0
ARC
  5
5E76
330
5E13
100
AcDbEntity
  8
外形線
100
AcDbCircle
 10
-2664.004958960005
 20
874.761540537874
 30
0.0
 40
1.714446
100
AcDbArc
 50
271.804703586974
 51
88.195318508605
  0
LINE
  5
5E77
330
5E13
100
AcDbEntity
  8
外形線
100
AcDbLine
 10
-2662.278274960006
 20
879.331120537874
 30
0.0
 11
-2636.064040960006
 21
878.117498537874
 31
0.0
  0
ENDBLK
  5
5E78
330
5E13
100
AcDbEntity
  8
0
 48
10.0
100
AcDbBlockEnd
  0
BLOCK
  5
61CC
330
61C2
100
AcDbEntity
  8
0
 48
10.0
100
AcDbBlockBegin
  2
*D22
 70
     1
 10
0.0
 20
0.0
 30
0.0
  3
*D22
  1
*D22
  0
LINE
  5
61DB
330
61C2
100
AcDbEntity
  8
寸法線
 62
     0
 48
10.0
100
AcDbLine
 10
661.341568193101
 20
446.625017339994
 30
0.0
 11
661.341568193101
 21
405.795564281537
 31
0.0
  0
LINE
  5
61DC
330
61C2
100
AcDbEntity
  8
寸法線
 62
     0
 48
10.0
100
AcDbLine
 10
681.341568193101
 20
439.625017339994
 30
0.0
 11
681.341568193101
 21
405.795564281537
 31
0.0
  0
LINE
  5
61DD
330
61C2
100
AcDbEntity
  8
寸法線
 62
     0
 48
10.0
100
AcDbLine
 10
667.341568193101
 20
407.045564281537
 30
0.0
 11
675.341568193101
 21
407.045564281537
 31
0.0
  0
INSERT
  5
61DE
330
61C2
100
AcDbEntity
  8
寸法線
 62
     0
100
AcDbBlockReference
  2
_OPEN30
 10
661.341568193101
 20
407.045564281537
 30
0.0
 41
6.0
 42
6.0
 43
6.0
 50
180.0
  0
INSERT
  5
61DF
330
61C2
100
AcDbEntity
  8
寸法線
 62
     0
100
AcDbBlockReference
  2
_OPEN30
 10
681.341568193101
 20
407.045564281537
 30
0.0
 41
6.0
 42
6.0
 43
6.0
  0
MTEXT
  5
61E0
330
61C2
100
AcDbEntity
  8
寸法線
 62
     0
 48
10.0
100
AcDbMText
 10
671.341568193101
 20
412.67577261487
 30
0.0
 40
10.0
 41
0.0
 71
     5
 72
     1
  1
\A1;20
  0
POINT
  5
61E1
330
61C2
100
AcDbEntity
  8
DEFPOINTS
 62
     0
100
AcDbPoint
 10
661.341568193101
 20
447.250017339994
 30
0.0
  0
POINT
  5
61E2
330
61C2
100
AcDbEntity
  8
DEFPOINTS
 62
     0
100
AcDbPoint
 10
681.341568193101
 20
440.250017339994
 30
0.0
  0
POINT
  5
61E3
330
61C2
100
AcDbEntity
  8
DEFPOINTS
 62
     0
100
AcDbPoint
 10
681.341568193101
 20
407.045564281537
 30
0.0
  0
ENDBLK
  5
61CD
330
61C2
100
AcDbEntity
  8
0
 48
10.0
100
AcDbBlockEnd
  0
BLOCK
  5
61D9
330
61CF
100
AcDbEntity
  8
0
 48
10.0
100
AcDbBlockBegin
  2
*D23
 70
     1
 10
0.0
 20
0.0
 30
0.0
  3
*D23
  1
*D23
  0
LINE
  5
61E4
330
61CF
100
AcDbEntity
  8
寸法線
 62
     0
 48
10.0
100
AcDbLine
 10
611.341568193101
 20
431.625017339994
 30
0.0
 11
611.341568193101
 21
405.795564281537
 31
0.0
  0
LINE
  5
61E5
330
61CF
100
AcDbEntity
  8
寸法線
 62
     0
 48
10.0
100
AcDbLine
 10
661.341568193101
 20
446.625017339994
 30
0.0
 11
661.341568193101
 21
405.795564281537
 31
0.0
  0
LINE
  5
61E6
330
61CF
100
AcDbEntity
  8
寸法線
 62
     0
 48
10.0
100
AcDbLine
 10
617.341568193101
 20
407.045564281537
 30
0.0
 11
655.341568193101
 21
407.045564281537
 31
0.0
  0
INSERT
  5
61E7
330
61CF
100
AcDbEntity
  8
寸法線
 62
     0
100
AcDbBlockReference
  2
_OPEN30
 10
611.341568193101
 20
407.045564281537
 30
0.0
 41
6.0
 42
6.0
 43
6.0
 50
180.0
  0
INSERT
  5
61E8
330
61CF
100
AcDbEntity
  8
寸法線
 62
     0
100
AcDbBlockReference
  2
_OPEN30
 10
661.341568193101
 20
407.045564281537
 30
0.0
 41
6.0
 42
6.0
 43
6.0
  0
MTEXT
  5
61E9
330
61CF
100
AcDbEntity
  8
寸法線
 62
     0
 48
10.0
100
AcDbMText
 10
636.341568193101
 20
412.670564281537
 30
0.0
 40
10.0
 41
0.0
 71
     5
 72
     1
  1
\A1;50
  0
POINT
  5
61EA
330
61CF
100
AcDbEntity
  8
DEFPOINTS
 62
     0
100
AcDbPoint
 10
611.341568193101
 20
432.250017339994
 30
0.0
  0
POINT
  5
61EB
330
61CF
100
AcDbEntity
  8
DEFPOINTS
 62
     0
100
AcDbPoint
 10
661.341568193101
 20
447.250017339994
 30
0.0
  0
POINT
  5
61EC
330
61CF
100
AcDbEntity
  8
DEFPOINTS
 62
     0
100
AcDbPoint
 10
661.341568193101
 20
407.045564281537
 30
0.0
  0
ENDBLK
  5
61DA
330
61CF
100
AcDbEntity
  8
0
 48
10.0
100
AcDbBlockEnd
  0
BLOCK
  5
6278
330
626E
100
AcDbEntity
  8
0
 48
10.0
100
AcDbBlockBegin
  2
*D24
 70
     1
 10
0.0
 20
0.0
 30
0.0
  3
*D24
  1
*D24
  0
LINE
  5
62EE
330
626E
100
AcDbEntity
  8
寸法線
 62
     0
 48
10.0
100
AcDbLine
 10
901.659328265916
 20
383.624946473968
 30
0.0
 11
901.659328265916
 21
353.984910203697
 31
0.0
  0
LINE
  5
62EF
330
626E
100
AcDbEntity
  8
寸法線
 62
     0
 48
10.0
100
AcDbLine
 10
957.659328265916
 20
383.624946473968
 30
0.0
 11
957.659328265916
 21
353.984910203697
 31
0.0
  0
LINE
  5
62F0
330
626E
100
AcDbEntity
  8
寸法線
 62
     0
 48
10.0
100
AcDbLine
 10
907.659328265916
 20
355.234910203697
 30
0.0
 11
951.659328265916
 21
355.234910203697
 31
0.0
  0
INSERT
  5
62F1
330
626E
100
AcDbEntity
  8
寸法線
 62
     0
100
AcDbBlockReference
  2
_OPEN30
 10
901.659328265916
 20
355.234910203697
 30
0.0
 41
6.0
 42
6.0
 43
6.0
 50
180.0
  0
INSERT
  5
62F2
330
626E
100
AcDbEntity
  8
寸法線
 62
     0
100
AcDbBlockReference
  2
_OPEN30
 10
957.659328265916
 20
355.234910203697
 30
0.0
 41
6.0
 42
6.0
 43
6.0
  0
MTEXT
  5
62F3
330
626E
100
AcDbEntity
  8
寸法線
 62
     0
 48
10.0
100
AcDbMText
 10
929.659328265916
 20
360.859910203697
 30
0.0
 40
10.0
 41
0.0
 71
     5
 72
     1
  1
\A1;56
  0
POINT
  5
62F4
330
626E
100
AcDbEntity
  8
DEFPOINTS
 62
     0
100
AcDbPoint
 10
901.659328265916
 20
384.249946473968
 30
0.0
  0
POINT
  5
62F5
330
626E
100
AcDbEntity
  8
DEFPOINTS
 62
     0
100
AcDbPoint
 10
957.659328265916
 20
384.249946473968
 30
0.0
  0
POINT
  5
62F6
330
626E
100
AcDbEntity
  8
DEFPOINTS
 62
     0
100
AcDbPoint
 10
957.659328265916
 20
355.234910203697
 30
0.0
  0
ENDBLK
  5
6279
330
626E
100
AcDbEntity
  8
0
 48
10.0
100
AcDbBlockEnd
  0
BLOCK
  5
6285
330
627B
100
AcDbEntity
  8
0
 48
10.0
100
AcDbBlockBegin
  2
*D25
 70
     1
 10
0.0
 20
0.0
 30
0.0
  3
*D25
  1
*D25
  0
LINE
  5
62E5
330
627B
100
AcDbEntity
  8
寸法線
 62
     0
 48
10.0
100
AcDbLine
 10
957.659328265916
 20
383.624946473968
 30
0.0
 11
957.659328265916
 21
353.984910203697
 31
0.0
  0
LINE
  5
62E6
330
627B
100
AcDbEntity
  8
寸法線
 62
     0
 48
10.0
100
AcDbLine
 10
973.659328265916
 20
383.624946473968
 30
0.0
 11
973.659328265916
 21
353.984910203697
 31
0.0
  0
LINE
  5
62E7
330
627B
100
AcDbEntity
  8
寸法線
 62
     0
 48
10.0
100
AcDbLine
 10
963.659328265916
 20
355.234910203697
 30
0.0
 11
967.659328265916
 21
355.234910203697
 31
0.0
  0
INSERT
  5
62E8
330
627B
100
AcDbEntity
  8
寸法線
 62
     0
100
AcDbBlockReference
  2
_OPEN30
 10
957.659328265916
 20
355.234910203697
 30
0.0
 41
6.0
 42
6.0
 43
6.0
 50
180.0
  0
INSERT
  5
62E9
330
627B
100
AcDbEntity
  8
寸法線
 62
     0
100
AcDbBlockReference
  2
_OPEN30
 10
973.659328265916
 20
355.234910203697
 30
0.0
 41
6.0
 42
6.0
 43
6.0
  0
MTEXT
  5
62EA
330
627B
100
AcDbEntity
  8
寸法線
 62
     0
 48
10.0
100
AcDbMText
 10
965.659328265916
 20
360.859910203697
 30
0.0
 40
10.0
 41
0.0
 71
     5
 72
     1
  1
\A1;16
  0
POINT
  5
62EB
330
627B
100
AcDbEntity
  8
DEFPOINTS
 62
     0
100
AcDbPoint
 10
957.659328265916
 20
384.249946473968
 30
0.0
  0
POINT
  5
62EC
330
627B
100
AcDbEntity
  8
DEFPOINTS
 62
     0
100
AcDbPoint
 10
973.659328265916
 20
384.249946473968
 30
0.0
  0
POINT
  5
62ED
330
627B
100
AcDbEntity
  8
DEFPOINTS
 62
     0
100
AcDbPoint
 10
973.659328265916
 20
355.234910203697
 30
0.0
  0
ENDBLK
  5
6286
330
627B
100
AcDbEntity
  8
0
 48
10.0
100
AcDbBlockEnd
  0
BLOCK
  5
6292
330
6288
100
AcDbEntity
  8
0
 48
10.0
100
AcDbBlockBegin
  2
*D26
 70
     1
 10
0.0
 20
0.0
 30
0.0
  3
*D26
  1
*D26
  0
LINE
  5
62F7
330
6288
100
AcDbEntity
  8
寸法線
 62
     0
 48
10.0
100
AcDbLine
 10
901.659328265916
 20
382.999946473968
 30
0.0
 11
901.659328265916
 21
353.984910203697
 31
0.0
  0
LINE
  5
62F8
330
6288
100
AcDbEntity
  8
寸法線
 62
     0
 48
10.0
100
AcDbLine
 10
887.659388265915
 20
383.624946473968
 30
0.0
 11
887.659388265915
 21
353.984910203697
 31
0.0
  0
LINE
  5
62F9
330
6288
100
AcDbEntity
  8
寸法線
 62
     0
 48
10.0
100
AcDbLine
 10
895.659328265916
 20
355.234910203697
 30
0.0
 11
893.659388265915
 21
355.234910203697
 31
0.0
  0
INSERT
  5
62FA
330
6288
100
AcDbEntity
  8
寸法線
 62
     0
100
AcDbBlockReference
  2
_OPEN30
 10
901.659328265916
 20
355.234910203697
 30
0.0
 41
6.0
 42
6.0
 43
6.0
  0
INSERT
  5
62FB
330
6288
100
AcDbEntity
  8
寸法線
 62
     0
100
AcDbBlockReference
  2
_OPEN30
 10
887.659388265915
 20
355.234910203697
 30
0.0
 41
6.0
 42
6.0
 43
6.0
 50
180.0
  0
MTEXT
  5
62FC
330
6288
100
AcDbEntity
  8
寸法線
 62
     0
 48
10.0
100
AcDbMText
 10
894.659358265915
 20
360.859910203697
 30
0.0
 40
10.0
 41
0.0
 71
     5
 72
     1
  1
\A1;14
  0
POINT
  5
62FD
330
6288
100
AcDbEntity
  8
DEFPOINTS
 62
     0
100
AcDbPoint
 10
901.659328265916
 20
383.624946473968
 30
0.0
  0
POINT
  5
62FE
330
6288
100
AcDbEntity
  8
DEFPOINTS
 62
     0
100
AcDbPoint
 10
887.659388265915
 20
384.249946473968
 30
0.0
  0
POINT
  5
62FF
330
6288
100
AcDbEntity
  8
DEFPOINTS
 62
     0
100
AcDbPoint
 10
887.659388265915
 20
355.234910203697
 30
0.0
  0
ENDBLK
  5
6293
330
6288
100
AcDbEntity
  8
0
 48
10.0
100
AcDbBlockEnd
  0
BLOCK
  5
629F
330
6295
100
AcDbEntity
  8
0
 48
10.0
100
AcDbBlockBegin
  2
*D27
 70
     1
 10
0.0
 20
0.0
 30
0.0
  3
*D27
  1
*D27
  0
LINE
  5
631F
330
6295
100
AcDbEntity
  8
寸法線
 62
     0
 48
10.0
100
AcDbLine
 10
887.659388265915
 20
382.999946473968
 30
0.0
 11
887.659388265915
 21
353.984910203697
 31
0.0
  0
LINE
  5
6320
330
6295
100
AcDbEntity
  8
寸法線
 62
     0
 48
10.0
100
AcDbLine
 10
837.659388265915
 20
432.245527438434
 30
0.0
 11
837.659388265915
 21
353.984910203697
 31
0.0
  0
LINE
  5
6321
330
6295
100
AcDbEntity
  8
寸法線
 62
     0
 48
10.0
100
AcDbLine
 10
881.659388265915
 20
355.234910203697
 30
0.0
 11
843.659388265915
 21
355.234910203697
 31
0.0
  0
INSERT
  5
6322
330
6295
100
AcDbEntity
  8
寸法線
 62
     0
100
AcDbBlockReference
  2
_OPEN30
 10
887.659388265915
 20
355.234910203697
 30
0.0
 41
6.0
 42
6.0
 43
6.0
  0
INSERT
  5
6323
330
6295
100
AcDbEntity
  8
寸法線
 62
     0
100
AcDbBlockReference
  2
_OPEN30
 10
837.659388265915
 20
355.234910203697
 30
0.0
 41
6.0
 42
6.0
 43
6.0
 50
180.0
  0
MTEXT
  5
6324
330
6295
100
AcDbEntity
  8
寸法線
 62
     0
 48
10.0
100
AcDbMText
 10
862.659388265915
 20
360.859910203697
 30
0.0
 40
10.0
 41
0.0
 71
     5
 72
     1
  1
\A1;50
  0
POINT
  5
6325
330
6295
100
AcDbEntity
  8
DEFPOINTS
 62
     0
100
AcDbPoint
 10
887.659388265915
 20
383.624946473968
 30
0.0
  0
POINT
  5
6326
330
6295
100
AcDbEntity
  8
DEFPOINTS
 62
     0
100
AcDbPoint
 10
837.659388265915
 20
432.870527438434
 30
0.0
  0
POINT
  5
6327
330
6295
100
AcDbEntity
  8
DEFPOINTS
 62
     0
100
AcDbPoint
 10
837.659388265915
 20
355.234910203697
 30
0.0
  0
ENDBLK
  5
62A0
330
6295
100
AcDbEntity
  8
0
 48
10.0
100
AcDbBlockEnd
  0
BLOCK
  5
689D
330
6891
100
AcDbEntity
  8
0
 48
10.0
100
AcDbBlockBegin
  2
*D28
 70
     1
 10
0.0
 20
0.0
 30
0.0
  3
*D28
  1
*D28
  0
LINE
  5
689F
330
6891
100
AcDbEntity
  8
寸法線
 62
     0
 48
10.0
100
AcDbLine
 10
372.332827196549
 20
217.883487339994
 30
0.0
 11
372.332827196549
 21
289.493414123281
 31
0.0
  0
LINE
  5
68A0
330
6891
100
AcDbEntity
  8
寸法線
 62
     0
 48
10.0
100
AcDbLine
 10
376.082827196549
 20
217.883487339994
 30
0.0
 11
376.082827196549
 21
289.493414123281
 31
0.0
  0
LINE
  5
68A1
330
6891
100
AcDbEntity
  8
寸法線
 62
     0
 48
10.0
100
AcDbLine
 10
382.082827196549
 20
288.243414123281
 30
0.0
 11
401.332827196549
 21
288.243414123281
 31
0.0
  0
LINE
  5
68A2
330
6891
100
AcDbEntity
  8
寸法線
 62
     0
 48
10.0
100
AcDbLine
 10
372.332827196549
 20
288.243414123281
 30
0.0
 11
376.082827196549
 21
288.243414123281
 31
0.0
  0
LINE
  5
68A3
330
6891
100
AcDbEntity
  8
寸法線
 62
     0
 48
10.0
100
AcDbLine
 10
366.332827196549
 20
288.243414123281
 30
0.0
 11
360.332827196549
 21
288.243414123281
 31
0.0
  0
INSERT
  5
68A4
330
6891
100
AcDbEntity
  8
寸法線
 62
     0
100
AcDbBlockReference
  2
_OPEN30
 10
372.332827196549
 20
288.243414123281
 30
0.0
 41
6.0
 42
6.0
 43
6.0
  0
INSERT
  5
68A5
330
6891
100
AcDbEntity
  8
寸法線
 62
     0
100
AcDbBlockReference
  2
_OPEN30
 10
376.082827196549
 20
288.243414123281
 30
0.0
 41
6.0
 42
6.0
 43
6.0
 50
180.0
  0
MTEXT
  5
68A6
330
6891
100
AcDbEntity
  8
寸法線
 62
     0
 48
10.0
100
AcDbMText
 10
394.707827196549
 20
293.868414123281
 30
0.0
 40
10.0
 41
0.0
 71
     5
 72
     1
  1
\A1;1.5
  0
POINT
  5
68A7
330
6891
100
AcDbEntity
  8
DEFPOINTS
 62
     0
100
AcDbPoint
 10
372.332827196549
 20
217.258487339994
 30
0.0
  0
POINT
  5
68A8
330
6891
100
AcDbEntity
  8
DEFPOINTS
 62
     0
100
AcDbPoint
 10
376.082827196549
 20
217.258487339994
 30
0.0
  0
POINT
  5
68A9
330
6891
100
AcDbEntity
  8
DEFPOINTS
 62
     0
100
AcDbPoint
 10
376.082827196549
 20
288.243414123281
 30
0.0
  0
ENDBLK
  5
689E
330
6891
100
AcDbEntity
  8
0
 48
10.0
100
AcDbBlockEnd
  0
BLOCK
  5
7333
330
7332
100
AcDbEntity
  8
0
100
AcDbBlockBegin
  2
*D133
 70
     1
 10
0.0
 20
0.0
 30
0.0
  3
*D133
  1
*D133
  0
LINE
  5
7335
330
7332
100
AcDbEntity
  8
寸法線
 62
     0
 48
10.0
100
AcDbLine
 10
586.341568193101
 20
431.625017339994
 30
0.0
 11
586.341568193101
 21
405.795564281537
 31
0.0
  0
LINE
  5
7336
330
7332
100
AcDbEntity
  8
寸法線
 62
     0
 48
10.0
100
AcDbLine
 10
611.341568193101
 20
431.625017339994
 30
0.0
 11
611.341568193101
 21
405.795564281537
 31
0.0
  0
LINE
  5
7337
330
7332
100
AcDbEntity
  8
寸法線
 62
     0
 48
10.0
100
AcDbLine
 10
592.341568193101
 20
407.045564281537
 30
0.0
 11
605.341568193101
 21
407.045564281537
 31
0.0
  0
INSERT
  5
7338
330
7332
100
AcDbEntity
  8
寸法線
 62
     0
100
AcDbBlockReference
  2
_OPEN30
 10
586.341568193101
 20
407.045564281537
 30
0.0
 41
6.0
 42
6.0
 43
6.0
 50
180.0
  0
INSERT
  5
7339
330
7332
100
AcDbEntity
  8
寸法線
 62
     0
100
AcDbBlockReference
  2
_OPEN30
 10
611.341568193101
 20
407.045564281537
 30
0.0
 41
6.0
 42
6.0
 43
6.0
  0
MTEXT
  5
733A
330
7332
100
AcDbEntity
  8
寸法線
 62
     0
 48
10.0
100
AcDbMText
 10
598.841568193101
 20
412.67577261487
 30
0.0
 40
10.0
 41
0.0
 71
     5
 72
     1
  1
\A1;25
  0
POINT
  5
733B
330
7332
100
AcDbEntity
  8
DEFPOINTS
 62
     0
100
AcDbPoint
 10
586.341568193101
 20
432.250017339994
 30
0.0
  0
POINT
  5
733C
330
7332
100
AcDbEntity
  8
DEFPOINTS
 62
     0
100
AcDbPoint
 10
611.341568193101
 20
432.250017339994
 30
0.0
  0
POINT
  5
733D
330
7332
100
AcDbEntity
  8
DEFPOINTS
 62
     0
100
AcDbPoint
 10
611.341568193101
 20
407.045564281537
 30
0.0
  0
ENDBLK
  5
7334
330
7332
100
AcDbEntity
  8
0
100
AcDbBlockEnd
  0
BLOCK
  5
7341
330
7340
100
AcDbEntity
  8
0
100
AcDbBlockBegin
  2
*D134
 70
     1
 10
0.0
 20
0.0
 30
0.0
  3
*D134
  1
*D134
  0
LINE
  5
7343
330
7340
100
AcDbEntity
  8
寸法線
 62
     0
 48
10.0
100
AcDbLine
 10
297.000339561049
 20
450.713713552069
 30
0.0
 11
296.923750080949
 21
451.618501822211
 31
0.0
  0
LINE
  5
7344
330
7340
100
AcDbEntity
  8
寸法線
 62
     0
 48
10.0
100
AcDbLine
 10
451.436856958578
 20
463.786620182474
 30
0.0
 11
451.360267478478
 21
464.691408452616
 31
0.0
  0
LINE
  5
7345
330
7340
100
AcDbEntity
  8
寸法線
 62
     0
 48
10.0
100
AcDbLine
 10
303.007802788526
 20
450.879040767508
 30
0.0
 11
445.48708329378
 21
462.939778488094
 31
0.0
  0
INSERT
  5
7346
330
7340
100
AcDbEntity
  8
寸法線
 62
     0
100
AcDbBlockReference
  2
_OPEN30
 10
297.029184342388
 20
450.372956312599
 30
0.0
 41
6.0
 42
6.0
 43
6.0
 50
184.838499403605
  0
INSERT
  5
7347
330
7340
100
AcDbEntity
  8
寸法線
 62
     0
100
AcDbBlockReference
  2
_OPEN30
 10
451.465701739918
 20
463.445862943003
 30
0.0
 41
6.0
 42
6.0
 43
6.0
 50
4.838499403605
  0
MTEXT
  5
7348
330
7340
100
AcDbEntity
  8
寸法線
 62
     0
 48
10.0
100
AcDbMText
 10
420.364286472743
 20
466.458274149684
 30
0.0
 40
10.0
 41
0.0
 71
     5
 72
     1
  1
\A1;φ155
 11
0.9964364076896375
 21
0.08434740915149971
 31
0.0
  0
POINT
  5
7349
330
7340
100
AcDbEntity
  8
DEFPOINTS
 62
     0
100
AcDbPoint
 10
297.053056691768
 20
450.090940797263
 30
0.0
  0
POINT
  5
734A
330
7340
100
AcDbEntity
  8
DEFPOINTS
 62
     0
100
AcDbPoint
 10
451.489574089297
 20
463.163847427668
 30
0.0
  0
POINT
  5
734B
330
7340
100
AcDbEntity
  8
DEFPOINTS
 62
     0
100
AcDbPoint
 10
451.465701739918
 20
463.445862943003
 30
0.0
  0
ENDBLK
  5
7342
330
7340
100
AcDbEntity
  8
0
100
AcDbBlockEnd
  0
BLOCK
  5
734D
330
734C
100
AcDbEntity
  8
0
100
AcDbBlockBegin
  2
*D135
 70
     1
 10
0.0
 20
0.0
 30
0.0
  3
*D135
  1
*D135
  0
LINE
  5
734F
330
734C
100
AcDbEntity
  8
寸法線
 62
     0
 48
10.0
100
AcDbLine
 10
314.907022392526
 20
430.475614476039
 30
0.0
 11
315.163600853589
 21
429.892046294494
 31
0.0
  0
LINE
  5
7350
330
734C
100
AcDbEntity
  8
寸法線
 62
     0
 48
10.0
100
AcDbLine
 10
433.912350848321
 20
482.798899053602
 30
0.0
 11
434.168929309384
 21
482.215330872057
 31
0.0
  0
LINE
  5
7351
330
734C
100
AcDbEntity
  8
寸法線
 62
     0
 48
10.0
100
AcDbLine
 10
320.153046809032
 20
433.451249724716
 30
0.0
 11
428.173266173438
 21
480.944691835874
 31
0.0
  0
INSERT
  5
7352
330
734C
100
AcDbEntity
  8
寸法線
 62
     0
100
AcDbBlockReference
  2
_OPEN30
 10
314.660492263338
 20
431.036328491514
 30
0.0
 41
6.0
 42
6.0
 43
6.0
 50
203.733737201751
  0
INSERT
  5
7353
330
734C
100
AcDbEntity
  8
寸法線
 62
     0
100
AcDbBlockReference
  2
_OPEN30
 10
433.665820719133
 20
483.359613069077
 30
0.0
 41
6.0
 42
6.0
 43
6.0
 50
23.733737201751
  0
MTEXT
  5
7354
330
734C
100
AcDbEntity
  8
寸法線
 62
     0
 48
10.0
100
AcDbMText
 10
414.75593030431
 20
481.195839221877
 30
0.0
 40
10.0
 41
0.0
 71
     5
 72
     1
  1
\A1;φ130
 11
0.9154257576157172
 21
0.4024868722004364
 31
0.0
  0
POINT
  5
7355
330
734C
100
AcDbEntity
  8
DEFPOINTS
 62
     0
100
AcDbPoint
 10
314.655468097401
 20
431.047755574549
 30
0.0
  0
POINT
  5
7356
330
734C
100
AcDbEntity
  8
DEFPOINTS
 62
     0
100
AcDbPoint
 10
433.660796553196
 20
483.371040152112
 30
0.0
  0
POINT
  5
7357
330
734C
100
AcDbEntity
  8
DEFPOINTS
 62
     0
100
AcDbPoint
 10
433.665820719133
 20
483.359613069077
 30
0.0
  0
ENDBLK
  5
734E
330
734C
100
AcDbEntity
  8
0
100
AcDbBlockEnd
  0
BLOCK
  5
73DF
330
73DE
100
AcDbEntity
  8
0
100
AcDbBlockBegin
  2
*D139
 70
     1
 10
0.0
 20
0.0
 30
0.0
  3
*D139
  1
*D139
  0
ARC
  5
73E1
330
73DE
100
AcDbEntity
  8
寸法線
 62
     0
 48
10.0
100
AcDbCircle
 10
106.502603356746
 20
457.249976889176
 30
0.0
 40
299.9387700811014
100
AcDbArc
 50
271.146168630221
 51
288.853856976103
  0
INSERT
  5
73E2
330
73DE
100
AcDbEntity
  8
寸法線
 62
     0
100
AcDbBlockReference
  2
_OPEN30
 10
106.502603356746
 20
157.311206808075
 30
0.0
 41
6.0
 42
6.0
 43
6.0
 50
180.573084315111
  0
INSERT
  5
73E3
330
73DE
100
AcDbEntity
  8
寸法線
 62
     0
100
AcDbBlockReference
  2
_OPEN30
 10
209.087830451806
 20
175.399773803178
 30
0.0
 41
6.0
 42
6.0
 43
6.0
 50
19.426941291213
  0
MTEXT
  5
73E4
330
73DE
100
AcDbEntity
  8
寸法線
 62
     0
 48
10.0
100
AcDbMText
 10
157.607909123562
 20
167.417764128997
 30
0.0
 40
10.0
 41
0.0
 71
     5
 72
     1
  1
約\A1;20%%d
 11
0.9848077142092255
 21
0.1736483977294362
 31
0.0
  0
POINT
  5
73E5
330
73DE
100
AcDbEntity
  8
DEFPOINTS
 62
     0
100
AcDbPoint
 10
141.323413614816
 20
159.339290657992
 30
0.0
  0
POINT
  5
73E6
330
73DE
100
AcDbEntity
  8
DEFPOINTS
 62
     0
100
AcDbPoint
 10
122.725710856746
 20
412.677417339994
 30
0.0
  0
POINT
  5
73E7
330
73DE
100
AcDbEntity
  8
DEFPOINTS
 62
     0
100
AcDbPoint
 10
106.502603356746
 20
264.051494839994
 30
0.0
  0
POINT
  5
73E8
330
73DE
100
AcDbEntity
  8
DEFPOINTS
 62
     0
100
AcDbPoint
 10
106.502603356746
 20
147.250017339994
 30
0.0
  0
POINT
  5
73E9
330
73DE
100
AcDbEntity
  8
DEFPOINTS
 62
     0
100
AcDbPoint
 10
211.904693356746
 20
167.660517339994
 30
0.0
  0
ENDBLK
  5
73E0
330
73DE
100
AcDbEntity
  8
0
100
AcDbBlockEnd
  0
BLOCK
  5
73EB
330
73EA
100
AcDbEntity
  8
0
100
AcDbBlockBegin
  2
*D140
 70
     1
 10
0.0
 20
0.0
 30
0.0
  3
*D140
  1
*D140
  0
ARC
  5
73ED
330
73EA
100
AcDbEntity
  8
寸法線
 62
     0
 48
10.0
100
AcDbCircle
 10
106.502626461058
 20
457.249913410689
 30
0.0
 40
227.4998979279783
100
AcDbArc
 50
286.51115881819
 51
288.488883648554
  0
INSERT
  5
73EE
330
73EA
100
AcDbEntity
  8
寸法線
 62
     0
100
AcDbBlockReference
  2
_OPEN30
 10
165.383997468916
 20
237.501903850931
 30
0.0
 41
6.0
 42
6.0
 43
6.0
 50
195.755587839306
  0
INSERT
  5
73EF
330
73EA
100
AcDbEntity
  8
寸法線
 62
     0
100
AcDbBlockReference
  2
_OPEN30
 10
184.312269698357
 20
243.46997287247
 30
0.0
 41
6.0
 42
6.0
 43
6.0
 50
19.244454627439
  0
MTEXT
  5
73F0
330
73EA
100
AcDbEntity
  8
寸法線
 62
     0
 48
10.0
100
AcDbMText
 10
162.345534158162
 20
250.801294743528
 30
0.0
 40
10.0
 41
0.0
 71
     5
 72
     1
  1
約\A1;5%%d
 11
0.9653092172251645
 21
0.2611093930522998
 31
0.0
  0
POINT
  5
73F1
330
73EA
100
AcDbEntity
  8
DEFPOINTS
 62
     0
100
AcDbPoint
 10
178.061611903695
 20
241.297337228647
 30
0.0
  0
POINT
  5
73F2
330
73EA
100
AcDbEntity
  8
DEFPOINTS
 62
     0
100
AcDbPoint
 10
122.725710856746
 20
412.677417339994
 30
0.0
  0
POINT
  5
73F3
330
73EA
100
AcDbEntity
  8
DEFPOINTS
 62
     0
100
AcDbPoint
 10
163.591838356746
 20
244.190324839994
 30
0.0
  0
POINT
  5
73F4
330
73EA
100
AcDbEntity
  8
DEFPOINTS
 62
     0
100
AcDbPoint
 10
175.089715856746
 20
201.279712339994
 30
0.0
  0
POINT
  5
73F5
330
73EA
100
AcDbEntity
  8
DEFPOINTS
 62
     0
100
AcDbPoint
 10
211.904693356746
 20
167.660517339994
 30
0.0
  0
ENDBLK
  5
73EC
330
73EA
100
AcDbEntity
  8
0
100
AcDbBlockEnd
  0
BLOCK
  5
73FE
330
73FD
100
AcDbEntity
  8
0
100
AcDbBlockBegin
  2
*D141
 70
     1
 10
0.0
 20
0.0
 30
0.0
  3
*D141
  1
*D141
  0
LINE
  5
7400
330
73FD
100
AcDbEntity
  8
寸法線
 62
     0
 48
10.0
100
AcDbLine
 10
104.627603356742
 20
217.883487339994
 30
0.0
 11
104.627603356742
 21
289.493414123281
 31
0.0
  0
LINE
  5
7401
330
73FD
100
AcDbEntity
  8
寸法線
 62
     0
 48
10.0
100
AcDbLine
 10
108.377603356742
 20
217.883487339994
 30
0.0
 11
108.377603356742
 21
289.493414123281
 31
0.0
  0
LINE
  5
7402
330
73FD
100
AcDbEntity
  8
寸法線
 62
     0
 48
10.0
100
AcDbLine
 10
114.377603356742
 20
288.243414123281
 30
0.0
 11
133.627603356742
 21
288.243414123281
 31
0.0
  0
LINE
  5
7403
330
73FD
100
AcDbEntity
  8
寸法線
 62
     0
 48
10.0
100
AcDbLine
 10
104.627603356742
 20
288.243414123281
 30
0.0
 11
108.377603356742
 21
288.243414123281
 31
0.0
  0
LINE
  5
7404
330
73FD
100
AcDbEntity
  8
寸法線
 62
     0
 48
10.0
100
AcDbLine
 10
98.627603356742
 20
288.243414123281
 30
0.0
 11
92.627603356742
 21
288.243414123281
 31
0.0
  0
INSERT
  5
7405
330
73FD
100
AcDbEntity
  8
寸法線
 62
     0
100
AcDbBlockReference
  2
_OPEN30
 10
104.627603356742
 20
288.243414123281
 30
0.0
 41
6.0
 42
6.0
 43
6.0
  0
INSERT
  5
7406
330
73FD
100
AcDbEntity
  8
寸法線
 62
     0
100
AcDbBlockReference
  2
_OPEN30
 10
108.377603356742
 20
288.243414123281
 30
0.0
 41
6.0
 42
6.0
 43
6.0
 50
180.0
  0
MTEXT
  5
7407
330
73FD
100
AcDbEntity
  8
寸法線
 62
     0
 48
10.0
100
AcDbMText
 10
127.002603356742
 20
293.868414123281
 30
0.0
 40
10.0
 41
0.0
 71
     5
 72
     1
  1
\A1;1.5
  0
POINT
  5
7408
330
73FD
100
AcDbEntity
  8
DEFPOINTS
 62
     0
100
AcDbPoint
 10
104.627603356742
 20
217.258487339994
 30
0.0
  0
POINT
  5
7409
330
73FD
100
AcDbEntity
  8
DEFPOINTS
 62
     0
100
AcDbPoint
 10
108.377603356742
 20
217.258487339994
 30
0.0
  0
POINT
  5
740A
330
73FD
100
AcDbEntity
  8
DEFPOINTS
 62
     0
100
AcDbPoint
 10
108.377603356742
 20
288.243414123281
 30
0.0
  0
ENDBLK
  5
73FF
330
73FD
100
AcDbEntity
  8
0
100
AcDbBlockEnd
  0
BLOCK
  5
740C
330
740B
100
AcDbEntity
  8
0
100
AcDbBlockBegin
  2
*D142
 70
     1
 10
0.0
 20
0.0
 30
0.0
  3
*D142
  1
*D142
  0
LINE
  5
740E
330
740B
100
AcDbEntity
  8
寸法線
 62
     0
 48
10.0
100
AcDbLine
 10
29.295115721242
 20
450.713713552069
 30
0.0
 11
29.218526241143
 21
451.618501822211
 31
0.0
  0
LINE
  5
740F
330
740B
100
AcDbEntity
  8
寸法線
 62
     0
 48
10.0
100
AcDbLine
 10
183.731633118771
 20
463.786620182474
 30
0.0
 11
183.655043638672
 21
464.691408452616
 31
0.0
  0
LINE
  5
7410
330
740B
100
AcDbEntity
  8
寸法線
 62
     0
 48
10.0
100
AcDbLine
 10
35.30257894872
 20
450.879040767508
 30
0.0
 11
177.781859453974
 21
462.939778488094
 31
0.0
  0
INSERT
  5
7411
330
740B
100
AcDbEntity
  8
寸法線
 62
     0
100
AcDbBlockReference
  2
_OPEN30
 10
29.323960502582
 20
450.372956312599
 30
0.0
 41
6.0
 42
6.0
 43
6.0
 50
184.838499403605
  0
INSERT
  5
7412
330
740B
100
AcDbEntity
  8
寸法線
 62
     0
100
AcDbBlockReference
  2
_OPEN30
 10
183.760477900111
 20
463.445862943003
 30
0.0
 41
6.0
 42
6.0
 43
6.0
 50
4.838499403605
  0
MTEXT
  5
7413
330
740B
100
AcDbEntity
  8
寸法線
 62
     0
 48
10.0
100
AcDbMText
 10
152.659062632936
 20
466.458274149684
 30
0.0
 40
10.0
 41
0.0
 71
     5
 72
     1
  1
\A1;φ155
 11
0.9964364076896375
 21
0.08434740915149971
 31
0.0
  0
POINT
  5
7414
330
740B
100
AcDbEntity
  8
DEFPOINTS
 62
     0
100
AcDbPoint
 10
29.347832851962
 20
450.090940797263
 30
0.0
  0
POINT
  5
7415
330
740B
100
AcDbEntity
  8
DEFPOINTS
 62
     0
100
AcDbPoint
 10
183.784350249491
 20
463.163847427668
 30
0.0
  0
POINT
  5
7416
330
740B
100
AcDbEntity
  8
DEFPOINTS
 62
     0
100
AcDbPoint
 10
183.760477900111
 20
463.445862943003
 30
0.0
  0
ENDBLK
  5
740D
330
740B
100
AcDbEntity
  8
0
100
AcDbBlockEnd
  0
BLOCK
  5
7418
330
7417
100
AcDbEntity
  8
0
100
AcDbBlockBegin
  2
*D143
 70
     1
 10
0.0
 20
0.0
 30
0.0
  3
*D143
  1
*D143
  0
LINE
  5
741A
330
7417
100
AcDbEntity
  8
寸法線
 62
     0
 48
10.0
100
AcDbLine
 10
47.201798552719
 20
430.475614476038
 30
0.0
 11
47.45837701378
 21
429.892046294493
 31
0.0
  0
LINE
  5
741B
330
7417
100
AcDbEntity
  8
寸法線
 62
     0
 48
10.0
100
AcDbLine
 10
166.207127008514
 20
482.798899053601
 30
0.0
 11
166.463705469575
 21
482.215330872056
 31
0.0
  0
LINE
  5
741C
330
7417
100
AcDbEntity
  8
寸法線
 62
     0
 48
10.0
100
AcDbLine
 10
52.447822969226
 20
433.451249724716
 30
0.0
 11
160.468042333632
 21
480.944691835874
 31
0.0
  0
INSERT
  5
741D
330
7417
100
AcDbEntity
  8
寸法線
 62
     0
100
AcDbBlockReference
  2
_OPEN30
 10
46.955268423531
 20
431.036328491514
 30
0.0
 41
6.0
 42
6.0
 43
6.0
 50
203.733737201751
  0
INSERT
  5
741E
330
7417
100
AcDbEntity
  8
寸法線
 62
     0
100
AcDbBlockReference
  2
_OPEN30
 10
165.960596879326
 20
483.359613069077
 30
0.0
 41
6.0
 42
6.0
 43
6.0
 50
23.733737201751
  0
MTEXT
  5
741F
330
7417
100
AcDbEntity
  8
寸法線
 62
     0
 48
10.0
100
AcDbMText
 10
147.050706464503
 20
481.195839221877
 30
0.0
 40
10.0
 41
0.0
 71
     5
 72
     1
  1
\A1;φ130
 11
0.9154257576157172
 21
0.4024868722004364
 31
0.0
  0
POINT
  5
7420
330
7417
100
AcDbEntity
  8
DEFPOINTS
 62
     0
100
AcDbPoint
 10
46.950244257594
 20
431.047755574549
 30
0.0
  0
POINT
  5
7421
330
7417
100
AcDbEntity
  8
DEFPOINTS
 62
     0
100
AcDbPoint
 10
165.955572713389
 20
483.371040152112
 30
0.0
  0
POINT
  5
7422
330
7417
100
AcDbEntity
  8
DEFPOINTS
 62
     0
100
AcDbPoint
 10
165.960596879326
 20
483.359613069077
 30
0.0
  0
ENDBLK
  5
7419
330
7417
100
AcDbEntity
  8
0
100
AcDbBlockEnd
  0
ENDSEC
  0
SECTION
  2
ENTITIES
  0
CIRCLE
  5
2F14
330
1A
100
AcDbEntity
  8
外形線
100
AcDbCircle
 10
420.16976770034
 20
503.211958390453
 30
0.0
 40
7.5
  0
LINE
  5
3008
330
1A
100
AcDbEntity
  8
寸法線
100
AcDbLine
 10
557.180453535774
 20
18.251373452835
 30
0.0
 11
557.55734752348
 21
18.628267440542
 31
0.0
  0
LINE
  5
3009
330
1A
100
AcDbEntity
  8
細線
100
AcDbLine
 10
551.877152676875
 20
18.251373452835
 30
0.0
 11
557.55734752348
 21
23.931568299441
 31
0.0
  0
LINE
  5
300A
330
1A
100
AcDbEntity
  8
細線
100
AcDbLine
 10
546.573851817976
 20
18.251373452835
 30
0.0
 11
557.55734752348
 21
29.23486915834
 31
0.0
  0
LINE
  5
300B
330
1A
100
AcDbEntity
  8
細線
100
AcDbLine
 10
541.270550959077
 20
18.251373452835
 30
0.0
 11
553.770550959077
 21
30.751373452835
 31
0.0
  0
LINE
  5
300C
330
1A
100
AcDbEntity
  8
細線
100
AcDbLine
 10
535.967250100178
 20
18.251373452835
 30
0.0
 11
548.467250100178
 21
30.751373452835
 31
0.0
  0
LINE
  5
300D
330
1A
100
AcDbEntity
  8
細線
100
AcDbLine
 10
530.663949241279
 20
18.251373452835
 30
0.0
 11
543.163949241279
 21
30.751373452835
 31
0.0
  0
LINE
  5
300E
330
1A
100
AcDbEntity
  8
細線
100
AcDbLine
 10
525.360648382379
 20
18.251373452835
 30
0.0
 11
537.860648382379
 21
30.751373452835
 31
0.0
  0
LINE
  5
300F
330
1A
100
AcDbEntity
  8
細線
100
AcDbLine
 10
520.05734752348
 20
18.251373452835
 30
0.0
 11
532.55734752348
 21
30.751373452835
 31
0.0
  0
LINE
  5
3010
330
1A
100
AcDbEntity
  8
細線
100
AcDbLine
 10
520.05734752348
 20
23.554674311735
 30
0.0
 11
527.254046664581
 21
30.751373452835
 31
0.0
  0
LINE
  5
3011
330
1A
100
AcDbEntity
  8
細線
100
AcDbLine
 10
520.05734752348
 20
28.857975170634
 30
0.0
 11
521.950745805682
 21
30.751373452835
 31
0.0
  0
LINE
  5
30BE
330
1A
100
AcDbEntity
  8
寸法線
100
AcDbLine
 10
520.05734752348
 20
30.751373452835
 30
0.0
 11
520.05734752348
 21
18.251373452835
 31
0.0
  0
LINE
  5
30BF
330
1A
100
AcDbEntity
  8
寸法線
100
AcDbLine
 10
557.55734752348
 20
30.751373452835
 30
0.0
 11
520.05734752348
 21
30.751373452835
 31
0.0
  0
LINE
  5
30C0
330
1A
100
AcDbEntity
  8
寸法線
100
AcDbLine
 10
557.55734752348
 20
18.251373452835
 30
0.0
 11
557.55734752348
 21
30.751373452835
 31
0.0
  0
LINE
  5
30C1
330
1A
100
AcDbEntity
  8
寸法線
100
AcDbLine
 10
520.05734752348
 20
18.251373452835
 30
0.0
 11
557.55734752348
 21
18.251373452835
 31
0.0
  0
LINE
  5
30C2
330
1A
100
AcDbEntity
  8
寸法線
100
AcDbLine
 10
519.80733252348
 20
61.752043452835
 30
0.0
 11
519.80733252348
 21
49.252043452835
 31
0.0
  0
LINE
  5
30C3
330
1A
100
AcDbEntity
  8
寸法線
100
AcDbLine
 10
557.30733252348
 20
61.752043452835
 30
0.0
 11
519.80733252348
 21
61.752043452835
 31
0.0
  0
LINE
  5
30C4
330
1A
100
AcDbEntity
  8
寸法線
100
AcDbLine
 10
557.30733252348
 20
49.252043452835
 30
0.0
 11
557.30733252348
 21
61.752043452835
 31
0.0
  0
LINE
  5
30C5
330
1A
100
AcDbEntity
  8
寸法線
100
AcDbLine
 10
519.80733252348
 20
49.252043452835
 30
0.0
 11
557.30733252348
 21
49.252043452835
 31
0.0
  0
LINE
  5
30E0
330
1A
100
AcDbEntity
  8
外形線
100
AcDbLine
 10
681.341568193101
 20
440.250017339994
 30
0.0
 11
681.341568193101
 21
474.250017339994
 31
0.0
  0
LINE
  5
30F5
330
1A
100
AcDbEntity
  8
寸法線
100
AcDbLine
 10
317.118592196545
 20
244.190324839994
 30
0.0
 11
305.620714696545
 21
201.279712339994
 31
0.0
  0
LINE
  5
30F6
330
1A
100
AcDbEntity
  8
寸法線
100
AcDbLine
 10
312.635674696545
 20
193.255114839994
 30
0.0
 11
319.271314025916
 21
189.759647676579
 31
0.0
  0
LINE
  5
30F7
330
1A
100
AcDbEntity
  8
寸法線
100
AcDbLine
 10
320.130040507839
 20
193.545771143066
 30
0.0
 11
312.635674696545
 21
193.255114839994
 31
0.0
  0
LWPOLYLINE
  5
30F8
330
1A
100
AcDbEntity
  8
寸法線
100
AcDbPolyline
 90
        4
 70
     0
 43
0.0
 10
312.635674696545
 20
193.255114839994
 10
314.644877196545
 20
192.799409839994
 10
314.644877196545
 20
192.799409839994
 10
314.644877196545
 20
192.799409839994
  0
LINE
  5
30F9
330
1A
100
AcDbEntity
  8
寸法線
100
AcDbLine
 10
354.284654696545
 20
199.270662339994
 30
0.0
 11
347.217738562539
 21
201.782374177551
 31
0.0
  0
LINE
  5
30FA
330
1A
100
AcDbEntity
  8
寸法線
100
AcDbLine
 10
346.908669879303
 20
197.912410531301
 30
0.0
 11
354.284654696545
 21
199.270662339994
 31
0.0
  0
LWPOLYLINE
  5
30FB
330
1A
100
AcDbEntity
  8
寸法線
100
AcDbPolyline
 90
        4
 70
     0
 43
0.0
 10
354.284654696545
 20
199.270662339994
 10
352.975889696545
 20
199.375184839994
 10
352.975889696545
 20
199.375184839994
 10
352.975889696545
 20
199.375184839994
  0
ARC
  5
30FD
330
1A
100
AcDbEntity
  8
寸法線
100
AcDbCircle
 10
374.247574696545
 20
457.476917339994
 30
0.0
 40
258.976785
100
AcDbArc
 50
256.867464684799
 51
265.579001480865
  0
ARC
  5
30FE
102
{ACAD_REACTORS
330
5C5C
102
}
330
1A
100
AcDbEntity
  8
寸法線
100
AcDbCircle
 10
374.207959696545
 20
457.250552339994
 30
0.0
 40
277.5005725
100
AcDbArc
 50
244.999962036427
 51
269.999943828095
  0
ARC
  5
30FF
102
{ACAD_REACTORS
330
5C5C
102
}
330
1A
100
AcDbEntity
  8
寸法線
100
AcDbCircle
 10
374.207884696545
 20
457.250322339994
 30
0.0
 40
265.000285
100
AcDbArc
 50
244.999955716758
 51
269.999943828095
  0
ARC
  5
3100
102
{ACAD_REACTORS
330
5C5C
102
}
330
1A
100
AcDbEntity
  8
寸法線
100
AcDbCircle
 10
374.207102196545
 20
457.248109839994
 30
0.0
 40
252.4979775
100
AcDbArc
 50
244.999904465814
 51
270.000173011213
  0
LINE
  5
3108
102
{ACAD_REACTORS
330
5C5C
102
}
330
1A
100
AcDbEntity
  8
寸法線
100
AcDbLine
 10
317.118592196545
 20
244.190324839994
 30
0.0
 11
305.620714696545
 21
201.279712339994
 31
0.0
  0
LINE
  5
3110
102
{ACAD_REACTORS
330
5C5C
102
}
330
1A
100
AcDbEntity
  8
寸法線
100
AcDbLine
 10
357.984719696545
 20
412.677417339994
 30
0.0
 11
268.805737196545
 21
167.660517339994
 31
0.0
  0
ARC
  5
3123
330
1A
100
AcDbEntity
  8
細線
100
AcDbCircle
 10
725.760714904495
 20
448.750063942224
 30
0.0
 40
16.37099148240944
100
AcDbArc
 50
328.720462679744
 51
31.279200513766
  0
ARC
  5
3124
330
1A
100
AcDbEntity
  8
細線
100
AcDbCircle
 10
726.371744573191
 20
465.74998349131
 30
0.0
 40
15.85194664062627
100
AcDbArc
 50
347.244507237033
 51
32.426271418702
  0
ARC
  5
3125
330
1A
100
AcDbEntity
  8
細線
100
AcDbCircle
 10
753.821244269366
 20
465.75003415582
 30
0.0
 40
16.43748226500877
100
AcDbArc
 50
148.861418420522
 51
211.138732408716
  0
ARC
  5
3129
330
1A
100
AcDbEntity
  8
細線
100
AcDbCircle
 10
749.757259741082
 20
459.750017339994
 30
0.0
 40
4.386472151429488
100
AcDbArc
 50
145.25437044442
 51
214.74562955558
  0
ARC
  5
312A
330
1A
100
AcDbEntity
  8
細線
100
AcDbCircle
 10
742.548627972973
 20
459.750017339994
 30
0.0
 40
4.386461905557155
100
AcDbArc
 50
325.254277617515
 51
34.745722382486
  0
ARC
  5
312B
330
1A
100
AcDbEntity
  8
細線
100
AcDbCircle
 10
742.627437397257
 20
454.750017339994
 30
0.0
 40
4.321938435174104
100
AcDbArc
 50
324.658813390727
 51
35.341186609273
  0
LINE
  5
314D
330
1A
100
AcDbEntity
  8
下書線
100
AcDbLine
 10
84.207318205457
 20
552.752032339994
 30
0.0
 11
962.467800705457
 21
552.752032339994
 31
0.0
  0
MTEXT
  5
33D8
330
1A
100
AcDbEntity
  8
寸法線
 48
10.0
100
AcDbMText
 10
908.536298394465
 20
584.069679860553
 30
0.0
 40
10.0
 41
106.235294117647
 71
     1
 72
     5
  1
塗装色:7.5GB4/1.5
  0
LINE
  5
34BC
102
{ACAD_REACTORS
330
67FE
102
}
330
1A
100
AcDbEntity
  8
中心線
 48
10.0
100
AcDbLine
 10
572.021522291362
 20
457.250017339994
 30
0.0
 11
984.637665838559
 21
457.250017339994
 31
0.0
  0
LINE
  5
34C3
330
1A
100
AcDbEntity
  8
中心線
 48
10.0
100
AcDbLine
 10
282.111512774537
 20
457.250017339994
 30
0.0
 11
466.30414161856
 21
457.250017339994
 31
0.0
  0
LINE
  5
34CC
330
1A
100
AcDbEntity
  8
中心線
 48
10.0
100
AcDbLine
 10
413.326817281325
 20
496.368976309381
 30
0.0
 11
427.012748856544
 21
510.0549078846
 31
0.0
  0
MTEXT
  5
35C1
330
1A
100
AcDbEntity
  8
寸法線
 48
10.0
100
AcDbMText
 10
333.629024633075
 20
144.740960242529
 30
0.0
 40
10.0
 41
108.75775462963
 71
     1
 72
     5
  1
羽根通常停止位置
  0
LWPOLYLINE
  5
4789
102
{ACAD_REACTORS
330
67FE
102
}
330
1A
100
AcDbEntity
  8
外形線
 48
10.0
100
AcDbPolyline
 90
        4
 70
     1
 43
0.0
 10
887.659388265915
 20
530.250046473968
 10
901.659328265916
 20
530.250046473968
 10
901.659328265916
 20
384.249946473968
 10
887.659388265915
 20
384.249946473968
  0
LINE
  5
478A
102
{ACAD_REACTORS
330
67FE
102
}
330
1A
100
AcDbEntity
  8
外形線
 48
10.0
100
AcDbLine
 10
901.659328265916
 20
530.250046473968
 30
0.0
 11
913.659450765916
 21
530.250046473968
 31
0.0
  0
LINE
  5
4790
102
{ACAD_REACTORS
330
67FE
102
}
330
1A
100
AcDbEntity
  8
外形線
 48
10.0
100
AcDbLine
 10
945.659205765915
 20
530.250046473968
 30
0.0
 11
957.659328265916
 21
530.250046473968
 31
0.0
  0
ARC
  5
4791
102
{ACAD_REACTORS
330
67FE
102
}
330
1A
100
AcDbEntity
  8
外形線
 48
10.0
100
AcDbCircle
 10
916.159514783596
 20
517.25004049098
 30
0.0
 40
2.500064017830832
100
AcDbArc
 50
180.000627556901
 51
269.998532860393
  0
ARC
  5
4792
102
{ACAD_REACTORS
330
67FE
102
}
330
1A
100
AcDbEntity
  8
外形線
 48
10.0
100
AcDbCircle
 10
943.159205765916
 20
517.250013973969
 30
0.0
 40
2.5
100
AcDbArc
 50
269.99999999999
 51
359.999982399908
  0
LINE
  5
4793
102
{ACAD_REACTORS
330
67FE
102
}
330
1A
100
AcDbEntity
  8
外形線
 48
10.0
100
AcDbLine
 10
916.159450765916
 20
514.750013973969
 30
0.0
 11
943.159205765915
 21
514.750013973969
 31
0.0
  0
LINE
  5
4796
102
{ACAD_REACTORS
330
67FE
330
6820
102
}
330
1A
100
AcDbEntity
  8
外形線
 48
10.0
100
AcDbLine
 10
913.659450765916
 20
384.249946473968
 30
0.0
 11
913.659450765916
 21
530.250046473968
 31
0.0
  0
LINE
  5
479A
102
{ACAD_REACTORS
330
67FE
102
}
330
1A
100
AcDbEntity
  8
外形線
 48
10.0
100
AcDbLine
 10
945.659205765915
 20
530.250046473968
 30
0.0
 11
945.659205765915
 21
384.249946473968
 31
0.0
  0
ARC
  5
479C
102
{ACAD_REACTORS
330
6820
102
}
330
1A
100
AcDbEntity
  8
外形線
 48
10.0
100
AcDbCircle
 10
916.159450765915
 20
397.249976473968
 30
0.0
 40
2.499999999999695
100
AcDbArc
 50
89.999981276026
 51
180.000019847845
  0
LINE
  5
479E
102
{ACAD_REACTORS
330
6820
102
}
330
1A
100
AcDbEntity
  8
外形線
 48
10.0
100
AcDbLine
 10
916.159451582903
 20
399.749976473968
 30
0.0
 11
943.159205765916
 21
399.749976473968
 31
0.0
  0
LINE
  5
47A8
330
1A
100
AcDbEntity
  8
外形線
 48
10.0
100
AcDbLine
 10
837.659388265916
 20
479.749975607943
 30
0.0
 11
837.659388265915
 21
434.749976473968
 31
0.0
  0
LINE
  5
47AF
102
{ACAD_REACTORS
330
67FE
102
}
330
1A
100
AcDbEntity
  8
中心線
 48
10.0
100
AcDbLine
 10
880.608150765915
 20
521.250031473969
 30
0.0
 11
918.859035765916
 21
521.250031473969
 31
0.0
  0
LINE
  5
47B0
102
{ACAD_REACTORS
330
67FE
102
}
330
1A
100
AcDbEntity
  8
中心線
 48
10.0
100
AcDbLine
 10
939.607875765916
 20
521.250031473969
 30
0.0
 11
978.858668265915
 21
521.250031473969
 31
0.0
  0
LINE
  5
47B1
102
{ACAD_REACTORS
330
67FE
102
}
330
1A
100
AcDbEntity
  8
中心線
 48
10.0
100
AcDbLine
 10
880.608150765915
 20
393.249961473969
 30
0.0
 11
918.859035765916
 21
393.249961473969
 31
0.0
  0
LINE
  5
47B2
102
{ACAD_REACTORS
330
67FE
102
}
330
1A
100
AcDbEntity
  8
中心線
 48
10.0
100
AcDbLine
 10
939.607875765916
 20
393.249961473969
 30
0.0
 11
978.858668265915
 21
393.249961473969
 31
0.0
  0
LWPOLYLINE
  5
47B3
102
{ACAD_REACTORS
330
47C0
330
67FE
102
}
330
1A
100
AcDbEntity
  8
外形線
 48
10.0
100
AcDbPolyline
 90
        8
 70
     1
 43
0.0
 10
822.159388265916
 20
379.750017339994
 10
813.159388265916
 20
379.750017339994
 10
812.659388265916
 20
380.250017339994
 10
812.659388265916
 20
534.250017339994
 10
813.159388265916
 20
534.750017339994
 10
822.159388265916
 20
534.750017339994
 10
822.659388265916
 20
534.250017339994
 10
822.659388265916
 20
380.250017339994
  0
LINE
  5
47B6
102
{ACAD_REACTORS
330
47C0
102
}
330
1A
100
AcDbEntity
  8
中心線
 48
10.0
100
AcDbLine
 10
802.066313265916
 20
522.250017339994
 30
0.0
 11
833.252463265917
 21
522.250017339994
 31
0.0
  0
LINE
  5
47B7
102
{ACAD_REACTORS
330
47C0
102
}
330
1A
100
AcDbEntity
  8
中心線
 48
10.0
100
AcDbLine
 10
802.066313265916
 20
392.250017339994
 30
0.0
 11
833.252463265917
 21
392.250017339994
 31
0.0
  0
ARC
  5
47B9
102
{ACAD_REACTORS
330
47C0
102
}
330
1A
100
AcDbEntity
  8
外形線
 48
10.0
100
AcDbCircle
 10
826.409388265916
 20
485.433667339994
 30
0.0
 40
3.749999999999998
100
AcDbArc
 50
180.000019847842
 51
270.0
  0
LINE
  5
47BA
102
{ACAD_REACTORS
330
47C0
102
}
330
1A
100
AcDbEntity
  8
外形線
 48
10.0
100
AcDbLine
 10
826.409388265916
 20
481.683667339994
 30
0.0
 11
835.909358265916
 21
481.683667339994
 31
0.0
  0
LINE
  5
47BB
102
{ACAD_REACTORS
330
47C0
102
}
330
1A
100
AcDbEntity
  8
外形線
 48
10.0
100
AcDbLine
 10
835.909358265916
 20
481.683667339994
 30
0.0
 11
837.659388265916
 21
479.749996473968
 31
0.0
  0
LINE
  5
47BC
102
{ACAD_REACTORS
330
47C0
330
67FE
102
}
330
1A
100
AcDbEntity
  8
外形線
 48
10.0
100
AcDbLine
 10
837.659388265916
 20
481.250077339994
 30
0.0
 11
837.659388265916
 21
433.249957339994
 31
0.0
  0
LINE
  5
47BD
102
{ACAD_REACTORS
330
47C0
102
}
330
1A
100
AcDbEntity
  8
外形線
 48
10.0
100
AcDbLine
 10
837.659388265916
 20
434.749996473968
 30
0.0
 11
835.926600765916
 21
432.735532339994
 31
0.0
  0
LINE
  5
47BE
102
{ACAD_REACTORS
330
47C0
102
}
330
1A
100
AcDbEntity
  8
外形線
 48
10.0
100
AcDbLine
 10
835.926600765916
 20
432.735532339994
 30
0.0
 11
826.409389491396
 21
432.735532339994
 31
0.0
  0
ARC
  5
47BF
102
{ACAD_REACTORS
330
47C0
102
}
330
1A
100
AcDbEntity
  8
外形線
 48
10.0
100
AcDbCircle
 10
826.409388265916
 20
428.985532339993
 30
0.0
 40
3.750000000000455
100
AcDbArc
 50
90.0
 51
179.999999999991
  0
LINE
  5
47D3
330
1A
100
AcDbEntity
  8
隠れ線
 48
10.0
100
AcDbLine
 10
773.659450765915
 20
462.658186040956
 30
0.0
 11
794.659358265916
 21
462.658186040956
 31
0.0
  0
LINE
  5
47D4
330
1A
100
AcDbEntity
  8
隠れ線
 48
10.0
100
AcDbLine
 10
773.659450765915
 20
451.658126040955
 30
0.0
 11
794.659358265916
 21
451.658126040955
 31
0.0
  0
MTEXT
  5
492B
330
1A
100
AcDbEntity
  8
寸法線
 48
10.0
100
AcDbMText
 10
879.123862416821
 20
553.377032339994
 30
0.0
 40
10.0
 41
0.0
 71
     7
 72
     1
  1
\A1;AC7A
  0
MTEXT
  5
492D
330
1A
100
AcDbEntity
  8
寸法線
 48
10.0
100
AcDbMText
 10
759.563332936404
 20
553.377032339994
 30
0.0
 40
10.0
 41
0.0
 71
     7
 72
     1
  1
\A1;アルミ鋳物
  0
DIMENSION
  5
495F
330
1A
100
AcDbEntity
  8
寸法線
 48
10.0
100
AcDbDimension
  2
*D7
 10
716.476371488998
 20
440.250017339994
 30
0.0
 11
716.476371488998
 21
493.953427032251
 31
0.0
 70
   160
  1
φ34
  3
ISO-25
100
AcDbAlignedDimension
 13
703.162794417206
 23
474.250017339994
 33
0.0
 14
703.162794417206
 24
440.250017339994
 34
0.0
 50
90.0
100
AcDbRotatedDimension
1001
ACAD
1000
DSTYLE
1002
{
1070
     5
1000
OPEN30
1070
    76
1070
     1
1070
    75
1070
     1
1070
    41
1040
6.0
1070
    47
1040
0.1
1070
    48
1040
0.1
1070
    73
1070
     0
1070
   140
1040
10.0
1070
   271
1070
     1
1070
   272
1070
     1
1070
   341
1005
2AEB
1002
}
  0
MTEXT
  5
4991
330
1A
100
AcDbEntity
  8
寸法線
 48
10.0
100
AcDbMText
 10
701.273844804341
 20
553.377032339994
 30
0.0
 40
10.0
 41
0.0
 71
     7
 72
     1
  1
\A1;SUS304
  0
DIMENSION
  5
49A3
330
1A
100
AcDbEntity
  8
寸法線
 48
10.0
100
AcDbDimension
  2
*D8
 10
1004.330870447663
 20
384.249946473968
 30
0.0
 11
1004.330870447663
 21
457.249996473968
 31
0.0
 70
   160
  1
φ<>
  3
ISO-25
100
AcDbAlignedDimension
 13
973.659328265916
 23
530.250046473968
 33
0.0
 14
973.659328265916
 24
384.249946473968
 34
0.0
 50
90.0
100
AcDbRotatedDimension
1001
ACAD
1000
DSTYLE
1002
{
1070
     5
1000
OPEN30
1070
    41
1040
6.0
1070
    47
1040
0.1
1070
    48
1040
0.1
1070
    73
1070
     0
1070
   140
1040
10.0
1070
   271
1070
     1
1070
   272
1070
     1
1070
   341
1005
2AEB
1002
}
  0
DIMENSION
  5
49B0
330
1A
100
AcDbEntity
  8
寸法線
 48
10.0
100
AcDbDimension
  2
*D9
 10
973.659328265916
 20
330.588902505731
 30
0.0
 11
890.159388265916
 21
330.588902505731
 31
0.0
 70
   160
  3
ISO-25
100
AcDbAlignedDimension
 13
812.659388265916
 23
353.560235268849
 33
0.0
 14
973.659328265916
 24
384.249946473968
 34
0.0
100
AcDbRotatedDimension
1001
ACAD
1000
DSTYLE
1002
{
1070
     5
1000
OPEN30
1070
    41
1040
6.0
1070
    47
1040
0.1
1070
    48
1040
0.1
1070
    73
1070
     0
1070
   140
1040
10.0
1070
   271
1070
     1
1070
   272
1070
     1
1070
   341
1005
2AEB
1002
}
  0
DIMENSION
  5
49BD
330
1A
100
AcDbEntity
  8
寸法線
 48
10.0
100
AcDbDimension
  2
*D10
 10
822.659388265916
 20
355.234910203697
 30
0.0
 11
817.284889601958
 21
361.34904216714
 31
0.0
 70
   160
  3
ISO-25
100
AcDbAlignedDimension
 13
812.659388265916
 23
380.250017339994
 33
0.0
 14
822.659388265916
 24
380.250017339994
 34
0.0
100
AcDbRotatedDimension
1001
ACAD
1000
DSTYLE
1002
{
1070
   287
1070
     5
1070
     5
1000
OPEN30
1070
    41
1040
6.0
1070
    47
1040
0.1
1070
    48
1040
0.1
1070
    73
1070
     0
1070
   140
1040
10.0
1070
   271
1070
     1
1070
   272
1070
     1
1070
   279
1070
     2
1070
   341
1005
2AEB
1002
}
  0
MTEXT
  5
49CD
330
1A
100
AcDbEntity
  8
寸法線
 48
10.0
100
AcDbMText
 10
906.398826867792
 20
301.046702955193
 30
0.0
 40
10.0
 41
0.0
 71
     7
 72
     1
  1
導線取出口\PG1/2"
  0
MTEXT
  5
49CF
330
1A
100
AcDbEntity
  8
寸法線
 48
10.0
100
AcDbMText
 10
781.179973201612
 20
381.547638657399
 30
0.0
 40
10.0
 41
0.0
 71
     9
 72
     1
  1
フランジは\P固着剤にて取付
  0
MTEXT
  5
4A60
330
1A
100
AcDbEntity
  8
寸法線
 48
10.0
100
AcDbMText
 10
632.923694530906
 20
553.377032339994
 30
0.0
 40
10.0
 41
0.0
 71
     7
 72
     1
  1
\A1;SUS304
  0
MTEXT
  5
4A62
330
1A
100
AcDbEntity
  8
寸法線
 48
10.0
100
AcDbMText
 10
599.667181930849
 20
553.377032339994
 30
0.0
 40
10.0
 41
0.0
 71
     9
 72
     1
  1
\A1;SUS304
  0
MTEXT
  5
4A65
330
1A
100
AcDbEntity
  8
寸法線
 48
10.0
100
AcDbMText
 10
531.568037620353
 20
553.377032339994
 30
0.0
 40
10.0
 41
0.0
 71
     9
 72
     1
  1
\A1;SUS304
  0
LWPOLYLINE
  5
4AD3
102
{ACAD_REACTORS
330
4AD8
102
}
330
1A
100
AcDbEntity
  8
外形線
 48
10.0
100
AcDbPolyline
 90
        4
 70
     1
 43
0.0
 10
843.054065849985
 20
242.261383641342
 10
893.054065849985
 20
242.261383641342
 10
893.054065849985
 20
212.261383641342
 10
843.054065849985
 20
212.261383641342
  0
HATCH
  5
4AD8
330
1A
100
AcDbEntity
  8
細線
 48
10.0
100
AcDbHatch
 10
0.0
 20
0.0
 30
0.0
210
0.0
220
0.0
230
1.0
  2
ANSI31
 70
     0
 71
     1
 91
        1
 92
        7
 72
     0
 73
     1
 93
        4
 10
893.0540658499854
 20
242.261383641342
 10
843.0540658499854
 20
242.261383641342
 10
843.0540658499854
 20
212.261383641342
 10
893.0540658499854
 20
212.261383641342
 97
        1
330
4AD3
 75
     0
 76
     1
 52
0.0
 41
1.0
 77
     0
 78
     1
 53
45.0
 43
-37.97209933468372
 44
42.34365415368575
 45
-2.245064030267288
 46
2.245064030267288
 79
     0
 47
0.279224121806
 98
        1
 10
872.50749680836
 20
223.433037301204
  0
MTEXT
  5
4AD9
330
1A
100
AcDbEntity
  8
寸法線
 48
10.0
100
AcDbMText
 10
900.723723984396
 20
244.645119394184
 30
0.0
 40
16.0
 41
76.81021397033
 71
     1
 72
     5
  1
d2G4
  0
MTEXT
  5
4ADB
102
{ACAD_XDICTIONARY
360
745C
102
}
330
1A
100
AcDbEntity
  8
寸法線
 48
10.0
100
AcDbMText
 10
901.046268810897
 20
224.254765590486
 30
0.0
 40
10.0
 41
127.439798648684
 71
     1
 72
     5
  1
労検第T65166号
1001
ACADANNOTATIVE
1000
AnnotativeData
1002
{
1070
     1
1070
     0
1002
}
1001
ACAD
1000
MTEXTBEGIN
1070
    44
1040
0.9
1000
MTEXTEND
  0
MTEXT
  5
4ADC
330
1A
100
AcDbEntity
  8
寸法線
 48
10.0
100
AcDbMText
 10
734.484135052826
 20
127.927574581869
 30
0.0
 40
10.0
 41
364.06279359809
 71
     1
 72
     5
  1
端子箱の外部導線引込部の構造\P電線管耐圧ねじ結合式\P端子箱内の結線、外部導線の端子箱への引き込み\P及び接地等については、産業安全研究所技術指針\P工場電気設備防爆指針に基づき設備して下さい。\P使用周囲温度-10～40℃にて御使用してください。
1001
ACAD
1000
MTEXTBEGIN
1070
    44
1040
0.8
1000
MTEXTEND
  0
LINE
  5
5033
330
1A
100
AcDbEntity
  8
中心線
 48
10.0
100
AcDbLine
 10
374.207827196549
 20
550.0
 30
0.0
 11
374.207827196549
 21
214.101115973584
 31
0.0
  0
CIRCLE
  5
5035
330
1A
100
AcDbEntity
  8
中心線
 48
10.0
100
AcDbCircle
 10
374.207827196549
 20
457.250017339994
 30
0.0
 40
65.0
  0
LINE
  5
5038
330
1A
100
AcDbEntity
  8
中心線
 48
10.0
100
AcDbLine
 10
413.326817281325
 20
418.131058370607
 30
0.0
 11
427.012748856544
 21
404.445126795388
 31
0.0
  0
CIRCLE
  5
5039
330
1A
100
AcDbEntity
  8
外形線
100
AcDbCircle
 10
420.16976770034
 20
411.288076289534
 30
0.0
 40
7.5
  0
LINE
  5
503A
330
1A
100
AcDbEntity
  8
中心線
 48
10.0
100
AcDbLine
 10
335.088837111771
 20
496.368976309381
 30
0.0
 11
321.402905536552
 21
510.054907884601
 31
0.0
  0
CIRCLE
  5
503B
330
1A
100
AcDbEntity
  8
外形線
100
AcDbCircle
 10
328.245886692756
 20
503.211958390455
 30
0.0
 40
7.5
  0
LINE
  5
503C
330
1A
100
AcDbEntity
  8
中心線
 48
10.0
100
AcDbLine
 10
335.088837111769
 20
418.131058370608
 30
0.0
 11
321.40290553655
 21
404.445126795389
 31
0.0
  0
CIRCLE
  5
503D
330
1A
100
AcDbEntity
  8
外形線
100
AcDbCircle
 10
328.245886692754
 20
411.288076289535
 30
0.0
 40
7.5
  0
DIMENSION
  5
51DC
330
1A
100
AcDbEntity
  8
寸法線
 48
10.0
100
AcDbDimension
  2
*D15
 10
268.805737196545
 20
167.660517339994
 30
0.0
 11
318.36489639513
 21
250.801294743528
 31
0.0
 70
   162
  1
約<>
  3
ISO-25
100
AcDb2LineAngularDimension
 13
317.118592196545
 23
244.190324839994
 33
0.0
 14
305.620714696545
 24
201.279712339994
 34
0.0
 15
357.984719696545
 25
412.677417339994
 35
0.0
 16
302.648818649596
 26
241.297337228647
 36
0.0
1001
ACAD
1000
DSTYLE
1002
{
1070
   287
1070
     5
1070
     5
1000
OPEN30
1070
    41
1040
6.0
1070
    47
1040
0.1
1070
    48
1040
0.1
1070
    73
1070
     0
1070
   140
1040
10.0
1070
   271
1070
     1
1070
   272
1070
     1
1070
   279
1070
     2
1070
   341
1005
2AEB
1002
}
  0
DIMENSION
  5
524C
330
1A
100
AcDbEntity
  8
寸法線
 48
10.0
100
AcDbDimension
  2
*D16
 10
268.805737196545
 20
167.660517339994
 30
0.0
 11
323.102521429729
 21
167.417764128997
 31
0.0
 70
    34
  1
約<>
  3
ISO-25
100
AcDb2LineAngularDimension
 13
374.207827196545
 23
264.051494839994
 33
0.0
 14
374.207827196545
 24
147.250017339994
 34
0.0
 15
357.984719696545
 25
412.677417339994
 35
0.0
 16
305.037099609027
 26
165.396115782668
 36
0.0
1001
ACAD
1000
DSTYLE
1002
{
1070
     5
1000
OPEN30
1070
    41
1040
6.0
1070
    47
1040
0.1
1070
    48
1040
0.1
1070
    73
1070
     0
1070
   140
1040
10.0
1070
   271
1070
     1
1070
   272
1070
     1
1070
   341
1005
2AEB
1002
}
  0
CIRCLE
  5
5265
330
1A
100
AcDbEntity
  8
寸法線
 48
10.0
100
AcDbCircle
 10
408.229252351149
 20
33.996313377168
 30
0.0
 40
2.0
  0
CIRCLE
  5
5266
330
1A
100
AcDbEntity
  8
寸法線
 48
10.0
100
AcDbCircle
 10
434.111744851149
 20
33.996313377168
 30
0.0
 40
2.0
  0
CIRCLE
  5
5267
330
1A
100
AcDbEntity
  8
寸法線
 48
10.0
100
AcDbCircle
 10
434.111744851149
 20
33.996313377168
 30
0.0
 40
4.0
  0
CIRCLE
  5
5268
330
1A
100
AcDbEntity
  8
寸法線
 48
10.0
100
AcDbCircle
 10
459.994237351149
 20
33.996313377168
 30
0.0
 40
2.0
  0
CIRCLE
  5
5269
330
1A
100
AcDbEntity
  8
寸法線
 48
10.0
100
AcDbCircle
 10
459.994237351149
 20
33.996313377168
 30
0.0
 40
4.0
  0
CIRCLE
  5
526A
330
1A
100
AcDbEntity
  8
寸法線
 48
10.0
100
AcDbCircle
 10
485.876729851149
 20
33.996313377168
 30
0.0
 40
2.0
  0
CIRCLE
  5
526B
330
1A
100
AcDbEntity
  8
寸法線
 48
10.0
100
AcDbCircle
 10
485.876729851149
 20
33.996313377168
 30
0.0
 40
4.0
  0
CIRCLE
  5
526C
330
1A
100
AcDbEntity
  8
寸法線
 48
10.0
100
AcDbCircle
 10
459.994159851149
 20
80.187053621427
 30
0.0
 40
2.0
  0
CIRCLE
  5
526D
330
1A
100
AcDbEntity
  8
寸法線
 48
10.0
100
AcDbCircle
 10
469.811704851149
 20
100.462933621427
 30
0.0
 40
2.0
  0
CIRCLE
  5
526E
330
1A
100
AcDbEntity
  8
寸法線
 48
10.0
100
AcDbCircle
 10
450.176654851149
 20
100.462933621427
 30
0.0
 40
2.0
  0
LINE
  5
526F
330
1A
100
AcDbEntity
  8
寸法線
 48
10.0
100
AcDbLine
 10
434.111744851149
 20
37.996313377168
 30
0.0
 11
434.111744851149
 21
127.095928621427
 31
0.0
  0
LINE
  5
5270
330
1A
100
AcDbEntity
  8
寸法線
 48
10.0
100
AcDbLine
 10
434.111744851149
 20
127.095928621427
 30
0.0
 11
450.176654851149
 21
127.095928621427
 31
0.0
  0
LINE
  5
5271
330
1A
100
AcDbEntity
  8
寸法線
 48
10.0
100
AcDbLine
 10
450.176654851149
 20
127.095928621427
 30
0.0
 11
450.176654851149
 21
102.462933621427
 31
0.0
  0
LINE
  5
5272
330
1A
100
AcDbEntity
  8
寸法線
 48
10.0
100
AcDbLine
 10
459.994172683659
 20
82.187053621386
 30
0.0
 11
467.811697351149
 21
100.462933621427
 31
0.0
  0
LINE
  5
5273
330
1A
100
AcDbEntity
  8
寸法線
 48
10.0
100
AcDbLine
 10
459.994159851149
 20
78.186931121427
 30
0.0
 11
459.994159851149
 21
37.996313376417
 31
0.0
  0
LINE
  5
5274
330
1A
100
AcDbEntity
  8
寸法線
 48
10.0
100
AcDbLine
 10
485.876729851149
 20
37.996313377168
 30
0.0
 11
485.876729851149
 21
127.095928621427
 31
0.0
  0
LINE
  5
5275
330
1A
100
AcDbEntity
  8
寸法線
 48
10.0
100
AcDbLine
 10
485.876729851149
 20
127.095928621427
 30
0.0
 11
469.811704851149
 21
127.095928621427
 31
0.0
  0
LINE
  5
5276
330
1A
100
AcDbEntity
  8
寸法線
 48
10.0
100
AcDbLine
 10
469.811704851149
 20
127.095928621427
 30
0.0
 11
469.811704851149
 21
102.462933621427
 31
0.0
  0
MTEXT
  5
5277
330
1A
100
AcDbEntity
  8
寸法線
 48
10.0
100
AcDbMText
 10
375.729019951605
 20
13.926335345243
 30
0.0
 40
10.0
 41
128.541666666667
 71
     1
 72
     5
  1
接地端子
1001
ACAD
1000
MTEXTBEGIN
1070
    44
1040
0.7
1000
MTEXTEND
  0
MTEXT
  5
5278
330
1A
100
AcDbEntity
  8
寸法線
 48
10.0
100
AcDbMText
 10
406.864473458832
 20
28.377102713387
 30
0.0
 40
10.0
 41
128.541666666667
 71
     1
 72
     5
  1
E
1001
ACAD
1000
MTEXTBEGIN
1070
    44
1040
0.7
1000
MTEXTEND
  0
MTEXT
  5
5279
330
1A
100
AcDbEntity
  8
寸法線
 48
10.0
100
AcDbMText
 10
432.475063584425
 20
28.377102713387
 30
0.0
 40
10.0
 41
128.541666666667
 71
     1
 72
     5
  1
L
1001
ACAD
1000
MTEXTBEGIN
1070
    44
1040
0.7
1000
MTEXTEND
  0
MTEXT
  5
527A
330
1A
100
AcDbEntity
  8
寸法線
 48
10.0
100
AcDbMText
 10
456.998038017374
 20
28.377102713387
 30
0.0
 40
10.0
 41
128.541666666667
 71
     1
 72
     5
  1
C
1001
ACAD
1000
MTEXTBEGIN
1070
    44
1040
0.7
1000
MTEXTEND
  0
MTEXT
  5
527B
330
1A
100
AcDbEntity
  8
寸法線
 48
10.0
100
AcDbMText
 10
483.424338363696
 20
28.377102713387
 30
0.0
 40
10.0
 41
128.541666666667
 71
     1
 72
     5
  1
H
1001
ACAD
1000
MTEXTBEGIN
1070
    44
1040
0.7
1000
MTEXTEND
  0
MTEXT
  5
5299
330
1A
100
AcDbEntity
  8
寸法線
 48
10.0
100
AcDbMText
 10
521.206885609674
 20
86.211978946197
 30
0.0
 40
10.0
 41
190.667987218994
 71
     1
 72
     5
  1
接点容量 AC250V 10A　抵抗負荷
1001
ACAD
1000
MTEXTBEGIN
1070
    44
1040
0.7
1000
MTEXTEND
  0
LEADER
  5
5415
330
1A
100
AcDbEntity
  8
寸法線
 48
10.0
100
AcDbLeader
  3
ISO-25
 73
     0
 75
     1
 40
10.0
 41
36.0
 76
     3
 10
322.942570002852
 20
508.515243418301
 30
0.0
 10
303.731736010383
 20
552.752032339994
 30
0.0
 10
297.731736010383
 20
552.752032339994
 30
0.0
340
5416
1001
ACAD
1000
DSTYLE
1002
{
1070
     5
1000
OPEN30
1070
   147
1040
0.625
1070
    77
1070
     1
1070
    41
1040
6.0
1070
    47
1040
0.1
1070
    48
1040
0.1
1070
    73
1070
     0
1070
   140
1040
10.0
1070
   271
1070
     1
1070
   272
1070
     1
1070
   341
1005
2AEB
1070
   342
1005
2AEB
1002
}
  0
MTEXT
  5
5416
102
{ACAD_REACTORS
330
5415
102
}
330
1A
100
AcDbEntity
  8
寸法線
 48
10.0
100
AcDbMText
 10
297.106736010383
 20
553.377032339994
 30
0.0
 40
10.0
 41
0.0
 71
     9
 72
     1
  1
\A1;4-φ15
  0
DIMENSION
  5
546E
330
1A
100
AcDbEntity
  8
寸法線
 48
10.0
100
AcDbDimension
  2
*D17
 10
812.659388265916
 20
163.272821923799
 30
0.0
 11
666.146791647813
 21
163.272821923799
 31
0.0
 70
   160
  1
400
  3
ISO-25
100
AcDbAlignedDimension
 13
511.341568193101
 23
189.183462309096
 33
0.0
 14
812.659388265916
 24
330.588902505731
 34
0.0
100
AcDbRotatedDimension
1001
ACAD
1000
DSTYLE
1002
{
1070
     5
1000
OPEN30
1070
    41
1040
6.0
1070
    47
1040
0.1
1070
    48
1040
0.1
1070
    73
1070
     0
1070
   140
1040
10.0
1070
   271
1070
     1
1070
   272
1070
     1
1070
   341
1005
2AEB
1002
}
  0
LINE
  5
55B4
330
1A
100
AcDbEntity
  8
寸法線
 48
10.0
100
AcDbLine
 10
374.207827196545
 20
150.543987618546
 30
0.0
 11
374.207827196545
 21
211.354819843475
 31
0.0
  0
LINE
  5
5AB8
102
{ACAD_REACTORS
330
6820
102
}
330
1A
100
AcDbEntity
  8
中心線
 48
10.0
100
AcDbLine
 10
929.659328265916
 20
405.721723937923
 30
0.0
 11
929.659328265916
 21
377.954487516458
 31
0.0
  0
LINE
  5
5AE9
330
1A
100
AcDbEntity
  8
外形線
100
AcDbLine
 10
611.341568193101
 20
432.250017339994
 30
0.0
 11
611.341568193101
 21
477.250017339994
 31
0.0
  0
LINE
  5
5AEA
330
1A
100
AcDbEntity
  8
外形線
100
AcDbLine
 10
586.341568193101
 20
432.250017339994
 30
0.0
 11
586.341568193101
 21
477.250017339994
 31
0.0
  0
LINE
  5
5AEB
330
1A
100
AcDbEntity
  8
中心線
  6
CONTINUOUS
100
AcDbLine
 10
586.341568193101
 20
471.250017339994
 30
0.0
 11
596.341568193101
 21
471.250017339994
 31
0.0
  0
LINE
  5
5AEC
330
1A
100
AcDbEntity
  8
中心線
  6
CONTINUOUS
100
AcDbLine
 10
591.341568193101
 20
476.250017339994
 30
0.0
 11
591.341568193101
 21
466.250017339994
 31
0.0
  0
LINE
  5
5AEE
330
1A
100
AcDbEntity
  8
中心線
  6
CONTINUOUS
100
AcDbLine
 10
611.341568193101
 20
471.250017339994
 30
0.0
 11
601.341568193101
 21
471.250017339994
 31
0.0
  0
LINE
  5
5AEF
330
1A
100
AcDbEntity
  8
中心線
  6
CONTINUOUS
100
AcDbLine
 10
606.341568193101
 20
476.250017339994
 30
0.0
 11
606.341568193101
 21
466.250017339994
 31
0.0
  0
LINE
  5
5AF1
330
1A
100
AcDbEntity
  8
外形線
100
AcDbLine
 10
586.341568193101
 20
477.250017339994
 30
0.0
 11
611.341568193101
 21
477.250017339994
 31
0.0
  0
LINE
  5
5AF6
330
1A
100
AcDbEntity
  8
外形線
100
AcDbLine
 10
583.341568193101
 20
452.390397339994
 30
0.0
 11
583.341568193101
 21
462.109634839994
 31
0.0
  0
LINE
  5
5AF8
330
1A
100
AcDbEntity
  8
外形線
100
AcDbLine
 10
511.341568193101
 20
447.250017339994
 30
0.0
 11
511.341568193101
 21
217.250017339994
 31
0.0
  0
LINE
  5
5AF9
330
1A
100
AcDbEntity
  8
外形線
100
AcDbLine
 10
661.341568193101
 20
447.250017339994
 30
0.0
 11
661.341568193101
 21
217.250017339994
 31
0.0
  0
LINE
  5
5AFA
330
1A
100
AcDbEntity
  8
外形線
100
AcDbLine
 10
586.341568193101
 20
432.250017339994
 30
0.0
 11
611.341568193101
 21
432.250017339994
 31
0.0
  0
LINE
  5
5AFB
330
1A
100
AcDbEntity
  8
外形線
100
AcDbLine
 10
611.341568193101
 20
447.250017339994
 30
0.0
 11
661.341568193101
 21
447.250017339994
 31
0.0
  0
LINE
  5
5AFC
330
1A
100
AcDbEntity
  8
外形線
100
AcDbLine
 10
586.341568193101
 20
447.250017339994
 30
0.0
 11
511.341568193101
 21
447.250017339994
 31
0.0
  0
LINE
  5
5AFD
330
1A
100
AcDbEntity
  8
中心線
  6
CONTINUOUS
100
AcDbLine
 10
586.341568193101
 20
437.109672339994
 30
0.0
 11
596.341568193101
 21
437.109672339994
 31
0.0
  0
LINE
  5
5AFE
330
1A
100
AcDbEntity
  8
中心線
  6
CONTINUOUS
100
AcDbLine
 10
591.341568193101
 20
432.109672339994
 30
0.0
 11
591.341568193101
 21
442.109672339994
 31
0.0
  0
LINE
  5
5AFF
330
1A
100
AcDbEntity
  8
中心線
  6
CONTINUOUS
100
AcDbLine
 10
611.341568193101
 20
437.109672339994
 30
0.0
 11
601.341568193101
 21
437.109672339994
 31
0.0
  0
LINE
  5
5B00
330
1A
100
AcDbEntity
  8
中心線
  6
CONTINUOUS
100
AcDbLine
 10
606.341568193101
 20
432.109672339994
 30
0.0
 11
606.341568193101
 21
442.109672339994
 31
0.0
  0
CIRCLE
  5
5B01
330
1A
100
AcDbEntity
  8
外形線
100
AcDbCircle
 10
591.341568193101
 20
437.109672339994
 30
0.0
 40
2.5
  0
CIRCLE
  5
5B02
330
1A
100
AcDbEntity
  8
外形線
100
AcDbCircle
 10
606.341568193101
 20
437.109672339994
 30
0.0
 40
2.5
  0
LINE
  5
5B03
330
1A
100
AcDbEntity
  8
外形線
100
AcDbLine
 10
511.341568193101
 20
217.250017339994
 30
0.0
 11
661.341568193101
 21
217.250017339994
 31
0.0
  0
DIMENSION
  5
5B17
330
1A
100
AcDbEntity
  8
寸法線
 48
10.0
100
AcDbDimension
  2
*D18
 10
661.341568193101
 20
190.433462309096
 30
0.0
 11
586.341568193101
 21
196.058462309096
 31
0.0
 70
    32
  3
ISO-25
100
AcDbAlignedDimension
 13
511.341568193101
 23
217.250017339994
 33
0.0
 14
661.341568193101
 24
217.250017339994
 34
0.0
100
AcDbRotatedDimension
1001
ACAD
1000
DSTYLE
1002
{
1070
     5
1000
OPEN30
1070
    41
1040
6.0
1070
    47
1040
0.1
1070
    48
1040
0.1
1070
    73
1070
     0
1070
   140
1040
10.0
1070
   271
1070
     1
1070
   272
1070
     1
1070
   341
1005
2AEB
1002
}
  0
LINE
  5
5B9B
330
1A
100
AcDbEntity
  8
中心線
  6
CONTINUOUS
100
AcDbLine
 10
391.252179696549
 20
471.250017339994
 30
0.0
 11
361.907182196548
 21
471.250017339994
 31
0.0
  0
LINE
  5
5BA5
330
1A
100
AcDbEntity
  8
外形線
100
AcDbLine
 10
372.332827196549
 20
447.258487339994
 30
0.0
 11
372.332827196549
 21
217.258449839994
 31
0.0
  0
LINE
  5
5BA6
330
1A
100
AcDbEntity
  8
外形線
100
AcDbLine
 10
376.082827196549
 20
447.258487339994
 30
0.0
 11
376.082827196549
 21
217.258449839994
 31
0.0
  0
LINE
  5
5BA7
330
1A
100
AcDbEntity
  8
外形線
100
AcDbLine
 10
366.207827196549
 20
477.250017339994
 30
0.0
 11
366.207827196549
 21
432.250017339994
 31
0.0
  0
LINE
  5
5BA8
330
1A
100
AcDbEntity
  8
外形線
100
AcDbLine
 10
382.207827196549
 20
477.250017339994
 30
0.0
 11
382.207827196549
 21
432.250017339994
 31
0.0
  0
LINE
  5
5BAD
330
1A
100
AcDbEntity
  8
中心線
  6
CONTINUOUS
100
AcDbLine
 10
363.317457196549
 20
437.118142339994
 30
0.0
 11
385.052324696549
 21
437.118142339994
 31
0.0
  0
ARC
  5
5BAE
330
1A
100
AcDbEntity
  8
外形線
100
AcDbCircle
 10
382.207828111613
 20
437.118142339994
 30
0.0
 40
2.5
100
AcDbArc
 50
270.0
 51
90.000020971718
  0
ARC
  5
5BAF
330
1A
100
AcDbEntity
  8
外形線
100
AcDbCircle
 10
366.207826379561
 20
437.118142339994
 30
0.0
 40
2.5
100
AcDbArc
 50
89.999981276032
 51
270.0
  0
LINE
  5
5BB0
330
1A
100
AcDbEntity
  8
外形線
100
AcDbLine
 10
372.332827196549
 20
447.258487339994
 30
0.0
 11
376.082827196549
 21
447.258487339994
 31
0.0
  0
LINE
  5
5BB1
330
1A
100
AcDbEntity
  8
外形線
100
AcDbLine
 10
373.207827196549
 20
462.14899682556
 30
0.0
 11
373.207827196549
 21
477.250017339994
 31
0.0
  0
LINE
  5
5BB4
330
1A
100
AcDbEntity
  8
外形線
100
AcDbLine
 10
375.207827196549
 20
462.14899682556
 30
0.0
 11
375.207827196549
 21
477.250017339994
 31
0.0
  0
LINE
  5
5BBB
330
1A
100
AcDbEntity
  8
外形線
100
AcDbLine
 10
372.332827196549
 20
217.258487339994
 30
0.0
 11
376.082827196549
 21
217.258487339994
 31
0.0
  0
DIMENSION
  5
5BBE
330
1A
100
AcDbEntity
  8
寸法線
 48
10.0
100
AcDbDimension
  2
*D19
 10
478.340895136857
 20
217.250017339994
 30
0.0
 11
478.340895136857
 21
336.603261843224
 31
0.0
 70
   160
  3
ISO-25
100
AcDbAlignedDimension
 13
572.021522291362
 23
457.250017339994
 33
0.0
 14
511.341568193101
 24
217.250017339994
 34
0.0
 50
90.0
100
AcDbRotatedDimension
1001
ACAD
1000
DSTYLE
1002
{
1070
     5
1000
OPEN30
1070
    41
1040
6.0
1070
    47
1040
0.1
1070
    48
1040
0.1
1070
    73
1070
     0
1070
   140
1040
10.0
1070
   271
1070
     1
1070
   272
1070
     1
1070
   341
1005
2AEB
1002
}
  0
LINE
  5
5C4C
102
{ACAD_REACTORS
330
5C5C
102
}
330
1A
100
AcDbEntity
  8
下書線
 48
10.0
100
AcDbLine
 10
267.496464286493
 20
228.407404548256
 30
0.0
 11
256.930983472736
 21
205.749700282535
 31
0.0
  0
HATCH
  5
5C5C
330
1A
100
AcDbEntity
  8
細線
 48
10.0
100
AcDbHatch
 10
0.0
 20
0.0
 30
0.0
210
0.0
220
0.0
230
1.0
  2
ANSI31
 70
     0
 71
     1
 91
        3
 92
        7
 72
     1
 73
     1
 93
        4
 10
287.8476418351281
 20
219.9776476082292
 42
-0.0218204251907326
 10
267.496464286493
 20
228.4074045482556
 42
0.0
 10
262.2137398878596
 20
217.0785867451236
 42
0.0218202190220487
 10
283.5723982014663
 20
208.2315285956632
 42
0.0
 97
        4
330
3100
330
5C4C
330
30FF
330
3110
 92
        7
 72
     1
 73
     1
 93
        4
 10
283.5723982014663
 20
208.2315285956632
 42
-0.0218202190220487
 10
262.2137398878596
 20
217.0785867451235
 42
0.0
 10
256.9309834727358
 20
205.749700282535
 42
0.0218201967385993
 10
279.2971255234632
 20
196.4853297845361
 42
0.0
 97
        4
330
30FF
330
5C4C
330
30FE
330
3110
 92
        7
 72
     1
 73
     1
 93
        4
 10
308.855948983313
 20
213.3537568604895
 42
-0.0218202826865669
 10
287.8476418351281
 20
219.9776476082292
 42
0.0
 10
283.5723982014663
 20
208.2315285956632
 42
0.0218200816929291
 10
305.6207156841108
 20
201.2797160256343
 42
0.0
 97
        4
330
3100
330
3110
330
30FF
330
3108
 75
     0
 76
     1
 52
0.0
 41
1.0
 77
     0
 78
     1
 53
45.0
 43
147.988303540568
 44
0.0
 45
-2.245064030267288
 46
2.245064030267288
 79
     0
 47
0.473927294416
 98
        3
 10
278.895099832024
 20
214.8984659917874
 10
271.6679725355513
 20
207.3058418800174
 10
296.1290156959037
 20
212.3058622334415
  0
ARC
  5
5C63
330
1A
100
AcDbEntity
  8
寸法線
100
AcDbCircle
 10
373.485527105024
 20
445.003202609421
 30
0.0
 40
258.976785
100
AcDbArc
 50
256.867464684799
 51
265.579001480865
  0
MTEXT
  5
5C82
330
1A
100
AcDbEntity
  8
寸法線
 48
10.0
100
AcDbMText
 10
924.833700777688
 20
553.377032339994
 30
0.0
 40
10.0
 41
0.0
 71
     7
 72
     1
  1
\A1;AC7A
  0
MTEXT
  5
5C83
330
1A
100
AcDbEntity
  8
寸法線
 48
10.0
100
AcDbMText
 10
964.274302584447
 20
553.377032339994
 30
0.0
 40
10.0
 41
0.0
 71
     7
 72
     1
  1
\A1;AC7A
  0
LINE
  5
5C85
330
1A
100
AcDbEntity
  8
外形線
 48
10.0
100
AcDbLine
 10
681.341568193101
 20
462.250017339994
 30
0.0
 11
611.341568193101
 21
462.250017339994
 31
0.0
  0
LINE
  5
5C86
330
1A
100
AcDbEntity
  8
外形線
 48
10.0
100
AcDbLine
 10
681.341568193101
 20
452.250017339994
 30
0.0
 11
611.341568193101
 21
452.250017339994
 31
0.0
  0
LINE
  5
5C87
330
1A
100
AcDbEntity
  8
外形線
 48
10.0
100
AcDbLine
 10
586.341568193101
 20
462.250017339994
 30
0.0
 11
583.341568193101
 21
462.250017339994
 31
0.0
  0
LINE
  5
5C88
330
1A
100
AcDbEntity
  8
外形線
 48
10.0
100
AcDbLine
 10
586.341568193101
 20
452.250017339994
 30
0.0
 11
583.341568193101
 21
452.250017339994
 31
0.0
  0
LINE
  5
5C8B
330
1A
100
AcDbEntity
  8
外形線
 48
10.0
100
AcDbLine
 10
681.341568193101
 20
440.250017339994
 30
0.0
 11
739.736486528753
 21
440.250017339994
 31
0.0
  0
LINE
  5
5C8C
330
1A
100
AcDbEntity
  8
外形線
 48
10.0
100
AcDbLine
 10
681.341568193101
 20
474.250017339994
 30
0.0
 11
739.803472957636
 21
474.250017339994
 31
0.0
  0
LINE
  5
5C90
330
1A
100
AcDbEntity
  8
外形線
 48
10.0
100
AcDbLine
 10
746.152937622393
 20
462.250017339994
 30
0.0
 11
737.760711728338
 21
462.250017339994
 31
0.0
  0
LINE
  5
5C91
330
1A
100
AcDbEntity
  8
外形線
 48
10.0
100
AcDbLine
 10
746.152937622393
 20
452.250017339994
 30
0.0
 11
741.753203401617
 21
452.250017339994
 31
0.0
  0
LINE
  5
5C93
330
1A
100
AcDbEntity
  8
外形線
 48
10.0
100
AcDbLine
 10
750.39512748429
 20
452.250017339994
 30
0.0
 11
758.609843755144
 21
452.250017339994
 31
0.0
  0
ARC
  5
5C95
330
1A
100
AcDbEntity
  8
細線
100
AcDbCircle
 10
753.99943713371
 20
454.750017339994
 30
0.0
 40
4.386461905557155
100
AcDbArc
 50
145.254277617515
 51
214.745722382486
  0
ARC
  5
5C96
330
1A
100
AcDbEntity
  8
細線
100
AcDbCircle
 10
746.790805365601
 20
454.750017339994
 30
0.0
 40
4.386472151429488
100
AcDbArc
 50
325.25437044442
 51
34.74562955558
  0
ARC
  5
5C97
330
1A
100
AcDbEntity
  8
細線
100
AcDbCircle
 10
742.549311214117
 20
448.750000524168
 30
0.0
 40
16.43748226500877
100
AcDbArc
 50
328.861418420522
 51
31.138732408716
  0
ARC
  5
5C98
330
1A
100
AcDbEntity
  8
細線
100
AcDbCircle
 10
769.998810910291
 20
448.750051188678
 30
0.0
 40
15.85194664062627
100
AcDbArc
 50
167.244507237033
 51
212.426271418702
  0
LINE
  5
5C99
330
1A
100
AcDbEntity
  8
外形線
 48
10.0
100
AcDbLine
 10
750.39512748429
 20
462.250017339994
 30
0.0
 11
754.617352081866
 21
462.250017339994
 31
0.0
  0
LINE
  5
5C9A
330
1A
100
AcDbEntity
  8
外形線
 48
10.0
100
AcDbLine
 10
812.659388265916
 20
474.250017339994
 30
0.0
 11
756.550080178214
 21
474.250017339994
 31
0.0
  0
ARC
  5
5C9B
330
1A
100
AcDbEntity
  8
細線
100
AcDbCircle
 10
753.920627709426
 20
459.750017339994
 30
0.0
 40
4.321938435174104
100
AcDbArc
 50
144.658813390727
 51
215.341186609273
  0
ARC
  5
5C9C
330
1A
100
AcDbEntity
  8
細線
100
AcDbCircle
 10
770.609840578987
 20
465.749970737764
 30
0.0
 40
16.37099148240944
100
AcDbArc
 50
148.720462679744
 51
211.279200513766
  0
LINE
  5
5C9F
330
1A
100
AcDbEntity
  8
外形線
 48
10.0
100
AcDbLine
 10
812.659388265916
 20
440.250017339994
 30
0.0
 11
756.483093749332
 21
440.250017339994
 31
0.0
  0
DIMENSION
  5
5CB0
330
1A
100
AcDbEntity
  8
寸法線
 48
10.0
100
AcDbDimension
  2
*D20
 10
668.046890757447
 20
462.250017339994
 30
0.0
 11
668.046890757447
 21
479.378954347868
 31
0.0
 70
   160
  3
ISO-25
100
AcDbAlignedDimension
 13
681.80210560149
 23
452.250017339994
 33
0.0
 14
681.80210560149
 24
462.250017339994
 34
0.0
 50
90.0
100
AcDbRotatedDimension
1001
ACAD
1000
DSTYLE
1002
{
1070
     5
1000
OPEN30
1070
    41
1040
6.0
1070
    47
1040
0.1
1070
    48
1040
0.1
1070
    73
1070
     0
1070
   140
1040
10.0
1070
   271
1070
     1
1070
   272
1070
     1
1070
   341
1005
2AEB
1002
}
  0
ARC
  5
5CCA
330
1A
100
AcDbEntity
  8
外形線
 48
10.0
100
AcDbCircle
 10
374.20782719655
 20
457.250017339994
 30
0.0
 40
77.49999999999999
100
AcDbArc
 50
271.386323478736
 51
268.613676521262
  0
LEADER
  5
5CD4
330
1A
100
AcDbEntity
  8
寸法線
 48
10.0
100
AcDbLeader
  3
ISO-25
 73
     0
 76
     3
 10
599.970171297943
 20
477.208634607241
 30
0.0
 10
599.39050268652
 20
552.705428485192
 30
0.0
 10
587.99549842502
 20
552.705428485192
 30
0.0
340
5CD5
1001
ACAD
1000
DSTYLE
1002
{
1070
     5
1000
OPEN30
1070
   147
1040
0.625
1070
    77
1070
     1
1070
    41
1040
6.0
1070
    47
1040
0.1
1070
    48
1040
0.1
1070
    73
1070
     0
1070
   140
1040
10.0
1070
   271
1070
     1
1070
   272
1070
     1
1070
   341
1005
2AEB
1070
   342
1005
2AEB
1002
}
  0
MTEXT
  5
5CD5
102
{ACAD_REACTORS
330
5CD4
102
}
330
1A
100
AcDbEntity
  8
寸法線
 48
10.0
100
AcDbMText
 10
524.48621355029
 20
553.330428485192
 30
0.0
 40
10.0
 41
0.0
 71
     9
 72
     1
  1
\A1;
  0
LEADER
  5
5CD6
330
1A
100
AcDbEntity
  8
寸法線
 48
10.0
100
AcDbLeader
  3
ISO-25
 76
     3
 10
532.025913085419
 20
447.250017339994
 30
0.0
 10
532.025913085419
 20
552.705428485192
 30
0.0
 10
520.630908823919
 20
552.705428485192
 30
0.0
1001
ACAD
1000
DSTYLE
1002
{
1070
     5
1000
OPEN30
1070
   147
1040
0.625
1070
    77
1070
     1
1070
    41
1040
6.0
1070
    47
1040
0.1
1070
    48
1040
0.1
1070
    73
1070
     0
1070
   140
1040
10.0
1070
   271
1070
     1
1070
   272
1070
     1
1070
   341
1005
2AEB
1070
   342
1005
2AEB
1002
}
  0
LEADER
  5
5CD7
330
1A
100
AcDbEntity
  8
寸法線
 48
10.0
100
AcDbLeader
  3
ISO-25
 76
     3
 10
676.583357448809
 20
462.280811667471
 30
0.0
 10
676.583357448809
 20
552.705428485192
 30
0.0
 10
664.518059665135
 20
552.705428485192
 30
0.0
1001
ACAD
1000
DSTYLE
1002
{
1070
     5
1000
OPEN30
1070
   147
1040
0.625
1070
    77
1070
     1
1070
    41
1040
6.0
1070
    47
1040
0.1
1070
    48
1040
0.1
1070
    73
1070
     0
1070
   140
1040
10.0
1070
   271
1070
     1
1070
   272
1070
     1
1070
   341
1005
2AEB
1070
   342
1005
2AEB
1002
}
  0
LEADER
  5
5CD8
330
1A
100
AcDbEntity
  8
寸法線
 48
10.0
100
AcDbLeader
  3
ISO-25
 76
     3
 10
728.906813704516
 20
474.250017339994
 30
0.0
 10
743.746824632833
 20
552.705428485192
 30
0.0
 10
733.022113893507
 20
552.705428485192
 30
0.0
1001
ACAD
1000
DSTYLE
1002
{
1070
     5
1000
OPEN30
1070
   147
1040
0.625
1070
    77
1070
     1
1070
    41
1040
6.0
1070
    47
1040
0.1
1070
    48
1040
0.1
1070
    73
1070
     0
1070
   140
1040
10.0
1070
   271
1070
     1
1070
   272
1070
     1
1070
   341
1005
2AEB
1070
   342
1005
2AEB
1002
}
  0
LEADER
  5
5CD9
330
1A
100
AcDbEntity
  8
寸法線
 48
10.0
100
AcDbLeader
  3
ISO-25
 76
     3
 10
818.229668432553
 20
534.957682089172
 30
0.0
 10
818.229668432553
 20
552.707698480394
 30
0.0
 10
805.829222449338
 20
552.707698480394
 30
0.0
1001
ACAD
1000
DSTYLE
1002
{
1070
     5
1000
OPEN30
1070
   147
1040
0.625
1070
    77
1070
     1
1070
    41
1040
6.0
1070
    47
1040
0.1
1070
    48
1040
0.1
1070
    73
1070
     0
1070
   140
1040
10.0
1070
   271
1070
     1
1070
   272
1070
     1
1070
   341
1005
2AEB
1070
   342
1005
2AEB
1002
}
  0
LEADER
  5
5CDA
330
1A
100
AcDbEntity
  8
寸法線
 48
10.0
100
AcDbLeader
  3
ISO-25
 76
     3
 10
893.009282487663
 20
530.27399546071
 30
0.0
 10
878.59795018411
 20
552.712697055685
 30
0.0
 10
892.674134288122
 20
552.712697055685
 30
0.0
1001
ACAD
1000
DSTYLE
1002
{
1070
     5
1000
OPEN30
1070
   147
1040
0.625
1070
    77
1070
     1
1070
    41
1040
6.0
1070
    47
1040
0.1
1070
    48
1040
0.1
1070
    73
1070
     0
1070
   140
1040
10.0
1070
   271
1070
     1
1070
   272
1070
     1
1070
   341
1005
2AEB
1070
   342
1005
2AEB
1002
}
  0
LEADER
  5
5CDB
330
1A
100
AcDbEntity
  8
寸法線
 48
10.0
100
AcDbLeader
  3
ISO-25
 76
     3
 10
923.507676584843
 20
514.533414429286
 30
0.0
 10
923.507676584843
 20
552.712697055685
 30
0.0
 10
935.572977245426
 20
552.712697055685
 30
0.0
1001
ACAD
1000
DSTYLE
1002
{
1070
     5
1000
OPEN30
1070
   147
1040
0.625
1070
    77
1070
     1
1070
    41
1040
6.0
1070
    47
1040
0.1
1070
    48
1040
0.1
1070
    73
1070
     0
1070
   140
1040
10.0
1070
   271
1070
     1
1070
   272
1070
     1
1070
   341
1005
2AEB
1070
   342
1005
2AEB
1002
}
  0
LEADER
  5
5CDC
330
1A
100
AcDbEntity
  8
寸法線
 48
10.0
100
AcDbLeader
  3
ISO-25
 76
     3
 10
962.384752655286
 20
530.27399546071
 30
0.0
 10
962.384752655286
 20
552.712697055685
 30
0.0
 10
974.450053315868
 20
552.712697055685
 30
0.0
1001
ACAD
1000
DSTYLE
1002
{
1070
     5
1000
OPEN30
1070
   147
1040
0.625
1070
    77
1070
     1
1070
    41
1040
6.0
1070
    47
1040
0.1
1070
    48
1040
0.1
1070
    73
1070
     0
1070
   140
1040
10.0
1070
   271
1070
     1
1070
   272
1070
     1
1070
   341
1005
2AEB
1070
   342
1005
2AEB
1002
}
  0
ARC
  5
5D53
330
1A
100
AcDbEntity
  8
外形線
 48
10.0
100
AcDbCircle
 10
374.207827196549
 20
457.250017339994
 30
0.0
 40
17.00000000000018
100
AcDbArc
 50
118.072486935852
 51
241.927513064148
  0
ARC
  5
5D54
330
1A
100
AcDbEntity
  8
外形線
 48
10.0
100
AcDbCircle
 10
374.207827196548
 20
457.250017339994
 30
0.0
 40
17.00000000000021
100
AcDbArc
 50
298.072486935854
 51
36.026395203316
  0
LINE
  5
5D59
330
1A
100
AcDbEntity
  8
外形線
 48
10.0
100
AcDbLine
 10
366.207827196549
 20
477.250017339994
 30
0.0
 11
373.207827196549
 21
477.250017339994
 31
0.0
  0
LINE
  5
5D5A
330
1A
100
AcDbEntity
  8
外形線
 48
10.0
100
AcDbLine
 10
375.207827196549
 20
477.250017339994
 30
0.0
 11
382.207827196549
 21
477.250017339994
 31
0.0
  0
LINE
  5
5D5D
330
1A
100
AcDbEntity
  8
外形線
 48
10.0
100
AcDbLine
 10
372.332827196549
 20
432.250017339994
 30
0.0
 11
366.207827196549
 21
432.250017339994
 31
0.0
  0
LINE
  5
5D5E
330
1A
100
AcDbEntity
  8
外形線
 48
10.0
100
AcDbLine
 10
376.082827196549
 20
432.250017339994
 30
0.0
 11
382.207827196549
 21
432.250017339994
 31
0.0
  0
CIRCLE
  5
5D66
330
1A
100
AcDbEntity
  8
外形線
 48
10.0
100
AcDbCircle
 10
374.207827196549
 20
457.250017339994
 30
0.0
 40
5.0
  0
LWPOLYLINE
  5
5F7B
330
1A
100
AcDbEntity
  8
外形線
 48
10.0
100
AcDbPolyline
 90
        6
 70
     1
 43
0.0
 10
383.207827196549
 20
467.000017339994
 10
387.707827196549
 20
467.000017339994
 10
388.207827196549
 20
467.500017339994
 10
388.207827196549
 20
475.000017339994
 10
387.707827196549
 20
475.500017339994
 10
383.207827196549
 20
475.500017339994
  0
LINE
  5
5F7C
330
1A
100
AcDbEntity
  8
細線
 48
10.0
100
AcDbLine
 10
383.907827196549
 20
467.000017339994
 30
0.0
 11
383.907827196549
 21
475.500017339994
 31
0.0
  0
LINE
  5
5F7D
330
1A
100
AcDbEntity
  8
細線
 48
10.0
100
AcDbLine
 10
387.507827196549
 20
467.000017339994
 30
0.0
 11
387.507827196549
 21
475.500017339994
 31
0.0
  0
LINE
  5
5F7E
330
1A
100
AcDbEntity
  8
細線
 48
10.0
100
AcDbLine
 10
387.507827196549
 20
474.750017339994
 30
0.0
 11
383.907827196549
 21
474.750017339994
 31
0.0
  0
LINE
  5
5F7F
330
1A
100
AcDbEntity
  8
細線
 48
10.0
100
AcDbLine
 10
387.507827196549
 20
473.750017339994
 30
0.0
 11
383.907827196549
 21
473.750017339994
 31
0.0
  0
LINE
  5
5F80
330
1A
100
AcDbEntity
  8
細線
 48
10.0
100
AcDbLine
 10
387.507827196549
 20
471.750017339994
 30
0.0
 11
383.907827196549
 21
471.750017339994
 31
0.0
  0
LINE
  5
5F81
330
1A
100
AcDbEntity
  8
細線
 48
10.0
100
AcDbLine
 10
387.507827196549
 20
472.750017339994
 30
0.0
 11
383.907827196549
 21
472.750017339994
 31
0.0
  0
LINE
  5
5F82
330
1A
100
AcDbEntity
  8
細線
 48
10.0
100
AcDbLine
 10
387.507827196549
 20
468.750017339994
 30
0.0
 11
383.907827196549
 21
468.750017339994
 31
0.0
  0
LINE
  5
5F83
330
1A
100
AcDbEntity
  8
細線
 48
10.0
100
AcDbLine
 10
387.507827196549
 20
467.750017339994
 30
0.0
 11
383.907827196549
 21
467.750017339994
 31
0.0
  0
LINE
  5
5F84
330
1A
100
AcDbEntity
  8
細線
 48
10.0
100
AcDbLine
 10
387.507827196549
 20
469.750017339994
 30
0.0
 11
383.907827196549
 21
469.750017339994
 31
0.0
  0
LINE
  5
5F85
330
1A
100
AcDbEntity
  8
細線
 48
10.0
100
AcDbLine
 10
387.507827196549
 20
470.750017339994
 30
0.0
 11
383.907827196549
 21
470.750017339994
 31
0.0
  0
LWPOLYLINE
  5
5F86
330
1A
100
AcDbEntity
  8
外形線
 48
10.0
100
AcDbPolyline
 90
        4
 70
     1
 43
0.0
 10
382.207827196549
 20
467.000017339994
 10
383.207827196549
 20
467.000017339994
 10
383.207827196549
 20
475.500017339994
 10
382.207827196549
 20
475.500017339994
  0
LWPOLYLINE
  5
5F87
330
1A
100
AcDbEntity
  8
外形線
 48
10.0
100
AcDbPolyline
 90
        2
 70
     0
 43
0.0
 10
373.207827196549
 20
473.250017339994
 10
375.207827196549
 20
473.250017339994
  0
LWPOLYLINE
  5
5F88
330
1A
100
AcDbEntity
  8
外形線
 48
10.0
100
AcDbPolyline
 90
        2
 70
     0
 43
0.0
 10
375.207827196549
 20
469.250017339994
 10
373.207827196549
 20
469.250017339994
  0
LWPOLYLINE
  5
5F89
330
1A
100
AcDbEntity
  8
細線
 48
10.0
100
AcDbPolyline
 90
        2
 70
     0
 43
0.0
 10
373.207827196549
 20
472.871017339994
 10
375.207827196549
 20
472.871017339994
  0
LWPOLYLINE
  5
5F8A
330
1A
100
AcDbEntity
  8
細線
 48
10.0
100
AcDbPolyline
 90
        2
 70
     0
 43
0.0
 10
373.207827196549
 20
469.629017339994
 10
375.207827196549
 20
469.629017339994
  0
CIRCLE
  5
5FB3
330
1A
100
AcDbEntity
  8
外形線
 48
10.0
100
AcDbCircle
 10
591.341568193101
 20
471.250017339994
 30
0.0
 40
4.25
  0
LWPOLYLINE
  5
5FB4
330
1A
100
AcDbEntity
  8
外形線
 48
10.0
100
AcDbPolyline
 90
        6
 70
     1
 43
0.0
 10
589.341568193101
 20
470.095316801614
 10
591.341568193101
 20
468.940616263235
 10
593.341568193101
 20
470.095316801614
 10
593.341568193101
 20
472.404717878373
 10
591.341568193101
 20
473.559418416752
 10
589.341568193101
 20
472.404717878373
  0
LWPOLYLINE
  5
615A
330
1A
100
AcDbEntity
  8
外形線
 48
10.0
100
AcDbPolyline
 90
        6
 70
     1
 43
0.0
 10
604.341568193101
 20
470.095316801614
 10
606.341568193101
 20
468.940616263235
 10
608.341568193101
 20
470.095316801614
 10
608.341568193101
 20
472.404717878373
 10
606.341568193101
 20
473.559418416752
 10
604.341568193101
 20
472.404717878373
  0
CIRCLE
  5
615B
330
1A
100
AcDbEntity
  8
外形線
 48
10.0
100
AcDbCircle
 10
606.341568193101
 20
471.250017339994
 30
0.0
 40
4.25
  0
LINE
  5
617B
330
1A
100
AcDbEntity
  8
中心線
 48
10.0
100
AcDbLine
 10
586.341568193101
 20
432.250017339994
 30
0.0
 11
586.341568193101
 21
210.476201052096
 31
0.0
  0
DIMENSION
  5
61C1
330
1A
100
AcDbEntity
  8
寸法線
 48
10.0
100
AcDbDimension
  2
*D22
 10
681.341568193101
 20
407.045564281537
 30
0.0
 11
671.341568193101
 21
412.67577261487
 31
0.0
 70
    32
  3
ISO-25
100
AcDbAlignedDimension
 13
661.341568193101
 23
447.250017339994
 33
0.0
 14
681.341568193101
 24
440.250017339994
 34
0.0
100
AcDbRotatedDimension
1001
ACAD
1000
DSTYLE
1002
{
1070
     5
1000
OPEN30
1070
    41
1040
6.0
1070
    47
1040
0.1
1070
    48
1040
0.1
1070
    73
1070
     0
1070
   140
1040
10.0
1070
   271
1070
     1
1070
   272
1070
     1
1070
   341
1005
2AEB
1002
}
  0
DIMENSION
  5
61CE
330
1A
100
AcDbEntity
  8
寸法線
 48
10.0
100
AcDbDimension
  2
*D23
 10
661.341568193101
 20
407.045564281537
 30
0.0
 11
636.341568193101
 21
412.670564281537
 31
0.0
 70
    32
  3
ISO-25
100
AcDbAlignedDimension
 13
611.341568193101
 23
432.250017339994
 33
0.0
 14
661.341568193101
 24
447.250017339994
 34
0.0
100
AcDbRotatedDimension
1001
ACAD
1000
DSTYLE
1002
{
1070
     5
1000
OPEN30
1070
    41
1040
6.0
1070
    47
1040
0.1
1070
    48
1040
0.1
1070
    73
1070
     0
1070
   140
1040
10.0
1070
   271
1070
     1
1070
   272
1070
     1
1070
   341
1005
2AEB
1002
}
  0
LINE
  5
6214
102
{ACAD_REACTORS
330
67FE
102
}
330
1A
100
AcDbEntity
  8
外形線
 48
10.0
100
AcDbLine
 10
957.659328265916
 20
530.250046473968
 30
0.0
 11
973.659328265916
 21
530.250046473968
 31
0.0
  0
LINE
  5
6215
102
{ACAD_REACTORS
330
67FE
102
}
330
1A
100
AcDbEntity
  8
外形線
 48
10.0
100
AcDbLine
 10
973.659328265916
 20
530.250046473968
 30
0.0
 11
973.659328265916
 21
384.249946473968
 31
0.0
  0
LINE
  5
6216
102
{ACAD_REACTORS
330
67FE
330
6820
102
}
330
1A
100
AcDbEntity
  8
外形線
 48
10.0
100
AcDbLine
 10
973.659328265916
 20
384.249946473968
 30
0.0
 11
901.659328265916
 21
384.249946473968
 31
0.0
  0
LINE
  5
6217
102
{ACAD_REACTORS
330
67FE
102
}
330
1A
100
AcDbEntity
  8
外形線
 48
10.0
100
AcDbLine
 10
957.659328265916
 20
384.249946473968
 30
0.0
 11
957.659328265916
 21
530.250046473968
 31
0.0
  0
DIMENSION
  5
626D
330
1A
100
AcDbEntity
  8
寸法線
 48
10.0
100
AcDbDimension
  2
*D24
 10
957.659328265916
 20
355.234910203697
 30
0.0
 11
929.659328265916
 21
360.859910203697
 31
0.0
 70
    32
  3
ISO-25
100
AcDbAlignedDimension
 13
901.659328265916
 23
384.249946473968
 33
0.0
 14
957.659328265916
 24
384.249946473968
 34
0.0
100
AcDbRotatedDimension
1001
ACAD
1000
DSTYLE
1002
{
1070
     5
1000
OPEN30
1070
    41
1040
6.0
1070
    47
1040
0.1
1070
    48
1040
0.1
1070
    73
1070
     0
1070
   140
1040
10.0
1070
   271
1070
     1
1070
   272
1070
     1
1070
   341
1005
2AEB
1002
}
  0
DIMENSION
  5
627A
330
1A
100
AcDbEntity
  8
寸法線
 48
10.0
100
AcDbDimension
  2
*D25
 10
973.659328265916
 20
355.234910203697
 30
0.0
 11
965.659328265916
 21
360.859910203697
 31
0.0
 70
    32
  3
ISO-25
100
AcDbAlignedDimension
 13
957.659328265916
 23
384.249946473968
 33
0.0
 14
973.659328265916
 24
384.249946473968
 34
0.0
100
AcDbRotatedDimension
1001
ACAD
1000
DSTYLE
1002
{
1070
     5
1000
OPEN30
1070
    41
1040
6.0
1070
    47
1040
0.1
1070
    48
1040
0.1
1070
    73
1070
     0
1070
   140
1040
10.0
1070
   271
1070
     1
1070
   272
1070
     1
1070
   341
1005
2AEB
1002
}
  0
DIMENSION
  5
6287
330
1A
100
AcDbEntity
  8
寸法線
 48
10.0
100
AcDbDimension
  2
*D26
 10
887.659388265915
 20
355.234910203697
 30
0.0
 11
894.659358265915
 21
360.859910203697
 31
0.0
 70
    32
  3
ISO-25
100
AcDbAlignedDimension
 13
901.659328265916
 23
383.624946473968
 33
0.0
 14
887.659388265915
 24
384.249946473968
 34
0.0
100
AcDbRotatedDimension
1001
ACAD
1000
DSTYLE
1002
{
1070
     5
1000
OPEN30
1070
    41
1040
6.0
1070
    47
1040
0.1
1070
    48
1040
0.1
1070
    73
1070
     0
1070
   140
1040
10.0
1070
   271
1070
     1
1070
   272
1070
     1
1070
   341
1005
2AEB
1002
}
  0
DIMENSION
  5
6294
330
1A
100
AcDbEntity
  8
寸法線
 48
10.0
100
AcDbDimension
  2
*D27
 10
837.659388265915
 20
355.234910203697
 30
0.0
 11
862.659388265915
 21
360.859910203697
 31
0.0
 70
    32
  3
ISO-25
100
AcDbAlignedDimension
 13
887.659388265915
 23
383.624946473968
 33
0.0
 14
837.659388265915
 24
432.870527438434
 34
0.0
100
AcDbRotatedDimension
1001
ACAD
1000
DSTYLE
1002
{
1070
     5
1000
OPEN30
1070
    41
1040
6.0
1070
    47
1040
0.1
1070
    48
1040
0.1
1070
    73
1070
     0
1070
   140
1040
10.0
1070
   271
1070
     1
1070
   272
1070
     1
1070
   341
1005
2AEB
1002
}
  0
ARC
  5
6520
330
1A
100
AcDbEntity
  8
外形線
100
AcDbCircle
 10
884.659328265916
 20
515.238739104581
 30
0.0
 40
2.999999999999992
100
AcDbArc
 50
274.96974072811
 51
0.0
  0
LINE
  5
6521
330
1A
100
AcDbEntity
  8
外形線
100
AcDbLine
 10
862.420578829165
 20
510.250017339994
 30
0.0
 11
884.91921711501
 21
512.250017339994
 31
0.0
  0
LINE
  5
652A
102
{ACAD_REACTORS
330
67FE
102
}
330
1A
100
AcDbEntity
  8
隠れ線
100
AcDbLine
 10
814.659328265916
 20
443.750017339994
 30
0.0
 11
816.159328265916
 21
442.250017339994
 31
0.0
  0
LINE
  5
652B
102
{ACAD_REACTORS
330
67FE
102
}
330
1A
100
AcDbEntity
  8
隠れ線
 48
10.0
100
AcDbLine
 10
814.659328265916
 20
443.750017339994
 30
0.0
 11
794.659328265916
 21
443.750017339994
 31
0.0
  0
LINE
  5
652C
102
{ACAD_REACTORS
330
67FE
102
}
330
1A
100
AcDbEntity
  8
隠れ線
100
AcDbLine
 10
814.659328265916
 20
470.750017339994
 30
0.0
 11
816.159328265916
 21
472.250017339994
 31
0.0
  0
LINE
  5
652D
102
{ACAD_REACTORS
330
67FE
102
}
330
1A
100
AcDbEntity
  8
隠れ線
 48
10.0
100
AcDbLine
 10
814.659328265916
 20
470.750017339994
 30
0.0
 11
794.659328265916
 21
470.750017339994
 31
0.0
  0
LINE
  5
6532
102
{ACAD_REACTORS
330
67FE
102
}
330
1A
100
AcDbEntity
  8
隠れ線
 48
10.0
100
AcDbLine
 10
794.659328265916
 20
443.250017339994
 30
0.0
 11
794.659328265916
 21
471.250017339994
 31
0.0
  0
LINE
  5
653A
102
{ACAD_REACTORS
330
67FE
102
}
330
1A
100
AcDbEntity
  8
隠れ線
100
AcDbLine
 10
794.659328265916
 20
443.250017339994
 30
0.0
 11
795.659328265916
 21
442.250017339994
 31
0.0
  0
LINE
  5
653B
102
{ACAD_REACTORS
330
67FE
102
}
330
1A
100
AcDbEntity
  8
隠れ線
100
AcDbLine
 10
795.659328265916
 20
472.250017339994
 30
0.0
 11
794.659328265916
 21
471.250017339994
 31
0.0
  0
LINE
  5
6549
102
{ACAD_REACTORS
330
67FE
102
}
330
1A
100
AcDbEntity
  8
外形線
100
AcDbLine
 10
838.659328265916
 20
482.250017339994
 30
0.0
 11
837.659328265916
 21
481.250017339994
 31
0.0
  0
ARC
  5
654B
102
{ACAD_REACTORS
330
67FE
102
}
330
1A
100
AcDbEntity
  8
外形線
100
AcDbCircle
 10
843.659328265916
 20
487.250017339994
 30
0.0
 40
5.0
100
AcDbArc
 50
270.0
 51
0.0
  0
LINE
  5
6550
102
{ACAD_REACTORS
330
67FE
102
}
330
1A
100
AcDbEntity
  8
外形線
100
AcDbLine
 10
838.659328265916
 20
482.250017339994
 30
0.0
 11
843.659328265916
 21
482.250017339994
 31
0.0
  0
LINE
  5
6552
102
{ACAD_REACTORS
330
67FE
102
}
330
1A
100
AcDbEntity
  8
隠れ線
 48
10.0
100
AcDbLine
 10
837.659328265916
 20
442.250017339994
 30
0.0
 11
795.659328265916
 21
442.250017339994
 31
0.0
  0
LINE
  5
6553
102
{ACAD_REACTORS
330
67FE
102
}
330
1A
100
AcDbEntity
  8
隠れ線
 48
10.0
100
AcDbLine
 10
837.659328265916
 20
472.250017339994
 30
0.0
 11
795.659328265916
 21
472.250017339994
 31
0.0
  0
ARC
  5
656B
330
1A
100
AcDbEntity
  8
外形線
100
AcDbCircle
 10
863.659328265916
 20
495.301254854994
 30
0.0
 40
15.0
100
AcDbArc
 50
94.737069217152
 51
180.0
  0
ARC
  5
675F
330
1A
100
AcDbEntity
  8
外形線
100
AcDbCircle
 10
863.659328265916
 20
419.198779824994
 30
0.0
 40
15.0
100
AcDbArc
 50
180.0
 51
265.262930782848
  0
LINE
  5
6760
102
{ACAD_REACTORS
330
67FE
102
}
330
1A
100
AcDbEntity
  8
外形線
100
AcDbLine
 10
838.659328265916
 20
432.250017339994
 30
0.0
 11
843.659328265916
 21
432.250017339994
 31
0.0
  0
LINE
  5
6761
102
{ACAD_REACTORS
330
67FE
102
}
330
1A
100
AcDbEntity
  8
外形線
100
AcDbLine
 10
848.659328265916
 20
419.198779824994
 30
0.0
 11
848.659328265916
 21
495.301254854994
 31
0.0
  0
ARC
  5
6762
102
{ACAD_REACTORS
330
67FE
102
}
330
1A
100
AcDbEntity
  8
外形線
100
AcDbCircle
 10
843.659328265916
 20
427.250017339994
 30
0.0
 40
5.0
100
AcDbArc
 50
0.0
 51
90.0
  0
LINE
  5
6763
102
{ACAD_REACTORS
330
67FE
102
}
330
1A
100
AcDbEntity
  8
外形線
100
AcDbLine
 10
838.659328265916
 20
432.250017339994
 30
0.0
 11
837.659328265916
 21
433.250017339994
 31
0.0
  0
LINE
  5
6764
330
1A
100
AcDbEntity
  8
外形線
100
AcDbLine
 10
862.420578829165
 20
404.250017339994
 30
0.0
 11
884.91921711501
 21
402.250017339994
 31
0.0
  0
ARC
  5
6765
330
1A
100
AcDbEntity
  8
外形線
100
AcDbCircle
 10
884.659328265916
 20
399.261295575407
 30
0.0
 40
2.999999999999992
100
AcDbArc
 50
0.0
 51
85.03025927189
  0
LEADER
  5
6766
330
1A
100
AcDbEntity
  8
寸法線
 48
10.0
100
AcDbLeader
  3
ISO-25
 76
     3
 10
927.753477556478
 20
382.590685086316
 30
0.0
 10
895.147209506784
 20
299.961674827928
 30
0.0
 10
919.100300184668
 20
299.961674827928
 30
0.0
213
10.96100689303273
223
0.0
233
0.0
1001
ACAD
1000
DSTYLE
1002
{
1070
     5
1000
OPEN30
1070
   147
1040
0.625
1070
    77
1070
     1
1070
    41
1040
6.0
1070
    47
1040
0.1
1070
    48
1040
0.1
1070
    73
1070
     0
1070
   140
1040
10.0
1070
   271
1070
     1
1070
   272
1070
     1
1070
   341
1005
2AEB
1070
   342
1005
2AEB
1002
}
  0
LEADER
  5
6767
330
1A
100
AcDbEntity
  8
寸法線
 48
10.0
100
AcDbLeader
  3
ISO-25
 76
     3
 10
819.115079866307
 20
441.652792734694
 30
0.0
 10
781.604763206612
 20
379.943480610022
 30
0.0
 10
766.051703193295
 20
379.943480610022
 30
0.0
1001
ACAD
1000
DSTYLE
1002
{
1070
     5
1000
OPEN30
1070
   147
1040
0.625
1070
    77
1070
     1
1070
    41
1040
6.0
1070
    47
1040
0.1
1070
    48
1040
0.1
1070
    73
1070
     0
1070
   140
1040
10.0
1070
   271
1070
     1
1070
   272
1070
     1
1070
   341
1005
2AEB
1070
   342
1005
2AEB
1002
}
  0
HATCH
  5
67FE
330
1A
100
AcDbEntity
  8
細線
 48
10.0
100
AcDbHatch
 10
0.0
 20
0.0
 30
0.0
210
0.0
220
0.0
230
1.0
  2
LINE
 70
     0
 71
     1
 91
       29
 92
        7
 72
     0
 73
     1
 93
        4
 10
957.6593282659155
 20
457.2500173399939
 10
973.6593282659155
 20
457.2500173399939
 10
973.6593282659155
 20
521.2500314739685
 10
957.6593282659155
 20
521.2500314739685
 97
        4
330
34BC
330
6215
330
47B0
330
6217
 92
        7
 72
     0
 73
     1
 93
        5
 10
945.6592057659154
 20
457.2500173399939
 10
957.6593282659155
 20
457.2500173399939
 10
957.6593282659155
 20
521.2500314739685
 10
945.6592057659154
 20
521.2500314739685
 10
945.6592057659154
 20
517.2500132060196
 97
        4
330
34BC
330
6217
330
47B0
330
479A
 92
        7
 72
     0
 73
     1
 93
        4
 10
957.6593282659155
 20
530.2500464739683
 10
945.6592057659154
 20
530.2500464739683
 10
945.6592057659154
 20
521.2500314739685
 10
957.6593282659155
 20
521.2500314739685
 97
        4
330
4790
330
479A
330
47B0
330
6217
 92
        7
 72
     0
 73
     1
 93
        4
 10
973.6593282659157
 20
530.2500464739683
 10
957.6593282659155
 20
530.2500464739683
 10
957.6593282659155
 20
521.2500314739685
 10
973.6593282659155
 20
521.2500314739685
 97
        4
330
6214
330
6217
330
47B0
330
6215
 92
        7
 72
     0
 73
     1
 93
        4
 10
973.6593282659155
 20
457.2500173399939
 10
957.6593282659155
 20
457.2500173399939
 10
957.6593282659155
 20
393.2499614739686
 10
973.6593282659155
 20
393.2499614739686
 97
        4
330
34BC
330
6217
330
47B2
330
6215
 92
        7
 72
     0
 73
     1
 93
        4
 10
957.6593282659155
 20
457.2500173399939
 10
945.6592057659154
 20
457.2500173399939
 10
945.6592057659154
 20
393.2499614739686
 10
957.6593282659155
 20
393.2499614739686
 97
        4
330
34BC
330
479A
330
47B2
330
6217
 92
        7
 72
     0
 73
     1
 93
        4
 10
957.6593282659155
 20
384.2499464739683
 10
957.6593282659155
 20
393.2499614739686
 10
945.6592057659154
 20
393.2499614739686
 10
945.6592057659154
 20
384.2499464739683
 97
        4
330
6217
330
47B2
330
479A
330
6216
 92
        7
 72
     0
 73
     1
 93
        4
 10
957.6593282659155
 20
384.2499464739683
 10
973.6593282659157
 20
384.2499464739683
 10
973.6593282659155
 20
393.2499614739686
 10
957.6593282659155
 20
393.2499614739686
 97
        4
330
6216
330
6215
330
47B2
330
6217
 92
        7
 72
     1
 73
     1
 93
        7
 10
916.1594507659154
 20
514.7499764739684
 42
-0.4142028544276724
 10
913.6594507659156
 20
517.2500131079431
 42
0.0
 10
913.6594507659157
 20
457.2500173399939
 42
0.0
 10
945.6592057659154
 20
457.2500173399939
 42
0.0
 10
945.6592057659154
 20
517.2500132060196
 42
-0.4142134724023406
 10
943.1592057659154
 20
514.7500139739685
 42
0.0
 10
916.1594507659156
 20
514.7500139739685
 42
0.0
 97
        6
330
4791
330
4796
330
34BC
330
479A
330
4792
330
4793
 92
        7
 72
     0
 73
     1
 93
        5
 10
901.6593282659155
 20
457.2500173399939
 10
913.6594507659157
 20
457.2500173399939
 10
913.6594507659158
 20
517.2500131079431
 10
913.6594507659158
 20
521.2500314739685
 10
901.6593282659155
 20
521.2500314739685
 97
        4
330
34BC
330
4796
330
47AF
330
4789
 92
        7
 72
     0
 73
     1
 93
        4
 10
887.6593882659154
 20
457.2500173399939
 10
901.6593282659155
 20
457.2500173399939
 10
901.6593282659155
 20
521.2500314739685
 10
887.6593882659154
 20
521.2500314739685
 97
        3
330
34BC
330
4789
330
47AF
 92
        7
 72
     0
 73
     1
 93
        4
 10
901.6593282659155
 20
530.2500464739683
 10
887.6593882659154
 20
530.2500464739683
 10
887.6593882659154
 20
521.2500314739685
 10
901.6593282659155
 20
521.2500314739685
 97
        2
330
4789
330
47AF
 92
        7
 72
     0
 73
     1
 93
        4
 10
901.6593282659155
 20
530.2500464739683
 10
901.6593282659155
 20
521.2500314739685
 10
913.6594507659158
 20
521.2500314739685
 10
913.6594507659158
 20
530.2500464739682
 97
        4
330
4789
330
47AF
330
4796
330
478A
 92
        7
 72
     0
 73
     1
 93
        4
 10
913.6594507659156
 20
384.2499464739683
 10
913.6594507659156
 20
393.2499614739686
 10
901.6593282659155
 20
393.2499614739686
 10
901.6593282659155
 20
384.2499464739683
 97
        4
330
4796
330
47B1
330
4789
330
6216
 92
        7
 72
     0
 73
     1
 93
        4
 10
887.6593882659154
 20
384.2499464739683
 10
901.6593282659155
 20
384.2499464739683
 10
901.6593282659155
 20
393.2499614739686
 10
887.6593882659154
 20
393.2499614739686
 97
        2
330
4789
330
47B1
 92
        7
 72
     0
 73
     1
 93
        4
 10
901.6593282659155
 20
457.2500173399939
 10
887.6593882659154
 20
457.2500173399939
 10
887.6593882659154
 20
393.2499614739686
 10
901.6593282659155
 20
393.2499614739686
 97
        3
330
34BC
330
4789
330
47B1
 92
        7
 72
     0
 73
     1
 93
        4
 10
913.6594507659157
 20
457.2500173399939
 10
901.6593282659155
 20
457.2500173399939
 10
901.6593282659155
 20
393.2499614739686
 10
913.6594507659156
 20
393.2499614739686
 97
        4
330
34BC
330
4789
330
47B1
330
4796
 92
        7
 72
     1
 73
     1
 93
        8
 10
838.6593282659155
 20
432.250017339994
 42
0.0
 10
843.6593282659155
 20
432.2500173399939
 42
-0.414213562373095
 10
848.6593282659155
 20
427.2500173399939
 42
0.0
 10
848.6593282659155
 20
457.2500173399939
 42
0.0
 10
837.6593882659159
 20
457.2500173399939
 42
0.0
 10
837.6593882659158
 20
442.2500173399938
 42
0.0
 10
837.6593882659158
 20
433.2499573399936
 42
0.0
 10
837.6593282659155
 20
433.250017339994
 42
0.0
 97
        6
330
6760
330
6762
330
6761
330
34BC
330
47BC
330
6763
 92
        7
 72
     1
 73
     1
 93
        8
 10
838.6593282659155
 20
482.2500173399937
 42
0.0
 10
837.6593282659155
 20
481.2500173399937
 42
0.0
 10
837.659388265916
 20
481.2500773399942
 42
0.0
 10
837.659388265916
 20
472.2500173399938
 42
0.0
 10
837.6593882659159
 20
457.2500173399939
 42
0.0
 10
848.6593282659155
 20
457.2500173399939
 42
0.0
 10
848.6593282659155
 20
487.2500173399939
 42
-0.414213562373095
 10
843.6593282659155
 20
482.2500173399939
 42
0.0
 97
        6
330
6549
330
47BC
330
34BC
330
6761
330
654B
330
6550
 92
        7
 72
     0
 73
     1
 93
        5
 10
837.6593282659155
 20
472.2500173399939
 10
822.659388265916
 20
472.2500173399939
 10
822.659388265916
 20
457.2500173399939
 10
837.6593882659159
 20
457.2500173399939
 10
837.659388265916
 20
472.2500173399938
 97
        4
330
6553
330
47B3
330
34BC
330
47BC
 92
        7
 72
     0
 73
     1
 93
        5
 10
822.659388265916
 20
442.2500173399939
 10
837.6593282659155
 20
442.2500173399939
 10
837.6593882659158
 20
442.2500173399938
 10
837.6593882659159
 20
457.2500173399939
 10
822.659388265916
 20
457.2500173399939
 97
        4
330
6552
330
47BC
330
34BC
330
47B3
 92
        7
 72
     0
 73
     1
 93
        6
 10
814.6593282659155
 20
443.750017339994
 10
816.1593282659155
 20
442.2500173399939
 10
822.659388265916
 20
442.2500173399939
 10
822.659388265916
 20
457.2500173399939
 10
812.6593882659163
 20
457.2500173399939
 10
812.6593882659163
 20
443.750017339994
 97
        5
330
652A
330
6552
330
47B3
330
34BC
330
652B
 92
        7
 72
     0
 73
     1
 93
        6
 10
816.1593282659155
 20
472.250017339994
 10
814.6593282659155
 20
470.7500173399939
 10
812.6593882659163
 20
470.7500173399939
 10
812.6593882659163
 20
457.2500173399939
 10
822.659388265916
 20
457.2500173399939
 10
822.659388265916
 20
472.2500173399939
 97
        5
330
652C
330
652D
330
47B3
330
34BC
330
6553
 92
        7
 72
     0
 73
     1
 93
        4
 10
812.6593882659163
 20
470.7500173399939
 10
794.6593282659155
 20
470.7500173399939
 10
794.6593282659155
 20
457.2500173399939
 10
812.6593882659163
 20
457.2500173399939
 97
        4
330
652D
330
6532
330
34BC
330
47B3
 92
        7
 72
     0
 73
     1
 93
        4
 10
794.6593282659155
 20
443.750017339994
 10
812.6593882659163
 20
443.750017339994
 10
812.6593882659163
 20
457.2500173399939
 10
794.6593282659155
 20
457.2500173399939
 97
        4
330
652B
330
47B3
330
34BC
330
6532
 92
        7
 72
     0
 73
     1
 93
        5
 10
795.6593282659155
 20
472.250017339994
 10
794.6593282659155
 20
471.250017339994
 10
794.6593282659155
 20
470.7500173399939
 10
812.6593882659163
 20
470.7500173399939
 10
812.6593882659163
 20
472.2500173399939
 97
        5
330
653B
330
6532
330
652D
330
47B3
330
6553
 92
        7
 72
     0
 73
     1
 93
        5
 10
794.6593282659155
 20
443.750017339994
 10
794.6593282659155
 20
443.2500173399939
 10
795.6593282659155
 20
442.2500173399939
 10
812.6593882659163
 20
442.2500173399939
 10
812.6593882659163
 20
443.750017339994
 97
        5
330
6532
330
653A
330
6552
330
47B3
330
652B
 92
        7
 72
     0
 73
     1
 93
        4
 10
816.1593282659155
 20
442.2500173399939
 10
814.6593282659155
 20
443.750017339994
 10
812.6593882659163
 20
443.750017339994
 10
812.6593882659163
 20
442.2500173399939
 97
        4
330
652A
330
652B
330
47B3
330
6552
 92
        7
 72
     0
 73
     1
 93
        4
 10
814.6593282659155
 20
470.7500173399939
 10
816.1593282659155
 20
472.250017339994
 10
812.6593882659163
 20
472.2500173399939
 10
812.6593882659163
 20
470.7500173399939
 97
        4
330
652C
330
6553
330
47B3
330
652D
 75
     0
 76
     1
 52
45.0
 41
1.0
 77
     0
 78
     1
 53
45.0
 43
48.67398315742633
 44
0.0
 45
-2.245064030267288
 46
2.245064030267288
 79
     0
 47
0.138744796259
 98
       31
 10
968.108820106534
 20
483.7691095450214
 10
951.5841287628141
 20
502.6980981698753
 10
953.5993368706622
 20
524.8490411186442
 10
962.0632026650965
 20
524.8490411186442
 10
964.8844912632412
 20
420.1354881425943
 10
954.0023771158108
 20
421.3437208148666
 10
949.9719643411677
 20
389.1241648271846
 10
963.2723268415948
 20
386.3049541961716
 10
922.5651588500173
 20
469.2703095099209
 10
909.6678365947391
 20
480.9498973204416
 10
896.367474094312
 20
486.9910638689362
 10
894.3522694275175
 20
526.0572753844831
 10
912.892165438032
 20
524.0435537328403
 10
905.234383574948
 20
387.1104431755421
 10
896.367474094312
 20
387.1104431755421
 10
893.9492257413158
 20
408.0531534520387
 10
906.8465479965944
 20
416.1080432457425
 10
842.7629838474563
 20
447.5221086604874
 10
845.181232200453
 20
469.2703095099209
 10
829.0595811018811
 20
465.2428646130691
 10
829.0595811018811
 20
447.1193649675856
 10
816.9683427779528
 20
450.341320885067
 10
817.7744267093026
 20
465.2428646130691
 10
806.8923125618721
 20
465.2428646130691
 10
804.0710239637274
 20
451.9522988438077
 10
974.9605214793219
 20
449.9385755985986
 10
974.9605214793219
 20
466.85384257181
 10
801.3240105001933
 20
471.3546946875038
 10
807.1555875467716
 20
442.9120111767018
 10
813.9590900865505
 20
442.9120111767018
 10
814.3756330246897
 20
471.6321840417527
  0
HATCH
  5
6820
330
1A
100
AcDbEntity
  8
細線
 48
10.0
100
AcDbHatch
 10
0.0
 20
0.0
 30
0.0
210
0.0
220
0.0
230
1.0
  2
LINE
 70
     0
 71
     1
 91
        1
 92
        7
 72
     1
 73
     1
 93
        5
 10
929.6593282659153
 20
399.749976473968
 42
0.0
 10
916.1594515829026
 20
399.749976473968
 42
0.4142136580891326
 10
913.6594507659156
 20
397.2499764739684
 42
0.0
 10
913.6594507659156
 20
384.2499464739684
 42
0.0
 10
929.6593282659153
 20
384.2499464739684
 42
0.0
 97
        5
330
479E
330
479C
330
4796
330
6216
330
5AB8
 75
     0
 76
     1
 52
45.0
 41
1.0
 77
     0
 78
     1
 53
45.0
 43
48.67398315742633
 44
0.0
 45
-2.245064030267288
 46
2.245064030267288
 79
     0
 47
0.125733709295
 98
        1
 10
926.774537363644
 20
396.183123271933
  0
HATCH
  5
682B
330
1A
100
AcDbEntity
  8
細線
 48
10.0
100
AcDbHatch
 10
0.0
 20
0.0
 30
0.0
210
0.0
220
0.0
230
1.0
  2
LINE
 70
     0
 71
     0
 91
        1
 92
        7
 72
     0
 73
     1
 93
        4
 10
929.6593282659153
 20
399.7499764739682
 10
929.6593282659151
 20
384.2499464739683
 10
945.6592057659154
 20
384.2499464739682
 10
945.6592057659154
 20
399.7499764739682
 97
        0
 75
     0
 76
     1
 52
45.0
 41
1.0
 77
     0
 78
     1
 53
45.0
 43
48.67398315742633
 44
0.0
 45
-2.245064030267288
 46
2.245064030267288
 79
     0
 47
0.110780759722
 98
        1
 10
935.4776802375441
 20
394.4567360293001
  0
ARC
  5
6832
330
1A
100
AcDbEntity
  8
外形線
 48
10.0
100
AcDbCircle
 10
943.159205765916
 20
397.249976473968
 30
0.0
 40
2.499999999999695
100
AcDbArc
 50
359.999980152155
 51
90.000018723974
  0
HATCH
  5
6842
330
1A
100
AcDbEntity
  8
細線
 48
10.0
100
AcDbHatch
 10
0.0
 20
0.0
 30
0.0
210
0.0
220
0.0
230
1.0
  2
LINE
 70
     0
 71
     0
 91
        1
 92
        7
 72
     0
 73
     1
 93
        4
 10
945.6592057659152
 20
457.2500173399938
 10
913.6594507659158
 20
457.2500173399939
 10
913.6594507659156
 20
399.7499764739681
 10
945.6592057659154
 20
399.7499764739682
 97
        0
 75
     0
 76
     1
 52
45.0
 41
1.0
 77
     0
 78
     1
 53
45.0
 43
48.67398315742633
 44
0.0
 45
-2.245064030267288
 46
2.245064030267288
 79
     0
 47
0.164552125051
 98
        1
 10
931.1722068705876
 20
444.0966016941618
  0
HATCH
  5
685D
330
1A
100
AcDbEntity
  8
細線
 48
10.0
100
AcDbHatch
 10
0.0
 20
0.0
 30
0.0
210
0.0
220
0.0
230
1.0
  2
LINE
 70
     0
 71
     0
 91
        2
 92
        7
 72
     1
 73
     1
 93
        7
 10
887.6593882659156
 20
514.3219017611534
 42
0.0
 10
887.5157962397773
 20
514.3219017611534
 42
-0.3020856128906733
 10
884.91921711501
 20
512.2500173399939
 42
0.0
 10
862.4205788291654
 20
510.2500173399939
 42
0.3902000689952731
 10
848.6593282659155
 20
495.3012548549935
 42
0.0
 10
848.6593282659157
 20
457.2500173399939
 42
0.0
 10
887.6593882659156
 20
457.2500173399939
 42
0.0
 97
        0
 92
        7
 72
     1
 73
     1
 93
        7
 10
887.6593882659156
 20
457.2500173399939
 42
0.0
 10
848.6593282659155
 20
457.2500173399939
 42
0.0
 10
848.6593282659155
 20
419.1987798249942
 42
0.3902000689950861
 10
862.4205788291558
 20
404.2500173399947
 42
0.0
 10
884.91921711501
 20
402.2500173399939
 42
-0.2770500622889334
 10
887.4190253004401
 20
400.437761587511
 42
0.0
 10
887.6593882659154
 20
400.4377615875109
 42
0.0
 97
        0
 75
     0
 76
     1
 52
45.0
 41
1.0
 77
     0
 78
     1
 53
45.0
 43
48.67398315742633
 44
0.0
 45
-2.245064030267288
 46
2.245064030267288
 79
     0
 47
0.199319716539
 98
        2
 10
876.3925185095832
 20
491.624355350913
 10
866.0202563829203
 20
443.1896642318527
  0
HATCH
  5
687F
330
1A
100
AcDbEntity
  8
細線
 48
10.0
100
AcDbHatch
 10
0.0
 20
0.0
 30
0.0
210
0.0
220
0.0
230
1.0
  2
LINE
 70
     0
 71
     0
 91
        2
 92
        7
 72
     0
 73
     1
 93
        4
 10
794.6593282659153
 20
462.6581860409555
 10
773.6594507659154
 20
462.6581860409556
 10
773.6594507659154
 20
457.2500173399939
 10
794.6593282659155
 20
457.2500173399939
 97
        0
 92
        7
 72
     0
 73
     1
 93
        4
 10
794.6593282659155
 20
457.2500173399939
 10
773.6594507659154
 20
457.250017339994
 10
773.6594507659154
 20
451.6581260409556
 10
794.6593282659155
 20
451.6581260409556
 97
        0
 75
     0
 76
     1
 52
45.0
 41
1.0
 77
     0
 78
     1
 53
45.0
 43
48.67398315742633
 44
0.0
 45
-2.245064030267288
 46
2.245064030267288
 79
     0
 47
0.076980230612
 98
        2
 10
785.9546326124096
 20
460.032212048885
 10
785.8005594352885
 20
453.1809713557845
  0
DIMENSION
  5
6890
330
1A
100
AcDbEntity
  8
寸法線
 48
10.0
100
AcDbDimension
  2
*D28
 10
376.082827196549
 20
288.243414123281
 30
0.0
 11
394.707827196549
 21
293.868414123281
 31
0.0
 70
    32
  1
1.5
  3
ISO-25
100
AcDbAlignedDimension
 13
372.332827196549
 23
217.258487339994
 33
0.0
 14
376.082827196549
 24
217.258487339994
 34
0.0
100
AcDbRotatedDimension
1001
ACAD
1000
DSTYLE
1002
{
1070
     5
1000
OPEN30
1070
    41
1040
6.0
1070
    47
1040
0.1
1070
    48
1040
0.1
1070
    73
1070
     0
1070
   140
1040
10.0
1070
   271
1070
     1
1070
   272
1070
     1
1070
   341
1005
2AEB
1002
}
  0
MTEXT
  5
68BE
330
1A
100
AcDbEntity
  8
寸法線
 48
10.0
100
AcDbMText
 10
589.527792252808
 20
17.366944468866
 30
0.0
 40
10.0
 41
128.541666666667
 71
     1
 72
     5
  1
C-H間：ON
1001
ACAD
1000
MTEXTBEGIN
1070
    44
1040
0.7
1000
MTEXTEND
  0
MTEXT
  5
68BF
330
1A
100
AcDbEntity
  8
寸法線
 48
10.0
100
AcDbMText
 10
589.852821802383
 20
49.179535847348
 30
0.0
 40
10.0
 41
128.541666666667
 71
     1
 72
     5
  1
C-H間：OFF
1001
ACAD
1000
MTEXTBEGIN
1070
    44
1040
0.7
1000
MTEXTEND
  0
MTEXT
  5
68C0
330
1A
100
AcDbEntity
  8
寸法線
 48
10.0
100
AcDbMText
 10
565.870964854013
 20
61.474142843257
 30
0.0
 40
10.0
 41
128.541666666667
 71
     1
 72
     5
  1
端子C-L間：ON
1001
ACAD
1000
MTEXTBEGIN
1070
    44
1040
0.7
1000
MTEXTEND
  0
MTEXT
  5
68C1
330
1A
100
AcDbEntity
  8
寸法線
 48
10.0
100
AcDbMText
 10
565.165556238046
 20
30.02803425583
 30
0.0
 40
10.0
 41
128.541666666667
 71
     1
 72
     5
  1
端子C-L間：OFF
1001
ACAD
1000
MTEXTBEGIN
1070
    44
1040
0.7
1000
MTEXTEND
  0
MTEXT
  5
718C
102
{ACAD_XDICTIONARY
360
718D
102
}
330
1A
100
AcDbEntity
  8
寸法線
 48
10.0
100
AcDbMText
 10
31.396623670992
 20
99.087213339263
 30
0.0
 40
10.0
 41
514.080066592226
 71
     1
 72
     1
  1
※通過警報スイッチには「時計方向動作型」と「反時計方向動作型」\P　が御座います。　貴社の御仕様をご確認下さい。
1001
ACADANNOTATIVE
1000
AnnotativeData
1002
{
1070
     1
1070
     0
1002
}
  0
DIMENSION
  5
7331
330
1A
100
AcDbEntity
  8
寸法線
 48
10.0
100
AcDbDimension
  2
*D133
 10
611.341568193101
 20
407.045564281537
 30
0.0
 11
598.841568193101
 21
412.67577261487
 31
0.0
 70
    32
  3
ISO-25
100
AcDbAlignedDimension
 13
586.341568193101
 23
432.250017339994
 33
0.0
 14
611.341568193101
 24
432.250017339994
 34
0.0
100
AcDbRotatedDimension
1001
ACAD
1000
DSTYLE
1002
{
1070
     5
1000
OPEN30
1070
    41
1040
6.0
1070
   271
1070
     1
1070
   341
1005
2AEB
1070
   272
1070
     1
1070
    73
1070
     0
1070
    48
1040
0.1
1070
    47
1040
0.1
1070
   140
1040
10.0
1002
}
  0
DIMENSION
  5
733E
330
1A
100
AcDbEntity
  8
寸法線
 48
10.0
100
AcDbDimension
  2
*D134
 10
451.465701739918
 20
463.445862943003
 30
0.0
 11
420.83874064922
 21
460.85331935643
 31
0.0
 70
   161
  1
φ155
  3
ISO-25
100
AcDbAlignedDimension
 13
297.053056691768
 23
450.090940797263
 33
0.0
 14
451.489574089297
 24
463.163847427668
 34
0.0
1001
ACAD
1000
DSTYLE
1002
{
1070
     5
1000
OPEN30
1070
    41
1040
6.0
1070
    47
1040
0.1
1070
    48
1040
0.1
1070
    73
1070
     0
1070
   140
1040
10.0
1070
   271
1070
     1
1070
   272
1070
     1
1070
   341
1005
2AEB
1002
}
  0
DIMENSION
  5
733F
330
1A
100
AcDbEntity
  8
寸法線
 48
10.0
100
AcDbDimension
  2
*D135
 10
433.665820719133
 20
483.359613069077
 30
0.0
 11
417.02201524623
 21
476.041801492801
 31
0.0
 70
   161
  1
φ130
  3
ISO-25
100
AcDbAlignedDimension
 13
314.655468097401
 23
431.047755574549
 33
0.0
 14
433.660796553196
 24
483.371040152112
 34
0.0
1001
ACAD
1000
DSTYLE
1002
{
1070
     5
1000
OPEN30
1070
    41
1040
6.0
1070
    47
1040
0.1
1070
    48
1040
0.1
1070
    73
1070
     0
1070
   140
1040
10.0
1070
   271
1070
     1
1070
   272
1070
     1
1070
   341
1005
2AEB
1002
}
  0
ARC
  5
7389
330
1A
100
AcDbEntity
  8
外形線
 48
10.0
100
AcDbCircle
 10
106.502603356741
 20
457.250017339994
 30
0.0
 40
77.49999999999999
100
AcDbArc
 50
271.386323478738
 51
268.613676521264
  0
ARC
  5
738A
330
1A
100
AcDbEntity
  8
寸法線
100
AcDbCircle
 10
107.224903448267
 20
445.003202609421
 30
0.0
 40
258.976785
100
AcDbArc
 50
274.420998519135
 51
283.132535315201
  0
LINE
  5
738C
102
{ACAD_REACTORS
330
7456
102
}
330
1A
100
AcDbEntity
  8
下書線
 48
10.0
100
AcDbLine
 10
213.213966266798
 20
228.407404548256
 30
0.0
 11
223.779447080555
 21
205.749700282535
 31
0.0
  0
LINE
  5
738D
330
1A
100
AcDbEntity
  8
外形線
100
AcDbLine
 10
108.377603356742
 20
217.258487339994
 30
0.0
 11
104.627603356742
 21
217.258487339994
 31
0.0
  0
LINE
  5
7396
330
1A
100
AcDbEntity
  8
外形線
100
AcDbLine
 10
104.627603356742
 20
447.258487339994
 30
0.0
 11
104.627603356742
 21
217.258449839994
 31
0.0
  0
LINE
  5
7397
330
1A
100
AcDbEntity
  8
外形線
100
AcDbLine
 10
108.377603356742
 20
447.258487339994
 30
0.0
 11
108.377603356742
 21
217.258449839994
 31
0.0
  0
LINE
  5
7399
330
1A
100
AcDbEntity
  8
寸法線
 48
10.0
100
AcDbLine
 10
106.502603356746
 20
150.543987618546
 30
0.0
 11
106.502603356746
 21
211.354819843475
 31
0.0
  0
DIMENSION
  5
739C
330
1A
100
AcDbEntity
  8
寸法線
 48
10.0
100
AcDbDimension
  2
*D139
 10
211.904693356746
 20
167.660517339994
 30
0.0
 11
157.607909123562
 21
167.417764128997
 31
0.0
 70
    34
  1
約<>
  3
ISO-25
100
AcDb2LineAngularDimension
 13
106.502603356746
 23
264.051494839994
 33
0.0
 14
106.502603356746
 24
147.250017339994
 34
0.0
 15
122.725710856746
 25
412.677417339994
 35
0.0
 16
141.323413614816
 26
159.339290657992
 36
0.0
1001
ACAD
1000
DSTYLE
1002
{
1070
     5
1000
OPEN30
1070
    41
1040
6.0
1070
    47
1040
0.1
1070
    48
1040
0.1
1070
    73
1070
     0
1070
   140
1040
10.0
1070
   271
1070
     1
1070
   272
1070
     1
1070
   341
1005
2AEB
1002
}
  0
DIMENSION
  5
739D
330
1A
100
AcDbEntity
  8
寸法線
 48
10.0
100
AcDbDimension
  2
*D140
 10
211.904693356746
 20
167.660517339994
 30
0.0
 11
162.345534158162
 21
250.801294743528
 31
0.0
 70
   162
  1
約<>
  3
ISO-25
100
AcDb2LineAngularDimension
 13
163.591838356746
 23
244.190324839994
 33
0.0
 14
175.089715856746
 24
201.279712339994
 34
0.0
 15
122.725710856746
 25
412.677417339994
 35
0.0
 16
178.061611903695
 26
241.297337228647
 36
0.0
1001
ACAD
1000
DSTYLE
1002
{
1070
   287
1070
     5
1070
     5
1000
OPEN30
1070
    41
1040
6.0
1070
    47
1040
0.1
1070
    48
1040
0.1
1070
    73
1070
     0
1070
   140
1040
10.0
1070
   271
1070
     1
1070
   272
1070
     1
1070
   279
1070
     2
1070
   341
1005
2AEB
1002
}
  0
CIRCLE
  5
739E
330
1A
100
AcDbEntity
  8
外形線
100
AcDbCircle
 10
152.464543860537
 20
411.288076289535
 30
0.0
 40
7.5
  0
LINE
  5
739F
330
1A
100
AcDbEntity
  8
中心線
 48
10.0
100
AcDbLine
 10
145.621593441522
 20
418.131058370608
 30
0.0
 11
159.307525016742
 21
404.445126795389
 31
0.0
  0
CIRCLE
  5
73A0
330
1A
100
AcDbEntity
  8
外形線
100
AcDbCircle
 10
152.464543860535
 20
503.211958390455
 30
0.0
 40
7.5
  0
LINE
  5
73A1
330
1A
100
AcDbEntity
  8
中心線
 48
10.0
100
AcDbLine
 10
145.62159344152
 20
496.368976309381
 30
0.0
 11
159.307525016739
 21
510.054907884601
 31
0.0
  0
CIRCLE
  5
73A2
330
1A
100
AcDbEntity
  8
外形線
100
AcDbCircle
 10
60.540662852951
 20
411.288076289534
 30
0.0
 40
7.5
  0
LINE
  5
73A3
330
1A
100
AcDbEntity
  8
中心線
 48
10.0
100
AcDbLine
 10
67.383613271966
 20
418.131058370607
 30
0.0
 11
53.697681696747
 21
404.445126795388
 31
0.0
  0
CIRCLE
  5
73A4
330
1A
100
AcDbEntity
  8
中心線
 48
10.0
100
AcDbCircle
 10
106.502603356742
 20
457.250017339994
 30
0.0
 40
65.0
  0
LINE
  5
73A5
330
1A
100
AcDbEntity
  8
中心線
 48
10.0
100
AcDbLine
 10
106.502603356742
 20
550.0
 30
0.0
 11
106.502603356742
 21
214.101115973584
 31
0.0
  0
LINE
  5
73A8
330
1A
100
AcDbEntity
  8
中心線
 48
10.0
100
AcDbLine
 10
67.383613271966
 20
496.368976309381
 30
0.0
 11
53.697681696747
 21
510.0549078846
 31
0.0
  0
LINE
  5
73A9
330
1A
100
AcDbEntity
  8
中心線
 48
10.0
100
AcDbLine
 10
198.598917778754
 20
457.250017339994
 30
0.0
 11
22.009398357707
 21
457.250017339994
 31
0.0
  0
LINE
  5
73AA
102
{ACAD_REACTORS
330
7456
102
}
330
1A
100
AcDbEntity
  8
寸法線
100
AcDbLine
 10
122.725710856746
 20
412.677417339994
 30
0.0
 11
211.904693356746
 21
167.660517339994
 31
0.0
  0
LINE
  5
73AB
102
{ACAD_REACTORS
330
7456
102
}
330
1A
100
AcDbEntity
  8
寸法線
100
AcDbLine
 10
163.591838356746
 20
244.190324839994
 30
0.0
 11
175.089715856746
 21
201.279712339994
 31
0.0
  0
ARC
  5
73AC
102
{ACAD_REACTORS
330
7456
102
}
330
1A
100
AcDbEntity
  8
寸法線
100
AcDbCircle
 10
106.503328356746
 20
457.248109839994
 30
0.0
 40
252.4979775
100
AcDbArc
 50
269.999826988787
 51
295.000095534186
  0
ARC
  5
73AD
102
{ACAD_REACTORS
330
7456
102
}
330
1A
100
AcDbEntity
  8
寸法線
100
AcDbCircle
 10
106.502545856746
 20
457.250322339994
 30
0.0
 40
265.000285
100
AcDbArc
 50
270.000056171905
 51
295.000044283242
  0
ARC
  5
73AE
102
{ACAD_REACTORS
330
7456
102
}
330
1A
100
AcDbEntity
  8
寸法線
100
AcDbCircle
 10
106.502470856746
 20
457.250552339994
 30
0.0
 40
277.5005725
100
AcDbArc
 50
270.000056171905
 51
295.000037963573
  0
ARC
  5
73AF
330
1A
100
AcDbEntity
  8
寸法線
100
AcDbCircle
 10
106.462855856746
 20
457.476917339994
 30
0.0
 40
258.976785
100
AcDbArc
 50
274.420998519135
 51
283.132535315201
  0
LWPOLYLINE
  5
73B0
330
1A
100
AcDbEntity
  8
寸法線
100
AcDbPolyline
 90
        4
 70
     0
 43
0.0
 10
126.425775856746
 20
199.270662339994
 10
127.734540856746
 20
199.375184839994
 10
127.734540856746
 20
199.375184839994
 10
127.734540856746
 20
199.375184839994
  0
LINE
  5
73B1
330
1A
100
AcDbEntity
  8
寸法線
100
AcDbLine
 10
133.801760673988
 20
197.912410531301
 30
0.0
 11
126.425775856746
 21
199.270662339994
 31
0.0
  0
LINE
  5
73B2
330
1A
100
AcDbEntity
  8
寸法線
100
AcDbLine
 10
126.425775856746
 20
199.270662339994
 30
0.0
 11
133.492691990752
 21
201.782374177551
 31
0.0
  0
LWPOLYLINE
  5
73B3
330
1A
100
AcDbEntity
  8
寸法線
100
AcDbPolyline
 90
        4
 70
     0
 43
0.0
 10
168.074755856746
 20
193.255114839994
 10
166.065553356746
 20
192.799409839994
 10
166.065553356746
 20
192.799409839994
 10
166.065553356746
 20
192.799409839994
  0
LINE
  5
73B4
330
1A
100
AcDbEntity
  8
寸法線
100
AcDbLine
 10
160.580390045452
 20
193.545771143066
 30
0.0
 11
168.074755856746
 21
193.255114839994
 31
0.0
  0
LINE
  5
73B5
330
1A
100
AcDbEntity
  8
寸法線
100
AcDbLine
 10
168.074755856746
 20
193.255114839994
 30
0.0
 11
161.439116527376
 21
189.759647676579
 31
0.0
  0
LINE
  5
73B6
102
{ACAD_REACTORS
330
7456
102
}
330
1A
100
AcDbEntity
  8
寸法線
100
AcDbLine
 10
163.591838356746
 20
244.190324839994
 30
0.0
 11
175.089715856746
 21
201.279712339994
 31
0.0
  0
CIRCLE
  5
73B7
330
1A
100
AcDbEntity
  8
外形線
100
AcDbCircle
 10
60.540662852951
 20
503.211958390453
 30
0.0
 40
7.5
  0
MTEXT
  5
73F7
330
1A
100
AcDbEntity
  8
寸法線
 48
10.0
100
AcDbMText
 10
65.923800793269
 20
144.740960242529
 30
0.0
 40
10.0
 41
108.75775462963
 71
     1
 72
     5
  1
羽根通常停止位置
  0
LEADER
  5
73F8
330
1A
100
AcDbEntity
  8
寸法線
 48
10.0
100
AcDbLeader
  3
ISO-25
 73
     0
 75
     1
 40
10.0
 41
36.0
 76
     3
 10
60.216017872686
 20
510.698197441078
 30
0.0
 10
65.214571331781
 20
552.752032339994
 30
0.0
 10
59.214571331781
 20
552.752032339994
 30
0.0
340
73F9
1001
ACAD
1000
DSTYLE
1002
{
1070
     5
1000
OPEN30
1070
   147
1040
0.625
1070
    77
1070
     1
1070
    41
1040
6.0
1070
    47
1040
0.1
1070
    48
1040
0.1
1070
    73
1070
     0
1070
   140
1040
10.0
1070
   271
1070
     1
1070
   272
1070
     1
1070
   341
1005
2AEB
1070
   342
1005
2AEB
1002
}
  0
MTEXT
  5
73F9
102
{ACAD_REACTORS
330
73F8
102
}
330
1A
100
AcDbEntity
  8
寸法線
 48
10.0
100
AcDbMText
 10
58.589571331781
 20
553.377032339994
 30
0.0
 40
10.0
 41
0.0
 71
     9
 72
     1
  1
\A1;4-φ15
  0
DIMENSION
  5
73FA
330
1A
100
AcDbEntity
  8
寸法線
 48
10.0
100
AcDbDimension
  2
*D141
 10
108.377603356742
 20
288.243414123281
 30
0.0
 11
127.002603356742
 21
293.868414123281
 31
0.0
 70
    32
  1
1.5
  3
ISO-25
100
AcDbAlignedDimension
 13
104.627603356742
 23
217.258487339994
 33
0.0
 14
108.377603356742
 24
217.258487339994
 34
0.0
100
AcDbRotatedDimension
1001
ACAD
1000
DSTYLE
1002
{
1070
     5
1000
OPEN30
1070
    41
1040
6.0
1070
    47
1040
0.1
1070
    48
1040
0.1
1070
    73
1070
     0
1070
   140
1040
10.0
1070
   271
1070
     1
1070
   272
1070
     1
1070
   341
1005
2AEB
1002
}
  0
DIMENSION
  5
73FB
330
1A
100
AcDbEntity
  8
寸法線
 48
10.0
100
AcDbDimension
  2
*D142
 10
183.760477900111
 20
463.445862943003
 30
0.0
 11
153.133516809413
 21
460.85331935643
 31
0.0
 70
   161
  1
φ155
  3
ISO-25
100
AcDbAlignedDimension
 13
29.347832851962
 23
450.090940797263
 33
0.0
 14
183.784350249491
 24
463.163847427668
 34
0.0
1001
ACAD
1000
DSTYLE
1002
{
1070
     5
1000
OPEN30
1070
    41
1040
6.0
1070
    47
1040
0.1
1070
    48
1040
0.1
1070
    73
1070
     0
1070
   140
1040
10.0
1070
   271
1070
     1
1070
   272
1070
     1
1070
   341
1005
2AEB
1002
}
  0
DIMENSION
  5
73FC
330
1A
100
AcDbEntity
  8
寸法線
 48
10.0
100
AcDbDimension
  2
*D143
 10
165.960596879326
 20
483.359613069077
 30
0.0
 11
149.316791406424
 21
476.041801492801
 31
0.0
 70
   161
  1
φ130
  3
ISO-25
100
AcDbAlignedDimension
 13
46.950244257594
 23
431.047755574549
 33
0.0
 14
165.955572713389
 24
483.371040152112
 34
0.0
1001
ACAD
1000
DSTYLE
1002
{
1070
     5
1000
OPEN30
1070
    41
1040
6.0
1070
    47
1040
0.1
1070
    48
1040
0.1
1070
    73
1070
     0
1070
   140
1040
10.0
1070
   271
1070
     1
1070
   272
1070
     1
1070
   341
1005
2AEB
1002
}
  0
MTEXT
  5
742B
330
1A
100
AcDbEntity
  8
寸法線
 48
10.0
100
AcDbMText
 10
248.741196422139
 20
165.39729890953
 30
0.0
 40
10.0
 41
57.444083257344
 71
     1
 72
     5
  1
動作角度
  0
MTEXT
  5
742C
330
1A
100
AcDbEntity
  8
寸法線
 48
10.0
100
AcDbMText
 10
189.825967358991
 20
165.39729890953
 30
0.0
 40
10.0
 41
57.444083257344
 71
     1
 72
     5
  1
動作角度
  0
MTEXT
  5
742D
102
{ACAD_XDICTIONARY
360
742E
102
}
330
1A
100
AcDbEntity
  8
寸法線
 48
10.0
100
AcDbMText
 10
333.28502253074
 20
582.815018010282
 30
0.0
 40
12.0
 41
107.19903052202
 71
     1
 72
     1
  1
《時計方向動作》
1001
ACADANNOTATIVE
1000
AnnotativeData
1002
{
1070
     1
1070
     0
1002
}
  0
MTEXT
  5
7431
102
{ACAD_XDICTIONARY
360
7432
102
}
330
1A
100
AcDbEntity
  8
寸法線
 48
10.0
100
AcDbMText
 10
45.349465865318
 20
582.815018010282
 30
0.0
 40
12.0
 41
144.853176884485
 71
     1
 72
     1
  1
《反時計方向動作》
1001
ACADANNOTATIVE
1000
AnnotativeData
1002
{
1070
     1
1070
     0
1002
}
  0
LINE
  5
7435
330
1A
100
AcDbEntity
  8
隠れ線
 48
10.0
100
AcDbLine
 10
240.640691376486
 20
120.636998014458
 30
0.0
 11
240.640691376486
 21
581.081102602679
 31
0.0
  0
LINE
  5
7436
330
1A
100
AcDbEntity
  8
中心線
  6
CONTINUOUS
100
AcDbLine
 10
123.546955856742
 20
471.250017339994
 30
0.0
 11
94.201958356742
 21
471.250017339994
 31
0.0
  0
LINE
  5
7437
330
1A
100
AcDbEntity
  8
外形線
100
AcDbLine
 10
98.502603356742
 20
477.250017339994
 30
0.0
 11
98.502603356742
 21
432.250017339994
 31
0.0
  0
LINE
  5
7438
330
1A
100
AcDbEntity
  8
外形線
100
AcDbLine
 10
114.502603356742
 20
477.250017339994
 30
0.0
 11
114.502603356742
 21
432.250017339994
 31
0.0
  0
LINE
  5
7439
330
1A
100
AcDbEntity
  8
中心線
  6
CONTINUOUS
100
AcDbLine
 10
95.612233356742
 20
437.118142339994
 30
0.0
 11
117.347100856742
 21
437.118142339994
 31
0.0
  0
ARC
  5
743A
330
1A
100
AcDbEntity
  8
外形線
100
AcDbCircle
 10
114.502604271806
 20
437.118142339994
 30
0.0
 40
2.5
100
AcDbArc
 50
270.0
 51
90.000020971718
  0
ARC
  5
743B
330
1A
100
AcDbEntity
  8
外形線
100
AcDbCircle
 10
98.502602539755
 20
437.118142339994
 30
0.0
 40
2.5
100
AcDbArc
 50
89.999981276032
 51
270.0
  0
LINE
  5
743C
330
1A
100
AcDbEntity
  8
外形線
100
AcDbLine
 10
104.627603356742
 20
447.258487339994
 30
0.0
 11
108.377603356742
 21
447.258487339994
 31
0.0
  0
LINE
  5
743D
330
1A
100
AcDbEntity
  8
外形線
100
AcDbLine
 10
105.502603356742
 20
462.14899682556
 30
0.0
 11
105.502603356742
 21
477.250017339994
 31
0.0
  0
LINE
  5
743E
330
1A
100
AcDbEntity
  8
外形線
100
AcDbLine
 10
107.502603356742
 20
462.14899682556
 30
0.0
 11
107.502603356742
 21
477.250017339994
 31
0.0
  0
ARC
  5
743F
330
1A
100
AcDbEntity
  8
外形線
 48
10.0
100
AcDbCircle
 10
106.502603356742
 20
457.250017339994
 30
0.0
 40
17.00000000000018
100
AcDbArc
 50
118.072486935852
 51
241.927513064148
  0
ARC
  5
7440
330
1A
100
AcDbEntity
  8
外形線
 48
10.0
100
AcDbCircle
 10
106.502603356742
 20
457.250017339994
 30
0.0
 40
17.00000000000021
100
AcDbArc
 50
298.072486935854
 51
36.026395203316
  0
LINE
  5
7441
330
1A
100
AcDbEntity
  8
外形線
 48
10.0
100
AcDbLine
 10
98.502603356742
 20
477.250017339994
 30
0.0
 11
105.502603356742
 21
477.250017339994
 31
0.0
  0
LINE
  5
7442
330
1A
100
AcDbEntity
  8
外形線
 48
10.0
100
AcDbLine
 10
107.502603356742
 20
477.250017339994
 30
0.0
 11
114.502603356742
 21
477.250017339994
 31
0.0
  0
LINE
  5
7443
330
1A
100
AcDbEntity
  8
外形線
 48
10.0
100
AcDbLine
 10
104.627603356742
 20
432.250017339994
 30
0.0
 11
98.502603356742
 21
432.250017339994
 31
0.0
  0
LINE
  5
7444
330
1A
100
AcDbEntity
  8
外形線
 48
10.0
100
AcDbLine
 10
108.377603356742
 20
432.250017339994
 30
0.0
 11
114.502603356742
 21
432.250017339994
 31
0.0
  0
CIRCLE
  5
7445
330
1A
100
AcDbEntity
  8
外形線
 48
10.0
100
AcDbCircle
 10
106.502603356742
 20
457.250017339994
 30
0.0
 40
5.0
  0
LWPOLYLINE
  5
7446
330
1A
100
AcDbEntity
  8
外形線
 48
10.0
100
AcDbPolyline
 90
        6
 70
     1
 43
0.0
 10
115.502603356742
 20
467.000017339994
 10
120.002603356742
 20
467.000017339994
 10
120.502603356742
 20
467.500017339994
 10
120.502603356742
 20
475.000017339994
 10
120.002603356742
 20
475.500017339994
 10
115.502603356742
 20
475.500017339994
  0
LINE
  5
7447
330
1A
100
AcDbEntity
  8
細線
 48
10.0
100
AcDbLine
 10
116.202603356742
 20
467.000017339994
 30
0.0
 11
116.202603356742
 21
475.500017339994
 31
0.0
  0
LINE
  5
7448
330
1A
100
AcDbEntity
  8
細線
 48
10.0
100
AcDbLine
 10
119.802603356742
 20
467.000017339994
 30
0.0
 11
119.802603356742
 21
475.500017339994
 31
0.0
  0
LINE
  5
7449
330
1A
100
AcDbEntity
  8
細線
 48
10.0
100
AcDbLine
 10
119.802603356742
 20
474.750017339994
 30
0.0
 11
116.202603356742
 21
474.750017339994
 31
0.0
  0
LINE
  5
744A
330
1A
100
AcDbEntity
  8
細線
 48
10.0
100
AcDbLine
 10
119.802603356742
 20
473.750017339994
 30
0.0
 11
116.202603356742
 21
473.750017339994
 31
0.0
  0
LINE
  5
744B
330
1A
100
AcDbEntity
  8
細線
 48
10.0
100
AcDbLine
 10
119.802603356742
 20
471.750017339994
 30
0.0
 11
116.202603356742
 21
471.750017339994
 31
0.0
  0
LINE
  5
744C
330
1A
100
AcDbEntity
  8
細線
 48
10.0
100
AcDbLine
 10
119.802603356742
 20
472.750017339994
 30
0.0
 11
116.202603356742
 21
472.750017339994
 31
0.0
  0
LINE
  5
744D
330
1A
100
AcDbEntity
  8
細線
 48
10.0
100
AcDbLine
 10
119.802603356742
 20
468.750017339994
 30
0.0
 11
116.202603356742
 21
468.750017339994
 31
0.0
  0
LINE
  5
744E
330
1A
100
AcDbEntity
  8
細線
 48
10.0
100
AcDbLine
 10
119.802603356742
 20
467.750017339994
 30
0.0
 11
116.202603356742
 21
467.750017339994
 31
0.0
  0
LINE
  5
744F
330
1A
100
AcDbEntity
  8
細線
 48
10.0
100
AcDbLine
 10
119.802603356742
 20
469.750017339994
 30
0.0
 11
116.202603356742
 21
469.750017339994
 31
0.0
  0
LINE
  5
7450
330
1A
100
AcDbEntity
  8
細線
 48
10.0
100
AcDbLine
 10
119.802603356742
 20
470.750017339994
 30
0.0
 11
116.202603356742
 21
470.750017339994
 31
0.0
  0
LWPOLYLINE
  5
7451
330
1A
100
AcDbEntity
  8
外形線
 48
10.0
100
AcDbPolyline
 90
        4
 70
     1
 43
0.0
 10
114.502603356742
 20
467.000017339994
 10
115.502603356742
 20
467.000017339994
 10
115.502603356742
 20
475.500017339994
 10
114.502603356742
 20
475.500017339994
  0
LWPOLYLINE
  5
7452
330
1A
100
AcDbEntity
  8
外形線
 48
10.0
100
AcDbPolyline
 90
        2
 70
     0
 43
0.0
 10
105.502603356742
 20
473.250017339994
 10
107.502603356742
 20
473.250017339994
  0
LWPOLYLINE
  5
7453
330
1A
100
AcDbEntity
  8
外形線
 48
10.0
100
AcDbPolyline
 90
        2
 70
     0
 43
0.0
 10
107.502603356742
 20
469.250017339994
 10
105.502603356742
 20
469.250017339994
  0
LWPOLYLINE
  5
7454
330
1A
100
AcDbEntity
  8
細線
 48
10.0
100
AcDbPolyline
 90
        2
 70
     0
 43
0.0
 10
105.502603356742
 20
472.871017339994
 10
107.502603356742
 20
472.871017339994
  0
LWPOLYLINE
  5
7455
330
1A
100
AcDbEntity
  8
細線
 48
10.0
100
AcDbPolyline
 90
        2
 70
     0
 43
0.0
 10
105.502603356742
 20
469.629017339994
 10
107.502603356742
 20
469.629017339994
  0
HATCH
  5
7456
102
{ACAD_XDICTIONARY
360
7457
102
}
330
1A
100
AcDbEntity
  8
細線
 48
10.0
100
AcDbHatch
 10
0.0
 20
0.0
 30
0.0
210
0.0
220
0.0
230
1.0
  2
ANSI31
 70
     0
 71
     1
 91
        3
 92
        7
 72
     1
 73
     1
 93
        5
 10
197.138032351825
 20
208.2315285956631
 42
0.0
 10
192.8627887181632
 20
219.9776476082292
 42
-0.0218202826865669
 10
171.8544815699782
 20
213.3537568604894
 42
0.0
 10
175.089715856746
 20
201.2797123399939
 42
0.0
 10
175.0897148691805
 20
201.2797160256341
 42
0.0218200816929291
 97
        5
330
73AA
330
73AC
330
73AB
330
73B6
330
73AD
 92
        7
 72
     1
 73
     1
 93
        5
 10
218.4966906654317
 20
217.0785867451235
 42
0.0
 10
213.2139662667982
 20
228.4074045482557
 42
-0.0218204251907324
 10
192.8627887181632
 20
219.9776476082292
 42
0.0
 10
197.138032351825
 20
208.2315285956631
 42
0.0218202196727054
 10
218.4966912902117
 20
217.0785870364638
 42
0.0
 97
        4
330
738C
330
73AC
330
73AA
330
73AD
 92
        7
 72
     1
 73
     1
 93
        5
 10
223.7794470805554
 20
205.749700282535
 42
0.0
 10
218.4966906654317
 20
217.0785867451235
 42
0.0
 10
218.4966912902117
 20
217.0785870364638
 42
-0.0218202196727054
 10
197.138032351825
 20
208.2315285956631
 42
0.0
 10
201.4133050298281
 20
196.485329784536
 42
0.0218201967385992
 97
        4
330
738C
330
73AD
330
73AA
330
73AE
 75
     0
 76
     1
 52
0.0
 41
1.0
 77
     0
 78
     1
 53
45.0
 43
0.0
 44
0.0
 45
-2.245064030267288
 46
2.245064030267288
 79
     0
 47
0.0
 98
        3
 10
188.2751986841722
 20
210.1841344411876
 10
201.2403397849837
 20
213.1992835343996
 10
209.0797274273347
 20
204.1538362547637
1001
ACAD
1010
0.0
1020
0.0
1030
0.0
1001
ACADANNOTATIVE
1000
AnnotativeData
1002
{
1070
     1
1070
     0
1002
}
  0
VIEWPORT
  5
2902
330
28FB
100
AcDbEntity
 67
     1
  8
0
 48
10.0
100
AcDbViewport
 10
235.574850018407
 20
147.288027783903
 30
0.0
 40
632.799801805568
 41
309.745218474618
 68
     1
 69
     1
1001
ACAD
1000
MVIEW
1002
{
1070
    16
1010
0.0
1020
0.0
1030
0.0
1010
0.0
1020
0.0
1030
1.0
1040
0.0
1040
309.745218474618
1040
235.574850018407
1040
147.288027783903
1040
50.0
1040
0.0
1040
0.0
1070
     0
1070
   100
1070
     0
1070
     1
1070
     0
1070
     0
1070
     0
1070
     0
1040
0.0
1040
0.0
1040
0.0
1040
10.0
1040
10.0
1040
10.0
1040
10.0
1070
     0
1002
{
1002
}
1002
}
  0
VIEWPORT
  5
2904
330
28FB
100
AcDbEntity
 67
     1
  8
図枠太線
 48
10.0
100
AcDbViewport
 10
204.746305129083
 20
163.457123274536
 30
0.0
 40
400.0
 41
240.0
 68
     2
 69
     2
1001
ACAD
1000
MVIEW
1002
{
1070
    16
1010
0.0
1020
0.0
1030
0.0
1010
0.0
1020
0.0
1030
1.0
1040
0.0
1040
600.000001139153
1040
517.617568053368
1040
295.051580357939
1040
50.0
1040
0.0
1040
0.0
1070
     0
1070
   100
1070
     0
1070
     0
1070
     0
1070
     0
1070
     0
1070
     0
1040
0.0
1040
0.0
1040
0.0
1040
1.0
1040
1.0
1040
0.0
1040
0.0
1070
     0
1002
{
1002
}
1002
}
  0
INSERT
  5
2A59
330
28FB
100
AcDbEntity
 67
     1
  8
図枠太線
100
AcDbBlockReference
  2
A3横用_タイトル
 10
-0.352109406709
 20
-0.068836478991
 30
0.0
  0
MTEXT
  5
31AF
102
{ACAD_XDICTIONARY
360
6914
102
}
330
28FB
100
AcDbEntity
 67
     1
  8
寸法線
 48
10.0
100
AcDbMText
 10
174.435713692617
 20
15.083540196478
 30
0.0
 40
5.0
 41
33.4
 71
     1
 72
     5
  1
2015.6.16
1001
ACADANNOTATIVE
1000
AnnotativeData
1002
{
1070
     1
1070
     0
1002
}
  0
MTEXT
  5
31B0
330
28FB
100
AcDbEntity
 67
     1
  8
寸法線
 48
10.0
100
AcDbMText
 10
181.157980936577
 20
34.946475743206
 30
0.0
 40
5.0
 41
27.676941518683
 71
     1
 72
     5
  1
ohno
  0
MTEXT
  5
31B1
330
28FB
100
AcDbEntity
 67
     1
  8
寸法線
 48
10.0
100
AcDbMText
 10
146.329636270656
 20
16.34448462304
 30
0.0
 40
7.0
 41
17.722495000522
 71
     1
 72
     5
  1
1:2.5
  0
MTEXT
  5
31B4
102
{ACAD_XDICTIONARY
360
6911
102
}
330
28FB
100
AcDbEntity
 67
     1
  8
寸法線
 48
10.0
100
AcDbMText
 10
343.41411075628
 20
17.345158694154
 30
0.0
 40
7.0
 41
36.987144228194
 71
     1
 72
     5
  1
\H1.143x;HY-5004
1001
ACADANNOTATIVE
1000
AnnotativeData
1002
{
1070
     1
1070
     0
1002
}
  0
MTEXT
  5
31B5
330
28FB
100
AcDbEntity
 67
     1
  8
寸法線
 48
10.0
100
AcDbMText
 10
314.580044635126
 20
35.617373769653
 30
0.0
 40
7.0
 41
41.163111342059
 71
     1
 72
     5
  1
PA-1E
  0
MTEXT
  5
31B6
330
28FB
100
AcDbEntity
 67
     1
  8
寸法線
 48
10.0
100
AcDbMText
 10
377.701941238986
 20
40.080736974002
 30
0.0
 40
5.0
 41
0.0
 71
     1
 72
     5
  1
通過警報\Pスイッチ
  0
MTEXT
  5
31B7
330
28FB
100
AcDbEntity
 67
     1
  8
寸法線
 48
10.0
100
AcDbMText
 10
371.884164254175
 20
50.972862699633
 30
0.0
 40
5.0
 41
31.274401831598
 71
     1
 72
     5
  1
台数   台
  0
ENDSEC
  0
SECTION
  2
OBJECTS
  0
DICTIONARY
  5
C
330
0
100
AcDbDictionary
  3
ACAD_COLOR
350
2948
  3
ACAD_GROUP
350
D
  3
ACAD_LAYOUT
350
2816
  3
ACAD_MATERIAL
350
2947
  3
ACAD_MLEADERSTYLE
350
690D
  3
ACAD_MLINESTYLE
350
E
  3
ACAD_PLOTSETTINGS
350
2817
  3
ACAD_SCALELIST
350
68E6
  3
ACAD_VISUALSTYLE
350
68CD
  3
ACADDIM
350
50DE
  3
ACDBHEADERROUNDTRIPXREC
350
745F
  3
ACDBVARIABLEDICTIONARY
350
7423
  3
DWGPROPS
350
7485
  0
DICTIONARY
  5
7486
330
8
100
AcDbDictionary
280
     1
  3
ACAD_XREC_ROUNDTRIP
360
7487
  0
DICTIONARY
  5
29EA
330
2
100
AcDbDictionary
280
     1
  3
ACAD_LAYERFILTERS
360
2B03
  3
ACAD_LAYERSTATES
360
29EB
  0
DICTIONARY
  5
745A
330
1A
100
AcDbDictionary
280
     1
  3
ACAD_SORTENTS
360
745B
  0
DICTIONARY
  5
745C
330
4ADB
100
AcDbDictionary
280
     1
  3
ACDBCONTEXTDATAMANAGER
360
745D
  0
DICTIONARY
  5
718D
330
718C
100
AcDbDictionary
280
     1
  3
ACDBCONTEXTDATAMANAGER
360
718E
  0
DICTIONARY
  5
742E
330
742D
100
AcDbDictionary
280
     1
  3
ACDBCONTEXTDATAMANAGER
360
742F
  0
DICTIONARY
  5
7432
330
7431
100
AcDbDictionary
280
     1
  3
ACDBCONTEXTDATAMANAGER
360
7433
  0
DICTIONARY
  5
7457
330
7456
100
AcDbDictionary
280
     1
  3
ACDBCONTEXTDATAMANAGER
360
7458
  0
DICTIONARY
  5
6914
330
31AF
100
AcDbDictionary
280
     1
  3
ACDBCONTEXTDATAMANAGER
360
6915
  0
DICTIONARY
  5
6911
330
31B4
100
AcDbDictionary
280
     1
  3
ACDBCONTEXTDATAMANAGER
360
6912
  0
DICTIONARY
  5
2948
102
{ACAD_REACTORS
330
C
102
}
330
C
100
AcDbDictionary
  0
DICTIONARY
  5
D
102
{ACAD_REACTORS
330
C
102
}
330
C
100
AcDbDictionary
  3
*A1
350
47C0
  0
DICTIONARY
  5
2816
102
{ACAD_REACTORS
330
C
102
}
330
C
100
AcDbDictionary
  0
DICTIONARY
  5
2947
102
{ACAD_REACTORS
330
C
102
}
330
C
100
AcDbDictionary
  3
BYBLOCK
350
6909
  3
BYLAYER
350
6908
  3
GLOBAL
350
690A
  0
DICTIONARY
  5
690D
102
{ACAD_REACTORS
330
C
102
}
330
C
100
AcDbDictionary
  3
STANDARD
350
690E
  0
DICTIONARY
  5
E
102
{ACAD_REACTORS
330
C
102
}
330
C
100
AcDbDictionary
  3
STANDARD
350
13
  0
DICTIONARY
  5
2817
102
{ACAD_REACTORS
330
C
102
}
330
C
100
AcDbDictionary
  0
DICTIONARY
  5
68E6
102
{ACAD_REACTORS
330
C
102
}
330
C
100
AcDbDictionary
  3
A0
350
68E7
  3
A1
350
68E8
  3
A2
350
68E9
  3
A3
350
68EA
  3
A4
350
68EB
  3
A5
350
68EC
  3
A6
350
68ED
  3
A7
350
68EE
  3
A8
350
68EF
  3
A9
350
68F0
  3
B0
350
68F1
  3
B1
350
68F2
  3
B2
350
68F3
  3
B3
350
68F4
  3
B4
350
68F5
  3
B5
350
68F6
  3
B6
350
68F7
  3
B7
350
68F8
  3
B8
350
68F9
  3
B9
350
68FA
  3
C0
350
68FB
  3
C1
350
68FC
  3
C2
350
68FD
  3
C3
350
68FE
  3
C4
350
68FF
  3
C5
350
6900
  3
C6
350
6901
  3
C7
350
6902
  3
C8
350
6903
  3
C9
350
6904
  3
D0
350
6905
  3
D1
350
6906
  3
D2
350
6907
  0
DICTIONARY
  5
68CD
102
{ACAD_REACTORS
330
C
102
}
330
C
100
AcDbDictionary
  3
2DWIREFRAME
350
68D2
  3
BASIC
350
68D5
  3
BRIGHTEN
350
68D9
  3
COLORCHANGE
350
68DD
  3
CONCEPTUAL
350
68D7
  3
DIM
350
68D8
  3
EDGECOLOROFF
350
68E0
  3
FACEPATTERN
350
68DC
  3
FLAT
350
68CE
  3
FLATWITHEDGES
350
68CF
  3
GOURAUD
350
68D0
  3
GOURAUDWITHEDGES
350
68D1
  3
HIDDEN
350
68D4
  3
JITTEROFF
350
68DE
  3
LINEPATTERN
350
68DB
  3
OVERHANGOFF
350
68DF
  3
REALISTIC
350
68D6
  3
SHADED
350
68E5
  3
SHADED_WITH_EDGES
350
68E4
  3
SHADES_OF_GRAY
350
68E1
  3
SKETCHY
350
68E2
  3
THICKEN
350
68DA
  3
WIREFRAME
350
68D3
  3
X-RAY
350
68E3
  0
XRECORD
  5
50DE
102
{ACAD_REACTORS
330
C
102
}
330
C
100
AcDbXrecord
 90
   990106
  3

 60
     0
 61
     0
 62
     4
 63
     4
 64
     1
 65
     0
 66
     0
 67
     3
 68
     1
 69
     0
 70
     0
 71
     0
 72
     0
 40
0.0
170
     2
340
5CD5
  0
DICTIONARY
  5
745F
102
{ACAD_REACTORS
330
C
102
}
330
C
100
AcDbDictionary
  3
CEPSNID
350
7469
  3
CEPSNTYPE
350
7468
  3
COLORDICT
350
7483
  3
DIMSTYLEDATA
350
747F
  3
FINGERPRINTGUID
350
746A
  3
HYPERLINKBASE
350
7462
  3
INSUNITS
350
7467
  3
LAYOUTDICT
350
7464
  3
LWETCUNION
350
7466
  3
MATERIALDICT
350
7484
  3
PLOTSETDICT
350
7465
  3
PSVPSCALE
350
746C
  3
PUCSBASE
350
746F
  3
PUCSORGBACK
350
7475
  3
PUCSORGBOTTOM
350
7471
  3
PUCSORGFRONT
350
7474
  3
PUCSORGLEFT
350
7472
  3
PUCSORGRIGHT
350
7473
  3
PUCSORGTOP
350
7470
  3
PUCSORTHOREF
350
746D
  3
PUCSORTHOVIEW
350
746E
  3
STYLESHEET
350
7463
  3
TSTACKALIGN
350
7460
  3
TSTACKSIZE
350
7461
  3
UCSBASE
350
7478
  3
UCSORGBACK
350
747E
  3
UCSORGBOTTOM
350
747A
  3
UCSORGFRONT
350
747D
  3
UCSORGLEFT
350
747B
  3
UCSORGRIGHT
350
747C
  3
UCSORGTOP
350
7479
  3
UCSORTHOREF
350
7476
  3
UCSORTHOVIEW
350
7477
  3
VERSIONGUID
350
746B
  0
DICTIONARY
  5
7423
102
{ACAD_REACTORS
330
C
102
}
330
C
100
AcDbDictionary
  3
CANNOSCALE
350
7424
  3
CMLEADERSTYLE
350
7426
  3
CTABLESTYLE
350
7425
  3
DIMASSOC
350
7481
  3
HIDETEXT
350
7482
  3
MSLTSCALE
350
7427
  3
SORTENTS
350
7480
  3
XCLIPFRAME
350
7428
  0
XRECORD
  5
7485
102
{ACAD_REACTORS
330
C
102
}
330
C
100
AcDbXrecord
  1
DWGPROPS COOKIE
  2

  3

  4

  6

  7

  8
y-ohno
  9

300
=
301
=
302
=
303
=
304
=
305
=
306
=
307
=
308
=
309
=
 40
0.0
 41
2450576.222302431
 42
2457193.279577107
  1

 90
        0
  0
XRECORD
  5
7487
102
{ACAD_REACTORS
330
7486
102
}
330
7486
100
AcDbXrecord
102
VTR_0.000_0.000_1.000_1.000_VISUALSTYLE
340
68D2
102
VTR_0.000_0.000_1.000_1.000_GRIDDISPLAY
 70
     3
102
VTR_0.000_0.000_1.000_1.000_GRIDMAJOR
 70
     5
102
VTR_0.000_0.000_1.000_1.000_DEFAULTLIGHTING
280
     1
102
VTR_0.000_0.000_1.000_1.000_DEFAULTLIGHTINGTYPE
 70
     1
102
VTR_0.000_0.000_1.000_1.000_BRIGHTNESS
141
0.0
102
VTR_0.000_0.000_1.000_1.000_CONTRAST
142
0.0
  0
DICTIONARY
  5
2B03
102
{ACAD_REACTORS
330
29EA
102
}
330
29EA
100
AcDbDictionary
  0
DICTIONARY
  5
29EB
102
{ACAD_REACTORS
330
29EA
102
}
330
29EA
100
AcDbDictionary
  0
SORTENTSTABLE
  5
745B
102
{ACAD_REACTORS
330
745A
102
}
330
745A
100
AcDbSortentsTable
330
1A
331
0
  5
738F
331
738C
  5
738D
331
738D
  5
738E
331
7396
  5
7397
331
7397
  5
7398
331
7399
  5
739C
331
739C
  5
739D
331
739D
  5
739E
331
739E
  5
739F
331
739F
  5
73A0
331
73A0
  5
73A1
331
73A1
  5
73A2
331
73A2
  5
73A3
331
73A3
  5
73A4
331
73A4
  5
73A5
331
73A5
  5
73A8
331
73A8
  5
73A9
331
73A9
  5
73AA
331
73AA
  5
73AB
331
73AB
  5
73AC
331
73AC
  5
73AD
331
73AD
  5
73AE
331
73AE
  5
73AF
331
73AF
  5
73B0
331
73B0
  5
73B1
331
73B1
  5
73B2
331
73B2
  5
73B3
331
73B3
  5
73B4
331
73B4
  5
73B5
331
73B5
  5
73B6
331
73B6
  5
73B7
331
73B7
  5
73F7
331
73F7
  5
73F8
331
73F8
  5
73F9
331
73F9
  5
73FA
331
73FA
  5
73FB
331
73FB
  5
73FC
331
73FC
  5
742B
331
742B
  5
742C
331
742C
  5
742D
331
742D
  5
7431
331
7431
  5
7435
331
7435
  5
7436
331
7436
  5
7437
331
7437
  5
7438
331
7438
  5
7439
331
7439
  5
743A
331
743A
  5
743B
331
743B
  5
743C
331
743C
  5
743D
331
743D
  5
743E
331
743E
  5
743F
331
743F
  5
7440
331
7440
  5
7441
331
7441
  5
7442
331
7442
  5
7443
331
7443
  5
7444
331
7444
  5
7445
331
7445
  5
7446
331
7446
  5
7447
331
7447
  5
7448
331
7448
  5
7449
331
7449
  5
744A
331
744A
  5
744B
331
744B
  5
744C
331
744C
  5
744D
331
744D
  5
744E
331
744E
  5
744F
331
744F
  5
7450
331
7450
  5
7451
331
7451
  5
7452
331
7452
  5
7453
331
7453
  5
7454
331
7454
  5
7455
331
7455
  5
7456
331
7456
  5
738C
  0
DICTIONARY
  5
745D
102
{ACAD_REACTORS
330
745C
102
}
330
745C
100
AcDbDictionary
  3
ACDB_ANNOTATIONSCALES
350
745E
  0
DICTIONARY
  5
718E
102
{ACAD_REACTORS
330
718D
102
}
330
718D
100
AcDbDictionary
  3
ACDB_ANNOTATIONSCALES
350
718F
  0
DICTIONARY
  5
742F
102
{ACAD_REACTORS
330
742E
102
}
330
742E
100
AcDbDictionary
  3
ACDB_ANNOTATIONSCALES
350
7430
  0
DICTIONARY
  5
7433
102
{ACAD_REACTORS
330
7432
102
}
330
7432
100
AcDbDictionary
  3
ACDB_ANNOTATIONSCALES
350
7434
  0
DICTIONARY
  5
7458
102
{ACAD_REACTORS
330
7457
102
}
330
7457
100
AcDbDictionary
  3
ACDB_ANNOTATIONSCALES
350
7459
  0
DICTIONARY
  5
6915
102
{ACAD_REACTORS
330
6914
102
}
330
6914
100
AcDbDictionary
  3
ACDB_ANNOTATIONSCALES
350
6916
  0
DICTIONARY
  5
6912
102
{ACAD_REACTORS
330
6911
102
}
330
6911
100
AcDbDictionary
  3
ACDB_ANNOTATIONSCALES
350
6913
  0
GROUP
  5
47C0
102
{ACAD_REACTORS
330
D
102
}
330
D
100
AcDbGroup
300

 70
     1
 71
     1
340
47BF
340
47BE
340
47BD
340
47BC
340
47BB
340
47BA
340
47B9
340
47B7
340
47B6
340
47B3
  0
MATERIAL
  5
6909
102
{ACAD_REACTORS
330
2947
102
}
102
{ACAD_XDICTIONARY
360
748A
102
}
330
2947
100
AcDbMaterial
  1
BYBLOCK
  0
MATERIAL
  5
6908
102
{ACAD_REACTORS
330
2947
102
}
102
{ACAD_XDICTIONARY
360
7488
102
}
330
2947
100
AcDbMaterial
  1
BYLAYER
  0
MATERIAL
  5
690A
102
{ACAD_REACTORS
330
2947
102
}
102
{ACAD_XDICTIONARY
360
748C
102
}
330
2947
100
AcDbMaterial
  1
GLOBAL
  0
ACAD_PROXY_OBJECT
  5
690E
102
{ACAD_REACTORS
330
690D
102
}
330
690D
100
AcDbProxyObject
 90
      499
 91
      508
 93
      610
310
40901902A4063FBFFFFFE0000000000000020400000000000020404214DD185B99185C990000000000000104090141901A00000000000004100000000000000041025764000000000000039000
340
14
340
0
340
10
340
0
 94
        0
1001
ACAD_MLEADERVER
1070
     2
  0
MLINESTYLE
  5
13
102
{ACAD_REACTORS
330
E
102
}
330
E
100
AcDbMlineStyle
  2
STANDARD
 70
     0
  3

 62
     0
 51
90.0
 52
90.0
 71
     2
 49
0.5
 62
   256
  6
BYLAYER
 49
-0.5
 62
   256
  6
BYLAYER
  0
ACAD_PROXY_OBJECT
  5
68E7
102
{ACAD_REACTORS
330
68E6
102
}
330
68E6
100
AcDbProxyObject
 90
      499
 91
      505
 93
       41
310
903313A31580
  0
ACAD_PROXY_OBJECT
  5
68E8
102
{ACAD_REACTORS
330
68E6
102
}
330
68E6
100
AcDbProxyObject
 90
      499
 91
      505
 93
      105
310
903313A324000000000000004000
  0
ACAD_PROXY_OBJECT
  5
68E9
102
{ACAD_REACTORS
330
68E6
102
}
330
68E6
100
AcDbProxyObject
 90
      499
 91
      505
 93
      105
310
903313A344000000000000104000
  0
ACAD_PROXY_OBJECT
  5
68EA
102
{ACAD_REACTORS
330
68E6
102
}
330
68E6
100
AcDbProxyObject
 90
      499
 91
      505
 93
      105
310
903313A354000000000000144000
  0
ACAD_PROXY_OBJECT
  5
68EB
102
{ACAD_REACTORS
330
68E6
102
}
330
68E6
100
AcDbProxyObject
 90
      499
 91
      505
 93
      105
310
903313A384000000000000204000
  0
ACAD_PROXY_OBJECT
  5
68EC
102
{ACAD_REACTORS
330
68E6
102
}
330
68E6
100
AcDbProxyObject
 90
      499
 91
      505
 93
      113
310
904313A31304000000000000244000
  0
ACAD_PROXY_OBJECT
  5
68ED
102
{ACAD_REACTORS
330
68E6
102
}
330
68E6
100
AcDbProxyObject
 90
      499
 91
      505
 93
      113
310
904313A31364000000000000304000
  0
ACAD_PROXY_OBJECT
  5
68EE
102
{ACAD_REACTORS
330
68E6
102
}
330
68E6
100
AcDbProxyObject
 90
      499
 91
      505
 93
      113
310
904313A32304000000000000344000
  0
ACAD_PROXY_OBJECT
  5
68EF
102
{ACAD_REACTORS
330
68E6
102
}
330
68E6
100
AcDbProxyObject
 90
      499
 91
      505
 93
      113
310
904313A333040000000000003E4000
  0
ACAD_PROXY_OBJECT
  5
68F0
102
{ACAD_REACTORS
330
68E6
102
}
330
68E6
100
AcDbProxyObject
 90
      499
 91
      505
 93
      113
310
904313A34304000000000000444000
  0
ACAD_PROXY_OBJECT
  5
68F1
102
{ACAD_REACTORS
330
68E6
102
}
330
68E6
100
AcDbProxyObject
 90
      499
 91
      505
 93
      113
310
904313A35304000000000000494000
  0
ACAD_PROXY_OBJECT
  5
68F2
102
{ACAD_REACTORS
330
68E6
102
}
330
68E6
100
AcDbProxyObject
 90
      499
 91
      505
 93
      121
310
905313A3130304000000000000594000
  0
ACAD_PROXY_OBJECT
  5
68F3
102
{ACAD_REACTORS
330
68E6
102
}
330
68E6
100
AcDbProxyObject
 90
      499
 91
      505
 93
      105
310
903323A310000000000000010100
  0
ACAD_PROXY_OBJECT
  5
68F4
102
{ACAD_REACTORS
330
68E6
102
}
330
68E6
100
AcDbProxyObject
 90
      499
 91
      505
 93
      105
310
903343A310000000000000410100
  0
ACAD_PROXY_OBJECT
  5
68F5
102
{ACAD_REACTORS
330
68E6
102
}
330
68E6
100
AcDbProxyObject
 90
      499
 91
      505
 93
      105
310
903383A310000000000000810100
  0
ACAD_PROXY_OBJECT
  5
68F6
102
{ACAD_REACTORS
330
68E6
102
}
330
68E6
100
AcDbProxyObject
 90
      499
 91
      505
 93
      113
310
90431303A310000000000000910100
  0
ACAD_PROXY_OBJECT
  5
68F7
102
{ACAD_REACTORS
330
68E6
102
}
330
68E6
100
AcDbProxyObject
 90
      499
 91
      505
 93
      121
310
9053130303A310000000000001650100
  0
ACAD_PROXY_OBJECT
  5
68F8
102
{ACAD_REACTORS
330
68E6
102
}
330
68E6
100
AcDbProxyObject
 90
      499
 91
      505
 93
      257
310
90E312F31323822203D2031272D3022000000000000200FC000000000000284000
  0
ACAD_PROXY_OBJECT
  5
68F9
102
{ACAD_REACTORS
330
68E6
102
}
330
68E6
100
AcDbProxyObject
 90
      499
 91
      505
 93
      249
310
90D312F363422203D2031272D3022000000000000240FC000000000000284000
  0
ACAD_PROXY_OBJECT
  5
68FA
102
{ACAD_REACTORS
330
68E6
102
}
330
68E6
100
AcDbProxyObject
 90
      499
 91
      505
 93
      249
310
90D312F333222203D2031272D3022000000000000280FC000000000000284000
  0
ACAD_PROXY_OBJECT
  5
68FB
102
{ACAD_REACTORS
330
68E6
102
}
330
68E6
100
AcDbProxyObject
 90
      499
 91
      505
 93
      249
310
90D312F313622203D2031272D30220000000000002C0FC000000000000284000
  0
ACAD_PROXY_OBJECT
  5
68FC
102
{ACAD_REACTORS
330
68E6
102
}
330
68E6
100
AcDbProxyObject
 90
      499
 91
      505
 93
      249
310
90D332F333222203D2031272D30220000000000002E0FC000000000000284000
  0
ACAD_PROXY_OBJECT
  5
68FD
102
{ACAD_REACTORS
330
68E6
102
}
330
68E6
100
AcDbProxyObject
 90
      499
 91
      505
 93
      241
310
90C312F3822203D2031272D3022000000000000300FC000000000000284000
  0
ACAD_PROXY_OBJECT
  5
68FE
102
{ACAD_REACTORS
330
68E6
102
}
330
68E6
100
AcDbProxyObject
 90
      499
 91
      505
 93
      249
310
90D332F313622203D2031272D3022000000000000320FC000000000000284000
  0
ACAD_PROXY_OBJECT
  5
68FF
102
{ACAD_REACTORS
330
68E6
102
}
330
68E6
100
AcDbProxyObject
 90
      499
 91
      505
 93
      241
310
90C312F3422203D2031272D3022000000000000340FC000000000000284000
  0
ACAD_PROXY_OBJECT
  5
6900
102
{ACAD_REACTORS
330
68E6
102
}
330
68E6
100
AcDbProxyObject
 90
      499
 91
      505
 93
      241
310
90C332F3822203D2031272D3022000000000000360FC000000000000284000
  0
ACAD_PROXY_OBJECT
  5
6901
102
{ACAD_REACTORS
330
68E6
102
}
330
68E6
100
AcDbProxyObject
 90
      499
 91
      505
 93
      241
310
90C312F3222203D2031272D3022000000000000380FC000000000000284000
  0
ACAD_PROXY_OBJECT
  5
6902
102
{ACAD_REACTORS
330
68E6
102
}
330
68E6
100
AcDbProxyObject
 90
      499
 91
      505
 93
      241
310
90C332F3422203D2031272D30220000000000003A0FC000000000000284000
  0
ACAD_PROXY_OBJECT
  5
6903
102
{ACAD_REACTORS
330
68E6
102
}
330
68E6
100
AcDbProxyObject
 90
      499
 91
      505
 93
      161
310
90A3122203D2031272D30224000000000000284000
  0
ACAD_PROXY_OBJECT
  5
6904
102
{ACAD_REACTORS
330
68E6
102
}
330
68E6
100
AcDbProxyObject
 90
      499
 91
      505
 93
      257
310
90E312D312F3222203D2031272D30220000000000003E0FC000000000000284000
  0
ACAD_PROXY_OBJECT
  5
6905
102
{ACAD_REACTORS
330
68E6
102
}
330
68E6
100
AcDbProxyObject
 90
      499
 91
      505
 93
      225
310
90A3322203D2031272D302200000000000002100000000000000284000
  0
ACAD_PROXY_OBJECT
  5
6906
102
{ACAD_REACTORS
330
68E6
102
}
330
68E6
100
AcDbProxyObject
 90
      499
 91
      505
 93
      225
310
90A3622203D2031272D302200000000000006100000000000000284000
  0
ACAD_PROXY_OBJECT
  5
6907
102
{ACAD_REACTORS
330
68E6
102
}
330
68E6
100
AcDbProxyObject
 90
      499
 91
      505
 93
      249
310
90D31272D3022203D2031272D30220000000000000A100000000000000284000
  0
ACAD_PROXY_OBJECT
  5
68D2
102
{ACAD_REACTORS
330
68CD
102
}
330
68CD
100
AcDbProxyObject
 90
      499
 91
      504
 93
      436
310
42CC9915DA5C99599C985B595049028333333333333E33F0000000000000F90107901411070040501600405405064090741402480A0340
1001
ACAD
1000
AcDbSavedByObjectVersion
1070
     0
  0
ACAD_PROXY_OBJECT
  5
68D5
102
{ACAD_REACTORS
330
68CD
102
}
330
68CD
100
AcDbProxyObject
 90
      499
 91
      504
 93
      388
310
4150985CDA58D07406404333333333333E33F0000000000000F90107A41107004050150841D405064090741402480A0350
1001
ACAD
1000
AcDbSavedByObjectVersion
1070
     0
  0
ACAD_PROXY_OBJECT
  5
68D9
102
{ACAD_REACTORS
330
68CD
102
}
330
68CD
100
AcDbProxyObject
 90
      499
 91
      504
 93
      428
310
42109C9A59DA1D195B90C409028333333333333E33F0000000000000F9010790141107004050150841D405064090741402480A029950
1001
ACAD
1000
AcDbSavedByObjectVersion
1070
     0
  0
ACAD_PROXY_OBJECT
  5
68DD
102
{ACAD_REACTORS
330
68CD
102
}
330
68CD
100
AcDbProxyObject
 90
      499
 91
      504
 93
      452
310
42D0DBDB1BDC90DA185B99D95104090240C333333333333E33F0000000000000F90108901411070040501508421405064090741402480A0350
1001
ACAD
1000
AcDbSavedByObjectVersion
1070
     0
  0
ACAD_PROXY_OBJECT
  5
68D7
102
{ACAD_REACTORS
330
68CD
102
}
330
68CD
100
AcDbProxyObject
 90
      499
 91
      504
 93
      500
310
4290DBDB98D95C1D1D585B10940D028333333333333E33F0000000000000F90107902409070040501000000000018199010841D405064090740C02480A0340
1001
ACAD
1000
AcDbSavedByObjectVersion
1070
     0
  0
ACAD_PROXY_OBJECT
  5
68D8
102
{ACAD_REACTORS
330
68CD
102
}
330
68CD
100
AcDbProxyObject
 90
      499
 91
      504
 93
      412
310
40D11A5B50B409028333333333333E33F0000000000000F9010790141107004050150841D405064090741402480A02677FFFFFD0
1001
ACAD
1000
AcDbSavedByObjectVersion
1070
     0
  0
ACAD_PROXY_OBJECT
  5
68E0
102
{ACAD_REACTORS
330
68CD
102
}
330
68CD
100
AcDbProxyObject
 90
      499
 91
      504
 93
      452
310
43115919D950DBDB1BDC93D999916409028333333333333E33F0000000000000F9010790141107004050150841D405064090741402480A0350
1001
ACAD
1000
AcDbSavedByObjectVersion
1070
     0
  0
ACAD_PROXY_OBJECT
  5
68DC
102
{ACAD_REACTORS
330
68CD
102
}
330
68CD
100
AcDbProxyObject
 90
      499
 91
      504
 93
      444
310
42D19858D95C185D1D195C9B90F409028333333333333E33F0000000000000F9010790141107004050150841D405064090741402480A0350
1001
ACAD
1000
AcDbSavedByObjectVersion
1070
     0
  0
ACAD_PROXY_OBJECT
  5
68CE
102
{ACAD_REACTORS
330
68CD
102
}
330
68CD
100
AcDbProxyObject
 90
      499
 91
      504
 93
      380
310
41119B185D240901404333333333333E33F0000000000000F9010740A907004050150841D405064090741402480A1B50
1001
ACAD
1000
AcDbSavedByObjectVersion
1070
     0
  0
ACAD_PROXY_OBJECT
  5
68CF
102
{ACAD_REACTORS
330
68CD
102
}
330
68CD
100
AcDbProxyObject
 90
      499
 91
      504
 93
      468
310
43519B185D15DA5D1A115919D95CD0140901404333333333333E33F0000000000000F90107409019070040501600405405064090741402480A1B50
1001
ACAD
1000
AcDbSavedByObjectVersion
1070
     0
  0
ACAD_PROXY_OBJECT
  5
68D0
102
{ACAD_REACTORS
330
68CD
102
}
330
68CD
100
AcDbProxyObject
 90
      499
 91
      504
 93
      404
310
41D1DBDD5C985D5910240902404333333333333E33F0000000000000F9010740A9070040501641D405064090741402480A1B50
1001
ACAD
1000
AcDbSavedByObjectVersion
1070
     0
  0
ACAD_PROXY_OBJECT
  5
68D1
102
{ACAD_REACTORS
330
68CD
102
}
330
68CD
100
AcDbProxyObject
 90
      499
 91
      504
 93
      492
310
4411DBDD5C985D5915DA5D1A115919D95CD0340902404333333333333E33F0000000000000F90107409019070040501600405405064090741402480A1B50
1001
ACAD
1000
AcDbSavedByObjectVersion
1070
     0
  0
ACAD_PROXY_OBJECT
  5
68D4
102
{ACAD_REACTORS
330
68CD
102
}
330
68CD
100
AcDbProxyObject
 90
      499
 91
      504
 93
      476
310
41921A5919195B90640502408333333333333E33F0000000000000F901079024090700405020000000000001110200405405064090740C02480A0340
1001
ACAD
1000
AcDbSavedByObjectVersion
1070
     0
  0
ACAD_PROXY_OBJECT
  5
68DE
102
{ACAD_REACTORS
330
68CD
102
}
330
68CD
100
AcDbProxyObject
 90
      499
 91
      504
 93
      428
310
42529A5D1D195C93D999914409028333333333333E33F0000000000000F9010790141107004050150A41D405064090741402480A0350
1001
ACAD
1000
AcDbSavedByObjectVersion
1070
     0
  0
ACAD_PROXY_OBJECT
  5
68DB
102
{ACAD_REACTORS
330
68CD
102
}
330
68CD
100
AcDbProxyObject
 90
      499
 91
      504
 93
      444
310
42D31A5B995C185D1D195C9B90E409028333333333333E33F0000000000000F9010790141107004050750841D405064090741402483A0350
1001
ACAD
1000
AcDbSavedByObjectVersion
1070
     0
  0
ACAD_PROXY_OBJECT
  5
68DF
102
{ACAD_REACTORS
330
68CD
102
}
330
68CD
100
AcDbProxyObject
 90
      499
 91
      504
 93
      444
310
42D3DD995C9A185B99D3D999915409028333333333333E33F0000000000000F9010790141107004050150941D405064090741402480A0350
1001
ACAD
1000
AcDbSavedByObjectVersion
1070
     0
  0
ACAD_PROXY_OBJECT
  5
68D6
102
{ACAD_REACTORS
330
68CD
102
}
330
68CD
100
AcDbProxyObject
 90
      499
 91
      504
 93
      428
310
425499585B1A5CDD1A58D08409038333333333333E33F0000000000000F9010740A907004050150800405405064090740C02480A1B40
1001
ACAD
1000
AcDbSavedByObjectVersion
1070
     0
  0
ACAD_PROXY_OBJECT
  5
68E5
102
{ACAD_REACTORS
330
68CD
102
}
330
68CD
100
AcDbProxyObject
 90
      499
 91
      504
 93
      420
310
4194DA1859195911B40902404333333333333E33F0000000000000F9010740A41107004050150800405405064090840C02480A0B40
1001
ACAD
1000
AcDbSavedByObjectVersion
1070
     0
  0
ACAD_PROXY_OBJECT
  5
68E4
102
{ACAD_REACTORS
330
68CD
102
}
330
68CD
100
AcDbProxyObject
 90
      499
 91
      504
 93
      516
310
4454DA18591959081DDA5D1A08195919D95CD1A40902404333333333333E33F0000000000000F901074090142907004050250800405405064090740C02480A0B40
1001
ACAD
1000
AcDbSavedByObjectVersion
1070
     0
  0
ACAD_PROXY_OBJECT
  5
68E1
102
{ACAD_REACTORS
330
68CD
102
}
330
68CD
100
AcDbProxyObject
 90
      499
 91
      504
 93
      532
310
4394DA1859195CC81BD98811DC985E5174090240C333333333333E33F0000000000000F901079024090741D01000000000000111010841D405064090740C02480A0340
1001
ACAD
1000
AcDbSavedByObjectVersion
1070
     0
  0
ACAD_PROXY_OBJECT
  5
68E2
102
{ACAD_REACTORS
330
68CD
102
}
330
68CD
100
AcDbProxyObject
 90
      499
 91
      504
 93
      476
310
41D4DAD95D18DA1E51840502408333333333333E33F0000000000000F901079024090741D01000000000000111010B41D405064090741802480A0340
1001
ACAD
1000
AcDbSavedByObjectVersion
1070
     0
  0
ACAD_PROXY_OBJECT
  5
68DA
102
{ACAD_REACTORS
330
68CD
102
}
330
68CD
100
AcDbProxyObject
 90
      499
 91
      504
 93
      412
310
41D51A1A58DAD95B90D409028333333333333E33F0000000000000F9010790141107004050150C41D405064090741402480A0350
1001
ACAD
1000
AcDbSavedByObjectVersion
1070
     0
  0
ACAD_PROXY_OBJECT
  5
68D3
102
{ACAD_REACTORS
330
68CD
102
}
330
68CD
100
AcDbProxyObject
 90
      499
 91
      504
 93
      420
310
4255DA5C99599C985B595059028333333333333E33F0000000000000F90107901411070040501600405405064090740C02480A0340
1001
ACAD
1000
AcDbSavedByObjectVersion
1070
     0
  0
ACAD_PROXY_OBJECT
  5
68E3
102
{ACAD_REACTORS
330
68CD
102
}
330
68CD
100
AcDbProxyObject
 90
      499
 91
      504
 93
      404
310
41560B54985E51940902404000000000000E03F0000000000000F9010740501907004050150841D405064090740C02480A1B40
1001
ACAD
1000
AcDbSavedByObjectVersion
1070
     0
  0
XRECORD
  5
7469
102
{ACAD_REACTORS
330
745F
102
}
330
745F
100
AcDbXrecord
340
0
  0
XRECORD
  5
7468
102
{ACAD_REACTORS
330
745F
102
}
330
745F
100
AcDbXrecord
 90
        0
  0
XRECORD
  5
7483
102
{ACAD_REACTORS
330
745F
102
}
330
745F
100
AcDbXrecord
340
2948
  0
XRECORD
  5
747F
102
{ACAD_REACTORS
330
745F
102
}
330
745F
100
AcDbXrecord
1000
DSTYLE
1002
{
1070
   171
 70
     2
1070
   143
 40
0.0394
1070
   274
 70
     2
1070
    41
 40
6.0
1070
   342
340
2AEB
1070
   271
 70
     1
1070
   278
 70
    46
1070
   341
340
2AEB
1070
   272
 70
     1
1070
    48
 40
0.1
1070
   283
 70
     1
1070
    47
 40
0.1
1070
   145
 40
1.0
1070
   340
340
10
1070
   140
 40
10.0
1070
   284
 70
     0
1002
}
  0
XRECORD
  5
746A
102
{ACAD_REACTORS
330
745F
102
}
330
745F
100
AcDbXrecord
  1
{23698909-1D67-4744-B0E2-8DE11E3ED422}
  0
XRECORD
  5
7462
102
{ACAD_REACTORS
330
745F
102
}
330
745F
100
AcDbXrecord
  1

  0
XRECORD
  5
7467
102
{ACAD_REACTORS
330
745F
102
}
330
745F
100
AcDbXrecord
 90
        0
  0
XRECORD
  5
7464
102
{ACAD_REACTORS
330
745F
102
}
330
745F
100
AcDbXrecord
340
2816
  0
XRECORD
  5
7466
102
{ACAD_REACTORS
330
745F
102
}
330
745F
100
AcDbXrecord
 90
    10781
  0
XRECORD
  5
7484
102
{ACAD_REACTORS
330
745F
102
}
330
745F
100
AcDbXrecord
340
2947
  0
XRECORD
  5
7465
102
{ACAD_REACTORS
330
745F
102
}
330
745F
100
AcDbXrecord
340
2817
  0
XRECORD
  5
746C
102
{ACAD_REACTORS
330
745F
102
}
330
745F
100
AcDbXrecord
 40
0.25
  0
XRECORD
  5
746F
102
{ACAD_REACTORS
330
745F
102
}
330
745F
100
AcDbXrecord
340
0
  0
XRECORD
  5
7475
102
{ACAD_REACTORS
330
745F
102
}
330
745F
100
AcDbXrecord
 10
0.0
 20
0.0
 30
0.0
  0
XRECORD
  5
7471
102
{ACAD_REACTORS
330
745F
102
}
330
745F
100
AcDbXrecord
 10
0.0
 20
0.0
 30
0.0
  0
XRECORD
  5
7474
102
{ACAD_REACTORS
330
745F
102
}
330
745F
100
AcDbXrecord
 10
0.0
 20
0.0
 30
0.0
  0
XRECORD
  5
7472
102
{ACAD_REACTORS
330
745F
102
}
330
745F
100
AcDbXrecord
 10
0.0
 20
0.0
 30
0.0
  0
XRECORD
  5
7473
102
{ACAD_REACTORS
330
745F
102
}
330
745F
100
AcDbXrecord
 10
0.0
 20
0.0
 30
0.0
  0
XRECORD
  5
7470
102
{ACAD_REACTORS
330
745F
102
}
330
745F
100
AcDbXrecord
 10
0.0
 20
0.0
 30
0.0
  0
XRECORD
  5
746D
102
{ACAD_REACTORS
330
745F
102
}
330
745F
100
AcDbXrecord
340
0
  0
XRECORD
  5
746E
102
{ACAD_REACTORS
330
745F
102
}
330
745F
100
AcDbXrecord
 70
     0
  0
XRECORD
  5
7463
102
{ACAD_REACTORS
330
745F
102
}
330
745F
100
AcDbXrecord
  1

  0
XRECORD
  5
7460
102
{ACAD_REACTORS
330
745F
102
}
330
745F
100
AcDbXrecord
 90
        1
  0
XRECORD
  5
7461
102
{ACAD_REACTORS
330
745F
102
}
330
745F
100
AcDbXrecord
 90
       70
  0
XRECORD
  5
7478
102
{ACAD_REACTORS
330
745F
102
}
330
745F
100
AcDbXrecord
340
0
  0
XRECORD
  5
747E
102
{ACAD_REACTORS
330
745F
102
}
330
745F
100
AcDbXrecord
 10
0.0
 20
0.0
 30
0.0
  0
XRECORD
  5
747A
102
{ACAD_REACTORS
330
745F
102
}
330
745F
100
AcDbXrecord
 10
0.0
 20
0.0
 30
0.0
  0
XRECORD
  5
747D
102
{ACAD_REACTORS
330
745F
102
}
330
745F
100
AcDbXrecord
 10
0.0
 20
0.0
 30
0.0
  0
XRECORD
  5
747B
102
{ACAD_REACTORS
330
745F
102
}
330
745F
100
AcDbXrecord
 10
0.0
 20
0.0
 30
0.0
  0
XRECORD
  5
747C
102
{ACAD_REACTORS
330
745F
102
}
330
745F
100
AcDbXrecord
 10
0.0
 20
0.0
 30
0.0
  0
XRECORD
  5
7479
102
{ACAD_REACTORS
330
745F
102
}
330
745F
100
AcDbXrecord
 10
0.0
 20
0.0
 30
0.0
  0
XRECORD
  5
7476
102
{ACAD_REACTORS
330
745F
102
}
330
745F
100
AcDbXrecord
340
0
  0
XRECORD
  5
7477
102
{ACAD_REACTORS
330
745F
102
}
330
745F
100
AcDbXrecord
 70
     0
  0
XRECORD
  5
746B
102
{ACAD_REACTORS
330
745F
102
}
330
745F
100
AcDbXrecord
  1
{68BAB7D0-F3A3-4FA9-A904-F238840623E2}
  0
DICTIONARYVAR
  5
7424
102
{ACAD_REACTORS
330
7423
102
}
330
7423
100
DictionaryVariables
280
     0
  1
1:1
  0
DICTIONARYVAR
  5
7426
102
{ACAD_REACTORS
330
7423
102
}
330
7423
100
DictionaryVariables
280
     0
  1
Standard
  0
DICTIONARYVAR
  5
7425
102
{ACAD_REACTORS
330
7423
102
}
330
7423
100
DictionaryVariables
280
     0
  1
Standard
  0
DICTIONARYVAR
  5
7481
102
{ACAD_REACTORS
330
7423
102
}
330
7423
100
DictionaryVariables
280
     0
  1
1
  0
DICTIONARYVAR
  5
7482
102
{ACAD_REACTORS
330
7423
102
}
330
7423
100
DictionaryVariables
280
     0
  1
0
  0
DICTIONARYVAR
  5
7427
102
{ACAD_REACTORS
330
7423
102
}
330
7423
100
DictionaryVariables
280
     0
  1
0
  0
DICTIONARYVAR
  5
7480
102
{ACAD_REACTORS
330
7423
102
}
330
7423
100
DictionaryVariables
280
     0
  1
1
  0
DICTIONARYVAR
  5
7428
102
{ACAD_REACTORS
330
7423
102
}
330
7423
100
DictionaryVariables
280
     0
  1
0
  0
DICTIONARY
  5
745E
102
{ACAD_REACTORS
330
745D
102
}
330
745D
100
AcDbDictionary
  0
DICTIONARY
  5
718F
102
{ACAD_REACTORS
330
718E
102
}
330
718E
100
AcDbDictionary
  0
DICTIONARY
  5
7430
102
{ACAD_REACTORS
330
742F
102
}
330
742F
100
AcDbDictionary
  0
DICTIONARY
  5
7434
102
{ACAD_REACTORS
330
7433
102
}
330
7433
100
AcDbDictionary
  0
DICTIONARY
  5
7459
102
{ACAD_REACTORS
330
7458
102
}
330
7458
100
AcDbDictionary
  0
DICTIONARY
  5
6916
102
{ACAD_REACTORS
330
6915
102
}
330
6915
100
AcDbDictionary
  0
DICTIONARY
  5
6913
102
{ACAD_REACTORS
330
6912
102
}
330
6912
100
AcDbDictionary
  0
DICTIONARY
  5
748A
330
6909
100
AcDbDictionary
280
     1
  3
ACAD_XREC_ROUNDTRIP
360
748B
  0
DICTIONARY
  5
7488
330
6908
100
AcDbDictionary
280
     1
  3
ACAD_XREC_ROUNDTRIP
360
7489
  0
DICTIONARY
  5
748C
330
690A
100
AcDbDictionary
280
     1
  3
ACAD_XREC_ROUNDTRIP
360
748D
  0
XRECORD
  5
748B
102
{ACAD_REACTORS
330
748A
102
}
330
748A
100
AcDbXrecord
102
MATERIAL
148
0.0
149
0.0
149
0.0
 93
        0
 94
      127
282
     0
 72
     1
 77
     1
171
     1
175
     1
179
     1
273
     0
  0
XRECORD
  5
7489
102
{ACAD_REACTORS
330
7488
102
}
330
7488
100
AcDbXrecord
102
MATERIAL
148
0.0
149
0.0
149
0.0
 93
        0
 94
      127
282
     0
 72
     1
 77
     1
171
     1
175
     1
179
     1
273
     0
  0
XRECORD
  5
748D
102
{ACAD_REACTORS
330
748C
102
}
330
748C
100
AcDbXrecord
102
MATERIAL
148
0.0
149
0.0
149
0.0
 93
        0
 94
      127
282
     0
 72
     1
 77
     1
171
     1
175
     1
179
     1
273
     0
  0
ENDSEC
  0
EOF
