  0
SECTION
  2
HEADER
  9
$ACADVER
  1
AC1014
  9
$ACADMAINTVER
 70
     9
  9
$DWGCODEPAGE
  3
ANSI_932
  9
$INSBASE
 10
0.0
 20
0.0
 30
0.0
  9
$EXTMIN
 10
-230.252327876741
 20
662.625984568755
 30
0.0
  9
$EXTMAX
 10
378.832408039258
 20
1079.763462290035
 30
0.0
  9
$LIMMIN
 10
-360.747566795242
 20
4.457354754526
  9
$LIMMAX
 10
-162.153696144267
 20
287.675440264018
  9
$ORTHOMODE
 70
     1
  9
$REGENMODE
 70
     1
  9
$FILLMODE
 70
     1
  9
$QTEXTMODE
 70
     0
  9
$MIRRTEXT
 70
     1
  9
$DRAGMODE
 70
     2
  9
$LTSCALE
 40
1.0
  9
$OSMODE
 70
    32
  9
$ATTMODE
 70
     1
  9
$TEXTSIZE
 40
2.333873885063
  9
$TRACEWID
 40
1.0
  9
$TEXTSTYLE
  7
STANDARD
  9
$CLAYER
  8
寸法線
  9
$CELTYPE
  6
BYLAYER
  9
$CECOLOR
 62
     1
  9
$CELTSCALE
 40
10.0
  9
$DELOBJ
 70
     1
  9
$DISPSILH
 70
     0
  9
$DIMSCALE
 40
1.0
  9
$DIMASZ
 40
6.0
  9
$DIMEXO
 40
0.625
  9
$DIMDLI
 40
3.75
  9
$DIMRND
 40
0.0
  9
$DIMDLE
 40
0.0
  9
$DIMEXE
 40
1.25
  9
$DIMTP
 40
0.1
  9
$DIMTM
 40
0.1
  9
$DIMTXT
 40
5.0
  9
$DIMCEN
 40
2.5
  9
$DIMTSZ
 40
0.0
  9
$DIMTOL
 70
     0
  9
$DIMLIM
 70
     0
  9
$DIMTIH
 70
     0
  9
$DIMTOH
 70
     0
  9
$DIMSE1
 70
     0
  9
$DIMSE2
 70
     0
  9
$DIMTAD
 70
     1
  9
$DIMZIN
 70
     8
  9
$DIMBLK
  1
OPEN30
  9
$DIMASO
 70
     1
  9
$DIMSHO
 70
     1
  9
$DIMPOST
  1

  9
$DIMAPOST
  1

  9
$DIMALT
 70
     0
  9
$DIMALTD
 70
     2
  9
$DIMALTF
 40
0.0394
  9
$DIMLFAC
 40
1.0
  9
$DIMTOFL
 70
     1
  9
$DIMTVP
 40
1.0
  9
$DIMTIX
 70
     0
  9
$DIMSOXD
 70
     0
  9
$DIMSAH
 70
     0
  9
$DIMBLK1
  1

  9
$DIMBLK2
  1

  9
$DIMSTYLE
  2
ISO-25
  9
$DIMCLRD
 70
     0
  9
$DIMCLRE
 70
     0
  9
$DIMCLRT
 70
     0
  9
$DIMTFAC
 40
1.0
  9
$DIMGAP
 40
0.625
  9
$DIMJUST
 70
     0
  9
$DIMSD1
 70
     0
  9
$DIMSD2
 70
     0
  9
$DIMTOLJ
 70
     1
  9
$DIMTZIN
 70
     0
  9
$DIMALTZ
 70
     0
  9
$DIMALTTZ
 70
     0
  9
$DIMFIT
 70
     3
  9
$DIMUPT
 70
     0
  9
$DIMUNIT
 70
     2
  9
$DIMDEC
 70
     1
  9
$DIMTDEC
 70
     1
  9
$DIMALTU
 70
     2
  9
$DIMALTTD
 70
     2
  9
$DIMTXSTY
  7
STANDARD
  9
$DIMAUNIT
 70
     0
  9
$LUNITS
 70
     2
  9
$LUPREC
 70
     4
  9
$SKETCHINC
 40
1.0
  9
$FILLETRAD
 40
6.5
  9
$AUNITS
 70
     0
  9
$AUPREC
 70
     0
  9
$MENU
  1
.
  9
$ELEVATION
 40
0.0
  9
$PELEVATION
 40
0.0
  9
$THICKNESS
 40
0.0
  9
$LIMCHECK
 70
     0
  9
$CHAMFERA
 40
10.0
  9
$CHAMFERB
 40
10.0
  9
$CHAMFERC
 40
20.0
  9
$CHAMFERD
 40
0.0
  9
$SKPOLY
 70
     0
  9
$TDCREATE
 40
2450576.597302431
  9
$TDUPDATE
 40
2457191.64948934
  9
$TDINDWG
 40
1.6347501736
  9
$TDUSRTIMER
 40
1.6347501736
  9
$USRTIMER
 70
     1
  9
$ANGBASE
 50
0.0
  9
$ANGDIR
 70
     0
  9
$PDMODE
 70
     0
  9
$PDSIZE
 40
0.0
  9
$PLINEWID
 40
0.0
  9
$COORDS
 70
     1
  9
$SPLFRAME
 70
     0
  9
$SPLINETYPE
 70
     6
  9
$SPLINESEGS
 70
     8
  9
$ATTDIA
 70
     0
  9
$ATTREQ
 70
     1
  9
$HANDLING
 70
     1
  9
$HANDSEED
  5
45C8
  9
$SURFTAB1
 70
     6
  9
$SURFTAB2
 70
     6
  9
$SURFTYPE
 70
     6
  9
$SURFU
 70
     6
  9
$SURFV
 70
     6
  9
$UCSNAME
  2

  9
$UCSORG
 10
0.0
 20
0.0
 30
0.0
  9
$UCSXDIR
 10
1.0
 20
0.0
 30
0.0
  9
$UCSYDIR
 10
0.0
 20
1.0
 30
0.0
  9
$PUCSNAME
  2

  9
$PUCSORG
 10
0.0
 20
0.0
 30
0.0
  9
$PUCSXDIR
 10
1.0
 20
0.0
 30
0.0
  9
$PUCSYDIR
 10
0.0
 20
1.0
 30
0.0
  9
$USERI1
 70
     0
  9
$USERI2
 70
     0
  9
$USERI3
 70
     0
  9
$USERI4
 70
     0
  9
$USERI5
 70
     0
  9
$USERR1
 40
0.0
  9
$USERR2
 40
0.0
  9
$USERR3
 40
0.0
  9
$USERR4
 40
0.0
  9
$USERR5
 40
0.0
  9
$WORLDVIEW
 70
     1
  9
$SHADEDGE
 70
     3
  9
$SHADEDIF
 70
    70
  9
$TILEMODE
 70
     0
  9
$MAXACTVP
 70
    16
  9
$PINSBASE
 10
0.0
 20
0.0
 30
0.0
  9
$PLIMCHECK
 70
     0
  9
$PEXTMIN
 10
4.746305129083
 20
3.58519398189
 30
0.0
  9
$PEXTMAX
 10
404.746305129083
 20
283.58519398189
 30
0.0
  9
$PLIMMIN
 10
-7.007122192383
 20
-7.007118782997
  9
$PLIMMAX
 10
417.718108215332
 20
293.315290427208
  9
$UNITMODE
 70
     0
  9
$VISRETAIN
 70
     0
  9
$PLINEGEN
 70
     0
  9
$PSLTSCALE
 70
     1
  9
$TREEDEPTH
 70
  3020
  9
$PICKSTYLE
 70
     1
  9
$CMLSTYLE
  2
STANDARD
  9
$CMLJUST
 70
     0
  9
$CMLSCALE
 40
1.0
  9
$PROXYGRAPHICS
 70
     1
  9
$MEASUREMENT
 70
     1
  0
ENDSEC
  0
SECTION
  2
CLASSES
  0
CLASS
  1
ACDBDICTIONARYWDFLT
  2
AcDbDictionaryWithDefault
  3
ObjectDBX Classes
 90
        0
280
     0
281
     0
  0
CLASS
  1
ACDBPLACEHOLDER
  2
AcDbPlaceHolder
  3
ObjectDBX Classes
 90
        0
280
     0
281
     0
  0
CLASS
  1
LAYOUT
  2
AcDbLayout
  3
ObjectDBX Classes
 90
        0
280
     0
281
     0
  0
CLASS
  1
SORTENTSTABLE
  2
AcDbSortentsTable
  3
ObjectDBX Classes
 90
        0
280
     0
281
     0
  0
CLASS
  1
VISUALSTYLE
  2
AcDbVisualStyle
  3
ObjectDBX Classes
 90
     4095
280
     0
281
     0
  0
CLASS
  1
SCALE
  2
AcDbScale
  3
ObjectDBX Classes
 90
     1153
280
     0
281
     0
  0
CLASS
  1
MATERIAL
  2
AcDbMaterial
  3
ObjectDBX Classes
 90
     1153
280
     0
281
     0
  0
CLASS
  1
TABLESTYLE
  2
AcDbTableStyle
  3
ObjectDBX Classes
 90
     4095
280
     0
281
     0
  0
CLASS
  1
MLEADERSTYLE
  2
AcDbMLeaderStyle
  3
ACDB_MLEADERSTYLE_CLASS
 90
     4095
280
     0
281
     0
  0
CLASS
  1
SUN
  2
AcDbSun
  3
SCENEOE
 90
     1153
280
     0
281
     0
  0
CLASS
  1
DICTIONARYVAR
  2
AcDbDictionaryVar
  3
ObjectDBX Classes
 90
        0
280
     0
281
     0
  0
CLASS
  1
CELLSTYLEMAP
  2
AcDbCellStyleMap
  3
ObjectDBX Classes
 90
     1152
280
     0
281
     0
  0
CLASS
  1
XRECORD
  2
AcDbXrecord
  3
ObjectDBX Classes
 90
        0
280
     0
281
     0
  0
CLASS
  1
LWPOLYLINE
  2
AcDbPolyline
  3
ObjectDBX Classes
 90
        0
280
     0
281
     1
  0
CLASS
  1
HATCH
  2
AcDbHatch
  3
ObjectDBX Classes
 90
        0
280
     0
281
     1
  0
ENDSEC
  0
SECTION
  2
TABLES
  0
TABLE
  2
VPORT
  5
8
102
{ACAD_XDICTIONARY
360
45C0
102
}
330
0
100
AcDbSymbolTable
 70
     1
  0
VPORT
  5
43ED
330
8
100
AcDbSymbolTableRecord
100
AcDbViewportTableRecord
  2
*ACTIVE
 70
     0
 10
0.0
 20
0.0
 11
1.0
 21
1.0
 12
-125.211931557114
 22
718.283210197805
 13
0.0
 23
0.0
 14
1.0
 24
1.0
 15
0.0
 25
0.0
 16
0.0
 26
0.0
 36
1.0
 17
0.0
 27
0.0
 37
0.0
 40
101.271122071823
 41
1.56746031746
 42
50.0
 43
0.0
 44
0.0
 50
0.0
 51
0.0
 71
    16
 72
   100
 73
     1
 74
     0
 75
     0
 76
     0
 77
     0
 78
     0
  0
ENDTAB
  0
TABLE
  2
LTYPE
  5
5
330
0
100
AcDbSymbolTable
 70
     3
  0
LTYPE
  5
14
330
5
100
AcDbSymbolTableRecord
100
AcDbLinetypeTableRecord
  2
BYBLOCK
 70
     0
  3

 72
    65
 73
     0
 40
0.0
  0
LTYPE
  5
15
330
5
100
AcDbSymbolTableRecord
100
AcDbLinetypeTableRecord
  2
BYLAYER
 70
     0
  3

 72
    65
 73
     0
 40
0.0
  0
LTYPE
  5
16
330
5
100
AcDbSymbolTableRecord
100
AcDbLinetypeTableRecord
  2
CONTINUOUS
 70
     0
  3
Solid line
 72
    65
 73
     0
 40
0.0
  0
LTYPE
  5
1EC
330
5
100
AcDbSymbolTableRecord
100
AcDbLinetypeTableRecord
  2
CENTER
 70
     0
  3
____ _ ____ _ ____ _ ____ _ ____ _ ____ _ ____ 
 72
    65
 73
     4
 40
2.0
 49
1.25
 74
     0
 49
-0.25
 74
     0
 49
0.25
 74
     0
 49
-0.25
 74
     0
  0
LTYPE
  5
1ED
330
5
100
AcDbSymbolTableRecord
100
AcDbLinetypeTableRecord
  2
DASHED
 70
     0
  3
__ __ __ __ __ __ __ __ __ __ __ __ __ __ __ __
 72
    65
 73
     2
 40
0.75
 49
0.5
 74
     0
 49
-0.25
 74
     0
  0
ENDTAB
  0
TABLE
  2
LAYER
  5
2
102
{ACAD_XDICTIONARY
360
29EA
102
}
330
0
100
AcDbSymbolTable
 70
    10
  0
LAYER
  5
F
330
2
100
AcDbSymbolTableRecord
100
AcDbLayerTableRecord
  2
0
 70
     0
 62
     7
  6
CONTINUOUS
  0
LAYER
  5
61
330
2
100
AcDbSymbolTableRecord
100
AcDbLayerTableRecord
  2
図枠太線
 70
     0
 62
   251
  6
CONTINUOUS
  0
LAYER
  5
62
330
2
100
AcDbSymbolTableRecord
100
AcDbLayerTableRecord
  2
図枠細線
 70
     0
 62
   252
  6
CONTINUOUS
  0
LAYER
  5
63
330
2
100
AcDbSymbolTableRecord
100
AcDbLayerTableRecord
  2
図枠ロゴマーク
 70
     0
 62
   253
  6
CONTINUOUS
  0
LAYER
  5
1EF
330
2
100
AcDbSymbolTableRecord
100
AcDbLayerTableRecord
  2
外形線
 70
     0
 62
     7
  6
CONTINUOUS
  0
LAYER
  5
1F0
330
2
100
AcDbSymbolTableRecord
100
AcDbLayerTableRecord
  2
寸法線
 70
     0
 62
     1
  6
CONTINUOUS
  0
LAYER
  5
1F1
330
2
100
AcDbSymbolTableRecord
100
AcDbLayerTableRecord
  2
中心線
 70
     0
 62
     4
  6
CENTER
  0
LAYER
  5
1F4
330
2
100
AcDbSymbolTableRecord
100
AcDbLayerTableRecord
  2
DEFPOINTS
 70
     0
 62
     7
  6
CONTINUOUS
  0
LAYER
  5
2AA2
330
2
100
AcDbSymbolTableRecord
100
AcDbLayerTableRecord
  2
下書線
 70
     0
 62
     2
  6
CONTINUOUS
  0
LAYER
  5
2AA4
330
2
100
AcDbSymbolTableRecord
100
AcDbLayerTableRecord
  2
細線
 70
     0
 62
     6
  6
CONTINUOUS
  0
ENDTAB
  0
TABLE
  2
STYLE
  5
3
330
0
100
AcDbSymbolTable
 70
     3
  0
STYLE
  5
10
330
3
100
AcDbSymbolTableRecord
100
AcDbTextStyleTableRecord
  2
STANDARD
 70
     0
 40
0.0
 41
1.0
 50
0.0
 71
     0
 42
2.333873885063
  3
ISOCP
  4
bigfont.shx
  0
STYLE
  5
64
330
3
100
AcDbSymbolTableRecord
100
AcDbTextStyleTableRecord
  2
EXCADSTD
 70
     0
 40
0.0
 41
1.0
 50
0.0
 71
     0
 42
0.2
  3
monotxt
  4
bigfont
  0
STYLE
  5
2B21
330
3
100
AcDbSymbolTableRecord
100
AcDbTextStyleTableRecord
  2
EXCADVERT
 70
     4
 40
0.0
 41
1.0
 50
0.0
 71
     0
 42
0.286885
  3
monotxt
  4
bigfont
  0
ENDTAB
  0
TABLE
  2
VIEW
  5
6
330
0
100
AcDbSymbolTable
 70
     0
  0
ENDTAB
  0
TABLE
  2
UCS
  5
7
330
0
100
AcDbSymbolTable
 70
     0
  0
ENDTAB
  0
TABLE
  2
APPID
  5
9
330
0
100
AcDbSymbolTable
 70
     3
  0
APPID
  5
11
330
9
100
AcDbSymbolTableRecord
100
AcDbRegAppTableRecord
  2
ACAD
 70
     0
  0
APPID
  5
443B
330
9
100
AcDbSymbolTableRecord
100
AcDbRegAppTableRecord
  2
ACADANNOTATIVE
 70
     0
  0
APPID
  5
4494
330
9
100
AcDbSymbolTableRecord
100
AcDbRegAppTableRecord
  2
ACAD_MLEADERVER
 70
     0
  0
ENDTAB
  0
TABLE
  2
DIMSTYLE
  5
A
330
0
100
AcDbSymbolTable
 70
     2
  0
DIMSTYLE
105
1D
330
A
100
AcDbSymbolTableRecord
100
AcDbDimStyleTableRecord
  2
STANDARD
 70
     0
  3

  4

  5

  6

  7

 40
1.0
 41
0.18
 42
0.0625
 43
0.38
 44
0.18
 45
0.0
 46
0.0
 47
0.0
 48
0.0
140
0.18
141
0.09
142
0.0
143
25.4
144
1.0
145
0.0
146
1.0
147
0.09
 71
     0
 72
     0
 73
     1
 74
     1
 75
     0
 76
     0
 77
     0
 78
     0
170
     0
171
     2
172
     0
173
     0
174
     0
175
     0
176
     0
177
     0
178
     0
270
     2
271
     4
272
     4
273
     2
274
     2
340
10
275
     0
280
     0
281
     0
282
     0
283
     1
284
     0
285
     0
286
     0
287
     3
288
     0
  0
DIMSTYLE
105
24
102
{ACAD_REACTORS
330
39EE
330
39F0
330
39F1
330
3A04
330
3A05
330
3A0C
330
3A0D
330
425D
330
425E
330
4259
330
425C
102
}
330
A
100
AcDbSymbolTableRecord
100
AcDbDimStyleTableRecord
  2
ISO-25
 70
     0
  3

  4

  5

  6

  7

 40
1.0
 41
2.5
 42
0.625
 43
3.75
 44
1.25
 45
0.0
 46
0.0
 47
0.0
 48
0.0
140
2.5
141
2.5
142
0.0
143
0.0394
144
1.0
145
1.0
146
1.0
147
0.625
 71
     0
 72
     0
 73
     1
 74
     0
 75
     0
 76
     0
 77
     1
 78
     8
170
     0
171
     2
172
     1
173
     0
174
     0
175
     0
176
     0
177
     0
178
     0
270
     2
271
     4
272
     4
273
     2
274
     2
340
10
275
     0
280
     0
281
     0
282
     0
283
     1
284
     0
285
     0
286
     0
287
     3
288
     0
  0
ENDTAB
  0
TABLE
  2
BLOCK_RECORD
  5
1
330
0
100
AcDbSymbolTable
 70
    17
  0
BLOCK_RECORD
  5
1A
330
1
100
AcDbSymbolTableRecord
100
AcDbBlockTableRecord
  2
*MODEL_SPACE
  0
BLOCK_RECORD
  5
28FB
330
1
100
AcDbSymbolTableRecord
100
AcDbBlockTableRecord
  2
*PAPER_SPACE
  0
BLOCK_RECORD
  5
2A32
330
1
100
AcDbSymbolTableRecord
100
AcDbBlockTableRecord
  2
A3横用_タイトル
1001
ACAD
1000
DesignCenter Data
1002
{
1070
     1
1070
     4
1002
}
  0
BLOCK_RECORD
  5
2AF4
330
1
100
AcDbSymbolTableRecord
100
AcDbBlockTableRecord
  2
_OPEN30
  0
BLOCK_RECORD
  5
2EB5
330
1
100
AcDbSymbolTableRecord
100
AcDbBlockTableRecord
  2
パドル_W1
  0
BLOCK_RECORD
  5
2ECD
330
1
100
AcDbSymbolTableRecord
100
AcDbBlockTableRecord
  2
パドル_W1立面図
  0
BLOCK_RECORD
  5
3185
330
1
100
AcDbSymbolTableRecord
100
AcDbBlockTableRecord
  2
PRL-100_ケース
  0
BLOCK_RECORD
  5
3312
330
1
100
AcDbSymbolTableRecord
100
AcDbBlockTableRecord
  2
A$C480F1F2B
  0
BLOCK_RECORD
  5
3A1C
330
1
100
AcDbSymbolTableRecord
100
AcDbBlockTableRecord
  2
*D6
  0
BLOCK_RECORD
  5
3A2A
330
1
100
AcDbSymbolTableRecord
100
AcDbBlockTableRecord
  2
*D7
  0
BLOCK_RECORD
  5
3A36
330
1
100
AcDbSymbolTableRecord
100
AcDbBlockTableRecord
  2
*D8
  0
BLOCK_RECORD
  5
3A42
330
1
100
AcDbSymbolTableRecord
100
AcDbBlockTableRecord
  2
*D9
  0
BLOCK_RECORD
  5
3A4E
330
1
100
AcDbSymbolTableRecord
100
AcDbBlockTableRecord
  2
*D10
  0
BLOCK_RECORD
  5
3A96
330
1
100
AcDbSymbolTableRecord
100
AcDbBlockTableRecord
  2
*D11
  0
BLOCK_RECORD
  5
3AA2
330
1
100
AcDbSymbolTableRecord
100
AcDbBlockTableRecord
  2
*D12
  0
BLOCK_RECORD
  5
42CB
330
1
100
AcDbSymbolTableRecord
100
AcDbBlockTableRecord
  2
*D13
  0
BLOCK_RECORD
  5
42D7
330
1
100
AcDbSymbolTableRecord
100
AcDbBlockTableRecord
  2
*D14
  0
BLOCK_RECORD
  5
42E3
330
1
100
AcDbSymbolTableRecord
100
AcDbBlockTableRecord
  2
*D15
  0
BLOCK_RECORD
  5
42EF
330
1
100
AcDbSymbolTableRecord
100
AcDbBlockTableRecord
  2
*D16
  0
ENDTAB
  0
ENDSEC
  0
SECTION
  2
BLOCKS
  0
BLOCK
  5
1B
330
1A
100
AcDbEntity
  8
0
100
AcDbBlockBegin
  2
*MODEL_SPACE
 70
     0
 10
0.0
 20
0.0
 30
0.0
  3
*MODEL_SPACE
  1

  0
ENDBLK
  5
1C
330
1A
100
AcDbEntity
  8
0
100
AcDbBlockEnd
  0
BLOCK
  5
28FD
330
28FB
100
AcDbEntity
 67
     1
  8
0
 48
10.0
100
AcDbBlockBegin
  2
*PAPER_SPACE
 70
     0
 10
0.0
 20
0.0
 30
0.0
  3
*PAPER_SPACE
  1

  0
ENDBLK
  5
28FE
330
28FB
100
AcDbEntity
 67
     1
  8
0
 48
10.0
100
AcDbBlockEnd
  0
BLOCK
  5
2A33
330
2A32
100
AcDbEntity
  8
0
100
AcDbBlockBegin
  2
A3横用_タイトル
 70
     0
 10
0.0
 20
0.0
 30
0.0
  3
A3横用_タイトル
  1
A3横用_タイトル
  0
LINE
  5
2A34
330
2A32
100
AcDbEntity
  8
図枠細線
  6
CONTINUOUS
 62
   252
100
AcDbLine
 10
205.098414535793
 20
33.525959753527
 30
0.0
 11
305.098414535793
 21
33.525959753527
 31
0.0
  0
LINE
  5
2A35
330
2A32
100
AcDbEntity
  8
図枠太線
  6
CONTINUOUS
 62
   251
100
AcDbLine
 10
205.098414535793
 20
23.525959753527
 30
0.0
 11
305.098414535793
 21
23.525959753527
 31
0.0
  0
LINE
  5
2A36
330
2A32
100
AcDbEntity
  8
図枠細線
  6
CONTINUOUS
100
AcDbLine
 10
5.098414535793
 20
23.525959753527
 30
0.0
 11
105.098414535793
 21
23.525959753527
 31
0.0
  0
LINE
  5
2A37
330
2A32
100
AcDbEntity
  8
図枠細線
  6
CONTINUOUS
 62
   252
100
AcDbLine
 10
5.098414535793
 20
36.725957753527
 30
0.0
 11
105.098414535793
 21
36.725957753527
 31
0.0
  0
LINE
  5
2A38
330
2A32
100
AcDbEntity
  8
図枠細線
  6
CONTINUOUS
 62
   252
100
AcDbLine
 10
5.098414535793
 20
30.125957753527
 30
0.0
 11
105.098414535793
 21
30.125957753527
 31
0.0
  0
LINE
  5
2A39
330
2A32
100
AcDbEntity
  8
図枠細線
  6
CONTINUOUS
 62
   252
100
AcDbLine
 10
5.098414535793
 20
16.725959753527
 30
0.0
 11
105.098414535793
 21
16.725959753527
 31
0.0
  0
LINE
  5
2A3A
330
2A32
100
AcDbEntity
  8
図枠細線
  6
CONTINUOUS
 62
   252
100
AcDbLine
 10
5.098414535793
 20
10.125959753527
 30
0.0
 11
105.098414535793
 21
10.125959753527
 31
0.0
  0
LINE
  5
2A3B
330
2A32
100
AcDbEntity
  8
図枠細線
  6
CONTINUOUS
100
AcDbLine
 10
105.098414535793
 20
23.525961753527
 30
0.0
 11
205.098414535793
 21
23.525959753527
 31
0.0
  0
LINE
  5
2A3C
330
2A32
100
AcDbEntity
  8
図枠細線
  6
CONTINUOUS
 62
   252
100
AcDbLine
 10
138.398414535793
 20
43.525959753527
 30
0.0
 11
138.398414535793
 21
18.525957753527
 31
0.0
  0
LINE
  5
2A3D
330
2A32
100
AcDbEntity
  8
図枠細線
  6
CONTINUOUS
 62
   252
100
AcDbLine
 10
171.698414535793
 20
43.525959753527
 30
0.0
 11
171.698414535793
 21
18.525957753527
 31
0.0
  0
LINE
  5
2A3E
330
2A32
100
AcDbEntity
  8
図枠細線
  6
CONTINUOUS
 62
   252
100
AcDbLine
 10
305.098414535793
 20
23.525959753527
 30
0.0
 11
405.098414535793
 21
23.525959753527
 31
0.0
  0
TEXT
  5
2A3F
330
2A32
100
AcDbEntity
  8
図枠ロゴマーク
  6
CONTINUOUS
 62
   253
100
AcDbText
 10
206.102509212755
 20
13.294257570546
 30
0.0
 40
7.0
  1
東和制電工業株式会社
 50
0.016555220185
 41
1.186384129432
  7
EXCADSTD
 72
     5
 11
303.544188309143
 21
13.322412672217
 31
0.0
100
AcDbText
  0
MTEXT
  5
2A40
330
2A32
100
AcDbEntity
  8
図枠細線
100
AcDbMText
 10
6.356764112375
 20
41.976594175478
 30
0.0
 40
2.5
 41
49.938282706292
 71
     1
 72
     5
  1
{\Fmonotxt.shx,bigfont.shx|c128;図暦　CHANGE　NOTICE}
  0
MTEXT
  5
2A41
330
2A32
100
AcDbEntity
  8
図枠細線
 48
10.0
100
AcDbMText
 10
306.544114926828
 20
41.701835800934
 30
0.0
 40
2.5
 41
28.002809618823
 71
     1
 72
     5
  1
{\Fmonotxt.shx,bigfont.shx|c128;名称　TITLE}
  0
MTEXT
  5
2A42
330
2A32
100
AcDbEntity
  8
図枠細線
 48
10.0
100
AcDbMText
 10
307.329617114284
 20
21.606206797226
 30
0.0
 40
2.5
 41
24.385612216707
 71
     1
 72
     5
  1
{\Fmonotxt.shx,bigfont.shx|c128;図面番号\PDRG.　No.}
  0
MTEXT
  5
2A43
330
2A32
100
AcDbEntity
  8
図枠細線
 48
10.0
100
AcDbMText
 10
173.726349404609
 20
21.73680662198
 30
0.0
 40
2.5
 41
25.735090160813
 71
     1
 72
     5
  1
{\Fmonotxt.shx,bigfont.shx|c128;日付 DATE}
  0
MTEXT
  5
2A44
330
2A32
100
AcDbEntity
  8
図枠細線
 48
10.0
100
AcDbMText
 10
173.48708833982
 20
41.621592044998
 30
0.0
 40
2.5
 41
24.983741184205
 71
     1
 72
     5
  1
{\Fmonotxt.shx,bigfont.shx|c128;製図　DRAWN}
  0
MTEXT
  5
2A45
330
2A32
100
AcDbEntity
  8
図枠細線
 48
10.0
100
AcDbMText
 10
139.28009927741
 20
21.866713069868
 30
0.0
 40
2.5
 41
22.629632913243
 71
     1
 72
     5
  1
{\Fmonotxt.shx,bigfont.shx|c128;尺度　SCALE}
  0
MTEXT
  5
2A46
330
2A32
100
AcDbEntity
  8
図枠細線
 48
10.0
100
AcDbMText
 10
139.910091179835
 20
41.311840415554
 30
0.0
 40
2.5
 41
28.998753428368
 71
     1
 72
     5
  1
{\Fmonotxt.shx,bigfont.shx|c128;検図  CHECKED}
  0
MTEXT
  5
2A47
330
2A32
100
AcDbEntity
  8
図枠細線
 48
10.0
100
AcDbMText
 10
114.253294667728
 20
21.916124850174
 30
0.0
 40
3.0
 41
19.692400475383
 71
     1
 72
     5
  1
{\Fmonotxt.shx,bigfont.shx|c128;第三角法}
  0
MTEXT
  5
2A48
330
2A32
100
AcDbEntity
  8
図枠細線
 48
10.0
100
AcDbMText
 10
108.986959929915
 20
15.282880185837
 30
0.0
 40
2.5
 41
27.954882823547
 71
     1
 72
     5
  1
{\Fmonotxt.shx,bigfont.shx|c128;THIRD ANGLE\PPROJECTION}
  0
MTEXT
  5
2A49
330
2A32
100
AcDbEntity
  8
図枠細線
 48
10.0
100
AcDbMText
 10
106.319432640184
 20
41.511437145487
 30
0.0
 40
2.5
 41
28.233595265074
 71
     1
 72
     5
  1
{\Fmonotxt.shx,bigfont.shx|c128;承認 APPROVED}
  0
LINE
  5
2A4A
330
2A32
100
AcDbEntity
  8
図枠太線
  6
CONTINUOUS
 62
   251
100
AcDbLine
 10
5.098414535793
 20
3.525959753527
 30
0.0
 11
405.098414535793
 21
3.525959753527
 31
0.0
  0
LINE
  5
2A4B
330
2A32
100
AcDbEntity
  8
図枠太線
 48
10.0
100
AcDbLine
 10
5.098414535793
 20
3.525959753527
 30
0.0
 11
5.098414535793
 21
43.525959753527
 31
0.0
  0
LINE
  5
2A4C
330
2A32
100
AcDbEntity
  8
図枠太線
  6
CONTINUOUS
 62
   251
100
AcDbLine
 10
105.098414535793
 20
3.525959753527
 30
0.0
 11
105.098414535793
 21
43.525959753527
 31
0.0
  0
LINE
  5
2A4D
330
2A32
100
AcDbEntity
  8
図枠細線
  6
CONTINUOUS
 62
   252
100
AcDbLine
 10
138.398414535793
 20
3.525959753527
 30
0.0
 11
138.398414535793
 21
18.525957753527
 31
0.0
  0
LINE
  5
2A4E
330
2A32
100
AcDbEntity
  8
図枠細線
  6
CONTINUOUS
 62
   252
100
AcDbLine
 10
171.698414535793
 20
3.525959753527
 30
0.0
 11
171.698414535793
 21
18.525957753527
 31
0.0
  0
LINE
  5
2A4F
330
2A32
100
AcDbEntity
  8
図枠太線
  6
CONTINUOUS
 62
   251
100
AcDbLine
 10
205.098414535793
 20
3.525959753527
 30
0.0
 11
205.098414535793
 21
43.525959753527
 31
0.0
  0
LINE
  5
2A50
330
2A32
100
AcDbEntity
  8
図枠太線
 48
10.0
100
AcDbLine
 10
405.098414535793
 20
43.525959753527
 30
0.0
 11
405.098414535793
 21
3.525959753527
 31
0.0
  0
TEXT
  5
2A51
330
2A32
100
AcDbEntity
  8
図枠細線
  6
CONTINUOUS
 62
   252
100
AcDbText
 10
208.519754474572
 20
6.482358407285
 30
0.0
 40
3.5
  1
ＴＯＷＡ　ＳＥＩＤＥＮ　ＩＮＤＵＳＴＲＩＡＬ　ＣＯ．，ＬＴＤ．
 41
0.746656297509
  7
EXCADSTD
 72
     5
 11
303.295327171727
 21
6.482358407285
 31
0.0
100
AcDbText
  0
LINE
  5
2A52
330
2A32
100
AcDbEntity
  8
図枠太線
  6
CONTINUOUS
 62
   251
100
AcDbLine
 10
305.098414535793
 20
3.525959753527
 30
0.0
 11
305.098414535793
 21
43.525959753527
 31
0.0
  0
ENDBLK
  5
2A53
330
2A32
100
AcDbEntity
  8
0
100
AcDbBlockEnd
  0
BLOCK
  5
2AF8
330
2AF4
100
AcDbEntity
  8
0
 48
10.0
100
AcDbBlockBegin
  2
_OPEN30
 70
     0
 10
0.0
 20
0.0
 30
0.0
  3
_OPEN30
  1
_OPEN30
  0
LINE
  5
2AF5
330
2AF4
100
AcDbEntity
  8
0
  6
BYBLOCK
 62
     0
100
AcDbLine
 10
-1.0
 20
0.26794919
 30
0.0
 11
0.0
 21
0.0
 31
0.0
  0
LINE
  5
2AF6
330
2AF4
100
AcDbEntity
  8
0
  6
BYBLOCK
 62
     0
100
AcDbLine
 10
0.0
 20
0.0
 30
0.0
 11
-1.0
 21
-0.26794919
 31
0.0
  0
LINE
  5
2AF7
330
2AF4
100
AcDbEntity
  8
0
  6
BYBLOCK
 62
     0
100
AcDbLine
 10
0.0
 20
0.0
 30
0.0
 11
-1.0
 21
0.0
 31
0.0
  0
ENDBLK
  5
2AF9
330
2AF4
100
AcDbEntity
  8
0
 48
10.0
100
AcDbBlockEnd
  0
BLOCK
  5
2EB6
330
2EB5
100
AcDbEntity
  8
0
 48
10.0
100
AcDbBlockBegin
  2
パドル_W1
 70
     0
 10
0.0
 20
0.0
 30
0.0
  3
パドル_W1
  1
パドル_W1
  0
LINE
  5
2EB7
330
2EB5
100
AcDbEntity
  8
中心線
 48
10.0
100
AcDbLine
 10
124.6832879095
 20
220.674073777677
 30
0.0
 11
131.9189439095
 21
220.674073777677
 31
0.0
  0
LINE
  5
2EB8
330
2EB5
100
AcDbEntity
  8
外形線
 48
10.0
100
AcDbLine
 10
58.3011159095
 20
260.651761921811
 30
0.0
 11
58.3011159095
 21
180.651761921811
 31
0.0
  0
LINE
  5
2EB9
330
2EB5
100
AcDbEntity
  8
外形線
 48
10.0
100
AcDbLine
 10
58.3011159095
 20
180.651761921811
 30
0.0
 11
123.3011159095
 21
180.651761921811
 31
0.0
  0
LINE
  5
2EBA
330
2EB5
100
AcDbEntity
  8
外形線
 48
10.0
100
AcDbLine
 10
138.3011159095
 20
208.651761921811
 30
0.0
 11
138.3011159095
 21
212.376811207105
 31
0.0
  0
LINE
  5
2EBB
330
2EB5
100
AcDbEntity
  8
外形線
 48
10.0
100
AcDbLine
 10
123.3011159095
 20
260.651761921811
 30
0.0
 11
58.3011159095
 21
260.651761921811
 31
0.0
  0
LINE
  5
2EBC
330
2EB5
100
AcDbEntity
  8
外形線
 48
10.0
100
AcDbLine
 10
138.3011159095
 20
232.651761921811
 30
0.0
 11
123.3011159095
 21
260.651761921811
 31
0.0
  0
LINE
  5
2EBD
330
2EB5
100
AcDbEntity
  8
外形線
 48
10.0
100
AcDbLine
 10
138.3011159095
 20
208.651761921811
 30
0.0
 11
123.3011159095
 21
180.651761921811
 31
0.0
  0
LINE
  5
2EBE
330
2EB5
100
AcDbEntity
  8
外形線
 48
10.0
100
AcDbLine
 10
153.3011159095
 20
212.376811207105
 30
0.0
 11
153.3011159095
 21
228.941629207105
 31
0.0
  0
LINE
  5
2EBF
330
2EB5
100
AcDbEntity
  8
外形線
100
AcDbLine
 10
125.0147379095
 20
212.376811207105
 30
0.0
 11
153.3011159095
 21
212.376811207105
 31
0.0
  0
LINE
  5
2EC0
330
2EB5
100
AcDbEntity
  8
細線
100
AcDbLine
 10
153.2891519095
 20
216.518045207105
 30
0.0
 11
124.6692799095
 21
216.518045207105
 31
0.0
  0
LINE
  5
2EC1
330
2EB5
100
AcDbEntity
  8
外形線
100
AcDbLine
 10
125.0147379095
 20
228.941629207105
 30
0.0
 11
123.3011159095
 21
227.228007207105
 31
0.0
  0
ARC
  5
2EC2
330
2EB5
100
AcDbEntity
  8
細線
100
AcDbCircle
 10
126.4810479095
 20
227.420755207105
 30
0.0
 40
3.18575
100
AcDbArc
 50
183.469852255156
 51
235.339263082109
  0
LINE
  5
2EC3
330
2EB5
100
AcDbEntity
  8
細線
100
AcDbLine
 10
153.2891519095
 20
224.800395207105
 30
0.0
 11
124.6692799095
 21
224.800395207105
 31
0.0
  0
ARC
  5
2EC4
330
2EB5
100
AcDbEntity
  8
細線
100
AcDbCircle
 10
126.4810479095
 20
213.897685207105
 30
0.0
 40
3.18575
100
AcDbArc
 50
124.660776613574
 51
176.530130144749
  0
LINE
  5
2EC5
330
2EB5
100
AcDbEntity
  8
外形線
100
AcDbLine
 10
123.3011159095
 20
227.228007207105
 30
0.0
 11
123.3011159095
 21
214.090433207105
 31
0.0
  0
CIRCLE
  5
2EC6
330
2EB5
100
AcDbEntity
  8
外形線
100
AcDbCircle
 10
128.3011159095
 20
220.674073777677
 30
0.0
 40
2.28479
  0
ARC
  5
2EC7
330
2EB5
100
AcDbEntity
  8
細線
100
AcDbCircle
 10
130.2525019095
 20
220.659219207105
 30
0.0
 40
6.951389999999999
100
AcDbArc
 50
143.43540034864
 51
216.564582051267
  0
LINE
  5
2EC8
330
2EB5
100
AcDbEntity
  8
中心線
 48
10.0
100
AcDbLine
 10
128.3011159095
 20
224.291901777677
 30
0.0
 11
128.3011159095
 21
217.056245777676
 31
0.0
  0
LINE
  5
2EC9
330
2EB5
100
AcDbEntity
  8
外形線
100
AcDbLine
 10
125.0147379095
 20
212.376811207105
 30
0.0
 11
123.3011159095
 21
214.090433207105
 31
0.0
  0
LINE
  5
2ECA
330
2EB5
100
AcDbEntity
  8
外形線
100
AcDbLine
 10
125.0147379095
 20
228.941629207105
 30
0.0
 11
153.3011159095
 21
228.941629207105
 31
0.0
  0
LINE
  5
2ECB
330
2EB5
100
AcDbEntity
  8
外形線
 48
10.0
100
AcDbLine
 10
138.3011159095
 20
228.941629207105
 30
0.0
 11
138.3011159095
 21
232.651761921811
 31
0.0
  0
ENDBLK
  5
2ECC
330
2EB5
100
AcDbEntity
  8
0
 48
10.0
100
AcDbBlockEnd
  0
BLOCK
  5
2ECE
330
2ECD
100
AcDbEntity
  8
0
 48
10.0
100
AcDbBlockBegin
  2
パドル_W1立面図
 70
     0
 10
0.0
 20
0.0
 30
0.0
  3
パドル_W1立面図
  1
パドル_W1立面図
  0
LINE
  5
2ECF
330
2ECD
100
AcDbEntity
  8
外形線
 48
10.0
100
AcDbLine
 10
-4.385455455444
 20
189.61846140322
 30
0.0
 11
-7.241459969979
 21
189.61846140322
 31
0.0
  0
LINE
  5
2ED0
330
2ECD
100
AcDbEntity
  8
外形線
 48
10.0
100
AcDbLine
 10
-4.385455455444
 20
269.61846140322
 30
0.0
 11
-7.241459969979
 21
269.61846140322
 31
0.0
  0
LINE
  5
2ED1
330
2ECD
100
AcDbEntity
  8
外形線
 48
10.0
100
AcDbLine
 10
-4.385455455444
 20
189.61846140322
 30
0.0
 11
-4.385455455444
 21
269.61846140322
 31
0.0
  0
LINE
  5
2ED2
330
2ECD
100
AcDbEntity
  8
外形線
 48
10.0
100
AcDbLine
 10
-7.241459969979
 20
269.61846140322
 30
0.0
 11
-7.241459969979
 21
189.61846140322
 31
0.0
  0
LINE
  5
2ED3
330
2ECD
100
AcDbEntity
  8
外形線
100
AcDbLine
 10
-4.385468503734
 20
237.376935973808
 30
0.0
 11
1.606659496266
 21
233.917433973808
 31
0.0
  0
ARC
  5
2ED4
330
2ECD
100
AcDbEntity
  8
細線
100
AcDbCircle
 10
-5.813446503734
 20
229.633375973808
 30
0.0
 40
8.568
100
AcDbArc
 50
279.594007516002
 51
80.406014579591
  0
LINE
  5
2ED5
330
2ECD
100
AcDbEntity
  8
外形線
100
AcDbLine
 10
1.606659496266
 20
233.917433973808
 30
0.0
 11
1.606659496266
 21
225.349439973808
 31
0.0
  0
LINE
  5
2ED6
330
2ECD
100
AcDbEntity
  8
外形線
100
AcDbLine
 10
-4.385468503734
 20
221.889815973808
 30
0.0
 11
1.606659496266
 21
225.349439973808
 31
0.0
  0
ARC
  5
2ED7
330
2ECD
100
AcDbEntity
  8
細線
100
AcDbCircle
 10
-5.813446503734
 20
229.633375973808
 30
0.0
 40
7.458525999999999
100
AcDbArc
 50
281.037746568172
 51
78.962275527419
  0
LINE
  5
2ED8
330
2ECD
100
AcDbEntity
  8
外形線
100
AcDbLine
 10
-7.241454503734
 20
221.889845973808
 30
0.0
 11
-13.233550503734
 21
225.349439973808
 31
0.0
  0
LINE
  5
2ED9
330
2ECD
100
AcDbEntity
  8
外形線
100
AcDbLine
 10
-13.233550503734
 20
225.349439973808
 30
0.0
 11
-13.233550503734
 21
233.917433973808
 31
0.0
  0
LINE
  5
2EDA
330
2ECD
100
AcDbEntity
  8
外形線
100
AcDbLine
 10
-7.241454503734
 20
237.376905973808
 30
0.0
 11
-13.233550503734
 21
233.917433973808
 31
0.0
  0
ARC
  5
2EDB
330
2ECD
100
AcDbEntity
  8
細線
100
AcDbCircle
 10
-5.813446503734
 20
229.633375973808
 30
0.0
 40
7.458525999999999
100
AcDbArc
 50
101.038013199227
 51
258.962026496458
  0
ARC
  5
2EDC
330
2ECD
100
AcDbEntity
  8
細線
100
AcDbCircle
 10
-5.813446503734
 20
229.633375973808
 30
0.0
 40
8.568
100
AcDbArc
 50
99.594159555498
 51
260.405880140189
  0
ENDBLK
  5
2EDD
330
2ECD
100
AcDbEntity
  8
0
 48
10.0
100
AcDbBlockEnd
  0
BLOCK
  5
3186
330
3185
100
AcDbEntity
  8
0
 48
10.0
100
AcDbBlockBegin
  2
PRL-100_ケース
 70
     0
 10
0.0
 20
0.0
 30
0.0
  3
PRL-100_ケース
  1
PRL-100_ケース
  0
ARC
  5
3187
330
3185
100
AcDbEntity
  8
細線
100
AcDbCircle
 10
-2866.31607772969
 20
752.770649344789
 30
0.0
 40
36.766532
100
AcDbArc
 50
68.885514212384
 51
115.211785839405
  0
LINE
  5
3188
330
3185
100
AcDbEntity
  8
外形線
100
AcDbLine
 10
-2880.92594172969
 20
759.253621344789
 30
0.0
 11
-2852.93704972969
 21
759.253621344789
 31
0.0
  0
LINE
  5
3189
330
3185
100
AcDbEntity
  8
外形線
100
AcDbLine
 10
-2879.49796372969
 20
754.112813344789
 30
0.0
 11
-2854.36514972969
 21
754.112813344789
 31
0.0
  0
ARC
  5
318A
330
3185
100
AcDbEntity
  8
細線
100
AcDbCircle
 10
-2866.93155772969
 20
768.649495344789
 30
0.0
 40
14.53669
100
AcDbArc
 50
244.3907930338
 51
295.609209213942
  0
LINE
  5
318B
330
3185
100
AcDbEntity
  8
外形線
100
AcDbLine
 10
-2878.12638172969
 20
763.537647344789
 30
0.0
 11
-2855.72391572969
 21
763.537647344789
 31
0.0
  0
LINE
  5
318C
330
3185
100
AcDbEntity
  8
外形線
100
AcDbLine
 10
-2890.145893750616
 20
873.587239344789
 30
0.0
 11
-2853.07157172969
 21
875.666829344789
 31
0.0
  0
LINE
  5
318D
330
3185
100
AcDbEntity
  8
外形線
100
AcDbLine
 10
-2933.93155772969
 20
752.470783344789
 30
0.0
 11
-2933.93155772969
 21
907.470783344789
 31
0.0
  0
LINE
  5
318E
330
3185
100
AcDbEntity
  8
外形線
100
AcDbLine
 10
-2923.93155772969
 20
907.470783344789
 30
0.0
 11
-2923.93155772969
 21
752.470783344789
 31
0.0
  0
LINE
  5
318F
330
3185
100
AcDbEntity
  8
細線
100
AcDbLine
 10
-2906.224385750616
 20
852.818807344789
 30
0.0
 11
-2906.224385750616
 21
807.122761344789
 31
0.0
  0
LINE
  5
3190
330
3185
100
AcDbEntity
  8
細線
100
AcDbLine
 10
-2893.943501750616
 20
869.098011344789
 30
0.0
 11
-2893.943501750616
 21
790.843617344789
 31
0.0
  0
LINE
  5
3191
330
3185
100
AcDbEntity
  8
外形線
100
AcDbLine
 10
-2883.19437372969
 20
783.503987344789
 30
0.0
 11
-2880.95926772969
 21
766.031269344789
 31
0.0
  0
LINE
  5
3192
330
3185
100
AcDbEntity
  8
中心線
 48
10.0
100
AcDbLine
 10
-2944.21661474548
 20
764.970783344789
 30
0.0
 11
-2911.612778792372
 21
764.970783344789
 31
0.0
  0
LINE
  5
3193
330
3185
100
AcDbEntity
  8
外形線
100
AcDbLine
 10
-2933.93155772969
 20
752.470783344789
 30
0.0
 11
-2923.93155772969
 21
752.470783344789
 31
0.0
  0
LINE
  5
3194
330
3185
100
AcDbEntity
  8
外形線
100
AcDbLine
 10
-2880.92594172969
 20
759.253621344789
 30
0.0
 11
-2880.92594172969
 21
755.540853344789
 31
0.0
  0
LINE
  5
3195
330
3185
100
AcDbEntity
  8
細線
100
AcDbLine
 10
-2873.21475972969
 20
755.540853344789
 30
0.0
 11
-2873.21475972969
 21
759.253621344789
 31
0.0
  0
LINE
  5
3196
330
3185
100
AcDbEntity
  8
外形線
100
AcDbLine
 10
-2880.92594172969
 20
755.540853344789
 30
0.0
 11
-2879.49796372969
 21
754.112813344789
 31
0.0
  0
ARC
  5
3197
330
3185
100
AcDbEntity
  8
細線
100
AcDbCircle
 10
-2880.35391972969
 20
772.415731344789
 30
0.0
 40
18.322924
100
AcDbArc
 50
272.67766208363
 51
292.93154825417
  0
ARC
  5
3198
330
3185
100
AcDbEntity
  8
外形線
100
AcDbCircle
 10
-2878.12638172969
 20
766.393635344789
 30
0.0
 40
2.856
100
AcDbArc
 50
187.289418100615
 51
270.0
  0
LINE
  5
3199
330
3185
100
AcDbEntity
  8
外形線
100
AcDbLine
 10
-2876.35636172969
 20
759.253621344789
 30
0.0
 11
-2876.35636172969
 21
763.537617344789
 31
0.0
  0
LINE
  5
319A
330
3185
100
AcDbEntity
  8
細線
100
AcDbLine
 10
-2874.07157172969
 20
763.537617344789
 30
0.0
 11
-2874.07157172969
 21
759.253621344789
 31
0.0
  0
LWPOLYLINE
  5
319B
330
3185
100
AcDbEntity
  8
外形線
100
AcDbPolyline
 90
       67
 70
     0
 43
0.0
 10
-2890.145893750616
 20
786.354329344789
 10
-2890.186654669536
 20
786.366077023327
 10
-2890.301838572774
 20
786.400458633809
 10
-2890.480797180054
 20
786.456182038531
 10
-2890.7128822111
 20
786.531955099793
 10
-2890.987445385636
 20
786.626485679891
 10
-2891.293838423382
 20
786.738481641127
 10
-2891.621413044066
 20
786.866650845797
 10
-2891.959520967408
 20
787.009701156199
 10
-2892.29751391313
 20
787.166340434633
 10
-2892.62474360096
 20
787.335276543397
 10
-2892.930561750616
 20
787.515217344789
 10
-2893.2750874832
 20
787.757196572383
 10
-2893.573198691538
 20
788.013376036193
 10
-2893.829948065176
 20
788.282363927155
 10
-2894.050388293662
 20
788.562768436207
 10
-2894.239572066538
 20
788.853197754285
 10
-2894.402552073354
 20
789.152260072327
 10
-2894.544381003654
 20
789.458563581269
 10
-2894.670111546984
 20
789.770716472049
 10
-2894.78479639289
 20
790.087326935605
 10
-2894.89348823092
 20
790.407003162873
 10
-2895.001239750616
 20
790.728353344789
 10
-2895.22891206995
 20
791.376818244103
 10
-2895.472319393242
 20
792.025524444673
 10
-2895.73051137667
 20
792.673568483095
 10
-2896.002537676416
 20
793.320046895967
 10
-2896.287447948658
 20
793.964056219885
 10
-2896.584291849578
 20
794.604692991447
 10
-2896.892119035354
 20
795.241053747247
 10
-2897.209979162166
 20
795.872235023887
 10
-2897.536921886194
 20
796.497333357957
 10
-2897.871996863618
 20
797.115445286059
 10
-2898.214253750616
 20
797.725667344789
 10
-2898.47254642542
 20
798.173784867737
 10
-2898.73316272561
 20
798.618573878527
 10
-2898.994985373496
 20
799.061561306953
 10
-2899.256897091384
 20
799.504274082811
 10
-2899.517780601584
 20
799.948239135899
 10
-2899.776518626406
 20
800.394983396009
 10
-2900.031993888156
 20
800.846033792941
 10
-2900.283089109143
 20
801.302917256489
 10
-2900.528687011676
 20
801.767160716449
 10
-2900.767670318066
 20
802.240291102617
 10
-2900.998921750616
 20
802.723835344789
 10
-2901.160354231022
 20
803.077093722977
 10
-2901.322307525548
 20
803.431578565659
 10
-2901.489857039888
 20
803.782370504911
 10
-2901.66807817973
 20
804.124550172811
 10
-2901.862046350762
 20
804.453198201437
 10
-2902.076836958679
 20
804.763395222867
 10
-2902.317525409164
 20
805.050221869177
 10
-2902.589187107912
 20
805.308758772447
 10
-2902.89689746061
 20
805.534086564755
 10
-2903.245731872948
 20
805.721285878175
 10
-2903.640765750616
 20
805.865437344789
 10
-2904.079618849998
 20
805.962928468561
 10
-2904.55284462682
 20
806.019843776871
 10
-2905.044394260766
 20
806.042776345407
 10
-2905.538218931518
 20
806.038319249863
 10
-2906.018269818758
 20
806.013065565927
 10
-2906.468498102166
 20
805.973608369291
 10
-2906.872854961426
 20
805.926540735645
 10
-2907.21529157622
 20
805.878455740683
 10
-2907.479759126228
 20
805.835946460091
 10
-2907.650208791134
 20
805.805605969563
 10
-2907.710591750616
 20
805.794027344789
  0
ARC
  5
319C
330
3185
100
AcDbEntity
  8
外形線
100
AcDbCircle
 10
-2886.02725972969
 20
783.141561344789
 30
0.0
 40
2.856
100
AcDbArc
 50
7.289398252773
 51
86.905894590757
  0
LINE
  5
319D
330
3185
100
AcDbEntity
  8
外形線
100
AcDbLine
 10
-2890.145893750616
 20
786.354329344789
 30
0.0
 11
-2885.873104035988
 21
785.993397949873
 31
0.0
  0
LINE
  5
319E
330
3185
100
AcDbEntity
  8
外形線
100
AcDbLine
 10
-2907.710591750616
 20
805.794027344789
 30
0.0
 11
-2922.276385750616
 21
803.794759344789
 31
0.0
  0
ARC
  5
319F
330
3185
100
AcDbEntity
  8
外形線
100
AcDbCircle
 10
-2921.157977750616
 20
801.251789344789
 30
0.0
 40
2.778136
100
AcDbArc
 50
113.741117770861
 51
176.718232188895
  0
LINE
  5
31A0
330
3185
100
AcDbEntity
  8
外形線
100
AcDbLine
 10
-2959.53153372969
 20
841.670856344789
 30
0.0
 11
-2956.15963321196
 21
844.821980344789
 31
0.0
  0
LINE
  5
31A1
330
3185
100
AcDbEntity
  8
細線
100
AcDbLine
 10
-2939.35782772969
 20
844.821980344789
 30
0.0
 11
-2939.35782772969
 21
815.119586344789
 31
0.0
  0
ARC
  5
31A2
330
3185
100
AcDbEntity
  8
細線
100
AcDbCircle
 10
-2949.669256764438
 20
829.970782344789
 30
0.0
 40
9.86227696525272
100
AcDbArc
 50
131.155220883625
 51
228.844779116375
  0
LINE
  5
31A3
330
3185
100
AcDbEntity
  8
外形線
100
AcDbLine
 10
-2959.53153372969
 20
841.670856344789
 30
0.0
 11
-2959.53153372969
 21
818.270710344789
 31
0.0
  0
LINE
  5
31A4
330
3185
100
AcDbEntity
  8
細線
100
AcDbLine
 10
-2939.35782772969
 20
822.545183344789
 30
0.0
 11
-2956.15963321196
 21
822.545183344789
 31
0.0
  0
LINE
  5
31A5
330
3185
100
AcDbEntity
  8
外形線
100
AcDbLine
 10
-2956.15963525558
 20
815.119586344789
 30
0.0
 11
-2933.93155772969
 21
815.119586344789
 31
0.0
  0
LINE
  5
31A6
330
3185
100
AcDbEntity
  8
外形線
100
AcDbLine
 10
-2959.53153372969
 20
818.270710344789
 30
0.0
 11
-2956.00040572969
 21
814.970782344789
 31
0.0
  0
ARC
  5
31A7
330
3185
100
AcDbEntity
  8
細線
100
AcDbCircle
 10
-2951.938149287948
 20
815.747892766997
 30
0.0
 40
8.00150521587242
100
AcDbArc
 50
121.842510322088
 51
161.621519846141
  0
LINE
  5
31A8
330
3185
100
AcDbEntity
  8
細線
100
AcDbLine
 10
-2939.35782772969
 20
837.396381344789
 30
0.0
 11
-2956.15963321196
 21
837.396381344789
 31
0.0
  0
ARC
  5
31A9
330
3185
100
AcDbEntity
  8
細線
100
AcDbCircle
 10
-2951.938149287948
 20
844.193671922581
 30
0.0
 40
8.00150521587242
100
AcDbArc
 50
198.378480153859
 51
238.157489677912
  0
LINE
  5
31AA
330
3185
100
AcDbEntity
  8
外形線
100
AcDbLine
 10
-2956.15963321196
 20
844.821980344789
 30
0.0
 11
-2933.93155772969
 21
844.821980344789
 31
0.0
  0
LWPOLYLINE
  5
31AB
330
3185
100
AcDbEntity
  8
外形線
100
AcDbPolyline
 90
       67
 70
     0
 43
0.0
 10
-2890.145893750616
 20
873.587239344789
 10
-2890.186654606264
 20
873.575491590821
 10
-2890.301838344996
 20
873.541109784219
 10
-2890.4807967245
 20
873.485386107949
 10
-2890.712881502462
 20
873.409612744965
 10
-2890.987444436566
 20
873.315081878231
 10
-2891.2938372845
 20
873.203085690703
 10
-2891.621411803948
 20
873.074916365345
 10
-2891.959519752598
 20
872.931866085115
 10
-2892.297512888136
 20
872.775227032971
 10
-2892.624742968248
 20
872.606291391877
 10
-2892.930561750616
 20
872.426351344789
 10
-2893.275080074904
 20
872.184380214897
 10
-2893.573186651598
 20
871.928210025463
 10
-2893.829933738582
 20
871.659232392877
 10
-2894.050373593738
 20
871.378838933519
 10
-2894.239558474946
 20
871.088421263775
 10
-2894.402540640086
 20
870.789371000033
 10
-2894.54437234704
 20
870.483079758675
 10
-2894.67010585369
 20
870.170939156087
 10
-2894.784793417916
 20
869.854340808653
 10
-2894.893487297596
 20
869.534676332759
 10
-2895.001239750616
 20
869.213337344789
 10
-2895.228919299172
 20
868.564866108155
 10
-2895.472329835476
 20
867.916150979021
 10
-2895.7305218725
 20
867.268095967635
 10
-2896.002545923208
 20
866.621605084239
 10
-2896.28745250057
 20
865.977582339079
 10
-2896.58429211755
 20
865.336931742399
 10
-2896.89211528712
 20
864.700557304447
 10
-2897.209972522242
 20
864.069363035465
 10
-2897.536914335888
 20
863.444252945697
 10
-2897.871991241024
 20
862.826131045391
 10
-2898.214253750616
 20
862.215901344789
 10
-2898.47254477014
 20
861.767794599653
 10
-2898.733161212218
 20
861.323017333245
 10
-2898.994985310452
 20
860.880042314457
 10
-2899.25689929845
 20
860.437342312171
 10
-2899.517785409816
 20
859.993390095277
 10
-2899.776525878154
 20
859.546658432661
 10
-2900.03200293707
 20
859.095620093209
 10
-2900.283098820169
 20
858.638747845811
 10
-2900.528695761056
 20
858.174514459349
 10
-2900.767675993338
 20
857.701392702713
 10
-2900.998921750616
 20
857.217855344789
 10
-2901.16035494029
 20
856.864585967801
 10
-2901.322307433096
 20
856.510088950181
 10
-2901.489855091102
 20
856.159284045757
 10
-2901.668073776378
 20
855.817091008361
 10
-2901.86203935099
 20
855.488429591815
 10
-2902.076827677012
 20
855.178219549949
 10
-2902.317514616508
 20
854.891380636591
 10
-2902.589176031546
 20
854.632832605569
 10
-2902.8968877842
 20
854.407495210709
 10
-2903.245725736534
 20
854.220288205841
 10
-2903.640765750616
 20
854.076131344789
 10
-2904.07961724097
 20
853.978639102299
 10
-2904.552842020198
 20
853.921723100385
 10
-2905.044391171436
 20
853.898790196233
 10
-2905.538215777826
 20
853.903247247031
 10
-2906.018266922511
 20
853.928501109961
 10
-2906.468495688628
 20
853.967958642211
 10
-2906.872853159318
 20
854.015026700969
 10
-2907.215290417722
 20
854.063112143419
 10
-2907.47975854698
 20
854.105621826749
 10
-2907.65020863023
 20
854.135962608143
 10
-2907.710591750616
 20
854.147541344789
  0
LINE
  5
31AC
330
3185
100
AcDbEntity
  8
外形線
100
AcDbLine
 10
-2907.710591750616
 20
854.147541344789
 30
0.0
 11
-2922.276385750616
 21
856.146809344789
 31
0.0
  0
ARC
  5
31AD
330
3185
100
AcDbEntity
  8
外形線
100
AcDbCircle
 10
-2921.157977750616
 20
858.689901344789
 30
0.0
 40
2.778136
100
AcDbArc
 50
183.281807506792
 51
246.258864629059
  0
LINE
  5
31AE
330
3185
100
AcDbEntity
  8
中心線
 48
10.0
100
AcDbLine
 10
-2944.086052498169
 20
894.970783344789
 30
0.0
 11
-2911.482216545061
 21
894.970783344789
 31
0.0
  0
LINE
  5
31AF
330
3185
100
AcDbEntity
  8
外形線
100
AcDbLine
 10
-2933.93155772969
 20
907.470783344789
 30
0.0
 11
-2923.93155772969
 21
907.470783344789
 31
0.0
  0
LINE
  5
31B0
330
3185
100
AcDbEntity
  8
外形線
100
AcDbLine
 10
-2828.22440372969
 20
880.970783344789
 30
0.0
 11
-2824.51163572969
 21
878.522785344789
 31
0.0
  0
LINE
  5
31B1
330
3185
100
AcDbEntity
  8
細線
100
AcDbLine
 10
-2828.22440372969
 20
875.666829344789
 30
0.0
 11
-2828.22440372969
 21
880.970783344789
 31
0.0
  0
LINE
  5
31B2
330
3185
100
AcDbEntity
  8
外形線
100
AcDbLine
 10
-2853.07157172969
 20
875.666829344789
 30
0.0
 11
-2850.21561572969
 21
880.970783344789
 31
0.0
  0
LINE
  5
31B3
330
3185
100
AcDbEntity
  8
細線
100
AcDbLine
 10
-2850.21561572969
 20
880.970783344789
 30
0.0
 11
-2850.21561572969
 21
778.970783344789
 31
0.0
  0
LINE
  5
31B4
330
3185
100
AcDbEntity
  8
外形線
100
AcDbLine
 10
-2845.93155772969
 20
880.970783344789
 30
0.0
 11
-2845.93155772969
 21
778.970783344789
 31
0.0
  0
LINE
  5
31B5
330
3185
100
AcDbEntity
  8
外形線
100
AcDbLine
 10
-2843.93241172969
 20
778.970783344789
 30
0.0
 11
-2843.93241172969
 21
880.970783344789
 31
0.0
  0
LINE
  5
31B6
330
3185
100
AcDbEntity
  8
外形線
100
AcDbLine
 10
-2793.66678772969
 20
829.970783344789
 30
0.0
 11
-2793.66678772969
 21
787.482503344789
 31
0.0
  0
LINE
  5
31B7
330
3185
100
AcDbEntity
  8
外形線
100
AcDbLine
 10
-2783.95633772969
 20
806.551595344789
 30
0.0
 11
-2783.95633772969
 21
823.973225344789
 31
0.0
  0
LINE
  5
31B8
330
3185
100
AcDbEntity
  8
細線
100
AcDbLine
 10
-2828.22440372969
 20
825.686849344789
 30
0.0
 11
-2828.22440372969
 21
807.122761344789
 31
0.0
  0
LINE
  5
31B9
330
3185
100
AcDbEntity
  8
細線
100
AcDbLine
 10
-2853.07157172969
 20
875.666829344789
 30
0.0
 11
-2853.07157172969
 21
786.963093344789
 31
0.0
  0
LINE
  5
31BA
330
3185
100
AcDbEntity
  8
細線
100
AcDbLine
 10
-2824.51163572969
 20
878.522785344789
 30
0.0
 11
-2824.51163572969
 21
781.418781344789
 31
0.0
  0
LINE
  5
31BB
330
3185
100
AcDbEntity
  8
外形線
100
AcDbLine
 10
-2851.284784319098
 20
778.102677183965
 30
0.0
 11
-2852.89286581957
 21
766.016949260083
 31
0.0
  0
LINE
  5
31BC
330
3185
100
AcDbEntity
  8
中心線
 48
10.0
100
AcDbLine
 10
-2866.93155772969
 20
803.629963344789
 30
0.0
 11
-2866.93155772969
 21
748.027669344789
 31
0.0
  0
LINE
  5
31BD
330
3185
100
AcDbEntity
  8
細線
100
AcDbLine
 10
-2860.64835372969
 20
755.540853344789
 30
0.0
 11
-2860.64835372969
 21
759.253621344789
 31
0.0
  0
LINE
  5
31BE
330
3185
100
AcDbEntity
  8
外形線
100
AcDbLine
 10
-2852.93704972969
 20
759.253621344789
 30
0.0
 11
-2852.93704972969
 21
755.540853344789
 31
0.0
  0
ARC
  5
31BF
330
3185
100
AcDbEntity
  8
細線
100
AcDbCircle
 10
-2853.50919372969
 20
772.415731344789
 30
0.0
 40
18.322924
100
AcDbArc
 50
247.068453993571
 51
267.322397459894
  0
LINE
  5
31C0
330
3185
100
AcDbEntity
  8
外形線
100
AcDbLine
 10
-2852.93704972969
 20
755.540853344789
 30
0.0
 11
-2854.36514972969
 21
754.112813344789
 31
0.0
  0
ARC
  5
31C1
330
3185
100
AcDbEntity
  8
外形線
100
AcDbCircle
 10
-2855.72391572969
 20
766.393635344789
 30
0.0
 40
2.856
100
AcDbArc
 50
270.0
 51
352.421011277475
  0
LINE
  5
31C2
330
3185
100
AcDbEntity
  8
外形線
100
AcDbLine
 10
-2857.50675172969
 20
759.253621344789
 30
0.0
 11
-2857.50675172969
 21
763.537617344789
 31
0.0
  0
LINE
  5
31C3
330
3185
100
AcDbEntity
  8
細線
100
AcDbLine
 10
-2859.79154172969
 20
763.537617344789
 30
0.0
 11
-2859.79154172969
 21
759.253621344789
 31
0.0
  0
LINE
  5
31C4
330
3185
100
AcDbEntity
  8
外形線
100
AcDbLine
 10
-2824.51163572969
 20
781.418781344789
 30
0.0
 11
-2798.29740172969
 21
782.632467344789
 31
0.0
  0
LINE
  5
31C5
330
3185
100
AcDbEntity
  8
細線
100
AcDbLine
 10
-2828.22440372969
 20
799.126057344789
 30
0.0
 11
-2828.22440372969
 21
787.701985344789
 31
0.0
  0
LINE
  5
31C6
330
3185
100
AcDbEntity
  8
外形線
100
AcDbLine
 10
-2850.293520471686
 20
778.970783344789
 30
0.0
 11
-2828.22440372969
 21
778.970783344789
 31
0.0
  0
ARC
  5
31C7
330
3185
100
AcDbEntity
  8
外形線
100
AcDbCircle
 10
-2850.293520471686
 20
777.970783344789
 30
0.0
 40
1.0
100
AcDbArc
 50
90.0
 51
172.420956229591
  0
LINE
  5
31C8
330
3185
100
AcDbEntity
  8
細線
100
AcDbLine
 10
-2850.21561572969
 20
778.970783344789
 30
0.0
 11
-2853.07157172969
 21
787.068767895563
 31
0.0
  0
ARC
  5
31C9
330
3185
100
AcDbEntity
  8
外形線
100
AcDbCircle
 10
-2826.238319729689
 20
785.988363344789
 30
0.0
 40
1.714446
100
AcDbArc
 50
271.804703586974
 51
88.195318508605
  0
LINE
  5
31CA
330
3185
100
AcDbEntity
  8
外形線
100
AcDbLine
 10
-2826.18430372969
 20
784.274861344789
 30
0.0
 11
-2843.93241172969
 21
784.274861344789
 31
0.0
  0
LINE
  5
31CB
330
3185
100
AcDbEntity
  8
外形線
100
AcDbLine
 10
-2826.18430372969
 20
787.701985344789
 30
0.0
 11
-2843.93241172969
 21
787.701985344789
 31
0.0
  0
LINE
  5
31CC
330
3185
100
AcDbEntity
  8
外形線
100
AcDbLine
 10
-2824.51163572969
 20
781.418781344789
 30
0.0
 11
-2828.22440372969
 21
778.970783344789
 31
0.0
  0
LINE
  5
31CD
330
3185
100
AcDbEntity
  8
細線
100
AcDbLine
 10
-2828.22440372969
 20
784.274861344789
 30
0.0
 11
-2828.22440372969
 21
778.970783344789
 31
0.0
  0
LINE
  5
31CE
330
3185
100
AcDbEntity
  8
外形線
100
AcDbLine
 10
-2843.93241172969
 20
807.122761344789
 30
0.0
 11
-2828.22440372969
 21
807.122761344789
 31
0.0
  0
LINE
  5
31CF
330
3185
100
AcDbEntity
  8
外形線
100
AcDbLine
 10
-2843.93241172969
 20
799.126057344789
 30
0.0
 11
-2828.13529372969
 21
799.126057344789
 31
0.0
  0
ARC
  5
31D0
330
3185
100
AcDbEntity
  8
外形線
100
AcDbCircle
 10
-2828.55045372969
 20
803.120321344789
 30
0.0
 40
4.015794000000001
100
AcDbArc
 50
275.934583374273
 51
85.343077308664
  0
ARC
  5
31D1
330
3185
100
AcDbEntity
  8
外形線
100
AcDbCircle
 10
-2798.52201172969
 20
787.482503344789
 30
0.0
 40
4.8552
100
AcDbArc
 50
272.650733067261
 51
359.999982399901
  0
LINE
  5
31D2
330
3185
100
AcDbEntity
  8
外形線
100
AcDbLine
 10
-2791.58798972969
 20
804.552449344789
 30
0.0
 11
-2785.95560572969
 21
804.552449344789
 31
0.0
  0
LINE
  5
31D3
330
3185
100
AcDbEntity
  8
外形線
100
AcDbLine
 10
-2793.66678772969
 20
796.841267344789
 30
0.0
 11
-2785.86783772969
 21
796.841267344789
 31
0.0
  0
LINE
  5
31D4
330
3185
100
AcDbEntity
  8
外形線
100
AcDbLine
 10
-2791.58805172969
 20
800.554035344789
 30
0.0
 11
-2785.61795972969
 21
800.554035344789
 31
0.0
  0
ARC
  5
31D5
330
3185
100
AcDbEntity
  8
外形線
100
AcDbCircle
 10
-2791.66629772969
 20
802.553273344789
 30
0.0
 40
2.000724
100
AcDbArc
 50
87.757023395436
 51
272.242959004484
  0
ARC
  5
31D6
330
3185
100
AcDbEntity
  8
外形線
100
AcDbCircle
 10
-2785.95560572969
 20
806.551595344789
 30
0.0
 40
1.9992
100
AcDbArc
 50
270.0
 51
359.999982399901
  0
ARC
  5
31D7
330
3185
100
AcDbEntity
  8
外形線
100
AcDbCircle
 10
-2785.81851972969
 20
798.702717344789
 30
0.0
 40
1.86215
100
AcDbArc
 50
268.482178628784
 51
83.815801009983
  0
LINE
  5
31D8
330
3185
100
AcDbEntity
  8
外形線
100
AcDbLine
 10
-2783.95633772969
 20
853.389973344789
 30
0.0
 11
-2783.95633772969
 21
835.968343344789
 31
0.0
  0
LINE
  5
31D9
330
3185
100
AcDbEntity
  8
細線
100
AcDbLine
 10
-2828.22440372969
 20
834.254841344789
 30
0.0
 11
-2828.22440372969
 21
852.818807344789
 31
0.0
  0
LINE
  5
31DA
330
3185
100
AcDbEntity
  8
外形線
100
AcDbLine
 10
-2793.66678772969
 20
829.970783344789
 30
0.0
 11
-2793.66678772969
 21
872.459187344789
 31
0.0
  0
ARC
  5
31DB
330
3185
100
AcDbEntity
  8
外形線
100
AcDbCircle
 10
-2829.51151372969
 20
830.553303344789
 30
0.0
 40
5.033766
100
AcDbArc
 50
284.815257311476
 51
353.355849216014
  0
LINE
  5
31DC
330
3185
100
AcDbEntity
  8
外形線
100
AcDbLine
 10
-2843.93241172969
 20
825.686849344789
 30
0.0
 11
-2828.22440372969
 21
825.686849344789
 31
0.0
  0
ARC
  5
31DD
330
3185
100
AcDbEntity
  8
外形線
100
AcDbCircle
 10
-2829.51151372969
 20
829.388387344789
 30
0.0
 40
5.033766
100
AcDbArc
 50
6.644133183896
 51
75.184725088441
  0
LINE
  5
31DE
330
3185
100
AcDbEntity
  8
外形線
100
AcDbLine
 10
-2843.93241172969
 20
834.254841344789
 30
0.0
 11
-2828.22440372969
 21
834.254841344789
 31
0.0
  0
ARC
  5
31DF
330
3185
100
AcDbEntity
  8
外形線
100
AcDbCircle
 10
-2791.51236772969
 20
828.118001344789
 30
0.0
 40
2.15556
100
AcDbArc
 50
181.910948686163
 51
264.487402289583
  0
ARC
  5
31E0
330
3185
100
AcDbEntity
  8
外形線
100
AcDbCircle
 10
-2785.95560572969
 20
823.973225344789
 30
0.0
 40
1.9992
100
AcDbArc
 50
0.0
 51
89.999981276021
  0
LINE
  5
31E1
330
3185
100
AcDbEntity
  8
外形線
100
AcDbLine
 10
-2791.71939972969
 20
825.972493344789
 30
0.0
 11
-2785.95560572969
 21
825.972493344789
 31
0.0
  0
LINE
  5
31E2
330
3185
100
AcDbEntity
  8
外形線
100
AcDbLine
 10
-2791.71939972969
 20
833.969197344789
 30
0.0
 11
-2785.95560572969
 21
833.969197344789
 31
0.0
  0
ARC
  5
31E3
330
3185
100
AcDbEntity
  8
外形線
100
AcDbCircle
 10
-2791.51236772969
 20
831.823689344789
 30
0.0
 40
2.15556
100
AcDbArc
 50
95.512637406103
 51
178.08903371374
  0
ARC
  5
31E4
330
3185
100
AcDbEntity
  8
外形線
100
AcDbCircle
 10
-2785.95560572969
 20
835.968343344789
 30
0.0
 40
1.9992
100
AcDbArc
 50
270.0
 51
359.999982399908
  0
LINE
  5
31E5
330
3185
100
AcDbEntity
  8
外形線
100
AcDbLine
 10
-2824.51163572969
 20
878.522785344789
 30
0.0
 11
-2798.29740172969
 21
877.309163344789
 31
0.0
  0
LINE
  5
31E6
330
3185
100
AcDbEntity
  8
細線
100
AcDbLine
 10
-2828.22440372969
 20
860.815633344789
 30
0.0
 11
-2828.22440372969
 21
872.239583344789
 31
0.0
  0
LINE
  5
31E7
330
3185
100
AcDbEntity
  8
外形線
100
AcDbLine
 10
-2843.93241172969
 20
860.815633344789
 30
0.0
 11
-2828.13529372969
 21
860.815633344789
 31
0.0
  0
LINE
  5
31E8
330
3185
100
AcDbEntity
  8
外形線
100
AcDbLine
 10
-2843.93241172969
 20
852.818807344789
 30
0.0
 11
-2828.22440372969
 21
852.818807344789
 31
0.0
  0
ARC
  5
31E9
330
3185
100
AcDbEntity
  8
外形線
100
AcDbCircle
 10
-2828.55045372969
 20
856.821369344789
 30
0.0
 40
4.015794000000001
100
AcDbArc
 50
274.656944786914
 51
84.065438721313
  0
ARC
  5
31EA
330
3185
100
AcDbEntity
  8
外形線
100
AcDbCircle
 10
-2826.238319729689
 20
873.953205344789
 30
0.0
 40
1.714446
100
AcDbArc
 50
271.804703586974
 51
88.195318508605
  0
LINE
  5
31EB
330
3185
100
AcDbEntity
  8
外形線
100
AcDbLine
 10
-2826.18430372969
 20
875.666829344789
 30
0.0
 11
-2843.93241172969
 21
875.666829344789
 31
0.0
  0
LINE
  5
31EC
330
3185
100
AcDbEntity
  8
外形線
100
AcDbLine
 10
-2826.18430372969
 20
872.239583344789
 30
0.0
 11
-2843.93241172969
 21
872.239583344789
 31
0.0
  0
ARC
  5
31ED
330
3185
100
AcDbEntity
  8
外形線
100
AcDbCircle
 10
-2785.81851972969
 20
861.238973344789
 30
0.0
 40
1.86215
100
AcDbArc
 50
276.18422108563
 51
91.517843466792
  0
LINE
  5
31EE
330
3185
100
AcDbEntity
  8
外形線
100
AcDbLine
 10
-2791.58805172969
 20
859.387531344789
 30
0.0
 11
-2785.61795972969
 21
859.387531344789
 31
0.0
  0
LINE
  5
31EF
330
3185
100
AcDbEntity
  8
外形線
100
AcDbLine
 10
-2791.58805172969
 20
855.389241344789
 30
0.0
 11
-2785.95560572969
 21
855.389241344789
 31
0.0
  0
ARC
  5
31F0
330
3185
100
AcDbEntity
  8
外形線
100
AcDbCircle
 10
-2791.66757972969
 20
857.388387344789
 30
0.0
 40
2.000726
100
AcDbArc
 50
87.722187561485
 51
272.27785213419
  0
ARC
  5
31F1
330
3185
100
AcDbEntity
  8
外形線
100
AcDbCircle
 10
-2785.95560572969
 20
853.389973344789
 30
0.0
 40
1.9992
100
AcDbArc
 50
0.0
 51
89.999981276021
  0
LINE
  5
31F2
330
3185
100
AcDbEntity
  8
外形線
100
AcDbLine
 10
-2793.66678772969
 20
863.100423344789
 30
0.0
 11
-2785.86783772969
 21
863.100423344789
 31
0.0
  0
ARC
  5
31F3
330
3185
100
AcDbEntity
  8
外形線
100
AcDbCircle
 10
-2798.52201172969
 20
872.459187344789
 30
0.0
 40
4.8552
100
AcDbArc
 50
0.0
 51
87.349306628423
  0
LINE
  5
31F4
330
3185
100
AcDbEntity
  8
外形線
100
AcDbLine
 10
-2850.21561572969
 20
880.970783344789
 30
0.0
 11
-2828.22440372969
 21
880.970783344789
 31
0.0
  0
ENDBLK
  5
31F5
330
3185
100
AcDbEntity
  8
0
 48
10.0
100
AcDbBlockEnd
  0
BLOCK
  5
3313
330
3312
100
AcDbEntity
  8
0
 48
10.0
100
AcDbBlockBegin
  2
A$C480F1F2B
 70
     0
 10
0.0
 20
0.0
 30
0.0
  3
A$C480F1F2B
  1
A$C480F1F2B
  0
LINE
  5
3314
330
3312
100
AcDbEntity
  8
外形線
100
AcDbLine
 10
8.500001501512
 20
2.385002184348
 30
0.0
 11
8.500001501512
 21
14.179664684348
 31
0.0
  0
ARC
  5
3315
330
3312
100
AcDbEntity
  8
細線
100
AcDbCircle
 10
1.216144001512
 20
8.282372184348
 30
0.0
 40
7.2838425
100
AcDbArc
 50
326.010120640452
 51
33.98932849733
  0
ARC
  5
3316
330
3312
100
AcDbEntity
  8
細線
100
AcDbCircle
 10
4.911364001511
 20
1.275229684348
 30
0.0
 40
3.7563025
100
AcDbArc
 50
17.184150191555
 51
51.38761061704
  0
LINE
  5
3317
330
3312
100
AcDbEntity
  8
細線
100
AcDbLine
 10
2.000001501511
 20
4.210487184348
 30
0.0
 11
7.255442473881
 21
4.210487184348
 31
0.0
  0
LINE
  5
3318
330
3312
100
AcDbEntity
  8
外形線
100
AcDbLine
 10
2.000001501511
 20
16.564818684348
 30
0.0
 11
2.000001501511
 21
0.000000684348
 31
0.0
  0
LINE
  5
3319
330
3312
100
AcDbEntity
  8
外形線
100
AcDbLine
 10
0.000001501512
 20
16.564818684348
 30
0.0
 11
0.000001501512
 21
0.000000684348
 31
0.0
  0
LINE
  5
331A
330
3312
100
AcDbEntity
  8
外形線
100
AcDbLine
 10
6.114929777464
 20
0.000000684348
 30
0.0
 11
8.499926501511
 21
2.385079684348
 31
0.0
  0
LINE
  5
331B
330
3312
100
AcDbEntity
  8
外形線
100
AcDbLine
 10
0.000001501512
 20
0.000000684348
 30
0.0
 11
6.114929777464
 21
0.000000684348
 31
0.0
  0
ARC
  5
331C
330
3312
100
AcDbEntity
  8
細線
100
AcDbCircle
 10
4.911364001511
 20
15.289437184348
 30
0.0
 40
3.7563025
100
AcDbArc
 50
308.612371782873
 51
342.81588950412
  0
LINE
  5
331D
330
3312
100
AcDbEntity
  8
細線
100
AcDbLine
 10
2.000001501511
 20
12.354369684348
 30
0.0
 11
7.25548242852
 21
12.354369684348
 31
0.0
  0
LINE
  5
331E
330
3312
100
AcDbEntity
  8
外形線
100
AcDbLine
 10
6.11493439904
 20
16.564818684348
 30
0.0
 11
8.499926501511
 21
14.179664684348
 31
0.0
  0
LINE
  5
331F
330
3312
100
AcDbEntity
  8
外形線
100
AcDbLine
 10
0.000001501512
 20
16.564818684348
 30
0.0
 11
6.11493439904
 21
16.564818684348
 31
0.0
  0
ENDBLK
  5
3320
330
3312
100
AcDbEntity
  8
0
 48
10.0
100
AcDbBlockEnd
  0
BLOCK
  5
3A28
330
3A1C
100
AcDbEntity
  8
0
 62
     1
 48
10.0
100
AcDbBlockBegin
  2
*D6
 70
     1
 10
0.0
 20
0.0
 30
0.0
  3
*D6
  1
*D6
  0
LINE
  5
3F76
330
3A1C
100
AcDbEntity
  8
寸法線
 62
     0
 48
10.0
100
AcDbLine
 10
-138.179688842986
 20
911.936612804755
 30
0.0
 11
-138.179688842986
 21
912.566172950101
 31
0.0
  0
LINE
  5
3F77
330
3A1C
100
AcDbEntity
  8
寸法線
 62
     0
 48
10.0
100
AcDbLine
 10
-135.323684328451
 20
911.936612804755
 30
0.0
 11
-135.323684328451
 21
912.566172950101
 31
0.0
  0
LINE
  5
3F78
330
3A1C
100
AcDbEntity
  8
寸法線
 62
     0
 48
10.0
100
AcDbLine
 10
-144.179688842986
 20
911.316172950101
 30
0.0
 11
-150.179688842986
 21
911.316172950101
 31
0.0
  0
LINE
  5
3F79
330
3A1C
100
AcDbEntity
  8
寸法線
 62
     0
 48
10.0
100
AcDbLine
 10
-129.323684328451
 20
911.316172950101
 30
0.0
 11
-112.142313478553
 21
911.316172950101
 31
0.0
  0
LINE
  5
3F7A
330
3A1C
100
AcDbEntity
  8
寸法線
 62
     0
 48
10.0
100
AcDbLine
 10
-138.179688842986
 20
911.316172950101
 30
0.0
 11
-135.323684328451
 21
911.316172950101
 31
0.0
  0
INSERT
  5
3F7B
330
3A1C
100
AcDbEntity
  8
寸法線
 62
     0
 48
10.0
100
AcDbBlockReference
  2
_OPEN30
 10
-138.179688842986
 20
911.316172950101
 30
0.0
 41
6.0
 42
6.0
 43
6.0
  0
INSERT
  5
3F7C
330
3A1C
100
AcDbEntity
  8
寸法線
 62
     0
 48
10.0
100
AcDbBlockReference
  2
_OPEN30
 10
-135.323684328451
 20
911.316172950101
 30
0.0
 41
6.0
 42
6.0
 43
6.0
 50
180.0
  0
MTEXT
  5
3F7D
330
3A1C
100
AcDbEntity
  8
寸法線
 62
     0
 48
10.0
100
AcDbMText
 10
-117.732998903502
 20
915.941172950101
 30
0.0
 40
8.0
 41
0.0
 71
     5
 72
     1
  1
\A1;1.5
  0
POINT
  5
3F7E
330
3A1C
100
AcDbEntity
  8
DEFPOINTS
 62
     0
 48
10.0
100
AcDbPoint
 10
-138.179688842986
 20
911.311612804755
 30
0.0
  0
POINT
  5
3F7F
330
3A1C
100
AcDbEntity
  8
DEFPOINTS
 62
     0
 48
10.0
100
AcDbPoint
 10
-135.323684328451
 20
911.311612804755
 30
0.0
  0
POINT
  5
3F80
330
3A1C
100
AcDbEntity
  8
DEFPOINTS
 62
     0
 48
10.0
100
AcDbPoint
 10
-135.323684328451
 20
911.316172950101
 30
0.0
  0
ENDBLK
  5
3A29
330
3A1C
100
AcDbEntity
  8
0
 62
     1
 48
10.0
100
AcDbBlockEnd
  0
BLOCK
  5
3A34
330
3A2A
100
AcDbEntity
  8
0
 62
     1
 48
10.0
100
AcDbBlockBegin
  2
*D7
 70
     1
 10
0.0
 20
0.0
 30
0.0
  3
*D7
  1
*D7
  0
LINE
  5
3F6D
330
3A2A
100
AcDbEntity
  8
寸法線
 62
     0
 48
10.0
100
AcDbLine
 10
33.3506368238
 20
901.770369533279
 30
0.0
 11
33.3506368238
 21
882.619312347707
 31
0.0
  0
LINE
  5
3F6E
330
3A2A
100
AcDbEntity
  8
寸法線
 62
     0
 48
10.0
100
AcDbLine
 10
113.3506368238
 20
929.770369533279
 30
0.0
 11
113.3506368238
 21
882.619312347707
 31
0.0
  0
LINE
  5
3F6F
330
3A2A
100
AcDbEntity
  8
寸法線
 62
     0
 48
10.0
100
AcDbLine
 10
39.3506368238
 20
883.869312347707
 30
0.0
 11
107.3506368238
 21
883.869312347707
 31
0.0
  0
INSERT
  5
3F70
330
3A2A
100
AcDbEntity
  8
寸法線
 62
     0
 48
10.0
100
AcDbBlockReference
  2
_OPEN30
 10
33.3506368238
 20
883.869312347707
 30
0.0
 41
6.0
 42
6.0
 43
6.0
 50
180.0
  0
INSERT
  5
3F71
330
3A2A
100
AcDbEntity
  8
寸法線
 62
     0
 48
10.0
100
AcDbBlockReference
  2
_OPEN30
 10
113.3506368238
 20
883.869312347707
 30
0.0
 41
6.0
 42
6.0
 43
6.0
  0
MTEXT
  5
3F72
330
3A2A
100
AcDbEntity
  8
寸法線
 62
     0
 48
10.0
100
AcDbMText
 10
73.3506368238
 20
888.494312347707
 30
0.0
 40
8.0
 41
0.0
 71
     5
 72
     1
  1
\A1;80
  0
POINT
  5
3F73
330
3A2A
100
AcDbEntity
  8
DEFPOINTS
 62
     0
 48
10.0
100
AcDbPoint
 10
33.3506368238
 20
902.395369533279
 30
0.0
  0
POINT
  5
3F74
330
3A2A
100
AcDbEntity
  8
DEFPOINTS
 62
     0
 48
10.0
100
AcDbPoint
 10
113.3506368238
 20
930.395369533279
 30
0.0
  0
POINT
  5
3F75
330
3A2A
100
AcDbEntity
  8
DEFPOINTS
 62
     0
 48
10.0
100
AcDbPoint
 10
113.3506368238
 20
883.869312347707
 30
0.0
  0
ENDBLK
  5
3A35
330
3A2A
100
AcDbEntity
  8
0
 62
     1
 48
10.0
100
AcDbBlockEnd
  0
BLOCK
  5
3A40
330
3A36
100
AcDbEntity
  8
0
 62
     1
 48
10.0
100
AcDbBlockBegin
  2
*D8
 70
     1
 10
0.0
 20
0.0
 30
0.0
  3
*D8
  1
*D8
  0
LINE
  5
3F64
330
3A36
100
AcDbEntity
  8
寸法線
 62
     0
 48
10.0
100
AcDbLine
 10
32.7256368238
 20
982.395369533279
 30
0.0
 11
10.141395534595
 21
982.395369533279
 31
0.0
  0
LINE
  5
3F65
330
3A36
100
AcDbEntity
  8
寸法線
 62
     0
 48
10.0
100
AcDbLine
 10
32.7256368238
 20
902.395369533279
 30
0.0
 11
10.141395534595
 21
902.395369533279
 31
0.0
  0
LINE
  5
3F66
330
3A36
100
AcDbEntity
  8
寸法線
 62
     0
 48
10.0
100
AcDbLine
 10
11.391395534595
 20
976.395369533279
 30
0.0
 11
11.391395534595
 21
908.395369533279
 31
0.0
  0
INSERT
  5
3F67
330
3A36
100
AcDbEntity
  8
寸法線
 62
     0
 48
10.0
100
AcDbBlockReference
  2
_OPEN30
 10
11.391395534595
 20
982.395369533279
 30
0.0
 41
6.0
 42
6.0
 43
6.0
 50
90.0
  0
INSERT
  5
3F68
330
3A36
100
AcDbEntity
  8
寸法線
 62
     0
 48
10.0
100
AcDbBlockReference
  2
_OPEN30
 10
11.391395534595
 20
902.395369533279
 30
0.0
 41
6.0
 42
6.0
 43
6.0
 50
270.0
  0
MTEXT
  5
3F69
330
3A36
100
AcDbEntity
  8
寸法線
 62
     0
 48
10.0
100
AcDbMText
 10
6.766395534595
 20
942.395369533279
 30
0.0
 40
8.0
 41
0.0
 71
     5
 72
     1
  1
\A1;80
 11
6.123031769111886E-17
 21
1.0
 31
0.0
  0
POINT
  5
3F6A
330
3A36
100
AcDbEntity
  8
DEFPOINTS
 62
     0
 48
10.0
100
AcDbPoint
 10
33.3506368238
 20
982.395369533279
 30
0.0
  0
POINT
  5
3F6B
330
3A36
100
AcDbEntity
  8
DEFPOINTS
 62
     0
 48
10.0
100
AcDbPoint
 10
33.3506368238
 20
902.395369533279
 30
0.0
  0
POINT
  5
3F6C
330
3A36
100
AcDbEntity
  8
DEFPOINTS
 62
     0
 48
10.0
100
AcDbPoint
 10
11.391395534595
 20
902.395369533279
 30
0.0
  0
ENDBLK
  5
3A41
330
3A36
100
AcDbEntity
  8
0
 62
     1
 48
10.0
100
AcDbBlockEnd
  0
BLOCK
  5
3A4C
330
3A42
100
AcDbEntity
  8
0
 62
     1
 48
10.0
100
AcDbBlockBegin
  2
*D9
 70
     1
 10
0.0
 20
0.0
 30
0.0
  3
*D9
  1
*D9
  0
LINE
  5
4395
330
3A42
100
AcDbEntity
  8
寸法線
 62
     0
 48
10.0
100
AcDbLine
 10
-195.150446944319
 20
913.83645413961
 30
0.0
 11
-194.881250355699
 21
913.272399003408
 31
0.0
  0
LINE
  5
4396
330
3A42
100
AcDbEntity
  8
寸法線
 62
     0
 48
10.0
100
AcDbLine
 10
-78.365372616819
 20
970.957454451005
 30
0.0
 11
-78.634569205438
 21
971.521509587207
 31
0.0
  0
LINE
  5
4397
330
3A42
100
AcDbEntity
  8
寸法線
 62
     0
 48
10.0
100
AcDbLine
 10
-190.0047142254
 20
916.984796526558
 30
0.0
 11
-83.511105335737
 21
967.809112064056
 31
0.0
  0
INSERT
  5
4398
330
3A42
100
AcDbEntity
  8
寸法線
 62
     0
 48
10.0
100
AcDbBlockReference
  2
_OPEN30
 10
-195.419643532938
 20
914.400509275811
 30
0.0
 41
6.0
 42
6.0
 43
6.0
 50
205.512915306565
  0
INSERT
  5
4399
330
3A42
100
AcDbEntity
  8
寸法線
 62
     0
 48
10.0
100
AcDbBlockReference
  2
_OPEN30
 10
-78.096176028199
 20
970.393399314803
 30
0.0
 41
6.0
 42
6.0
 43
6.0
 50
25.512915306565
  0
MTEXT
  5
439A
330
3A42
100
AcDbEntity
  8
寸法線
 62
     0
 48
10.0
100
AcDbMText
 10
-96.860540229258
 20
966.562784731472
 30
0.0
 40
8.0
 41
0.0
 71
     5
 72
     1
  1
\A1;φ130
 11
0.9024882179229283
 21
0.4307145417910766
 31
0.0
  0
POINT
  5
439B
330
3A42
100
AcDbEntity
  8
DEFPOINTS
 62
     0
 48
10.0
100
AcDbPoint
 10
-195.419643532938
 20
914.400509275811
 30
0.0
  0
POINT
  5
439C
330
3A42
100
AcDbEntity
  8
DEFPOINTS
 62
     0
 48
10.0
100
AcDbPoint
 10
-78.096176028199
 20
970.393399314803
 30
0.0
  0
POINT
  5
439D
330
3A42
100
AcDbEntity
  8
DEFPOINTS
 62
     0
 48
10.0
100
AcDbPoint
 10
-78.096176028199
 20
970.393399314803
 30
0.0
  0
ENDBLK
  5
3A4D
330
3A42
100
AcDbEntity
  8
0
 62
     1
 48
10.0
100
AcDbBlockEnd
  0
BLOCK
  5
3A58
330
3A4E
100
AcDbEntity
  8
0
 62
     1
 48
10.0
100
AcDbBlockBegin
  2
*D10
 70
     1
 10
0.0
 20
0.0
 30
0.0
  3
*D10
  1
*D10
  0
LINE
  5
439E
330
3A4E
100
AcDbEntity
  8
寸法線
 62
     0
 48
10.0
100
AcDbLine
 10
-213.000026685089
 20
928.456698059489
 30
0.0
 11
-212.89258333031
 21
927.841002578334
 31
0.0
  0
LINE
  5
439F
330
3A4E
100
AcDbEntity
  8
寸法線
 62
     0
 48
10.0
100
AcDbLine
 10
-60.307547358834
 20
955.102650044759
 30
0.0
 11
-60.200104004055
 21
954.486954563604
 31
0.0
  0
LINE
  5
43A0
330
3A4E
100
AcDbEntity
  8
寸法線
 62
     0
 48
10.0
100
AcDbLine
 10
-207.196793420787
 20
930.103849746524
 30
0.0
 11
-66.325667332694
 21
954.686889320031
 31
0.0
  0
INSERT
  5
43A1
330
3A4E
100
AcDbEntity
  8
寸法線
 62
     0
 48
10.0
100
AcDbBlockReference
  2
_OPEN30
 10
-213.107470039868
 20
929.072393540643
 30
0.0
 41
6.0
 42
6.0
 43
6.0
 50
189.898852315621
  0
INSERT
  5
43A2
330
3A4E
100
AcDbEntity
  8
寸法線
 62
     0
 48
10.0
100
AcDbBlockReference
  2
_OPEN30
 10
-60.414990713614
 20
955.718345525912
 30
0.0
 41
6.0
 42
6.0
 43
6.0
 50
9.898852315621
  0
MTEXT
  5
43A3
330
3A4E
100
AcDbEntity
  8
寸法線
 62
     0
 48
10.0
100
AcDbMText
 10
-91.684163715165
 20
954.956540603157
 30
0.0
 40
8.0
 41
0.0
 71
     5
 72
     1
  1
\A1;φ155
 11
0.9851127698468048
 21
0.1719093676468983
 31
0.0
  0
POINT
  5
43A4
330
3A4E
100
AcDbEntity
  8
DEFPOINTS
 62
     0
 48
10.0
100
AcDbPoint
 10
-213.107470039868
 20
929.072393540644
 30
0.0
  0
POINT
  5
43A5
330
3A4E
100
AcDbEntity
  8
DEFPOINTS
 62
     0
 48
10.0
100
AcDbPoint
 10
-60.414990713614
 20
955.718345525913
 30
0.0
  0
POINT
  5
43A6
330
3A4E
100
AcDbEntity
  8
DEFPOINTS
 62
     0
 48
10.0
100
AcDbPoint
 10
-60.414990713614
 20
955.718345525912
 30
0.0
  0
ENDBLK
  5
3A59
330
3A4E
100
AcDbEntity
  8
0
 62
     1
 48
10.0
100
AcDbBlockEnd
  0
BLOCK
  5
3AA0
330
3A96
100
AcDbEntity
  8
0
 62
     1
 48
10.0
100
AcDbBlockBegin
  2
*D11
 70
     1
 10
0.0
 20
0.0
 30
0.0
  3
*D11
  1
*D11
  0
LINE
  5
4199
330
3A96
100
AcDbEntity
  8
寸法線
 62
     0
 48
10.0
100
AcDbLine
 10
33.3506368238
 20
901.770369533279
 30
0.0
 11
33.3506368238
 21
822.50514236157
 31
0.0
  0
LINE
  5
419A
330
3A96
100
AcDbEntity
  8
寸法線
 62
     0
 48
10.0
100
AcDbLine
 10
183.3506368238
 20
864.270369533279
 30
0.0
 11
183.3506368238
 21
822.50514236157
 31
0.0
  0
LINE
  5
419B
330
3A96
100
AcDbEntity
  8
寸法線
 62
     0
 48
10.0
100
AcDbLine
 10
39.3506368238
 20
823.75514236157
 30
0.0
 11
177.3506368238
 21
823.75514236157
 31
0.0
  0
INSERT
  5
419C
330
3A96
100
AcDbEntity
  8
寸法線
 62
     0
 48
10.0
100
AcDbBlockReference
  2
_OPEN30
 10
33.3506368238
 20
823.75514236157
 30
0.0
 41
6.0
 42
6.0
 43
6.0
 50
180.0
  0
INSERT
  5
419D
330
3A96
100
AcDbEntity
  8
寸法線
 62
     0
 48
10.0
100
AcDbBlockReference
  2
_OPEN30
 10
183.3506368238
 20
823.75514236157
 30
0.0
 41
6.0
 42
6.0
 43
6.0
  0
MTEXT
  5
419E
330
3A96
100
AcDbEntity
  8
寸法線
 62
     0
 48
10.0
100
AcDbMText
 10
108.3506368238
 20
828.38014236157
 30
0.0
 40
8.0
 41
0.0
 71
     5
 72
     1
  1
\A1;150
  0
POINT
  5
419F
330
3A96
100
AcDbEntity
  8
DEFPOINTS
 62
     0
 48
10.0
100
AcDbPoint
 10
33.3506368238
 20
902.395369533279
 30
0.0
  0
POINT
  5
41A0
330
3A96
100
AcDbEntity
  8
DEFPOINTS
 62
     0
 48
10.0
100
AcDbPoint
 10
183.3506368238
 20
864.895369533279
 30
0.0
  0
POINT
  5
41A1
330
3A96
100
AcDbEntity
  8
DEFPOINTS
 62
     0
 48
10.0
100
AcDbPoint
 10
183.3506368238
 20
823.75514236157
 30
0.0
  0
ENDBLK
  5
3AA1
330
3A96
100
AcDbEntity
  8
0
 62
     1
 48
10.0
100
AcDbBlockEnd
  0
BLOCK
  5
3AAE
330
3AA2
100
AcDbEntity
  8
0
 62
     1
 48
10.0
100
AcDbBlockBegin
  2
*D12
 70
     1
 10
0.0
 20
0.0
 30
0.0
  3
*D12
  1
*D12
  0
LINE
  5
3F11
330
3AA2
100
AcDbEntity
  8
寸法線
 62
     0
 48
10.0
100
AcDbLine
 10
151.890503429538
 20
947.402825318572
 30
0.0
 11
152.515503429538
 21
947.402825318572
 31
0.0
  0
LINE
  5
3F12
330
3AA2
100
AcDbEntity
  8
寸法線
 62
     0
 48
10.0
100
AcDbLine
 10
151.890503429538
 20
937.402902818572
 30
0.0
 11
152.515503429538
 21
937.402902818572
 31
0.0
  0
LINE
  5
3F13
330
3AA2
100
AcDbEntity
  8
寸法線
 62
     0
 48
10.0
100
AcDbLine
 10
151.265503429538
 20
931.402902818572
 30
0.0
 11
151.265503429538
 21
925.402902818572
 31
0.0
  0
LINE
  5
3F14
330
3AA2
100
AcDbEntity
  8
寸法線
 62
     0
 48
10.0
100
AcDbLine
 10
151.265503429538
 20
953.402825318572
 30
0.0
 11
151.265503429538
 21
977.059124531171
 31
0.0
  0
LINE
  5
3F15
330
3AA2
100
AcDbEntity
  8
寸法線
 62
     0
 48
10.0
100
AcDbLine
 10
151.265503429538
 20
937.402902818572
 30
0.0
 11
151.265503429538
 21
947.402825318572
 31
0.0
  0
INSERT
  5
3F16
330
3AA2
100
AcDbEntity
  8
寸法線
 62
     0
 48
10.0
100
AcDbBlockReference
  2
_OPEN30
 10
151.265503429538
 20
937.402902818572
 30
0.0
 41
6.0
 42
6.0
 43
6.0
 50
90.0
  0
INSERT
  5
3F17
330
3AA2
100
AcDbEntity
  8
寸法線
 62
     0
 48
10.0
100
AcDbBlockReference
  2
_OPEN30
 10
151.265503429538
 20
947.402825318572
 30
0.0
 41
6.0
 42
6.0
 43
6.0
 50
270.0
  0
MTEXT
  5
3F18
330
3AA2
100
AcDbEntity
  8
寸法線
 62
     0
 48
10.0
100
AcDbMText
 10
146.640503429538
 20
968.230974924872
 30
0.0
 40
8.0
 41
0.0
 71
     5
 72
     1
  1
\A1;φ10
 11
6.123031769111886E-17
 21
1.0
 31
0.0
  0
POINT
  5
3F19
330
3AA2
100
AcDbEntity
  8
DEFPOINTS
 62
     0
 48
10.0
100
AcDbPoint
 10
151.265503429538
 20
947.402825318572
 30
0.0
  0
POINT
  5
3F1A
330
3AA2
100
AcDbEntity
  8
DEFPOINTS
 62
     0
 48
10.0
100
AcDbPoint
 10
151.265503429538
 20
937.402902818572
 30
0.0
  0
POINT
  5
3F1B
330
3AA2
100
AcDbEntity
  8
DEFPOINTS
 62
     0
 48
10.0
100
AcDbPoint
 10
151.265503429538
 20
937.402902818572
 30
0.0
  0
ENDBLK
  5
3AAF
330
3AA2
100
AcDbEntity
  8
0
 62
     1
 48
10.0
100
AcDbBlockEnd
  0
BLOCK
  5
42D5
330
42CB
100
AcDbEntity
  8
0
 62
     1
 48
10.0
100
AcDbBlockBegin
  2
*D13
 70
     1
 10
0.0
 20
0.0
 30
0.0
  3
*D13
  1
*D13
  0
LINE
  5
432D
330
42CB
100
AcDbEntity
  8
寸法線
 62
     0
 48
10.0
100
AcDbLine
 10
333.3506368238
 20
910.561152343068
 30
0.0
 11
333.3506368238
 21
840.072779587901
 31
0.0
  0
LINE
  5
432E
330
42CB
100
AcDbEntity
  8
寸法線
 62
     0
 48
10.0
100
AcDbLine
 10
250.3506368238
 20
859.86917859664
 30
0.0
 11
250.3506368238
 21
840.072779587901
 31
0.0
  0
LINE
  5
432F
330
42CB
100
AcDbEntity
  8
寸法線
 62
     0
 48
10.0
100
AcDbLine
 10
327.3506368238
 20
841.322779587901
 30
0.0
 11
256.3506368238
 21
841.322779587901
 31
0.0
  0
INSERT
  5
4330
330
42CB
100
AcDbEntity
  8
寸法線
 62
     0
 48
10.0
100
AcDbBlockReference
  2
_OPEN30
 10
333.3506368238
 20
841.322779587901
 30
0.0
 41
6.0
 42
6.0
 43
6.0
  0
INSERT
  5
4331
330
42CB
100
AcDbEntity
  8
寸法線
 62
     0
 48
10.0
100
AcDbBlockReference
  2
_OPEN30
 10
250.3506368238
 20
841.322779587901
 30
0.0
 41
6.0
 42
6.0
 43
6.0
 50
180.0
  0
MTEXT
  5
4332
330
42CB
100
AcDbEntity
  8
寸法線
 62
     0
 48
10.0
100
AcDbMText
 10
291.8506368238
 20
845.947779587901
 30
0.0
 40
8.0
 41
0.0
 71
     5
 72
     1
  1
\A1;83
  0
POINT
  5
4333
330
42CB
100
AcDbEntity
  8
DEFPOINTS
 62
     0
 48
10.0
100
AcDbPoint
 10
333.3506368238
 20
911.186152343068
 30
0.0
  0
POINT
  5
4334
330
42CB
100
AcDbEntity
  8
DEFPOINTS
 62
     0
 48
10.0
100
AcDbPoint
 10
250.3506368238
 20
860.49417859664
 30
0.0
  0
POINT
  5
4335
330
42CB
100
AcDbEntity
  8
DEFPOINTS
 62
     0
 48
10.0
100
AcDbPoint
 10
250.3506368238
 20
841.322779587901
 30
0.0
  0
ENDBLK
  5
42D6
330
42CB
100
AcDbEntity
  8
0
 62
     1
 48
10.0
100
AcDbBlockEnd
  0
BLOCK
  5
42E1
330
42D7
100
AcDbEntity
  8
0
 62
     1
 48
10.0
100
AcDbBlockBegin
  2
*D14
 70
     1
 10
0.0
 20
0.0
 30
0.0
  3
*D14
  1
*D14
  0
LINE
  5
4324
330
42D7
100
AcDbEntity
  8
寸法線
 62
     0
 48
10.0
100
AcDbLine
 10
289.682790823801
 20
993.395369533279
 30
0.0
 11
355.719415434023
 21
993.395369533279
 31
0.0
  0
LINE
  5
4325
330
42D7
100
AcDbEntity
  8
寸法線
 62
     0
 48
10.0
100
AcDbLine
 10
289.682790823801
 20
891.395369533279
 30
0.0
 11
355.719415434023
 21
891.395369533279
 31
0.0
  0
LINE
  5
4326
330
42D7
100
AcDbEntity
  8
寸法線
 62
     0
 48
10.0
100
AcDbLine
 10
354.469415434023
 20
987.395369533279
 30
0.0
 11
354.469415434023
 21
897.395369533279
 31
0.0
  0
INSERT
  5
4327
330
42D7
100
AcDbEntity
  8
寸法線
 62
     0
 48
10.0
100
AcDbBlockReference
  2
_OPEN30
 10
354.469415434023
 20
993.395369533279
 30
0.0
 41
6.0
 42
6.0
 43
6.0
 50
90.0
  0
INSERT
  5
4328
330
42D7
100
AcDbEntity
  8
寸法線
 62
     0
 48
10.0
100
AcDbBlockReference
  2
_OPEN30
 10
354.469415434023
 20
891.395369533279
 30
0.0
 41
6.0
 42
6.0
 43
6.0
 50
270.0
  0
MTEXT
  5
4329
330
42D7
100
AcDbEntity
  8
寸法線
 62
     0
 48
10.0
100
AcDbMText
 10
349.843628032448
 20
941.783370033279
 30
0.0
 40
8.0
 41
0.0
 71
     5
 72
     1
  1
\A1;φ102
 11
6.123031769111886E-17
 21
1.0
 31
0.0
  0
POINT
  5
432A
330
42D7
100
AcDbEntity
  8
DEFPOINTS
 62
     0
 48
10.0
100
AcDbPoint
 10
289.057790823801
 20
993.395369533279
 30
0.0
  0
POINT
  5
432B
330
42D7
100
AcDbEntity
  8
DEFPOINTS
 62
     0
 48
10.0
100
AcDbPoint
 10
289.057790823801
 20
891.395369533279
 30
0.0
  0
POINT
  5
432C
330
42D7
100
AcDbEntity
  8
DEFPOINTS
 62
     0
 48
10.0
100
AcDbPoint
 10
354.469415434023
 20
891.395369533279
 30
0.0
  0
ENDBLK
  5
42E2
330
42D7
100
AcDbEntity
  8
0
 62
     1
 48
10.0
100
AcDbBlockEnd
  0
BLOCK
  5
42ED
330
42E3
100
AcDbEntity
  8
0
 62
     1
 48
10.0
100
AcDbBlockBegin
  2
*D15
 70
     1
 10
0.0
 20
0.0
 30
0.0
  3
*D15
  1
*D15
  0
LINE
  5
4341
330
42E3
100
AcDbEntity
  8
寸法線
 62
     0
 48
10.0
100
AcDbLine
 10
183.3506368238
 20
864.770369533279
 30
0.0
 11
183.3506368238
 21
822.50514236157
 31
0.0
  0
LINE
  5
4342
330
42E3
100
AcDbEntity
  8
寸法線
 62
     0
 48
10.0
100
AcDbLine
 10
333.3506368238
 20
910.561152343068
 30
0.0
 11
333.3506368238
 21
822.50514236157
 31
0.0
  0
LINE
  5
4343
330
42E3
100
AcDbEntity
  8
寸法線
 62
     0
 48
10.0
100
AcDbLine
 10
189.3506368238
 20
823.75514236157
 30
0.0
 11
327.3506368238
 21
823.75514236157
 31
0.0
  0
INSERT
  5
4344
330
42E3
100
AcDbEntity
  8
寸法線
 62
     0
 48
10.0
100
AcDbBlockReference
  2
_OPEN30
 10
183.3506368238
 20
823.75514236157
 30
0.0
 41
6.0
 42
6.0
 43
6.0
 50
180.0
  0
INSERT
  5
4345
330
42E3
100
AcDbEntity
  8
寸法線
 62
     0
 48
10.0
100
AcDbBlockReference
  2
_OPEN30
 10
333.3506368238
 20
823.75514236157
 30
0.0
 41
6.0
 42
6.0
 43
6.0
  0
MTEXT
  5
4346
330
42E3
100
AcDbEntity
  8
寸法線
 62
     0
 48
10.0
100
AcDbMText
 10
258.3382308238
 20
828.38014236157
 30
0.0
 40
8.0
 41
0.0
 71
     5
 72
     1
  1
\A1;150
  0
POINT
  5
4347
330
42E3
100
AcDbEntity
  8
DEFPOINTS
 62
     0
 48
10.0
100
AcDbPoint
 10
183.3506368238
 20
865.395369533279
 30
0.0
  0
POINT
  5
4348
330
42E3
100
AcDbEntity
  8
DEFPOINTS
 62
     0
 48
10.0
100
AcDbPoint
 10
333.3506368238
 20
911.186152343068
 30
0.0
  0
POINT
  5
4349
330
42E3
100
AcDbEntity
  8
DEFPOINTS
 62
     0
 48
10.0
100
AcDbPoint
 10
333.3506368238
 20
823.75514236157
 30
0.0
  0
ENDBLK
  5
42EE
330
42E3
100
AcDbEntity
  8
0
 62
     1
 48
10.0
100
AcDbBlockEnd
  0
BLOCK
  5
42FB
330
42EF
100
AcDbEntity
  8
0
 62
     1
 48
10.0
100
AcDbBlockBegin
  2
*D16
 70
     1
 10
0.0
 20
0.0
 30
0.0
  3
*D16
  1
*D16
  0
LINE
  5
4336
330
42EF
100
AcDbEntity
  8
寸法線
 62
     0
 48
10.0
100
AcDbLine
 10
183.3506368238
 20
864.270292033279
 30
0.0
 11
183.3506368238
 21
840.072779587901
 31
0.0
  0
LINE
  5
4337
330
42EF
100
AcDbEntity
  8
寸法線
 62
     0
 48
10.0
100
AcDbLine
 10
193.3506368238
 20
864.270292033279
 30
0.0
 11
193.3506368238
 21
840.072779587901
 31
0.0
  0
LINE
  5
4338
330
42EF
100
AcDbEntity
  8
寸法線
 62
     0
 48
10.0
100
AcDbLine
 10
177.3506368238
 20
841.322779587901
 30
0.0
 11
171.3506368238
 21
841.322779587901
 31
0.0
  0
LINE
  5
4339
330
42EF
100
AcDbEntity
  8
寸法線
 62
     0
 48
10.0
100
AcDbLine
 10
199.3506368238
 20
841.322779587901
 30
0.0
 11
205.3506368238
 21
841.322779587901
 31
0.0
  0
LINE
  5
433A
330
42EF
100
AcDbEntity
  8
寸法線
 62
     0
 48
10.0
100
AcDbLine
 10
183.3506368238
 20
841.322779587901
 30
0.0
 11
193.3506368238
 21
841.322779587901
 31
0.0
  0
INSERT
  5
433B
330
42EF
100
AcDbEntity
  8
寸法線
 62
     0
 48
10.0
100
AcDbBlockReference
  2
_OPEN30
 10
183.3506368238
 20
841.322779587901
 30
0.0
 41
6.0
 42
6.0
 43
6.0
  0
INSERT
  5
433C
330
42EF
100
AcDbEntity
  8
寸法線
 62
     0
 48
10.0
100
AcDbBlockReference
  2
_OPEN30
 10
193.3506368238
 20
841.322779587901
 30
0.0
 41
6.0
 42
6.0
 43
6.0
 50
180.0
  0
MTEXT
  5
433D
330
42EF
100
AcDbEntity
  8
寸法線
 62
     0
 48
10.0
100
AcDbMText
 10
188.3506368238
 20
845.947779587901
 30
0.0
 40
8.0
 41
0.0
 71
     5
 72
     1
  1
\A1;10
  0
POINT
  5
433E
330
42EF
100
AcDbEntity
  8
DEFPOINTS
 62
     0
 48
10.0
100
AcDbPoint
 10
183.3506368238
 20
864.895292033279
 30
0.0
  0
POINT
  5
433F
330
42EF
100
AcDbEntity
  8
DEFPOINTS
 62
     0
 48
10.0
100
AcDbPoint
 10
193.3506368238
 20
864.895292033279
 30
0.0
  0
POINT
  5
4340
330
42EF
100
AcDbEntity
  8
DEFPOINTS
 62
     0
 48
10.0
100
AcDbPoint
 10
193.3506368238
 20
841.322779587901
 30
0.0
  0
ENDBLK
  5
42FC
330
42EF
100
AcDbEntity
  8
0
 62
     1
 48
10.0
100
AcDbBlockEnd
  0
ENDSEC
  0
SECTION
  2
ENTITIES
  0
LEADER
  5
2FF6
330
1A
100
AcDbEntity
  8
寸法線
 48
10.0
100
AcDbLeader
  3
ISO-25
 76
     3
 10
308.003310563184
 20
990.242151513061
 30
0.0
 10
332.108471736526
 20
1057.450326856825
 30
0.0
 10
349.024071261896
 20
1057.450326856825
 30
0.0
1001
ACAD
1000
DSTYLE
1002
{
1070
     5
1000
OPEN30
1070
   147
1040
0.625
1070
    77
1070
     0
1070
    41
1040
6.0
1070
    47
1040
0.1
1070
    48
1040
0.1
1070
    73
1070
     0
1070
   140
1040
5.0
1070
   271
1070
     1
1070
   272
1070
     1
1070
   341
1005
2AF4
1070
   342
1005
2AF4
1002
}
  0
MTEXT
  5
2FF7
330
1A
100
AcDbEntity
  8
寸法線
 48
10.0
100
AcDbMText
 10
332.699074705925
 20
1066.54532081834
 30
0.0
 40
8.0
 41
48.885281348654
 71
     1
 72
     5
  1
アルミ鋳物
  0
MTEXT
  5
2FF8
330
1A
100
AcDbEntity
  8
寸法線
 48
10.0
100
AcDbMText
 10
280.57023163823
 20
1066.266785469333
 30
0.0
 40
8.0
 41
38.931165525765
 71
     1
 72
     5
  1
Oリング
  0
LEADER
  5
2FF9
330
1A
100
AcDbEntity
  8
寸法線
 48
10.0
100
AcDbLeader
  3
ISO-25
 76
     3
 10
272.85622656026
 20
993.395369533279
 30
0.0
 10
279.593068653393
 20
1057.450326856825
 30
0.0
 10
292.279494104961
 20
1057.450326856825
 30
0.0
1001
ACAD
1000
DSTYLE
1002
{
1070
     5
1000
OPEN30
1070
   147
1040
0.625
1070
    77
1070
     0
1070
    41
1040
6.0
1070
    47
1040
0.1
1070
    48
1040
0.1
1070
    73
1070
     0
1070
   140
1040
5.0
1070
   271
1070
     1
1070
   272
1070
     1
1070
   341
1005
2AF4
1070
   342
1005
2AF4
1002
}
  0
LEADER
  5
2FFA
330
1A
100
AcDbEntity
  8
寸法線
 48
10.0
100
AcDbLeader
  3
ISO-25
 76
     3
 10
188.3506368238
 20
1019.895292033279
 30
0.0
 10
195.56539236442
 20
1057.450326856825
 30
0.0
 10
179.57653958427
 20
1057.450326856825
 30
0.0
1001
ACAD
1000
DSTYLE
1002
{
1070
     5
1000
OPEN30
1070
   147
1040
0.625
1070
    77
1070
     0
1070
    41
1040
6.0
1070
    47
1040
0.1
1070
    48
1040
0.1
1070
    73
1070
     0
1070
   140
1040
5.0
1070
   271
1070
     1
1070
   272
1070
     1
1070
   341
1005
2AF4
1070
   342
1005
2AF4
1002
}
  0
MTEXT
  5
2FFB
330
1A
100
AcDbEntity
  8
寸法線
 48
10.0
100
AcDbMText
 10
197.408834519856
 20
1058.696795623369
 30
0.0
 40
8.0
 41
48.697825423644
 71
     9
 72
     5
  1
フランジ\Pアルミ鋳物
  0
LEADER
  5
2FFC
330
1A
100
AcDbEntity
  8
寸法線
 48
10.0
100
AcDbLeader
  3
ISO-25
 76
     3
 10
172.172541837939
 20
957.406476532209
 30
0.0
 10
132.116078386658
 20
1057.450326856825
 30
0.0
 10
124.174805318382
 20
1057.450326856825
 30
0.0
1001
ACAD
1000
DSTYLE
1002
{
1070
     5
1000
OPEN30
1070
   147
1040
0.625
1070
    77
1070
     0
1070
    41
1040
6.0
1070
    47
1040
0.1
1070
    48
1040
0.1
1070
    73
1070
     0
1070
   140
1040
5.0
1070
   271
1070
     1
1070
   272
1070
     1
1070
   341
1005
2AF4
1070
   342
1005
2AF4
1002
}
  0
MTEXT
  5
2FFD
330
1A
100
AcDbEntity
  8
寸法線
 48
10.0
100
AcDbMText
 10
107.51767221373
 20
1066.930304484985
 30
0.0
 40
8.0
 41
17.617431142437
 71
     1
 72
     5
  1
BsBM
  0
MTEXT
  5
2FFE
330
1A
100
AcDbEntity
  8
寸法線
 48
10.0
100
AcDbMText
 10
62.120285040452
 20
1066.620955288729
 30
0.0
 40
8.0
 41
0.0
 71
     1
 72
     5
  1
SUS304
  0
LEADER
  5
2FFF
330
1A
100
AcDbEntity
  8
寸法線
 48
10.0
100
AcDbLeader
  3
ISO-25
 76
     3
 10
147.3006488238
 20
947.402825318572
 30
0.0
 10
97.025453643895
 20
1057.45425574819
 30
0.0
 10
86.501619833192
 20
1057.458476061032
 30
0.0
1001
ACAD
1000
DSTYLE
1002
{
1070
     5
1000
OPEN30
1070
   147
1040
0.625
1070
    77
1070
     0
1070
    41
1040
6.0
1070
    47
1040
0.1
1070
    48
1040
0.1
1070
    73
1070
     0
1070
   140
1040
5.0
1070
   271
1070
     1
1070
   272
1070
     1
1070
   341
1005
2AF4
1070
   342
1005
2AF4
1002
}
  0
MTEXT
  5
3001
330
1A
100
AcDbEntity
  8
寸法線
 48
10.0
100
AcDbMText
 10
-7.86517521103
 20
1066.941177155358
 30
0.0
 40
8.0
 41
0.0
 71
     1
 72
     5
  1
SUS304
  0
LEADER
  5
3002
330
1A
100
AcDbEntity
  8
寸法線
 48
10.0
100
AcDbLeader
  3
ISO-25
 76
     3
 10
65.8506368238
 20
982.395369533279
 30
0.0
 10
27.08205492542
 20
1057.450326856825
 30
0.0
 10
16.220570601534
 20
1057.450326856825
 30
0.0
1001
ACAD
1000
DSTYLE
1002
{
1070
     5
1000
OPEN30
1070
   147
1040
0.625
1070
    77
1070
     0
1070
    41
1040
6.0
1070
    47
1040
0.1
1070
    48
1040
0.1
1070
    73
1070
     0
1070
   140
1040
5.0
1070
   271
1070
     1
1070
   272
1070
     1
1070
   341
1005
2AF4
1070
   342
1005
2AF4
1002
}
  0
MTEXT
  5
3067
102
{ACAD_XDICTIONARY
360
44B8
102
}
330
1A
100
AcDbEntity
  8
寸法線
 48
10.0
100
AcDbMText
 10
-102.934053576983
 20
792.22485236327
 30
0.0
 40
8.0
 41
168.503621648242
 71
     1
 72
     5
  1
御仕様   電源電圧    リード線色\P       AC100/110V　 シロ・シロ\P       AC200/220V　クロ・クロ
1001
ACADANNOTATIVE
1000
AnnotativeData
1002
{
1070
     1
1070
     0
1002
}
  0
MTEXT
  5
32DC
330
1A
100
AcDbEntity
  8
寸法線
 48
10.0
100
AcDbMText
 10
214.90829142844
 20
1066.871968414028
 30
0.0
 40
8.0
 41
56.734193953151
 71
     1
 72
     5
  1
アルミ鋳物
  0
LEADER
  5
32DD
330
1A
100
AcDbEntity
  8
寸法線
 48
10.0
100
AcDbLeader
  3
ISO-25
 76
     3
 10
228.894832350828
 20
986.481158173669
 30
0.0
 10
214.310613428849
 20
1057.450326856825
 30
0.0
 10
232.762195589467
 20
1057.450326856825
 30
0.0
1001
ACAD
1000
DSTYLE
1002
{
1070
     5
1000
OPEN30
1070
   147
1040
0.625
1070
    77
1070
     0
1070
    41
1040
6.0
1070
    47
1040
0.1
1070
    48
1040
0.1
1070
    73
1070
     0
1070
   140
1040
5.0
1070
   271
1070
     1
1070
   272
1070
     1
1070
   341
1005
2AF4
1070
   342
1005
2AF4
1002
}
  0
MTEXT
  5
3672
102
{ACAD_XDICTIONARY
360
44AC
102
}
330
1A
100
AcDbEntity
  8
寸法線
 48
10.0
100
AcDbMText
 10
-214.519500265806
 20
689.208585805963
 30
0.0
 40
6.0
 41
49.50078544177
 71
     1
 72
     5
  1
L　　C　　 H
1001
ACADANNOTATIVE
1000
AnnotativeData
1002
{
1070
     1
1070
     0
1002
}
  0
MTEXT
  5
3673
330
1A
100
AcDbEntity
  8
寸法線
 48
10.0
100
AcDbMText
 10
-155.114609578006
 20
668.425984568755
 30
0.0
 40
6.0
 41
22.662715674224
 71
     1
 72
     5
  1
電　源
  0
LINE
  5
3674
330
1A
100
AcDbEntity
  8
寸法線
100
AcDbLine
 10
-214.522979993653
 20
698.265592690255
 30
0.0
 11
-214.522979993653
 21
795.397550690255
 31
0.0
  0
LINE
  5
3675
330
1A
100
AcDbEntity
  8
寸法線
100
AcDbLine
 10
-214.522979993653
 20
795.397550690255
 30
0.0
 11
-201.670989993653
 21
795.397550690255
 31
0.0
  0
LINE
  5
3676
330
1A
100
AcDbEntity
  8
寸法線
100
AcDbLine
 10
-201.670989993653
 20
795.397550690255
 30
0.0
 11
-201.670989993653
 21
775.691130690255
 31
0.0
  0
LINE
  5
3677
330
1A
100
AcDbEntity
  8
寸法線
100
AcDbLine
 10
-185.962981993653
 20
795.397550690255
 30
0.0
 11
-173.110991993653
 21
795.397550690255
 31
0.0
  0
LINE
  5
3678
330
1A
100
AcDbEntity
  8
寸法線
100
AcDbLine
 10
-153.404633993653
 20
795.397550690255
 30
0.0
 11
-133.412567993653
 21
795.397550690255
 31
0.0
  0
TEXT
  5
3679
330
1A
100
AcDbEntity
  8
寸法線
100
AcDbText
 10
-199.013091993653
 20
727.608794690255
 30
0.0
 40
8.571428571429
  1
キ
  7
EXCADVERT
 72
     3
 11
-199.013091993653
 21
719.608794690255
 31
0.0
100
AcDbText
  0
TEXT
  5
367A
330
1A
100
AcDbEntity
  8
寸法線
100
AcDbText
 10
-139.413909993653
 20
758.764006690255
 30
0.0
 40
12.0
  1
Ｍ
 41
1.071428571429
  7
EXCADSTD
 72
     5
 11
-127.413909993653
 21
758.764006690255
 31
0.0
100
AcDbText
  0
LINE
  5
367B
330
1A
100
AcDbEntity
  8
寸法線
100
AcDbLine
 10
-133.412567993653
 20
795.397550690255
 30
0.0
 11
-133.412567993653
 21
774.164580690255
 31
0.0
  0
CIRCLE
  5
367C
330
1A
100
AcDbEntity
  8
寸法線
100
AcDbCircle
 10
-193.816985993653
 20
757.870390690255
 30
0.0
 40
1.600006
  0
LINE
  5
367D
330
1A
100
AcDbEntity
  8
寸法線
100
AcDbLine
 10
-193.816985993653
 20
756.270354690255
 30
0.0
 11
-193.816985993653
 21
698.265592690255
 31
0.0
  0
LINE
  5
367E
330
1A
100
AcDbEntity
  8
寸法線
100
AcDbLine
 10
-173.110991993653
 20
795.397550690255
 30
0.0
 11
-173.110991993653
 21
698.265592690255
 31
0.0
  0
LINE
  5
367F
330
1A
100
AcDbEntity
  8
寸法線
100
AcDbLine
 10
-133.412567993653
 20
755.780118690255
 30
0.0
 11
-133.412567993653
 21
698.265592690255
 31
0.0
  0
CIRCLE
  5
3680
330
1A
100
AcDbEntity
  8
寸法線
100
AcDbCircle
 10
-214.522979993653
 20
695.265592690255
 30
0.0
 40
1.599998
  0
LINE
  5
3681
330
1A
100
AcDbEntity
  8
寸法線
100
AcDbLine
 10
-153.404633993653
 20
756.270354690255
 30
0.0
 11
-153.404633993653
 21
698.265592690255
 31
0.0
  0
CIRCLE
  5
3682
330
1A
100
AcDbEntity
  8
寸法線
100
AcDbCircle
 10
-153.404633993653
 20
757.870390690255
 30
0.0
 40
1.600006
  0
CIRCLE
  5
3683
330
1A
100
AcDbEntity
  8
寸法線
100
AcDbCircle
 10
-201.670989993653
 20
774.091154690255
 30
0.0
 40
1.600006
  0
LINE
  5
3684
330
1A
100
AcDbEntity
  8
寸法線
100
AcDbLine
 10
-185.962981993653
 20
795.397550690255
 30
0.0
 11
-185.962981993653
 21
775.691130690255
 31
0.0
  0
CIRCLE
  5
3685
330
1A
100
AcDbEntity
  8
寸法線
100
AcDbCircle
 10
-185.962981993653
 20
774.091154690255
 30
0.0
 40
1.600006
  0
LINE
  5
3686
330
1A
100
AcDbEntity
  8
寸法線
100
AcDbLine
 10
-153.404633993653
 20
795.397550690255
 30
0.0
 11
-153.404633993653
 21
775.691130690255
 31
0.0
  0
CIRCLE
  5
3687
330
1A
100
AcDbEntity
  8
寸法線
100
AcDbCircle
 10
-153.404633993653
 20
774.091154690255
 30
0.0
 40
1.600006
  0
LINE
  5
3688
330
1A
100
AcDbEntity
  8
寸法線
100
AcDbLine
 10
-193.816985993653
 20
759.470366690255
 30
0.0
 11
-200.071013993653
 21
774.091154690255
 31
0.0
  0
LINE
  5
3689
330
1A
100
AcDbEntity
  8
寸法線
100
AcDbLine
 10
-153.404633993653
 20
759.470366690255
 30
0.0
 11
-151.804595993653
 21
774.091154690255
 31
0.0
  0
CIRCLE
  5
368A
330
1A
100
AcDbEntity
  8
寸法線
100
AcDbCircle
 10
-133.404999993653
 20
764.986784690255
 30
0.0
 40
9.177798
  0
TEXT
  5
368B
330
1A
100
AcDbEntity
  8
寸法線
100
AcDbText
 10
-177.949187993653
 20
736.709012690255
 30
0.0
 40
7.8
  1
ア　カ
 41
0.615384615385
  7
EXCADVERT
 72
     3
 11
-177.949187993653
 21
710.709012690255
 31
0.0
100
AcDbText
  0
TEXT
  5
368C
330
1A
100
AcDbEntity
  8
寸法線
100
AcDbText
 10
-219.499481993653
 20
736.709012690255
 30
0.0
 40
7.440000003576
  1
ミドリ
 41
0.967741935019
  7
EXCADVERT
 72
     3
 11
-219.499481993653
 21
711.909012678334
 31
0.0
100
AcDbText
  0
CIRCLE
  5
368F
330
1A
100
AcDbEntity
  8
寸法線
100
AcDbCircle
 10
-214.522979993653
 20
695.265592690255
 30
0.0
 40
3.0
  0
CIRCLE
  5
3690
330
1A
100
AcDbEntity
  8
寸法線
100
AcDbCircle
 10
-193.816985993653
 20
695.265592690255
 30
0.0
 40
1.599998
  0
CIRCLE
  5
3691
330
1A
100
AcDbEntity
  8
寸法線
100
AcDbCircle
 10
-193.816985993653
 20
695.265592690255
 30
0.0
 40
3.0
  0
CIRCLE
  5
3692
330
1A
100
AcDbEntity
  8
寸法線
100
AcDbCircle
 10
-153.404633993653
 20
695.265592690255
 30
0.0
 40
1.599998
  0
CIRCLE
  5
3693
330
1A
100
AcDbEntity
  8
寸法線
100
AcDbCircle
 10
-153.404633993653
 20
695.265592690255
 30
0.0
 40
3.0
  0
CIRCLE
  5
3694
330
1A
100
AcDbEntity
  8
寸法線
100
AcDbCircle
 10
-133.412567993653
 20
695.265592690255
 30
0.0
 40
1.599998
  0
CIRCLE
  5
3695
330
1A
100
AcDbEntity
  8
寸法線
100
AcDbCircle
 10
-133.412567993653
 20
695.265592690255
 30
0.0
 40
3.0
  0
CIRCLE
  5
3696
330
1A
100
AcDbEntity
  8
寸法線
100
AcDbCircle
 10
-173.110991993653
 20
695.265592690255
 30
0.0
 40
1.599998
  0
CIRCLE
  5
3697
330
1A
100
AcDbEntity
  8
寸法線
100
AcDbCircle
 10
-173.110991993653
 20
695.265592690255
 30
0.0
 40
3.0
  0
LINE
  5
394F
330
1A
100
AcDbEntity
  8
外形線
100
AcDbLine
 10
-149.751675376741
 20
949.900923032744
 30
0.0
 11
-149.751675376741
 21
934.889816033813
 31
0.0
  0
LINE
  5
3950
330
1A
100
AcDbEntity
  8
外形線
100
AcDbLine
 10
-138.179688842986
 20
956.582012573066
 30
0.0
 11
-149.751675376741
 21
949.900923032744
 31
0.0
  0
LINE
  5
3951
330
1A
100
AcDbEntity
  8
外形線
100
AcDbLine
 10
-123.751675376741
 20
949.900923032744
 30
0.0
 11
-135.323684328451
 21
956.582025516078
 31
0.0
  0
LINE
  5
3952
330
1A
100
AcDbEntity
  8
外形線
100
AcDbLine
 10
-123.751675376741
 20
934.889816033813
 30
0.0
 11
-123.751675376741
 21
949.900923032744
 31
0.0
  0
LINE
  5
3953
330
1A
100
AcDbEntity
  8
外形線
100
AcDbLine
 10
-135.323684328451
 20
928.208713550479
 30
0.0
 11
-123.751675376741
 21
934.889816033813
 31
0.0
  0
LINE
  5
3954
330
1A
100
AcDbEntity
  8
外形線
100
AcDbLine
 10
-149.751675376741
 20
934.889816033813
 30
0.0
 11
-138.179688842986
 21
928.208726493491
 31
0.0
  0
ARC
  5
3955
330
1A
100
AcDbEntity
  8
細線
 48
10.0
100
AcDbCircle
 10
-136.751675376741
 20
942.395369533279
 30
0.0
 40
12.99999999999991
100
AcDbArc
 50
276.306407398251
 51
83.693592601749
  0
ARC
  5
3956
330
1A
100
AcDbEntity
  8
細線
 48
10.0
100
AcDbCircle
 10
-136.751675376741
 20
942.395369533279
 30
0.0
 40
13.00000000000001
100
AcDbArc
 50
96.306506803967
 51
263.693493196033
  0
ARC
  5
3957
330
1A
100
AcDbEntity
  8
細線
100
AcDbCircle
 10
184.07759612282
 20
927.039857479691
 30
0.0
 40
24.8389
100
AcDbArc
 50
161.576700695123
 51
174.558373888817
  0
LINE
  5
3958
330
1A
100
AcDbEntity
  8
細線
100
AcDbLine
 10
178.3506368238
 20
934.889816033813
 30
0.0
 11
160.511749991001
 21
934.889816033813
 31
0.0
  0
ARC
  5
3959
330
1A
100
AcDbEntity
  8
細線
100
AcDbCircle
 10
184.07759612282
 20
957.750881586867
 30
0.0
 40
24.8389
100
AcDbArc
 50
185.441626111183
 51
198.423299304877
  0
ARC
  5
395A
330
1A
100
AcDbEntity
  8
細線
100
AcDbCircle
 10
184.189523656599
 20
942.395369533279
 30
0.0
 40
24.83888683279929
100
AcDbArc
 50
162.412046226009
 51
197.587953773991
  0
LINE
  5
395B
330
1A
100
AcDbEntity
  8
細線
100
AcDbLine
 10
178.3506368238
 20
949.900923032744
 30
0.0
 11
160.511749991001
 21
949.900923032744
 31
0.0
  0
LINE
  5
395C
330
1A
100
AcDbEntity
  8
外形線
100
AcDbLine
 10
159.3506368238
 20
955.395369533278
 30
0.0
 11
159.350636823799
 21
929.395369533279
 31
0.0
  0
LINE
  5
395D
330
1A
100
AcDbEntity
  8
外形線
100
AcDbLine
 10
178.350636823799
 20
927.384262534348
 30
0.0
 11
161.03815596486
 21
927.384262534348
 31
0.0
  0
LINE
  5
395E
330
1A
100
AcDbEntity
  8
外形線
100
AcDbLine
 10
178.3506368238
 20
957.406476532209
 30
0.0
 11
161.03815596486
 21
957.406476532209
 31
0.0
  0
LINE
  5
395F
330
1A
100
AcDbEntity
  8
外形線
100
AcDbLine
 10
159.350636823799
 20
955.395369533278
 30
0.0
 11
161.03815596486
 21
957.406476532209
 31
0.0
  0
LINE
  5
3960
330
1A
100
AcDbEntity
  8
外形線
100
AcDbLine
 10
159.350636823799
 20
929.395369533279
 30
0.0
 11
161.03815596486
 21
927.384262534348
 31
0.0
  0
LINE
  5
3961
330
1A
100
AcDbEntity
  8
外形線
100
AcDbLine
 10
183.3506368238
 20
927.395369533279
 30
0.0
 11
183.3506368238
 21
927.395369533279
 31
0.0
  0
LINE
  5
3962
330
1A
100
AcDbEntity
  8
外形線
100
AcDbLine
 10
178.8506368238
 20
927.395369533279
 30
0.0
 11
183.3506368238
 21
927.395369533279
 31
0.0
  0
LINE
  5
3963
330
1A
100
AcDbEntity
  8
外形線
100
AcDbLine
 10
178.3506368238
 20
927.895369533279
 30
0.0
 11
178.8506368238
 21
927.395369533279
 31
0.0
  0
LINE
  5
3964
330
1A
100
AcDbEntity
  8
外形線
100
AcDbLine
 10
178.3506368238
 20
957.406476532209
 30
0.0
 11
178.350636823799
 21
927.384262534348
 31
0.0
  0
LINE
  5
3965
330
1A
100
AcDbEntity
  8
外形線
100
AcDbLine
 10
178.8506368238
 20
957.395369533279
 30
0.0
 11
178.3506368238
 21
956.895369533279
 31
0.0
  0
LINE
  5
3966
330
1A
100
AcDbEntity
  8
外形線
100
AcDbLine
 10
183.3506368238
 20
957.395369533279
 30
0.0
 11
178.8506368238
 21
957.395369533279
 31
0.0
  0
LINE
  5
39AB
330
1A
100
AcDbEntity
  8
外形線
100
AcDbLine
 10
159.3506368238
 20
954.095443533279
 30
0.0
 11
159.3506368238
 21
930.695297533279
 31
0.0
  0
LINE
  5
39D0
330
1A
100
AcDbEntity
  8
外形線
100
AcDbLine
 10
183.3506368238
 20
865.395369533279
 30
0.0
 11
183.3506368238
 21
1019.395369533278
 31
0.0
  0
LEADER
  5
39D8
330
1A
100
AcDbEntity
  8
寸法線
 48
10.0
100
AcDbLeader
  3
ISO-25
 76
     3
 10
-182.225716087679
 20
888.909248591724
 30
0.0
 10
-183.875283203247
 20
851.016076862528
 30
0.0
 10
-193.442775645566
 20
851.016076862528
 30
0.0
1001
ACAD
1000
DSTYLE
1002
{
1070
     5
1000
OPEN30
1070
    41
1040
6.0
1070
   341
1005
2AF4
1070
   147
1040
0.625
1070
    77
1070
     1
1002
}
  0
MTEXT
  5
39E1
330
1A
100
AcDbEntity
  8
寸法線
 48
10.0
100
AcDbMText
 10
-186.604039236756
 20
852.712271668854
 30
0.0
 40
8.0
 41
0.0
 71
     9
 72
     1
  1
\A1;4-φ15
  0
INSERT
  5
39EC
330
1A
100
AcDbEntity
  8
外形線
 48
10.0
100
AcDbBlockReference
  2
A$C480F1F2B
 10
128.350635322288
 20
934.120418134224
 30
0.0
  0
INSERT
  5
39ED
330
1A
100
AcDbEntity
  8
外形線
 48
10.0
100
AcDbBlockReference
  2
パドル_W1
 10
-24.950479085701
 20
721.743607611467
 30
0.0
  0
DIMENSION
  5
39EE
330
1A
100
AcDbEntity
  8
寸法線
 48
10.0
100
AcDbDimension
  2
*D6
 10
-135.323684328451
 20
911.316172950101
 30
0.0
 11
-117.732998903502
 21
915.941172950101
 31
0.0
 70
    32
  1
1.5
  3
ISO-25
100
AcDbAlignedDimension
 13
-138.179688842986
 23
911.311612804755
 33
0.0
 14
-135.323684328451
 24
911.311612804755
 34
0.0
100
AcDbRotatedDimension
1001
ACAD
1000
DSTYLE
1002
{
1070
     5
1000
OPEN30
1070
    41
1040
6.0
1070
    47
1040
0.1
1070
    48
1040
0.1
1070
    73
1070
     0
1070
   140
1040
8.0
1070
   271
1070
     1
1070
   272
1070
     1
1070
   341
1005
2AF4
1002
}
  0
INSERT
  5
39EF
330
1A
100
AcDbEntity
  8
外形線
100
AcDbBlockReference
  2
パドル_W1立面図
 10
-130.938228873007
 20
712.766553704817
 30
0.0
  0
DIMENSION
  5
39F0
330
1A
100
AcDbEntity
  8
寸法線
 48
10.0
100
AcDbDimension
  2
*D7
 10
113.3506368238
 20
883.869312347707
 30
0.0
 11
73.3506368238
 21
888.494312347707
 31
0.0
 70
    32
  3
ISO-25
100
AcDbAlignedDimension
 13
33.3506368238
 23
902.395369533279
 33
0.0
 14
113.3506368238
 24
930.395369533279
 34
0.0
100
AcDbRotatedDimension
1001
ACAD
1000
DSTYLE
1002
{
1070
     5
1000
OPEN30
1070
    41
1040
6.0
1070
    47
1040
0.1
1070
    48
1040
0.1
1070
    73
1070
     0
1070
   140
1040
8.0
1070
   271
1070
     1
1070
   272
1070
     1
1070
   341
1005
2AF4
1002
}
  0
DIMENSION
  5
39F1
330
1A
100
AcDbEntity
  8
寸法線
 48
10.0
100
AcDbDimension
  2
*D8
 10
11.391395534595
 20
902.395369533279
 30
0.0
 11
6.766395534595
 21
942.395369533279
 31
0.0
 70
    32
  3
ISO-25
100
AcDbAlignedDimension
 13
33.3506368238
 23
982.395369533279
 33
0.0
 14
33.3506368238
 24
902.395369533279
 34
0.0
 50
90.0
100
AcDbRotatedDimension
1001
ACAD
1000
DSTYLE
1002
{
1070
     5
1000
OPEN30
1070
    41
1040
6.0
1070
    47
1040
0.1
1070
    48
1040
0.1
1070
    73
1070
     0
1070
   140
1040
8.0
1070
   271
1070
     1
1070
   272
1070
     1
1070
   341
1005
2AF4
1002
}
  0
LINE
  5
39F2
330
1A
100
AcDbEntity
  8
外形線
100
AcDbLine
 10
136.8506368238
 20
947.402825318572
 30
0.0
 11
159.3506368238
 21
947.402825318572
 31
0.0
  0
LINE
  5
39F3
330
1A
100
AcDbEntity
  8
外形線
100
AcDbLine
 10
136.8506368238
 20
937.402902818572
 30
0.0
 11
159.3506368238
 21
937.402902818572
 31
0.0
  0
LINE
  5
39F4
330
1A
100
AcDbEntity
  8
外形線
100
AcDbLine
 10
128.3506368238
 20
950.546787818572
 30
0.0
 11
128.3506368238
 21
934.258867818572
 31
0.0
  0
LINE
  5
39F5
330
1A
100
AcDbEntity
  8
中心線
 48
10.0
100
AcDbLine
 10
332.956672169798
 20
942.395369533279
 30
0.0
 11
19.737886405116
 21
942.395369533279
 31
0.0
  0
ARC
  5
39F6
330
1A
100
AcDbEntity
  8
外形線
100
AcDbCircle
 10
-136.761230376741
 20
942.395369533279
 30
0.0
 40
15.0
100
AcDbArc
 50
275.259524500061
 51
84.740457899851
  0
ARC
  5
39F7
330
1A
100
AcDbEntity
  8
外形線
100
AcDbCircle
 10
-136.761230376741
 20
942.395369533279
 30
0.0
 40
15.0
100
AcDbArc
 50
95.259561947989
 51
264.740477747692
  0
CIRCLE
  5
39F8
330
1A
100
AcDbEntity
  8
外形線
100
AcDbCircle
 10
-136.761230376741
 20
942.395369533279
 30
0.0
 40
77.5
  0
CIRCLE
  5
39F9
330
1A
100
AcDbEntity
  8
外形線
100
AcDbCircle
 10
-90.799289599616
 20
988.357310310403
 30
0.0
 40
7.5
  0
CIRCLE
  5
39FA
330
1A
100
AcDbEntity
  8
外形線
100
AcDbCircle
 10
-90.799289599616
 20
896.433428756153
 30
0.0
 40
7.5
  0
CIRCLE
  5
39FB
330
1A
100
AcDbEntity
  8
外形線
100
AcDbCircle
 10
-182.723171153867
 20
988.357310310403
 30
0.0
 40
7.5
  0
CIRCLE
  5
39FC
330
1A
100
AcDbEntity
  8
外形線
100
AcDbCircle
 10
-182.723171153867
 20
896.433428756153
 30
0.0
 40
7.5
  0
CIRCLE
  5
39FD
330
1A
100
AcDbEntity
  8
中心線
 48
10.0
100
AcDbCircle
 10
-136.761230376741
 20
942.403912033279
 30
0.0
 40
65.0
  0
LINE
  5
39FE
330
1A
100
AcDbEntity
  8
中心線
 48
10.0
100
AcDbLine
 10
-99.816685376741
 20
905.450824533279
 30
0.0
 11
-81.781893822491
 21
887.416032979028
 31
0.0
  0
LINE
  5
39FF
330
1A
100
AcDbEntity
  8
中心線
 48
10.0
100
AcDbLine
 10
-191.740566930992
 20
887.416032979028
 30
0.0
 11
-173.705775376741
 21
905.450824533279
 31
0.0
  0
LINE
  5
3A00
330
1A
100
AcDbEntity
  8
中心線
 48
10.0
100
AcDbLine
 10
-99.816685376741
 20
979.339914533278
 30
0.0
 11
-81.781893822491
 21
997.374706087529
 31
0.0
  0
LINE
  5
3A01
330
1A
100
AcDbEntity
  8
中心線
 48
10.0
100
AcDbLine
 10
-191.74056751147
 20
997.374706668008
 30
0.0
 11
-173.70577595722
 21
979.339915113757
 31
0.0
  0
LINE
  5
3A02
330
1A
100
AcDbEntity
  8
中心線
 48
10.0
100
AcDbLine
 10
-43.251022876741
 20
942.395369533279
 30
0.0
 11
-230.252327876741
 21
942.395369533279
 31
0.0
  0
LINE
  5
3A03
330
1A
100
AcDbEntity
  8
中心線
 48
10.0
100
AcDbLine
 10
-136.751675376741
 20
848.894717033279
 30
0.0
 11
-136.751675376741
 21
1035.896022033279
 31
0.0
  0
DIMENSION
  5
3A04
330
1A
100
AcDbEntity
  8
寸法線
 48
10.0
100
AcDbDimension
  2
*D9
 10
-78.096176028199
 20
970.393399314803
 30
0.0
 11
-94.868485473475
 21
962.388776723578
 31
0.0
 70
   161
  1
φ<>
  3
ISO-25
100
AcDbAlignedDimension
 13
-195.419643532938
 23
914.400509275811
 33
0.0
 14
-78.096176028199
 24
970.393399314803
 34
0.0
1001
ACAD
1000
DSTYLE
1002
{
1070
     5
1000
OPEN30
1070
    41
1040
6.0
1070
    47
1040
0.1
1070
    48
1040
0.1
1070
    73
1070
     0
1070
   140
1040
8.0
1070
   271
1070
     1
1070
   272
1070
     1
1070
   341
1005
2AF4
1002
}
  0
DIMENSION
  5
3A05
330
1A
100
AcDbEntity
  8
寸法線
 48
10.0
100
AcDbDimension
  2
*D10
 10
-60.414990713614
 20
955.718345525912
 30
0.0
 11
-90.889082889798
 21
950.400394042616
 31
0.0
 70
   161
  1
φ<>
  3
ISO-25
100
AcDbAlignedDimension
 13
-213.107470039868
 23
929.072393540644
 33
0.0
 14
-60.414990713614
 24
955.718345525913
 34
0.0
1001
ACAD
1000
DSTYLE
1002
{
1070
     5
1000
OPEN30
1070
    41
1040
6.0
1070
    47
1040
0.1
1070
    48
1040
0.1
1070
    73
1070
     0
1070
   140
1040
8.0
1070
   271
1070
     1
1070
   272
1070
     1
1070
   341
1005
2AF4
1002
}
  0
DIMENSION
  5
3A0C
330
1A
100
AcDbEntity
  8
寸法線
 48
10.0
100
AcDbDimension
  2
*D11
 10
183.3506368238
 20
823.75514236157
 30
0.0
 11
108.3506368238
 21
828.38014236157
 31
0.0
 70
    32
  3
ISO-25
100
AcDbAlignedDimension
 13
33.3506368238
 23
902.395369533279
 33
0.0
 14
183.3506368238
 24
864.895369533279
 34
0.0
100
AcDbRotatedDimension
1001
ACAD
1000
DSTYLE
1002
{
1070
     5
1000
OPEN30
1070
    41
1040
6.0
1070
    47
1040
0.1
1070
    48
1040
0.1
1070
    73
1070
     0
1070
   140
1040
8.0
1070
   271
1070
     1
1070
   272
1070
     1
1070
   341
1005
2AF4
1002
}
  0
DIMENSION
  5
3A0D
330
1A
100
AcDbEntity
  8
寸法線
 48
10.0
100
AcDbDimension
  2
*D12
 10
151.265503429538
 20
937.402902818572
 30
0.0
 11
151.265503429538
 21
968.230974924872
 31
0.0
 70
   160
  1
φ<>
  3
ISO-25
100
AcDbAlignedDimension
 13
151.265503429538
 23
947.402825318572
 33
0.0
 14
151.265503429538
 24
937.402902818572
 34
0.0
 50
90.0
100
AcDbRotatedDimension
1001
ACAD
1000
DSTYLE
1002
{
1070
     5
1000
OPEN30
1070
    41
1040
6.0
1070
    47
1040
0.1
1070
    48
1040
0.1
1070
    73
1070
     0
1070
   140
1040
8.0
1070
   271
1070
     1
1070
   272
1070
     1
1070
   341
1005
2AF4
1002
}
  0
LINE
  5
3F10
330
1A
100
AcDbEntity
  8
下書線
 62
     2
 48
10.0
100
AcDbLine
 10
27.08205492542
 20
1057.450326856825
 30
0.0
 11
332.108471736526
 21
1057.450326856825
 31
0.0
  0
DIMENSION
  5
4259
330
1A
100
AcDbEntity
  8
寸法線
 48
10.0
100
AcDbDimension
  2
*D15
 10
333.3506368238
 20
823.75514236157
 30
0.0
 11
258.3382308238
 21
823.75514236157
 31
0.0
 70
   160
  3
ISO-25
100
AcDbAlignedDimension
 13
183.3506368238
 23
865.395369533279
 33
0.0
 14
333.3506368238
 24
911.186152343068
 34
0.0
100
AcDbRotatedDimension
1001
ACAD
1000
DSTYLE
1002
{
1070
     5
1000
OPEN30
1070
    41
1040
6.0
1070
    47
1040
0.1
1070
    48
1040
0.1
1070
    73
1070
     0
1070
   140
1040
8.0
1070
   271
1070
     1
1070
   272
1070
     1
1070
   341
1005
2AF4
1002
}
  0
LINE
  5
425A
330
1A
100
AcDbEntity
  8
外形線
100
AcDbLine
 10
183.3506368238
 20
865.395369533279
 30
0.0
 11
183.3506368238
 21
1019.395369533279
 31
0.0
  0
MTEXT
  5
425B
330
1A
100
AcDbEntity
  8
寸法線
 48
10.0
100
AcDbMText
 10
283.816736597424
 20
860.043602501682
 30
0.0
 40
8.0
 41
0.0
 71
     7
 72
     1
  1
導線取出口\PG 1/2"
  0
DIMENSION
  5
425C
330
1A
100
AcDbEntity
  8
寸法線
 48
10.0
100
AcDbDimension
  2
*D16
 10
193.3506368238
 20
841.322779587901
 30
0.0
 11
188.3506368238
 21
841.322779587901
 31
0.0
 70
   160
  3
ISO-25
100
AcDbAlignedDimension
 13
183.3506368238
 23
864.895292033279
 33
0.0
 14
193.3506368238
 24
864.895292033279
 34
0.0
100
AcDbRotatedDimension
1001
ACAD
1000
DSTYLE
1002
{
1070
     5
1000
OPEN30
1070
    41
1040
6.0
1070
    47
1040
0.1
1070
    48
1040
0.1
1070
    73
1070
     0
1070
   140
1040
8.0
1070
   271
1070
     1
1070
   272
1070
     1
1070
   341
1005
2AF4
1002
}
  0
DIMENSION
  5
425D
330
1A
100
AcDbEntity
  8
寸法線
 48
10.0
100
AcDbDimension
  2
*D13
 10
250.3506368238
 20
841.322779587901
 30
0.0
 11
291.8506368238
 21
845.947779587901
 31
0.0
 70
    32
  3
ISO-25
100
AcDbAlignedDimension
 13
333.3506368238
 23
911.186152343068
 33
0.0
 14
250.3506368238
 24
860.49417859664
 34
0.0
100
AcDbRotatedDimension
1001
ACAD
1000
DSTYLE
1002
{
1070
     5
1000
OPEN30
1070
    41
1040
6.0
1070
    47
1040
0.1
1070
    48
1040
0.1
1070
    73
1070
     0
1070
   140
1040
8.0
1070
   271
1070
     1
1070
   272
1070
     1
1070
   341
1005
2AF4
1002
}
  0
DIMENSION
  5
425E
330
1A
100
AcDbEntity
  8
寸法線
 48
10.0
100
AcDbDimension
  2
*D14
 10
354.469415434023
 20
891.395369533279
 30
0.0
 11
354.469415434023
 21
941.783370033279
 31
0.0
 70
   160
  1
φ102
  3
ISO-25
100
AcDbAlignedDimension
 13
289.057790823801
 23
993.395369533279
 33
0.0
 14
289.057790823801
 24
891.395369533279
 34
0.0
 50
90.0
100
AcDbRotatedDimension
1001
ACAD
1000
DSTYLE
1002
{
1070
     5
1000
OPEN30
1070
    41
1040
6.0
1070
    47
1040
0.1
1070
    48
1040
0.1
1070
    73
1070
     0
1070
   140
1040
8.0
1070
   271
1070
     1
1070
   272
1070
     1
1070
   341
1005
2AF4
1002
}
  0
LEADER
  5
425F
330
1A
100
AcDbEntity
  8
寸法線
 62
     1
 48
10.0
100
AcDbLeader
  3
ISO-25
 76
     3
 10
260.087507258113
 20
874.022857910006
 30
0.0
 10
283.065448532154
 20
858.674261295623
 30
0.0
 10
291.838945411559
 20
858.674261295623
 30
0.0
213
-32.80685794901018
223
0.0
233
0.0
1001
ACAD
1000
DSTYLE
1002
{
1070
     5
1000
OPEN30
1070
   147
1040
0.625
1070
    77
1070
     0
1070
    41
1040
6.0
1070
    47
1040
0.1
1070
    48
1040
0.1
1070
    73
1070
     0
1070
   140
1040
8.0
1070
   271
1070
     1
1070
   272
1070
     1
1070
   341
1005
2AF4
1070
   342
1005
2AF4
1002
}
  0
ARC
  5
4261
330
1A
100
AcDbEntity
  8
外形線
100
AcDbCircle
 10
196.345343055717
 20
914.395369533279
 30
0.0
 40
3.0
100
AcDbArc
 50
90.0
 51
176.595735140967
  0
LINE
  5
4262
330
1A
100
AcDbEntity
  8
外形線
100
AcDbLine
 10
192.3506368238
 20
864.895369533279
 30
0.0
 11
183.8506368238
 21
864.895369533279
 31
0.0
  0
LINE
  5
4263
330
1A
100
AcDbEntity
  8
外形線
100
AcDbLine
 10
193.3506368238
 20
865.895369533279
 30
0.0
 11
193.350636823799
 21
1018.895369533279
 31
0.0
  0
LINE
  5
4264
330
1A
100
AcDbEntity
  8
外形線
100
AcDbLine
 10
270.845343055717
 20
891.395369533279
 30
0.0
 11
265.345343055717
 21
891.395369533279
 31
0.0
  0
LINE
  5
4265
330
1A
100
AcDbEntity
  8
外形線
100
AcDbLine
 10
238.227036775666
 20
876.395369533279
 30
0.0
 11
262.474236871934
 21
876.395369533279
 31
0.0
  0
LINE
  5
4266
330
1A
100
AcDbEntity
  8
外形線
100
AcDbLine
 10
265.345343055717
 20
891.395369533279
 30
0.0
 11
264.469807187647
 21
878.262331512231
 31
0.0
  0
LINE
  5
4267
330
1A
100
AcDbEntity
  8
外形線
100
AcDbLine
 10
235.083300344986
 20
897.080292875191
 30
0.0
 11
236.230748962504
 21
878.273570653898
 31
0.0
  0
LINE
  5
4268
330
1A
100
AcDbEntity
  8
外形線
100
AcDbLine
 10
234.140626458027
 20
898.017853788706
 30
0.0
 11
228.889538582745
 21
898.309580892888
 31
0.0
  0
LINE
  5
4269
330
1A
100
AcDbEntity
  8
中心線
  6
CENTER
 48
10.0
100
AcDbLine
 10
250.3506368238
 20
860.49417859664
 30
0.0
 11
250.3506368238
 21
910.100815542899
 31
0.0
  0
LINE
  5
426A
330
1A
100
AcDbEntity
  8
外形線
100
AcDbLine
 10
226.519481932521
 20
899.702982978341
 30
0.0
 11
216.228303703613
 21
915.997348507443
 31
0.0
  0
ARC
  5
426B
330
1A
100
AcDbEntity
  8
外形線
100
AcDbCircle
 10
229.055948641613
 20
901.304961952504
 30
0.0
 40
3.0
100
AcDbArc
 50
212.275644314581
 51
266.820169880132
  0
ARC
  5
426C
330
1A
100
AcDbEntity
  8
外形線
100
AcDbCircle
 10
234.085156438405
 20
897.0193934355
 30
0.0
 40
1.0
100
AcDbArc
 50
3.491441283441
 51
86.820169880132
  0
ARC
  5
426D
330
1A
100
AcDbEntity
  8
外形線
100
AcDbCircle
 10
262.474236871934
 20
878.395369533279
 30
0.0
 40
2.0
100
AcDbArc
 50
270.0
 51
356.185925165712
  0
ARC
  5
426E
330
1A
100
AcDbEntity
  8
外形線
100
AcDbCircle
 10
238.227036775666
 20
878.395369533279
 30
0.0
 40
2.0
100
AcDbArc
 50
183.491441283441
 51
270.0
  0
LINE
  5
426F
330
1A
100
AcDbEntity
  8
外形線
100
AcDbLine
 10
270.845343055717
 20
891.395369533279
 30
0.0
 11
271.345343055717
 21
891.895369533279
 31
0.0
  0
LINE
  5
4270
330
1A
100
AcDbEntity
  8
細線
 62
     6
 48
10.0
100
AcDbLine
 10
266.345343055717
 20
993.395369533279
 30
0.0
 11
266.345343055717
 21
891.395369533279
 31
0.0
  0
LINE
  5
4271
330
1A
100
AcDbEntity
  8
細線
 62
     6
 48
10.0
100
AcDbLine
 10
263.345343055717
 20
988.395369533279
 30
0.0
 11
263.345343055717
 21
900.248201590719
 31
0.0
  0
LINE
  5
4272
330
1A
100
AcDbEntity
  8
細線
 62
     6
 48
10.0
100
AcDbLine
 10
227.947365510699
 20
983.320991595409
 30
0.0
 11
227.947365510699
 21
901.34466808646
 31
0.0
  0
LINE
  5
4273
330
1A
100
AcDbEntity
  8
細線
100
AcDbLine
 10
292.765265055717
 20
990.947371533278
 30
0.0
 11
292.765265055717
 21
893.843367533278
 31
0.0
  0
LINE
  5
4274
330
1A
100
AcDbEntity
  8
外形線
100
AcDbLine
 10
273.344489055717
 20
891.395369533279
 30
0.0
 11
273.344489055717
 21
993.395369533279
 31
0.0
  0
LINE
  5
4275
330
1A
100
AcDbEntity
  8
外形線
100
AcDbLine
 10
271.345343055717
 20
993.395369533279
 30
0.0
 11
271.345343055717
 21
891.395369533279
 31
0.0
  0
ARC
  5
4276
330
1A
100
AcDbEntity
  8
細線
100
AcDbCircle
 10
263.7730008238
 20
885.273453533278
 30
0.0
 40
18.322924
100
AcDbArc
 50
247.068453993571
 51
267.32239745992
  0
LINE
  5
4277
330
1A
100
AcDbEntity
  8
外形線
100
AcDbLine
 10
237.7842308238
 20
866.970535533279
 30
0.0
 11
262.9170448238
 21
866.970535533279
 31
0.0
  0
LINE
  5
4278
330
1A
100
AcDbEntity
  8
外形線
100
AcDbLine
 10
236.3562528238
 20
872.111343533279
 30
0.0
 11
264.345144823801
 21
872.111343533279
 31
0.0
  0
LINE
  5
4279
330
1A
100
AcDbEntity
  8
細線
100
AcDbLine
 10
257.490652823801
 20
876.395339533278
 30
0.0
 11
257.490652823801
 21
872.111343533279
 31
0.0
  0
LINE
  5
427A
330
1A
100
AcDbEntity
  8
外形線
100
AcDbLine
 10
259.7754428238
 20
872.111343533279
 30
0.0
 11
259.7754428238
 21
876.395339533278
 31
0.0
  0
LINE
  5
427B
330
1A
100
AcDbEntity
  8
細線
100
AcDbLine
 10
256.633840823801
 20
868.398575533278
 30
0.0
 11
256.633840823801
 21
872.111343533279
 31
0.0
  0
LINE
  5
427C
330
1A
100
AcDbEntity
  8
細線
100
AcDbLine
 10
243.210622823801
 20
876.395339533278
 30
0.0
 11
243.210622823801
 21
872.111343533279
 31
0.0
  0
LINE
  5
427D
330
1A
100
AcDbEntity
  8
外形線
100
AcDbLine
 10
240.925832823801
 20
872.111343533279
 30
0.0
 11
240.925832823801
 21
876.395339533278
 31
0.0
  0
ARC
  5
427E
330
1A
100
AcDbEntity
  8
細線
100
AcDbCircle
 10
236.9282748238
 20
885.273453533278
 30
0.0
 40
18.322924
100
AcDbArc
 50
272.67766208363
 51
292.931548254146
  0
LINE
  5
427F
330
1A
100
AcDbEntity
  8
外形線
100
AcDbLine
 10
236.3562528238
 20
868.398575533278
 30
0.0
 11
237.7842308238
 21
866.970535533279
 31
0.0
  0
LINE
  5
4280
330
1A
100
AcDbEntity
  8
細線
100
AcDbLine
 10
244.067434823801
 20
868.398575533278
 30
0.0
 11
244.067434823801
 21
872.111343533279
 31
0.0
  0
LINE
  5
4281
330
1A
100
AcDbEntity
  8
外形線
100
AcDbLine
 10
236.3562528238
 20
872.111343533279
 30
0.0
 11
236.3562528238
 21
868.398575533278
 31
0.0
  0
ARC
  5
4282
330
1A
100
AcDbEntity
  8
細線
100
AcDbCircle
 10
250.3506368238
 20
881.507217533279
 30
0.0
 40
14.53669
100
AcDbArc
 50
244.3907930338
 51
295.609209213942
  0
LINE
  5
4283
330
1A
100
AcDbEntity
  8
外形線
100
AcDbLine
 10
264.345144823801
 20
868.398575533278
 30
0.0
 11
262.9170448238
 21
866.970535533279
 31
0.0
  0
LINE
  5
4284
330
1A
100
AcDbEntity
  8
外形線
100
AcDbLine
 10
264.345144823801
 20
872.111343533279
 30
0.0
 11
264.345144823801
 21
868.398575533278
 31
0.0
  0
ARC
  5
4285
330
1A
100
AcDbEntity
  8
外形線
100
AcDbCircle
 10
288.726447055717
 20
915.544907533278
 30
0.0
 40
4.015794000000001
100
AcDbArc
 50
275.934583374273
 51
85.343077308691
  0
LINE
  5
4286
330
1A
100
AcDbEntity
  8
外形線
100
AcDbLine
 10
292.765265055717
 20
893.843367533278
 30
0.0
 11
289.052497055718
 21
891.395369533279
 31
0.0
  0
LINE
  5
4287
330
1A
100
AcDbEntity
  8
外形線
100
AcDbLine
 10
291.092597055716
 20
900.126571533278
 30
0.0
 11
273.344489055717
 21
900.126571533278
 31
0.0
  0
LINE
  5
4288
330
1A
100
AcDbEntity
  8
外形線
100
AcDbLine
 10
291.092597055716
 20
896.699447533278
 30
0.0
 11
273.344489055717
 21
896.699447533278
 31
0.0
  0
LINE
  5
4289
330
1A
100
AcDbEntity
  8
細線
100
AcDbLine
 10
289.052497055718
 20
911.550643533278
 30
0.0
 11
289.052497055718
 21
900.126571533278
 31
0.0
  0
LINE
  5
428A
330
1A
100
AcDbEntity
  8
細線
100
AcDbLine
 10
289.052497055718
 20
896.699447533278
 30
0.0
 11
289.052497055718
 21
891.395369533279
 31
0.0
  0
LINE
  5
428B
330
1A
100
AcDbEntity
  8
外形線
100
AcDbLine
 10
271.345343055717
 20
891.395369533279
 30
0.0
 11
289.052497055718
 21
891.395369533279
 31
0.0
  0
LINE
  5
428C
330
1A
100
AcDbEntity
  8
外形線
100
AcDbLine
 10
273.344489055717
 20
911.550643533278
 30
0.0
 11
289.141607055717
 21
911.550643533278
 31
0.0
  0
LINE
  5
428D
330
1A
100
AcDbEntity
  8
外形線
100
AcDbLine
 10
323.640186823801
 20
942.395369533279
 30
0.0
 11
323.640186823801
 21
899.907089533279
 31
0.0
  0
ARC
  5
428E
330
1A
100
AcDbEntity
  8
外形線
100
AcDbCircle
 10
318.786840857571
 20
899.906336953648
 30
0.0
 40
4.853322024346461
100
AcDbArc
 50
272.337565725697
 51
0.008866954305
  0
ARC
  5
428F
330
1A
100
AcDbEntity
  8
外形線
100
AcDbCircle
 10
291.038581055718
 20
898.412949533278
 30
0.0
 40
1.714446
100
AcDbArc
 50
271.804703587
 51
88.195318508631
  0
LINE
  5
4290
330
1A
100
AcDbEntity
  8
外形線
100
AcDbLine
 10
292.765265055717
 20
893.843367533278
 30
0.0
 11
318.9847928238
 21
895.057053533278
 31
0.0
  0
ARC
  5
4291
330
1A
100
AcDbEntity
  8
外形線
100
AcDbCircle
 10
331.488454823801
 20
911.127303533278
 30
0.0
 40
1.86215
100
AcDbArc
 50
268.482178628784
 51
83.815801009983
  0
ARC
  5
4292
330
1A
100
AcDbEntity
  8
外形線
100
AcDbCircle
 10
325.640676823799
 20
914.977859533278
 30
0.0
 40
2.000724
100
AcDbArc
 50
87.757023395409
 51
272.242959004484
  0
LINE
  5
4293
330
1A
100
AcDbEntity
  8
外形線
100
AcDbLine
 10
325.7189228238
 20
912.978621533278
 30
0.0
 11
331.6890148238
 21
912.978621533278
 31
0.0
  0
LINE
  5
4294
330
1A
100
AcDbEntity
  8
外形線
100
AcDbLine
 10
323.640186823801
 20
909.265853533279
 30
0.0
 11
331.439136823799
 21
909.265853533279
 31
0.0
  0
ARC
  5
4295
330
1A
100
AcDbEntity
  8
細線
100
AcDbCircle
 10
250.9661168238
 20
865.628371533277
 30
0.0
 40
36.76653200000171
100
AcDbArc
 50
70.324160459507
 51
115.211785839405
  0
LINE
  5
4296
330
1A
100
AcDbEntity
  8
細線
 62
     6
 48
10.0
100
AcDbLine
 10
263.345343055717
 20
900.248201590719
 30
0.0
 11
266.345343055717
 21
891.395369533279
 31
0.0
  0
LINE
  5
4297
330
1A
100
AcDbEntity
  8
中心線
  6
CENTER
 48
10.0
100
AcDbLine
 10
178.348149381547
 20
877.395369533279
 30
0.0
 11
198.3506368238
 21
877.395369533279
 31
0.0
  0
LINE
  5
4298
330
1A
100
AcDbEntity
  8
中心線
  6
CENTER
 48
10.0
100
AcDbLine
 10
178.348149381547
 20
1007.395369533279
 30
0.0
 11
198.3506368238
 21
1007.395369533279
 31
0.0
  0
LINE
  5
4299
330
1A
100
AcDbEntity
  8
外形線
100
AcDbLine
 10
213.691836994521
 20
917.395369533279
 30
0.0
 11
196.345343055717
 21
917.395369533279
 31
0.0
  0
LINE
  5
429A
330
1A
100
AcDbEntity
  8
外形線
100
AcDbLine
 10
192.3506368238
 20
1019.895369533279
 30
0.0
 11
183.8506368238
 21
1019.895369533279
 31
0.0
  0
ARC
  5
429B
330
1A
100
AcDbEntity
  8
外形線
100
AcDbCircle
 10
196.345343055717
 20
970.395369533279
 30
0.0
 40
3.0
100
AcDbArc
 50
183.404264859033
 51
270.0
  0
LINE
  5
429C
330
1A
100
AcDbEntity
  8
外形線
100
AcDbLine
 10
270.845343055717
 20
993.395369533279
 30
0.0
 11
266.345343055717
 21
993.395369533279
 31
0.0
  0
LINE
  5
429D
330
1A
100
AcDbEntity
  8
外形線
100
AcDbLine
 10
266.345343055717
 20
993.395369533279
 30
0.0
 11
263.345343055717
 21
988.395369533279
 31
0.0
  0
LINE
  5
429E
330
1A
100
AcDbEntity
  8
外形線
100
AcDbLine
 10
263.345343055717
 20
988.395369533279
 30
0.0
 11
228.889538582745
 21
986.481158173669
 31
0.0
  0
LINE
  5
429F
330
1A
100
AcDbEntity
  8
外形線
100
AcDbLine
 10
226.51948193252
 20
985.087756088217
 30
0.0
 11
216.228303703613
 21
968.793390559115
 31
0.0
  0
LINE
  5
42A0
330
1A
100
AcDbEntity
  8
外形線
100
AcDbLine
 10
213.691836994521
 20
967.395369533279
 30
0.0
 11
196.345343055717
 21
967.395369533279
 31
0.0
  0
ARC
  5
42A1
330
1A
100
AcDbEntity
  8
外形線
100
AcDbCircle
 10
213.691836994521
 20
970.395369533279
 30
0.0
 40
3.0
100
AcDbArc
 50
270.0
 51
327.724355685419
  0
ARC
  5
42A2
330
1A
100
AcDbEntity
  8
外形線
100
AcDbCircle
 10
213.691836994521
 20
914.395369533279
 30
0.0
 40
3.0
100
AcDbArc
 50
32.275644314581
 51
90.0
  0
ARC
  5
42A3
330
1A
100
AcDbEntity
  8
外形線
100
AcDbCircle
 10
229.055948641613
 20
983.485777114053
 30
0.0
 40
3.0
100
AcDbArc
 50
93.179830119868
 51
147.724355685419
  0
LINE
  5
42A4
330
1A
100
AcDbEntity
  8
外形線
100
AcDbLine
 10
270.845343055717
 20
993.395369533279
 30
0.0
 11
271.345343055717
 21
992.895369533279
 31
0.0
  0
LINE
  5
42A5
330
1A
100
AcDbEntity
  8
細線
 62
     6
 48
10.0
100
AcDbLine
 10
215.564485960672
 20
965.533675279538
 30
0.0
 11
215.564485960672
 21
918.745302770707
 31
0.0
  0
LINE
  5
42A6
330
1A
100
AcDbEntity
  8
細線
100
AcDbLine
 10
289.052497055718
 20
973.240219533278
 30
0.0
 11
289.052497055718
 21
984.664169533278
 31
0.0
  0
LINE
  5
42A7
330
1A
100
AcDbEntity
  8
外形線
100
AcDbLine
 10
323.640186823801
 20
942.395369533279
 30
0.0
 11
323.640186823801
 21
984.883773533278
 31
0.0
  0
ARC
  5
42A8
330
1A
100
AcDbEntity
  8
外形線
100
AcDbCircle
 10
288.726447055717
 20
969.245955533279
 30
0.0
 40
4.015794000000001
100
AcDbArc
 50
274.656944786913
 51
84.065438721313
  0
ARC
  5
42A9
330
1A
100
AcDbEntity
  8
外形線
100
AcDbCircle
 10
287.765387055717
 20
941.812973533278
 30
0.0
 40
5.033766
100
AcDbArc
 50
6.644133183896
 51
75.184725088468
  0
ARC
  5
42AA
330
1A
100
AcDbEntity
  8
外形線
100
AcDbCircle
 10
287.765387055717
 20
942.977889533278
 30
0.0
 40
5.033766
100
AcDbArc
 50
284.815257311503
 51
353.35584921602
  0
LINE
  5
42AB
330
1A
100
AcDbEntity
  8
細線
100
AcDbLine
 10
289.052497055718
 20
938.111435533278
 30
0.0
 11
289.052497055718
 21
919.547347533278
 31
0.0
  0
LINE
  5
42AC
330
1A
100
AcDbEntity
  8
外形線
100
AcDbLine
 10
273.344489055717
 20
919.547347533278
 30
0.0
 11
289.052497055718
 21
919.547347533278
 31
0.0
  0
LINE
  5
42AD
330
1A
100
AcDbEntity
  8
細線
100
AcDbLine
 10
289.052497055718
 20
946.679427533278
 30
0.0
 11
289.052497055718
 21
965.243393533278
 31
0.0
  0
LINE
  5
42AE
330
1A
100
AcDbEntity
  8
外形線
100
AcDbLine
 10
273.344489055717
 20
946.679427533278
 30
0.0
 11
289.052497055718
 21
946.679427533278
 31
0.0
  0
LINE
  5
42AF
330
1A
100
AcDbEntity
  8
外形線
100
AcDbLine
 10
273.344489055717
 20
938.111435533278
 30
0.0
 11
289.052497055718
 21
938.111435533278
 31
0.0
  0
LINE
  5
42B0
330
1A
100
AcDbEntity
  8
外形線
100
AcDbLine
 10
273.344489055717
 20
965.243393533278
 30
0.0
 11
289.052497055718
 21
965.243393533278
 31
0.0
  0
LINE
  5
42B1
330
1A
100
AcDbEntity
  8
外形線
100
AcDbLine
 10
273.344489055717
 20
973.240219533278
 30
0.0
 11
289.141607055717
 21
973.240219533278
 31
0.0
  0
LINE
  5
42B2
330
1A
100
AcDbEntity
  8
外形線
100
AcDbLine
 10
333.3506368238
 20
918.976181533278
 30
0.0
 11
333.3506368238
 21
936.397811533279
 31
0.0
  0
ARC
  5
42B3
330
1A
100
AcDbEntity
  8
外形線
100
AcDbCircle
 10
331.3513688238
 20
918.976181533278
 30
0.0
 40
1.9992
100
AcDbArc
 50
270.0
 51
359.999982399882
  0
LINE
  5
42B4
330
1A
100
AcDbEntity
  8
外形線
100
AcDbLine
 10
325.718984823799
 20
916.977035533279
 30
0.0
 11
331.3513688238
 21
916.977035533279
 31
0.0
  0
LINE
  5
42B5
330
1A
100
AcDbEntity
  8
外形線
100
AcDbLine
 10
333.3506368238
 20
965.814559533278
 30
0.0
 11
333.3506368238
 21
948.392929533278
 31
0.0
  0
ARC
  5
42B6
330
1A
100
AcDbEntity
  8
外形線
100
AcDbCircle
 10
331.3513688238
 20
948.392929533278
 30
0.0
 40
1.9992
100
AcDbArc
 50
270.0
 51
359.999982399908
  0
ARC
  5
42B7
330
1A
100
AcDbEntity
  8
外形線
100
AcDbCircle
 10
325.7946068238
 20
944.248275533279
 30
0.0
 40
2.15556
100
AcDbArc
 50
95.512637406103
 51
178.089033713721
  0
LINE
  5
42B8
330
1A
100
AcDbEntity
  8
外形線
100
AcDbLine
 10
325.5875748238
 20
946.393783533278
 30
0.0
 11
331.3513688238
 21
946.393783533278
 31
0.0
  0
LINE
  5
42B9
330
1A
100
AcDbEntity
  8
外形線
100
AcDbLine
 10
325.5875748238
 20
938.397079533279
 30
0.0
 11
331.3513688238
 21
938.397079533279
 31
0.0
  0
ARC
  5
42BA
330
1A
100
AcDbEntity
  8
外形線
100
AcDbCircle
 10
331.3513688238
 20
936.397811533279
 30
0.0
 40
1.9992
100
AcDbArc
 50
0.0
 51
89.999981276021
  0
ARC
  5
42BB
330
1A
100
AcDbEntity
  8
外形線
100
AcDbCircle
 10
325.7946068238
 20
940.542587533279
 30
0.0
 40
2.15556
100
AcDbArc
 50
181.910948686169
 51
264.487402289583
  0
LINE
  5
42BC
330
1A
100
AcDbEntity
  8
外形線
100
AcDbLine
 10
323.640186823801
 20
975.525009533278
 30
0.0
 11
331.439136823799
 21
975.525009533278
 31
0.0
  0
ARC
  5
42BD
330
1A
100
AcDbEntity
  8
外形線
100
AcDbCircle
 10
331.3513688238
 20
965.814559533278
 30
0.0
 40
1.9992
100
AcDbArc
 50
0.0
 51
89.999981276021
  0
ARC
  5
42BE
330
1A
100
AcDbEntity
  8
外形線
100
AcDbCircle
 10
325.6393948238
 20
969.812973533278
 30
0.0
 40
2.000726
100
AcDbArc
 50
87.722187561485
 51
272.27785213419
  0
LINE
  5
42BF
330
1A
100
AcDbEntity
  8
外形線
100
AcDbLine
 10
325.7189228238
 20
967.813827533279
 30
0.0
 11
331.3513688238
 21
967.813827533279
 31
0.0
  0
LINE
  5
42C0
330
1A
100
AcDbEntity
  8
外形線
100
AcDbLine
 10
325.7189228238
 20
971.812117533278
 30
0.0
 11
331.6890148238
 21
971.812117533278
 31
0.0
  0
ARC
  5
42C1
330
1A
100
AcDbEntity
  8
外形線
100
AcDbCircle
 10
331.488454823801
 20
973.663559533278
 30
0.0
 40
1.86215
100
AcDbArc
 50
276.184221085604
 51
91.517843466766
  0
LINE
  5
42C2
330
1A
100
AcDbEntity
  8
外形線
100
AcDbLine
 10
291.092597055716
 20
984.664169533278
 30
0.0
 11
273.344489055717
 21
984.664169533278
 31
0.0
  0
LINE
  5
42C3
330
1A
100
AcDbEntity
  8
外形線
100
AcDbLine
 10
291.092597055716
 20
988.091415533279
 30
0.0
 11
273.344489055717
 21
988.091415533279
 31
0.0
  0
LINE
  5
42C4
330
1A
100
AcDbEntity
  8
外形線
100
AcDbLine
 10
289.052497055718
 20
993.395369533279
 30
0.0
 11
292.765265055717
 21
990.947371533278
 31
0.0
  0
LINE
  5
42C5
330
1A
100
AcDbEntity
  8
外形線
100
AcDbLine
 10
271.345343055717
 20
993.395369533279
 30
0.0
 11
289.052497055718
 21
993.395369533279
 31
0.0
  0
LINE
  5
42C6
330
1A
100
AcDbEntity
  8
細線
100
AcDbLine
 10
289.052497055718
 20
988.091415533279
 30
0.0
 11
289.052497055718
 21
993.395369533279
 31
0.0
  0
ARC
  5
42C7
330
1A
100
AcDbEntity
  8
外形線
100
AcDbCircle
 10
318.786948147988
 20
984.884569106989
 30
0.0
 40
4.853214741019798
100
AcDbArc
 50
359.990607665518
 51
87.663650269118
  0
ARC
  5
42C8
330
1A
100
AcDbEntity
  8
外形線
100
AcDbCircle
 10
291.038581055718
 20
986.377791533279
 30
0.0
 40
1.714446
100
AcDbArc
 50
271.804703587
 51
88.195318508631
  0
LINE
  5
42C9
330
1A
100
AcDbEntity
  8
外形線
100
AcDbLine
 10
292.765265055717
 20
990.947371533278
 30
0.0
 11
318.9847928238
 21
989.733749533278
 31
0.0
  0
LINE
  5
4373
330
1A
100
AcDbEntity
  8
外形線
100
AcDbLine
 10
192.3506368238
 20
1019.895369533279
 30
0.0
 11
183.8506368238
 21
1019.895369533279
 31
0.0
  0
LINE
  5
4374
330
1A
100
AcDbEntity
  8
外形線
100
AcDbLine
 10
183.8506368238
 20
1019.895369533279
 30
0.0
 11
183.3506368238
 21
1019.395369533279
 31
0.0
  0
LINE
  5
4375
330
1A
100
AcDbEntity
  8
外形線
100
AcDbLine
 10
192.3506368238
 20
1019.895369533279
 30
0.0
 11
193.3506368238
 21
1018.895369533279
 31
0.0
  0
LINE
  5
4376
330
1A
100
AcDbEntity
  8
外形線
100
AcDbLine
 10
183.8506368238
 20
864.895369533279
 30
0.0
 11
183.3506368238
 21
865.395369533279
 31
0.0
  0
LINE
  5
4377
330
1A
100
AcDbEntity
  8
外形線
100
AcDbLine
 10
192.3506368238
 20
864.895369533279
 30
0.0
 11
193.3506368238
 21
865.895369533279
 31
0.0
  0
MTEXT
  5
449E
102
{ACAD_XDICTIONARY
360
449F
102
}
330
1A
100
AcDbEntity
  8
寸法線
 62
     1
 48
10.0
100
AcDbMText
 10
-162.821051116583
 20
742.750199452163
 30
0.0
 40
8.0
 41
75.886769199617
 71
     1
 72
     3
  1
シロ クロ
1001
ACADANNOTATIVE
1000
AnnotativeData
1002
{
1070
     1
1070
     0
1002
}
  0
MTEXT
  5
44A2
330
1A
100
AcDbEntity
  8
寸法線
 62
     1
 48
10.0
100
AcDbMText
 10
-164.030198903171
 20
701.006223838186
 30
0.0
 40
8.0
 41
113.327544635948
 71
     1
 72
     1
  1
(    )
 11
6.123233995736766E-17
 21
1.0
 31
0.0
  0
MTEXT
  5
44A3
102
{ACAD_XDICTIONARY
360
44A9
102
}
330
1A
100
AcDbEntity
  8
寸法線
 48
10.0
100
AcDbMText
 10
-164.501884929756
 20
688.677832633555
 30
0.0
 40
6.0
 41
101.805806042976
 71
     1
 72
     5
  1
100/110 0
1001
ACADANNOTATIVE
1000
AnnotativeData
1002
{
1070
     1
1070
     0
1002
}
  0
MTEXT
  5
44A4
102
{ACAD_XDICTIONARY
360
44A5
102
}
330
1A
100
AcDbEntity
  8
寸法線
 62
     1
 48
10.0
100
AcDbMText
 10
-142.380008582778
 20
742.148992318815
 30
0.0
 40
8.0
 41
75.886769199617
 71
     1
 72
     3
  1
シロ クロ
1001
ACADANNOTATIVE
1000
AnnotativeData
1002
{
1070
     1
1070
     0
1002
}
  0
MTEXT
  5
44A8
330
1A
100
AcDbEntity
  8
寸法線
 62
     1
 48
10.0
100
AcDbMText
 10
-143.589156369366
 20
700.405016704839
 30
0.0
 40
8.0
 41
113.327544635948
 71
     1
 72
     1
  1
(    )
 11
6.123233995736766E-17
 21
1.0
 31
0.0
  0
MTEXT
  5
44AF
102
{ACAD_XDICTIONARY
360
44B0
102
}
330
1A
100
AcDbEntity
  8
寸法線
 48
10.0
100
AcDbMText
 10
-169.367905165285
 20
680.848049107854
 30
0.0
 40
6.0
 41
101.805806042976
 71
     1
 72
     5
  1
(200/220 0)
1001
ACADANNOTATIVE
1000
AnnotativeData
1002
{
1070
     1
1070
     0
1002
}
  0
MTEXT
  5
44B4
102
{ACAD_XDICTIONARY
360
44B5
102
}
330
1A
100
AcDbEntity
  8
寸法線
 48
10.0
100
AcDbMText
 10
-102.75743567779
 20
718.184661187673
 30
0.0
 40
8.0
 41
251.713339384691
 71
     1
 72
     5
  1
塗　装　色：10YR7.5/14\P接点　容量：AC250V5A\P静止トルク：約10.0N・cm\P回　転　数：1RPM
1001
ACADANNOTATIVE
1000
AnnotativeData
1002
{
1070
     1
1070
     0
1002
}
  0
MTEXT
  5
4518
330
1A
100
AcDbEntity
  8
寸法線
 48
10.0
100
AcDbMText
 10
-82.751151454488
 20
751.168138259506
 30
0.0
 40
8.0
 41
161.650793650794
 71
     1
 72
     5
  1
○印が今回の貴社の御仕様です。
  0
LINE
  5
4547
330
1A
100
AcDbEntity
  8
寸法線
 62
     1
 48
10.0
100
AcDbLine
 10
-105.365545140714
 20
781.37958613338
 30
0.0
 11
56.857915606883
 21
781.37958613338
 31
0.0
  0
LINE
  5
4548
330
1A
100
AcDbEntity
  8
寸法線
 62
     1
 48
10.0
100
AcDbLine
 10
-105.365545140714
 20
768.118037369133
 30
0.0
 11
56.857915606883
 21
768.118037369133
 31
0.0
  0
LINE
  5
4549
330
1A
100
AcDbEntity
  8
寸法線
 62
     1
 48
10.0
100
AcDbLine
 10
-105.365545140714
 20
754.856488604887
 30
0.0
 11
56.857915606883
 21
754.856488604887
 31
0.0
  0
LINE
  5
454A
330
1A
100
AcDbEntity
  8
寸法線
 62
     1
 48
10.0
100
AcDbLine
 10
-105.365545140714
 20
794.3811045297
 30
0.0
 11
56.857915606883
 21
794.3811045297
 31
0.0
  0
LINE
  5
454B
330
1A
100
AcDbEntity
  8
寸法線
 62
     1
 48
10.0
100
AcDbLine
 10
-72.601718781987
 20
794.3811045297
 30
0.0
 11
-72.601718781987
 21
754.856488604887
 31
0.0
  0
LINE
  5
454C
330
1A
100
AcDbEntity
  8
寸法線
 62
     1
 48
10.0
100
AcDbLine
 10
-105.365545140714
 20
794.3811045297
 30
0.0
 11
-105.365545140714
 21
754.856488604887
 31
0.0
  0
LINE
  5
454D
330
1A
100
AcDbEntity
  8
寸法線
 62
     1
 48
10.0
100
AcDbLine
 10
-7.594126800386
 20
794.3811045297
 30
0.0
 11
-7.594126800386
 21
754.856488604887
 31
0.0
  0
LINE
  5
454E
330
1A
100
AcDbEntity
  8
寸法線
 62
     1
 48
10.0
100
AcDbLine
 10
56.857915606883
 20
794.3811045297
 30
0.0
 11
56.857915606883
 21
754.856488604887
 31
0.0
  0
VIEWPORT
  5
2902
330
28FB
100
AcDbEntity
 67
     1
  8
0
 48
10.0
100
AcDbViewport
 10
0.0
 20
0.0
 30
0.0
 40
510.248110465116
 41
300.3
 68
     1
 69
     1
1001
ACAD
1000
MVIEW
1002
{
1070
    16
1010
0.0
1020
0.0
1030
0.0
1010
0.0
1020
0.0
1030
1.0
1040
0.0
1040
300.3
1040
206.54348
1040
144.33848
1040
50.0
1040
0.0
1040
0.0
1070
    16
1070
   100
1070
     0
1070
     1
1070
     0
1070
     0
1070
     0
1070
     0
1040
0.0
1040
0.0
1040
0.0
1040
10.0
1040
10.0
1040
10.0
1040
10.0
1070
     0
1002
{
1002
}
1002
}
  0
VIEWPORT
  5
2904
330
28FB
100
AcDbEntity
 67
     1
  8
図枠太線
 48
10.0
100
AcDbViewport
 10
204.746305129083
 20
163.58519398189
 30
0.0
 40
400.0
 41
240.0
 68
     2
 69
     2
1001
ACAD
1000
MVIEW
1002
{
1070
    16
1010
0.0
1020
0.0
1030
0.0
1010
0.0
1020
0.0
1030
1.0
1040
0.0
1040
480.000001101583
1040
64.252666060204
1040
876.368250844257
1040
50.0
1040
0.0
1040
0.0
1070
     0
1070
   100
1070
     0
1070
     0
1070
     0
1070
     0
1070
     0
1070
     0
1040
0.0
1040
0.0
1040
0.0
1040
1.0
1040
1.0
1040
0.0
1040
0.0
1070
     0
1002
{
1002
}
1002
}
  0
INSERT
  5
2A59
330
28FB
100
AcDbEntity
 67
     1
  8
図枠太線
100
AcDbBlockReference
  2
A3横用_タイトル
 10
-0.352109406709
 20
0.059234228363
 30
0.0
  0
MTEXT
  5
2E5D
330
28FB
100
AcDbEntity
 67
     1
  8
寸法線
 48
10.0
100
AcDbMText
 10
149.717021038353
 20
15.671195155906
 30
0.0
 40
7.0
 41
15.363556412778
 71
     1
 72
     5
  1
1:2
  0
MTEXT
  5
2E60
330
28FB
100
AcDbEntity
 67
     1
  8
寸法線
 48
10.0
100
AcDbMText
 10
363.432493644154
 20
39.880952941808
 30
0.0
 40
5.0
 41
43.047199206047
 71
     1
 72
     5
  1
パドル式\Pレベルスイッチ
  0
MTEXT
  5
2E61
330
28FB
100
AcDbEntity
 67
     1
  8
寸法線
 48
10.0
100
AcDbMText
 10
315.837885281211
 20
35.379349213738
 30
0.0
 40
7.0
 41
41.045003631856
 71
     1
 72
     5
  1
PRL-100
  0
MTEXT
  5
2E62
102
{ACAD_XDICTIONARY
360
454F
102
}
330
28FB
100
AcDbEntity
 67
     1
  8
寸法線
 48
10.0
100
AcDbMText
 10
339.472956081236
 20
17.623024541397
 30
0.0
 40
8.0
 41
38.04171107615
 71
     1
 72
     5
  1
HR-10001
1001
ACADANNOTATIVE
1000
AnnotativeData
1002
{
1070
     1
1070
     0
1002
}
  0
MTEXT
  5
2E63
102
{ACAD_XDICTIONARY
360
443C
102
}
330
28FB
100
AcDbEntity
 67
     1
  8
寸法線
 48
10.0
100
AcDbMText
 10
370.904256302073
 20
53.623895511668
 30
0.0
 40
5.0
 41
37.357142857143
 71
     1
 72
     5
  1
台数   台
1001
ACADANNOTATIVE
1000
AnnotativeData
1002
{
1070
     1
1070
     0
1002
}
  0
MTEXT
  5
3E89
102
{ACAD_XDICTIONARY
360
4597
102
}
330
28FB
100
AcDbEntity
 67
     1
  8
寸法線
 48
10.0
100
AcDbMText
 10
180.137152606979
 20
33.450011170039
 30
0.0
 40
4.5
 41
21.375384236178
 71
     1
 72
     5
  1
ohno
1001
ACADANNOTATIVE
1000
AnnotativeData
1002
{
1070
     1
1070
     0
1002
}
  0
MTEXT
  5
3E8A
102
{ACAD_XDICTIONARY
360
4594
102
}
330
28FB
100
AcDbEntity
 67
     1
  8
寸法線
 48
10.0
100
AcDbMText
 10
175.093297446535
 20
13.889899662118
 30
0.0
 40
4.0
 41
23.156665718806
 71
     1
 72
     5
  1
\H1.25x;2015.6.11
1001
ACADANNOTATIVE
1000
AnnotativeData
1002
{
1070
     1
1070
     0
1002
}
  0
ENDSEC
  0
SECTION
  2
OBJECTS
  0
DICTIONARY
  5
C
330
0
100
AcDbDictionary
  3
ACAD_COLOR
350
2948
  3
ACAD_GROUP
350
D
  3
ACAD_LAYOUT
350
2816
  3
ACAD_MATERIAL
350
2947
  3
ACAD_MLEADERSTYLE
350
4437
  3
ACAD_MLINESTYLE
350
E
  3
ACAD_PLOTSETTINGS
350
2817
  3
ACAD_SCALELIST
350
4410
  3
ACAD_VISUALSTYLE
350
43F7
  3
ACDBHEADERROUNDTRIPXREC
350
459A
  3
ACDBVARIABLEDICTIONARY
350
4459
  3
DWGPROPS
350
45BF
  0
DICTIONARY
  5
45C0
330
8
100
AcDbDictionary
280
     1
  3
ACAD_XREC_ROUNDTRIP
360
45C1
  0
DICTIONARY
  5
29EA
330
2
100
AcDbDictionary
280
     1
  3
ACAD_LAYERFILTERS
360
2B0C
  3
ACAD_LAYERSTATES
360
29EB
  0
DICTIONARY
  5
44B8
330
3067
100
AcDbDictionary
280
     1
  3
ACDBCONTEXTDATAMANAGER
360
44B9
  0
DICTIONARY
  5
44AC
330
3672
100
AcDbDictionary
280
     1
  3
ACDBCONTEXTDATAMANAGER
360
44AD
  0
DICTIONARY
  5
449F
330
449E
100
AcDbDictionary
280
     1
  3
ACDBCONTEXTDATAMANAGER
360
44A0
  0
DICTIONARY
  5
44A9
330
44A3
100
AcDbDictionary
280
     1
  3
ACDBCONTEXTDATAMANAGER
360
44AA
  0
DICTIONARY
  5
44A5
330
44A4
100
AcDbDictionary
280
     1
  3
ACDBCONTEXTDATAMANAGER
360
44A6
  0
DICTIONARY
  5
44B0
330
44AF
100
AcDbDictionary
280
     1
  3
ACDBCONTEXTDATAMANAGER
360
44B1
  0
DICTIONARY
  5
44B5
330
44B4
100
AcDbDictionary
280
     1
  3
ACDBCONTEXTDATAMANAGER
360
44B6
  0
DICTIONARY
  5
454F
330
2E62
100
AcDbDictionary
280
     1
  3
ACDBCONTEXTDATAMANAGER
360
4550
  0
DICTIONARY
  5
443C
330
2E63
100
AcDbDictionary
280
     1
  3
ACDBCONTEXTDATAMANAGER
360
443D
  0
DICTIONARY
  5
4597
330
3E89
100
AcDbDictionary
280
     1
  3
ACDBCONTEXTDATAMANAGER
360
4598
  0
DICTIONARY
  5
4594
330
3E8A
100
AcDbDictionary
280
     1
  3
ACDBCONTEXTDATAMANAGER
360
4595
  0
DICTIONARY
  5
2948
102
{ACAD_REACTORS
330
C
102
}
330
C
100
AcDbDictionary
  0
DICTIONARY
  5
D
102
{ACAD_REACTORS
330
C
102
}
330
C
100
AcDbDictionary
  0
DICTIONARY
  5
2816
102
{ACAD_REACTORS
330
C
102
}
330
C
100
AcDbDictionary
  0
DICTIONARY
  5
2947
102
{ACAD_REACTORS
330
C
102
}
330
C
100
AcDbDictionary
  3
BYBLOCK
350
4433
  3
BYLAYER
350
4432
  3
GLOBAL
350
4434
  0
DICTIONARY
  5
4437
102
{ACAD_REACTORS
330
C
102
}
330
C
100
AcDbDictionary
  3
STANDARD
350
4438
  0
DICTIONARY
  5
E
102
{ACAD_REACTORS
330
C
102
}
330
C
100
AcDbDictionary
  3
STANDARD
350
13
  0
DICTIONARY
  5
2817
102
{ACAD_REACTORS
330
C
102
}
330
C
100
AcDbDictionary
  0
DICTIONARY
  5
4410
102
{ACAD_REACTORS
330
C
102
}
330
C
100
AcDbDictionary
  3
A0
350
4411
  3
A1
350
4412
  3
A2
350
4413
  3
A3
350
4414
  3
A4
350
4415
  3
A5
350
4416
  3
A6
350
4417
  3
A7
350
4418
  3
A8
350
4419
  3
A9
350
441A
  3
B0
350
441B
  3
B1
350
441C
  3
B2
350
441D
  3
B3
350
441E
  3
B4
350
441F
  3
B5
350
4420
  3
B6
350
4421
  3
B7
350
4422
  3
B8
350
4423
  3
B9
350
4424
  3
C0
350
4425
  3
C1
350
4426
  3
C2
350
4427
  3
C3
350
4428
  3
C4
350
4429
  3
C5
350
442A
  3
C6
350
442B
  3
C7
350
442C
  3
C8
350
442D
  3
C9
350
442E
  3
D0
350
442F
  3
D1
350
4430
  3
D2
350
4431
  0
DICTIONARY
  5
43F7
102
{ACAD_REACTORS
330
C
102
}
330
C
100
AcDbDictionary
  3
2DWIREFRAME
350
43FC
  3
BASIC
350
43FF
  3
BRIGHTEN
350
4403
  3
COLORCHANGE
350
4407
  3
CONCEPTUAL
350
4401
  3
DIM
350
4402
  3
EDGECOLOROFF
350
440A
  3
FACEPATTERN
350
4406
  3
FLAT
350
43F8
  3
FLATWITHEDGES
350
43F9
  3
GOURAUD
350
43FA
  3
GOURAUDWITHEDGES
350
43FB
  3
HIDDEN
350
43FE
  3
JITTEROFF
350
4408
  3
LINEPATTERN
350
4405
  3
OVERHANGOFF
350
4409
  3
REALISTIC
350
4400
  3
SHADED
350
440F
  3
SHADED_WITH_EDGES
350
440E
  3
SHADES_OF_GRAY
350
440B
  3
SKETCHY
350
440C
  3
THICKEN
350
4404
  3
WIREFRAME
350
43FD
  3
X-RAY
350
440D
  0
DICTIONARY
  5
459A
102
{ACAD_REACTORS
330
C
102
}
330
C
100
AcDbDictionary
  3
CEPSNID
350
45A4
  3
CEPSNTYPE
350
45A3
  3
COLORDICT
350
45BD
  3
DIMSTYLEDATA
350
45BA
  3
FINGERPRINTGUID
350
45A5
  3
HYPERLINKBASE
350
459D
  3
INSUNITS
350
45A2
  3
LAYOUTDICT
350
459F
  3
LWETCUNION
350
45A1
  3
MATERIALDICT
350
45BE
  3
PLOTSETDICT
350
45A0
  3
PSVPSCALE
350
45A7
  3
PUCSBASE
350
45AA
  3
PUCSORGBACK
350
45B0
  3
PUCSORGBOTTOM
350
45AC
  3
PUCSORGFRONT
350
45AF
  3
PUCSORGLEFT
350
45AD
  3
PUCSORGRIGHT
350
45AE
  3
PUCSORGTOP
350
45AB
  3
PUCSORTHOREF
350
45A8
  3
PUCSORTHOVIEW
350
45A9
  3
STYLESHEET
350
459E
  3
TSTACKALIGN
350
459B
  3
TSTACKSIZE
350
459C
  3
UCSBASE
350
45B3
  3
UCSORGBACK
350
45B9
  3
UCSORGBOTTOM
350
45B5
  3
UCSORGFRONT
350
45B8
  3
UCSORGLEFT
350
45B6
  3
UCSORGRIGHT
350
45B7
  3
UCSORGTOP
350
45B4
  3
UCSORTHOREF
350
45B1
  3
UCSORTHOVIEW
350
45B2
  3
VERSIONGUID
350
45A6
  0
DICTIONARY
  5
4459
102
{ACAD_REACTORS
330
C
102
}
330
C
100
AcDbDictionary
  3
CANNOSCALE
350
445A
  3
CMLEADERSTYLE
350
4499
  3
CTABLESTYLE
350
4498
  3
DIMASSOC
350
45BB
  3
HIDETEXT
350
45BC
  3
MSLTSCALE
350
449A
  3
XCLIPFRAME
350
449B
  0
XRECORD
  5
45BF
102
{ACAD_REACTORS
330
C
102
}
330
C
100
AcDbXrecord
  1
DWGPROPS COOKIE
  2

  3

  4

  6

  7

  8
y-ohno
  9

300
=
301
=
302
=
303
=
304
=
305
=
306
=
307
=
308
=
309
=
 40
0.0
 41
2450576.222302431
 42
2457191.27448934
  1

 90
        0
  0
XRECORD
  5
45C1
102
{ACAD_REACTORS
330
45C0
102
}
330
45C0
100
AcDbXrecord
102
VTR_0.000_0.000_1.000_1.000_VISUALSTYLE
340
43FC
102
VTR_0.000_0.000_1.000_1.000_GRIDDISPLAY
 70
     3
102
VTR_0.000_0.000_1.000_1.000_GRIDMAJOR
 70
     5
102
VTR_0.000_0.000_1.000_1.000_DEFAULTLIGHTING
280
     1
102
VTR_0.000_0.000_1.000_1.000_DEFAULTLIGHTINGTYPE
 70
     1
102
VTR_0.000_0.000_1.000_1.000_BRIGHTNESS
141
0.0
102
VTR_0.000_0.000_1.000_1.000_CONTRAST
142
0.0
  0
DICTIONARY
  5
2B0C
102
{ACAD_REACTORS
330
29EA
102
}
330
29EA
100
AcDbDictionary
  0
DICTIONARY
  5
29EB
102
{ACAD_REACTORS
330
29EA
102
}
330
29EA
100
AcDbDictionary
  0
DICTIONARY
  5
44B9
102
{ACAD_REACTORS
330
44B8
102
}
330
44B8
100
AcDbDictionary
  3
ACDB_ANNOTATIONSCALES
350
44BA
  0
DICTIONARY
  5
44AD
102
{ACAD_REACTORS
330
44AC
102
}
330
44AC
100
AcDbDictionary
  3
ACDB_ANNOTATIONSCALES
350
44AE
  0
DICTIONARY
  5
44A0
102
{ACAD_REACTORS
330
449F
102
}
330
449F
100
AcDbDictionary
  3
ACDB_ANNOTATIONSCALES
350
44A1
  0
DICTIONARY
  5
44AA
102
{ACAD_REACTORS
330
44A9
102
}
330
44A9
100
AcDbDictionary
  3
ACDB_ANNOTATIONSCALES
350
44AB
  0
DICTIONARY
  5
44A6
102
{ACAD_REACTORS
330
44A5
102
}
330
44A5
100
AcDbDictionary
  3
ACDB_ANNOTATIONSCALES
350
44A7
  0
DICTIONARY
  5
44B1
102
{ACAD_REACTORS
330
44B0
102
}
330
44B0
100
AcDbDictionary
  3
ACDB_ANNOTATIONSCALES
350
44B2
  0
DICTIONARY
  5
44B6
102
{ACAD_REACTORS
330
44B5
102
}
330
44B5
100
AcDbDictionary
  3
ACDB_ANNOTATIONSCALES
350
44B7
  0
DICTIONARY
  5
4550
102
{ACAD_REACTORS
330
454F
102
}
330
454F
100
AcDbDictionary
  3
ACDB_ANNOTATIONSCALES
350
4551
  0
DICTIONARY
  5
443D
102
{ACAD_REACTORS
330
443C
102
}
330
443C
100
AcDbDictionary
  3
ACDB_ANNOTATIONSCALES
350
443E
  0
DICTIONARY
  5
4598
102
{ACAD_REACTORS
330
4597
102
}
330
4597
100
AcDbDictionary
  3
ACDB_ANNOTATIONSCALES
350
4599
  0
DICTIONARY
  5
4595
102
{ACAD_REACTORS
330
4594
102
}
330
4594
100
AcDbDictionary
  3
ACDB_ANNOTATIONSCALES
350
4596
  0
MATERIAL
  5
4433
102
{ACAD_REACTORS
330
2947
102
}
102
{ACAD_XDICTIONARY
360
45C4
102
}
330
2947
100
AcDbMaterial
  1
BYBLOCK
  0
MATERIAL
  5
4432
102
{ACAD_REACTORS
330
2947
102
}
102
{ACAD_XDICTIONARY
360
45C2
102
}
330
2947
100
AcDbMaterial
  1
BYLAYER
  0
MATERIAL
  5
4434
102
{ACAD_REACTORS
330
2947
102
}
102
{ACAD_XDICTIONARY
360
45C6
102
}
330
2947
100
AcDbMaterial
  1
GLOBAL
  0
ACAD_PROXY_OBJECT
  5
4438
102
{ACAD_REACTORS
330
4437
102
}
330
4437
100
AcDbProxyObject
 90
      499
 91
      508
 93
      610
310
40901902A4063FBFFFFFE0000000000000020400000000000020404214DD185B99185C990000000000000104090141901A00000000000004100000000000000041025764000000000000039000
340
14
340
0
340
10
340
0
 94
        0
1001
ACAD_MLEADERVER
1070
     2
  0
MLINESTYLE
  5
13
102
{ACAD_REACTORS
330
E
102
}
330
E
100
AcDbMlineStyle
  2
STANDARD
 70
     0
  3

 62
     0
 51
90.0
 52
90.0
 71
     2
 49
0.5
 62
   256
  6
BYLAYER
 49
-0.5
 62
   256
  6
BYLAYER
  0
ACAD_PROXY_OBJECT
  5
4411
102
{ACAD_REACTORS
330
4410
102
}
330
4410
100
AcDbProxyObject
 90
      499
 91
      505
 93
       41
310
903313A31580
  0
ACAD_PROXY_OBJECT
  5
4412
102
{ACAD_REACTORS
330
4410
102
}
330
4410
100
AcDbProxyObject
 90
      499
 91
      505
 93
      105
310
903313A324000000000000004000
  0
ACAD_PROXY_OBJECT
  5
4413
102
{ACAD_REACTORS
330
4410
102
}
330
4410
100
AcDbProxyObject
 90
      499
 91
      505
 93
      105
310
903313A344000000000000104000
  0
ACAD_PROXY_OBJECT
  5
4414
102
{ACAD_REACTORS
330
4410
102
}
330
4410
100
AcDbProxyObject
 90
      499
 91
      505
 93
      105
310
903313A354000000000000144000
  0
ACAD_PROXY_OBJECT
  5
4415
102
{ACAD_REACTORS
330
4410
102
}
330
4410
100
AcDbProxyObject
 90
      499
 91
      505
 93
      105
310
903313A384000000000000204000
  0
ACAD_PROXY_OBJECT
  5
4416
102
{ACAD_REACTORS
330
4410
102
}
330
4410
100
AcDbProxyObject
 90
      499
 91
      505
 93
      113
310
904313A31304000000000000244000
  0
ACAD_PROXY_OBJECT
  5
4417
102
{ACAD_REACTORS
330
4410
102
}
330
4410
100
AcDbProxyObject
 90
      499
 91
      505
 93
      113
310
904313A31364000000000000304000
  0
ACAD_PROXY_OBJECT
  5
4418
102
{ACAD_REACTORS
330
4410
102
}
330
4410
100
AcDbProxyObject
 90
      499
 91
      505
 93
      113
310
904313A32304000000000000344000
  0
ACAD_PROXY_OBJECT
  5
4419
102
{ACAD_REACTORS
330
4410
102
}
330
4410
100
AcDbProxyObject
 90
      499
 91
      505
 93
      113
310
904313A333040000000000003E4000
  0
ACAD_PROXY_OBJECT
  5
441A
102
{ACAD_REACTORS
330
4410
102
}
330
4410
100
AcDbProxyObject
 90
      499
 91
      505
 93
      113
310
904313A34304000000000000444000
  0
ACAD_PROXY_OBJECT
  5
441B
102
{ACAD_REACTORS
330
4410
102
}
330
4410
100
AcDbProxyObject
 90
      499
 91
      505
 93
      113
310
904313A35304000000000000494000
  0
ACAD_PROXY_OBJECT
  5
441C
102
{ACAD_REACTORS
330
4410
102
}
330
4410
100
AcDbProxyObject
 90
      499
 91
      505
 93
      121
310
905313A3130304000000000000594000
  0
ACAD_PROXY_OBJECT
  5
441D
102
{ACAD_REACTORS
330
4410
102
}
330
4410
100
AcDbProxyObject
 90
      499
 91
      505
 93
      105
310
903323A310000000000000010100
  0
ACAD_PROXY_OBJECT
  5
441E
102
{ACAD_REACTORS
330
4410
102
}
330
4410
100
AcDbProxyObject
 90
      499
 91
      505
 93
      105
310
903343A310000000000000410100
  0
ACAD_PROXY_OBJECT
  5
441F
102
{ACAD_REACTORS
330
4410
102
}
330
4410
100
AcDbProxyObject
 90
      499
 91
      505
 93
      105
310
903383A310000000000000810100
  0
ACAD_PROXY_OBJECT
  5
4420
102
{ACAD_REACTORS
330
4410
102
}
330
4410
100
AcDbProxyObject
 90
      499
 91
      505
 93
      113
310
90431303A310000000000000910100
  0
ACAD_PROXY_OBJECT
  5
4421
102
{ACAD_REACTORS
330
4410
102
}
330
4410
100
AcDbProxyObject
 90
      499
 91
      505
 93
      121
310
9053130303A310000000000001650100
  0
ACAD_PROXY_OBJECT
  5
4422
102
{ACAD_REACTORS
330
4410
102
}
330
4410
100
AcDbProxyObject
 90
      499
 91
      505
 93
      257
310
90E312F31323822203D2031272D3022000000000000200FC000000000000284000
  0
ACAD_PROXY_OBJECT
  5
4423
102
{ACAD_REACTORS
330
4410
102
}
330
4410
100
AcDbProxyObject
 90
      499
 91
      505
 93
      249
310
90D312F363422203D2031272D3022000000000000240FC000000000000284000
  0
ACAD_PROXY_OBJECT
  5
4424
102
{ACAD_REACTORS
330
4410
102
}
330
4410
100
AcDbProxyObject
 90
      499
 91
      505
 93
      249
310
90D312F333222203D2031272D3022000000000000280FC000000000000284000
  0
ACAD_PROXY_OBJECT
  5
4425
102
{ACAD_REACTORS
330
4410
102
}
330
4410
100
AcDbProxyObject
 90
      499
 91
      505
 93
      249
310
90D312F313622203D2031272D30220000000000002C0FC000000000000284000
  0
ACAD_PROXY_OBJECT
  5
4426
102
{ACAD_REACTORS
330
4410
102
}
330
4410
100
AcDbProxyObject
 90
      499
 91
      505
 93
      249
310
90D332F333222203D2031272D30220000000000002E0FC000000000000284000
  0
ACAD_PROXY_OBJECT
  5
4427
102
{ACAD_REACTORS
330
4410
102
}
330
4410
100
AcDbProxyObject
 90
      499
 91
      505
 93
      241
310
90C312F3822203D2031272D3022000000000000300FC000000000000284000
  0
ACAD_PROXY_OBJECT
  5
4428
102
{ACAD_REACTORS
330
4410
102
}
330
4410
100
AcDbProxyObject
 90
      499
 91
      505
 93
      249
310
90D332F313622203D2031272D3022000000000000320FC000000000000284000
  0
ACAD_PROXY_OBJECT
  5
4429
102
{ACAD_REACTORS
330
4410
102
}
330
4410
100
AcDbProxyObject
 90
      499
 91
      505
 93
      241
310
90C312F3422203D2031272D3022000000000000340FC000000000000284000
  0
ACAD_PROXY_OBJECT
  5
442A
102
{ACAD_REACTORS
330
4410
102
}
330
4410
100
AcDbProxyObject
 90
      499
 91
      505
 93
      241
310
90C332F3822203D2031272D3022000000000000360FC000000000000284000
  0
ACAD_PROXY_OBJECT
  5
442B
102
{ACAD_REACTORS
330
4410
102
}
330
4410
100
AcDbProxyObject
 90
      499
 91
      505
 93
      241
310
90C312F3222203D2031272D3022000000000000380FC000000000000284000
  0
ACAD_PROXY_OBJECT
  5
442C
102
{ACAD_REACTORS
330
4410
102
}
330
4410
100
AcDbProxyObject
 90
      499
 91
      505
 93
      241
310
90C332F3422203D2031272D30220000000000003A0FC000000000000284000
  0
ACAD_PROXY_OBJECT
  5
442D
102
{ACAD_REACTORS
330
4410
102
}
330
4410
100
AcDbProxyObject
 90
      499
 91
      505
 93
      161
310
90A3122203D2031272D30224000000000000284000
  0
ACAD_PROXY_OBJECT
  5
442E
102
{ACAD_REACTORS
330
4410
102
}
330
4410
100
AcDbProxyObject
 90
      499
 91
      505
 93
      257
310
90E312D312F3222203D2031272D30220000000000003E0FC000000000000284000
  0
ACAD_PROXY_OBJECT
  5
442F
102
{ACAD_REACTORS
330
4410
102
}
330
4410
100
AcDbProxyObject
 90
      499
 91
      505
 93
      225
310
90A3322203D2031272D302200000000000002100000000000000284000
  0
ACAD_PROXY_OBJECT
  5
4430
102
{ACAD_REACTORS
330
4410
102
}
330
4410
100
AcDbProxyObject
 90
      499
 91
      505
 93
      225
310
90A3622203D2031272D302200000000000006100000000000000284000
  0
ACAD_PROXY_OBJECT
  5
4431
102
{ACAD_REACTORS
330
4410
102
}
330
4410
100
AcDbProxyObject
 90
      499
 91
      505
 93
      249
310
90D31272D3022203D2031272D30220000000000000A100000000000000284000
  0
ACAD_PROXY_OBJECT
  5
43FC
102
{ACAD_REACTORS
330
43F7
102
}
330
43F7
100
AcDbProxyObject
 90
      499
 91
      504
 93
      436
310
42CC9915DA5C99599C985B595049028333333333333E33F0000000000000F90107901411070040501600405405064090741402480A0340
1001
ACAD
1000
AcDbSavedByObjectVersion
1070
     0
  0
ACAD_PROXY_OBJECT
  5
43FF
102
{ACAD_REACTORS
330
43F7
102
}
330
43F7
100
AcDbProxyObject
 90
      499
 91
      504
 93
      388
310
4150985CDA58D07406404333333333333E33F0000000000000F90107A41107004050150841D405064090741402480A0350
1001
ACAD
1000
AcDbSavedByObjectVersion
1070
     0
  0
ACAD_PROXY_OBJECT
  5
4403
102
{ACAD_REACTORS
330
43F7
102
}
330
43F7
100
AcDbProxyObject
 90
      499
 91
      504
 93
      428
310
42109C9A59DA1D195B90C409028333333333333E33F0000000000000F9010790141107004050150841D405064090741402480A029950
1001
ACAD
1000
AcDbSavedByObjectVersion
1070
     0
  0
ACAD_PROXY_OBJECT
  5
4407
102
{ACAD_REACTORS
330
43F7
102
}
330
43F7
100
AcDbProxyObject
 90
      499
 91
      504
 93
      452
310
42D0DBDB1BDC90DA185B99D95104090240C333333333333E33F0000000000000F90108901411070040501508421405064090741402480A0350
1001
ACAD
1000
AcDbSavedByObjectVersion
1070
     0
  0
ACAD_PROXY_OBJECT
  5
4401
102
{ACAD_REACTORS
330
43F7
102
}
330
43F7
100
AcDbProxyObject
 90
      499
 91
      504
 93
      500
310
4290DBDB98D95C1D1D585B10940D028333333333333E33F0000000000000F90107902409070040501000000000018199010841D405064090740C02480A0340
1001
ACAD
1000
AcDbSavedByObjectVersion
1070
     0
  0
ACAD_PROXY_OBJECT
  5
4402
102
{ACAD_REACTORS
330
43F7
102
}
330
43F7
100
AcDbProxyObject
 90
      499
 91
      504
 93
      412
310
40D11A5B50B409028333333333333E33F0000000000000F9010790141107004050150841D405064090741402480A02677FFFFFD0
1001
ACAD
1000
AcDbSavedByObjectVersion
1070
     0
  0
ACAD_PROXY_OBJECT
  5
440A
102
{ACAD_REACTORS
330
43F7
102
}
330
43F7
100
AcDbProxyObject
 90
      499
 91
      504
 93
      452
310
43115919D950DBDB1BDC93D999916409028333333333333E33F0000000000000F9010790141107004050150841D405064090741402480A0350
1001
ACAD
1000
AcDbSavedByObjectVersion
1070
     0
  0
ACAD_PROXY_OBJECT
  5
4406
102
{ACAD_REACTORS
330
43F7
102
}
330
43F7
100
AcDbProxyObject
 90
      499
 91
      504
 93
      444
310
42D19858D95C185D1D195C9B90F409028333333333333E33F0000000000000F9010790141107004050150841D405064090741402480A0350
1001
ACAD
1000
AcDbSavedByObjectVersion
1070
     0
  0
ACAD_PROXY_OBJECT
  5
43F8
102
{ACAD_REACTORS
330
43F7
102
}
330
43F7
100
AcDbProxyObject
 90
      499
 91
      504
 93
      380
310
41119B185D240901404333333333333E33F0000000000000F9010740A907004050150841D405064090741402480A1B50
1001
ACAD
1000
AcDbSavedByObjectVersion
1070
     0
  0
ACAD_PROXY_OBJECT
  5
43F9
102
{ACAD_REACTORS
330
43F7
102
}
330
43F7
100
AcDbProxyObject
 90
      499
 91
      504
 93
      468
310
43519B185D15DA5D1A115919D95CD0140901404333333333333E33F0000000000000F90107409019070040501600405405064090741402480A1B50
1001
ACAD
1000
AcDbSavedByObjectVersion
1070
     0
  0
ACAD_PROXY_OBJECT
  5
43FA
102
{ACAD_REACTORS
330
43F7
102
}
330
43F7
100
AcDbProxyObject
 90
      499
 91
      504
 93
      404
310
41D1DBDD5C985D5910240902404333333333333E33F0000000000000F9010740A9070040501641D405064090741402480A1B50
1001
ACAD
1000
AcDbSavedByObjectVersion
1070
     0
  0
ACAD_PROXY_OBJECT
  5
43FB
102
{ACAD_REACTORS
330
43F7
102
}
330
43F7
100
AcDbProxyObject
 90
      499
 91
      504
 93
      492
310
4411DBDD5C985D5915DA5D1A115919D95CD0340902404333333333333E33F0000000000000F90107409019070040501600405405064090741402480A1B50
1001
ACAD
1000
AcDbSavedByObjectVersion
1070
     0
  0
ACAD_PROXY_OBJECT
  5
43FE
102
{ACAD_REACTORS
330
43F7
102
}
330
43F7
100
AcDbProxyObject
 90
      499
 91
      504
 93
      476
310
41921A5919195B90640502408333333333333E33F0000000000000F901079024090700405020000000000001110200405405064090740C02480A0340
1001
ACAD
1000
AcDbSavedByObjectVersion
1070
     0
  0
ACAD_PROXY_OBJECT
  5
4408
102
{ACAD_REACTORS
330
43F7
102
}
330
43F7
100
AcDbProxyObject
 90
      499
 91
      504
 93
      428
310
42529A5D1D195C93D999914409028333333333333E33F0000000000000F9010790141107004050150A41D405064090741402480A0350
1001
ACAD
1000
AcDbSavedByObjectVersion
1070
     0
  0
ACAD_PROXY_OBJECT
  5
4405
102
{ACAD_REACTORS
330
43F7
102
}
330
43F7
100
AcDbProxyObject
 90
      499
 91
      504
 93
      444
310
42D31A5B995C185D1D195C9B90E409028333333333333E33F0000000000000F9010790141107004050750841D405064090741402483A0350
1001
ACAD
1000
AcDbSavedByObjectVersion
1070
     0
  0
ACAD_PROXY_OBJECT
  5
4409
102
{ACAD_REACTORS
330
43F7
102
}
330
43F7
100
AcDbProxyObject
 90
      499
 91
      504
 93
      444
310
42D3DD995C9A185B99D3D999915409028333333333333E33F0000000000000F9010790141107004050150941D405064090741402480A0350
1001
ACAD
1000
AcDbSavedByObjectVersion
1070
     0
  0
ACAD_PROXY_OBJECT
  5
4400
102
{ACAD_REACTORS
330
43F7
102
}
330
43F7
100
AcDbProxyObject
 90
      499
 91
      504
 93
      428
310
425499585B1A5CDD1A58D08409038333333333333E33F0000000000000F9010740A907004050150800405405064090740C02480A1B40
1001
ACAD
1000
AcDbSavedByObjectVersion
1070
     0
  0
ACAD_PROXY_OBJECT
  5
440F
102
{ACAD_REACTORS
330
43F7
102
}
330
43F7
100
AcDbProxyObject
 90
      499
 91
      504
 93
      420
310
4194DA1859195911B40902404333333333333E33F0000000000000F9010740A41107004050150800405405064090840C02480A0B40
1001
ACAD
1000
AcDbSavedByObjectVersion
1070
     0
  0
ACAD_PROXY_OBJECT
  5
440E
102
{ACAD_REACTORS
330
43F7
102
}
330
43F7
100
AcDbProxyObject
 90
      499
 91
      504
 93
      516
310
4454DA18591959081DDA5D1A08195919D95CD1A40902404333333333333E33F0000000000000F901074090142907004050250800405405064090740C02480A0B40
1001
ACAD
1000
AcDbSavedByObjectVersion
1070
     0
  0
ACAD_PROXY_OBJECT
  5
440B
102
{ACAD_REACTORS
330
43F7
102
}
330
43F7
100
AcDbProxyObject
 90
      499
 91
      504
 93
      532
310
4394DA1859195CC81BD98811DC985E5174090240C333333333333E33F0000000000000F901079024090741D01000000000000111010841D405064090740C02480A0340
1001
ACAD
1000
AcDbSavedByObjectVersion
1070
     0
  0
ACAD_PROXY_OBJECT
  5
440C
102
{ACAD_REACTORS
330
43F7
102
}
330
43F7
100
AcDbProxyObject
 90
      499
 91
      504
 93
      476
310
41D4DAD95D18DA1E51840502408333333333333E33F0000000000000F901079024090741D01000000000000111010B41D405064090741802480A0340
1001
ACAD
1000
AcDbSavedByObjectVersion
1070
     0
  0
ACAD_PROXY_OBJECT
  5
4404
102
{ACAD_REACTORS
330
43F7
102
}
330
43F7
100
AcDbProxyObject
 90
      499
 91
      504
 93
      412
310
41D51A1A58DAD95B90D409028333333333333E33F0000000000000F9010790141107004050150C41D405064090741402480A0350
1001
ACAD
1000
AcDbSavedByObjectVersion
1070
     0
  0
ACAD_PROXY_OBJECT
  5
43FD
102
{ACAD_REACTORS
330
43F7
102
}
330
43F7
100
AcDbProxyObject
 90
      499
 91
      504
 93
      420
310
4255DA5C99599C985B595059028333333333333E33F0000000000000F90107901411070040501600405405064090740C02480A0340
1001
ACAD
1000
AcDbSavedByObjectVersion
1070
     0
  0
ACAD_PROXY_OBJECT
  5
440D
102
{ACAD_REACTORS
330
43F7
102
}
330
43F7
100
AcDbProxyObject
 90
      499
 91
      504
 93
      404
310
41560B54985E51940902404000000000000E03F0000000000000F9010740501907004050150841D405064090740C02480A1B40
1001
ACAD
1000
AcDbSavedByObjectVersion
1070
     0
  0
XRECORD
  5
45A4
102
{ACAD_REACTORS
330
459A
102
}
330
459A
100
AcDbXrecord
340
0
  0
XRECORD
  5
45A3
102
{ACAD_REACTORS
330
459A
102
}
330
459A
100
AcDbXrecord
 90
        0
  0
XRECORD
  5
45BD
102
{ACAD_REACTORS
330
459A
102
}
330
459A
100
AcDbXrecord
340
2948
  0
XRECORD
  5
45BA
102
{ACAD_REACTORS
330
459A
102
}
330
459A
100
AcDbXrecord
1000
DSTYLE
1002
{
1070
   171
 70
     2
1070
   143
 40
0.0394
1070
   274
 70
     2
1070
    41
 40
6.0
1070
   342
340
2AF4
1070
   271
 70
     1
1070
   278
 70
    46
1070
   341
340
2AF4
1070
   272
 70
     1
1070
    48
 40
0.1
1070
   283
 70
     1
1070
    47
 40
0.1
1070
   145
 40
1.0
1070
   340
340
10
1070
   140
 40
5.0
1070
   284
 70
     0
1002
}
  0
XRECORD
  5
45A5
102
{ACAD_REACTORS
330
459A
102
}
330
459A
100
AcDbXrecord
  1
{23698909-1D67-4744-B0E2-8DE11E3ED422}
  0
XRECORD
  5
459D
102
{ACAD_REACTORS
330
459A
102
}
330
459A
100
AcDbXrecord
  1

  0
XRECORD
  5
45A2
102
{ACAD_REACTORS
330
459A
102
}
330
459A
100
AcDbXrecord
 90
        0
  0
XRECORD
  5
459F
102
{ACAD_REACTORS
330
459A
102
}
330
459A
100
AcDbXrecord
340
2816
  0
XRECORD
  5
45A1
102
{ACAD_REACTORS
330
459A
102
}
330
459A
100
AcDbXrecord
 90
    10781
  0
XRECORD
  5
45BE
102
{ACAD_REACTORS
330
459A
102
}
330
459A
100
AcDbXrecord
340
2947
  0
XRECORD
  5
45A0
102
{ACAD_REACTORS
330
459A
102
}
330
459A
100
AcDbXrecord
340
2817
  0
XRECORD
  5
45A7
102
{ACAD_REACTORS
330
459A
102
}
330
459A
100
AcDbXrecord
 40
0.1
  0
XRECORD
  5
45AA
102
{ACAD_REACTORS
330
459A
102
}
330
459A
100
AcDbXrecord
340
0
  0
XRECORD
  5
45B0
102
{ACAD_REACTORS
330
459A
102
}
330
459A
100
AcDbXrecord
 10
0.0
 20
0.0
 30
0.0
  0
XRECORD
  5
45AC
102
{ACAD_REACTORS
330
459A
102
}
330
459A
100
AcDbXrecord
 10
0.0
 20
0.0
 30
0.0
  0
XRECORD
  5
45AF
102
{ACAD_REACTORS
330
459A
102
}
330
459A
100
AcDbXrecord
 10
0.0
 20
0.0
 30
0.0
  0
XRECORD
  5
45AD
102
{ACAD_REACTORS
330
459A
102
}
330
459A
100
AcDbXrecord
 10
0.0
 20
0.0
 30
0.0
  0
XRECORD
  5
45AE
102
{ACAD_REACTORS
330
459A
102
}
330
459A
100
AcDbXrecord
 10
0.0
 20
0.0
 30
0.0
  0
XRECORD
  5
45AB
102
{ACAD_REACTORS
330
459A
102
}
330
459A
100
AcDbXrecord
 10
0.0
 20
0.0
 30
0.0
  0
XRECORD
  5
45A8
102
{ACAD_REACTORS
330
459A
102
}
330
459A
100
AcDbXrecord
340
0
  0
XRECORD
  5
45A9
102
{ACAD_REACTORS
330
459A
102
}
330
459A
100
AcDbXrecord
 70
     0
  0
XRECORD
  5
459E
102
{ACAD_REACTORS
330
459A
102
}
330
459A
100
AcDbXrecord
  1

  0
XRECORD
  5
459B
102
{ACAD_REACTORS
330
459A
102
}
330
459A
100
AcDbXrecord
 90
        1
  0
XRECORD
  5
459C
102
{ACAD_REACTORS
330
459A
102
}
330
459A
100
AcDbXrecord
 90
       70
  0
XRECORD
  5
45B3
102
{ACAD_REACTORS
330
459A
102
}
330
459A
100
AcDbXrecord
340
0
  0
XRECORD
  5
45B9
102
{ACAD_REACTORS
330
459A
102
}
330
459A
100
AcDbXrecord
 10
0.0
 20
0.0
 30
0.0
  0
XRECORD
  5
45B5
102
{ACAD_REACTORS
330
459A
102
}
330
459A
100
AcDbXrecord
 10
0.0
 20
0.0
 30
0.0
  0
XRECORD
  5
45B8
102
{ACAD_REACTORS
330
459A
102
}
330
459A
100
AcDbXrecord
 10
0.0
 20
0.0
 30
0.0
  0
XRECORD
  5
45B6
102
{ACAD_REACTORS
330
459A
102
}
330
459A
100
AcDbXrecord
 10
0.0
 20
0.0
 30
0.0
  0
XRECORD
  5
45B7
102
{ACAD_REACTORS
330
459A
102
}
330
459A
100
AcDbXrecord
 10
0.0
 20
0.0
 30
0.0
  0
XRECORD
  5
45B4
102
{ACAD_REACTORS
330
459A
102
}
330
459A
100
AcDbXrecord
 10
0.0
 20
0.0
 30
0.0
  0
XRECORD
  5
45B1
102
{ACAD_REACTORS
330
459A
102
}
330
459A
100
AcDbXrecord
340
0
  0
XRECORD
  5
45B2
102
{ACAD_REACTORS
330
459A
102
}
330
459A
100
AcDbXrecord
 70
     0
  0
XRECORD
  5
45A6
102
{ACAD_REACTORS
330
459A
102
}
330
459A
100
AcDbXrecord
  1
{E20079FC-8FE2-422C-87B8-56713C300F25}
  0
DICTIONARYVAR
  5
445A
102
{ACAD_REACTORS
330
4459
102
}
330
4459
100
DictionaryVariables
280
     0
  1
1:1
  0
DICTIONARYVAR
  5
4499
102
{ACAD_REACTORS
330
4459
102
}
330
4459
100
DictionaryVariables
280
     0
  1
Standard
  0
DICTIONARYVAR
  5
4498
102
{ACAD_REACTORS
330
4459
102
}
330
4459
100
DictionaryVariables
280
     0
  1
Standard
  0
DICTIONARYVAR
  5
45BB
102
{ACAD_REACTORS
330
4459
102
}
330
4459
100
DictionaryVariables
280
     0
  1
1
  0
DICTIONARYVAR
  5
45BC
102
{ACAD_REACTORS
330
4459
102
}
330
4459
100
DictionaryVariables
280
     0
  1
0
  0
DICTIONARYVAR
  5
449A
102
{ACAD_REACTORS
330
4459
102
}
330
4459
100
DictionaryVariables
280
     0
  1
0
  0
DICTIONARYVAR
  5
449B
102
{ACAD_REACTORS
330
4459
102
}
330
4459
100
DictionaryVariables
280
     0
  1
0
  0
DICTIONARY
  5
44BA
102
{ACAD_REACTORS
330
44B9
102
}
330
44B9
100
AcDbDictionary
  0
DICTIONARY
  5
44AE
102
{ACAD_REACTORS
330
44AD
102
}
330
44AD
100
AcDbDictionary
  0
DICTIONARY
  5
44A1
102
{ACAD_REACTORS
330
44A0
102
}
330
44A0
100
AcDbDictionary
  0
DICTIONARY
  5
44AB
102
{ACAD_REACTORS
330
44AA
102
}
330
44AA
100
AcDbDictionary
  0
DICTIONARY
  5
44A7
102
{ACAD_REACTORS
330
44A6
102
}
330
44A6
100
AcDbDictionary
  0
DICTIONARY
  5
44B2
102
{ACAD_REACTORS
330
44B1
102
}
330
44B1
100
AcDbDictionary
  0
DICTIONARY
  5
44B7
102
{ACAD_REACTORS
330
44B6
102
}
330
44B6
100
AcDbDictionary
  0
DICTIONARY
  5
4551
102
{ACAD_REACTORS
330
4550
102
}
330
4550
100
AcDbDictionary
  0
DICTIONARY
  5
443E
102
{ACAD_REACTORS
330
443D
102
}
330
443D
100
AcDbDictionary
  0
DICTIONARY
  5
4599
102
{ACAD_REACTORS
330
4598
102
}
330
4598
100
AcDbDictionary
  0
DICTIONARY
  5
4596
102
{ACAD_REACTORS
330
4595
102
}
330
4595
100
AcDbDictionary
  0
DICTIONARY
  5
45C4
330
4433
100
AcDbDictionary
280
     1
  3
ACAD_XREC_ROUNDTRIP
360
45C5
  0
DICTIONARY
  5
45C2
330
4432
100
AcDbDictionary
280
     1
  3
ACAD_XREC_ROUNDTRIP
360
45C3
  0
DICTIONARY
  5
45C6
330
4434
100
AcDbDictionary
280
     1
  3
ACAD_XREC_ROUNDTRIP
360
45C7
  0
XRECORD
  5
45C5
102
{ACAD_REACTORS
330
45C4
102
}
330
45C4
100
AcDbXrecord
102
MATERIAL
148
0.0
149
0.0
149
0.0
 93
        0
 94
      127
282
     0
 72
     1
 77
     1
171
     1
175
     1
179
     1
273
     0
  0
XRECORD
  5
45C3
102
{ACAD_REACTORS
330
45C2
102
}
330
45C2
100
AcDbXrecord
102
MATERIAL
148
0.0
149
0.0
149
0.0
 93
        0
 94
      127
282
     0
 72
     1
 77
     1
171
     1
175
     1
179
     1
273
     0
  0
XRECORD
  5
45C7
102
{ACAD_REACTORS
330
45C6
102
}
330
45C6
100
AcDbXrecord
102
MATERIAL
148
0.0
149
0.0
149
0.0
 93
        0
 94
      127
282
     0
 72
     1
 77
     1
171
     1
175
     1
179
     1
273
     0
  0
ENDSEC
  0
EOF
