  0
SECTION
  2
HEADER
  9
$ACADVER
  1
AC1014
  9
$ACADMAINTVER
 70
     9
  9
$DWGCODEPAGE
  3
ANSI_932
  9
$INSBASE
 10
0.0
 20
0.0
 30
0.0
  9
$EXTMIN
 10
-296.122405116128
 20
639.351262056932
 30
0.0
  9
$EXTMAX
 10
427.781259424203
 20
1073.815803788322
 30
0.0
  9
$LIMMIN
 10
-360.747566795242
 20
4.457354754526
  9
$LIMMAX
 10
-162.153696144267
 20
287.675440264018
  9
$ORTHOMODE
 70
     1
  9
$REGENMODE
 70
     1
  9
$FILLMODE
 70
     1
  9
$QTEXTMODE
 70
     0
  9
$MIRRTEXT
 70
     1
  9
$DRAGMODE
 70
     2
  9
$LTSCALE
 40
1.0
  9
$OSMODE
 70
    32
  9
$ATTMODE
 70
     1
  9
$TEXTSIZE
 40
2.333873885063
  9
$TRACEWID
 40
1.0
  9
$TEXTSTYLE
  7
STANDARD
  9
$CLAYER
  8
下書線
  9
$CELTYPE
  6
BYLAYER
  9
$CECOLOR
 62
     1
  9
$CELTSCALE
 40
10.0
  9
$DELOBJ
 70
     1
  9
$DISPSILH
 70
     0
  9
$DIMSCALE
 40
1.0
  9
$DIMASZ
 40
6.0
  9
$DIMEXO
 40
0.625
  9
$DIMDLI
 40
3.75
  9
$DIMRND
 40
0.0
  9
$DIMDLE
 40
0.0
  9
$DIMEXE
 40
1.25
  9
$DIMTP
 40
0.1
  9
$DIMTM
 40
0.1
  9
$DIMTXT
 40
8.0
  9
$DIMCEN
 40
2.5
  9
$DIMTSZ
 40
0.0
  9
$DIMTOL
 70
     0
  9
$DIMLIM
 70
     0
  9
$DIMTIH
 70
     0
  9
$DIMTOH
 70
     0
  9
$DIMSE1
 70
     0
  9
$DIMSE2
 70
     0
  9
$DIMTAD
 70
     1
  9
$DIMZIN
 70
     8
  9
$DIMBLK
  1
OPEN30
  9
$DIMASO
 70
     1
  9
$DIMSHO
 70
     1
  9
$DIMPOST
  1

  9
$DIMAPOST
  1

  9
$DIMALT
 70
     0
  9
$DIMALTD
 70
     2
  9
$DIMALTF
 40
0.0394
  9
$DIMLFAC
 40
1.0
  9
$DIMTOFL
 70
     1
  9
$DIMTVP
 40
1.0
  9
$DIMTIX
 70
     0
  9
$DIMSOXD
 70
     0
  9
$DIMSAH
 70
     0
  9
$DIMBLK1
  1

  9
$DIMBLK2
  1

  9
$DIMSTYLE
  2
ISO-25
  9
$DIMCLRD
 70
     0
  9
$DIMCLRE
 70
     0
  9
$DIMCLRT
 70
     0
  9
$DIMTFAC
 40
1.0
  9
$DIMGAP
 40
0.625
  9
$DIMJUST
 70
     0
  9
$DIMSD1
 70
     0
  9
$DIMSD2
 70
     0
  9
$DIMTOLJ
 70
     1
  9
$DIMTZIN
 70
     0
  9
$DIMALTZ
 70
     0
  9
$DIMALTTZ
 70
     0
  9
$DIMFIT
 70
     3
  9
$DIMUPT
 70
     0
  9
$DIMUNIT
 70
     2
  9
$DIMDEC
 70
     1
  9
$DIMTDEC
 70
     1
  9
$DIMALTU
 70
     2
  9
$DIMALTTD
 70
     2
  9
$DIMTXSTY
  7
STANDARD
  9
$DIMAUNIT
 70
     0
  9
$LUNITS
 70
     2
  9
$LUPREC
 70
     4
  9
$SKETCHINC
 40
1.0
  9
$FILLETRAD
 40
6.5
  9
$AUNITS
 70
     0
  9
$AUPREC
 70
     0
  9
$MENU
  1
.
  9
$ELEVATION
 40
0.0
  9
$PELEVATION
 40
0.0
  9
$THICKNESS
 40
0.0
  9
$LIMCHECK
 70
     0
  9
$CHAMFERA
 40
10.0
  9
$CHAMFERB
 40
10.0
  9
$CHAMFERC
 40
20.0
  9
$CHAMFERD
 40
0.0
  9
$SKPOLY
 70
     0
  9
$TDCREATE
 40
2450576.597302431
  9
$TDUPDATE
 40
2457191.650770914
  9
$TDINDWG
 40
2.0026617708
  9
$TDUSRTIMER
 40
2.0026617708
  9
$USRTIMER
 70
     1
  9
$ANGBASE
 50
0.0
  9
$ANGDIR
 70
     0
  9
$PDMODE
 70
     0
  9
$PDSIZE
 40
0.0
  9
$PLINEWID
 40
0.0
  9
$COORDS
 70
     1
  9
$SPLFRAME
 70
     0
  9
$SPLINETYPE
 70
     6
  9
$SPLINESEGS
 70
     8
  9
$ATTDIA
 70
     0
  9
$ATTREQ
 70
     1
  9
$HANDLING
 70
     1
  9
$HANDSEED
  5
55EB
  9
$SURFTAB1
 70
     6
  9
$SURFTAB2
 70
     6
  9
$SURFTYPE
 70
     6
  9
$SURFU
 70
     6
  9
$SURFV
 70
     6
  9
$UCSNAME
  2

  9
$UCSORG
 10
0.0
 20
0.0
 30
0.0
  9
$UCSXDIR
 10
1.0
 20
0.0
 30
0.0
  9
$UCSYDIR
 10
0.0
 20
1.0
 30
0.0
  9
$PUCSNAME
  2

  9
$PUCSORG
 10
0.0
 20
0.0
 30
0.0
  9
$PUCSXDIR
 10
1.0
 20
0.0
 30
0.0
  9
$PUCSYDIR
 10
0.0
 20
1.0
 30
0.0
  9
$USERI1
 70
     0
  9
$USERI2
 70
     0
  9
$USERI3
 70
     0
  9
$USERI4
 70
     0
  9
$USERI5
 70
     0
  9
$USERR1
 40
0.0
  9
$USERR2
 40
0.0
  9
$USERR3
 40
0.0
  9
$USERR4
 40
0.0
  9
$USERR5
 40
0.0
  9
$WORLDVIEW
 70
     1
  9
$SHADEDGE
 70
     3
  9
$SHADEDIF
 70
    70
  9
$TILEMODE
 70
     0
  9
$MAXACTVP
 70
    16
  9
$PINSBASE
 10
0.0
 20
0.0
 30
0.0
  9
$PLIMCHECK
 70
     0
  9
$PEXTMIN
 10
4.746305129083
 20
2.616432209166
 30
0.0
  9
$PEXTMAX
 10
404.746305129083
 20
282.616432209166
 30
0.0
  9
$PLIMMIN
 10
-6.946593322754
 20
-6.94658241272
  9
$PLIMMAX
 10
417.778637084961
 20
293.315276107788
  9
$UNITMODE
 70
     0
  9
$VISRETAIN
 70
     0
  9
$PLINEGEN
 70
     0
  9
$PSLTSCALE
 70
     1
  9
$TREEDEPTH
 70
  3020
  9
$PICKSTYLE
 70
     1
  9
$CMLSTYLE
  2
STANDARD
  9
$CMLJUST
 70
     0
  9
$CMLSCALE
 40
1.0
  9
$PROXYGRAPHICS
 70
     1
  9
$MEASUREMENT
 70
     1
  0
ENDSEC
  0
SECTION
  2
CLASSES
  0
CLASS
  1
ACDBDICTIONARYWDFLT
  2
AcDbDictionaryWithDefault
  3
ObjectDBX Classes
 90
        0
280
     0
281
     0
  0
CLASS
  1
ACDBPLACEHOLDER
  2
AcDbPlaceHolder
  3
ObjectDBX Classes
 90
        0
280
     0
281
     0
  0
CLASS
  1
LAYOUT
  2
AcDbLayout
  3
ObjectDBX Classes
 90
        0
280
     0
281
     0
  0
CLASS
  1
SORTENTSTABLE
  2
AcDbSortentsTable
  3
ObjectDBX Classes
 90
        0
280
     0
281
     0
  0
CLASS
  1
DIMASSOC
  2
AcDbDimAssoc
  3
"AcDbDimAssoc|Product Desc:     AcDim ARX App For Dimension|Company:          Autodesk, Inc.|WEB Address:      www.autodesk.com"
 90
        0
280
     0
281
     0
  0
CLASS
  1
VISUALSTYLE
  2
AcDbVisualStyle
  3
ObjectDBX Classes
 90
     4095
280
     0
281
     0
  0
CLASS
  1
SCALE
  2
AcDbScale
  3
ObjectDBX Classes
 90
     1153
280
     0
281
     0
  0
CLASS
  1
MATERIAL
  2
AcDbMaterial
  3
ObjectDBX Classes
 90
     1153
280
     0
281
     0
  0
CLASS
  1
TABLESTYLE
  2
AcDbTableStyle
  3
ObjectDBX Classes
 90
     4095
280
     0
281
     0
  0
CLASS
  1
MLEADERSTYLE
  2
AcDbMLeaderStyle
  3
ACDB_MLEADERSTYLE_CLASS
 90
     4095
280
     0
281
     0
  0
CLASS
  1
SUN
  2
AcDbSun
  3
SCENEOE
 90
     1153
280
     0
281
     0
  0
CLASS
  1
DICTIONARYVAR
  2
AcDbDictionaryVar
  3
ObjectDBX Classes
 90
        0
280
     0
281
     0
  0
CLASS
  1
CELLSTYLEMAP
  2
AcDbCellStyleMap
  3
ObjectDBX Classes
 90
     1152
280
     0
281
     0
  0
CLASS
  1
XRECORD
  2
AcDbXrecord
  3
ObjectDBX Classes
 90
        0
280
     0
281
     0
  0
CLASS
  1
LWPOLYLINE
  2
AcDbPolyline
  3
ObjectDBX Classes
 90
        0
280
     0
281
     1
  0
CLASS
  1
HATCH
  2
AcDbHatch
  3
ObjectDBX Classes
 90
        0
280
     0
281
     1
  0
ENDSEC
  0
SECTION
  2
TABLES
  0
TABLE
  2
VPORT
  5
8
102
{ACAD_XDICTIONARY
360
55E3
102
}
330
0
100
AcDbSymbolTable
 70
     2
  0
VPORT
  5
5385
330
8
100
AcDbSymbolTableRecord
100
AcDbViewportTableRecord
  2
*ACTIVE
 70
     0
 10
0.0
 20
0.0
 11
1.0
 21
1.0
 12
-42.208647517833
 22
732.924317441238
 13
0.0
 23
0.0
 14
1.0
 24
1.0
 15
0.0
 25
0.0
 16
0.0
 26
0.0
 36
1.0
 17
0.0
 27
0.0
 37
0.0
 40
226.956948225304
 41
1.56746031746
 42
50.0
 43
0.0
 44
0.0
 50
0.0
 51
0.0
 71
    16
 72
   100
 73
     1
 74
     0
 75
     0
 76
     0
 77
     0
 78
     0
  0
ENDTAB
  0
TABLE
  2
LTYPE
  5
5
330
0
100
AcDbSymbolTable
 70
     4
  0
LTYPE
  5
14
330
5
100
AcDbSymbolTableRecord
100
AcDbLinetypeTableRecord
  2
BYBLOCK
 70
     0
  3

 72
    65
 73
     0
 40
0.0
  0
LTYPE
  5
15
330
5
100
AcDbSymbolTableRecord
100
AcDbLinetypeTableRecord
  2
BYLAYER
 70
     0
  3

 72
    65
 73
     0
 40
0.0
  0
LTYPE
  5
16
330
5
100
AcDbSymbolTableRecord
100
AcDbLinetypeTableRecord
  2
CONTINUOUS
 70
     0
  3
Solid line
 72
    65
 73
     0
 40
0.0
  0
LTYPE
  5
1EC
330
5
100
AcDbSymbolTableRecord
100
AcDbLinetypeTableRecord
  2
CENTER
 70
     0
  3
____ _ ____ _ ____ _ ____ _ ____ _ ____ _ ____ 
 72
    65
 73
     4
 40
2.0
 49
1.25
 74
     0
 49
-0.25
 74
     0
 49
0.25
 74
     0
 49
-0.25
 74
     0
  0
LTYPE
  5
1ED
330
5
100
AcDbSymbolTableRecord
100
AcDbLinetypeTableRecord
  2
DASHED
 70
     0
  3
__ __ __ __ __ __ __ __ __ __ __ __ __ __ __ __
 72
    65
 73
     2
 40
0.75
 49
0.5
 74
     0
 49
-0.25
 74
     0
  0
LTYPE
  5
42EC
330
5
100
AcDbSymbolTableRecord
100
AcDbLinetypeTableRecord
  2
CENTER2
 70
     0
  3
Center (.5x) ___ _ ___ _ ___ _ ___ _ ___ _ ___
 72
    65
 73
     4
 40
28.575
 49
19.05
 74
     0
 49
-3.175
 74
     0
 49
3.175
 74
     0
 49
-3.175
 74
     0
  0
ENDTAB
  0
TABLE
  2
LAYER
  5
2
102
{ACAD_XDICTIONARY
360
29EA
102
}
330
0
100
AcDbSymbolTable
 70
    13
  0
LAYER
  5
F
330
2
100
AcDbSymbolTableRecord
100
AcDbLayerTableRecord
  2
0
 70
     0
 62
     7
  6
CONTINUOUS
  0
LAYER
  5
61
330
2
100
AcDbSymbolTableRecord
100
AcDbLayerTableRecord
  2
図枠太線
 70
     0
 62
   251
  6
CONTINUOUS
  0
LAYER
  5
62
330
2
100
AcDbSymbolTableRecord
100
AcDbLayerTableRecord
  2
図枠細線
 70
     0
 62
   252
  6
CONTINUOUS
  0
LAYER
  5
63
330
2
100
AcDbSymbolTableRecord
100
AcDbLayerTableRecord
  2
図枠ロゴマーク
 70
     0
 62
   253
  6
CONTINUOUS
  0
LAYER
  5
1EF
330
2
100
AcDbSymbolTableRecord
100
AcDbLayerTableRecord
  2
外形線
 70
     0
 62
     7
  6
CONTINUOUS
  0
LAYER
  5
1F0
330
2
100
AcDbSymbolTableRecord
100
AcDbLayerTableRecord
  2
寸法線
 70
     0
 62
     1
  6
CONTINUOUS
  0
LAYER
  5
1F1
330
2
100
AcDbSymbolTableRecord
100
AcDbLayerTableRecord
  2
中心線
 70
     0
 62
     4
  6
CENTER
  0
LAYER
  5
1F4
330
2
100
AcDbSymbolTableRecord
100
AcDbLayerTableRecord
  2
DEFPOINTS
 70
     0
 62
     7
  6
CONTINUOUS
  0
LAYER
  5
2AA2
330
2
100
AcDbSymbolTableRecord
100
AcDbLayerTableRecord
  2
下書線
 70
     0
 62
     2
  6
CONTINUOUS
  0
LAYER
  5
2AA4
330
2
100
AcDbSymbolTableRecord
100
AcDbLayerTableRecord
  2
細線
 70
     0
 62
     6
  6
CONTINUOUS
  0
LAYER
  5
34D9
330
2
100
AcDbSymbolTableRecord
100
AcDbLayerTableRecord
  2
隠れ線
 70
     0
 62
     3
  6
DASHED
  0
LAYER
  5
34DA
330
2
100
AcDbSymbolTableRecord
100
AcDbLayerTableRecord
  2
太線
 70
     0
 62
   190
  6
CONTINUOUS
  0
LAYER
  5
42ED
330
2
100
AcDbSymbolTableRecord
100
AcDbLayerTableRecord
  2
寸法線_文字
 70
     0
 62
     1
  6
CONTINUOUS
  0
ENDTAB
  0
TABLE
  2
STYLE
  5
3
330
0
100
AcDbSymbolTable
 70
     3
  0
STYLE
  5
10
330
3
100
AcDbSymbolTableRecord
100
AcDbTextStyleTableRecord
  2
STANDARD
 70
     0
 40
0.0
 41
1.0
 50
0.0
 71
     0
 42
2.333873885063
  3
ISOCP
  4
bigfont.shx
  0
STYLE
  5
64
330
3
100
AcDbSymbolTableRecord
100
AcDbTextStyleTableRecord
  2
EXCADSTD
 70
     0
 40
0.0
 41
1.0
 50
0.0
 71
     0
 42
0.2
  3
monotxt
  4
bigfont
  0
STYLE
  5
2B21
330
3
100
AcDbSymbolTableRecord
100
AcDbTextStyleTableRecord
  2
EXCADVERT
 70
     4
 40
0.0
 41
1.0
 50
0.0
 71
     0
 42
0.286885
  3
monotxt
  4
bigfont
  0
ENDTAB
  0
TABLE
  2
VIEW
  5
6
330
0
100
AcDbSymbolTable
 70
     0
  0
ENDTAB
  0
TABLE
  2
UCS
  5
7
330
0
100
AcDbSymbolTable
 70
     0
  0
ENDTAB
  0
TABLE
  2
APPID
  5
9
330
0
100
AcDbSymbolTable
 70
     3
  0
APPID
  5
11
330
9
100
AcDbSymbolTableRecord
100
AcDbRegAppTableRecord
  2
ACAD
 70
     0
  0
APPID
  5
53CB
330
9
100
AcDbSymbolTableRecord
100
AcDbRegAppTableRecord
  2
ACADANNOTATIVE
 70
     0
  0
APPID
  5
542C
330
9
100
AcDbSymbolTableRecord
100
AcDbRegAppTableRecord
  2
ACAD_MLEADERVER
 70
     0
  0
ENDTAB
  0
TABLE
  2
DIMSTYLE
  5
A
330
0
100
AcDbSymbolTable
 70
     2
  0
DIMSTYLE
105
1D
330
A
100
AcDbSymbolTableRecord
100
AcDbDimStyleTableRecord
  2
STANDARD
 70
     0
  3

  4

  5

  6

  7

 40
1.0
 41
0.18
 42
0.0625
 43
0.38
 44
0.18
 45
0.0
 46
0.0
 47
0.0
 48
0.0
140
0.18
141
0.09
142
0.0
143
25.4
144
1.0
145
0.0
146
1.0
147
0.09
 71
     0
 72
     0
 73
     1
 74
     1
 75
     0
 76
     0
 77
     0
 78
     0
170
     0
171
     2
172
     0
173
     0
174
     0
175
     0
176
     0
177
     0
178
     0
270
     2
271
     4
272
     4
273
     2
274
     2
340
10
275
     0
280
     0
281
     0
282
     0
283
     1
284
     0
285
     0
286
     0
287
     3
288
     0
  0
DIMSTYLE
105
24
102
{ACAD_REACTORS
330
3766
330
3767
330
377B
330
4C51
330
4C64
330
4C65
330
4C87
330
4C90
330
4C9A
330
4C9B
330
5183
330
5184
102
}
330
A
100
AcDbSymbolTableRecord
100
AcDbDimStyleTableRecord
  2
ISO-25
 70
     0
  3

  4

  5

  6

  7

 40
1.0
 41
2.5
 42
0.625
 43
3.75
 44
1.25
 45
0.0
 46
0.0
 47
0.0
 48
0.0
140
2.5
141
2.5
142
0.0
143
0.0394
144
1.0
145
1.0
146
1.0
147
0.625
 71
     0
 72
     0
 73
     1
 74
     0
 75
     0
 76
     0
 77
     1
 78
     8
170
     0
171
     2
172
     1
173
     0
174
     0
175
     0
176
     0
177
     0
178
     0
270
     2
271
     4
272
     4
273
     2
274
     2
340
10
275
     0
280
     0
281
     0
282
     0
283
     1
284
     0
285
     0
286
     0
287
     3
288
     0
  0
ENDTAB
  0
TABLE
  2
BLOCK_RECORD
  5
1
330
0
100
AcDbSymbolTable
 70
    20
  0
BLOCK_RECORD
  5
1A
102
{ACAD_XDICTIONARY
360
39FB
102
}
330
1
100
AcDbSymbolTableRecord
100
AcDbBlockTableRecord
  2
*MODEL_SPACE
  0
BLOCK_RECORD
  5
28FB
330
1
100
AcDbSymbolTableRecord
100
AcDbBlockTableRecord
  2
*PAPER_SPACE
  0
BLOCK_RECORD
  5
2A32
330
1
100
AcDbSymbolTableRecord
100
AcDbBlockTableRecord
  2
A3横用_タイトル
1001
ACAD
1000
DesignCenter Data
1002
{
1070
     1
1070
     4
1002
}
  0
BLOCK_RECORD
  5
2AF4
330
1
100
AcDbSymbolTableRecord
100
AcDbBlockTableRecord
  2
_OPEN30
  0
BLOCK_RECORD
  5
2EB5
330
1
100
AcDbSymbolTableRecord
100
AcDbBlockTableRecord
  2
パドル_W1
  0
BLOCK_RECORD
  5
2ECD
330
1
100
AcDbSymbolTableRecord
100
AcDbBlockTableRecord
  2
パドル_W1立面図
  0
BLOCK_RECORD
  5
3314
330
1
100
AcDbSymbolTableRecord
100
AcDbBlockTableRecord
  2
ケース外形図_PRL-101
  0
BLOCK_RECORD
  5
3498
330
1
100
AcDbSymbolTableRecord
100
AcDbBlockTableRecord
  2
A$C480F1F2B
  0
BLOCK_RECORD
  5
3832
330
1
100
AcDbSymbolTableRecord
100
AcDbBlockTableRecord
  2
*D6
  0
BLOCK_RECORD
  5
383E
330
1
100
AcDbSymbolTableRecord
100
AcDbBlockTableRecord
  2
*D7
  0
BLOCK_RECORD
  5
3862
330
1
100
AcDbSymbolTableRecord
100
AcDbBlockTableRecord
  2
*D8
  0
BLOCK_RECORD
  5
3E9A
102
{ACAD_XDICTIONARY
360
3E9C
102
}
330
1
100
AcDbSymbolTableRecord
100
AcDbBlockTableRecord
  2
A$C25AB0491
  0
BLOCK_RECORD
  5
42E8
330
1
100
AcDbSymbolTableRecord
100
AcDbBlockTableRecord
  2
_DATUMFILLED
  0
BLOCK_RECORD
  5
4D0F
330
1
100
AcDbSymbolTableRecord
100
AcDbBlockTableRecord
  2
*D11
  0
BLOCK_RECORD
  5
4D33
330
1
100
AcDbSymbolTableRecord
100
AcDbBlockTableRecord
  2
*D12
  0
BLOCK_RECORD
  5
4D3F
330
1
100
AcDbSymbolTableRecord
100
AcDbBlockTableRecord
  2
*D13
  0
BLOCK_RECORD
  5
4D59
330
1
100
AcDbSymbolTableRecord
100
AcDbBlockTableRecord
  2
*D14
  0
BLOCK_RECORD
  5
4D66
330
1
100
AcDbSymbolTableRecord
100
AcDbBlockTableRecord
  2
*D15
  0
BLOCK_RECORD
  5
4D71
330
1
100
AcDbSymbolTableRecord
100
AcDbBlockTableRecord
  2
*D16
  0
BLOCK_RECORD
  5
4D7D
330
1
100
AcDbSymbolTableRecord
100
AcDbBlockTableRecord
  2
*D17
  0
BLOCK_RECORD
  5
5186
330
1
100
AcDbSymbolTableRecord
100
AcDbBlockTableRecord
  2
*D18
  0
BLOCK_RECORD
  5
5192
330
1
100
AcDbSymbolTableRecord
100
AcDbBlockTableRecord
  2
*D19
  0
ENDTAB
  0
ENDSEC
  0
SECTION
  2
BLOCKS
  0
BLOCK
  5
1B
330
1A
100
AcDbEntity
  8
0
100
AcDbBlockBegin
  2
*MODEL_SPACE
 70
     0
 10
0.0
 20
0.0
 30
0.0
  3
*MODEL_SPACE
  1

  0
ENDBLK
  5
1C
330
1A
100
AcDbEntity
  8
0
100
AcDbBlockEnd
  0
BLOCK
  5
28FD
330
28FB
100
AcDbEntity
 67
     1
  8
0
 48
10.0
100
AcDbBlockBegin
  2
*PAPER_SPACE
 70
     0
 10
0.0
 20
0.0
 30
0.0
  3
*PAPER_SPACE
  1

  0
ENDBLK
  5
28FE
330
28FB
100
AcDbEntity
 67
     1
  8
0
 48
10.0
100
AcDbBlockEnd
  0
BLOCK
  5
2A33
330
2A32
100
AcDbEntity
  8
0
100
AcDbBlockBegin
  2
A3横用_タイトル
 70
     0
 10
0.0
 20
0.0
 30
0.0
  3
A3横用_タイトル
  1
A3横用_タイトル
  0
LINE
  5
2A34
330
2A32
100
AcDbEntity
  8
図枠細線
  6
CONTINUOUS
 62
   252
100
AcDbLine
 10
205.098414535793
 20
33.525959753527
 30
0.0
 11
305.098414535793
 21
33.525959753527
 31
0.0
  0
LINE
  5
2A35
330
2A32
100
AcDbEntity
  8
図枠太線
  6
CONTINUOUS
 62
   251
100
AcDbLine
 10
205.098414535793
 20
23.525959753527
 30
0.0
 11
305.098414535793
 21
23.525959753527
 31
0.0
  0
LINE
  5
2A36
330
2A32
100
AcDbEntity
  8
図枠細線
  6
CONTINUOUS
100
AcDbLine
 10
5.098414535793
 20
23.525959753527
 30
0.0
 11
105.098414535793
 21
23.525959753527
 31
0.0
  0
LINE
  5
2A37
330
2A32
100
AcDbEntity
  8
図枠細線
  6
CONTINUOUS
 62
   252
100
AcDbLine
 10
5.098414535793
 20
36.725957753527
 30
0.0
 11
105.098414535793
 21
36.725957753527
 31
0.0
  0
LINE
  5
2A38
330
2A32
100
AcDbEntity
  8
図枠細線
  6
CONTINUOUS
 62
   252
100
AcDbLine
 10
5.098414535793
 20
30.125957753527
 30
0.0
 11
105.098414535793
 21
30.125957753527
 31
0.0
  0
LINE
  5
2A39
330
2A32
100
AcDbEntity
  8
図枠細線
  6
CONTINUOUS
 62
   252
100
AcDbLine
 10
5.098414535793
 20
16.725959753527
 30
0.0
 11
105.098414535793
 21
16.725959753527
 31
0.0
  0
LINE
  5
2A3A
330
2A32
100
AcDbEntity
  8
図枠細線
  6
CONTINUOUS
 62
   252
100
AcDbLine
 10
5.098414535793
 20
10.125959753527
 30
0.0
 11
105.098414535793
 21
10.125959753527
 31
0.0
  0
LINE
  5
2A3B
330
2A32
100
AcDbEntity
  8
図枠細線
  6
CONTINUOUS
100
AcDbLine
 10
105.098414535793
 20
23.525961753527
 30
0.0
 11
205.098414535793
 21
23.525959753527
 31
0.0
  0
LINE
  5
2A3C
330
2A32
100
AcDbEntity
  8
図枠細線
  6
CONTINUOUS
 62
   252
100
AcDbLine
 10
138.398414535793
 20
43.525959753527
 30
0.0
 11
138.398414535793
 21
18.525957753527
 31
0.0
  0
LINE
  5
2A3D
330
2A32
100
AcDbEntity
  8
図枠細線
  6
CONTINUOUS
 62
   252
100
AcDbLine
 10
171.698414535793
 20
43.525959753527
 30
0.0
 11
171.698414535793
 21
18.525957753527
 31
0.0
  0
LINE
  5
2A3E
330
2A32
100
AcDbEntity
  8
図枠細線
  6
CONTINUOUS
 62
   252
100
AcDbLine
 10
305.098414535793
 20
23.525959753527
 30
0.0
 11
405.098414535793
 21
23.525959753527
 31
0.0
  0
TEXT
  5
2A3F
330
2A32
100
AcDbEntity
  8
図枠ロゴマーク
  6
CONTINUOUS
 62
   253
100
AcDbText
 10
206.102509212755
 20
13.294257570546
 30
0.0
 40
7.0
  1
東和制電工業株式会社
 50
0.016555220185
 41
1.186384129432
  7
EXCADSTD
 72
     5
 11
303.544188309143
 21
13.322412672217
 31
0.0
100
AcDbText
  0
MTEXT
  5
2A40
330
2A32
100
AcDbEntity
  8
図枠細線
100
AcDbMText
 10
6.356764112375
 20
41.976594175478
 30
0.0
 40
2.5
 41
49.938282706292
 71
     1
 72
     5
  1
{\Fmonotxt.shx,bigfont.shx|c128;図暦　CHANGE　NOTICE}
  0
MTEXT
  5
2A41
330
2A32
100
AcDbEntity
  8
図枠細線
 48
10.0
100
AcDbMText
 10
306.544114926828
 20
41.701835800934
 30
0.0
 40
2.5
 41
28.002809618823
 71
     1
 72
     5
  1
{\Fmonotxt.shx,bigfont.shx|c128;名称　TITLE}
  0
MTEXT
  5
2A42
330
2A32
100
AcDbEntity
  8
図枠細線
 48
10.0
100
AcDbMText
 10
307.329617114284
 20
21.606206797226
 30
0.0
 40
2.5
 41
24.385612216707
 71
     1
 72
     5
  1
{\Fmonotxt.shx,bigfont.shx|c128;図面番号\PDRG.　No.}
  0
MTEXT
  5
2A43
330
2A32
100
AcDbEntity
  8
図枠細線
 48
10.0
100
AcDbMText
 10
173.726349404609
 20
21.73680662198
 30
0.0
 40
2.5
 41
25.735090160813
 71
     1
 72
     5
  1
{\Fmonotxt.shx,bigfont.shx|c128;日付 DATE}
  0
MTEXT
  5
2A44
330
2A32
100
AcDbEntity
  8
図枠細線
 48
10.0
100
AcDbMText
 10
173.48708833982
 20
41.621592044998
 30
0.0
 40
2.5
 41
24.983741184205
 71
     1
 72
     5
  1
{\Fmonotxt.shx,bigfont.shx|c128;製図　DRAWN}
  0
MTEXT
  5
2A45
330
2A32
100
AcDbEntity
  8
図枠細線
 48
10.0
100
AcDbMText
 10
139.28009927741
 20
21.866713069868
 30
0.0
 40
2.5
 41
22.629632913243
 71
     1
 72
     5
  1
{\Fmonotxt.shx,bigfont.shx|c128;尺度　SCALE}
  0
MTEXT
  5
2A46
330
2A32
100
AcDbEntity
  8
図枠細線
 48
10.0
100
AcDbMText
 10
139.910091179835
 20
41.311840415554
 30
0.0
 40
2.5
 41
28.998753428368
 71
     1
 72
     5
  1
{\Fmonotxt.shx,bigfont.shx|c128;検図  CHECKED}
  0
MTEXT
  5
2A47
330
2A32
100
AcDbEntity
  8
図枠細線
 48
10.0
100
AcDbMText
 10
114.253294667728
 20
21.916124850174
 30
0.0
 40
3.0
 41
19.692400475383
 71
     1
 72
     5
  1
{\Fmonotxt.shx,bigfont.shx|c128;第三角法}
  0
MTEXT
  5
2A48
330
2A32
100
AcDbEntity
  8
図枠細線
 48
10.0
100
AcDbMText
 10
108.986959929915
 20
15.282880185837
 30
0.0
 40
2.5
 41
27.954882823547
 71
     1
 72
     5
  1
{\Fmonotxt.shx,bigfont.shx|c128;THIRD ANGLE\PPROJECTION}
  0
MTEXT
  5
2A49
330
2A32
100
AcDbEntity
  8
図枠細線
 48
10.0
100
AcDbMText
 10
106.319432640184
 20
41.511437145487
 30
0.0
 40
2.5
 41
28.233595265074
 71
     1
 72
     5
  1
{\Fmonotxt.shx,bigfont.shx|c128;承認 APPROVED}
  0
LINE
  5
2A4A
330
2A32
100
AcDbEntity
  8
図枠太線
  6
CONTINUOUS
 62
   251
100
AcDbLine
 10
5.098414535793
 20
3.525959753527
 30
0.0
 11
405.098414535793
 21
3.525959753527
 31
0.0
  0
LINE
  5
2A4B
330
2A32
100
AcDbEntity
  8
図枠太線
 48
10.0
100
AcDbLine
 10
5.098414535793
 20
3.525959753527
 30
0.0
 11
5.098414535793
 21
43.525959753527
 31
0.0
  0
LINE
  5
2A4C
330
2A32
100
AcDbEntity
  8
図枠太線
  6
CONTINUOUS
 62
   251
100
AcDbLine
 10
105.098414535793
 20
3.525959753527
 30
0.0
 11
105.098414535793
 21
43.525959753527
 31
0.0
  0
LINE
  5
2A4D
330
2A32
100
AcDbEntity
  8
図枠細線
  6
CONTINUOUS
 62
   252
100
AcDbLine
 10
138.398414535793
 20
3.525959753527
 30
0.0
 11
138.398414535793
 21
18.525957753527
 31
0.0
  0
LINE
  5
2A4E
330
2A32
100
AcDbEntity
  8
図枠細線
  6
CONTINUOUS
 62
   252
100
AcDbLine
 10
171.698414535793
 20
3.525959753527
 30
0.0
 11
171.698414535793
 21
18.525957753527
 31
0.0
  0
LINE
  5
2A4F
330
2A32
100
AcDbEntity
  8
図枠太線
  6
CONTINUOUS
 62
   251
100
AcDbLine
 10
205.098414535793
 20
3.525959753527
 30
0.0
 11
205.098414535793
 21
43.525959753527
 31
0.0
  0
LINE
  5
2A50
330
2A32
100
AcDbEntity
  8
図枠太線
 48
10.0
100
AcDbLine
 10
405.098414535793
 20
43.525959753527
 30
0.0
 11
405.098414535793
 21
3.525959753527
 31
0.0
  0
TEXT
  5
2A51
330
2A32
100
AcDbEntity
  8
図枠細線
  6
CONTINUOUS
 62
   252
100
AcDbText
 10
208.519754474572
 20
6.482358407285
 30
0.0
 40
3.5
  1
ＴＯＷＡ　ＳＥＩＤＥＮ　ＩＮＤＵＳＴＲＩＡＬ　ＣＯ．，ＬＴＤ．
 41
0.746656297509
  7
EXCADSTD
 72
     5
 11
303.295327171727
 21
6.482358407285
 31
0.0
100
AcDbText
  0
LINE
  5
2A52
330
2A32
100
AcDbEntity
  8
図枠太線
  6
CONTINUOUS
 62
   251
100
AcDbLine
 10
305.098414535793
 20
3.525959753527
 30
0.0
 11
305.098414535793
 21
43.525959753527
 31
0.0
  0
ENDBLK
  5
2A53
330
2A32
100
AcDbEntity
  8
0
100
AcDbBlockEnd
  0
BLOCK
  5
2AF8
330
2AF4
100
AcDbEntity
  8
0
 48
10.0
100
AcDbBlockBegin
  2
_OPEN30
 70
     0
 10
0.0
 20
0.0
 30
0.0
  3
_OPEN30
  1
_OPEN30
  0
LINE
  5
2AF5
330
2AF4
100
AcDbEntity
  8
0
  6
BYBLOCK
 62
     0
100
AcDbLine
 10
-1.0
 20
0.26794919
 30
0.0
 11
0.0
 21
0.0
 31
0.0
  0
LINE
  5
2AF6
330
2AF4
100
AcDbEntity
  8
0
  6
BYBLOCK
 62
     0
100
AcDbLine
 10
0.0
 20
0.0
 30
0.0
 11
-1.0
 21
-0.26794919
 31
0.0
  0
LINE
  5
2AF7
330
2AF4
100
AcDbEntity
  8
0
  6
BYBLOCK
 62
     0
100
AcDbLine
 10
0.0
 20
0.0
 30
0.0
 11
-1.0
 21
0.0
 31
0.0
  0
ENDBLK
  5
2AF9
330
2AF4
100
AcDbEntity
  8
0
 48
10.0
100
AcDbBlockEnd
  0
BLOCK
  5
2EB6
330
2EB5
100
AcDbEntity
  8
0
 48
10.0
100
AcDbBlockBegin
  2
パドル_W1
 70
     0
 10
0.0
 20
0.0
 30
0.0
  3
パドル_W1
  1
パドル_W1
  0
LINE
  5
2EB7
330
2EB5
100
AcDbEntity
  8
中心線
 48
10.0
100
AcDbLine
 10
124.6832879095
 20
220.674073777677
 30
0.0
 11
131.9189439095
 21
220.674073777677
 31
0.0
  0
LINE
  5
2EB8
330
2EB5
100
AcDbEntity
  8
外形線
 48
10.0
100
AcDbLine
 10
58.3011159095
 20
260.651761921811
 30
0.0
 11
58.3011159095
 21
180.651761921811
 31
0.0
  0
LINE
  5
2EB9
330
2EB5
100
AcDbEntity
  8
外形線
 48
10.0
100
AcDbLine
 10
58.3011159095
 20
180.651761921811
 30
0.0
 11
123.3011159095
 21
180.651761921811
 31
0.0
  0
LINE
  5
2EBA
330
2EB5
100
AcDbEntity
  8
外形線
 48
10.0
100
AcDbLine
 10
138.3011159095
 20
208.651761921811
 30
0.0
 11
138.3011159095
 21
212.376811207105
 31
0.0
  0
LINE
  5
2EBB
330
2EB5
100
AcDbEntity
  8
外形線
 48
10.0
100
AcDbLine
 10
123.3011159095
 20
260.651761921811
 30
0.0
 11
58.3011159095
 21
260.651761921811
 31
0.0
  0
LINE
  5
2EBC
330
2EB5
100
AcDbEntity
  8
外形線
 48
10.0
100
AcDbLine
 10
138.3011159095
 20
232.651761921811
 30
0.0
 11
123.3011159095
 21
260.651761921811
 31
0.0
  0
LINE
  5
2EBD
330
2EB5
100
AcDbEntity
  8
外形線
 48
10.0
100
AcDbLine
 10
138.3011159095
 20
208.651761921811
 30
0.0
 11
123.3011159095
 21
180.651761921811
 31
0.0
  0
LINE
  5
2EBE
330
2EB5
100
AcDbEntity
  8
外形線
 48
10.0
100
AcDbLine
 10
153.3011159095
 20
212.376811207105
 30
0.0
 11
153.3011159095
 21
228.941629207105
 31
0.0
  0
LINE
  5
2EBF
330
2EB5
100
AcDbEntity
  8
外形線
100
AcDbLine
 10
125.0147379095
 20
212.376811207105
 30
0.0
 11
153.3011159095
 21
212.376811207105
 31
0.0
  0
LINE
  5
2EC0
330
2EB5
100
AcDbEntity
  8
細線
100
AcDbLine
 10
153.2891519095
 20
216.518045207105
 30
0.0
 11
124.6692799095
 21
216.518045207105
 31
0.0
  0
LINE
  5
2EC1
330
2EB5
100
AcDbEntity
  8
外形線
100
AcDbLine
 10
125.0147379095
 20
228.941629207105
 30
0.0
 11
123.3011159095
 21
227.228007207105
 31
0.0
  0
ARC
  5
2EC2
330
2EB5
100
AcDbEntity
  8
細線
100
AcDbCircle
 10
126.4810479095
 20
227.420755207105
 30
0.0
 40
3.18575
100
AcDbArc
 50
183.469852255156
 51
235.339263082109
  0
LINE
  5
2EC3
330
2EB5
100
AcDbEntity
  8
細線
100
AcDbLine
 10
153.2891519095
 20
224.800395207105
 30
0.0
 11
124.6692799095
 21
224.800395207105
 31
0.0
  0
ARC
  5
2EC4
330
2EB5
100
AcDbEntity
  8
細線
100
AcDbCircle
 10
126.4810479095
 20
213.897685207105
 30
0.0
 40
3.18575
100
AcDbArc
 50
124.660776613574
 51
176.530130144749
  0
LINE
  5
2EC5
330
2EB5
100
AcDbEntity
  8
外形線
100
AcDbLine
 10
123.3011159095
 20
227.228007207105
 30
0.0
 11
123.3011159095
 21
214.090433207105
 31
0.0
  0
CIRCLE
  5
2EC6
330
2EB5
100
AcDbEntity
  8
外形線
100
AcDbCircle
 10
128.3011159095
 20
220.674073777677
 30
0.0
 40
2.28479
  0
ARC
  5
2EC7
330
2EB5
100
AcDbEntity
  8
細線
100
AcDbCircle
 10
130.2525019095
 20
220.659219207105
 30
0.0
 40
6.951389999999999
100
AcDbArc
 50
143.43540034864
 51
216.564582051267
  0
LINE
  5
2EC8
330
2EB5
100
AcDbEntity
  8
中心線
 48
10.0
100
AcDbLine
 10
128.3011159095
 20
224.291901777677
 30
0.0
 11
128.3011159095
 21
217.056245777676
 31
0.0
  0
LINE
  5
2EC9
330
2EB5
100
AcDbEntity
  8
外形線
100
AcDbLine
 10
125.0147379095
 20
212.376811207105
 30
0.0
 11
123.3011159095
 21
214.090433207105
 31
0.0
  0
LINE
  5
2ECA
330
2EB5
100
AcDbEntity
  8
外形線
100
AcDbLine
 10
125.0147379095
 20
228.941629207105
 30
0.0
 11
153.3011159095
 21
228.941629207105
 31
0.0
  0
LINE
  5
2ECB
330
2EB5
100
AcDbEntity
  8
外形線
 48
10.0
100
AcDbLine
 10
138.3011159095
 20
228.941629207105
 30
0.0
 11
138.3011159095
 21
232.651761921811
 31
0.0
  0
ENDBLK
  5
2ECC
330
2EB5
100
AcDbEntity
  8
0
 48
10.0
100
AcDbBlockEnd
  0
BLOCK
  5
2ECE
330
2ECD
100
AcDbEntity
  8
0
 48
10.0
100
AcDbBlockBegin
  2
パドル_W1立面図
 70
     0
 10
0.0
 20
0.0
 30
0.0
  3
パドル_W1立面図
  1
パドル_W1立面図
  0
LINE
  5
2ECF
330
2ECD
100
AcDbEntity
  8
外形線
 48
10.0
100
AcDbLine
 10
-4.385455455444
 20
189.61846140322
 30
0.0
 11
-7.241459969979
 21
189.61846140322
 31
0.0
  0
LINE
  5
2ED0
330
2ECD
100
AcDbEntity
  8
外形線
 48
10.0
100
AcDbLine
 10
-4.385455455444
 20
269.61846140322
 30
0.0
 11
-7.241459969979
 21
269.61846140322
 31
0.0
  0
LINE
  5
2ED1
330
2ECD
100
AcDbEntity
  8
外形線
 48
10.0
100
AcDbLine
 10
-4.385455455444
 20
189.61846140322
 30
0.0
 11
-4.385455455444
 21
269.61846140322
 31
0.0
  0
LINE
  5
2ED2
330
2ECD
100
AcDbEntity
  8
外形線
 48
10.0
100
AcDbLine
 10
-7.241459969979
 20
269.61846140322
 30
0.0
 11
-7.241459969979
 21
189.61846140322
 31
0.0
  0
LINE
  5
2ED3
330
2ECD
100
AcDbEntity
  8
外形線
100
AcDbLine
 10
-4.385468503734
 20
237.376935973808
 30
0.0
 11
1.606659496266
 21
233.917433973808
 31
0.0
  0
ARC
  5
2ED4
330
2ECD
100
AcDbEntity
  8
細線
100
AcDbCircle
 10
-5.813446503734
 20
229.633375973808
 30
0.0
 40
8.568
100
AcDbArc
 50
279.594007516002
 51
80.406014579591
  0
LINE
  5
2ED5
330
2ECD
100
AcDbEntity
  8
外形線
100
AcDbLine
 10
1.606659496266
 20
233.917433973808
 30
0.0
 11
1.606659496266
 21
225.349439973808
 31
0.0
  0
LINE
  5
2ED6
330
2ECD
100
AcDbEntity
  8
外形線
100
AcDbLine
 10
-4.385468503734
 20
221.889815973808
 30
0.0
 11
1.606659496266
 21
225.349439973808
 31
0.0
  0
ARC
  5
2ED7
330
2ECD
100
AcDbEntity
  8
細線
100
AcDbCircle
 10
-5.813446503734
 20
229.633375973808
 30
0.0
 40
7.458525999999999
100
AcDbArc
 50
281.037746568172
 51
78.962275527419
  0
LINE
  5
2ED8
330
2ECD
100
AcDbEntity
  8
外形線
100
AcDbLine
 10
-7.241454503734
 20
221.889845973808
 30
0.0
 11
-13.233550503734
 21
225.349439973808
 31
0.0
  0
LINE
  5
2ED9
330
2ECD
100
AcDbEntity
  8
外形線
100
AcDbLine
 10
-13.233550503734
 20
225.349439973808
 30
0.0
 11
-13.233550503734
 21
233.917433973808
 31
0.0
  0
LINE
  5
2EDA
330
2ECD
100
AcDbEntity
  8
外形線
100
AcDbLine
 10
-7.241454503734
 20
237.376905973808
 30
0.0
 11
-13.233550503734
 21
233.917433973808
 31
0.0
  0
ARC
  5
2EDB
330
2ECD
100
AcDbEntity
  8
細線
100
AcDbCircle
 10
-5.813446503734
 20
229.633375973808
 30
0.0
 40
7.458525999999999
100
AcDbArc
 50
101.038013199227
 51
258.962026496458
  0
ARC
  5
2EDC
330
2ECD
100
AcDbEntity
  8
細線
100
AcDbCircle
 10
-5.813446503734
 20
229.633375973808
 30
0.0
 40
8.568
100
AcDbArc
 50
99.594159555498
 51
260.405880140189
  0
ENDBLK
  5
2EDD
330
2ECD
100
AcDbEntity
  8
0
 48
10.0
100
AcDbBlockEnd
  0
BLOCK
  5
3315
330
3314
100
AcDbEntity
  8
0
 48
10.0
100
AcDbBlockBegin
  2
ケース外形図_PRL-101
 70
     0
 10
0.0
 20
0.0
 30
0.0
  3
ケース外形図_PRL-101
  1
ケース外形図_PRL-101
  0
LINE
  5
3316
330
3314
100
AcDbEntity
  8
細線
100
AcDbLine
 10
-2665.991042960005
 20
861.623968537874
 30
0.0
 11
-2665.991042960005
 21
873.047918537874
 31
0.0
  0
LINE
  5
3317
330
3314
100
AcDbEntity
  8
外形線
100
AcDbLine
 10
-2631.433426960005
 20
830.779118537874
 30
0.0
 11
-2631.433426960005
 21
873.267522537874
 31
0.0
  0
LINE
  5
3318
330
3314
100
AcDbEntity
  8
細線
100
AcDbLine
 10
-2662.278274960006
 20
879.331120537874
 30
0.0
 11
-2662.278274960006
 21
782.227116537874
 31
0.0
  0
LINE
  5
3319
330
3314
100
AcDbEntity
  8
細線
100
AcDbLine
 10
-2690.838210960005
 20
876.475164537874
 30
0.0
 11
-2690.838210960005
 21
787.771428537874
 31
0.0
  0
LINE
  5
331A
330
3314
100
AcDbEntity
  8
外形線
100
AcDbLine
 10
-2681.699050960005
 20
779.779118537874
 30
0.0
 11
-2681.699050960005
 21
881.779118537874
 31
0.0
  0
LINE
  5
331B
330
3314
100
AcDbEntity
  8
外形線
100
AcDbLine
 10
-2683.698196960006
 20
881.779118537874
 30
0.0
 11
-2683.698196960006
 21
779.779118537874
 31
0.0
  0
LINE
  5
331C
330
3314
100
AcDbEntity
  8
細線
100
AcDbLine
 10
-2687.982254960006
 20
881.779118537874
 30
0.0
 11
-2687.982254960006
 21
779.779118537874
 31
0.0
  0
LWPOLYLINE
  5
331D
330
3314
100
AcDbEntity
  8
外形線
100
AcDbPolyline
 90
       67
 70
     0
 43
0.0
 10
-2727.912532980931
 20
874.395574537874
 10
-2727.953293836579
 20
874.383826783906
 10
-2728.068477575312
 20
874.349444977304
 10
-2728.247435954815
 20
874.293721301034
 10
-2728.479520732777
 20
874.21794793805
 10
-2728.754083666881
 20
874.123417071316
 10
-2729.060476514815
 20
874.011420883788
 10
-2729.388051034263
 20
873.88325155843
 10
-2729.726158982913
 20
873.7402012782
 10
-2730.064152118452
 20
873.583562226056
 10
-2730.391382198563
 20
873.414626584962
 10
-2730.697200980931
 20
873.234686537874
 10
-2731.041719305219
 20
872.992715407982
 10
-2731.339825881913
 20
872.736545218548
 10
-2731.596572968897
 20
872.467567585962
 10
-2731.817012824054
 20
872.187174126604
 10
-2732.006197705261
 20
871.89675645686
 10
-2732.169179870401
 20
871.597706193118
 10
-2732.311011577355
 20
871.29141495176
 10
-2732.436745084005
 20
870.979274349172
 10
-2732.551432648232
 20
870.662676001738
 10
-2732.660126527911
 20
870.343011525844
 10
-2732.767878980932
 20
870.021672537874
 10
-2732.995558529487
 20
869.37320130124
 10
-2733.238969065791
 20
868.724486172106
 10
-2733.497161102815
 20
868.07643116072
 10
-2733.769185153524
 20
867.429940277324
 10
-2734.054091730885
 20
866.785917532164
 10
-2734.350931347865
 20
866.145266935484
 10
-2734.658754517435
 20
865.508892497532
 10
-2734.976611752558
 20
864.87769822855
 10
-2735.303553566203
 20
864.252588138782
 10
-2735.63863047134
 20
863.634466238476
 10
-2735.980892980931
 20
863.024236537874
 10
-2736.239184000456
 20
862.576129792738
 10
-2736.499800442533
 20
862.13135252633
 10
-2736.761624540767
 20
861.688377507542
 10
-2737.023538528765
 20
861.245677505256
 10
-2737.284424640132
 20
860.801725288362
 10
-2737.543165108469
 20
860.354993625746
 10
-2737.798642167385
 20
859.903955286294
 10
-2738.049738050485
 20
859.447083038896
 10
-2738.295334991371
 20
858.982849652434
 10
-2738.534315223654
 20
858.509727895798
 10
-2738.765560980932
 20
858.026190537874
 10
-2738.926994170605
 20
857.672921160886
 10
-2739.088946663412
 20
857.318424143266
 10
-2739.256494321417
 20
856.967619238842
 10
-2739.434713006694
 20
856.625426201446
 10
-2739.628678581305
 20
856.2967647849
 10
-2739.843466907328
 20
855.986554743034
 10
-2740.084153846823
 20
855.699715829676
 10
-2740.355815261862
 20
855.441167798654
 10
-2740.663527014515
 20
855.215830403794
 10
-2741.012364966849
 20
855.028623398926
 10
-2741.407404980931
 20
854.884466537874
 10
-2741.846256471285
 20
854.786974295384
 10
-2742.319481250513
 20
854.73005829347
 10
-2742.811030401751
 20
854.707125389318
 10
-2743.304855008141
 20
854.711582440116
 10
-2743.784906152826
 20
854.736836303046
 10
-2744.235134918943
 20
854.776293835296
 10
-2744.639492389633
 20
854.823361894054
 10
-2744.981929648037
 20
854.871447336504
 10
-2745.246397777295
 20
854.913957019834
 10
-2745.416847860545
 20
854.944297801228
 10
-2745.477230980931
 20
854.955876537874
  0
LINE
  5
331E
330
3314
100
AcDbEntity
  8
細線
100
AcDbLine
 10
-2731.710140980931
 20
869.906346537874
 30
0.0
 11
-2731.710140980931
 21
791.651952537874
 31
0.0
  0
LINE
  5
331F
330
3314
100
AcDbEntity
  8
外形線
100
AcDbLine
 10
-2761.698196960006
 20
908.279118537874
 30
0.0
 11
-2761.698196960006
 21
753.279118537874
 31
0.0
  0
LINE
  5
3320
330
3314
100
AcDbEntity
  8
外形線
100
AcDbLine
 10
-2771.698196960006
 20
753.279118537874
 30
0.0
 11
-2771.698196960006
 21
908.279118537874
 31
0.0
  0
LINE
  5
3321
330
3314
100
AcDbEntity
  8
中心線
 48
10.0
100
AcDbLine
 10
-2781.983253975795
 20
765.779118537874
 30
0.0
 11
-2749.379418022688
 21
765.779118537874
 31
0.0
  0
LINE
  5
3322
330
3314
100
AcDbEntity
  8
中心線
 48
10.0
100
AcDbLine
 10
-2704.698196960006
 20
804.438298537874
 30
0.0
 11
-2704.698196960006
 21
748.836004537874
 31
0.0
  0
LINE
  5
3323
330
3314
100
AcDbEntity
  8
外形線
100
AcDbLine
 10
-2689.051423549413
 20
778.91101237705
 30
0.0
 11
-2690.659505049885
 21
766.825284453168
 31
0.0
  0
LINE
  5
3324
330
3314
100
AcDbEntity
  8
外形線
100
AcDbLine
 10
-2720.961012960005
 20
784.312322537874
 30
0.0
 11
-2718.725906960005
 21
766.839604537874
 31
0.0
  0
LINE
  5
3325
330
3314
100
AcDbEntity
  8
外形線
100
AcDbLine
 10
-2771.698196960006
 20
753.279118537874
 30
0.0
 11
-2761.698196960006
 21
753.279118537874
 31
0.0
  0
ARC
  5
3326
330
3314
100
AcDbEntity
  8
外形線
100
AcDbCircle
 10
-2693.490554960005
 20
767.201970537874
 30
0.0
 40
2.856
100
AcDbArc
 50
270.0
 51
352.421011277475
  0
ARC
  5
3327
330
3314
100
AcDbEntity
  8
細線
100
AcDbCircle
 10
-2691.275832960006
 20
773.224066537874
 30
0.0
 40
18.322924
100
AcDbArc
 50
247.068453993571
 51
267.322397459894
  0
LINE
  5
3328
330
3314
100
AcDbEntity
  8
外形線
100
AcDbLine
 10
-2717.264602960006
 20
754.921148537874
 30
0.0
 11
-2692.131788960005
 21
754.921148537874
 31
0.0
  0
LINE
  5
3329
330
3314
100
AcDbEntity
  8
外形線
100
AcDbLine
 10
-2718.692580960005
 20
760.061956537874
 30
0.0
 11
-2690.703688960005
 21
760.061956537874
 31
0.0
  0
LINE
  5
332A
330
3314
100
AcDbEntity
  8
細線
100
AcDbLine
 10
-2697.558180960005
 20
764.345952537874
 30
0.0
 11
-2697.558180960005
 21
760.061956537874
 31
0.0
  0
LINE
  5
332B
330
3314
100
AcDbEntity
  8
外形線
100
AcDbLine
 10
-2695.273390960006
 20
760.061956537874
 30
0.0
 11
-2695.273390960006
 21
764.345952537874
 31
0.0
  0
LINE
  5
332C
330
3314
100
AcDbEntity
  8
細線
100
AcDbLine
 10
-2698.414992960005
 20
756.349188537874
 30
0.0
 11
-2698.414992960005
 21
760.061956537874
 31
0.0
  0
LINE
  5
332D
330
3314
100
AcDbEntity
  8
細線
100
AcDbLine
 10
-2711.838210960005
 20
764.345952537874
 30
0.0
 11
-2711.838210960005
 21
760.061956537874
 31
0.0
  0
LINE
  5
332E
330
3314
100
AcDbEntity
  8
外形線
100
AcDbLine
 10
-2714.123000960005
 20
760.061956537874
 30
0.0
 11
-2714.123000960005
 21
764.345952537874
 31
0.0
  0
ARC
  5
332F
330
3314
100
AcDbEntity
  8
外形線
100
AcDbCircle
 10
-2715.893020960006
 20
767.201970537874
 30
0.0
 40
2.856
100
AcDbArc
 50
187.289418100615
 51
270.0
  0
ARC
  5
3330
330
3314
100
AcDbEntity
  8
細線
100
AcDbCircle
 10
-2718.120558960006
 20
773.224066537874
 30
0.0
 40
18.322924
100
AcDbArc
 50
272.67766208363
 51
292.93154825417
  0
LINE
  5
3331
330
3314
100
AcDbEntity
  8
外形線
100
AcDbLine
 10
-2718.692580960005
 20
756.349188537874
 30
0.0
 11
-2717.264602960006
 21
754.921148537874
 31
0.0
  0
LINE
  5
3332
330
3314
100
AcDbEntity
  8
細線
100
AcDbLine
 10
-2710.981398960005
 20
756.349188537874
 30
0.0
 11
-2710.981398960005
 21
760.061956537874
 31
0.0
  0
LINE
  5
3333
330
3314
100
AcDbEntity
  8
外形線
100
AcDbLine
 10
-2718.692580960005
 20
760.061956537874
 30
0.0
 11
-2718.692580960005
 21
756.349188537874
 31
0.0
  0
LINE
  5
3334
330
3314
100
AcDbEntity
  8
外形線
100
AcDbLine
 10
-2715.893020960006
 20
764.345982537874
 30
0.0
 11
-2693.490554960005
 21
764.345982537874
 31
0.0
  0
ARC
  5
3335
330
3314
100
AcDbEntity
  8
細線
100
AcDbCircle
 10
-2704.698196960006
 20
769.457830537874
 30
0.0
 40
14.53669
100
AcDbArc
 50
244.390793033801
 51
295.609209213941
  0
LINE
  5
3336
330
3314
100
AcDbEntity
  8
外形線
100
AcDbLine
 10
-2690.703688960005
 20
756.349188537874
 30
0.0
 11
-2692.131788960005
 21
754.921148537874
 31
0.0
  0
LINE
  5
3337
330
3314
100
AcDbEntity
  8
外形線
100
AcDbLine
 10
-2690.703688960005
 20
760.061956537874
 30
0.0
 11
-2690.703688960005
 21
756.349188537874
 31
0.0
  0
ARC
  5
3338
330
3314
100
AcDbEntity
  8
外形線
100
AcDbCircle
 10
-2666.317092960006
 20
857.629704537874
 30
0.0
 40
4.015794000000001
100
AcDbArc
 50
274.656944786914
 51
84.065438721313
  0
ARC
  5
3339
330
3314
100
AcDbEntity
  8
外形線
100
AcDbCircle
 10
-2667.278152960005
 20
830.196722537874
 30
0.0
 40
5.033766
100
AcDbArc
 50
6.644133183896
 51
75.184725088441
  0
ARC
  5
333A
330
3314
100
AcDbEntity
  8
外形線
100
AcDbCircle
 10
-2667.278152960005
 20
831.361638537874
 30
0.0
 40
5.033766
100
AcDbArc
 50
284.815257311477
 51
353.355849216014
  0
ARC
  5
333B
330
3314
100
AcDbEntity
  8
外形線
100
AcDbCircle
 10
-2666.317092960006
 20
803.928656537874
 30
0.0
 40
4.015794000000001
100
AcDbArc
 50
275.934583374273
 51
85.343077308664
  0
LINE
  5
333C
330
3314
100
AcDbEntity
  8
外形線
100
AcDbLine
 10
-2662.278274960006
 20
782.227116537874
 30
0.0
 11
-2665.991042960005
 21
779.779118537874
 31
0.0
  0
LINE
  5
333D
330
3314
100
AcDbEntity
  8
外形線
100
AcDbLine
 10
-2663.950942960006
 20
788.510320537874
 30
0.0
 11
-2681.699050960005
 21
788.510320537874
 31
0.0
  0
LINE
  5
333E
330
3314
100
AcDbEntity
  8
外形線
100
AcDbLine
 10
-2663.950942960006
 20
785.083196537874
 30
0.0
 11
-2681.699050960005
 21
785.083196537874
 31
0.0
  0
LINE
  5
333F
330
3314
100
AcDbEntity
  8
細線
100
AcDbLine
 10
-2665.991042960005
 20
826.495184537874
 30
0.0
 11
-2665.991042960005
 21
807.931096537874
 31
0.0
  0
LINE
  5
3340
330
3314
100
AcDbEntity
  8
細線
100
AcDbLine
 10
-2743.991024980932
 20
853.627142537874
 30
0.0
 11
-2743.991024980932
 21
807.931096537874
 31
0.0
  0
ARC
  5
3341
330
3314
100
AcDbEntity
  8
外形線
100
AcDbCircle
 10
-2723.793898960005
 20
783.949896537874
 30
0.0
 40
2.856
100
AcDbArc
 50
7.289398252773
 51
86.905894590757
  0
LWPOLYLINE
  5
3342
330
3314
100
AcDbEntity
  8
外形線
100
AcDbPolyline
 90
       67
 70
     0
 43
0.0
 10
-2727.912532980931
 20
787.162664537874
 10
-2727.953293899852
 20
787.174412216412
 10
-2728.068477803089
 20
787.208793826894
 10
-2728.247436410369
 20
787.264517231616
 10
-2728.479521441415
 20
787.340290292878
 10
-2728.754084615951
 20
787.434820872976
 10
-2729.060477653697
 20
787.546816834212
 10
-2729.388052274381
 20
787.674986038882
 10
-2729.726160197723
 20
787.818036349284
 10
-2730.064153143446
 20
787.974675627718
 10
-2730.391382831275
 20
788.143611736482
 10
-2730.697200980931
 20
788.323552537874
 10
-2731.041726713515
 20
788.565531765468
 10
-2731.339837921853
 20
788.821711229278
 10
-2731.596587295491
 20
789.09069912024
 10
-2731.817027523977
 20
789.371103629292
 10
-2732.006211296854
 20
789.66153294737
 10
-2732.169191303669
 20
789.960595265412
 10
-2732.311020233969
 20
790.266898774354
 10
-2732.436750777299
 20
790.579051665134
 10
-2732.551435623205
 20
790.89566212869
 10
-2732.660127461236
 20
791.215338355958
 10
-2732.767878980932
 20
791.536688537874
 10
-2732.995551300265
 20
792.185153437188
 10
-2733.238958623558
 20
792.833859637758
 10
-2733.497150606985
 20
793.48190367618
 10
-2733.769176906731
 20
794.128382089052
 10
-2734.054087178974
 20
794.77239141297
 10
-2734.350931079894
 20
795.413028184532
 10
-2734.658758265669
 20
796.049388940332
 10
-2734.976618392481
 20
796.680570216972
 10
-2735.30356111651
 20
797.305668551042
 10
-2735.638636093933
 20
797.923780479144
 10
-2735.980892980931
 20
798.534002537874
 10
-2736.239185655735
 20
798.982120060822
 10
-2736.499801955925
 20
799.426909071612
 10
-2736.761624603811
 20
799.869896500038
 10
-2737.0235363217
 20
800.312609275896
 10
-2737.284419831899
 20
800.756574328984
 10
-2737.543157856721
 20
801.203318589094
 10
-2737.798633118471
 20
801.654368986026
 10
-2738.049728339459
 20
802.111252449574
 10
-2738.295326241991
 20
802.575495909534
 10
-2738.534309548381
 20
803.048626295702
 10
-2738.765560980932
 20
803.532170537874
 10
-2738.926993461338
 20
803.885428916062
 10
-2739.088946755864
 20
804.239913758744
 10
-2739.256496270204
 20
804.590705697996
 10
-2739.434717410046
 20
804.932885365896
 10
-2739.628685581078
 20
805.261533394522
 10
-2739.843476188994
 20
805.571730415952
 10
-2740.084164639479
 20
805.858557062262
 10
-2740.355826338227
 20
806.117093965532
 10
-2740.663536690926
 20
806.34242175784
 10
-2741.012371103264
 20
806.52962107126
 10
-2741.407404980931
 20
806.673772537874
 10
-2741.846258080313
 20
806.771263661646
 10
-2742.319483857135
 20
806.828178969956
 10
-2742.811033491082
 20
806.851111538492
 10
-2743.304858161833
 20
806.846654442948
 10
-2743.784909049074
 20
806.821400759012
 10
-2744.235137332481
 20
806.781943562376
 10
-2744.639494191742
 20
806.73487592873
 10
-2744.981930806535
 20
806.686790933768
 10
-2745.246398356543
 20
806.644281653176
 10
-2745.416848021449
 20
806.613941162648
 10
-2745.477230980931
 20
806.602362537874
  0
LINE
  5
3343
330
3314
100
AcDbEntity
  8
外形線
100
AcDbLine
 10
-2727.912532980931
 20
787.162664537874
 30
0.0
 11
-2723.639743266303
 21
786.801733142958
 31
0.0
  0
LINE
  5
3344
330
3314
100
AcDbEntity
  8
外形線
100
AcDbLine
 10
-2745.477230980931
 20
806.602362537874
 30
0.0
 11
-2760.043024980931
 21
804.603094537874
 31
0.0
  0
ARC
  5
3345
330
3314
100
AcDbEntity
  8
外形線
100
AcDbCircle
 10
-2758.924616980931
 20
802.060124537874
 30
0.0
 40
2.778136
100
AcDbArc
 50
113.741117770862
 51
176.718232188895
  0
LINE
  5
3346
330
3314
100
AcDbEntity
  8
細線
100
AcDbLine
 10
-2665.991042960005
 20
799.934392537874
 30
0.0
 11
-2665.991042960005
 21
788.510320537874
 31
0.0
  0
ARC
  5
3347
330
3314
100
AcDbEntity
  8
細線
100
AcDbCircle
 10
-2704.082716960005
 20
753.578984537874
 30
0.0
 40
36.766532
100
AcDbArc
 50
68.885514212383
 51
115.211785839404
  0
LINE
  5
3348
330
3314
100
AcDbEntity
  8
細線
100
AcDbLine
 10
-2665.991042960005
 20
785.083196537874
 30
0.0
 11
-2665.991042960005
 21
779.779118537874
 31
0.0
  0
LINE
  5
3349
330
3314
100
AcDbEntity
  8
細線
100
AcDbLine
 10
-2687.982254960006
 20
779.779118537874
 30
0.0
 11
-2690.838210960005
 21
787.877103088648
 31
0.0
  0
ARC
  5
334A
330
3314
100
AcDbEntity
  8
外形線
100
AcDbCircle
 10
-2688.060159702001
 20
778.779118537874
 30
0.0
 40
1.0
100
AcDbArc
 50
90.0
 51
172.420956229591
  0
LINE
  5
334B
330
3314
100
AcDbEntity
  8
外形線
100
AcDbLine
 10
-2688.060159702001
 20
779.779118537874
 30
0.0
 11
-2665.991042960005
 21
779.779118537874
 31
0.0
  0
LINE
  5
334C
330
3314
100
AcDbEntity
  8
外形線
100
AcDbLine
 10
-2681.699050960005
 20
799.934392537874
 30
0.0
 11
-2665.901932960005
 21
799.934392537874
 31
0.0
  0
LINE
  5
334D
330
3314
100
AcDbEntity
  8
外形線
100
AcDbLine
 10
-2681.699050960005
 20
807.931096537874
 30
0.0
 11
-2665.991042960005
 21
807.931096537874
 31
0.0
  0
LINE
  5
334E
330
3314
100
AcDbEntity
  8
外形線
100
AcDbLine
 10
-2745.477230980931
 20
854.955876537874
 30
0.0
 11
-2760.043024980931
 21
856.955144537874
 31
0.0
  0
ARC
  5
334F
330
3314
100
AcDbEntity
  8
外形線
100
AcDbCircle
 10
-2758.924616980931
 20
859.498236537874
 30
0.0
 40
2.778136
100
AcDbArc
 50
183.281807506792
 51
246.258864629059
  0
LINE
  5
3350
330
3314
100
AcDbEntity
  8
細線
100
AcDbLine
 10
-2665.991042960005
 20
835.063176537874
 30
0.0
 11
-2665.991042960005
 21
853.627142537874
 31
0.0
  0
LINE
  5
3351
330
3314
100
AcDbEntity
  8
外形線
100
AcDbLine
 10
-2681.699050960005
 20
835.063176537874
 30
0.0
 11
-2665.991042960005
 21
835.063176537874
 31
0.0
  0
LINE
  5
3352
330
3314
100
AcDbEntity
  8
外形線
100
AcDbLine
 10
-2681.699050960005
 20
826.495184537874
 30
0.0
 11
-2665.991042960005
 21
826.495184537874
 31
0.0
  0
LINE
  5
3353
330
3314
100
AcDbEntity
  8
外形線
100
AcDbLine
 10
-2681.699050960005
 20
853.627142537874
 30
0.0
 11
-2665.991042960005
 21
853.627142537874
 31
0.0
  0
LINE
  5
3354
330
3314
100
AcDbEntity
  8
外形線
100
AcDbLine
 10
-2681.699050960005
 20
861.623968537874
 30
0.0
 11
-2665.901932960005
 21
861.623968537874
 31
0.0
  0
LINE
  5
3355
330
3314
100
AcDbEntity
  8
外形線
100
AcDbLine
 10
-2621.722976960005
 20
807.359930537874
 30
0.0
 11
-2621.722976960005
 21
824.781560537874
 31
0.0
  0
LINE
  5
3356
330
3314
100
AcDbEntity
  8
外形線
100
AcDbLine
 10
-2631.433426960005
 20
830.779118537874
 30
0.0
 11
-2631.433426960005
 21
788.290838537874
 31
0.0
  0
ARC
  5
3357
330
3314
100
AcDbEntity
  8
外形線
100
AcDbCircle
 10
-2636.288650960006
 20
788.290838537874
 30
0.0
 40
4.8552
100
AcDbArc
 50
272.650733067261
 51
359.999982399901
  0
ARC
  5
3358
330
3314
100
AcDbEntity
  8
外形線
100
AcDbCircle
 10
-2664.004958960005
 20
786.796698537874
 30
0.0
 40
1.714446
100
AcDbArc
 50
271.804703586974
 51
88.195318508605
  0
LINE
  5
3359
330
3314
100
AcDbEntity
  8
外形線
100
AcDbLine
 10
-2662.278274960006
 20
782.227116537874
 30
0.0
 11
-2636.064040960006
 21
783.440802537874
 31
0.0
  0
ARC
  5
335A
330
3314
100
AcDbEntity
  8
外形線
100
AcDbCircle
 10
-2623.585158960005
 20
799.511052537874
 30
0.0
 40
1.86215
100
AcDbArc
 50
268.482178628784
 51
83.815801009983
  0
ARC
  5
335B
330
3314
100
AcDbEntity
  8
外形線
100
AcDbCircle
 10
-2623.722244960006
 20
807.359930537874
 30
0.0
 40
1.9992
100
AcDbArc
 50
270.0
 51
359.999982399901
  0
ARC
  5
335C
330
3314
100
AcDbEntity
  8
外形線
100
AcDbCircle
 10
-2629.432936960005
 20
803.361608537874
 30
0.0
 40
2.000724
100
AcDbArc
 50
87.757023395436
 51
272.242959004484
  0
LINE
  5
335D
330
3314
100
AcDbEntity
  8
外形線
100
AcDbLine
 10
-2629.354690960005
 20
801.362370537874
 30
0.0
 11
-2623.384598960006
 21
801.362370537874
 31
0.0
  0
LINE
  5
335E
330
3314
100
AcDbEntity
  8
外形線
100
AcDbLine
 10
-2631.433426960005
 20
797.649602537874
 30
0.0
 11
-2623.634476960005
 21
797.649602537874
 31
0.0
  0
LINE
  5
335F
330
3314
100
AcDbEntity
  8
外形線
100
AcDbLine
 10
-2629.354628960005
 20
805.360784537874
 30
0.0
 11
-2623.722244960006
 21
805.360784537874
 31
0.0
  0
LINE
  5
3360
330
3314
100
AcDbEntity
  8
外形線
100
AcDbLine
 10
-2621.722976960005
 20
854.198308537874
 30
0.0
 11
-2621.722976960005
 21
836.776678537874
 31
0.0
  0
ARC
  5
3361
330
3314
100
AcDbEntity
  8
外形線
100
AcDbCircle
 10
-2623.722244960006
 20
836.776678537874
 30
0.0
 40
1.9992
100
AcDbArc
 50
270.0
 51
359.999982399908
  0
ARC
  5
3362
330
3314
100
AcDbEntity
  8
外形線
100
AcDbCircle
 10
-2629.279006960005
 20
832.632024537874
 30
0.0
 40
2.15556
100
AcDbArc
 50
95.512637406103
 51
178.08903371374
  0
LINE
  5
3363
330
3314
100
AcDbEntity
  8
外形線
100
AcDbLine
 10
-2629.486038960005
 20
834.777532537874
 30
0.0
 11
-2623.722244960006
 21
834.777532537874
 31
0.0
  0
LINE
  5
3364
330
3314
100
AcDbEntity
  8
外形線
100
AcDbLine
 10
-2629.486038960005
 20
826.780828537874
 30
0.0
 11
-2623.722244960006
 21
826.780828537874
 31
0.0
  0
ARC
  5
3365
330
3314
100
AcDbEntity
  8
外形線
100
AcDbCircle
 10
-2623.722244960006
 20
824.781560537874
 30
0.0
 40
1.9992
100
AcDbArc
 50
0.0
 51
89.999981276021
  0
ARC
  5
3366
330
3314
100
AcDbEntity
  8
外形線
100
AcDbCircle
 10
-2629.279006960005
 20
828.926336537874
 30
0.0
 40
2.15556
100
AcDbArc
 50
181.910948686163
 51
264.487402289583
  0
LINE
  5
3367
330
3314
100
AcDbEntity
  8
外形線
100
AcDbLine
 10
-2631.433426960005
 20
863.908758537874
 30
0.0
 11
-2623.634476960005
 21
863.908758537874
 31
0.0
  0
ARC
  5
3368
330
3314
100
AcDbEntity
  8
外形線
100
AcDbCircle
 10
-2623.722244960006
 20
854.198308537874
 30
0.0
 40
1.9992
100
AcDbArc
 50
0.0
 51
89.999981276021
  0
ARC
  5
3369
330
3314
100
AcDbEntity
  8
外形線
100
AcDbCircle
 10
-2629.434218960006
 20
858.196722537874
 30
0.0
 40
2.000726
100
AcDbArc
 50
87.722187561485
 51
272.27785213419
  0
LINE
  5
336A
330
3314
100
AcDbEntity
  8
外形線
100
AcDbLine
 10
-2629.354690960005
 20
856.197576537874
 30
0.0
 11
-2623.722244960006
 21
856.197576537874
 31
0.0
  0
LINE
  5
336B
330
3314
100
AcDbEntity
  8
外形線
100
AcDbLine
 10
-2629.354690960005
 20
860.195866537874
 30
0.0
 11
-2623.384598960006
 21
860.195866537874
 31
0.0
  0
ARC
  5
336C
330
3314
100
AcDbEntity
  8
外形線
100
AcDbCircle
 10
-2623.585158960005
 20
862.047308537874
 30
0.0
 40
1.86215
100
AcDbArc
 50
276.18422108563
 51
91.517843466792
  0
LINE
  5
336D
330
3314
100
AcDbEntity
  8
中心線
 48
10.0
100
AcDbLine
 10
-2781.852691728484
 20
895.779118537874
 30
0.0
 11
-2749.248855775376
 21
895.779118537874
 31
0.0
  0
LINE
  5
336E
330
3314
100
AcDbEntity
  8
外形線
100
AcDbLine
 10
-2663.950942960006
 20
873.047918537874
 30
0.0
 11
-2681.699050960005
 21
873.047918537874
 31
0.0
  0
LINE
  5
336F
330
3314
100
AcDbEntity
  8
外形線
100
AcDbLine
 10
-2663.950942960006
 20
876.475164537874
 30
0.0
 11
-2681.699050960005
 21
876.475164537874
 31
0.0
  0
LINE
  5
3370
330
3314
100
AcDbEntity
  8
外形線
100
AcDbLine
 10
-2665.991042960005
 20
881.779118537874
 30
0.0
 11
-2662.278274960006
 21
879.331120537874
 31
0.0
  0
LINE
  5
3371
330
3314
100
AcDbEntity
  8
外形線
100
AcDbLine
 10
-2727.912532980931
 20
874.395574537874
 30
0.0
 11
-2690.838210960005
 21
876.475164537874
 31
0.0
  0
LINE
  5
3372
330
3314
100
AcDbEntity
  8
外形線
100
AcDbLine
 10
-2771.698196960006
 20
908.279118537874
 30
0.0
 11
-2761.698196960006
 21
908.279118537874
 31
0.0
  0
LINE
  5
3373
330
3314
100
AcDbEntity
  8
外形線
100
AcDbLine
 10
-2687.982254960006
 20
881.779118537874
 30
0.0
 11
-2665.991042960005
 21
881.779118537874
 31
0.0
  0
LINE
  5
3374
330
3314
100
AcDbEntity
  8
外形線
100
AcDbLine
 10
-2690.838210960005
 20
876.475164537874
 30
0.0
 11
-2687.982254960006
 21
881.779118537874
 31
0.0
  0
LINE
  5
3375
330
3314
100
AcDbEntity
  8
細線
100
AcDbLine
 10
-2665.991042960005
 20
876.475164537874
 30
0.0
 11
-2665.991042960005
 21
881.779118537874
 31
0.0
  0
ARC
  5
3376
330
3314
100
AcDbEntity
  8
外形線
100
AcDbCircle
 10
-2636.288650960006
 20
873.267522537874
 30
0.0
 40
4.8552
100
AcDbArc
 50
0.0
 51
87.349306628423
  0
ARC
  5
3377
330
3314
100
AcDbEntity
  8
外形線
100
AcDbCircle
 10
-2664.004958960005
 20
874.761540537874
 30
0.0
 40
1.714446
100
AcDbArc
 50
271.804703586974
 51
88.195318508605
  0
LINE
  5
3378
330
3314
100
AcDbEntity
  8
外形線
100
AcDbLine
 10
-2662.278274960006
 20
879.331120537874
 30
0.0
 11
-2636.064040960006
 21
878.117498537874
 31
0.0
  0
ENDBLK
  5
3379
330
3314
100
AcDbEntity
  8
0
 48
10.0
100
AcDbBlockEnd
  0
BLOCK
  5
3499
330
3498
100
AcDbEntity
  8
0
 48
10.0
100
AcDbBlockBegin
  2
A$C480F1F2B
 70
     0
 10
0.0
 20
0.0
 30
0.0
  3
A$C480F1F2B
  1
A$C480F1F2B
  0
LINE
  5
349A
330
3498
100
AcDbEntity
  8
外形線
100
AcDbLine
 10
8.500001501512
 20
2.385002184348
 30
0.0
 11
8.500001501512
 21
14.179664684348
 31
0.0
  0
ARC
  5
349B
330
3498
100
AcDbEntity
  8
細線
100
AcDbCircle
 10
1.216144001512
 20
8.282372184348
 30
0.0
 40
7.2838425
100
AcDbArc
 50
326.010120640452
 51
33.98932849733
  0
ARC
  5
349C
330
3498
100
AcDbEntity
  8
細線
100
AcDbCircle
 10
4.911364001511
 20
1.275229684348
 30
0.0
 40
3.7563025
100
AcDbArc
 50
17.184150191555
 51
51.38761061704
  0
LINE
  5
349D
330
3498
100
AcDbEntity
  8
細線
100
AcDbLine
 10
2.000001501511
 20
4.210487184348
 30
0.0
 11
7.255442473881
 21
4.210487184348
 31
0.0
  0
LINE
  5
349E
330
3498
100
AcDbEntity
  8
外形線
100
AcDbLine
 10
2.000001501511
 20
16.564818684348
 30
0.0
 11
2.000001501511
 21
0.000000684348
 31
0.0
  0
LINE
  5
349F
330
3498
100
AcDbEntity
  8
外形線
100
AcDbLine
 10
0.000001501512
 20
16.564818684348
 30
0.0
 11
0.000001501512
 21
0.000000684348
 31
0.0
  0
LINE
  5
34A0
330
3498
100
AcDbEntity
  8
外形線
100
AcDbLine
 10
6.114929777464
 20
0.000000684348
 30
0.0
 11
8.499926501511
 21
2.385079684348
 31
0.0
  0
LINE
  5
34A1
330
3498
100
AcDbEntity
  8
外形線
100
AcDbLine
 10
0.000001501512
 20
0.000000684348
 30
0.0
 11
6.114929777464
 21
0.000000684348
 31
0.0
  0
ARC
  5
34A2
330
3498
100
AcDbEntity
  8
細線
100
AcDbCircle
 10
4.911364001511
 20
15.289437184348
 30
0.0
 40
3.7563025
100
AcDbArc
 50
308.612371782873
 51
342.81588950412
  0
LINE
  5
34A3
330
3498
100
AcDbEntity
  8
細線
100
AcDbLine
 10
2.000001501511
 20
12.354369684348
 30
0.0
 11
7.25548242852
 21
12.354369684348
 31
0.0
  0
LINE
  5
34A4
330
3498
100
AcDbEntity
  8
外形線
100
AcDbLine
 10
6.11493439904
 20
16.564818684348
 30
0.0
 11
8.499926501511
 21
14.179664684348
 31
0.0
  0
LINE
  5
34A5
330
3498
100
AcDbEntity
  8
外形線
100
AcDbLine
 10
0.000001501512
 20
16.564818684348
 30
0.0
 11
6.11493439904
 21
16.564818684348
 31
0.0
  0
ENDBLK
  5
34A6
330
3498
100
AcDbEntity
  8
0
 48
10.0
100
AcDbBlockEnd
  0
BLOCK
  5
383C
330
3832
100
AcDbEntity
  8
0
 62
     3
 48
10.0
100
AcDbBlockBegin
  2
*D6
 70
     1
 10
0.0
 20
0.0
 30
0.0
  3
*D6
  1
*D6
  0
LINE
  5
528B
330
3832
100
AcDbEntity
  8
寸法線
 62
     0
 48
10.0
100
AcDbLine
 10
-278.870103924477
 20
922.96353792108
 30
0.0
 11
-278.762660569697
 21
922.347842439924
 31
0.0
  0
LINE
  5
528C
330
3832
100
AcDbEntity
  8
寸法線
 62
     0
 48
10.0
100
AcDbLine
 10
-126.177624598222
 20
949.609489906349
 30
0.0
 11
-126.070181243442
 21
948.993794425193
 31
0.0
  0
LINE
  5
528D
330
3832
100
AcDbEntity
  8
寸法線
 62
     0
 48
10.0
100
AcDbLine
 10
-273.066870660175
 20
924.610689608114
 30
0.0
 11
-132.195744572082
 21
949.19372918162
 31
0.0
  0
INSERT
  5
528E
330
3832
100
AcDbEntity
  8
寸法線
 62
     0
 48
10.0
100
AcDbBlockReference
  2
_OPEN30
 10
-278.977547279256
 20
923.579233402232
 30
0.0
 41
6.0
 42
6.0
 43
6.0
 50
189.898852315621
  0
INSERT
  5
528F
330
3832
100
AcDbEntity
  8
寸法線
 62
     0
 48
10.0
100
AcDbBlockReference
  2
_OPEN30
 10
-126.285067953001
 20
950.225185387501
 30
0.0
 41
6.0
 42
6.0
 43
6.0
 50
9.898852315621
  0
MTEXT
  5
5290
330
3832
100
AcDbEntity
  8
寸法線
 62
     0
 48
10.0
100
AcDbMText
 10
-157.554240954552
 20
949.463380464746
 30
0.0
 40
8.0
 41
0.0
 71
     5
 72
     1
  1
\A1;φ155
 11
0.9851127698468048
 21
0.1719093676468983
 31
0.0
  0
POINT
  5
5291
330
3832
100
AcDbEntity
  8
DEFPOINTS
 62
     0
 48
10.0
100
AcDbPoint
 10
-278.977547279256
 20
923.579233402234
 30
0.0
  0
POINT
  5
5292
330
3832
100
AcDbEntity
  8
DEFPOINTS
 62
     0
 48
10.0
100
AcDbPoint
 10
-126.285067953001
 20
950.225185387503
 30
0.0
  0
POINT
  5
5293
330
3832
100
AcDbEntity
  8
DEFPOINTS
 62
     0
 48
10.0
100
AcDbPoint
 10
-126.285067953001
 20
950.225185387501
 30
0.0
  0
ENDBLK
  5
383D
330
3832
100
AcDbEntity
  8
0
 62
     3
 48
10.0
100
AcDbBlockEnd
  0
BLOCK
  5
3848
330
383E
100
AcDbEntity
  8
0
 62
     3
 48
10.0
100
AcDbBlockBegin
  2
*D7
 70
     1
 10
0.0
 20
0.0
 30
0.0
  3
*D7
  1
*D7
  0
LINE
  5
5282
330
383E
100
AcDbEntity
  8
寸法線
 62
     0
 48
10.0
100
AcDbLine
 10
-261.020524183706
 20
908.3432940012
 30
0.0
 11
-260.751327595086
 21
907.779238864998
 31
0.0
  0
LINE
  5
5283
330
383E
100
AcDbEntity
  8
寸法線
 62
     0
 48
10.0
100
AcDbLine
 10
-143.697056678967
 20
964.336184040191
 30
0.0
 11
-143.427860090348
 21
963.772128903989
 31
0.0
  0
LINE
  5
5284
330
383E
100
AcDbEntity
  8
寸法線
 62
     0
 48
10.0
100
AcDbLine
 10
-255.874791464788
 20
911.491636388148
 30
0.0
 11
-149.381182575124
 21
962.315951925646
 31
0.0
  0
INSERT
  5
5285
330
383E
100
AcDbEntity
  8
寸法線
 62
     0
 48
10.0
100
AcDbBlockReference
  2
_OPEN30
 10
-261.289720772325
 20
908.907349137401
 30
0.0
 41
6.0
 42
6.0
 43
6.0
 50
205.512915306565
  0
INSERT
  5
5286
330
383E
100
AcDbEntity
  8
寸法線
 62
     0
 48
10.0
100
AcDbBlockReference
  2
_OPEN30
 10
-143.966253267587
 20
964.900239176393
 30
0.0
 41
6.0
 42
6.0
 43
6.0
 50
25.512915306565
  0
MTEXT
  5
5287
330
383E
100
AcDbEntity
  8
寸法線
 62
     0
 48
10.0
100
AcDbMText
 10
-162.730617468646
 20
961.069624593062
 30
0.0
 40
8.0
 41
0.0
 71
     5
 72
     1
  1
\A1;φ130
 11
0.9024882179229283
 21
0.4307145417910766
 31
0.0
  0
POINT
  5
5288
330
383E
100
AcDbEntity
  8
DEFPOINTS
 62
     0
 48
10.0
100
AcDbPoint
 10
-261.289720772325
 20
908.907349137402
 30
0.0
  0
POINT
  5
5289
330
383E
100
AcDbEntity
  8
DEFPOINTS
 62
     0
 48
10.0
100
AcDbPoint
 10
-143.966253267587
 20
964.900239176393
 30
0.0
  0
POINT
  5
528A
330
383E
100
AcDbEntity
  8
DEFPOINTS
 62
     0
 48
10.0
100
AcDbPoint
 10
-143.966253267587
 20
964.900239176393
 30
0.0
  0
ENDBLK
  5
3849
330
383E
100
AcDbEntity
  8
0
 62
     3
 48
10.0
100
AcDbBlockEnd
  0
BLOCK
  5
386E
330
3862
100
AcDbEntity
  8
0
 62
     3
 48
10.0
100
AcDbBlockBegin
  2
*D8
 70
     1
 10
0.0
 20
0.0
 30
0.0
  3
*D8
  1
*D8
  0
LINE
  5
525A
330
3862
100
AcDbEntity
  8
寸法線
 62
     0
 48
10.0
100
AcDbLine
 10
-204.049766082374
 20
906.443452666345
 30
0.0
 11
-204.049766082374
 21
907.073012811691
 31
0.0
  0
LINE
  5
525B
330
3862
100
AcDbEntity
  8
寸法線
 62
     0
 48
10.0
100
AcDbLine
 10
-201.193761567839
 20
906.443452666345
 30
0.0
 11
-201.193761567839
 21
907.073012811691
 31
0.0
  0
LINE
  5
525C
330
3862
100
AcDbEntity
  8
寸法線
 62
     0
 48
10.0
100
AcDbLine
 10
-210.049766082374
 20
905.823012811691
 30
0.0
 11
-216.049766082374
 21
905.823012811691
 31
0.0
  0
LINE
  5
525D
330
3862
100
AcDbEntity
  8
寸法線
 62
     0
 48
10.0
100
AcDbLine
 10
-195.193761567839
 20
905.823012811691
 30
0.0
 11
-178.01239071794
 21
905.823012811691
 31
0.0
  0
LINE
  5
525E
330
3862
100
AcDbEntity
  8
寸法線
 62
     0
 48
10.0
100
AcDbLine
 10
-204.049766082374
 20
905.823012811691
 30
0.0
 11
-201.193761567839
 21
905.823012811691
 31
0.0
  0
INSERT
  5
525F
330
3862
100
AcDbEntity
  8
寸法線
 62
     0
 48
10.0
100
AcDbBlockReference
  2
_OPEN30
 10
-204.049766082374
 20
905.823012811691
 30
0.0
 41
6.0
 42
6.0
 43
6.0
  0
INSERT
  5
5260
330
3862
100
AcDbEntity
  8
寸法線
 62
     0
 48
10.0
100
AcDbBlockReference
  2
_OPEN30
 10
-201.193761567839
 20
905.823012811691
 30
0.0
 41
6.0
 42
6.0
 43
6.0
 50
180.0
  0
MTEXT
  5
5261
330
3862
100
AcDbEntity
  8
寸法線
 62
     0
 48
10.0
100
AcDbMText
 10
-183.603076142889
 20
910.448012811691
 30
0.0
 40
8.0
 41
0.0
 71
     5
 72
     1
  1
\A1;1.5
  0
POINT
  5
5262
330
3862
100
AcDbEntity
  8
DEFPOINTS
 62
     0
 48
10.0
100
AcDbPoint
 10
-204.049766082374
 20
905.818452666345
 30
0.0
  0
POINT
  5
5263
330
3862
100
AcDbEntity
  8
DEFPOINTS
 62
     0
 48
10.0
100
AcDbPoint
 10
-201.193761567839
 20
905.818452666345
 30
0.0
  0
POINT
  5
5264
330
3862
100
AcDbEntity
  8
DEFPOINTS
 62
     0
 48
10.0
100
AcDbPoint
 10
-201.193761567839
 20
905.823012811691
 30
0.0
  0
ENDBLK
  5
386F
330
3862
100
AcDbEntity
  8
0
 62
     3
 48
10.0
100
AcDbBlockEnd
  0
BLOCK
  5
3E9E
330
3E9A
100
AcDbEntity
  8
0
 62
     3
 48
10.0
100
AcDbBlockBegin
  2
A$C25AB0491
 70
     0
 10
0.0
 20
0.0
 30
0.0
  3
A$C25AB0491
  1
A$C25AB0491
  0
MTEXT
  5
3E9B
330
3E9A
100
AcDbEntity
  8
寸法線
 48
10.0
100
AcDbMText
 10
34.399999932068
 20
-0.396850049732
 30
0.0
 40
8.0
 41
0.0
 71
     9
 72
     1
  1
\A1;SUS304
  0
ENDBLK
  5
3E9F
330
3E9A
100
AcDbEntity
  8
0
 62
     3
 48
10.0
100
AcDbBlockEnd
  0
BLOCK
  5
42E9
330
42E8
100
AcDbEntity
  8
0
100
AcDbBlockBegin
  2
_DATUMFILLED
 70
     0
 10
0.0
 20
0.0
 30
0.0
  3
_DATUMFILLED
  1
_DATUMFILLED
  0
SOLID
  5
42EA
330
42E8
100
AcDbEntity
  8
0
  6
BYBLOCK
 62
     0
100
AcDbTrace
 10
0.0
 20
0.57735027
 30
0.0
 11
-1.0
 21
0.0
 31
0.0
 12
0.0
 22
-0.57735027
 32
0.0
 13
0.0
 23
-0.57735027
 33
0.0
  0
ENDBLK
  5
42EB
330
42E8
100
AcDbEntity
  8
0
100
AcDbBlockEnd
  0
BLOCK
  5
4D19
330
4D0F
100
AcDbEntity
  8
0
 62
     1
 48
10.0
100
AcDbBlockBegin
  2
*D11
 70
     1
 10
0.0
 20
0.0
 30
0.0
  3
*D11
  1
*D11
  0
LINE
  5
5251
330
4D0F
100
AcDbEntity
  8
寸法線
 62
     0
 48
10.0
100
AcDbLine
 10
73.144511349386
 20
925.909742680163
 30
0.0
 11
73.144511349386
 21
919.909742680163
 31
0.0
  0
LINE
  5
5252
330
4D0F
100
AcDbEntity
  8
寸法線
 62
     0
 48
10.0
100
AcDbLine
 10
73.144511349386
 20
947.909665180162
 30
0.0
 11
73.144511349386
 21
971.565964392761
 31
0.0
  0
LINE
  5
5253
330
4D0F
100
AcDbEntity
  8
寸法線
 62
     0
 48
10.0
100
AcDbLine
 10
73.144511349386
 20
931.909742680163
 30
0.0
 11
73.144511349386
 21
941.909665180162
 31
0.0
  0
INSERT
  5
5254
330
4D0F
100
AcDbEntity
  8
寸法線
 62
     0
 48
10.0
100
AcDbBlockReference
  2
_OPEN30
 10
73.144511349386
 20
931.909742680163
 30
0.0
 41
6.0
 42
6.0
 43
6.0
 50
90.0
  0
INSERT
  5
5255
330
4D0F
100
AcDbEntity
  8
寸法線
 62
     0
 48
10.0
100
AcDbBlockReference
  2
_OPEN30
 10
73.144511349386
 20
941.909665180162
 30
0.0
 41
6.0
 42
6.0
 43
6.0
 50
270.0
  0
MTEXT
  5
5256
330
4D0F
100
AcDbEntity
  8
寸法線
 62
     0
 48
10.0
100
AcDbMText
 10
68.519511349386
 20
962.737814786462
 30
0.0
 40
8.0
 41
0.0
 71
     5
 72
     1
  1
\A1;φ10
 11
6.123031769111886E-17
 21
1.0
 31
0.0
  0
POINT
  5
5257
330
4D0F
100
AcDbEntity
  8
DEFPOINTS
 62
     0
 48
10.0
100
AcDbPoint
 10
71.336918956823
 20
941.909665180162
 30
0.0
  0
POINT
  5
5258
330
4D0F
100
AcDbEntity
  8
DEFPOINTS
 62
     0
 48
10.0
100
AcDbPoint
 10
71.336918956823
 20
931.909742680163
 30
0.0
  0
POINT
  5
5259
330
4D0F
100
AcDbEntity
  8
DEFPOINTS
 62
     0
 48
10.0
100
AcDbPoint
 10
73.144511349386
 20
931.909742680163
 30
0.0
  0
ENDBLK
  5
4D1A
330
4D0F
100
AcDbEntity
  8
0
 62
     1
 48
10.0
100
AcDbBlockEnd
  0
BLOCK
  5
4D3D
330
4D33
100
AcDbEntity
  8
0
 62
     1
 48
10.0
100
AcDbBlockBegin
  2
*D12
 70
     1
 10
0.0
 20
0.0
 30
0.0
  3
*D12
  1
*D12
  0
LINE
  5
5248
330
4D33
100
AcDbEntity
  8
寸法線
 62
     0
 48
10.0
100
AcDbLine
 10
-42.110819754631
 20
976.902209394869
 30
0.0
 11
-61.157547470858
 21
976.902209394869
 31
0.0
  0
LINE
  5
5249
330
4D33
100
AcDbEntity
  8
寸法線
 62
     0
 48
10.0
100
AcDbLine
 10
-42.110819754631
 20
896.902209394869
 30
0.0
 11
-61.157547470858
 21
896.902209394869
 31
0.0
  0
LINE
  5
524A
330
4D33
100
AcDbEntity
  8
寸法線
 62
     0
 48
10.0
100
AcDbLine
 10
-59.907547470858
 20
970.902209394869
 30
0.0
 11
-59.907547470858
 21
902.902209394869
 31
0.0
  0
INSERT
  5
524B
330
4D33
100
AcDbEntity
  8
寸法線
 62
     0
 48
10.0
100
AcDbBlockReference
  2
_OPEN30
 10
-59.907547470858
 20
976.902209394869
 30
0.0
 41
6.0
 42
6.0
 43
6.0
 50
90.0
  0
INSERT
  5
524C
330
4D33
100
AcDbEntity
  8
寸法線
 62
     0
 48
10.0
100
AcDbBlockReference
  2
_OPEN30
 10
-59.907547470858
 20
896.902209394869
 30
0.0
 41
6.0
 42
6.0
 43
6.0
 50
270.0
  0
MTEXT
  5
524D
330
4D33
100
AcDbEntity
  8
寸法線
 62
     0
 48
10.0
100
AcDbMText
 10
-64.532547470858
 20
936.902209394869
 30
0.0
 40
8.0
 41
0.0
 71
     5
 72
     1
  1
\A1;80
 11
6.123031769111886E-17
 21
1.0
 31
0.0
  0
POINT
  5
524E
330
4D33
100
AcDbEntity
  8
DEFPOINTS
 62
     0
 48
10.0
100
AcDbPoint
 10
-41.485819754631
 20
976.902209394869
 30
0.0
  0
POINT
  5
524F
330
4D33
100
AcDbEntity
  8
DEFPOINTS
 62
     0
 48
10.0
100
AcDbPoint
 10
-41.485819754631
 20
896.902209394869
 30
0.0
  0
POINT
  5
5250
330
4D33
100
AcDbEntity
  8
DEFPOINTS
 62
     0
 48
10.0
100
AcDbPoint
 10
-59.907547470858
 20
896.902209394869
 30
0.0
  0
ENDBLK
  5
4D3E
330
4D33
100
AcDbEntity
  8
0
 62
     1
 48
10.0
100
AcDbBlockEnd
  0
BLOCK
  5
4D49
330
4D3F
100
AcDbEntity
  8
0
 62
     1
 48
10.0
100
AcDbBlockBegin
  2
*D13
 70
     1
 10
0.0
 20
0.0
 30
0.0
  3
*D13
  1
*D13
  0
LINE
  5
523F
330
4D3F
100
AcDbEntity
  8
寸法線
 62
     0
 48
10.0
100
AcDbLine
 10
-41.485819754631
 20
896.277209394869
 30
0.0
 11
-41.485819754631
 21
877.126152209297
 31
0.0
  0
LINE
  5
5240
330
4D3F
100
AcDbEntity
  8
寸法線
 62
     0
 48
10.0
100
AcDbLine
 10
38.514180245369
 20
924.277209394869
 30
0.0
 11
38.514180245369
 21
877.126152209297
 31
0.0
  0
LINE
  5
5241
330
4D3F
100
AcDbEntity
  8
寸法線
 62
     0
 48
10.0
100
AcDbLine
 10
-35.485819754631
 20
878.376152209297
 30
0.0
 11
32.514180245369
 21
878.376152209297
 31
0.0
  0
INSERT
  5
5242
330
4D3F
100
AcDbEntity
  8
寸法線
 62
     0
 48
10.0
100
AcDbBlockReference
  2
_OPEN30
 10
-41.485819754631
 20
878.376152209297
 30
0.0
 41
6.0
 42
6.0
 43
6.0
 50
180.0
  0
INSERT
  5
5243
330
4D3F
100
AcDbEntity
  8
寸法線
 62
     0
 48
10.0
100
AcDbBlockReference
  2
_OPEN30
 10
38.514180245369
 20
878.376152209297
 30
0.0
 41
6.0
 42
6.0
 43
6.0
  0
MTEXT
  5
5244
330
4D3F
100
AcDbEntity
  8
寸法線
 62
     0
 48
10.0
100
AcDbMText
 10
-1.485819754631
 20
883.001152209297
 30
0.0
 40
8.0
 41
0.0
 71
     5
 72
     1
  1
\A1;80
  0
POINT
  5
5245
330
4D3F
100
AcDbEntity
  8
DEFPOINTS
 62
     0
 48
10.0
100
AcDbPoint
 10
-41.485819754631
 20
896.902209394869
 30
0.0
  0
POINT
  5
5246
330
4D3F
100
AcDbEntity
  8
DEFPOINTS
 62
     0
 48
10.0
100
AcDbPoint
 10
38.514180245369
 20
924.902209394869
 30
0.0
  0
POINT
  5
5247
330
4D3F
100
AcDbEntity
  8
DEFPOINTS
 62
     0
 48
10.0
100
AcDbPoint
 10
38.514180245369
 20
878.376152209297
 30
0.0
  0
ENDBLK
  5
4D4A
330
4D3F
100
AcDbEntity
  8
0
 62
     1
 48
10.0
100
AcDbBlockEnd
  0
BLOCK
  5
4D64
330
4D59
100
AcDbEntity
  8
0
 62
     1
 48
10.0
100
AcDbBlockBegin
  2
*D14
 70
     1
 10
0.0
 20
0.0
 30
0.0
  3
*D14
  1
*D14
  0
LINE
  5
5235
330
4D59
100
AcDbEntity
  8
寸法線
 62
     0
 48
10.0
100
AcDbLine
 10
189.455602245369
 20
953.702197394869
 30
0.0
 11
188.830602245369
 21
953.702197394869
 31
0.0
  0
LINE
  5
5236
330
4D59
100
AcDbEntity
  8
寸法線
 62
     0
 48
10.0
100
AcDbLine
 10
189.455602245369
 20
920.102221394869
 30
0.0
 11
188.830602245369
 21
920.102221394869
 31
0.0
  0
LINE
  5
5237
330
4D59
100
AcDbEntity
  8
寸法線
 62
     0
 48
10.0
100
AcDbLine
 10
190.080602245369
 20
926.102221394869
 30
0.0
 11
190.080602245369
 21
947.702197394869
 31
0.0
  0
LINE
  5
5238
330
4D59
100
AcDbEntity
  8
寸法線
 62
     0
 48
10.0
100
AcDbLine
 10
190.080602245369
 20
953.702197394869
 30
0.0
 11
190.080602245369
 21
979.752197394869
 31
0.0
  0
INSERT
  5
5239
330
4D59
100
AcDbEntity
  8
寸法線
 62
     0
 48
10.0
100
AcDbBlockReference
  2
_OPEN30
 10
190.080602245369
 20
920.102221394869
 30
0.0
 41
6.0
 42
6.0
 43
6.0
 50
270.0
  0
INSERT
  5
523A
330
4D59
100
AcDbEntity
  8
寸法線
 62
     0
 48
10.0
100
AcDbBlockReference
  2
_OPEN30
 10
190.080602245369
 20
953.702197394869
 30
0.0
 41
6.0
 42
6.0
 43
6.0
 50
90.0
  0
MTEXT
  5
523B
330
4D59
100
AcDbEntity
  8
寸法線
 62
     0
 48
10.0
100
AcDbMText
 10
185.455602245369
 20
969.727197394869
 30
0.0
 40
8.0
 41
0.0
 71
     5
 72
     1
  1
\A1;φ34
 11
6.123031769111886E-17
 21
1.0
 31
0.0
  0
POINT
  5
523C
330
4D59
100
AcDbEntity
  8
DEFPOINTS
 62
     0
 48
10.0
100
AcDbPoint
 10
190.080602245369
 20
953.702197394869
 30
0.0
  0
POINT
  5
523D
330
4D59
100
AcDbEntity
  8
DEFPOINTS
 62
     0
 48
10.0
100
AcDbPoint
 10
190.080602245369
 20
920.102221394869
 30
0.0
  0
POINT
  5
523E
330
4D59
100
AcDbEntity
  8
DEFPOINTS
 62
     0
 48
10.0
100
AcDbPoint
 10
190.080602245369
 20
920.102221394869
 30
0.0
  0
ENDBLK
  5
4D65
330
4D59
100
AcDbEntity
  8
0
 62
     1
 48
10.0
100
AcDbBlockEnd
  0
BLOCK
  5
4D6F
330
4D66
100
AcDbEntity
  8
0
 62
     1
 48
10.0
100
AcDbBlockBegin
  2
*D15
 70
     1
 10
0.0
 20
0.0
 30
0.0
  3
*D15
  1
*D15
  0
LINE
  5
522D
330
4D66
100
AcDbEntity
  8
寸法線
 62
     0
 48
10.0
100
AcDbLine
 10
-41.485819754631
 20
877.751152209297
 30
0.0
 11
-41.485819754631
 21
812.587259240365
 31
0.0
  0
LINE
  5
522E
330
4D66
100
AcDbEntity
  8
寸法線
 62
     0
 48
10.0
100
AcDbLine
 10
221.516530245369
 20
831.402017474745
 30
0.0
 11
221.516530245369
 21
812.587259240365
 31
0.0
  0
LINE
  5
522F
330
4D66
100
AcDbEntity
  8
寸法線
 62
     0
 48
10.0
100
AcDbLine
 10
-35.485819754631
 20
813.837259240365
 30
0.0
 11
215.516530245369
 21
813.837259240365
 31
0.0
  0
INSERT
  5
5230
330
4D66
100
AcDbEntity
  8
寸法線
 62
     0
 48
10.0
100
AcDbBlockReference
  2
_OPEN30
 10
-41.485819754631
 20
813.837259240365
 30
0.0
 41
6.0
 42
6.0
 43
6.0
 50
180.0
  0
INSERT
  5
5231
330
4D66
100
AcDbEntity
  8
寸法線
 62
     0
 48
10.0
100
AcDbBlockReference
  2
_OPEN30
 10
221.516530245369
 20
813.837259240365
 30
0.0
 41
6.0
 42
6.0
 43
6.0
  0
POINT
  5
5232
330
4D66
100
AcDbEntity
  8
DEFPOINTS
 62
     0
 48
10.0
100
AcDbPoint
 10
-41.485819754631
 20
878.376152209297
 30
0.0
  0
POINT
  5
5233
330
4D66
100
AcDbEntity
  8
DEFPOINTS
 62
     0
 48
10.0
100
AcDbPoint
 10
221.516530245369
 20
832.027017474745
 30
0.0
  0
POINT
  5
5234
330
4D66
100
AcDbEntity
  8
DEFPOINTS
 62
     0
 48
10.0
100
AcDbPoint
 10
221.516530245369
 20
813.837259240365
 30
0.0
  0
ENDBLK
  5
4D70
330
4D66
100
AcDbEntity
  8
0
 62
     1
 48
10.0
100
AcDbBlockEnd
  0
BLOCK
  5
4D7B
330
4D71
100
AcDbEntity
  8
0
 62
     1
 48
10.0
100
AcDbBlockBegin
  2
*D16
 70
     1
 10
0.0
 20
0.0
 30
0.0
  3
*D16
  1
*D16
  0
LINE
  5
5224
330
4D71
100
AcDbEntity
  8
寸法線
 62
     0
 48
10.0
100
AcDbLine
 10
221.516530245369
 20
830.901992136293
 30
0.0
 11
221.516530245369
 21
812.983262221769
 31
0.0
  0
LINE
  5
5225
330
4D71
100
AcDbEntity
  8
寸法線
 62
     0
 48
10.0
100
AcDbLine
 10
371.516530245369
 20
835.204619449491
 30
0.0
 11
371.516530245369
 21
812.983262221769
 31
0.0
  0
LINE
  5
5226
330
4D71
100
AcDbEntity
  8
寸法線
 62
     0
 48
10.0
100
AcDbLine
 10
227.516530245369
 20
814.233262221769
 30
0.0
 11
365.516530245369
 21
814.233262221769
 31
0.0
  0
INSERT
  5
5227
330
4D71
100
AcDbEntity
  8
寸法線
 62
     0
 48
10.0
100
AcDbBlockReference
  2
_OPEN30
 10
221.516530245369
 20
814.233262221769
 30
0.0
 41
6.0
 42
6.0
 43
6.0
 50
180.0
  0
INSERT
  5
5228
330
4D71
100
AcDbEntity
  8
寸法線
 62
     0
 48
10.0
100
AcDbBlockReference
  2
_OPEN30
 10
371.516530245369
 20
814.233262221769
 30
0.0
 41
6.0
 42
6.0
 43
6.0
  0
MTEXT
  5
5229
330
4D71
100
AcDbEntity
  8
寸法線
 62
     0
 48
10.0
100
AcDbMText
 10
296.504124245369
 20
818.858262221769
 30
0.0
 40
8.0
 41
0.0
 71
     5
 72
     1
  1
\A1;150
  0
POINT
  5
522A
330
4D71
100
AcDbEntity
  8
DEFPOINTS
 62
     0
 48
10.0
100
AcDbPoint
 10
221.516530245369
 20
831.526992136293
 30
0.0
  0
POINT
  5
522B
330
4D71
100
AcDbEntity
  8
DEFPOINTS
 62
     0
 48
10.0
100
AcDbPoint
 10
371.516530245369
 20
835.829619449491
 30
0.0
  0
POINT
  5
522C
330
4D71
100
AcDbEntity
  8
DEFPOINTS
 62
     0
 48
10.0
100
AcDbPoint
 10
371.516530245369
 20
814.233262221769
 30
0.0
  0
ENDBLK
  5
4D7C
330
4D71
100
AcDbEntity
  8
0
 62
     1
 48
10.0
100
AcDbBlockEnd
  0
BLOCK
  5
4D89
330
4D7D
100
AcDbEntity
  8
0
 62
     1
 48
10.0
100
AcDbBlockBegin
  2
*D17
 70
     1
 10
0.0
 20
0.0
 30
0.0
  3
*D17
  1
*D17
  0
LINE
  5
5219
330
4D7D
100
AcDbEntity
  8
寸法線
 62
     0
 48
10.0
100
AcDbLine
 10
221.516530245369
 20
858.777131894869
 30
0.0
 11
221.516530245369
 21
830.276992136293
 31
0.0
  0
LINE
  5
521A
330
4D7D
100
AcDbEntity
  8
寸法線
 62
     0
 48
10.0
100
AcDbLine
 10
231.516530245369
 20
858.777131894869
 30
0.0
 11
231.516530245369
 21
830.276992136293
 31
0.0
  0
LINE
  5
521B
330
4D7D
100
AcDbEntity
  8
寸法線
 62
     0
 48
10.0
100
AcDbLine
 10
215.516530245369
 20
831.526992136293
 30
0.0
 11
209.516530245369
 21
831.526992136293
 31
0.0
  0
LINE
  5
521C
330
4D7D
100
AcDbEntity
  8
寸法線
 62
     0
 48
10.0
100
AcDbLine
 10
237.516530245369
 20
831.526992136293
 30
0.0
 11
243.516530245369
 21
831.526992136293
 31
0.0
  0
LINE
  5
521D
330
4D7D
100
AcDbEntity
  8
寸法線
 62
     0
 48
10.0
100
AcDbLine
 10
221.516530245369
 20
831.526992136293
 30
0.0
 11
231.516530245369
 21
831.526992136293
 31
0.0
  0
INSERT
  5
521E
330
4D7D
100
AcDbEntity
  8
寸法線
 62
     0
 48
10.0
100
AcDbBlockReference
  2
_OPEN30
 10
221.516530245369
 20
831.526992136293
 30
0.0
 41
6.0
 42
6.0
 43
6.0
  0
INSERT
  5
521F
330
4D7D
100
AcDbEntity
  8
寸法線
 62
     0
 48
10.0
100
AcDbBlockReference
  2
_OPEN30
 10
231.516530245369
 20
831.526992136293
 30
0.0
 41
6.0
 42
6.0
 43
6.0
 50
180.0
  0
MTEXT
  5
5220
330
4D7D
100
AcDbEntity
  8
寸法線
 62
     0
 48
10.0
100
AcDbMText
 10
226.516530245369
 20
836.151992136293
 30
0.0
 40
8.0
 41
0.0
 71
     5
 72
     1
  1
\A1;10
  0
POINT
  5
5221
330
4D7D
100
AcDbEntity
  8
DEFPOINTS
 62
     0
 48
10.0
100
AcDbPoint
 10
221.516530245369
 20
859.402131894869
 30
0.0
  0
POINT
  5
5222
330
4D7D
100
AcDbEntity
  8
DEFPOINTS
 62
     0
 48
10.0
100
AcDbPoint
 10
231.516530245369
 20
859.402131894869
 30
0.0
  0
POINT
  5
5223
330
4D7D
100
AcDbEntity
  8
DEFPOINTS
 62
     0
 48
10.0
100
AcDbPoint
 10
231.516530245369
 20
831.526992136293
 30
0.0
  0
ENDBLK
  5
4D8A
330
4D7D
100
AcDbEntity
  8
0
 62
     1
 48
10.0
100
AcDbBlockEnd
  0
BLOCK
  5
5190
330
5186
100
AcDbEntity
  8
0
 62
     1
 48
10.0
100
AcDbBlockBegin
  2
*D18
 70
     1
 10
0.0
 20
0.0
 30
0.0
  3
*D18
  1
*D18
  0
LINE
  5
5210
330
5186
100
AcDbEntity
  8
寸法線
 62
     0
 48
10.0
100
AcDbLine
 10
327.848684245371
 20
987.902209394869
 30
0.0
 11
393.885308855593
 21
987.902209394869
 31
0.0
  0
LINE
  5
5211
330
5186
100
AcDbEntity
  8
寸法線
 62
     0
 48
10.0
100
AcDbLine
 10
327.848684245371
 20
885.902209394869
 30
0.0
 11
393.885308855593
 21
885.902209394869
 31
0.0
  0
LINE
  5
5212
330
5186
100
AcDbEntity
  8
寸法線
 62
     0
 48
10.0
100
AcDbLine
 10
392.635308855593
 20
981.902209394869
 30
0.0
 11
392.635308855593
 21
891.902209394869
 31
0.0
  0
INSERT
  5
5213
330
5186
100
AcDbEntity
  8
寸法線
 62
     0
 48
10.0
100
AcDbBlockReference
  2
_OPEN30
 10
392.635308855593
 20
987.902209394869
 30
0.0
 41
6.0
 42
6.0
 43
6.0
 50
90.0
  0
INSERT
  5
5214
330
5186
100
AcDbEntity
  8
寸法線
 62
     0
 48
10.0
100
AcDbBlockReference
  2
_OPEN30
 10
392.635308855593
 20
885.902209394869
 30
0.0
 41
6.0
 42
6.0
 43
6.0
 50
270.0
  0
MTEXT
  5
5215
330
5186
100
AcDbEntity
  8
寸法線
 62
     0
 48
10.0
100
AcDbMText
 10
388.009521454018
 20
936.290209894869
 30
0.0
 40
8.0
 41
0.0
 71
     5
 72
     1
  1
\A1;φ102
 11
6.123031769111886E-17
 21
1.0
 31
0.0
  0
POINT
  5
5216
330
5186
100
AcDbEntity
  8
DEFPOINTS
 62
     0
 48
10.0
100
AcDbPoint
 10
327.223684245371
 20
987.902209394869
 30
0.0
  0
POINT
  5
5217
330
5186
100
AcDbEntity
  8
DEFPOINTS
 62
     0
 48
10.0
100
AcDbPoint
 10
327.223684245371
 20
885.902209394869
 30
0.0
  0
POINT
  5
5218
330
5186
100
AcDbEntity
  8
DEFPOINTS
 62
     0
 48
10.0
100
AcDbPoint
 10
392.635308855593
 20
885.902209394869
 30
0.0
  0
ENDBLK
  5
5191
330
5186
100
AcDbEntity
  8
0
 62
     1
 48
10.0
100
AcDbBlockEnd
  0
BLOCK
  5
519C
330
5192
100
AcDbEntity
  8
0
 62
     1
 48
10.0
100
AcDbBlockBegin
  2
*D19
 70
     1
 10
0.0
 20
0.0
 30
0.0
  3
*D19
  1
*D19
  0
LINE
  5
5207
330
5192
100
AcDbEntity
  8
寸法線
 62
     0
 48
10.0
100
AcDbLine
 10
371.516530245369
 20
905.067992204658
 30
0.0
 11
371.516530245369
 21
831.347712392222
 31
0.0
  0
LINE
  5
5208
330
5192
100
AcDbEntity
  8
寸法線
 62
     0
 48
10.0
100
AcDbLine
 10
288.516530245369
 20
854.37601845823
 30
0.0
 11
288.516530245369
 21
831.347712392222
 31
0.0
  0
LINE
  5
5209
330
5192
100
AcDbEntity
  8
寸法線
 62
     0
 48
10.0
100
AcDbLine
 10
365.516530245369
 20
832.597712392222
 30
0.0
 11
294.516530245369
 21
832.597712392222
 31
0.0
  0
INSERT
  5
520A
330
5192
100
AcDbEntity
  8
寸法線
 62
     0
 48
10.0
100
AcDbBlockReference
  2
_OPEN30
 10
371.516530245369
 20
832.597712392222
 30
0.0
 41
6.0
 42
6.0
 43
6.0
  0
INSERT
  5
520B
330
5192
100
AcDbEntity
  8
寸法線
 62
     0
 48
10.0
100
AcDbBlockReference
  2
_OPEN30
 10
288.516530245369
 20
832.597712392222
 30
0.0
 41
6.0
 42
6.0
 43
6.0
 50
180.0
  0
MTEXT
  5
520C
330
5192
100
AcDbEntity
  8
寸法線
 62
     0
 48
10.0
100
AcDbMText
 10
330.016530245369
 20
837.222712392222
 30
0.0
 40
8.0
 41
0.0
 71
     5
 72
     1
  1
\A1;83
  0
POINT
  5
520D
330
5192
100
AcDbEntity
  8
DEFPOINTS
 62
     0
 48
10.0
100
AcDbPoint
 10
371.516530245369
 20
905.692992204658
 30
0.0
  0
POINT
  5
520E
330
5192
100
AcDbEntity
  8
DEFPOINTS
 62
     0
 48
10.0
100
AcDbPoint
 10
288.516530245369
 20
855.00101845823
 30
0.0
  0
POINT
  5
520F
330
5192
100
AcDbEntity
  8
DEFPOINTS
 62
     0
 48
10.0
100
AcDbPoint
 10
288.516530245369
 20
832.597712392222
 30
0.0
  0
ENDBLK
  5
519D
330
5192
100
AcDbEntity
  8
0
 62
     1
 48
10.0
100
AcDbBlockEnd
  0
ENDSEC
  0
SECTION
  2
ENTITIES
  0
MTEXT
  5
374E
330
1A
100
AcDbEntity
  8
寸法線
 48
10.0
100
AcDbMText
 10
-241.894824749189
 20
840.362903576608
 30
0.0
 40
8.0
 41
0.0
 71
     9
 72
     1
  1
\A1;4-φ15
  0
DIMENSION
  5
3766
330
1A
100
AcDbEntity
  8
寸法線
 48
10.0
100
AcDbDimension
  2
*D6
 10
-126.285067953001
 20
950.225185387501
 30
0.0
 11
-156.759160129185
 21
944.907233904205
 31
0.0
 70
   161
  1
φ<>
  3
ISO-25
100
AcDbAlignedDimension
 13
-278.977547279256
 23
923.579233402234
 33
0.0
 14
-126.285067953001
 24
950.225185387503
 34
0.0
1001
ACAD
1000
DSTYLE
1002
{
1070
     5
1000
OPEN30
1070
    41
1040
6.0
1070
    47
1040
0.1
1070
    48
1040
0.1
1070
    73
1070
     0
1070
   140
1040
8.0
1070
   271
1070
     1
1070
   272
1070
     1
1070
   341
1005
2AF4
1002
}
  0
DIMENSION
  5
3767
330
1A
100
AcDbEntity
  8
寸法線
 48
10.0
100
AcDbDimension
  2
*D7
 10
-143.966253267587
 20
964.900239176393
 30
0.0
 11
-160.738562712862
 21
956.895616585168
 31
0.0
 70
   161
  1
φ<>
  3
ISO-25
100
AcDbAlignedDimension
 13
-261.289720772325
 23
908.907349137402
 33
0.0
 14
-143.966253267587
 24
964.900239176393
 34
0.0
1001
ACAD
1000
DSTYLE
1002
{
1070
     5
1000
OPEN30
1070
    41
1040
6.0
1070
    47
1040
0.1
1070
    48
1040
0.1
1070
    73
1070
     0
1070
   140
1040
8.0
1070
   271
1070
     1
1070
   272
1070
     1
1070
   341
1005
2AF4
1002
}
  0
LINE
  5
3769
330
1A
100
AcDbEntity
  8
中心線
 48
10.0
100
AcDbLine
 10
-202.621752616128
 20
843.401556894869
 30
0.0
 11
-202.621752616128
 21
1030.402861894869
 31
0.0
  0
LINE
  5
376A
330
1A
100
AcDbEntity
  8
中心線
 48
10.0
100
AcDbLine
 10
-109.121100116128
 20
936.902209394869
 30
0.0
 11
-296.122405116128
 21
936.902209394869
 31
0.0
  0
LINE
  5
376B
330
1A
100
AcDbEntity
  8
中心線
 48
10.0
100
AcDbLine
 10
-257.610644750858
 20
991.881546529598
 30
0.0
 11
-239.575853196607
 21
973.846754975347
 31
0.0
  0
LINE
  5
376C
330
1A
100
AcDbEntity
  8
中心線
 48
10.0
100
AcDbLine
 10
-165.686762616129
 20
973.846754394868
 30
0.0
 11
-147.651971061878
 21
991.881545949119
 31
0.0
  0
LINE
  5
376D
330
1A
100
AcDbEntity
  8
中心線
 48
10.0
100
AcDbLine
 10
-257.610644170379
 20
881.922872840618
 30
0.0
 11
-239.575852616129
 21
899.957664394869
 31
0.0
  0
LINE
  5
376E
330
1A
100
AcDbEntity
  8
中心線
 48
10.0
100
AcDbLine
 10
-165.686762616129
 20
899.957664394869
 30
0.0
 11
-147.651971061878
 21
881.922872840618
 31
0.0
  0
CIRCLE
  5
376F
330
1A
100
AcDbEntity
  8
中心線
 48
10.0
100
AcDbCircle
 10
-202.631307616129
 20
936.910751894869
 30
0.0
 40
65.0
  0
CIRCLE
  5
3770
330
1A
100
AcDbEntity
  8
外形線
100
AcDbCircle
 10
-248.593248393254
 20
890.940268617744
 30
0.0
 40
7.5
  0
CIRCLE
  5
3771
330
1A
100
AcDbEntity
  8
外形線
100
AcDbCircle
 10
-248.593248393254
 20
982.864150171994
 30
0.0
 40
7.5
  0
CIRCLE
  5
3772
330
1A
100
AcDbEntity
  8
外形線
100
AcDbCircle
 10
-156.669366839003
 20
890.940268617744
 30
0.0
 40
7.5
  0
CIRCLE
  5
3773
330
1A
100
AcDbEntity
  8
外形線
100
AcDbCircle
 10
-156.669366839003
 20
982.864150171994
 30
0.0
 40
7.5
  0
CIRCLE
  5
3774
330
1A
100
AcDbEntity
  8
外形線
100
AcDbCircle
 10
-202.631307616129
 20
936.902209394869
 30
0.0
 40
77.5
  0
INSERT
  5
377A
330
1A
100
AcDbEntity
  8
外形線
100
AcDbBlockReference
  2
パドル_W1立面図
 10
-196.808306112395
 20
707.273393566407
 30
0.0
  0
DIMENSION
  5
377B
330
1A
100
AcDbEntity
  8
寸法線
 48
10.0
100
AcDbDimension
  2
*D8
 10
-201.193761567839
 20
905.823012811691
 30
0.0
 11
-183.603076142889
 21
910.448012811691
 31
0.0
 70
    32
  1
1.5
  3
ISO-25
100
AcDbAlignedDimension
 13
-204.049766082374
 23
905.818452666345
 33
0.0
 14
-201.193761567839
 24
905.818452666345
 34
0.0
100
AcDbRotatedDimension
1001
ACAD
1000
DSTYLE
1002
{
1070
     5
1000
OPEN30
1070
    41
1040
6.0
1070
    47
1040
0.1
1070
    48
1040
0.1
1070
    73
1070
     0
1070
   140
1040
8.0
1070
   271
1070
     1
1070
   272
1070
     1
1070
   341
1005
2AF4
1002
}
  0
ARC
  5
37A4
330
1A
100
AcDbEntity
  8
外形線
 48
10.0
100
AcDbCircle
 10
-202.621752616128
 20
936.902209394869
 30
0.0
 40
17.0
100
AcDbArc
 50
94.818568979361
 51
265.181431020639
  0
ARC
  5
37A5
330
1A
100
AcDbEntity
  8
外形線
 48
10.0
100
AcDbCircle
 10
-202.621752616128
 20
936.902209394869
 30
0.0
 40
17.0
100
AcDbArc
 50
274.818493155248
 51
85.181506844752
  0
LEADER
  5
4050
330
1A
100
AcDbEntity
  8
寸法線
 62
     1
 48
10.0
100
AcDbLeader
  3
ISO-25
 76
     3
 10
-247.509697077485
 20
883.857885187994
 30
0.0
 10
-234.023506912897
 20
837.822803258549
 30
0.0
 10
-271.784839922567
 20
837.822803258549
 30
0.0
1001
ACAD
1000
DSTYLE
1002
{
1070
     5
1000
OPEN30
1070
   147
1040
0.625
1070
    77
1070
     0
1070
    41
1040
6.0
1070
    47
1040
0.1
1070
    48
1040
0.1
1070
    73
1070
     0
1070
   140
1040
8.0
1070
   271
1070
     1
1070
   272
1070
     1
1070
   341
1005
2AF4
1070
   342
1005
2AF4
1002
}
  0
LINE
  5
4C50
330
1A
100
AcDbEntity
  8
下書線
 48
10.0
100
AcDbLine
 10
-66.937509784135
 20
1051.957166718415
 30
0.0
 11
427.781259424203
 21
1051.957166718415
 31
0.0
  0
DIMENSION
  5
4C51
330
1A
100
AcDbEntity
  8
寸法線
 48
10.0
100
AcDbDimension
  2
*D11
 10
73.144511349386
 20
931.909742680163
 30
0.0
 11
73.144511349386
 21
962.737814786462
 31
0.0
 70
   160
  1
φ<>
  3
ISO-25
100
AcDbAlignedDimension
 13
71.336918956823
 23
941.909665180162
 33
0.0
 14
71.336918956823
 24
931.909742680163
 34
0.0
 50
90.0
100
AcDbRotatedDimension
1001
ACAD
1000
DSTYLE
1002
{
1070
     5
1000
OPEN30
1070
    76
1070
     1
1070
    75
1070
     1
1070
    41
1040
6.0
1070
    47
1040
0.1
1070
    48
1040
0.1
1070
    73
1070
     0
1070
   140
1040
8.0
1070
   271
1070
     1
1070
   272
1070
     1
1070
   341
1005
2AF4
1002
}
  0
LINE
  5
4C61
330
1A
100
AcDbEntity
  8
中心線
 48
10.0
100
AcDbLine
 10
371.783435475265
 20
936.902209394869
 30
0.0
 11
-51.504798685453
 21
936.902209394869
 31
0.0
  0
LINE
  5
4C62
330
1A
100
AcDbEntity
  8
外形線
100
AcDbLine
 10
62.014180245369
 20
931.902248144868
 30
0.0
 11
78.514180245369
 21
931.902248144868
 31
0.0
  0
LINE
  5
4C63
330
1A
100
AcDbEntity
  8
外形線
100
AcDbLine
 10
62.014180245369
 20
941.902170644868
 30
0.0
 11
78.514180245369
 21
941.902170644868
 31
0.0
  0
DIMENSION
  5
4C64
330
1A
100
AcDbEntity
  8
寸法線
 48
10.0
100
AcDbDimension
  2
*D12
 10
-59.907547470858
 20
896.902209394869
 30
0.0
 11
-64.532547470858
 21
936.902209394869
 31
0.0
 70
    32
  3
ISO-25
100
AcDbAlignedDimension
 13
-41.485819754631
 23
976.902209394869
 33
0.0
 14
-41.485819754631
 24
896.902209394869
 34
0.0
 50
90.0
100
AcDbRotatedDimension
1001
ACAD
1000
DSTYLE
1002
{
1070
     5
1000
OPEN30
1070
    41
1040
6.0
1070
    47
1040
0.1
1070
    48
1040
0.1
1070
    73
1070
     0
1070
   140
1040
8.0
1070
   271
1070
     1
1070
   272
1070
     1
1070
   341
1005
2AF4
1002
}
  0
DIMENSION
  5
4C65
330
1A
100
AcDbEntity
  8
寸法線
 48
10.0
100
AcDbDimension
  2
*D13
 10
38.514180245369
 20
878.376152209297
 30
0.0
 11
-1.485819754631
 21
883.001152209297
 31
0.0
 70
    32
  3
ISO-25
100
AcDbAlignedDimension
 13
-41.485819754631
 23
896.902209394869
 33
0.0
 14
38.514180245369
 24
924.902209394869
 34
0.0
100
AcDbRotatedDimension
1001
ACAD
1000
DSTYLE
1002
{
1070
     5
1000
OPEN30
1070
    41
1040
6.0
1070
    47
1040
0.1
1070
    48
1040
0.1
1070
    73
1070
     0
1070
   140
1040
8.0
1070
   271
1070
     1
1070
   272
1070
     1
1070
   341
1005
2AF4
1002
}
  0
INSERT
  5
4C68
330
1A
100
AcDbEntity
  8
外形線
 48
10.0
100
AcDbBlockReference
  2
パドル_W1
 10
-99.786935664132
 20
716.250447473057
 30
0.0
  0
ARC
  5
4C6B
330
1A
100
AcDbEntity
  8
細線
100
AcDbCircle
 10
147.420045226447
 20
934.402209394868
 30
0.0
 40
5.0
100
AcDbArc
 50
329.999999999999
 51
30.000000000001
  0
ARC
  5
4C6C
330
1A
100
AcDbEntity
  8
細線
100
AcDbCircle
 10
156.080299264291
 20
934.402209394868
 30
0.0
 40
5.0
100
AcDbArc
 50
149.999999999999
 51
210.000000000001
  0
LINE
  5
4C6D
330
1A
100
AcDbEntity
  8
外形線
100
AcDbLine
 10
160.552480245369
 20
931.902209394868
 30
0.0
 11
151.750172245369
 21
931.902209394868
 31
0.0
  0
ARC
  5
4C6E
330
1A
100
AcDbEntity
  8
細線
100
AcDbCircle
 10
174.125782245369
 20
928.685169394868
 30
0.0
 40
17.701182
100
AcDbArc
 50
169.528815071374
 51
209.004633127637
  0
ARC
  5
4C6F
330
1A
100
AcDbEntity
  8
細線
100
AcDbCircle
 10
144.135946245369
 20
928.502215394868
 30
0.0
 40
16.76491
100
AcDbArc
 50
329.93075624098
 51
30.069265854606
  0
ARC
  5
4C70
330
1A
100
AcDbEntity
  8
細線
100
AcDbCircle
 10
143.619998092473
 20
934.402207894868
 30
0.0
 40
5.0
100
AcDbArc
 50
330.000019847839
 51
30.000019847843
  0
LINE
  5
4C71
330
1A
100
AcDbEntity
  8
外形線
100
AcDbLine
 10
144.099660245369
 20
931.902209394868
 30
0.0
 11
147.950124245369
 21
931.902209394868
 31
0.0
  0
ARC
  5
4C72
330
1A
100
AcDbEntity
  8
細線
100
AcDbCircle
 10
127.664052245369
 20
928.502215394868
 30
0.0
 40
16.7836
100
AcDbArc
 50
329.967712018777
 51
30.032310076826
  0
LINE
  5
4C73
330
1A
100
AcDbEntity
  8
外形線
100
AcDbLine
 10
158.644674245369
 20
920.102221394869
 30
0.0
 11
221.516530245369
 21
920.102221394869
 31
0.0
  0
LINE
  5
4C74
330
1A
100
AcDbEntity
  8
外形線
100
AcDbLine
 10
142.194326245369
 20
920.102221394869
 30
0.0
 11
78.514180245369
 21
920.102221394869
 31
0.0
  0
ARC
  5
4C75
330
1A
100
AcDbEntity
  8
細線
100
AcDbCircle
 10
156.080299264291
 20
939.402209394868
 30
0.0
 40
5.0
100
AcDbArc
 50
149.999999999999
 51
210.000000000001
  0
LINE
  5
4C76
330
1A
100
AcDbEntity
  8
外形線
100
AcDbLine
 10
151.750172245369
 20
941.902209394868
 30
0.0
 11
156.744404245369
 21
941.902209394868
 31
0.0
  0
ARC
  5
4C77
330
1A
100
AcDbEntity
  8
細線
100
AcDbCircle
 10
173.219044245369
 20
945.302203394869
 30
0.0
 40
16.82178
100
AcDbArc
 50
150.042864233652
 51
209.957175462036
  0
ARC
  5
4C78
330
1A
100
AcDbEntity
  8
細線
100
AcDbCircle
 10
152.280250398265
 20
939.402210894868
 30
0.0
 40
5.0
100
AcDbArc
 50
150.000019847839
 51
210.000019847843
  0
ARC
  5
4C79
330
1A
100
AcDbEntity
  8
細線
100
AcDbCircle
 10
143.619996360421
 20
939.402207894868
 30
0.0
 40
5.0
100
AcDbArc
 50
330.000019847839
 51
30.000019847843
  0
LINE
  5
4C7A
330
1A
100
AcDbEntity
  8
外形線
100
AcDbLine
 10
140.316304245369
 20
941.902209394868
 30
0.0
 11
147.950124245369
 21
941.902209394868
 31
0.0
  0
ARC
  5
4C7B
330
1A
100
AcDbEntity
  8
細線
100
AcDbCircle
 10
125.959310245369
 20
944.939227394868
 30
0.0
 40
18.44903
100
AcDbArc
 50
350.525036637612
 51
28.358241991014
  0
ARC
  5
4C7C
330
1A
100
AcDbEntity
  8
細線
100
AcDbCircle
 10
156.962880245369
 20
945.302203394869
 30
0.0
 40
16.99026
100
AcDbArc
 50
150.369793951545
 51
209.630245744144
  0
LINE
  5
4C7D
330
1A
100
AcDbEntity
  8
外形線
100
AcDbLine
 10
158.644674245369
 20
953.702197394869
 30
0.0
 11
221.516530245369
 21
953.702197394869
 31
0.0
  0
LINE
  5
4C7E
330
1A
100
AcDbEntity
  8
外形線
100
AcDbLine
 10
142.194356245369
 20
953.702197394869
 30
0.0
 11
78.514180245369
 21
953.702197394869
 31
0.0
  0
LINE
  5
4C7F
330
1A
100
AcDbEntity
  8
外形線
100
AcDbLine
 10
78.514180245369
 20
953.702197394869
 30
0.0
 11
78.514180245369
 21
920.102221394869
 31
0.0
  0
ARC
  5
4C80
330
1A
100
AcDbEntity
  8
寸法線
100
AcDbCircle
 10
91.463868497114
 20
822.360822726779
 30
0.0
 40
0.26895
100
AcDbArc
 50
28.230948368998
 51
123.883845843377
  0
ARC
  5
4C81
330
1A
100
AcDbEntity
  8
寸法線
100
AcDbCircle
 10
93.866944497114
 20
818.722272726779
 30
0.0
 40
4.629386
100
AcDbArc
 50
123.469024399701
 51
239.773899120643
  0
ARC
  5
4C82
330
1A
100
AcDbEntity
  8
寸法線
100
AcDbCircle
 10
93.866944497114
 20
818.722272726779
 30
0.0
 40
4.62938
100
AcDbArc
 50
123.469024399701
 51
239.774013712202
  0
ARC
  5
4C83
330
1A
100
AcDbEntity
  8
寸法線
100
AcDbCircle
 10
87.516358497114
 20
819.727216726778
 30
0.0
 40
5.013138
100
AcDbArc
 50
273.280470979894
 51
33.415912335968
  0
ARC
  5
4C84
330
1A
100
AcDbEntity
  8
寸法線
100
AcDbCircle
 10
92.054078497114
 20
816.405072726779
 30
0.0
 40
1.76059
100
AcDbArc
 50
252.903398883406
 51
337.412611017142
  0
ARC
  5
4C85
330
1A
100
AcDbEntity
  8
寸法線
100
AcDbCircle
 10
92.054078497114
 20
816.405134726779
 30
0.0
 40
1.760614
100
AcDbArc
 50
252.904086432757
 51
337.411923467786
  0
INSERT
  5
4C86
330
1A
100
AcDbEntity
  8
外形線
 48
10.0
100
AcDbBlockReference
  2
A$C480F1F2B
 10
53.514178743857
 20
928.627257995814
 30
0.0
  0
DIMENSION
  5
4C87
330
1A
100
AcDbEntity
  8
寸法線
 48
10.0
100
AcDbDimension
  2
*D14
 10
190.080602245369
 20
920.102221394869
 30
0.0
 11
190.080602245369
 21
969.727197394869
 31
0.0
 70
   160
  1
φ34
  3
ISO-25
100
AcDbAlignedDimension
 13
190.080602245369
 23
953.702197394869
 33
0.0
 14
190.080602245369
 24
920.102221394869
 34
0.0
 50
90.0
100
AcDbRotatedDimension
1001
ACAD
1000
DSTYLE
1002
{
1070
     5
1000
OPEN30
1070
    41
1040
6.0
1070
    47
1040
0.1
1070
    48
1040
0.1
1070
    73
1070
     0
1070
   140
1040
8.0
1070
   271
1070
     1
1070
   272
1070
     1
1070
   341
1005
2AF4
1002
}
  0
MTEXT
  5
4C88
330
1A
100
AcDbEntity
  8
寸法線
 48
10.0
100
AcDbMText
 10
225.860516426747
 20
1052.749137121656
 30
0.0
 40
8.0
 41
0.0
 71
     9
 72
     1
  1
フランジ\Pアルミ鋳物
  0
MTEXT
  5
4C89
330
1A
100
AcDbEntity
  8
寸法線
 48
10.0
100
AcDbMText
 10
266.710932441657
 20
1052.582166718415
 30
0.0
 40
8.0
 41
0.0
 71
     7
 72
     1
  1
\A1;アルミ鋳物
  0
MTEXT
  5
4C8A
330
1A
100
AcDbEntity
  8
寸法線
 48
10.0
100
AcDbMText
 10
328.899547997184
 20
1052.582166718415
 30
0.0
 40
8.0
 41
0.0
 71
     7
 72
     1
  1
\A1;Oリング
  0
MTEXT
  5
4C8B
330
1A
100
AcDbEntity
  8
寸法線
 48
10.0
100
AcDbMText
 10
372.895332925626
 20
1052.582166718415
 30
0.0
 40
8.0
 41
0.0
 71
     7
 72
     1
  1
\A1;アルミ鋳物
  0
MTEXT
  5
4C8C
330
1A
100
AcDbEntity
  8
寸法線
 48
10.0
100
AcDbMText
 10
65.493402083075
 20
1053.088911122353
 30
0.0
 40
8.0
 41
0.0
 71
     7
 72
     1
  1
\A1;SUS304
  0
MTEXT
  5
4C8D
330
1A
100
AcDbEntity
  8
寸法線
 48
10.0
100
AcDbMText
 10
43.532298171376
 20
1052.582166718415
 30
0.0
 40
8.0
 41
0.0
 71
     9
 72
     1
  1
\A1;SUS304
  0
MTEXT
  5
4C8E
330
1A
100
AcDbEntity
  8
寸法線
 48
10.0
100
AcDbMText
 10
-28.539875257274
 20
1052.582166718415
 30
0.0
 40
8.0
 41
0.0
 71
     9
 72
     1
  1
\A1;SUS304
  0
DIMENSION
  5
4C90
330
1A
100
AcDbEntity
  8
寸法線
 48
10.0
100
AcDbDimension
  2
*D15
 10
221.516530245369
 20
813.837259240365
 30
0.0
 11
90.015355245369
 21
813.837259240365
 31
0.0
 70
    32
  1
 
  3
ISO-25
100
AcDbAlignedDimension
 13
-41.485819754631
 23
878.376152209297
 33
0.0
 14
221.516530245369
 24
832.027017474745
 34
0.0
100
AcDbRotatedDimension
1001
ACAD
1000
DSTYLE
1002
{
1070
     5
1000
OPEN30
1070
    41
1040
6.0
1070
    47
1040
0.1
1070
    48
1040
0.1
1070
    73
1070
     0
1070
   140
1040
5.0
1070
   271
1070
     1
1070
   272
1070
     1
1070
   341
1005
2AF4
1002
}
  0
LEADER
  5
4C91
330
1A
100
AcDbEntity
  8
寸法線
 48
10.0
100
AcDbLeader
  3
ISO-25
 76
     3
 10
65.227296650256
 20
941.92687923219
 30
0.0
 10
43.697827598798
 20
1052.014736509879
 30
0.0
 10
31.917551264699
 20
1052.014736509879
 30
0.0
1001
ACAD
1000
DSTYLE
1002
{
1070
     5
1000
OPEN30
1070
   147
1040
0.625
1070
    77
1070
     1
1070
    41
1040
6.0
1070
    47
1040
0.1
1070
    48
1040
0.1
1070
    73
1070
     0
1070
   140
1040
5.0
1070
   271
1070
     1
1070
   272
1070
     1
1070
   341
1005
2AF4
1070
   342
1005
2AF4
1002
}
  0
LEADER
  5
4C92
330
1A
100
AcDbEntity
  8
寸法線
 48
10.0
100
AcDbLeader
  3
ISO-25
 76
     3
 10
110.759628016942
 20
953.683959420645
 30
0.0
 10
99.739648098514
 20
1052.014736509879
 30
0.0
 10
89.411479251544
 20
1052.014736509879
 30
0.0
1001
ACAD
1000
DSTYLE
1002
{
1070
     5
1000
OPEN30
1070
   147
1040
0.625
1070
    77
1070
     1
1070
    41
1040
6.0
1070
    47
1040
0.1
1070
    48
1040
0.1
1070
    73
1070
     0
1070
   140
1040
5.0
1070
   271
1070
     1
1070
   272
1070
     1
1070
   341
1005
2AF4
1070
   342
1005
2AF4
1002
}
  0
LEADER
  5
4C93
330
1A
100
AcDbEntity
  8
寸法線
 48
10.0
100
AcDbLeader
  3
ISO-25
 76
     3
 10
226.621661456822
 20
1014.172035419452
 30
0.0
 10
226.621661456822
 20
1051.701987050064
 30
0.0
 10
214.102668852485
 20
1051.701987050064
 30
0.0
1001
ACAD
1000
DSTYLE
1002
{
1070
     5
1000
OPEN30
1070
   147
1040
0.625
1070
    77
1070
     1
1070
    41
1040
6.0
1070
    47
1040
0.1
1070
    48
1040
0.1
1070
    73
1070
     0
1070
   140
1040
5.0
1070
   271
1070
     1
1070
   272
1070
     1
1070
   341
1005
2AF4
1070
   342
1005
2AF4
1002
}
  0
LEADER
  5
4C94
330
1A
100
AcDbEntity
  8
寸法線
 48
10.0
100
AcDbLeader
  3
ISO-25
 76
     3
 10
-12.382393539555
 20
976.95483421647
 30
0.0
 10
-27.826895171715
 20
1051.389237590249
 30
0.0
 10
-39.093989960644
 20
1051.389237590249
 30
0.0
1001
ACAD
1000
DSTYLE
1002
{
1070
     5
1000
OPEN30
1070
   147
1040
0.625
1070
    77
1070
     1
1070
    41
1040
6.0
1070
    47
1040
0.1
1070
    48
1040
0.1
1070
    73
1070
     0
1070
   140
1040
5.0
1070
   271
1070
     1
1070
   272
1070
     1
1070
   341
1005
2AF4
1070
   342
1005
2AF4
1002
}
  0
LEADER
  5
4C95
330
1A
100
AcDbEntity
  8
寸法線
 48
10.0
100
AcDbLeader
  3
ISO-25
 76
     3
 10
270.132734173921
 20
981.104975861496
 30
0.0
 10
265.552387825788
 20
1051.41554667679
 30
0.0
 10
276.506506612623
 20
1051.41554667679
 30
0.0
1001
ACAD
1000
DSTYLE
1002
{
1070
     5
1000
OPEN30
1070
   147
1040
0.625
1070
    77
1070
     1
1070
    41
1040
6.0
1070
    47
1040
0.1
1070
    48
1040
0.1
1070
    73
1070
     0
1070
   140
1040
5.0
1070
   271
1070
     1
1070
   272
1070
     1
1070
   341
1005
2AF4
1070
   342
1005
2AF4
1002
}
  0
LEADER
  5
4C96
330
1A
100
AcDbEntity
  8
寸法線
 48
10.0
100
AcDbLeader
  3
ISO-25
 76
     3
 10
310.41924166522
 20
987.871626309305
 30
0.0
 10
326.407746614534
 20
1051.41554667679
 30
0.0
 10
337.36186540137
 20
1051.41554667679
 30
0.0
1001
ACAD
1000
DSTYLE
1002
{
1070
     5
1000
OPEN30
1070
   147
1040
0.625
1070
    77
1070
     1
1070
    41
1040
6.0
1070
    47
1040
0.1
1070
    48
1040
0.1
1070
    73
1070
     0
1070
   140
1040
5.0
1070
   271
1070
     1
1070
   272
1070
     1
1070
   341
1005
2AF4
1070
   342
1005
2AF4
1002
}
  0
LEADER
  5
4C97
330
1A
100
AcDbEntity
  8
寸法線
 48
10.0
100
AcDbLeader
  3
ISO-25
 76
     3
 10
345.821488328445
 20
984.721640655313
 30
0.0
 10
372.480426728766
 20
1051.41554667679
 30
0.0
 10
383.434545515602
 20
1051.41554667679
 30
0.0
1001
ACAD
1000
DSTYLE
1002
{
1070
     5
1000
OPEN30
1070
   147
1040
0.625
1070
    77
1070
     1
1070
    41
1040
6.0
1070
    47
1040
0.1
1070
    48
1040
0.1
1070
    73
1070
     0
1070
   140
1040
5.0
1070
   271
1070
     1
1070
   272
1070
     1
1070
   341
1005
2AF4
1070
   342
1005
2AF4
1002
}
  0
DIMENSION
  5
4C9A
330
1A
100
AcDbEntity
  8
寸法線
 48
10.0
100
AcDbDimension
  2
*D16
 10
371.516530245369
 20
814.233262221769
 30
0.0
 11
296.504124245369
 21
814.233262221769
 31
0.0
 70
   160
  3
ISO-25
100
AcDbAlignedDimension
 13
221.516530245369
 23
831.526992136293
 33
0.0
 14
371.516530245369
 24
835.829619449491
 34
0.0
100
AcDbRotatedDimension
1001
ACAD
1000
DSTYLE
1002
{
1070
     5
1000
OPEN30
1070
    41
1040
6.0
1070
    47
1040
0.1
1070
    48
1040
0.1
1070
    73
1070
     0
1070
   140
1040
8.0
1070
   271
1070
     1
1070
   272
1070
     1
1070
   341
1005
2AF4
1002
}
  0
DIMENSION
  5
4C9B
330
1A
100
AcDbEntity
  8
寸法線
 48
10.0
100
AcDbDimension
  2
*D17
 10
231.516530245369
 20
831.526992136293
 30
0.0
 11
226.516530245369
 21
831.526992136293
 31
0.0
 70
   160
  3
ISO-25
100
AcDbAlignedDimension
 13
221.516530245369
 23
859.402131894869
 33
0.0
 14
231.516530245369
 24
859.402131894869
 34
0.0
100
AcDbRotatedDimension
1001
ACAD
1000
DSTYLE
1002
{
1070
     5
1000
OPEN30
1070
    41
1040
6.0
1070
    47
1040
0.1
1070
    48
1040
0.1
1070
    73
1070
     0
1070
   140
1040
8.0
1070
   271
1070
     1
1070
   272
1070
     1
1070
   341
1005
2AF4
1002
}
  0
LINE
  5
4CA1
330
1A
100
AcDbEntity
  8
中心線
  6
CENTER
 48
10.0
100
AcDbLine
 10
216.514042803116
 20
1001.902209394869
 30
0.0
 11
236.516530245369
 21
1001.902209394869
 31
0.0
  0
LINE
  5
4CA2
330
1A
100
AcDbEntity
  8
外形線
100
AcDbLine
 10
221.516530245369
 20
859.902209394869
 30
0.0
 11
221.516530245369
 21
1013.902209394869
 31
0.0
  0
LINE
  5
4CA5
330
1A
100
AcDbEntity
  8
外形線
100
AcDbLine
 10
230.516530245369
 20
859.402209394869
 30
0.0
 11
222.016530245369
 21
859.402209394869
 31
0.0
  0
LINE
  5
4CA6
330
1A
100
AcDbEntity
  8
外形線
100
AcDbLine
 10
230.516530245369
 20
859.402209394869
 30
0.0
 11
231.516530245369
 21
860.402209394869
 31
0.0
  0
LINE
  5
4CA7
330
1A
100
AcDbEntity
  8
外形線
100
AcDbLine
 10
222.016530245369
 20
859.402209394869
 30
0.0
 11
221.516530245369
 21
859.902209394869
 31
0.0
  0
LINE
  5
4CA8
330
1A
100
AcDbEntity
  8
外形線
100
AcDbLine
 10
222.016530245369
 20
1014.402209394869
 30
0.0
 11
221.516530245369
 21
1013.902209394869
 31
0.0
  0
LINE
  5
4CA9
330
1A
100
AcDbEntity
  8
外形線
100
AcDbLine
 10
230.516530245369
 20
1014.402209394869
 30
0.0
 11
231.516530245369
 21
1013.402209394869
 31
0.0
  0
LINE
  5
4CAA
330
1A
100
AcDbEntity
  8
外形線
100
AcDbLine
 10
230.516530245369
 20
1014.402209394869
 30
0.0
 11
222.016530245369
 21
1014.402209394869
 31
0.0
  0
LINE
  5
4CAC
330
1A
100
AcDbEntity
  8
外形線
100
AcDbLine
 10
231.516530245369
 20
860.402209394869
 30
0.0
 11
231.516530245369
 21
1013.402209394869
 31
0.0
  0
LINE
  5
4D0E
330
1A
100
AcDbEntity
  8
中心線
  6
CENTER
 48
10.0
100
AcDbLine
 10
216.514042803116
 20
871.902209394869
 30
0.0
 11
236.516530245369
 21
871.902209394869
 31
0.0
  0
LINE
  5
504A
330
1A
100
AcDbEntity
  8
寸法線
 48
10.0
100
AcDbLine
 10
205.883808774377
 20
737.677780062652
 30
0.0
 11
393.515112561508
 21
737.677780062652
 31
0.0
  0
LINE
  5
504B
330
1A
100
AcDbEntity
  8
寸法線
 48
10.0
100
AcDbLine
 10
205.883808774377
 20
751.152428600151
 30
0.0
 11
393.515112561508
 21
751.152428600151
 31
0.0
  0
LINE
  5
504C
330
1A
100
AcDbEntity
  8
寸法線
 48
10.0
100
AcDbLine
 10
205.883808774377
 20
764.627077137651
 30
0.0
 11
393.515112561508
 21
764.627077137651
 31
0.0
  0
LINE
  5
504D
330
1A
100
AcDbEntity
  8
寸法線
 48
10.0
100
AcDbLine
 10
205.883808774377
 20
778.10172567515
 30
0.0
 11
393.515112561508
 21
778.10172567515
 31
0.0
  0
LINE
  5
504E
330
1A
100
AcDbEntity
  8
寸法線
 48
10.0
100
AcDbLine
 10
393.515112561508
 20
778.10172567515
 30
0.0
 11
393.515112561508
 21
737.677780062652
 31
0.0
  0
LINE
  5
504F
330
1A
100
AcDbEntity
  8
寸法線
 48
10.0
100
AcDbLine
 10
358.815141170203
 20
778.10172567515
 30
0.0
 11
358.815141170203
 21
737.677780062652
 31
0.0
  0
LINE
  5
5050
330
1A
100
AcDbEntity
  8
寸法線
 48
10.0
100
AcDbLine
 10
277.862798792737
 20
778.10172567515
 30
0.0
 11
277.862798792737
 21
737.677780062652
 31
0.0
  0
LINE
  5
5051
330
1A
100
AcDbEntity
  8
寸法線
 48
10.0
100
AcDbLine
 10
243.162827401433
 20
778.10172567515
 30
0.0
 11
243.162827401433
 21
737.677780062652
 31
0.0
  0
LINE
  5
5052
330
1A
100
AcDbEntity
  8
寸法線
 48
10.0
100
AcDbLine
 10
205.883808774377
 20
778.10172567515
 30
0.0
 11
205.883808774378
 21
737.677780062652
 31
0.0
  0
SPLINE
  5
5053
330
1A
100
AcDbEntity
  8
寸法線
 48
10.0
100
AcDbSpline
210
0.0
220
0.0
230
1.0
 70
  1064
 71
     3
 72
    13
 73
     9
 74
     7
 42
0.000000001
 43
0.0000000001
 44
0.0000000001
 40
0.0
 40
0.0
 40
0.0
 40
0.0
 40
3.86842211421227
 40
10.12254119268954
 40
15.16331027423529
 40
18.64952359630841
 40
20.50331406220848
 40
21.8476876304271
 40
21.8476876304271
 40
21.8476876304271
 40
21.8476876304271
 10
257.9362019681282
 20
767.144029167526
 30
0.0
 10
259.0865964434864
 20
767.6754423321123
 30
0.0
 10
262.0968458735764
 20
769.0659967985184
 30
0.0
 10
262.8222315896057
 20
778.773404296139
 30
0.0
 10
258.5313555687181
 20
771.791491397293
 30
0.0
 10
258.719249600938
 20
768.2471086061273
 30
0.0
 10
260.9799205438281
 20
766.858578704153
 30
0.0
 10
261.9798522655402
 20
767.3587791592835
 30
0.0
 10
262.400181480162
 20
767.5690423801545
 30
0.0
 11
257.9362019681282
 21
767.144029167526
 31
0.0
 11
261.0184733495269
 21
769.4816118473766
 31
0.0
 11
261.7093274148442
 21
775.6974566096119
 31
0.0
 11
258.9990549786351
 21
771.4473064646179
 31
0.0
 11
259.4773389638669
 21
767.9940575948619
 31
0.0
 11
261.1247583895697
 21
767.144029167526
 31
0.0
 11
262.400181480162
 21
767.5690423801545
 31
0.0
  0
TEXT
  5
5054
330
1A
100
AcDbEntity
  8
寸法線
 48
10.0
100
AcDbText
 10
251.13876283961
 20
724.559731302536
 30
0.0
 40
8.0
  1
○印が今回の貴社の御仕様です。
100
AcDbText
  0
MTEXT
  5
5055
102
{ACAD_XDICTIONARY
360
543F
102
}
330
1A
100
AcDbEntity
  8
寸法線
 48
10.0
100
AcDbMText
 10
376.887663433401
 20
774.787655323626
 30
0.0
 40
8.0
 41
60.717249709215
 71
     2
 72
     5
  1
台数\P\P\P\P\P\P 
1001
ACADANNOTATIVE
1000
AnnotativeData
1002
{
1070
     1
1070
     0
1002
}
  0
MTEXT
  5
5056
330
1A
100
AcDbEntity
  8
寸法線
 48
10.0
100
AcDbMText
 10
310.927538400635
 20
775.040481520984
 30
0.0
 40
8.0
 41
60.717249709215
 71
     1
 72
     5
  1
記事
  0
MTEXT
  5
5057
102
{ACAD_XDICTIONARY
360
5442
102
}
330
1A
100
AcDbEntity
  8
寸法線
 48
10.0
100
AcDbMText
 10
224.735314420423
 20
775.040481520984
 30
0.0
 40
8.0
 41
60.717249709215
 71
     2
 72
     5
  1
御仕様\P
1001
ACADANNOTATIVE
1000
AnnotativeData
1002
{
1070
     1
1070
     0
1002
}
  0
MTEXT
  5
5058
330
1A
100
AcDbEntity
  8
寸法線
 48
10.0
100
AcDbMText
 10
252.500357304567
 20
775.777481167564
 30
0.0
 40
8.0
 41
148.46544809231
 71
     1
 72
     5
  1
\P250\P300
1001
ACAD
1000
MTEXTBEGIN
1070
    44
1040
1.0125
1000
MTEXTEND
  0
LINE
  5
511D
330
1A
100
AcDbEntity
  8
外形線
100
AcDbLine
 10
330.931158477287
 20
985.454211394868
 30
0.0
 11
357.150686245369
 21
984.240589394868
 31
0.0
  0
ARC
  5
511E
330
1A
100
AcDbEntity
  8
外形線
100
AcDbCircle
 10
329.204474477288
 20
980.884631394869
 30
0.0
 40
1.714446
100
AcDbArc
 50
271.804703587
 51
88.195318508631
  0
ARC
  5
511F
330
1A
100
AcDbEntity
  8
外形線
100
AcDbCircle
 10
356.952841569558
 20
979.39140896858
 30
0.0
 40
4.853214741019798
100
AcDbArc
 50
359.990607665518
 51
87.663650269118
  0
LINE
  5
5120
330
1A
100
AcDbEntity
  8
細線
100
AcDbLine
 10
327.218390477288
 20
982.598255394869
 30
0.0
 11
327.218390477288
 21
987.902209394869
 31
0.0
  0
LINE
  5
5121
330
1A
100
AcDbEntity
  8
外形線
100
AcDbLine
 10
309.511236477286
 20
987.902209394869
 30
0.0
 11
327.218390477288
 21
987.902209394869
 31
0.0
  0
LINE
  5
5122
330
1A
100
AcDbEntity
  8
外形線
100
AcDbLine
 10
327.218390477288
 20
987.902209394869
 30
0.0
 11
330.931158477287
 21
985.454211394868
 31
0.0
  0
LINE
  5
5123
330
1A
100
AcDbEntity
  8
外形線
100
AcDbLine
 10
329.258490477286
 20
982.598255394869
 30
0.0
 11
311.510382477286
 21
982.598255394869
 31
0.0
  0
LINE
  5
5124
330
1A
100
AcDbEntity
  8
外形線
100
AcDbLine
 10
329.258490477286
 20
979.171009394869
 30
0.0
 11
311.510382477286
 21
979.171009394869
 31
0.0
  0
ARC
  5
5125
330
1A
100
AcDbEntity
  8
外形線
100
AcDbCircle
 10
369.65434824537
 20
968.170399394869
 30
0.0
 40
1.86215
100
AcDbArc
 50
276.184221085604
 51
91.517843466766
  0
LINE
  5
5126
330
1A
100
AcDbEntity
  8
外形線
100
AcDbLine
 10
363.88481624537
 20
966.318957394868
 30
0.0
 11
369.85490824537
 21
966.318957394868
 31
0.0
  0
LINE
  5
5127
330
1A
100
AcDbEntity
  8
外形線
100
AcDbLine
 10
363.88481624537
 20
962.320667394869
 30
0.0
 11
369.51726224537
 21
962.320667394869
 31
0.0
  0
ARC
  5
5128
330
1A
100
AcDbEntity
  8
外形線
100
AcDbCircle
 10
363.80528824537
 20
964.319813394868
 30
0.0
 40
2.000726
100
AcDbArc
 50
87.722187561485
 51
272.27785213419
  0
ARC
  5
5129
330
1A
100
AcDbEntity
  8
外形線
100
AcDbCircle
 10
369.51726224537
 20
960.321399394868
 30
0.0
 40
1.9992
100
AcDbArc
 50
0.0
 51
89.999981276021
  0
LINE
  5
512A
330
1A
100
AcDbEntity
  8
外形線
100
AcDbLine
 10
361.806080245371
 20
970.031849394868
 30
0.0
 11
369.605030245369
 21
970.031849394868
 31
0.0
  0
ARC
  5
512B
330
1A
100
AcDbEntity
  8
外形線
100
AcDbCircle
 10
363.960500245369
 20
935.049427394869
 30
0.0
 40
2.15556
100
AcDbArc
 50
181.910948686169
 51
264.487402289583
  0
ARC
  5
512C
330
1A
100
AcDbEntity
  8
外形線
100
AcDbCircle
 10
369.51726224537
 20
930.904651394869
 30
0.0
 40
1.9992
100
AcDbArc
 50
0.0
 51
89.999981276021
  0
LINE
  5
512D
330
1A
100
AcDbEntity
  8
外形線
100
AcDbLine
 10
363.753468245369
 20
932.903919394868
 30
0.0
 11
369.51726224537
 21
932.903919394868
 31
0.0
  0
LINE
  5
512E
330
1A
100
AcDbEntity
  8
外形線
100
AcDbLine
 10
363.753468245369
 20
940.900623394868
 30
0.0
 11
369.51726224537
 21
940.900623394868
 31
0.0
  0
ARC
  5
512F
330
1A
100
AcDbEntity
  8
外形線
100
AcDbCircle
 10
363.960500245369
 20
938.755115394869
 30
0.0
 40
2.15556
100
AcDbArc
 50
95.512637406103
 51
178.089033713721
  0
ARC
  5
5130
330
1A
100
AcDbEntity
  8
外形線
100
AcDbCircle
 10
369.51726224537
 20
942.899769394869
 30
0.0
 40
1.9992
100
AcDbArc
 50
270.0
 51
359.999982399908
  0
LINE
  5
5131
330
1A
100
AcDbEntity
  8
外形線
100
AcDbLine
 10
371.516530245369
 20
960.321399394868
 30
0.0
 11
371.516530245369
 21
942.899769394869
 31
0.0
  0
LINE
  5
5132
330
1A
100
AcDbEntity
  8
外形線
100
AcDbLine
 10
363.884878245369
 20
911.483875394869
 30
0.0
 11
369.51726224537
 21
911.483875394869
 31
0.0
  0
ARC
  5
5133
330
1A
100
AcDbEntity
  8
外形線
100
AcDbCircle
 10
369.51726224537
 20
913.483021394868
 30
0.0
 40
1.9992
100
AcDbArc
 50
270.0
 51
359.999982399882
  0
LINE
  5
5134
330
1A
100
AcDbEntity
  8
外形線
100
AcDbLine
 10
371.516530245369
 20
913.483021394868
 30
0.0
 11
371.516530245369
 21
930.904651394869
 31
0.0
  0
LINE
  5
5135
330
1A
100
AcDbEntity
  8
外形線
100
AcDbLine
 10
311.510382477286
 20
967.747059394868
 30
0.0
 11
327.307500477287
 21
967.747059394868
 31
0.0
  0
LINE
  5
5136
330
1A
100
AcDbEntity
  8
外形線
100
AcDbLine
 10
311.510382477286
 20
959.750233394869
 30
0.0
 11
327.218390477288
 21
959.750233394869
 31
0.0
  0
LINE
  5
5137
330
1A
100
AcDbEntity
  8
外形線
100
AcDbLine
 10
311.510382477286
 20
932.618275394869
 30
0.0
 11
327.218390477288
 21
932.618275394869
 31
0.0
  0
LINE
  5
5138
330
1A
100
AcDbEntity
  8
外形線
100
AcDbLine
 10
311.510382477286
 20
941.186267394868
 30
0.0
 11
327.218390477288
 21
941.186267394868
 31
0.0
  0
LINE
  5
5139
330
1A
100
AcDbEntity
  8
細線
100
AcDbLine
 10
327.218390477288
 20
941.186267394868
 30
0.0
 11
327.218390477288
 21
959.750233394869
 31
0.0
  0
LINE
  5
513A
330
1A
100
AcDbEntity
  8
外形線
100
AcDbLine
 10
311.510382477286
 20
914.054187394869
 30
0.0
 11
327.218390477288
 21
914.054187394869
 31
0.0
  0
LINE
  5
513B
330
1A
100
AcDbEntity
  8
細線
100
AcDbLine
 10
327.218390477288
 20
932.618275394869
 30
0.0
 11
327.218390477288
 21
914.054187394869
 31
0.0
  0
ARC
  5
513C
330
1A
100
AcDbEntity
  8
外形線
100
AcDbCircle
 10
325.931280477287
 20
937.484729394869
 30
0.0
 40
5.033766
100
AcDbArc
 50
284.815257311503
 51
353.35584921602
  0
ARC
  5
513D
330
1A
100
AcDbEntity
  8
外形線
100
AcDbCircle
 10
325.931280477287
 20
936.319813394868
 30
0.0
 40
5.033766
100
AcDbArc
 50
6.644133183896
 51
75.184725088468
  0
ARC
  5
513E
330
1A
100
AcDbEntity
  8
外形線
100
AcDbCircle
 10
326.892340477286
 20
963.752795394868
 30
0.0
 40
4.015794000000001
100
AcDbArc
 50
274.656944786913
 51
84.065438721313
  0
LINE
  5
513F
330
1A
100
AcDbEntity
  8
外形線
100
AcDbLine
 10
361.806080245371
 20
936.902209394869
 30
0.0
 11
361.806080245371
 21
979.390613394869
 31
0.0
  0
LINE
  5
5140
330
1A
100
AcDbEntity
  8
細線
100
AcDbLine
 10
327.218390477288
 20
967.747059394868
 30
0.0
 11
327.218390477288
 21
979.171009394869
 31
0.0
  0
LINE
  5
5141
330
1A
100
AcDbEntity
  8
細線
 62
     6
 48
10.0
100
AcDbLine
 10
253.730379382242
 20
960.040515141128
 30
0.0
 11
253.730379382242
 21
913.252142632296
 31
0.0
  0
LINE
  5
5142
330
1A
100
AcDbEntity
  8
外形線
100
AcDbLine
 10
309.011236477286
 20
987.902209394869
 30
0.0
 11
309.511236477286
 21
987.402209394869
 31
0.0
  0
ARC
  5
5143
330
1A
100
AcDbEntity
  8
外形線
100
AcDbCircle
 10
267.221842063183
 20
977.992616975643
 30
0.0
 40
3.0
100
AcDbArc
 50
93.179830119868
 51
147.724355685419
  0
ARC
  5
5144
330
1A
100
AcDbEntity
  8
外形線
100
AcDbCircle
 10
251.857730416091
 20
908.902209394869
 30
0.0
 40
3.0
100
AcDbArc
 50
32.275644314581
 51
90.0
  0
ARC
  5
5145
330
1A
100
AcDbEntity
  8
外形線
100
AcDbCircle
 10
251.857730416091
 20
964.902209394869
 30
0.0
 40
3.0
100
AcDbArc
 50
270.0
 51
327.724355685419
  0
LINE
  5
5146
330
1A
100
AcDbEntity
  8
外形線
100
AcDbLine
 10
251.857730416091
 20
961.902209394869
 30
0.0
 11
234.511236477286
 21
961.902209394869
 31
0.0
  0
LINE
  5
5147
330
1A
100
AcDbEntity
  8
外形線
100
AcDbLine
 10
264.68537535409
 20
979.594595949807
 30
0.0
 11
254.394197125184
 21
963.300230420705
 31
0.0
  0
LINE
  5
5148
330
1A
100
AcDbEntity
  8
外形線
100
AcDbLine
 10
301.511236477286
 20
982.902209394869
 30
0.0
 11
267.055432004315
 21
980.987998035259
 31
0.0
  0
LINE
  5
5149
330
1A
100
AcDbEntity
  8
外形線
100
AcDbLine
 10
304.511236477286
 20
987.902209394869
 30
0.0
 11
301.511236477286
 21
982.902209394869
 31
0.0
  0
LINE
  5
514A
330
1A
100
AcDbEntity
  8
外形線
100
AcDbLine
 10
309.011236477286
 20
987.902209394869
 30
0.0
 11
304.511236477286
 21
987.902209394869
 31
0.0
  0
ARC
  5
514B
330
1A
100
AcDbEntity
  8
外形線
100
AcDbCircle
 10
234.511236477286
 20
964.902209394869
 30
0.0
 40
3.0
100
AcDbArc
 50
183.404264859033
 51
270.0
  0
LINE
  5
514C
330
1A
100
AcDbEntity
  8
外形線
100
AcDbLine
 10
251.857730416091
 20
911.902209394869
 30
0.0
 11
234.511236477286
 21
911.902209394869
 31
0.0
  0
LINE
  5
514D
330
1A
100
AcDbEntity
  8
細線
 62
     6
 48
10.0
100
AcDbLine
 10
301.511236477286
 20
894.755041452309
 30
0.0
 11
304.511236477286
 21
885.902209394869
 31
0.0
  0
ARC
  5
514E
330
1A
100
AcDbEntity
  8
細線
100
AcDbCircle
 10
289.13201024537
 20
860.135211394867
 30
0.0
 40
36.76653200000171
100
AcDbArc
 50
70.324160459507
 51
115.211785839405
  0
LINE
  5
514F
330
1A
100
AcDbEntity
  8
外形線
100
AcDbLine
 10
361.806080245371
 20
903.772693394869
 30
0.0
 11
369.605030245369
 21
903.772693394869
 31
0.0
  0
LINE
  5
5150
330
1A
100
AcDbEntity
  8
外形線
100
AcDbLine
 10
363.88481624537
 20
907.485461394868
 30
0.0
 11
369.85490824537
 21
907.485461394868
 31
0.0
  0
ARC
  5
5151
330
1A
100
AcDbEntity
  8
外形線
100
AcDbCircle
 10
363.806570245369
 20
909.484699394869
 30
0.0
 40
2.000724
100
AcDbArc
 50
87.757023395409
 51
272.242959004484
  0
ARC
  5
5152
330
1A
100
AcDbEntity
  8
外形線
100
AcDbCircle
 10
369.65434824537
 20
905.634143394868
 30
0.0
 40
1.86215
100
AcDbArc
 50
268.482178628784
 51
83.815801009983
  0
LINE
  5
5153
330
1A
100
AcDbEntity
  8
外形線
100
AcDbLine
 10
330.931158477287
 20
888.350207394868
 30
0.0
 11
357.150686245369
 21
889.563893394869
 31
0.0
  0
ARC
  5
5154
330
1A
100
AcDbEntity
  8
外形線
100
AcDbCircle
 10
329.204474477288
 20
892.919789394869
 30
0.0
 40
1.714446
100
AcDbArc
 50
271.804703587
 51
88.195318508631
  0
ARC
  5
5155
330
1A
100
AcDbEntity
  8
外形線
100
AcDbCircle
 10
356.952734279142
 20
894.413176815238
 30
0.0
 40
4.853322024346461
100
AcDbArc
 50
272.337565725697
 51
0.008866954305
  0
LINE
  5
5156
330
1A
100
AcDbEntity
  8
外形線
100
AcDbLine
 10
361.806080245371
 20
936.902209394869
 30
0.0
 11
361.806080245371
 21
894.413929394868
 31
0.0
  0
LINE
  5
5157
330
1A
100
AcDbEntity
  8
外形線
100
AcDbLine
 10
311.510382477286
 20
906.057483394869
 30
0.0
 11
327.307500477287
 21
906.057483394869
 31
0.0
  0
LINE
  5
5158
330
1A
100
AcDbEntity
  8
外形線
100
AcDbLine
 10
309.511236477286
 20
885.902209394869
 30
0.0
 11
327.218390477288
 21
885.902209394869
 31
0.0
  0
LINE
  5
5159
330
1A
100
AcDbEntity
  8
細線
100
AcDbLine
 10
327.218390477288
 20
891.206287394868
 30
0.0
 11
327.218390477288
 21
885.902209394869
 31
0.0
  0
LINE
  5
515A
330
1A
100
AcDbEntity
  8
細線
100
AcDbLine
 10
327.218390477288
 20
906.057483394869
 30
0.0
 11
327.218390477288
 21
894.633411394869
 31
0.0
  0
LINE
  5
515B
330
1A
100
AcDbEntity
  8
外形線
100
AcDbLine
 10
329.258490477286
 20
891.206287394868
 30
0.0
 11
311.510382477286
 21
891.206287394868
 31
0.0
  0
LINE
  5
515C
330
1A
100
AcDbEntity
  8
外形線
100
AcDbLine
 10
329.258490477286
 20
894.633411394869
 30
0.0
 11
311.510382477286
 21
894.633411394869
 31
0.0
  0
LINE
  5
515D
330
1A
100
AcDbEntity
  8
外形線
100
AcDbLine
 10
330.931158477287
 20
888.350207394868
 30
0.0
 11
327.218390477288
 21
885.902209394869
 31
0.0
  0
ARC
  5
515E
330
1A
100
AcDbEntity
  8
外形線
100
AcDbCircle
 10
326.892340477286
 20
910.051747394868
 30
0.0
 40
4.015794000000001
100
AcDbArc
 50
275.934583374273
 51
85.343077308691
  0
LINE
  5
515F
330
1A
100
AcDbEntity
  8
外形線
100
AcDbLine
 10
302.511038245371
 20
866.618183394869
 30
0.0
 11
302.511038245371
 21
862.905415394868
 31
0.0
  0
LINE
  5
5160
330
1A
100
AcDbEntity
  8
外形線
100
AcDbLine
 10
302.511038245371
 20
862.905415394868
 30
0.0
 11
301.08293824537
 21
861.477375394868
 31
0.0
  0
ARC
  5
5161
330
1A
100
AcDbEntity
  8
細線
100
AcDbCircle
 10
288.516530245369
 20
876.014057394868
 30
0.0
 40
14.53669
100
AcDbArc
 50
244.3907930338
 51
295.609209213942
  0
LINE
  5
5162
330
1A
100
AcDbEntity
  8
外形線
100
AcDbLine
 10
274.52214624537
 20
866.618183394869
 30
0.0
 11
274.52214624537
 21
862.905415394868
 31
0.0
  0
LINE
  5
5163
330
1A
100
AcDbEntity
  8
細線
100
AcDbLine
 10
282.233328245371
 20
862.905415394868
 30
0.0
 11
282.233328245371
 21
866.618183394869
 31
0.0
  0
LINE
  5
5164
330
1A
100
AcDbEntity
  8
外形線
100
AcDbLine
 10
274.52214624537
 20
862.905415394868
 30
0.0
 11
275.950124245369
 21
861.477375394868
 31
0.0
  0
ARC
  5
5165
330
1A
100
AcDbEntity
  8
細線
100
AcDbCircle
 10
275.09416824537
 20
879.780293394869
 30
0.0
 40
18.322924
100
AcDbArc
 50
272.67766208363
 51
292.931548254146
  0
LINE
  5
5166
330
1A
100
AcDbEntity
  8
外形線
100
AcDbLine
 10
279.091726245371
 20
866.618183394869
 30
0.0
 11
279.091726245371
 21
870.902179394869
 31
0.0
  0
LINE
  5
5167
330
1A
100
AcDbEntity
  8
細線
100
AcDbLine
 10
281.376516245371
 20
870.902179394869
 30
0.0
 11
281.376516245371
 21
866.618183394869
 31
0.0
  0
LINE
  5
5168
330
1A
100
AcDbEntity
  8
細線
100
AcDbLine
 10
294.79973424537
 20
862.905415394868
 30
0.0
 11
294.79973424537
 21
866.618183394869
 31
0.0
  0
LINE
  5
5169
330
1A
100
AcDbEntity
  8
外形線
100
AcDbLine
 10
297.94133624537
 20
866.618183394869
 30
0.0
 11
297.94133624537
 21
870.902179394869
 31
0.0
  0
LINE
  5
516A
330
1A
100
AcDbEntity
  8
細線
100
AcDbLine
 10
295.65654624537
 20
870.902179394869
 30
0.0
 11
295.65654624537
 21
866.618183394869
 31
0.0
  0
LINE
  5
516B
330
1A
100
AcDbEntity
  8
外形線
100
AcDbLine
 10
274.52214624537
 20
866.618183394869
 30
0.0
 11
302.511038245371
 21
866.618183394869
 31
0.0
  0
LINE
  5
516C
330
1A
100
AcDbEntity
  8
外形線
100
AcDbLine
 10
275.950124245369
 20
861.477375394868
 30
0.0
 11
301.08293824537
 21
861.477375394868
 31
0.0
  0
ARC
  5
516D
330
1A
100
AcDbEntity
  8
細線
100
AcDbCircle
 10
301.938894245369
 20
879.780293394869
 30
0.0
 40
18.322924
100
AcDbArc
 50
247.068453993571
 51
267.32239745992
  0
LINE
  5
516E
330
1A
100
AcDbEntity
  8
外形線
100
AcDbLine
 10
309.511236477286
 20
987.902209394869
 30
0.0
 11
309.511236477286
 21
885.902209394869
 31
0.0
  0
LINE
  5
516F
330
1A
100
AcDbEntity
  8
外形線
100
AcDbLine
 10
311.510382477286
 20
885.902209394869
 30
0.0
 11
311.510382477286
 21
987.902209394869
 31
0.0
  0
LINE
  5
5170
330
1A
100
AcDbEntity
  8
細線
100
AcDbLine
 10
330.931158477287
 20
985.454211394868
 30
0.0
 11
330.931158477287
 21
888.350207394868
 31
0.0
  0
LINE
  5
5171
330
1A
100
AcDbEntity
  8
細線
 62
     6
 48
10.0
100
AcDbLine
 10
266.113258932269
 20
977.827831456999
 30
0.0
 11
266.113258932269
 21
895.851507948049
 31
0.0
  0
LINE
  5
5172
330
1A
100
AcDbEntity
  8
細線
 62
     6
 48
10.0
100
AcDbLine
 10
301.511236477286
 20
982.902209394869
 30
0.0
 11
301.511236477286
 21
894.755041452309
 31
0.0
  0
LINE
  5
5173
330
1A
100
AcDbEntity
  8
細線
 62
     6
 48
10.0
100
AcDbLine
 10
304.511236477286
 20
987.902209394869
 30
0.0
 11
304.511236477286
 21
885.902209394869
 31
0.0
  0
LINE
  5
5174
330
1A
100
AcDbEntity
  8
外形線
100
AcDbLine
 10
309.011236477286
 20
885.902209394869
 30
0.0
 11
309.511236477286
 21
886.402209394869
 31
0.0
  0
ARC
  5
5175
330
1A
100
AcDbEntity
  8
外形線
100
AcDbCircle
 10
276.392930197236
 20
872.902209394869
 30
0.0
 40
2.0
100
AcDbArc
 50
183.491441283441
 51
270.0
  0
ARC
  5
5176
330
1A
100
AcDbEntity
  8
外形線
100
AcDbCircle
 10
300.640130293504
 20
872.902209394869
 30
0.0
 40
2.0
100
AcDbArc
 50
270.0
 51
356.185925165712
  0
ARC
  5
5177
330
1A
100
AcDbEntity
  8
外形線
100
AcDbCircle
 10
272.251049859974
 20
891.526233297091
 30
0.0
 40
1.0
100
AcDbArc
 50
3.491441283441
 51
86.820169880132
  0
ARC
  5
5178
330
1A
100
AcDbEntity
  8
外形線
100
AcDbCircle
 10
267.221842063183
 20
895.811801814094
 30
0.0
 40
3.0
100
AcDbArc
 50
212.275644314581
 51
266.820169880132
  0
LINE
  5
5179
330
1A
100
AcDbEntity
  8
外形線
100
AcDbLine
 10
264.68537535409
 20
894.209822839931
 30
0.0
 11
254.394197125184
 21
910.504188369033
 31
0.0
  0
LINE
  5
517A
330
1A
100
AcDbEntity
  8
中心線
  6
CENTER
 48
10.0
100
AcDbLine
 10
288.516530245369
 20
855.00101845823
 30
0.0
 11
288.516530245369
 21
904.607655404489
 31
0.0
  0
LINE
  5
517B
330
1A
100
AcDbEntity
  8
外形線
100
AcDbLine
 10
272.306519879597
 20
892.524693650296
 30
0.0
 11
267.055432004315
 21
892.816420754478
 31
0.0
  0
LINE
  5
517C
330
1A
100
AcDbEntity
  8
外形線
100
AcDbLine
 10
273.249193766556
 20
891.587132736781
 30
0.0
 11
274.396642384073
 21
872.780410515488
 31
0.0
  0
LINE
  5
517D
330
1A
100
AcDbEntity
  8
外形線
100
AcDbLine
 10
303.511236477288
 20
885.902209394869
 30
0.0
 11
302.635700609218
 21
872.769171373821
 31
0.0
  0
LINE
  5
517E
330
1A
100
AcDbEntity
  8
外形線
100
AcDbLine
 10
276.392930197236
 20
870.902209394869
 30
0.0
 11
300.640130293504
 21
870.902209394869
 31
0.0
  0
LINE
  5
517F
330
1A
100
AcDbEntity
  8
外形線
100
AcDbLine
 10
309.011236477286
 20
885.902209394869
 30
0.0
 11
303.511236477288
 21
885.902209394869
 31
0.0
  0
ARC
  5
5181
330
1A
100
AcDbEntity
  8
外形線
100
AcDbCircle
 10
234.511236477286
 20
908.902209394869
 30
0.0
 40
3.0
100
AcDbArc
 50
90.0
 51
176.595735140967
  0
LEADER
  5
5182
330
1A
100
AcDbEntity
  8
寸法線
 62
     1
 48
10.0
100
AcDbLeader
  3
ISO-25
 76
     3
 10
298.253400679683
 20
868.529697771596
 30
0.0
 10
321.231341953724
 20
853.181101157214
 30
0.0
 10
330.85422289804
 20
853.181101157214
 30
0.0
213
-31.95747388409984
223
0.0
233
0.0
1001
ACAD
1000
DSTYLE
1002
{
1070
     5
1000
OPEN30
1070
   147
1040
0.625
1070
    77
1070
     0
1070
    41
1040
6.0
1070
    47
1040
0.1
1070
    48
1040
0.1
1070
    73
1070
     0
1070
   140
1040
8.0
1070
   271
1070
     1
1070
   272
1070
     1
1070
   341
1005
2AF4
1070
   342
1005
2AF4
1002
}
  0
DIMENSION
  5
5183
330
1A
100
AcDbEntity
  8
寸法線
 48
10.0
100
AcDbDimension
  2
*D18
 10
392.635308855593
 20
885.902209394869
 30
0.0
 11
392.635308855593
 21
936.290209894869
 31
0.0
 70
   160
  1
φ102
  3
ISO-25
100
AcDbAlignedDimension
 13
327.223684245371
 23
987.902209394869
 33
0.0
 14
327.223684245371
 24
885.902209394869
 34
0.0
 50
90.0
100
AcDbRotatedDimension
1001
ACAD
1000
DSTYLE
1002
{
1070
     5
1000
OPEN30
1070
    41
1040
6.0
1070
    47
1040
0.1
1070
    48
1040
0.1
1070
    73
1070
     0
1070
   140
1040
8.0
1070
   271
1070
     1
1070
   272
1070
     1
1070
   341
1005
2AF4
1002
}
  0
DIMENSION
  5
5184
330
1A
100
AcDbEntity
  8
寸法線
 48
10.0
100
AcDbDimension
  2
*D19
 10
288.516530245369
 20
832.597712392222
 30
0.0
 11
330.016530245369
 21
837.222712392222
 31
0.0
 70
    32
  3
ISO-25
100
AcDbAlignedDimension
 13
371.516530245369
 23
905.692992204658
 33
0.0
 14
288.516530245369
 24
855.00101845823
 34
0.0
100
AcDbRotatedDimension
1001
ACAD
1000
DSTYLE
1002
{
1070
     5
1000
OPEN30
1070
    41
1040
6.0
1070
    47
1040
0.1
1070
    48
1040
0.1
1070
    73
1070
     0
1070
   140
1040
8.0
1070
   271
1070
     1
1070
   272
1070
     1
1070
   341
1005
2AF4
1002
}
  0
MTEXT
  5
5185
330
1A
100
AcDbEntity
  8
寸法線
 48
10.0
100
AcDbMText
 10
321.982630018994
 20
854.550442363272
 30
0.0
 40
8.0
 41
0.0
 71
     7
 72
     1
  1
導線取出口\PG 1/2"
  0
MTEXT
  5
5573
102
{ACAD_XDICTIONARY
360
5574
102
}
330
1A
100
AcDbEntity
  8
寸法線
 48
10.0
100
AcDbMText
 10
-145.786623492517
 20
768.950129851447
 30
0.0
 40
8.0
 41
168.503621648242
 71
     1
 72
     5
  1
御仕様   電源電圧    リード線色\P       AC100/110V　 シロ・シロ\P       AC200/220V　クロ・クロ
1001
ACADANNOTATIVE
1000
AnnotativeData
1002
{
1070
     1
1070
     0
1002
}
  0
MTEXT
  5
5577
102
{ACAD_XDICTIONARY
360
5578
102
}
330
1A
100
AcDbEntity
  8
寸法線
 48
10.0
100
AcDbMText
 10
-257.372070181339
 20
665.93386329414
 30
0.0
 40
6.0
 41
49.50078544177
 71
     1
 72
     5
  1
L　　C　　 H
1001
ACADANNOTATIVE
1000
AnnotativeData
1002
{
1070
     1
1070
     0
1002
}
  0
MTEXT
  5
557B
330
1A
100
AcDbEntity
  8
寸法線
 48
10.0
100
AcDbMText
 10
-197.96717949354
 20
645.151262056932
 30
0.0
 40
6.0
 41
22.662715674224
 71
     1
 72
     5
  1
電　源
  0
LINE
  5
557C
330
1A
100
AcDbEntity
  8
寸法線
100
AcDbLine
 10
-257.375549909186
 20
674.990870178432
 30
0.0
 11
-257.375549909186
 21
772.122828178432
 31
0.0
  0
LINE
  5
557D
330
1A
100
AcDbEntity
  8
寸法線
100
AcDbLine
 10
-257.375549909186
 20
772.122828178432
 30
0.0
 11
-244.523559909187
 21
772.122828178432
 31
0.0
  0
LINE
  5
557E
330
1A
100
AcDbEntity
  8
寸法線
100
AcDbLine
 10
-244.523559909187
 20
772.122828178432
 30
0.0
 11
-244.523559909187
 21
752.416408178432
 31
0.0
  0
LINE
  5
557F
330
1A
100
AcDbEntity
  8
寸法線
100
AcDbLine
 10
-228.815551909187
 20
772.122828178432
 30
0.0
 11
-215.963561909187
 21
772.122828178432
 31
0.0
  0
LINE
  5
5580
330
1A
100
AcDbEntity
  8
寸法線
100
AcDbLine
 10
-196.257203909186
 20
772.122828178432
 30
0.0
 11
-176.265137909187
 21
772.122828178432
 31
0.0
  0
TEXT
  5
5581
330
1A
100
AcDbEntity
  8
寸法線
100
AcDbText
 10
-241.865661909187
 20
704.334072178432
 30
0.0
 40
8.571428571429
  1
キ
  7
EXCADVERT
 72
     3
 11
-241.865661909187
 21
696.334072178432
 31
0.0
100
AcDbText
  0
TEXT
  5
5582
330
1A
100
AcDbEntity
  8
寸法線
100
AcDbText
 10
-182.266479909187
 20
735.489284178431
 30
0.0
 40
12.0
  1
Ｍ
 41
1.25
  7
EXCADSTD
 72
     5
 11
-170.266479909187
 21
735.489284178431
 31
0.0
100
AcDbText
  0
LINE
  5
5583
330
1A
100
AcDbEntity
  8
寸法線
100
AcDbLine
 10
-176.265137909187
 20
772.122828178432
 30
0.0
 11
-176.265137909187
 21
750.889858178431
 31
0.0
  0
CIRCLE
  5
5584
330
1A
100
AcDbEntity
  8
寸法線
100
AcDbCircle
 10
-236.669555909187
 20
734.595668178431
 30
0.0
 40
1.600006
  0
LINE
  5
5585
330
1A
100
AcDbEntity
  8
寸法線
100
AcDbLine
 10
-236.669555909187
 20
732.995632178432
 30
0.0
 11
-236.669555909187
 21
674.990870178432
 31
0.0
  0
LINE
  5
5586
330
1A
100
AcDbEntity
  8
寸法線
100
AcDbLine
 10
-215.963561909187
 20
772.122828178432
 30
0.0
 11
-215.963561909187
 21
674.990870178432
 31
0.0
  0
LINE
  5
5587
330
1A
100
AcDbEntity
  8
寸法線
100
AcDbLine
 10
-176.265137909187
 20
732.505396178432
 30
0.0
 11
-176.265137909187
 21
674.990870178432
 31
0.0
  0
CIRCLE
  5
5588
330
1A
100
AcDbEntity
  8
寸法線
100
AcDbCircle
 10
-257.375549909186
 20
671.990870178432
 30
0.0
 40
1.599998
  0
LINE
  5
5589
330
1A
100
AcDbEntity
  8
寸法線
100
AcDbLine
 10
-196.257203909186
 20
732.995632178432
 30
0.0
 11
-196.257203909186
 21
674.990870178432
 31
0.0
  0
CIRCLE
  5
558A
330
1A
100
AcDbEntity
  8
寸法線
100
AcDbCircle
 10
-196.257203909186
 20
734.595668178431
 30
0.0
 40
1.600006
  0
CIRCLE
  5
558B
330
1A
100
AcDbEntity
  8
寸法線
100
AcDbCircle
 10
-244.523559909187
 20
750.816432178432
 30
0.0
 40
1.600006
  0
LINE
  5
558C
330
1A
100
AcDbEntity
  8
寸法線
100
AcDbLine
 10
-228.815551909187
 20
772.122828178432
 30
0.0
 11
-228.815551909187
 21
752.416408178432
 31
0.0
  0
CIRCLE
  5
558D
330
1A
100
AcDbEntity
  8
寸法線
100
AcDbCircle
 10
-228.815551909187
 20
750.816432178432
 30
0.0
 40
1.600006
  0
LINE
  5
558E
330
1A
100
AcDbEntity
  8
寸法線
100
AcDbLine
 10
-196.257203909186
 20
772.122828178432
 30
0.0
 11
-196.257203909186
 21
752.416408178432
 31
0.0
  0
CIRCLE
  5
558F
330
1A
100
AcDbEntity
  8
寸法線
100
AcDbCircle
 10
-196.257203909186
 20
750.816432178432
 30
0.0
 40
1.600006
  0
LINE
  5
5590
330
1A
100
AcDbEntity
  8
寸法線
100
AcDbLine
 10
-236.669555909187
 20
736.195644178431
 30
0.0
 11
-242.923583909187
 21
750.816432178432
 31
0.0
  0
LINE
  5
5591
330
1A
100
AcDbEntity
  8
寸法線
100
AcDbLine
 10
-196.257203909186
 20
736.195644178431
 30
0.0
 11
-194.657165909187
 21
750.816432178432
 31
0.0
  0
CIRCLE
  5
5592
330
1A
100
AcDbEntity
  8
寸法線
100
AcDbCircle
 10
-176.257569909187
 20
741.712062178432
 30
0.0
 40
9.177798
  0
TEXT
  5
5593
330
1A
100
AcDbEntity
  8
寸法線
100
AcDbText
 10
-220.801757909187
 20
713.434290178432
 30
0.0
 40
8.041237113402
  1
ア　カ
  7
EXCADVERT
 72
     3
 11
-220.801757909187
 21
687.434290178432
 31
0.0
100
AcDbText
  0
TEXT
  5
5594
330
1A
100
AcDbEntity
  8
寸法線
100
AcDbText
 10
-262.352051909186
 20
713.434290178432
 30
0.0
 40
7.515151518764
  1
ミドリ
  7
EXCADVERT
 72
     3
 11
-262.352051909186
 21
688.63429016651
 31
0.0
100
AcDbText
  0
CIRCLE
  5
5595
330
1A
100
AcDbEntity
  8
寸法線
100
AcDbCircle
 10
-257.375549909186
 20
671.990870178432
 30
0.0
 40
3.0
  0
CIRCLE
  5
5596
330
1A
100
AcDbEntity
  8
寸法線
100
AcDbCircle
 10
-236.669555909187
 20
671.990870178432
 30
0.0
 40
1.599998
  0
CIRCLE
  5
5597
330
1A
100
AcDbEntity
  8
寸法線
100
AcDbCircle
 10
-236.669555909187
 20
671.990870178432
 30
0.0
 40
3.0
  0
CIRCLE
  5
5598
330
1A
100
AcDbEntity
  8
寸法線
100
AcDbCircle
 10
-196.257203909186
 20
671.990870178432
 30
0.0
 40
1.599998
  0
CIRCLE
  5
5599
330
1A
100
AcDbEntity
  8
寸法線
100
AcDbCircle
 10
-196.257203909186
 20
671.990870178432
 30
0.0
 40
3.0
  0
CIRCLE
  5
559A
330
1A
100
AcDbEntity
  8
寸法線
100
AcDbCircle
 10
-176.265137909187
 20
671.990870178432
 30
0.0
 40
1.599998
  0
CIRCLE
  5
559B
330
1A
100
AcDbEntity
  8
寸法線
100
AcDbCircle
 10
-176.265137909187
 20
671.990870178432
 30
0.0
 40
3.0
  0
CIRCLE
  5
559C
330
1A
100
AcDbEntity
  8
寸法線
100
AcDbCircle
 10
-215.963561909187
 20
671.990870178432
 30
0.0
 40
1.599998
  0
CIRCLE
  5
559D
330
1A
100
AcDbEntity
  8
寸法線
100
AcDbCircle
 10
-215.963561909187
 20
671.990870178432
 30
0.0
 40
3.0
  0
MTEXT
  5
559E
102
{ACAD_XDICTIONARY
360
559F
102
}
330
1A
100
AcDbEntity
  8
寸法線
 62
     1
 48
10.0
100
AcDbMText
 10
-205.673621032117
 20
719.475476940339
 30
0.0
 40
8.0
 41
75.886769199617
 71
     1
 72
     3
  1
シロ クロ
1001
ACADANNOTATIVE
1000
AnnotativeData
1002
{
1070
     1
1070
     0
1002
}
  0
MTEXT
  5
55A2
330
1A
100
AcDbEntity
  8
寸法線
 62
     1
 48
10.0
100
AcDbMText
 10
-206.882768818705
 20
677.731501326362
 30
0.0
 40
8.0
 41
113.327544635948
 71
     1
 72
     1
  1
(    )
 11
6.123233995736766E-17
 21
1.0
 31
0.0
  0
MTEXT
  5
55A3
102
{ACAD_XDICTIONARY
360
55A4
102
}
330
1A
100
AcDbEntity
  8
寸法線
 48
10.0
100
AcDbMText
 10
-207.35445484529
 20
665.403110121732
 30
0.0
 40
6.0
 41
101.805806042976
 71
     1
 72
     5
  1
100/110 0
1001
ACADANNOTATIVE
1000
AnnotativeData
1002
{
1070
     1
1070
     0
1002
}
  0
MTEXT
  5
55A7
102
{ACAD_XDICTIONARY
360
55A8
102
}
330
1A
100
AcDbEntity
  8
寸法線
 62
     1
 48
10.0
100
AcDbMText
 10
-185.232578498312
 20
718.874269806992
 30
0.0
 40
8.0
 41
75.886769199617
 71
     1
 72
     3
  1
シロ クロ
1001
ACADANNOTATIVE
1000
AnnotativeData
1002
{
1070
     1
1070
     0
1002
}
  0
MTEXT
  5
55AB
330
1A
100
AcDbEntity
  8
寸法線
 62
     1
 48
10.0
100
AcDbMText
 10
-186.4417262849
 20
677.130294193015
 30
0.0
 40
8.0
 41
113.327544635948
 71
     1
 72
     1
  1
(    )
 11
6.123233995736766E-17
 21
1.0
 31
0.0
  0
MTEXT
  5
55AC
102
{ACAD_XDICTIONARY
360
55AD
102
}
330
1A
100
AcDbEntity
  8
寸法線
 48
10.0
100
AcDbMText
 10
-212.220475080819
 20
657.57332659603
 30
0.0
 40
6.0
 41
101.805806042976
 71
     1
 72
     5
  1
(200/220 0)
1001
ACADANNOTATIVE
1000
AnnotativeData
1002
{
1070
     1
1070
     0
1002
}
  0
MTEXT
  5
55B0
102
{ACAD_XDICTIONARY
360
55B1
102
}
330
1A
100
AcDbEntity
  8
寸法線
 48
10.0
100
AcDbMText
 10
-145.610005593323
 20
694.909938675849
 30
0.0
 40
8.0
 41
251.713339384691
 71
     1
 72
     5
  1
塗　装　色：10YR7.5/14\P接点　容量：AC250V5A\P静止トルク：約10.0N・cm\P回　転　数：1RPM
1001
ACADANNOTATIVE
1000
AnnotativeData
1002
{
1070
     1
1070
     0
1002
}
  0
MTEXT
  5
55B4
330
1A
100
AcDbEntity
  8
寸法線
 48
10.0
100
AcDbMText
 10
-125.603721370022
 20
727.893415747682
 30
0.0
 40
8.0
 41
161.650793650794
 71
     1
 72
     5
  1
○印が今回の貴社の御仕様です。
  0
LINE
  5
55B5
330
1A
100
AcDbEntity
  8
寸法線
 62
     1
 48
10.0
100
AcDbLine
 10
-148.218115056247
 20
758.104863621556
 30
0.0
 11
14.005345691349
 21
758.104863621556
 31
0.0
  0
LINE
  5
55B6
330
1A
100
AcDbEntity
  8
寸法線
 62
     1
 48
10.0
100
AcDbLine
 10
-148.218115056247
 20
744.84331485731
 30
0.0
 11
14.005345691349
 21
744.84331485731
 31
0.0
  0
LINE
  5
55B7
330
1A
100
AcDbEntity
  8
寸法線
 62
     1
 48
10.0
100
AcDbLine
 10
-148.218115056247
 20
731.581766093063
 30
0.0
 11
14.005345691349
 21
731.581766093063
 31
0.0
  0
LINE
  5
55B8
330
1A
100
AcDbEntity
  8
寸法線
 62
     1
 48
10.0
100
AcDbLine
 10
-148.218115056247
 20
771.106382017877
 30
0.0
 11
14.005345691349
 21
771.106382017877
 31
0.0
  0
LINE
  5
55B9
330
1A
100
AcDbEntity
  8
寸法線
 62
     1
 48
10.0
100
AcDbLine
 10
-115.45428869752
 20
771.106382017877
 30
0.0
 11
-115.45428869752
 21
731.581766093063
 31
0.0
  0
LINE
  5
55BA
330
1A
100
AcDbEntity
  8
寸法線
 62
     1
 48
10.0
100
AcDbLine
 10
-148.218115056247
 20
771.106382017877
 30
0.0
 11
-148.218115056247
 21
731.581766093063
 31
0.0
  0
LINE
  5
55BB
330
1A
100
AcDbEntity
  8
寸法線
 62
     1
 48
10.0
100
AcDbLine
 10
-50.446696715919
 20
771.106382017877
 30
0.0
 11
-50.446696715919
 21
731.581766093063
 31
0.0
  0
LINE
  5
55BC
330
1A
100
AcDbEntity
  8
寸法線
 62
     1
 48
10.0
100
AcDbLine
 10
14.005345691349
 20
771.106382017877
 30
0.0
 11
14.005345691349
 21
731.581766093063
 31
0.0
  0
VIEWPORT
  5
2902
330
28FB
100
AcDbEntity
 67
     1
  8
0
 48
10.0
100
AcDbViewport
 10
0.0
 20
0.0
 30
0.0
 40
574.166666666667
 41
304.75
 68
     1
 69
     1
1001
ACAD
1000
MVIEW
1002
{
1070
    16
1010
0.0
1020
0.0
1030
0.0
1010
0.0
1020
0.0
1030
1.0
1040
0.0
1040
304.75
1040
245.727336666667
1040
102.697336666667
1040
50.0
1040
0.0
1040
0.0
1070
    16
1070
   100
1070
     0
1070
     1
1070
     0
1070
     0
1070
     0
1070
     0
1040
0.0
1040
0.0
1040
0.0
1040
10.0
1040
10.0
1040
10.0
1040
10.0
1070
     0
1002
{
1002
}
1002
}
  0
VIEWPORT
  5
2904
330
28FB
100
AcDbEntity
 67
     1
  8
図枠太線
 48
10.0
100
AcDbViewport
 10
204.746305129083
 20
162.616432209166
 30
0.0
 40
400.0
 41
240.0
 68
     2
 69
     2
1001
ACAD
1000
MVIEW
1002
{
1070
    16
1010
0.0
1020
0.0
1030
0.0
1010
0.0
1020
0.0
1030
1.0
1040
0.0
1040
480.000000878068
1040
61.559061991606
1040
865.581589382945
1040
50.0
1040
0.0
1040
0.0
1070
     0
1070
   100
1070
     0
1070
     0
1070
     0
1070
     0
1070
     0
1070
     0
1040
0.0
1040
0.0
1040
0.0
1040
1.0
1040
1.0
1040
0.0
1040
0.0
1070
     0
1002
{
1002
}
1002
}
  0
INSERT
  5
2A59
330
28FB
100
AcDbEntity
 67
     1
  8
図枠太線
100
AcDbBlockReference
  2
A3横用_タイトル
 10
-0.352109406709
 20
-0.909527544361
 30
0.0
  0
MTEXT
  5
2E5D
330
28FB
100
AcDbEntity
 67
     1
  8
寸法線
 48
10.0
100
AcDbMText
 10
149.717021038353
 20
14.702433383182
 30
0.0
 40
7.0
 41
15.363556412778
 71
     1
 72
     5
  1
1:2
  0
MTEXT
  5
2E60
330
28FB
100
AcDbEntity
 67
     1
  8
寸法線
 48
10.0
100
AcDbMText
 10
363.432493644154
 20
38.912191169085
 30
0.0
 40
5.0
 41
43.047199206047
 71
     1
 72
     5
  1
パドル式\Pレベルスイッチ
  0
MTEXT
  5
2E61
330
28FB
100
AcDbEntity
 67
     1
  8
寸法線
 48
10.0
100
AcDbMText
 10
317.885410373681
 20
35.130029963054
 30
0.0
 40
7.0
 41
41.045003631856
 71
     1
 72
     5
  1
PRL-101
  0
MTEXT
  5
2E62
102
{ACAD_XDICTIONARY
360
54F1
102
}
330
28FB
100
AcDbEntity
 67
     1
  8
寸法線
 48
10.0
100
AcDbMText
 10
340.846489571194
 20
17.5259599852
 30
0.0
 40
8.0
 41
38.04171107615
 71
     1
 72
     5
  1
HR-10005
1001
ACADANNOTATIVE
1000
AnnotativeData
1002
{
1070
     1
1070
     0
1002
}
  0
MTEXT
  5
2E63
102
{ACAD_XDICTIONARY
360
5436
102
}
330
28FB
100
AcDbEntity
 67
     1
  8
寸法線
 48
10.0
100
AcDbMText
 10
371.453780546969
 20
52.631173535431
 30
0.0
 40
5.0
 41
32.245983263724
 71
     1
 72
     5
  1
台数   台
1001
ACADANNOTATIVE
1000
AnnotativeData
1002
{
1070
     1
1070
     0
1002
}
  0
MTEXT
  5
508B
102
{ACAD_XDICTIONARY
360
54F7
102
}
330
28FB
100
AcDbEntity
 67
     1
  8
寸法線
 48
10.0
100
AcDbMText
 10
181.04467277841
 20
33.139067720045
 30
0.0
 40
4.5
 41
21.375384236178
 71
     1
 72
     5
  1
ohno
1001
ACADANNOTATIVE
1000
AnnotativeData
1002
{
1070
     1
1070
     0
1002
}
  0
MTEXT
  5
508C
102
{ACAD_XDICTIONARY
360
54F4
102
}
330
28FB
100
AcDbEntity
 67
     1
  8
寸法線
 48
10.0
100
AcDbMText
 10
176.639433019108
 20
13.578956212124
 30
0.0
 40
4.0
 41
23.156665718806
 71
     1
 72
     5
  1
\H1.25x;2015.6.11
1001
ACADANNOTATIVE
1000
AnnotativeData
1002
{
1070
     1
1070
     0
1002
}
  0
ENDSEC
  0
SECTION
  2
OBJECTS
  0
DICTIONARY
  5
C
330
0
100
AcDbDictionary
  3
ACAD_COLOR
350
2948
  3
ACAD_GROUP
350
D
  3
ACAD_LAYOUT
350
2816
  3
ACAD_MATERIAL
350
2947
  3
ACAD_MLEADERSTYLE
350
53C6
  3
ACAD_MLINESTYLE
350
E
  3
ACAD_PLOTSETTINGS
350
2817
  3
ACAD_SCALELIST
350
539F
  3
ACAD_VISUALSTYLE
350
5386
  3
ACADDIM
350
3EA2
  3
ACDBHEADERROUNDTRIPXREC
350
55BD
  3
ACDBVARIABLEDICTIONARY
350
53F1
  3
DWGPROPS
350
55E2
  0
DICTIONARY
  5
55E3
330
8
100
AcDbDictionary
280
     1
  3
ACAD_XREC_ROUNDTRIP
360
55E4
  0
DICTIONARY
  5
29EA
330
2
100
AcDbDictionary
280
     1
  3
ACAD_LAYERFILTERS
360
2B0C
  3
ACAD_LAYERSTATES
360
29EB
  0
DICTIONARY
  5
39FB
330
1A
100
AcDbDictionary
280
     1
  3
ACAD_SORTENTS
360
39FC
  0
DICTIONARY
  5
3E9C
330
3E9A
100
AcDbDictionary
280
     1
  3
ACAD_SORTENTS
360
3E9D
  0
DICTIONARY
  5
543F
330
5055
100
AcDbDictionary
280
     1
  3
ACDBCONTEXTDATAMANAGER
360
5440
  0
DICTIONARY
  5
5442
330
5057
100
AcDbDictionary
280
     1
  3
ACDBCONTEXTDATAMANAGER
360
5443
  0
DICTIONARY
  5
5574
330
5573
100
AcDbDictionary
280
     1
  3
ACDBCONTEXTDATAMANAGER
360
5575
  0
DICTIONARY
  5
5578
330
5577
100
AcDbDictionary
280
     1
  3
ACDBCONTEXTDATAMANAGER
360
5579
  0
DICTIONARY
  5
559F
330
559E
100
AcDbDictionary
280
     1
  3
ACDBCONTEXTDATAMANAGER
360
55A0
  0
DICTIONARY
  5
55A4
330
55A3
100
AcDbDictionary
280
     1
  3
ACDBCONTEXTDATAMANAGER
360
55A5
  0
DICTIONARY
  5
55A8
330
55A7
100
AcDbDictionary
280
     1
  3
ACDBCONTEXTDATAMANAGER
360
55A9
  0
DICTIONARY
  5
55AD
330
55AC
100
AcDbDictionary
280
     1
  3
ACDBCONTEXTDATAMANAGER
360
55AE
  0
DICTIONARY
  5
55B1
330
55B0
100
AcDbDictionary
280
     1
  3
ACDBCONTEXTDATAMANAGER
360
55B2
  0
DICTIONARY
  5
54F1
330
2E62
100
AcDbDictionary
280
     1
  3
ACDBCONTEXTDATAMANAGER
360
54F2
  0
DICTIONARY
  5
5436
330
2E63
100
AcDbDictionary
280
     1
  3
ACDBCONTEXTDATAMANAGER
360
5437
  0
DICTIONARY
  5
54F7
330
508B
100
AcDbDictionary
280
     1
  3
ACDBCONTEXTDATAMANAGER
360
54F8
  0
DICTIONARY
  5
54F4
330
508C
100
AcDbDictionary
280
     1
  3
ACDBCONTEXTDATAMANAGER
360
54F5
  0
DICTIONARY
  5
2948
102
{ACAD_REACTORS
330
C
102
}
330
C
100
AcDbDictionary
  0
DICTIONARY
  5
D
102
{ACAD_REACTORS
330
C
102
}
330
C
100
AcDbDictionary
  0
DICTIONARY
  5
2816
102
{ACAD_REACTORS
330
C
102
}
330
C
100
AcDbDictionary
  0
DICTIONARY
  5
2947
102
{ACAD_REACTORS
330
C
102
}
330
C
100
AcDbDictionary
  3
BYBLOCK
350
53C2
  3
BYLAYER
350
53C1
  3
GLOBAL
350
53C3
  0
DICTIONARY
  5
53C6
102
{ACAD_REACTORS
330
C
102
}
330
C
100
AcDbDictionary
  3
STANDARD
350
53C7
  0
DICTIONARY
  5
E
102
{ACAD_REACTORS
330
C
102
}
330
C
100
AcDbDictionary
  3
STANDARD
350
13
  0
DICTIONARY
  5
2817
102
{ACAD_REACTORS
330
C
102
}
330
C
100
AcDbDictionary
  0
DICTIONARY
  5
539F
102
{ACAD_REACTORS
330
C
102
}
330
C
100
AcDbDictionary
  3
A0
350
53A0
  3
A1
350
53A1
  3
A2
350
53A2
  3
A3
350
53A3
  3
A4
350
53A4
  3
A5
350
53A5
  3
A6
350
53A6
  3
A7
350
53A7
  3
A8
350
53A8
  3
A9
350
53A9
  3
B0
350
53AA
  3
B1
350
53AB
  3
B2
350
53AC
  3
B3
350
53AD
  3
B4
350
53AE
  3
B5
350
53AF
  3
B6
350
53B0
  3
B7
350
53B1
  3
B8
350
53B2
  3
B9
350
53B3
  3
C0
350
53B4
  3
C1
350
53B5
  3
C2
350
53B6
  3
C3
350
53B7
  3
C4
350
53B8
  3
C5
350
53B9
  3
C6
350
53BA
  3
C7
350
53BB
  3
C8
350
53BC
  3
C9
350
53BD
  3
D0
350
53BE
  3
D1
350
53BF
  3
D2
350
53C0
  0
DICTIONARY
  5
5386
102
{ACAD_REACTORS
330
C
102
}
330
C
100
AcDbDictionary
  3
2DWIREFRAME
350
538B
  3
BASIC
350
538E
  3
BRIGHTEN
350
5392
  3
COLORCHANGE
350
5396
  3
CONCEPTUAL
350
5390
  3
DIM
350
5391
  3
EDGECOLOROFF
350
5399
  3
FACEPATTERN
350
5395
  3
FLAT
350
5387
  3
FLATWITHEDGES
350
5388
  3
GOURAUD
350
5389
  3
GOURAUDWITHEDGES
350
538A
  3
HIDDEN
350
538D
  3
JITTEROFF
350
5397
  3
LINEPATTERN
350
5394
  3
OVERHANGOFF
350
5398
  3
REALISTIC
350
538F
  3
SHADED
350
539E
  3
SHADED_WITH_EDGES
350
539D
  3
SHADES_OF_GRAY
350
539A
  3
SKETCHY
350
539B
  3
THICKEN
350
5393
  3
WIREFRAME
350
538C
  3
X-RAY
350
539C
  0
XRECORD
  5
3EA2
102
{ACAD_REACTORS
330
C
102
}
330
C
100
AcDbXrecord
 90
   990106
  3

 60
     0
 61
     0
 62
     1
 63
     3
 64
     0
 65
     0
 66
     0
 67
     3
 68
     1
 69
     0
 70
     0
 71
     0
 72
     0
 40
0.0
170
     0
  0
DICTIONARY
  5
55BD
102
{ACAD_REACTORS
330
C
102
}
330
C
100
AcDbDictionary
  3
CEPSNID
350
55C7
  3
CEPSNTYPE
350
55C6
  3
COLORDICT
350
55E0
  3
DIMSTYLEDATA
350
55DD
  3
FINGERPRINTGUID
350
55C8
  3
HYPERLINKBASE
350
55C0
  3
INSUNITS
350
55C5
  3
LAYOUTDICT
350
55C2
  3
LWETCUNION
350
55C4
  3
MATERIALDICT
350
55E1
  3
PLOTSETDICT
350
55C3
  3
PSVPSCALE
350
55CA
  3
PUCSBASE
350
55CD
  3
PUCSORGBACK
350
55D3
  3
PUCSORGBOTTOM
350
55CF
  3
PUCSORGFRONT
350
55D2
  3
PUCSORGLEFT
350
55D0
  3
PUCSORGRIGHT
350
55D1
  3
PUCSORGTOP
350
55CE
  3
PUCSORTHOREF
350
55CB
  3
PUCSORTHOVIEW
350
55CC
  3
STYLESHEET
350
55C1
  3
TSTACKALIGN
350
55BE
  3
TSTACKSIZE
350
55BF
  3
UCSBASE
350
55D6
  3
UCSORGBACK
350
55DC
  3
UCSORGBOTTOM
350
55D8
  3
UCSORGFRONT
350
55DB
  3
UCSORGLEFT
350
55D9
  3
UCSORGRIGHT
350
55DA
  3
UCSORGTOP
350
55D7
  3
UCSORTHOREF
350
55D4
  3
UCSORTHOVIEW
350
55D5
  3
VERSIONGUID
350
55C9
  0
DICTIONARY
  5
53F1
102
{ACAD_REACTORS
330
C
102
}
330
C
100
AcDbDictionary
  3
CANNOSCALE
350
53F2
  3
CMLEADERSTYLE
350
5431
  3
CTABLESTYLE
350
5430
  3
DIMASSOC
350
55DE
  3
HIDETEXT
350
55DF
  3
MSLTSCALE
350
5432
  3
XCLIPFRAME
350
5433
  0
XRECORD
  5
55E2
102
{ACAD_REACTORS
330
C
102
}
330
C
100
AcDbXrecord
  1
DWGPROPS COOKIE
  2

  3

  4

  6

  7

  8
y-ohno
  9

300
=
301
=
302
=
303
=
304
=
305
=
306
=
307
=
308
=
309
=
 40
0.0
 41
2450576.222302431
 42
2457191.275770914
  1

 90
        0
  0
XRECORD
  5
55E4
102
{ACAD_REACTORS
330
55E3
102
}
330
55E3
100
AcDbXrecord
102
VTR_0.000_0.000_1.000_1.000_VISUALSTYLE
340
538B
102
VTR_0.000_0.000_1.000_1.000_GRIDDISPLAY
 70
     3
102
VTR_0.000_0.000_1.000_1.000_GRIDMAJOR
 70
     5
102
VTR_0.000_0.000_1.000_1.000_DEFAULTLIGHTING
280
     1
102
VTR_0.000_0.000_1.000_1.000_DEFAULTLIGHTINGTYPE
 70
     1
102
VTR_0.000_0.000_1.000_1.000_BRIGHTNESS
141
0.0
102
VTR_0.000_0.000_1.000_1.000_CONTRAST
142
0.0
  0
DICTIONARY
  5
2B0C
102
{ACAD_REACTORS
330
29EA
102
}
330
29EA
100
AcDbDictionary
  0
DICTIONARY
  5
29EB
102
{ACAD_REACTORS
330
29EA
102
}
330
29EA
100
AcDbDictionary
  0
SORTENTSTABLE
  5
39FC
102
{ACAD_REACTORS
330
39FB
102
}
330
39FB
100
AcDbSortentsTable
330
1A
331
0
  5
3768
331
374E
  5
374F
331
3766
  5
3766
331
3767
  5
3767
331
3769
  5
3769
331
376A
  5
376A
331
376B
  5
376B
331
376C
  5
376C
331
376D
  5
376D
331
376E
  5
376E
331
376F
  5
376F
331
3770
  5
3770
331
3771
  5
3771
331
3772
  5
3772
331
3773
  5
3773
331
3774
  5
3774
331
377A
  5
377A
331
377B
  5
377B
331
37A4
  5
37A4
331
37A5
  5
37A5
  0
SORTENTSTABLE
  5
3E9D
102
{ACAD_REACTORS
330
3E9C
102
}
330
3E9C
100
AcDbSortentsTable
330
3E9A
  0
DICTIONARY
  5
5440
102
{ACAD_REACTORS
330
543F
102
}
330
543F
100
AcDbDictionary
  3
ACDB_ANNOTATIONSCALES
350
5441
  0
DICTIONARY
  5
5443
102
{ACAD_REACTORS
330
5442
102
}
330
5442
100
AcDbDictionary
  3
ACDB_ANNOTATIONSCALES
350
5444
  0
DICTIONARY
  5
5575
102
{ACAD_REACTORS
330
5574
102
}
330
5574
100
AcDbDictionary
  3
ACDB_ANNOTATIONSCALES
350
5576
  0
DICTIONARY
  5
5579
102
{ACAD_REACTORS
330
5578
102
}
330
5578
100
AcDbDictionary
  3
ACDB_ANNOTATIONSCALES
350
557A
  0
DICTIONARY
  5
55A0
102
{ACAD_REACTORS
330
559F
102
}
330
559F
100
AcDbDictionary
  3
ACDB_ANNOTATIONSCALES
350
55A1
  0
DICTIONARY
  5
55A5
102
{ACAD_REACTORS
330
55A4
102
}
330
55A4
100
AcDbDictionary
  3
ACDB_ANNOTATIONSCALES
350
55A6
  0
DICTIONARY
  5
55A9
102
{ACAD_REACTORS
330
55A8
102
}
330
55A8
100
AcDbDictionary
  3
ACDB_ANNOTATIONSCALES
350
55AA
  0
DICTIONARY
  5
55AE
102
{ACAD_REACTORS
330
55AD
102
}
330
55AD
100
AcDbDictionary
  3
ACDB_ANNOTATIONSCALES
350
55AF
  0
DICTIONARY
  5
55B2
102
{ACAD_REACTORS
330
55B1
102
}
330
55B1
100
AcDbDictionary
  3
ACDB_ANNOTATIONSCALES
350
55B3
  0
DICTIONARY
  5
54F2
102
{ACAD_REACTORS
330
54F1
102
}
330
54F1
100
AcDbDictionary
  3
ACDB_ANNOTATIONSCALES
350
54F3
  0
DICTIONARY
  5
5437
102
{ACAD_REACTORS
330
5436
102
}
330
5436
100
AcDbDictionary
  3
ACDB_ANNOTATIONSCALES
350
5438
  0
DICTIONARY
  5
54F8
102
{ACAD_REACTORS
330
54F7
102
}
330
54F7
100
AcDbDictionary
  3
ACDB_ANNOTATIONSCALES
350
54F9
  0
DICTIONARY
  5
54F5
102
{ACAD_REACTORS
330
54F4
102
}
330
54F4
100
AcDbDictionary
  3
ACDB_ANNOTATIONSCALES
350
54F6
  0
MATERIAL
  5
53C2
102
{ACAD_REACTORS
330
2947
102
}
102
{ACAD_XDICTIONARY
360
55E7
102
}
330
2947
100
AcDbMaterial
  1
BYBLOCK
  0
MATERIAL
  5
53C1
102
{ACAD_REACTORS
330
2947
102
}
102
{ACAD_XDICTIONARY
360
55E5
102
}
330
2947
100
AcDbMaterial
  1
BYLAYER
  0
MATERIAL
  5
53C3
102
{ACAD_REACTORS
330
2947
102
}
102
{ACAD_XDICTIONARY
360
55E9
102
}
330
2947
100
AcDbMaterial
  1
GLOBAL
  0
ACAD_PROXY_OBJECT
  5
53C7
102
{ACAD_REACTORS
330
53C6
102
}
330
53C6
100
AcDbProxyObject
 90
      499
 91
      509
 93
      610
310
40901902A4063FBFFFFFE0000000000000020400000000000020404214DD185B99185C990000000000000104090141901A00000000000004100000000000000041025764000000000000039000
340
14
340
0
340
10
340
0
 94
        0
1001
ACAD_MLEADERVER
1070
     2
  0
MLINESTYLE
  5
13
102
{ACAD_REACTORS
330
E
102
}
330
E
100
AcDbMlineStyle
  2
STANDARD
 70
     0
  3

 62
     0
 51
90.0
 52
90.0
 71
     2
 49
0.5
 62
   256
  6
BYLAYER
 49
-0.5
 62
   256
  6
BYLAYER
  0
ACAD_PROXY_OBJECT
  5
53A0
102
{ACAD_REACTORS
330
539F
102
}
330
539F
100
AcDbProxyObject
 90
      499
 91
      506
 93
       41
310
903313A31580
  0
ACAD_PROXY_OBJECT
  5
53A1
102
{ACAD_REACTORS
330
539F
102
}
330
539F
100
AcDbProxyObject
 90
      499
 91
      506
 93
      105
310
903313A324000000000000004000
  0
ACAD_PROXY_OBJECT
  5
53A2
102
{ACAD_REACTORS
330
539F
102
}
330
539F
100
AcDbProxyObject
 90
      499
 91
      506
 93
      105
310
903313A344000000000000104000
  0
ACAD_PROXY_OBJECT
  5
53A3
102
{ACAD_REACTORS
330
539F
102
}
330
539F
100
AcDbProxyObject
 90
      499
 91
      506
 93
      105
310
903313A354000000000000144000
  0
ACAD_PROXY_OBJECT
  5
53A4
102
{ACAD_REACTORS
330
539F
102
}
330
539F
100
AcDbProxyObject
 90
      499
 91
      506
 93
      105
310
903313A384000000000000204000
  0
ACAD_PROXY_OBJECT
  5
53A5
102
{ACAD_REACTORS
330
539F
102
}
330
539F
100
AcDbProxyObject
 90
      499
 91
      506
 93
      113
310
904313A31304000000000000244000
  0
ACAD_PROXY_OBJECT
  5
53A6
102
{ACAD_REACTORS
330
539F
102
}
330
539F
100
AcDbProxyObject
 90
      499
 91
      506
 93
      113
310
904313A31364000000000000304000
  0
ACAD_PROXY_OBJECT
  5
53A7
102
{ACAD_REACTORS
330
539F
102
}
330
539F
100
AcDbProxyObject
 90
      499
 91
      506
 93
      113
310
904313A32304000000000000344000
  0
ACAD_PROXY_OBJECT
  5
53A8
102
{ACAD_REACTORS
330
539F
102
}
330
539F
100
AcDbProxyObject
 90
      499
 91
      506
 93
      113
310
904313A333040000000000003E4000
  0
ACAD_PROXY_OBJECT
  5
53A9
102
{ACAD_REACTORS
330
539F
102
}
330
539F
100
AcDbProxyObject
 90
      499
 91
      506
 93
      113
310
904313A34304000000000000444000
  0
ACAD_PROXY_OBJECT
  5
53AA
102
{ACAD_REACTORS
330
539F
102
}
330
539F
100
AcDbProxyObject
 90
      499
 91
      506
 93
      113
310
904313A35304000000000000494000
  0
ACAD_PROXY_OBJECT
  5
53AB
102
{ACAD_REACTORS
330
539F
102
}
330
539F
100
AcDbProxyObject
 90
      499
 91
      506
 93
      121
310
905313A3130304000000000000594000
  0
ACAD_PROXY_OBJECT
  5
53AC
102
{ACAD_REACTORS
330
539F
102
}
330
539F
100
AcDbProxyObject
 90
      499
 91
      506
 93
      105
310
903323A310000000000000010100
  0
ACAD_PROXY_OBJECT
  5
53AD
102
{ACAD_REACTORS
330
539F
102
}
330
539F
100
AcDbProxyObject
 90
      499
 91
      506
 93
      105
310
903343A310000000000000410100
  0
ACAD_PROXY_OBJECT
  5
53AE
102
{ACAD_REACTORS
330
539F
102
}
330
539F
100
AcDbProxyObject
 90
      499
 91
      506
 93
      105
310
903383A310000000000000810100
  0
ACAD_PROXY_OBJECT
  5
53AF
102
{ACAD_REACTORS
330
539F
102
}
330
539F
100
AcDbProxyObject
 90
      499
 91
      506
 93
      113
310
90431303A310000000000000910100
  0
ACAD_PROXY_OBJECT
  5
53B0
102
{ACAD_REACTORS
330
539F
102
}
330
539F
100
AcDbProxyObject
 90
      499
 91
      506
 93
      121
310
9053130303A310000000000001650100
  0
ACAD_PROXY_OBJECT
  5
53B1
102
{ACAD_REACTORS
330
539F
102
}
330
539F
100
AcDbProxyObject
 90
      499
 91
      506
 93
      257
310
90E312F31323822203D2031272D3022000000000000200FC000000000000284000
  0
ACAD_PROXY_OBJECT
  5
53B2
102
{ACAD_REACTORS
330
539F
102
}
330
539F
100
AcDbProxyObject
 90
      499
 91
      506
 93
      249
310
90D312F363422203D2031272D3022000000000000240FC000000000000284000
  0
ACAD_PROXY_OBJECT
  5
53B3
102
{ACAD_REACTORS
330
539F
102
}
330
539F
100
AcDbProxyObject
 90
      499
 91
      506
 93
      249
310
90D312F333222203D2031272D3022000000000000280FC000000000000284000
  0
ACAD_PROXY_OBJECT
  5
53B4
102
{ACAD_REACTORS
330
539F
102
}
330
539F
100
AcDbProxyObject
 90
      499
 91
      506
 93
      249
310
90D312F313622203D2031272D30220000000000002C0FC000000000000284000
  0
ACAD_PROXY_OBJECT
  5
53B5
102
{ACAD_REACTORS
330
539F
102
}
330
539F
100
AcDbProxyObject
 90
      499
 91
      506
 93
      249
310
90D332F333222203D2031272D30220000000000002E0FC000000000000284000
  0
ACAD_PROXY_OBJECT
  5
53B6
102
{ACAD_REACTORS
330
539F
102
}
330
539F
100
AcDbProxyObject
 90
      499
 91
      506
 93
      241
310
90C312F3822203D2031272D3022000000000000300FC000000000000284000
  0
ACAD_PROXY_OBJECT
  5
53B7
102
{ACAD_REACTORS
330
539F
102
}
330
539F
100
AcDbProxyObject
 90
      499
 91
      506
 93
      249
310
90D332F313622203D2031272D3022000000000000320FC000000000000284000
  0
ACAD_PROXY_OBJECT
  5
53B8
102
{ACAD_REACTORS
330
539F
102
}
330
539F
100
AcDbProxyObject
 90
      499
 91
      506
 93
      241
310
90C312F3422203D2031272D3022000000000000340FC000000000000284000
  0
ACAD_PROXY_OBJECT
  5
53B9
102
{ACAD_REACTORS
330
539F
102
}
330
539F
100
AcDbProxyObject
 90
      499
 91
      506
 93
      241
310
90C332F3822203D2031272D3022000000000000360FC000000000000284000
  0
ACAD_PROXY_OBJECT
  5
53BA
102
{ACAD_REACTORS
330
539F
102
}
330
539F
100
AcDbProxyObject
 90
      499
 91
      506
 93
      241
310
90C312F3222203D2031272D3022000000000000380FC000000000000284000
  0
ACAD_PROXY_OBJECT
  5
53BB
102
{ACAD_REACTORS
330
539F
102
}
330
539F
100
AcDbProxyObject
 90
      499
 91
      506
 93
      241
310
90C332F3422203D2031272D30220000000000003A0FC000000000000284000
  0
ACAD_PROXY_OBJECT
  5
53BC
102
{ACAD_REACTORS
330
539F
102
}
330
539F
100
AcDbProxyObject
 90
      499
 91
      506
 93
      161
310
90A3122203D2031272D30224000000000000284000
  0
ACAD_PROXY_OBJECT
  5
53BD
102
{ACAD_REACTORS
330
539F
102
}
330
539F
100
AcDbProxyObject
 90
      499
 91
      506
 93
      257
310
90E312D312F3222203D2031272D30220000000000003E0FC000000000000284000
  0
ACAD_PROXY_OBJECT
  5
53BE
102
{ACAD_REACTORS
330
539F
102
}
330
539F
100
AcDbProxyObject
 90
      499
 91
      506
 93
      225
310
90A3322203D2031272D302200000000000002100000000000000284000
  0
ACAD_PROXY_OBJECT
  5
53BF
102
{ACAD_REACTORS
330
539F
102
}
330
539F
100
AcDbProxyObject
 90
      499
 91
      506
 93
      225
310
90A3622203D2031272D302200000000000006100000000000000284000
  0
ACAD_PROXY_OBJECT
  5
53C0
102
{ACAD_REACTORS
330
539F
102
}
330
539F
100
AcDbProxyObject
 90
      499
 91
      506
 93
      249
310
90D31272D3022203D2031272D30220000000000000A100000000000000284000
  0
ACAD_PROXY_OBJECT
  5
538B
102
{ACAD_REACTORS
330
5386
102
}
330
5386
100
AcDbProxyObject
 90
      499
 91
      505
 93
      436
310
42CC9915DA5C99599C985B595049028333333333333E33F0000000000000F90107901411070040501600405405064090741402480A0340
1001
ACAD
1000
AcDbSavedByObjectVersion
1070
     0
  0
ACAD_PROXY_OBJECT
  5
538E
102
{ACAD_REACTORS
330
5386
102
}
330
5386
100
AcDbProxyObject
 90
      499
 91
      505
 93
      388
310
4150985CDA58D07406404333333333333E33F0000000000000F90107A41107004050150841D405064090741402480A0350
1001
ACAD
1000
AcDbSavedByObjectVersion
1070
     0
  0
ACAD_PROXY_OBJECT
  5
5392
102
{ACAD_REACTORS
330
5386
102
}
330
5386
100
AcDbProxyObject
 90
      499
 91
      505
 93
      428
310
42109C9A59DA1D195B90C409028333333333333E33F0000000000000F9010790141107004050150841D405064090741402480A029950
1001
ACAD
1000
AcDbSavedByObjectVersion
1070
     0
  0
ACAD_PROXY_OBJECT
  5
5396
102
{ACAD_REACTORS
330
5386
102
}
330
5386
100
AcDbProxyObject
 90
      499
 91
      505
 93
      452
310
42D0DBDB1BDC90DA185B99D95104090240C333333333333E33F0000000000000F90108901411070040501508421405064090741402480A0350
1001
ACAD
1000
AcDbSavedByObjectVersion
1070
     0
  0
ACAD_PROXY_OBJECT
  5
5390
102
{ACAD_REACTORS
330
5386
102
}
330
5386
100
AcDbProxyObject
 90
      499
 91
      505
 93
      500
310
4290DBDB98D95C1D1D585B10940D028333333333333E33F0000000000000F90107902409070040501000000000018199010841D405064090740C02480A0340
1001
ACAD
1000
AcDbSavedByObjectVersion
1070
     0
  0
ACAD_PROXY_OBJECT
  5
5391
102
{ACAD_REACTORS
330
5386
102
}
330
5386
100
AcDbProxyObject
 90
      499
 91
      505
 93
      412
310
40D11A5B50B409028333333333333E33F0000000000000F9010790141107004050150841D405064090741402480A02677FFFFFD0
1001
ACAD
1000
AcDbSavedByObjectVersion
1070
     0
  0
ACAD_PROXY_OBJECT
  5
5399
102
{ACAD_REACTORS
330
5386
102
}
330
5386
100
AcDbProxyObject
 90
      499
 91
      505
 93
      452
310
43115919D950DBDB1BDC93D999916409028333333333333E33F0000000000000F9010790141107004050150841D405064090741402480A0350
1001
ACAD
1000
AcDbSavedByObjectVersion
1070
     0
  0
ACAD_PROXY_OBJECT
  5
5395
102
{ACAD_REACTORS
330
5386
102
}
330
5386
100
AcDbProxyObject
 90
      499
 91
      505
 93
      444
310
42D19858D95C185D1D195C9B90F409028333333333333E33F0000000000000F9010790141107004050150841D405064090741402480A0350
1001
ACAD
1000
AcDbSavedByObjectVersion
1070
     0
  0
ACAD_PROXY_OBJECT
  5
5387
102
{ACAD_REACTORS
330
5386
102
}
330
5386
100
AcDbProxyObject
 90
      499
 91
      505
 93
      380
310
41119B185D240901404333333333333E33F0000000000000F9010740A907004050150841D405064090741402480A1B50
1001
ACAD
1000
AcDbSavedByObjectVersion
1070
     0
  0
ACAD_PROXY_OBJECT
  5
5388
102
{ACAD_REACTORS
330
5386
102
}
330
5386
100
AcDbProxyObject
 90
      499
 91
      505
 93
      468
310
43519B185D15DA5D1A115919D95CD0140901404333333333333E33F0000000000000F90107409019070040501600405405064090741402480A1B50
1001
ACAD
1000
AcDbSavedByObjectVersion
1070
     0
  0
ACAD_PROXY_OBJECT
  5
5389
102
{ACAD_REACTORS
330
5386
102
}
330
5386
100
AcDbProxyObject
 90
      499
 91
      505
 93
      404
310
41D1DBDD5C985D5910240902404333333333333E33F0000000000000F9010740A9070040501641D405064090741402480A1B50
1001
ACAD
1000
AcDbSavedByObjectVersion
1070
     0
  0
ACAD_PROXY_OBJECT
  5
538A
102
{ACAD_REACTORS
330
5386
102
}
330
5386
100
AcDbProxyObject
 90
      499
 91
      505
 93
      492
310
4411DBDD5C985D5915DA5D1A115919D95CD0340902404333333333333E33F0000000000000F90107409019070040501600405405064090741402480A1B50
1001
ACAD
1000
AcDbSavedByObjectVersion
1070
     0
  0
ACAD_PROXY_OBJECT
  5
538D
102
{ACAD_REACTORS
330
5386
102
}
330
5386
100
AcDbProxyObject
 90
      499
 91
      505
 93
      476
310
41921A5919195B90640502408333333333333E33F0000000000000F901079024090700405020000000000001110200405405064090740C02480A0340
1001
ACAD
1000
AcDbSavedByObjectVersion
1070
     0
  0
ACAD_PROXY_OBJECT
  5
5397
102
{ACAD_REACTORS
330
5386
102
}
330
5386
100
AcDbProxyObject
 90
      499
 91
      505
 93
      428
310
42529A5D1D195C93D999914409028333333333333E33F0000000000000F9010790141107004050150A41D405064090741402480A0350
1001
ACAD
1000
AcDbSavedByObjectVersion
1070
     0
  0
ACAD_PROXY_OBJECT
  5
5394
102
{ACAD_REACTORS
330
5386
102
}
330
5386
100
AcDbProxyObject
 90
      499
 91
      505
 93
      444
310
42D31A5B995C185D1D195C9B90E409028333333333333E33F0000000000000F9010790141107004050750841D405064090741402483A0350
1001
ACAD
1000
AcDbSavedByObjectVersion
1070
     0
  0
ACAD_PROXY_OBJECT
  5
5398
102
{ACAD_REACTORS
330
5386
102
}
330
5386
100
AcDbProxyObject
 90
      499
 91
      505
 93
      444
310
42D3DD995C9A185B99D3D999915409028333333333333E33F0000000000000F9010790141107004050150941D405064090741402480A0350
1001
ACAD
1000
AcDbSavedByObjectVersion
1070
     0
  0
ACAD_PROXY_OBJECT
  5
538F
102
{ACAD_REACTORS
330
5386
102
}
330
5386
100
AcDbProxyObject
 90
      499
 91
      505
 93
      428
310
425499585B1A5CDD1A58D08409038333333333333E33F0000000000000F9010740A907004050150800405405064090740C02480A1B40
1001
ACAD
1000
AcDbSavedByObjectVersion
1070
     0
  0
ACAD_PROXY_OBJECT
  5
539E
102
{ACAD_REACTORS
330
5386
102
}
330
5386
100
AcDbProxyObject
 90
      499
 91
      505
 93
      420
310
4194DA1859195911B40902404333333333333E33F0000000000000F9010740A41107004050150800405405064090840C02480A0B40
1001
ACAD
1000
AcDbSavedByObjectVersion
1070
     0
  0
ACAD_PROXY_OBJECT
  5
539D
102
{ACAD_REACTORS
330
5386
102
}
330
5386
100
AcDbProxyObject
 90
      499
 91
      505
 93
      516
310
4454DA18591959081DDA5D1A08195919D95CD1A40902404333333333333E33F0000000000000F901074090142907004050250800405405064090740C02480A0B40
1001
ACAD
1000
AcDbSavedByObjectVersion
1070
     0
  0
ACAD_PROXY_OBJECT
  5
539A
102
{ACAD_REACTORS
330
5386
102
}
330
5386
100
AcDbProxyObject
 90
      499
 91
      505
 93
      532
310
4394DA1859195CC81BD98811DC985E5174090240C333333333333E33F0000000000000F901079024090741D01000000000000111010841D405064090740C02480A0340
1001
ACAD
1000
AcDbSavedByObjectVersion
1070
     0
  0
ACAD_PROXY_OBJECT
  5
539B
102
{ACAD_REACTORS
330
5386
102
}
330
5386
100
AcDbProxyObject
 90
      499
 91
      505
 93
      476
310
41D4DAD95D18DA1E51840502408333333333333E33F0000000000000F901079024090741D01000000000000111010B41D405064090741802480A0340
1001
ACAD
1000
AcDbSavedByObjectVersion
1070
     0
  0
ACAD_PROXY_OBJECT
  5
5393
102
{ACAD_REACTORS
330
5386
102
}
330
5386
100
AcDbProxyObject
 90
      499
 91
      505
 93
      412
310
41D51A1A58DAD95B90D409028333333333333E33F0000000000000F9010790141107004050150C41D405064090741402480A0350
1001
ACAD
1000
AcDbSavedByObjectVersion
1070
     0
  0
ACAD_PROXY_OBJECT
  5
538C
102
{ACAD_REACTORS
330
5386
102
}
330
5386
100
AcDbProxyObject
 90
      499
 91
      505
 93
      420
310
4255DA5C99599C985B595059028333333333333E33F0000000000000F90107901411070040501600405405064090740C02480A0340
1001
ACAD
1000
AcDbSavedByObjectVersion
1070
     0
  0
ACAD_PROXY_OBJECT
  5
539C
102
{ACAD_REACTORS
330
5386
102
}
330
5386
100
AcDbProxyObject
 90
      499
 91
      505
 93
      404
310
41560B54985E51940902404000000000000E03F0000000000000F9010740501907004050150841D405064090740C02480A1B40
1001
ACAD
1000
AcDbSavedByObjectVersion
1070
     0
  0
XRECORD
  5
55C7
102
{ACAD_REACTORS
330
55BD
102
}
330
55BD
100
AcDbXrecord
340
0
  0
XRECORD
  5
55C6
102
{ACAD_REACTORS
330
55BD
102
}
330
55BD
100
AcDbXrecord
 90
        0
  0
XRECORD
  5
55E0
102
{ACAD_REACTORS
330
55BD
102
}
330
55BD
100
AcDbXrecord
340
2948
  0
XRECORD
  5
55DD
102
{ACAD_REACTORS
330
55BD
102
}
330
55BD
100
AcDbXrecord
1000
DSTYLE
1002
{
1070
   171
 70
     2
1070
   143
 40
0.0394
1070
   274
 70
     2
1070
    41
 40
6.0
1070
   342
340
2AF4
1070
   271
 70
     1
1070
   278
 70
    46
1070
   341
340
2AF4
1070
   272
 70
     1
1070
    48
 40
0.1
1070
   283
 70
     1
1070
    47
 40
0.1
1070
   145
 40
1.0
1070
   340
340
10
1070
   140
 40
8.0
1070
   284
 70
     0
1002
}
  0
XRECORD
  5
55C8
102
{ACAD_REACTORS
330
55BD
102
}
330
55BD
100
AcDbXrecord
  1
{23698909-1D67-4744-B0E2-8DE11E3ED422}
  0
XRECORD
  5
55C0
102
{ACAD_REACTORS
330
55BD
102
}
330
55BD
100
AcDbXrecord
  1

  0
XRECORD
  5
55C5
102
{ACAD_REACTORS
330
55BD
102
}
330
55BD
100
AcDbXrecord
 90
        0
  0
XRECORD
  5
55C2
102
{ACAD_REACTORS
330
55BD
102
}
330
55BD
100
AcDbXrecord
340
2816
  0
XRECORD
  5
55C4
102
{ACAD_REACTORS
330
55BD
102
}
330
55BD
100
AcDbXrecord
 90
    10781
  0
XRECORD
  5
55E1
102
{ACAD_REACTORS
330
55BD
102
}
330
55BD
100
AcDbXrecord
340
2947
  0
XRECORD
  5
55C3
102
{ACAD_REACTORS
330
55BD
102
}
330
55BD
100
AcDbXrecord
340
2817
  0
XRECORD
  5
55CA
102
{ACAD_REACTORS
330
55BD
102
}
330
55BD
100
AcDbXrecord
 40
0.25
  0
XRECORD
  5
55CD
102
{ACAD_REACTORS
330
55BD
102
}
330
55BD
100
AcDbXrecord
340
0
  0
XRECORD
  5
55D3
102
{ACAD_REACTORS
330
55BD
102
}
330
55BD
100
AcDbXrecord
 10
0.0
 20
0.0
 30
0.0
  0
XRECORD
  5
55CF
102
{ACAD_REACTORS
330
55BD
102
}
330
55BD
100
AcDbXrecord
 10
0.0
 20
0.0
 30
0.0
  0
XRECORD
  5
55D2
102
{ACAD_REACTORS
330
55BD
102
}
330
55BD
100
AcDbXrecord
 10
0.0
 20
0.0
 30
0.0
  0
XRECORD
  5
55D0
102
{ACAD_REACTORS
330
55BD
102
}
330
55BD
100
AcDbXrecord
 10
0.0
 20
0.0
 30
0.0
  0
XRECORD
  5
55D1
102
{ACAD_REACTORS
330
55BD
102
}
330
55BD
100
AcDbXrecord
 10
0.0
 20
0.0
 30
0.0
  0
XRECORD
  5
55CE
102
{ACAD_REACTORS
330
55BD
102
}
330
55BD
100
AcDbXrecord
 10
0.0
 20
0.0
 30
0.0
  0
XRECORD
  5
55CB
102
{ACAD_REACTORS
330
55BD
102
}
330
55BD
100
AcDbXrecord
340
0
  0
XRECORD
  5
55CC
102
{ACAD_REACTORS
330
55BD
102
}
330
55BD
100
AcDbXrecord
 70
     0
  0
XRECORD
  5
55C1
102
{ACAD_REACTORS
330
55BD
102
}
330
55BD
100
AcDbXrecord
  1

  0
XRECORD
  5
55BE
102
{ACAD_REACTORS
330
55BD
102
}
330
55BD
100
AcDbXrecord
 90
        1
  0
XRECORD
  5
55BF
102
{ACAD_REACTORS
330
55BD
102
}
330
55BD
100
AcDbXrecord
 90
       70
  0
XRECORD
  5
55D6
102
{ACAD_REACTORS
330
55BD
102
}
330
55BD
100
AcDbXrecord
340
0
  0
XRECORD
  5
55DC
102
{ACAD_REACTORS
330
55BD
102
}
330
55BD
100
AcDbXrecord
 10
0.0
 20
0.0
 30
0.0
  0
XRECORD
  5
55D8
102
{ACAD_REACTORS
330
55BD
102
}
330
55BD
100
AcDbXrecord
 10
0.0
 20
0.0
 30
0.0
  0
XRECORD
  5
55DB
102
{ACAD_REACTORS
330
55BD
102
}
330
55BD
100
AcDbXrecord
 10
0.0
 20
0.0
 30
0.0
  0
XRECORD
  5
55D9
102
{ACAD_REACTORS
330
55BD
102
}
330
55BD
100
AcDbXrecord
 10
0.0
 20
0.0
 30
0.0
  0
XRECORD
  5
55DA
102
{ACAD_REACTORS
330
55BD
102
}
330
55BD
100
AcDbXrecord
 10
0.0
 20
0.0
 30
0.0
  0
XRECORD
  5
55D7
102
{ACAD_REACTORS
330
55BD
102
}
330
55BD
100
AcDbXrecord
 10
0.0
 20
0.0
 30
0.0
  0
XRECORD
  5
55D4
102
{ACAD_REACTORS
330
55BD
102
}
330
55BD
100
AcDbXrecord
340
0
  0
XRECORD
  5
55D5
102
{ACAD_REACTORS
330
55BD
102
}
330
55BD
100
AcDbXrecord
 70
     0
  0
XRECORD
  5
55C9
102
{ACAD_REACTORS
330
55BD
102
}
330
55BD
100
AcDbXrecord
  1
{DDCF49CD-155C-4F3E-80C8-E41885345AA7}
  0
DICTIONARYVAR
  5
53F2
102
{ACAD_REACTORS
330
53F1
102
}
330
53F1
100
DictionaryVariables
280
     0
  1
1:1
  0
DICTIONARYVAR
  5
5431
102
{ACAD_REACTORS
330
53F1
102
}
330
53F1
100
DictionaryVariables
280
     0
  1
Standard
  0
DICTIONARYVAR
  5
5430
102
{ACAD_REACTORS
330
53F1
102
}
330
53F1
100
DictionaryVariables
280
     0
  1
Standard
  0
DICTIONARYVAR
  5
55DE
102
{ACAD_REACTORS
330
53F1
102
}
330
53F1
100
DictionaryVariables
280
     0
  1
1
  0
DICTIONARYVAR
  5
55DF
102
{ACAD_REACTORS
330
53F1
102
}
330
53F1
100
DictionaryVariables
280
     0
  1
0
  0
DICTIONARYVAR
  5
5432
102
{ACAD_REACTORS
330
53F1
102
}
330
53F1
100
DictionaryVariables
280
     0
  1
0
  0
DICTIONARYVAR
  5
5433
102
{ACAD_REACTORS
330
53F1
102
}
330
53F1
100
DictionaryVariables
280
     0
  1
0
  0
DICTIONARY
  5
5441
102
{ACAD_REACTORS
330
5440
102
}
330
5440
100
AcDbDictionary
  0
DICTIONARY
  5
5444
102
{ACAD_REACTORS
330
5443
102
}
330
5443
100
AcDbDictionary
  0
DICTIONARY
  5
5576
102
{ACAD_REACTORS
330
5575
102
}
330
5575
100
AcDbDictionary
  0
DICTIONARY
  5
557A
102
{ACAD_REACTORS
330
5579
102
}
330
5579
100
AcDbDictionary
  0
DICTIONARY
  5
55A1
102
{ACAD_REACTORS
330
55A0
102
}
330
55A0
100
AcDbDictionary
  0
DICTIONARY
  5
55A6
102
{ACAD_REACTORS
330
55A5
102
}
330
55A5
100
AcDbDictionary
  0
DICTIONARY
  5
55AA
102
{ACAD_REACTORS
330
55A9
102
}
330
55A9
100
AcDbDictionary
  0
DICTIONARY
  5
55AF
102
{ACAD_REACTORS
330
55AE
102
}
330
55AE
100
AcDbDictionary
  0
DICTIONARY
  5
55B3
102
{ACAD_REACTORS
330
55B2
102
}
330
55B2
100
AcDbDictionary
  0
DICTIONARY
  5
54F3
102
{ACAD_REACTORS
330
54F2
102
}
330
54F2
100
AcDbDictionary
  0
DICTIONARY
  5
5438
102
{ACAD_REACTORS
330
5437
102
}
330
5437
100
AcDbDictionary
  0
DICTIONARY
  5
54F9
102
{ACAD_REACTORS
330
54F8
102
}
330
54F8
100
AcDbDictionary
  0
DICTIONARY
  5
54F6
102
{ACAD_REACTORS
330
54F5
102
}
330
54F5
100
AcDbDictionary
  0
DICTIONARY
  5
55E7
330
53C2
100
AcDbDictionary
280
     1
  3
ACAD_XREC_ROUNDTRIP
360
55E8
  0
DICTIONARY
  5
55E5
330
53C1
100
AcDbDictionary
280
     1
  3
ACAD_XREC_ROUNDTRIP
360
55E6
  0
DICTIONARY
  5
55E9
330
53C3
100
AcDbDictionary
280
     1
  3
ACAD_XREC_ROUNDTRIP
360
55EA
  0
XRECORD
  5
55E8
102
{ACAD_REACTORS
330
55E7
102
}
330
55E7
100
AcDbXrecord
102
MATERIAL
148
0.0
149
0.0
149
0.0
 93
        0
 94
      127
282
     0
 72
     1
 77
     1
171
     1
175
     1
179
     1
273
     0
  0
XRECORD
  5
55E6
102
{ACAD_REACTORS
330
55E5
102
}
330
55E5
100
AcDbXrecord
102
MATERIAL
148
0.0
149
0.0
149
0.0
 93
        0
 94
      127
282
     0
 72
     1
 77
     1
171
     1
175
     1
179
     1
273
     0
  0
XRECORD
  5
55EA
102
{ACAD_REACTORS
330
55E9
102
}
330
55E9
100
AcDbXrecord
102
MATERIAL
148
0.0
149
0.0
149
0.0
 93
        0
 94
      127
282
     0
 72
     1
 77
     1
171
     1
175
     1
179
     1
273
     0
  0
ENDSEC
  0
EOF
