  0
SECTION
  2
HEADER
  9
$ACADVER
  1
AC1014
  9
$ACADMAINTVER
 70
     9
  9
$DWGCODEPAGE
  3
ANSI_932
  9
$INSBASE
 10
0.0
 20
0.0
 30
0.0
  9
$EXTMIN
 10
561.297071487271
 20
1351.915953492723
 30
0.0
  9
$EXTMAX
 10
1165.634727256055
 20
1774.232934104352
 30
0.0
  9
$LIMMIN
 10
-360.747566795242
 20
4.457354754526
  9
$LIMMAX
 10
-162.153696144267
 20
287.675440264018
  9
$ORTHOMODE
 70
     1
  9
$REGENMODE
 70
     1
  9
$FILLMODE
 70
     1
  9
$QTEXTMODE
 70
     0
  9
$MIRRTEXT
 70
     1
  9
$DRAGMODE
 70
     2
  9
$LTSCALE
 40
1.0
  9
$OSMODE
 70
    32
  9
$ATTMODE
 70
     1
  9
$TEXTSIZE
 40
2.333873885063
  9
$TRACEWID
 40
1.0
  9
$TEXTSTYLE
  7
STANDARD
  9
$CLAYER
  8
寸法線
  9
$CELTYPE
  6
BYLAYER
  9
$CECOLOR
 62
   256
  9
$CELTSCALE
 40
10.0
  9
$DELOBJ
 70
     1
  9
$DISPSILH
 70
     0
  9
$DIMSCALE
 40
1.0
  9
$DIMASZ
 40
6.0
  9
$DIMEXO
 40
0.625
  9
$DIMDLI
 40
3.75
  9
$DIMRND
 40
0.0
  9
$DIMDLE
 40
0.0
  9
$DIMEXE
 40
1.25
  9
$DIMTP
 40
0.1
  9
$DIMTM
 40
0.1
  9
$DIMTXT
 40
8.0
  9
$DIMCEN
 40
2.5
  9
$DIMTSZ
 40
0.0
  9
$DIMTOL
 70
     0
  9
$DIMLIM
 70
     0
  9
$DIMTIH
 70
     0
  9
$DIMTOH
 70
     0
  9
$DIMSE1
 70
     0
  9
$DIMSE2
 70
     0
  9
$DIMTAD
 70
     1
  9
$DIMZIN
 70
     8
  9
$DIMBLK
  1
OPEN30
  9
$DIMASO
 70
     1
  9
$DIMSHO
 70
     1
  9
$DIMPOST
  1

  9
$DIMAPOST
  1

  9
$DIMALT
 70
     0
  9
$DIMALTD
 70
     2
  9
$DIMALTF
 40
0.0394
  9
$DIMLFAC
 40
1.0
  9
$DIMTOFL
 70
     1
  9
$DIMTVP
 40
1.0
  9
$DIMTIX
 70
     0
  9
$DIMSOXD
 70
     0
  9
$DIMSAH
 70
     0
  9
$DIMBLK1
  1

  9
$DIMBLK2
  1

  9
$DIMSTYLE
  2
ISO-25
  9
$DIMCLRD
 70
     0
  9
$DIMCLRE
 70
     0
  9
$DIMCLRT
 70
     0
  9
$DIMTFAC
 40
1.0
  9
$DIMGAP
 40
0.625
  9
$DIMJUST
 70
     0
  9
$DIMSD1
 70
     0
  9
$DIMSD2
 70
     0
  9
$DIMTOLJ
 70
     1
  9
$DIMTZIN
 70
     0
  9
$DIMALTZ
 70
     0
  9
$DIMALTTZ
 70
     0
  9
$DIMFIT
 70
     3
  9
$DIMUPT
 70
     0
  9
$DIMUNIT
 70
     2
  9
$DIMDEC
 70
     1
  9
$DIMTDEC
 70
     1
  9
$DIMALTU
 70
     2
  9
$DIMALTTD
 70
     2
  9
$DIMTXSTY
  7
STANDARD
  9
$DIMAUNIT
 70
     0
  9
$LUNITS
 70
     2
  9
$LUPREC
 70
     4
  9
$SKETCHINC
 40
1.0
  9
$FILLETRAD
 40
6.5
  9
$AUNITS
 70
     0
  9
$AUPREC
 70
     0
  9
$MENU
  1
.
  9
$ELEVATION
 40
0.0
  9
$PELEVATION
 40
0.0
  9
$THICKNESS
 40
0.0
  9
$LIMCHECK
 70
     0
  9
$CHAMFERA
 40
10.0
  9
$CHAMFERB
 40
10.0
  9
$CHAMFERC
 40
20.0
  9
$CHAMFERD
 40
0.0
  9
$SKPOLY
 70
     0
  9
$TDCREATE
 40
2450576.597302431
  9
$TDUPDATE
 40
2457191.65138066
  9
$TDINDWG
 40
1.2790943287
  9
$TDUSRTIMER
 40
1.2790943287
  9
$USRTIMER
 70
     1
  9
$ANGBASE
 50
0.0
  9
$ANGDIR
 70
     0
  9
$PDMODE
 70
     0
  9
$PDSIZE
 40
0.0
  9
$PLINEWID
 40
0.0
  9
$COORDS
 70
     1
  9
$SPLFRAME
 70
     0
  9
$SPLINETYPE
 70
     6
  9
$SPLINESEGS
 70
     8
  9
$ATTDIA
 70
     0
  9
$ATTREQ
 70
     1
  9
$HANDLING
 70
     1
  9
$HANDSEED
  5
436E
  9
$SURFTAB1
 70
     6
  9
$SURFTAB2
 70
     6
  9
$SURFTYPE
 70
     6
  9
$SURFU
 70
     6
  9
$SURFV
 70
     6
  9
$UCSNAME
  2

  9
$UCSORG
 10
0.0
 20
0.0
 30
0.0
  9
$UCSXDIR
 10
1.0
 20
0.0
 30
0.0
  9
$UCSYDIR
 10
0.0
 20
1.0
 30
0.0
  9
$PUCSNAME
  2

  9
$PUCSORG
 10
0.0
 20
0.0
 30
0.0
  9
$PUCSXDIR
 10
1.0
 20
0.0
 30
0.0
  9
$PUCSYDIR
 10
0.0
 20
1.0
 30
0.0
  9
$USERI1
 70
     0
  9
$USERI2
 70
     0
  9
$USERI3
 70
     0
  9
$USERI4
 70
     0
  9
$USERI5
 70
     0
  9
$USERR1
 40
0.0
  9
$USERR2
 40
0.0
  9
$USERR3
 40
0.0
  9
$USERR4
 40
0.0
  9
$USERR5
 40
0.0
  9
$WORLDVIEW
 70
     1
  9
$SHADEDGE
 70
     3
  9
$SHADEDIF
 70
    70
  9
$TILEMODE
 70
     0
  9
$MAXACTVP
 70
    16
  9
$PINSBASE
 10
0.0
 20
0.0
 30
0.0
  9
$PLIMCHECK
 70
     0
  9
$PEXTMIN
 10
4.746305129083
 20
3.176661756292
 30
0.0
  9
$PEXTMAX
 10
404.746305129083
 20
283.176661756292
 30
0.0
  9
$PLIMMIN
 10
-7.007122192383
 20
-7.007118782997
  9
$PLIMMAX
 10
417.718108215332
 20
293.315290427208
  9
$UNITMODE
 70
     0
  9
$VISRETAIN
 70
     0
  9
$PLINEGEN
 70
     0
  9
$PSLTSCALE
 70
     1
  9
$TREEDEPTH
 70
  3020
  9
$PICKSTYLE
 70
     1
  9
$CMLSTYLE
  2
STANDARD
  9
$CMLJUST
 70
     0
  9
$CMLSCALE
 40
1.0
  9
$PROXYGRAPHICS
 70
     1
  9
$MEASUREMENT
 70
     1
  0
ENDSEC
  0
SECTION
  2
CLASSES
  0
CLASS
  1
ACDBDICTIONARYWDFLT
  2
AcDbDictionaryWithDefault
  3
ObjectDBX Classes
 90
        0
280
     0
281
     0
  0
CLASS
  1
ACDBPLACEHOLDER
  2
AcDbPlaceHolder
  3
ObjectDBX Classes
 90
        0
280
     0
281
     0
  0
CLASS
  1
LAYOUT
  2
AcDbLayout
  3
ObjectDBX Classes
 90
        0
280
     0
281
     0
  0
CLASS
  1
SORTENTSTABLE
  2
AcDbSortentsTable
  3
ObjectDBX Classes
 90
        0
280
     0
281
     0
  0
CLASS
  1
VISUALSTYLE
  2
AcDbVisualStyle
  3
ObjectDBX Classes
 90
     4095
280
     0
281
     0
  0
CLASS
  1
SCALE
  2
AcDbScale
  3
ObjectDBX Classes
 90
     1153
280
     0
281
     0
  0
CLASS
  1
MATERIAL
  2
AcDbMaterial
  3
ObjectDBX Classes
 90
     1153
280
     0
281
     0
  0
CLASS
  1
TABLESTYLE
  2
AcDbTableStyle
  3
ObjectDBX Classes
 90
     4095
280
     0
281
     0
  0
CLASS
  1
MLEADERSTYLE
  2
AcDbMLeaderStyle
  3
ACDB_MLEADERSTYLE_CLASS
 90
     4095
280
     0
281
     0
  0
CLASS
  1
SUN
  2
AcDbSun
  3
SCENEOE
 90
     1153
280
     0
281
     0
  0
CLASS
  1
DICTIONARYVAR
  2
AcDbDictionaryVar
  3
ObjectDBX Classes
 90
        0
280
     0
281
     0
  0
CLASS
  1
XRECORD
  2
AcDbXrecord
  3
ObjectDBX Classes
 90
        0
280
     0
281
     0
  0
CLASS
  1
LWPOLYLINE
  2
AcDbPolyline
  3
ObjectDBX Classes
 90
        0
280
     0
281
     1
  0
CLASS
  1
HATCH
  2
AcDbHatch
  3
ObjectDBX Classes
 90
        0
280
     0
281
     1
  0
ENDSEC
  0
SECTION
  2
TABLES
  0
TABLE
  2
VPORT
  5
8
102
{ACAD_XDICTIONARY
360
4365
102
}
330
0
100
AcDbSymbolTable
 70
     1
  0
VPORT
  5
4210
330
8
100
AcDbSymbolTableRecord
100
AcDbViewportTableRecord
  2
*ACTIVE
 70
     0
 10
0.0
 20
0.0
 11
1.0
 21
1.0
 12
878.101867778836
 22
1600.276958732545
 13
0.0
 23
0.0
 14
1.0
 24
1.0
 15
0.0
 25
0.0
 16
0.0
 26
0.0
 36
1.0
 17
0.0
 27
0.0
 37
0.0
 40
466.715468508624
 41
1.98459563543
 42
50.0
 43
0.0
 44
0.0
 50
0.0
 51
0.0
 71
     0
 72
   100
 73
     1
 74
     0
 75
     0
 76
     0
 77
     0
 78
     0
  0
ENDTAB
  0
TABLE
  2
LTYPE
  5
5
330
0
100
AcDbSymbolTable
 70
     4
  0
LTYPE
  5
14
330
5
100
AcDbSymbolTableRecord
100
AcDbLinetypeTableRecord
  2
BYBLOCK
 70
     0
  3

 72
    65
 73
     0
 40
0.0
  0
LTYPE
  5
15
330
5
100
AcDbSymbolTableRecord
100
AcDbLinetypeTableRecord
  2
BYLAYER
 70
     0
  3

 72
    65
 73
     0
 40
0.0
  0
LTYPE
  5
16
330
5
100
AcDbSymbolTableRecord
100
AcDbLinetypeTableRecord
  2
CONTINUOUS
 70
     0
  3
Solid line
 72
    65
 73
     0
 40
0.0
  0
LTYPE
  5
1EC
330
5
100
AcDbSymbolTableRecord
100
AcDbLinetypeTableRecord
  2
CENTER
 70
     0
  3
____ _ ____ _ ____ _ ____ _ ____ _ ____ _ ____ 
 72
    65
 73
     4
 40
2.0
 49
1.25
 74
     0
 49
-0.25
 74
     0
 49
0.25
 74
     0
 49
-0.25
 74
     0
  0
LTYPE
  5
1ED
330
5
100
AcDbSymbolTableRecord
100
AcDbLinetypeTableRecord
  2
DASHED
 70
     0
  3
__ __ __ __ __ __ __ __ __ __ __ __ __ __ __ __
 72
    65
 73
     2
 40
0.75
 49
0.5
 74
     0
 49
-0.25
 74
     0
  0
LTYPE
  5
2B1F
330
5
100
AcDbSymbolTableRecord
100
AcDbLinetypeTableRecord
  2
DASHDOT
 70
     0
  3
一点鎖線
 72
    65
 73
     4
 40
25.6
 49
20.0
 74
     0
 49
-2.0
 74
     0
 49
1.6
 74
     0
 49
-2.0
 74
     0
  0
ENDTAB
  0
TABLE
  2
LAYER
  5
2
102
{ACAD_XDICTIONARY
360
29EA
102
}
330
0
100
AcDbSymbolTable
 70
    13
  0
LAYER
  5
F
330
2
100
AcDbSymbolTableRecord
100
AcDbLayerTableRecord
  2
0
 70
     0
 62
     7
  6
CONTINUOUS
  0
LAYER
  5
61
330
2
100
AcDbSymbolTableRecord
100
AcDbLayerTableRecord
  2
図枠太線
 70
     0
 62
   251
  6
CONTINUOUS
  0
LAYER
  5
62
330
2
100
AcDbSymbolTableRecord
100
AcDbLayerTableRecord
  2
図枠細線
 70
     0
 62
   252
  6
CONTINUOUS
  0
LAYER
  5
63
330
2
100
AcDbSymbolTableRecord
100
AcDbLayerTableRecord
  2
図枠ロゴマーク
 70
     0
 62
   253
  6
CONTINUOUS
  0
LAYER
  5
1EF
330
2
100
AcDbSymbolTableRecord
100
AcDbLayerTableRecord
  2
外形線
 70
     0
 62
     7
  6
CONTINUOUS
  0
LAYER
  5
1F0
330
2
100
AcDbSymbolTableRecord
100
AcDbLayerTableRecord
  2
寸法線
 70
     0
 62
     1
  6
CONTINUOUS
  0
LAYER
  5
1F1
330
2
100
AcDbSymbolTableRecord
100
AcDbLayerTableRecord
  2
中心線
 70
     0
 62
     4
  6
CENTER
  0
LAYER
  5
1F4
330
2
100
AcDbSymbolTableRecord
100
AcDbLayerTableRecord
  2
DEFPOINTS
 70
     0
 62
     7
  6
CONTINUOUS
  0
LAYER
  5
2AA2
330
2
100
AcDbSymbolTableRecord
100
AcDbLayerTableRecord
  2
下書線
 70
     0
 62
     2
  6
CONTINUOUS
  0
LAYER
  5
2AA3
330
2
100
AcDbSymbolTableRecord
100
AcDbLayerTableRecord
  2
隠れ線
 70
     0
 62
     3
  6
DASHED
  0
LAYER
  5
2AA4
330
2
100
AcDbSymbolTableRecord
100
AcDbLayerTableRecord
  2
細線
 70
     0
 62
     6
  6
CONTINUOUS
  0
LAYER
  5
2AA5
330
2
100
AcDbSymbolTableRecord
100
AcDbLayerTableRecord
  2
太線
 70
     0
 62
   190
  6
CONTINUOUS
  0
LAYER
  5
2B20
330
2
100
AcDbSymbolTableRecord
100
AcDbLayerTableRecord
  2
LAY-1
 70
     0
 62
     7
  6
CONTINUOUS
  0
ENDTAB
  0
TABLE
  2
STYLE
  5
3
330
0
100
AcDbSymbolTable
 70
     3
  0
STYLE
  5
10
330
3
100
AcDbSymbolTableRecord
100
AcDbTextStyleTableRecord
  2
STANDARD
 70
     0
 40
0.0
 41
1.0
 50
0.0
 71
     0
 42
2.333873885063
  3
ISOCP
  4
bigfont.shx
  0
STYLE
  5
64
330
3
100
AcDbSymbolTableRecord
100
AcDbTextStyleTableRecord
  2
EXCADSTD
 70
     0
 40
0.0
 41
1.0
 50
0.0
 71
     0
 42
0.2
  3
monotxt
  4
bigfont
  0
STYLE
  5
2B21
330
3
100
AcDbSymbolTableRecord
100
AcDbTextStyleTableRecord
  2
EXCADVERT
 70
     4
 40
0.0
 41
1.0
 50
0.0
 71
     0
 42
0.286885
  3
monotxt
  4
bigfont
  0
ENDTAB
  0
TABLE
  2
VIEW
  5
6
330
0
100
AcDbSymbolTable
 70
     0
  0
ENDTAB
  0
TABLE
  2
UCS
  5
7
330
0
100
AcDbSymbolTable
 70
     0
  0
ENDTAB
  0
TABLE
  2
APPID
  5
9
330
0
100
AcDbSymbolTable
 70
     3
  0
APPID
  5
11
330
9
100
AcDbSymbolTableRecord
100
AcDbRegAppTableRecord
  2
ACAD
 70
     0
  0
APPID
  5
4266
330
9
100
AcDbSymbolTableRecord
100
AcDbRegAppTableRecord
  2
ACADANNOTATIVE
 70
     0
  0
APPID
  5
436D
330
9
100
AcDbSymbolTableRecord
100
AcDbRegAppTableRecord
  2
ACAD_MLEADERVER
 70
     0
  0
ENDTAB
  0
TABLE
  2
DIMSTYLE
  5
A
330
0
100
AcDbSymbolTable
 70
     2
  0
DIMSTYLE
105
1D
330
A
100
AcDbSymbolTableRecord
100
AcDbDimStyleTableRecord
  2
STANDARD
 70
     0
  3

  4

  5

  6

  7

 40
1.0
 41
0.18
 42
0.0625
 43
0.38
 44
0.18
 45
0.0
 46
0.0
 47
0.0
 48
0.0
140
0.18
141
0.09
142
0.0
143
25.4
144
1.0
145
0.0
146
1.0
147
0.09
 71
     0
 72
     0
 73
     1
 74
     1
 75
     0
 76
     0
 77
     0
 78
     0
170
     0
171
     2
172
     0
173
     0
174
     0
175
     0
176
     0
177
     0
178
     0
270
     2
271
     4
272
     4
273
     2
274
     2
340
10
275
     0
280
     0
281
     0
282
     0
283
     1
284
     0
285
     0
286
     0
287
     3
288
     0
  0
DIMSTYLE
105
24
102
{ACAD_REACTORS
330
2F10
330
2F11
330
3AE8
330
3B07
330
3B63
330
3B70
330
3B9A
330
3C4C
330
3DFC
330
40BA
102
}
330
A
100
AcDbSymbolTableRecord
100
AcDbDimStyleTableRecord
  2
ISO-25
 70
     0
  3

  4

  5

  6

  7

 40
1.0
 41
2.5
 42
0.625
 43
3.75
 44
1.25
 45
0.0
 46
0.0
 47
0.0
 48
0.0
140
2.5
141
2.5
142
0.0
143
0.0394
144
1.0
145
1.0
146
1.0
147
0.625
 71
     0
 72
     0
 73
     1
 74
     0
 75
     0
 76
     0
 77
     1
 78
     8
170
     0
171
     2
172
     1
173
     0
174
     0
175
     0
176
     0
177
     0
178
     0
270
     2
271
     4
272
     4
273
     2
274
     2
340
10
275
     0
280
     0
281
     0
282
     0
283
     1
284
     0
285
     0
286
     0
287
     3
288
     0
  0
ENDTAB
  0
TABLE
  2
BLOCK_RECORD
  5
1
330
0
100
AcDbSymbolTable
 70
    27
  0
BLOCK_RECORD
  5
1A
330
1
100
AcDbSymbolTableRecord
100
AcDbBlockTableRecord
  2
*MODEL_SPACE
  0
BLOCK_RECORD
  5
28FB
330
1
100
AcDbSymbolTableRecord
100
AcDbBlockTableRecord
  2
*PAPER_SPACE
  0
BLOCK_RECORD
  5
65
330
1
100
AcDbSymbolTableRecord
100
AcDbBlockTableRecord
  2
A$C3392
  0
BLOCK_RECORD
  5
29BF
330
1
100
AcDbSymbolTableRecord
100
AcDbBlockTableRecord
  2
A4横用_タイトル
1001
ACAD
1000
DesignCenter Data
1002
{
1070
     1
1070
     4
1002
}
  0
BLOCK_RECORD
  5
29F4
330
1
100
AcDbSymbolTableRecord
100
AcDbBlockTableRecord
  2
A4縦用_タイトル
1001
ACAD
1000
DesignCenter Data
1002
{
1070
     1
1070
     4
1002
}
  0
BLOCK_RECORD
  5
2A32
330
1
100
AcDbSymbolTableRecord
100
AcDbBlockTableRecord
  2
A3横用_タイトル
1001
ACAD
1000
DesignCenter Data
1002
{
1070
     1
1070
     4
1002
}
  0
BLOCK_RECORD
  5
2A6C
330
1
100
AcDbSymbolTableRecord
100
AcDbBlockTableRecord
  2
A3縦用_タイトル
1001
ACAD
1000
DesignCenter Data
1002
{
1070
     1
1070
     4
1002
}
  0
BLOCK_RECORD
  5
2AF4
330
1
100
AcDbSymbolTableRecord
100
AcDbBlockTableRecord
  2
_OPEN30
  0
BLOCK_RECORD
  5
2E69
330
1
100
AcDbSymbolTableRecord
100
AcDbBlockTableRecord
  2
ケース外形図_HL-100
  0
BLOCK_RECORD
  5
2EB5
330
1
100
AcDbSymbolTableRecord
100
AcDbBlockTableRecord
  2
パドル_W1
  0
BLOCK_RECORD
  5
2EE5
330
1
100
AcDbSymbolTableRecord
100
AcDbBlockTableRecord
  2
パドル_W1立面図
  0
BLOCK_RECORD
  5
2F20
330
1
100
AcDbSymbolTableRecord
100
AcDbBlockTableRecord
  2
*D9
  0
BLOCK_RECORD
  5
2F2C
330
1
100
AcDbSymbolTableRecord
100
AcDbBlockTableRecord
  2
*D10
  0
BLOCK_RECORD
  5
2F55
330
1
100
AcDbSymbolTableRecord
100
AcDbBlockTableRecord
  2
*D11
  0
BLOCK_RECORD
  5
2F61
330
1
100
AcDbSymbolTableRecord
100
AcDbBlockTableRecord
  2
*D12
  0
BLOCK_RECORD
  5
2F6D
330
1
100
AcDbSymbolTableRecord
100
AcDbBlockTableRecord
  2
*D13
  0
BLOCK_RECORD
  5
2F7B
330
1
100
AcDbSymbolTableRecord
100
AcDbBlockTableRecord
  2
A$C7CD60800
  0
BLOCK_RECORD
  5
32DA
330
1
100
AcDbSymbolTableRecord
100
AcDbBlockTableRecord
  2
ケース外形図_HL-170
  0
BLOCK_RECORD
  5
39DB
330
1
100
AcDbSymbolTableRecord
100
AcDbBlockTableRecord
  2
ケース外形図_PRL-101-LONG-Fなし
  0
BLOCK_RECORD
  5
3ACE
330
1
100
AcDbSymbolTableRecord
100
AcDbBlockTableRecord
  2
A$C480F1F2B
  0
BLOCK_RECORD
  5
3AE9
330
1
100
AcDbSymbolTableRecord
100
AcDbBlockTableRecord
  2
*D18
  0
BLOCK_RECORD
  5
3B08
330
1
100
AcDbSymbolTableRecord
100
AcDbBlockTableRecord
  2
*D19
  0
BLOCK_RECORD
  5
3B64
330
1
100
AcDbSymbolTableRecord
100
AcDbBlockTableRecord
  2
*D20
  0
BLOCK_RECORD
  5
3B71
330
1
100
AcDbSymbolTableRecord
100
AcDbBlockTableRecord
  2
*D21
  0
BLOCK_RECORD
  5
3B9B
330
1
100
AcDbSymbolTableRecord
100
AcDbBlockTableRecord
  2
*D22
  0
BLOCK_RECORD
  5
3C6A
330
1
100
AcDbSymbolTableRecord
100
AcDbBlockTableRecord
  2
*D23
  0
BLOCK_RECORD
  5
3D69
330
1
100
AcDbSymbolTableRecord
100
AcDbBlockTableRecord
  2
A$C33ED5A0F
  0
BLOCK_RECORD
  5
3DFD
330
1
100
AcDbSymbolTableRecord
100
AcDbBlockTableRecord
  2
*D25
  0
BLOCK_RECORD
  5
40BB
330
1
100
AcDbSymbolTableRecord
100
AcDbBlockTableRecord
  2
*D26
  0
ENDTAB
  0
ENDSEC
  0
SECTION
  2
BLOCKS
  0
BLOCK
  5
1B
330
1A
100
AcDbEntity
  8
0
100
AcDbBlockBegin
  2
*MODEL_SPACE
 70
     0
 10
0.0
 20
0.0
 30
0.0
  3
*MODEL_SPACE
  1

  0
ENDBLK
  5
1C
330
1A
100
AcDbEntity
  8
0
100
AcDbBlockEnd
  0
BLOCK
  5
28FD
330
28FB
100
AcDbEntity
 67
     1
  8
0
 48
10.0
100
AcDbBlockBegin
  2
*PAPER_SPACE
 70
     0
 10
0.0
 20
0.0
 30
0.0
  3
*PAPER_SPACE
  1

  0
ENDBLK
  5
28FE
330
28FB
100
AcDbEntity
 67
     1
  8
0
 48
10.0
100
AcDbBlockEnd
  0
BLOCK
  5
93
330
65
100
AcDbEntity
  8
0
100
AcDbBlockBegin
  2
A$C3392
 70
     0
 10
0.0
 20
0.0
 30
0.0
  3
A$C3392
  1
A$C3392
  0
LINE
  5
66
330
65
100
AcDbEntity
  8
図枠太線
  6
CONTINUOUS
100
AcDbLine
 10
211.858584505185
 20
30.927375675439
 30
0.0
 11
211.858584505185
 21
0.927375675439
 31
0.0
  0
LINE
  5
67
330
65
100
AcDbEntity
  8
図枠細線
  6
CONTINUOUS
100
AcDbLine
 10
231.858592505185
 20
15.927377675439
 30
0.0
 11
287.858592505185
 21
15.927375675439
 31
0.0
  0
LINE
  5
68
330
65
100
AcDbEntity
  8
図枠細線
  6
CONTINUOUS
100
AcDbLine
 10
211.858592505185
 20
15.927377675439
 30
0.0
 11
231.858592505185
 21
15.927377675439
 31
0.0
  0
LINE
  5
69
330
65
100
AcDbEntity
  8
図枠太線
  6
CONTINUOUS
 62
   251
100
AcDbLine
 10
1.858584505185
 20
0.927375675439
 30
0.0
 11
1.858584505185
 21
275.927375675439
 31
0.0
  0
TEXT
  5
6A
330
65
100
AcDbEntity
  8
図枠細線
  6
CONTINUOUS
 62
   252
100
AcDbText
 10
351.358592505185
 20
28.427377675439
 30
0.0
 40
2.0
  1
ＴＩＴＬＥ
 41
0.903614457831
  7
EXCADSTD
 72
     5
 11
361.358592505185
 21
28.427377675439
 31
0.0
100
AcDbText
  0
TEXT
  5
6B
330
65
100
AcDbEntity
  8
図枠細線
  6
CONTINUOUS
 62
   252
100
AcDbText
 10
345.358592505185
 20
28.427377675439
 30
0.0
 40
2.0
  1
名称
 41
1.171875
  7
EXCADSTD
 72
     5
 11
350.358592505185
 21
28.427377675439
 31
0.0
100
AcDbText
  0
TEXT
  5
6C
330
65
100
AcDbEntity
  8
図枠細線
  6
CONTINUOUS
 62
   252
100
AcDbText
 10
274.358592505185
 20
25.927377675439
 30
0.0
 40
2.0
  1
ＤＲＡＷＮ
 41
0.882352941176
  7
EXCADSTD
 72
     5
 11
284.358592505185
 21
25.927377675439
 31
0.0
100
AcDbText
  0
TEXT
  5
6D
330
65
100
AcDbEntity
  8
図枠細線
  6
CONTINUOUS
 62
   252
100
AcDbText
 10
260.358592505185
 20
25.927377675439
 30
0.0
 40
2.0
  1
ＤＥＳＩＧＮＥＤ
 41
0.713043472041
  7
EXCADSTD
 72
     5
 11
273.478592390744
 21
25.927377675439
 31
0.0
100
AcDbText
  0
TEXT
  5
6E
330
65
100
AcDbEntity
  8
図枠細線
  6
CONTINUOUS
 62
   252
100
AcDbText
 10
246.358592505185
 20
25.927377675439
 30
0.0
 40
2.0
  1
ＣＨＥＣＫＥＤ
 41
0.831249989569
  7
EXCADSTD
 72
     5
 11
259.658592338292
 21
25.927377675439
 31
0.0
100
AcDbText
  0
TEXT
  5
6F
330
65
100
AcDbEntity
  8
図枠細線
  6
CONTINUOUS
 62
   252
100
AcDbText
 10
274.358592505185
 20
28.427377675439
 30
0.0
 40
2.0
  1
製図
 41
1.209677419355
  7
EXCADSTD
 72
     5
 11
279.358592505185
 21
28.427377675439
 31
0.0
100
AcDbText
  0
TEXT
  5
70
330
65
100
AcDbEntity
  8
図枠細線
  6
CONTINUOUS
 62
   252
100
AcDbText
 10
260.358592505185
 20
28.427377675439
 30
0.0
 40
2.0
  1
設計
 41
1.171875
  7
EXCADSTD
 72
     5
 11
265.358592505185
 21
28.427377675439
 31
0.0
100
AcDbText
  0
TEXT
  5
71
330
65
100
AcDbEntity
  8
図枠細線
  6
CONTINUOUS
 62
   252
100
AcDbText
 10
246.358592505185
 20
28.427377675439
 30
0.0
 40
2.0
  1
検図
 41
1.209677419355
  7
EXCADSTD
 72
     5
 11
251.358592505185
 21
28.427377675439
 31
0.0
100
AcDbText
  0
TEXT
  5
72
330
65
100
AcDbEntity
  8
図枠細線
  6
CONTINUOUS
 62
   252
100
AcDbText
 10
232.358592505185
 20
25.927377675439
 30
0.0
 40
2.0
  1
ＡＰＰＲＯＶＥＤ
 41
0.695652184279
  7
EXCADSTD
 72
     5
 11
245.15859269592
 21
25.927377675439
 31
0.0
100
AcDbText
  0
TEXT
  5
73
330
65
100
AcDbEntity
  8
図枠細線
  6
CONTINUOUS
 62
   252
100
AcDbText
 10
232.358592505185
 20
28.427377675439
 30
0.0
 40
2.0
  1
承認
 41
1.171875
  7
EXCADSTD
 72
     5
 11
237.358592505185
 21
28.427377675439
 31
0.0
100
AcDbText
  0
TEXT
  5
74
330
65
100
AcDbEntity
  8
図枠細線
  6
CONTINUOUS
 62
   252
100
AcDbText
 10
290.069888505185
 20
2.574868675439
 30
0.0
 40
3.5
  1
ＴＯＷＡ　ＳＥＩＤＥＮ　ＩＮＤＵＳＴＲＩＡＬ　ＣＯ．，ＬＴＤ．
 41
0.414568012377
  7
EXCADSTD
 72
     5
 11
342.692388209546
 21
2.574868675439
 31
0.0
100
AcDbText
  0
TEXT
  5
75
330
65
100
AcDbEntity
  8
図枠ロゴマーク
  6
CONTINUOUS
 62
   253
100
AcDbText
 10
290.107348505185
 20
7.519769675439
 30
0.0
 40
7.0
  1
東和制電工業株式会社
 41
0.639204545455
  7
EXCADSTD
 72
     5
 11
342.607348505185
 21
7.519769675439
 31
0.0
100
AcDbText
  0
TEXT
  5
76
330
65
100
AcDbEntity
  8
図枠細線
  6
CONTINUOUS
 62
   252
100
AcDbText
 10
232.499705505185
 20
5.759088675439
 30
0.0
 40
2.0
  1
ＰＲＯＪＥＣＴＩＯＮ
 41
0.754285710199
  7
EXCADSTD
 72
     5
 11
250.099705409817
 21
5.759088675439
 31
0.0
100
AcDbText
  0
TEXT
  5
77
330
65
100
AcDbEntity
  8
図枠細線
  6
CONTINUOUS
 62
   252
100
AcDbText
 10
232.574629505185
 20
8.681077675439
 30
0.0
 40
2.0
  1
ＴＨＩＲＤ　ＡＮＧＬＥ
 41
0.691099486738
  7
EXCADSTD
 72
     5
 11
250.174629767445
 21
8.681077675439
 31
0.0
100
AcDbText
  0
TEXT
  5
78
330
65
100
AcDbEntity
  8
図枠細線
  6
CONTINUOUS
 62
   252
100
AcDbText
 10
256.823999505185
 20
13.427377675439
 30
0.0
 40
2.0
  1
ＳＣＡＬＥ
 41
0.903614457831
  7
EXCADSTD
 72
     5
 11
266.823999505185
 21
13.427377675439
 31
0.0
100
AcDbText
  0
TEXT
  5
79
330
65
100
AcDbEntity
  8
図枠細線
  6
CONTINUOUS
 62
   252
100
AcDbText
 10
274.858592505185
 20
13.427377675439
 30
0.0
 40
2.0
  1
ＤＡＴＥ
 41
0.923076923077
  7
EXCADSTD
 72
     5
 11
282.858592505185
 21
13.427377675439
 31
0.0
100
AcDbText
  0
TEXT
  5
7A
330
65
100
AcDbEntity
  8
図枠細線
  6
CONTINUOUS
 62
   252
100
AcDbText
 10
356.358592505185
 20
13.427377675439
 30
0.0
 40
2.0
  1
ＤＲＧ．ＮＯ．
 41
0.9375
  7
EXCADSTD
 72
     5
 11
370.358592505185
 21
13.427377675439
 31
0.0
100
AcDbText
  0
TEXT
  5
7B
330
65
100
AcDbEntity
  8
図枠細線
  6
CONTINUOUS
 62
   252
100
AcDbText
 10
345.358592505185
 20
13.427377675439
 30
0.0
 40
2.0
  1
図面番号
 41
1.102941176471
  7
EXCADSTD
 72
     5
 11
355.358592505185
 21
13.427377675439
 31
0.0
100
AcDbText
  0
TEXT
  5
7C
330
65
100
AcDbEntity
  8
図枠細線
  6
CONTINUOUS
 62
   252
100
AcDbText
 10
269.358592505185
 20
13.427377675439
 30
0.0
 40
2.0
  1
日付
 41
1.171875
  7
EXCADSTD
 72
     5
 11
274.358592505185
 21
13.427377675439
 31
0.0
100
AcDbText
  0
TEXT
  5
7D
330
65
100
AcDbEntity
  8
図枠細線
  6
CONTINUOUS
 62
   252
100
AcDbText
 10
251.451512505185
 20
13.427377675439
 30
0.0
 40
2.0
  1
尺度
 41
1.171875
  7
EXCADSTD
 72
     5
 11
256.451512505185
 21
13.427377675439
 31
0.0
100
AcDbText
  0
TEXT
  5
7E
330
65
100
AcDbEntity
  8
図枠細線
  6
CONTINUOUS
 62
   252
100
AcDbText
 10
232.358592505185
 20
13.427377675439
 30
0.0
 40
2.0
  1
第三角法
 41
1.102941176471
  7
EXCADSTD
 72
     5
 11
242.358592505185
 21
13.427377675439
 31
0.0
100
AcDbText
  0
TEXT
  5
7F
330
65
100
AcDbEntity
  8
図枠細線
  6
CONTINUOUS
 62
   252
100
AcDbText
 10
212.358592505185
 20
28.427377675439
 30
0.0
 40
2.0
  1
ＮＯＴＥ
 41
0.923076923077
  7
EXCADSTD
 72
     5
 11
220.358592505185
 21
28.427377675439
 31
0.0
100
AcDbText
  0
LINE
  5
80
330
65
100
AcDbEntity
  8
図枠細線
  6
CONTINUOUS
 62
   252
100
AcDbLine
 10
287.858592505185
 20
23.427375675439
 30
0.0
 11
344.858592505185
 21
23.427375675439
 31
0.0
  0
LINE
  5
81
330
65
100
AcDbEntity
  8
図枠太線
  6
CONTINUOUS
 62
   251
100
AcDbLine
 10
287.858584505185
 20
15.927375675439
 30
0.0
 11
344.858592505185
 21
15.927375675439
 31
0.0
  0
LINE
  5
82
330
65
100
AcDbEntity
  8
図枠細線
  6
CONTINUOUS
 62
   252
100
AcDbLine
 10
344.858592505185
 20
15.927375675439
 30
0.0
 11
401.858584505185
 21
15.927375675439
 31
0.0
  0
LINE
  5
83
330
65
100
AcDbEntity
  8
図枠太線
  6
CONTINUOUS
 62
   251
100
AcDbLine
 10
344.858592505185
 20
0.927377675439
 30
0.0
 11
344.858592505185
 21
30.927375675439
 31
0.0
  0
LINE
  5
84
330
65
100
AcDbEntity
  8
図枠太線
  6
CONTINUOUS
 62
   251
100
AcDbLine
 10
287.858592505185
 20
0.927377675439
 30
0.0
 11
287.858592505185
 21
30.927375675439
 31
0.0
  0
LINE
  5
85
330
65
100
AcDbEntity
  8
図枠細線
  6
CONTINUOUS
 62
   252
100
AcDbLine
 10
268.858592505185
 20
0.927377675439
 30
0.0
 11
268.858592505185
 21
15.927375675439
 31
0.0
  0
LINE
  5
86
330
65
100
AcDbEntity
  8
図枠細線
  6
CONTINUOUS
 62
   252
100
AcDbLine
 10
250.858592505185
 20
0.927377675439
 30
0.0
 11
250.858592505185
 21
15.927375675439
 31
0.0
  0
LINE
  5
87
330
65
100
AcDbEntity
  8
図枠細線
  6
CONTINUOUS
 62
   252
100
AcDbLine
 10
273.858592505185
 20
30.927375675439
 30
0.0
 11
273.858592505185
 21
15.927375675439
 31
0.0
  0
LINE
  5
88
330
65
100
AcDbEntity
  8
図枠細線
  6
CONTINUOUS
 62
   252
100
AcDbLine
 10
259.858592505185
 20
30.927375675439
 30
0.0
 11
259.858592505185
 21
15.927375675439
 31
0.0
  0
LINE
  5
89
330
65
100
AcDbEntity
  8
図枠細線
  6
CONTINUOUS
 62
   252
100
AcDbLine
 10
245.858592505185
 20
30.927375675439
 30
0.0
 11
245.858592505185
 21
15.927375675439
 31
0.0
  0
LINE
  5
8A
330
65
100
AcDbEntity
  8
図枠太線
  6
CONTINUOUS
 62
   251
100
AcDbLine
 10
231.858592505185
 20
0.927377675439
 30
0.0
 11
231.858592505185
 21
30.927375675439
 31
0.0
  0
LINE
  5
8B
330
65
100
AcDbEntity
  8
図枠細線
  6
CONTINUOUS
 62
   252
100
AcDbLine
 10
211.858592505185
 20
25.927375675439
 30
0.0
 11
231.858592505185
 21
25.927375675439
 31
0.0
  0
LINE
  5
8C
330
65
100
AcDbEntity
  8
図枠細線
  6
CONTINUOUS
 62
   252
100
AcDbLine
 10
211.858592505185
 20
20.927375675439
 30
0.0
 11
231.858592505185
 21
20.927375675439
 31
0.0
  0
LINE
  5
8D
330
65
100
AcDbEntity
  8
図枠細線
  6
CONTINUOUS
 62
   252
100
AcDbLine
 10
211.858592505185
 20
10.927375675439
 30
0.0
 11
231.858592505185
 21
10.927375675439
 31
0.0
  0
LINE
  5
8E
330
65
100
AcDbEntity
  8
図枠細線
  6
CONTINUOUS
 62
   252
100
AcDbLine
 10
211.858592505185
 20
5.927377675439
 30
0.0
 11
231.858592505185
 21
5.927377675439
 31
0.0
  0
LINE
  5
8F
330
65
100
AcDbEntity
  8
図枠太線
  6
CONTINUOUS
 62
   251
100
AcDbLine
 10
211.858592505185
 20
30.927375675439
 30
0.0
 11
401.858584505185
 21
30.927375675439
 31
0.0
  0
LINE
  5
90
330
65
100
AcDbEntity
  8
図枠太線
  6
CONTINUOUS
 62
   251
100
AcDbLine
 10
1.858584505185
 20
275.927375675439
 30
0.0
 11
401.858584505185
 21
275.927375675439
 31
0.0
  0
LINE
  5
91
330
65
100
AcDbEntity
  8
図枠太線
  6
CONTINUOUS
 62
   251
100
AcDbLine
 10
401.858584505185
 20
0.927375675439
 30
0.0
 11
401.858584505185
 21
275.927375675439
 31
0.0
  0
LINE
  5
92
330
65
100
AcDbEntity
  8
図枠太線
  6
CONTINUOUS
 62
   251
100
AcDbLine
 10
1.858584505185
 20
0.927375675439
 30
0.0
 11
401.858584505185
 21
0.927375675439
 31
0.0
  0
ENDBLK
  5
94
330
65
100
AcDbEntity
  8
0
100
AcDbBlockEnd
  0
BLOCK
  5
29C0
330
29BF
100
AcDbEntity
  8
0
100
AcDbBlockBegin
  2
A4横用_タイトル
 70
     0
 10
0.0
 20
0.0
 30
0.0
  3
A4横用_タイトル
  1
A4横用_タイトル
  0
LINE
  5
29C1
330
29BF
100
AcDbEntity
  8
図枠細線
  6
CONTINUOUS
100
AcDbLine
 10
75.061011071051
 20
16.806607253358
 30
0.0
 11
144.061011071051
 21
16.806604789072
 31
0.0
  0
LINE
  5
29C2
330
29BF
100
AcDbEntity
  8
図枠細線
  6
CONTINUOUS
 62
   252
100
AcDbLine
 10
4.061011071051
 20
11.806606253358
 30
0.0
 11
75.061011071051
 21
11.806606253358
 31
0.0
  0
LINE
  5
29C3
330
29BF
100
AcDbEntity
  8
図枠細線
  6
CONTINUOUS
 62
   252
100
AcDbLine
 10
4.061011071051
 20
21.806606253358
 30
0.0
 11
75.061011071051
 21
21.806606253358
 31
0.0
  0
LINE
  5
29C4
330
29BF
100
AcDbEntity
  8
図枠細線
  6
CONTINUOUS
 62
   252
100
AcDbLine
 10
4.061011071051
 20
26.806606253358
 30
0.0
 11
75.061011071051
 21
26.806606253358
 31
0.0
  0
LINE
  5
29C5
330
29BF
100
AcDbEntity
  8
図枠細線
  6
CONTINUOUS
100
AcDbLine
 10
4.061011071051
 20
16.806608253358
 30
0.0
 11
75.061011071051
 21
16.806608253358
 31
0.0
  0
TEXT
  5
29C6
330
29BF
100
AcDbEntity
  8
図枠細線
  6
CONTINUOUS
 62
   252
100
AcDbText
 10
76.405475827713
 20
9.560308253358
 30
0.0
 40
2.0
  1
ＴＨＩＲＤ　ＡＮＧＬＥ
 41
0.691099486738
  7
EXCADSTD
 72
     5
 11
94.005476089973
 21
9.560308253358
 31
0.0
100
AcDbText
  0
TEXT
  5
29C7
330
29BF
100
AcDbEntity
  8
図枠細線
  6
CONTINUOUS
 62
   252
100
AcDbText
 10
76.705775880921
 20
14.306608253358
 30
0.0
 40
2.0
  1
第三角法
 41
1.102941176471
  7
EXCADSTD
 72
     5
 11
86.705775880921
 21
14.306608253358
 31
0.0
100
AcDbText
  0
TEXT
  5
29C8
330
29BF
100
AcDbEntity
  8
図枠細線
  6
CONTINUOUS
 62
   252
100
AcDbText
 10
76.705775880921
 20
26.806608253358
 30
0.0
 40
2.0
  1
ＡＰＰＲＯＶＥＤ
 41
0.695652184279
  7
EXCADSTD
 72
     5
 11
89.505776071656
 21
26.806608253358
 31
0.0
100
AcDbText
  0
TEXT
  5
29C9
330
29BF
100
AcDbEntity
  8
図枠細線
  6
CONTINUOUS
 62
   252
100
AcDbText
 10
76.705775880921
 20
29.306608253358
 30
0.0
 40
2.0
  1
承認
 41
1.171875
  7
EXCADSTD
 72
     5
 11
81.705775880921
 21
29.306608253358
 31
0.0
100
AcDbText
  0
LINE
  5
29CA
330
29BF
100
AcDbEntity
  8
図枠細線
  6
CONTINUOUS
 62
   252
100
AcDbLine
 10
98.061011071051
 20
31.806606253358
 30
0.0
 11
98.061011071051
 21
16.806606253358
 31
0.0
  0
TEXT
  5
29CB
330
29BF
100
AcDbEntity
  8
図枠細線
  6
CONTINUOUS
 62
   252
100
AcDbText
 10
104.216531119804
 20
14.306608253358
 30
0.0
 40
2.0
  1
ＳＣＡＬＥ
 41
0.903614457831
  7
EXCADSTD
 72
     5
 11
114.216531119804
 21
14.306608253358
 31
0.0
100
AcDbText
  0
TEXT
  5
29CC
330
29BF
100
AcDbEntity
  8
図枠細線
  6
CONTINUOUS
 62
   252
100
AcDbText
 10
98.844044119804
 20
14.306608253358
 30
0.0
 40
2.0
  1
尺度
 41
1.171875
  7
EXCADSTD
 72
     5
 11
103.844044119804
 21
14.306608253358
 31
0.0
100
AcDbText
  0
TEXT
  5
29CD
330
29BF
100
AcDbEntity
  8
図枠細線
  6
CONTINUOUS
 62
   252
100
AcDbText
 10
98.968727707497
 20
26.806608253358
 30
0.0
 40
2.0
  1
ＣＨＥＣＫＥＤ
 41
0.831249989569
  7
EXCADSTD
 72
     5
 11
112.268727540604
 21
26.806608253358
 31
0.0
100
AcDbText
  0
TEXT
  5
29CE
330
29BF
100
AcDbEntity
  8
図枠細線
  6
CONTINUOUS
 62
   252
100
AcDbText
 10
98.968727707497
 20
29.306608253358
 30
0.0
 40
2.0
  1
検図
 41
1.209677419355
  7
EXCADSTD
 72
     5
 11
103.968727707497
 21
29.306608253358
 31
0.0
100
AcDbText
  0
LINE
  5
29CF
330
29BF
100
AcDbEntity
  8
図枠細線
  6
CONTINUOUS
 62
   252
100
AcDbLine
 10
121.061011071051
 20
31.806606253358
 30
0.0
 11
121.061011071051
 21
16.806606253358
 31
0.0
  0
TEXT
  5
29D0
330
29BF
100
AcDbEntity
  8
図枠細線
  6
CONTINUOUS
 62
   252
100
AcDbText
 10
128.001465247253
 20
14.306608253358
 30
0.0
 40
2.0
  1
ＤＡＴＥ
 41
0.923076923077
  7
EXCADSTD
 72
     5
 11
136.001465247253
 21
14.306608253358
 31
0.0
100
AcDbText
  0
TEXT
  5
29D1
330
29BF
100
AcDbEntity
  8
図枠細線
  6
CONTINUOUS
 62
   252
100
AcDbText
 10
122.066415498841
 20
14.306608253358
 30
0.0
 40
2.0
  1
日付
 41
1.171875
  7
EXCADSTD
 72
     5
 11
127.066415498841
 21
14.306608253358
 31
0.0
100
AcDbText
  0
TEXT
  5
29D2
330
29BF
100
AcDbEntity
  8
図枠細線
  6
CONTINUOUS
 62
   252
100
AcDbText
 10
121.59429406571
 20
29.306608253358
 30
0.0
 40
2.0
  1
製図
 41
1.209677419355
  7
EXCADSTD
 72
     5
 11
126.59429406571
 21
29.306608253358
 31
0.0
100
AcDbText
  0
TEXT
  5
29D3
330
29BF
100
AcDbEntity
  8
図枠細線
  6
CONTINUOUS
 62
   252
100
AcDbText
 10
121.59429406571
 20
26.806608253358
 30
0.0
 40
2.0
  1
ＤＲＡＷＮ
 41
0.882352941176
  7
EXCADSTD
 72
     5
 11
131.59429406571
 21
26.806608253358
 31
0.0
100
AcDbText
  0
TEXT
  5
29D4
330
29BF
100
AcDbEntity
  8
図枠細線
  6
CONTINUOUS
 62
   252
100
AcDbText
 10
226.591229661348
 20
14.306608253358
 30
0.0
 40
2.0
  1
ＤＲＧ．ＮＯ．
 41
0.9375
  7
EXCADSTD
 72
     5
 11
240.591229661348
 21
14.306608253358
 31
0.0
100
AcDbText
  0
LINE
  5
29D5
330
29BF
100
AcDbEntity
  8
図枠太線
  6
CONTINUOUS
 62
   251
100
AcDbLine
 10
144.061003071051
 20
16.806606253358
 30
0.0
 11
214.061011071051
 21
16.806606253358
 31
0.0
  0
LINE
  5
29D6
330
29BF
100
AcDbEntity
  8
図枠細線
  6
CONTINUOUS
 62
   252
100
AcDbLine
 10
144.061011071051
 20
24.306606253358
 30
0.0
 11
214.061011071051
 21
24.306606253358
 31
0.0
  0
TEXT
  5
29D7
330
29BF
100
AcDbEntity
  8
図枠ロゴマーク
  6
CONTINUOUS
 62
   253
100
AcDbText
 10
146.433776781596
 20
8.399000253358
 30
0.0
 40
7.0
  1
東和制電工業株式会社
 41
0.80361088462
  7
EXCADSTD
 72
     5
 11
212.437017438349
 21
8.399000253358
 31
0.0
100
AcDbText
  0
TEXT
  5
29D8
330
29BF
100
AcDbEntity
  8
図枠細線
  6
CONTINUOUS
 62
   252
100
AcDbText
 10
215.156179912936
 20
14.306608253358
 30
0.0
 40
2.0
  1
図面番号
 41
1.102941176471
  7
EXCADSTD
 72
     5
 11
225.156179912936
 21
14.306608253358
 31
0.0
100
AcDbText
  0
TEXT
  5
29D9
330
29BF
100
AcDbEntity
  8
図枠細線
  6
CONTINUOUS
 62
   252
100
AcDbText
 10
221.591229661348
 20
29.306608253358
 30
0.0
 40
2.0
  1
ＴＩＴＬＥ
 41
0.903614457831
  7
EXCADSTD
 72
     5
 11
231.591229661348
 21
29.306608253358
 31
0.0
100
AcDbText
  0
TEXT
  5
29DA
330
29BF
100
AcDbEntity
  8
図枠細線
  6
CONTINUOUS
 62
   252
100
AcDbText
 10
215.156179912936
 20
29.306608253358
 30
0.0
 40
2.0
  1
名称
 41
1.171875
  7
EXCADSTD
 72
     5
 11
220.156179912936
 21
29.306608253358
 31
0.0
100
AcDbText
  0
LINE
  5
29DB
330
29BF
100
AcDbEntity
  8
図枠太線
  6
CONTINUOUS
 62
   251
100
AcDbLine
 10
4.061011071051
 20
1.806608253358
 30
0.0
 11
284.061011071051
 21
1.806608253358
 31
0.0
  0
LINE
  5
29DC
330
29BF
100
AcDbEntity
  8
図枠細線
  6
CONTINUOUS
 62
   252
100
AcDbLine
 10
4.061011071051
 20
6.806608253358
 30
0.0
 11
75.061011071051
 21
6.806608253358
 31
0.0
  0
LINE
  5
29DD
330
29BF
100
AcDbEntity
  8
図枠太線
  6
CONTINUOUS
 62
   251
100
AcDbLine
 10
75.061011071051
 20
1.806608253358
 30
0.0
 11
75.061011071051
 21
31.806606253358
 31
0.0
  0
TEXT
  5
29DE
330
29BF
100
AcDbEntity
  8
図枠細線
  6
CONTINUOUS
 62
   252
100
AcDbText
 10
76.330551827713
 20
6.638319253358
 30
0.0
 40
2.0
  1
ＰＲＯＪＥＣＴＩＯＮ
 41
0.754285710199
  7
EXCADSTD
 72
     5
 11
93.930551732346
 21
6.638319253358
 31
0.0
100
AcDbText
  0
LINE
  5
29DF
330
29BF
100
AcDbEntity
  8
図枠細線
  6
CONTINUOUS
 62
   252
100
AcDbLine
 10
98.061011071051
 20
1.806606931929
 30
0.0
 11
98.061011071051
 21
16.806604931929
 31
0.0
  0
LINE
  5
29E0
330
29BF
100
AcDbEntity
  8
図枠細線
  6
CONTINUOUS
 62
   252
100
AcDbLine
 10
121.061011071051
 20
1.806607574787
 30
0.0
 11
121.061011071051
 21
16.806605574787
 31
0.0
  0
LINE
  5
29E1
330
29BF
100
AcDbEntity
  8
図枠太線
  6
CONTINUOUS
 62
   251
100
AcDbLine
 10
284.061011071051
 20
1.806608253358
 30
0.0
 11
284.061011071051
 21
31.806606253358
 31
0.0
  0
LINE
  5
29E2
330
29BF
100
AcDbEntity
  8
図枠細線
  6
CONTINUOUS
 62
   252
100
AcDbLine
 10
214.061011071051
 20
16.806606253358
 30
0.0
 11
284.061011071051
 21
16.806606253358
 31
0.0
  0
TEXT
  5
29E3
330
29BF
100
AcDbEntity
  8
図枠細線
  6
CONTINUOUS
 62
   252
100
AcDbText
 10
146.199593676182
 20
3.454099253358
 30
0.0
 40
3.5
  1
ＴＯＷＡ　ＳＥＩＤＥＮ　ＩＮＤＵＳＴＲＩＡＬ　ＣＯ．，ＬＴＤ．
 41
0.528937826907
  7
EXCADSTD
 72
     5
 11
213.339435171588
 21
3.454099253358
 31
0.0
100
AcDbText
  0
LINE
  5
29E4
330
29BF
100
AcDbEntity
  8
図枠太線
  6
CONTINUOUS
 62
   251
100
AcDbLine
 10
144.061011071051
 20
1.806608253358
 30
0.0
 11
144.061011071051
 21
31.806606253358
 31
0.0
  0
LINE
  5
29E5
330
29BF
100
AcDbEntity
  8
図枠太線
  6
CONTINUOUS
 62
   251
100
AcDbLine
 10
214.061011071051
 20
1.806608253358
 30
0.0
 11
214.061011071051
 21
31.806606253358
 31
0.0
  0
MTEXT
  5
29E6
330
29BF
100
AcDbEntity
  8
図枠太線
100
AcDbMText
 10
5.064337346478
 20
31.010982137407
 30
0.0
 40
2.5
 41
8.67856098472
 71
     1
 72
     5
  1
{\Fmonotxt.shx,bigfont.shx|c128;図暦}
  0
LINE
  5
29E7
330
29BF
100
AcDbEntity
  8
図枠太線
  6
CONTINUOUS
 62
   251
100
AcDbLine
 10
4.061011071051
 20
1.806608253358
 30
0.0
 11
4.061011071051
 21
31.806606253358
 31
0.0
  0
TEXT
  5
29E8
330
29BF
100
AcDbEntity
  8
図枠細線
 48
10.0
100
AcDbText
 10
12.260817420402
 20
28.625419626495
 30
0.0
 40
2.0
  1
CHANGE NOTICE
100
AcDbText
  0
ENDBLK
  5
29E9
330
29BF
100
AcDbEntity
  8
0
100
AcDbBlockEnd
  0
BLOCK
  5
29F5
330
29F4
100
AcDbEntity
  8
0
100
AcDbBlockBegin
  2
A4縦用_タイトル
 70
     0
 10
0.0
 20
0.0
 30
0.0
  3
A4縦用_タイトル
  1
A4縦用_タイトル
  0
LINE
  5
29F6
330
29F4
100
AcDbEntity
  8
図枠太線
  6
CONTINUOUS
 62
   251
100
AcDbLine
 10
2.368253864267
 20
4.525433224584
 30
0.0
 11
192.368245864267
 21
4.525433224584
 31
0.0
  0
LINE
  5
29F7
330
29F4
100
AcDbEntity
  8
図枠太線
  6
CONTINUOUS
 62
   251
100
AcDbLine
 10
78.368245864267
 20
19.525431224584
 30
0.0
 11
135.368253864267
 21
19.525431224584
 31
0.0
  0
LINE
  5
29F8
330
29F4
100
AcDbEntity
  8
図枠細線
  6
CONTINUOUS
 62
   252
100
AcDbLine
 10
78.368253864267
 20
27.025431224584
 30
0.0
 11
135.368253864267
 21
27.025431224584
 31
0.0
  0
TEXT
  5
29F9
330
29F4
100
AcDbEntity
  8
図枠ロゴマーク
  6
CONTINUOUS
 62
   253
100
AcDbText
 10
80.617009864267
 20
11.117825224584
 30
0.0
 40
7.0
  1
東和制電工業株式会社
 41
0.639204545455
  7
EXCADSTD
 72
     5
 11
133.117009864267
 21
11.117825224584
 31
0.0
100
AcDbText
  0
TEXT
  5
29FA
330
29F4
100
AcDbEntity
  8
図枠細線
  6
CONTINUOUS
 62
   252
100
AcDbText
 10
80.579549864267
 20
6.172924224584
 30
0.0
 40
3.5
  1
ＴＯＷＡ　ＳＥＩＤＥＮ　ＩＮＤＵＳＴＲＩＡＬ　ＣＯ．，ＬＴＤ．
 41
0.414568012377
  7
EXCADSTD
 72
     5
 11
133.202049568628
 21
6.172924224584
 31
0.0
100
AcDbText
  0
LINE
  5
29FB
330
29F4
100
AcDbEntity
  8
図枠太線
  6
CONTINUOUS
 62
   251
100
AcDbLine
 10
2.368253864267
 20
4.525433224584
 30
0.0
 11
2.368253864267
 21
34.525431224584
 31
0.0
  0
TEXT
  5
29FC
330
29F4
100
AcDbEntity
  8
図枠細線
  6
CONTINUOUS
 62
   252
100
AcDbText
 10
22.504308136501
 20
12.279133224584
 30
0.0
 40
2.0
  1
ＴＨＩＲＤ　ＡＮＧＬＥ
 41
0.691099486738
  7
EXCADSTD
 72
     5
 11
40.104308398762
 21
12.279133224584
 31
0.0
100
AcDbText
  0
TEXT
  5
29FD
330
29F4
100
AcDbEntity
  8
図枠細線
  6
CONTINUOUS
 62
   252
100
AcDbText
 10
22.429384136501
 20
9.357144224584
 30
0.0
 40
2.0
  1
ＰＲＯＪＥＣＴＩＯＮ
 41
0.754285710199
  7
EXCADSTD
 72
     5
 11
40.029384041134
 21
9.357144224584
 31
0.0
100
AcDbText
  0
LINE
  5
29FE
330
29F4
100
AcDbEntity
  8
図枠細線
  6
CONTINUOUS
100
AcDbLine
 10
22.368253864267
 20
19.525433224584
 30
0.0
 11
78.368253864267
 21
19.525431224584
 31
0.0
  0
TEXT
  5
29FF
330
29F4
100
AcDbEntity
  8
図枠細線
  6
CONTINUOUS
 62
   252
100
AcDbText
 10
22.868253864267
 20
17.025433224584
 30
0.0
 40
2.0
  1
第三角法
 41
1.102941176471
  7
EXCADSTD
 72
     5
 11
32.868253864267
 21
17.025433224584
 31
0.0
100
AcDbText
  0
TEXT
  5
2A00
330
29F4
100
AcDbEntity
  8
図枠細線
  6
CONTINUOUS
 62
   252
100
AcDbText
 10
22.868253864267
 20
29.525433224584
 30
0.0
 40
2.0
  1
ＡＰＰＲＯＶＥＤ
 41
0.695652184279
  7
EXCADSTD
 72
     5
 11
35.668254055002
 21
29.525433224584
 31
0.0
100
AcDbText
  0
LINE
  5
2A01
330
29F4
100
AcDbEntity
  8
図枠細線
  6
CONTINUOUS
 62
   252
100
AcDbLine
 10
2.368253864267
 20
9.525433224584
 30
0.0
 11
22.368253864267
 21
9.525433224584
 31
0.0
  0
LINE
  5
2A02
330
29F4
100
AcDbEntity
  8
図枠細線
  6
CONTINUOUS
 62
   252
100
AcDbLine
 10
2.368253864267
 20
14.525431224584
 30
0.0
 11
22.368253864267
 21
14.525431224584
 31
0.0
  0
LINE
  5
2A03
330
29F4
100
AcDbEntity
  8
図枠細線
  6
CONTINUOUS
 62
   252
100
AcDbLine
 10
2.368253864267
 20
24.525431224584
 30
0.0
 11
22.368253864267
 21
24.525431224584
 31
0.0
  0
LINE
  5
2A04
330
29F4
100
AcDbEntity
  8
図枠細線
  6
CONTINUOUS
 62
   252
100
AcDbLine
 10
2.368253864267
 20
29.525431224584
 30
0.0
 11
22.368253864267
 21
29.525431224584
 31
0.0
  0
LINE
  5
2A05
330
29F4
100
AcDbEntity
  8
図枠細線
  6
CONTINUOUS
100
AcDbLine
 10
2.368253864267
 20
19.525433224584
 30
0.0
 11
22.368253864267
 21
19.525433224584
 31
0.0
  0
TEXT
  5
2A06
330
29F4
100
AcDbEntity
  8
図枠細線
  6
CONTINUOUS
 62
   252
100
AcDbText
 10
2.868253864267
 20
32.025433224584
 30
0.0
 40
2.0
  1
ＮＯＴＥ
 41
0.923076923077
  7
EXCADSTD
 72
     5
 11
10.868253864267
 21
32.025433224584
 31
0.0
100
AcDbText
  0
LINE
  5
2A07
330
29F4
100
AcDbEntity
  8
図枠太線
  6
CONTINUOUS
 62
   251
100
AcDbLine
 10
22.368253864267
 20
4.525433224584
 30
0.0
 11
22.368253864267
 21
34.525431224584
 31
0.0
  0
TEXT
  5
2A08
330
29F4
100
AcDbEntity
  8
図枠細線
  6
CONTINUOUS
 62
   252
100
AcDbText
 10
22.868253864267
 20
32.025433224584
 30
0.0
 40
2.0
  1
承認
 41
1.171875
  7
EXCADSTD
 72
     5
 11
27.868253864267
 21
32.025433224584
 31
0.0
100
AcDbText
  0
TEXT
  5
2A09
330
29F4
100
AcDbEntity
  8
図枠細線
  6
CONTINUOUS
 62
   252
100
AcDbText
 10
60.711709035982
 20
32.025433224584
 30
0.0
 40
2.0
  1
製図
 41
1.209677419355
  7
EXCADSTD
 72
     5
 11
65.711709035982
 21
32.025433224584
 31
0.0
100
AcDbText
  0
TEXT
  5
2A0A
330
29F4
100
AcDbEntity
  8
図枠細線
  6
CONTINUOUS
 62
   252
100
AcDbText
 10
60.711709035982
 20
29.525433224584
 30
0.0
 40
2.0
  1
ＤＲＡＷＮ
 41
0.882352941176
  7
EXCADSTD
 72
     5
 11
70.711709035982
 21
29.525433224584
 31
0.0
100
AcDbText
  0
TEXT
  5
2A0B
330
29F4
100
AcDbEntity
  8
図枠細線
  6
CONTINUOUS
 62
   252
100
AcDbText
 10
60.834891743877
 20
17.025433224584
 30
0.0
 40
2.0
  1
日付
 41
1.171875
  7
EXCADSTD
 72
     5
 11
65.834891743877
 21
17.025433224584
 31
0.0
100
AcDbText
  0
TEXT
  5
2A0C
330
29F4
100
AcDbEntity
  8
図枠細線
  6
CONTINUOUS
 62
   252
100
AcDbText
 10
47.333660864267
 20
17.025433224584
 30
0.0
 40
2.0
  1
ＳＣＡＬＥ
 41
0.903614457831
  7
EXCADSTD
 72
     5
 11
57.333660864267
 21
17.025433224584
 31
0.0
100
AcDbText
  0
TEXT
  5
2A0D
330
29F4
100
AcDbEntity
  8
図枠細線
  6
CONTINUOUS
 62
   252
100
AcDbText
 10
42.281425990082
 20
29.525433224584
 30
0.0
 40
2.0
  1
ＣＨＥＣＫＥＤ
 41
0.831249989569
  7
EXCADSTD
 72
     5
 11
55.581425823189
 21
29.525433224584
 31
0.0
100
AcDbText
  0
LINE
  5
2A0E
330
29F4
100
AcDbEntity
  8
図枠細線
  6
CONTINUOUS
 62
   252
100
AcDbLine
 10
40.968253864267
 20
34.525431224584
 30
0.0
 11
40.968253864267
 21
19.525431224584
 31
0.0
  0
LINE
  5
2A0F
330
29F4
100
AcDbEntity
  8
図枠細線
  6
CONTINUOUS
 62
   252
100
AcDbLine
 10
40.968253864267
 20
4.525433224584
 30
0.0
 11
40.968253864267
 21
19.525431224584
 31
0.0
  0
TEXT
  5
2A10
330
29F4
100
AcDbEntity
  8
図枠細線
  6
CONTINUOUS
 62
   252
100
AcDbText
 10
41.961173864267
 20
17.025433224584
 30
0.0
 40
2.0
  1
尺度
 41
1.171875
  7
EXCADSTD
 72
     5
 11
46.961173864267
 21
17.025433224584
 31
0.0
100
AcDbText
  0
TEXT
  5
2A11
330
29F4
100
AcDbEntity
  8
図枠細線
  6
CONTINUOUS
 62
   252
100
AcDbText
 10
42.281425990082
 20
32.025433224584
 30
0.0
 40
2.0
  1
検図
 41
1.209677419355
  7
EXCADSTD
 72
     5
 11
47.281425990082
 21
32.025433224584
 31
0.0
100
AcDbText
  0
LINE
  5
2A12
330
29F4
100
AcDbEntity
  8
図枠細線
  6
CONTINUOUS
 62
   252
100
AcDbLine
 10
59.768253864267
 20
34.525431224584
 30
0.0
 11
59.768253864267
 21
19.525431224584
 31
0.0
  0
LINE
  5
2A13
330
29F4
100
AcDbEntity
  8
図枠細線
  6
CONTINUOUS
 62
   252
100
AcDbLine
 10
59.768253864267
 20
4.525433224584
 30
0.0
 11
59.768253864267
 21
19.525431224584
 31
0.0
  0
LINE
  5
2A14
330
29F4
100
AcDbEntity
  8
図枠太線
  6
CONTINUOUS
 62
   251
100
AcDbLine
 10
78.368253864267
 20
4.525433224584
 30
0.0
 11
78.368253864267
 21
34.525431224584
 31
0.0
  0
TEXT
  5
2A15
330
29F4
100
AcDbEntity
  8
図枠細線
  6
CONTINUOUS
 62
   252
100
AcDbText
 10
66.334891743877
 20
17.025433224584
 30
0.0
 40
2.0
  1
ＤＡＴＥ
 41
0.923076923077
  7
EXCADSTD
 72
     5
 11
74.334891743877
 21
17.025433224584
 31
0.0
100
AcDbText
  0
LINE
  5
2A16
330
29F4
100
AcDbEntity
  8
図枠細線
  6
CONTINUOUS
 62
   252
100
AcDbLine
 10
135.368253864267
 20
19.525431224584
 30
0.0
 11
192.368245864267
 21
19.525431224584
 31
0.0
  0
TEXT
  5
2A17
330
29F4
100
AcDbEntity
  8
図枠細線
  6
CONTINUOUS
 62
   252
100
AcDbText
 10
141.868253864267
 20
32.025433224584
 30
0.0
 40
2.0
  1
ＴＩＴＬＥ
 41
0.903614457831
  7
EXCADSTD
 72
     5
 11
151.868253864267
 21
32.025433224584
 31
0.0
100
AcDbText
  0
LINE
  5
2A18
330
29F4
100
AcDbEntity
  8
図枠太線
  6
CONTINUOUS
 62
   251
100
AcDbLine
 10
135.368253864267
 20
4.525433224584
 30
0.0
 11
135.368253864267
 21
34.525431224584
 31
0.0
  0
TEXT
  5
2A19
330
29F4
100
AcDbEntity
  8
図枠細線
  6
CONTINUOUS
 62
   252
100
AcDbText
 10
135.868253864267
 20
17.025433224584
 30
0.0
 40
2.0
  1
図面番号
 41
1.102941176471
  7
EXCADSTD
 72
     5
 11
145.868253864267
 21
17.025433224584
 31
0.0
100
AcDbText
  0
TEXT
  5
2A1A
330
29F4
100
AcDbEntity
  8
図枠細線
  6
CONTINUOUS
 62
   252
100
AcDbText
 10
135.868253864267
 20
32.025433224584
 30
0.0
 40
2.0
  1
名称
 41
1.171875
  7
EXCADSTD
 72
     5
 11
140.868253864267
 21
32.025433224584
 31
0.0
100
AcDbText
  0
TEXT
  5
2A1B
330
29F4
100
AcDbEntity
  8
図枠細線
  6
CONTINUOUS
 62
   252
100
AcDbText
 10
146.868253864267
 20
17.025433224584
 30
0.0
 40
2.0
  1
ＤＲＧ．ＮＯ．
 41
0.9375
  7
EXCADSTD
 72
     5
 11
160.868253864267
 21
17.025433224584
 31
0.0
100
AcDbText
  0
LINE
  5
2A1C
330
29F4
100
AcDbEntity
  8
図枠太線
  6
CONTINUOUS
 62
   251
100
AcDbLine
 10
192.368245864267
 20
4.525433224584
 30
0.0
 11
192.368245864267
 21
34.525431224584
 31
0.0
  0
ENDBLK
  5
2A1D
330
29F4
100
AcDbEntity
  8
0
100
AcDbBlockEnd
  0
BLOCK
  5
2A33
330
2A32
100
AcDbEntity
  8
0
100
AcDbBlockBegin
  2
A3横用_タイトル
 70
     0
 10
0.0
 20
0.0
 30
0.0
  3
A3横用_タイトル
  1
A3横用_タイトル
  0
LINE
  5
2A34
330
2A32
100
AcDbEntity
  8
図枠細線
  6
CONTINUOUS
 62
   252
100
AcDbLine
 10
205.098414535793
 20
33.525959753527
 30
0.0
 11
305.098414535793
 21
33.525959753527
 31
0.0
  0
LINE
  5
2A35
330
2A32
100
AcDbEntity
  8
図枠太線
  6
CONTINUOUS
 62
   251
100
AcDbLine
 10
205.098414535793
 20
23.525959753527
 30
0.0
 11
305.098414535793
 21
23.525959753527
 31
0.0
  0
LINE
  5
2A36
330
2A32
100
AcDbEntity
  8
図枠細線
  6
CONTINUOUS
100
AcDbLine
 10
5.098414535793
 20
23.525959753527
 30
0.0
 11
105.098414535793
 21
23.525959753527
 31
0.0
  0
LINE
  5
2A37
330
2A32
100
AcDbEntity
  8
図枠細線
  6
CONTINUOUS
 62
   252
100
AcDbLine
 10
5.098414535793
 20
36.725957753527
 30
0.0
 11
105.098414535793
 21
36.725957753527
 31
0.0
  0
LINE
  5
2A38
330
2A32
100
AcDbEntity
  8
図枠細線
  6
CONTINUOUS
 62
   252
100
AcDbLine
 10
5.098414535793
 20
30.125957753527
 30
0.0
 11
105.098414535793
 21
30.125957753527
 31
0.0
  0
LINE
  5
2A39
330
2A32
100
AcDbEntity
  8
図枠細線
  6
CONTINUOUS
 62
   252
100
AcDbLine
 10
5.098414535793
 20
16.725959753527
 30
0.0
 11
105.098414535793
 21
16.725959753527
 31
0.0
  0
LINE
  5
2A3A
330
2A32
100
AcDbEntity
  8
図枠細線
  6
CONTINUOUS
 62
   252
100
AcDbLine
 10
5.098414535793
 20
10.125959753527
 30
0.0
 11
105.098414535793
 21
10.125959753527
 31
0.0
  0
LINE
  5
2A3B
330
2A32
100
AcDbEntity
  8
図枠細線
  6
CONTINUOUS
100
AcDbLine
 10
105.098414535793
 20
23.525961753527
 30
0.0
 11
205.098414535793
 21
23.525959753527
 31
0.0
  0
LINE
  5
2A3C
330
2A32
100
AcDbEntity
  8
図枠細線
  6
CONTINUOUS
 62
   252
100
AcDbLine
 10
138.398414535793
 20
43.525959753527
 30
0.0
 11
138.398414535793
 21
18.525957753527
 31
0.0
  0
LINE
  5
2A3D
330
2A32
100
AcDbEntity
  8
図枠細線
  6
CONTINUOUS
 62
   252
100
AcDbLine
 10
171.698414535793
 20
43.525959753527
 30
0.0
 11
171.698414535793
 21
18.525957753527
 31
0.0
  0
LINE
  5
2A3E
330
2A32
100
AcDbEntity
  8
図枠細線
  6
CONTINUOUS
 62
   252
100
AcDbLine
 10
305.098414535793
 20
23.525959753527
 30
0.0
 11
405.098414535793
 21
23.525959753527
 31
0.0
  0
TEXT
  5
2A3F
330
2A32
100
AcDbEntity
  8
図枠ロゴマーク
  6
CONTINUOUS
 62
   253
100
AcDbText
 10
206.102509212755
 20
13.294257570546
 30
0.0
 40
7.0
  1
東和制電工業株式会社
 50
0.016555220185
 41
1.186384129432
  7
EXCADSTD
 72
     5
 11
303.544188309143
 21
13.322412672217
 31
0.0
100
AcDbText
  0
MTEXT
  5
2A40
330
2A32
100
AcDbEntity
  8
図枠細線
100
AcDbMText
 10
6.356764112375
 20
41.976594175478
 30
0.0
 40
2.5
 41
49.938282706292
 71
     1
 72
     5
  1
{\Fmonotxt.shx,bigfont.shx|c128;図暦　CHANGE　NOTICE}
  0
MTEXT
  5
2A41
330
2A32
100
AcDbEntity
  8
図枠細線
 48
10.0
100
AcDbMText
 10
306.544114926828
 20
41.701835800934
 30
0.0
 40
2.5
 41
28.002809618823
 71
     1
 72
     5
  1
{\Fmonotxt.shx,bigfont.shx|c128;名称　TITLE}
  0
MTEXT
  5
2A42
330
2A32
100
AcDbEntity
  8
図枠細線
 48
10.0
100
AcDbMText
 10
307.329617114284
 20
21.606206797226
 30
0.0
 40
2.5
 41
24.385612216707
 71
     1
 72
     5
  1
{\Fmonotxt.shx,bigfont.shx|c128;図面番号\PDRG.　No.}
  0
MTEXT
  5
2A43
330
2A32
100
AcDbEntity
  8
図枠細線
 48
10.0
100
AcDbMText
 10
173.726349404609
 20
21.73680662198
 30
0.0
 40
2.5
 41
25.735090160813
 71
     1
 72
     5
  1
{\Fmonotxt.shx,bigfont.shx|c128;日付 DATE}
  0
MTEXT
  5
2A44
330
2A32
100
AcDbEntity
  8
図枠細線
 48
10.0
100
AcDbMText
 10
173.48708833982
 20
41.621592044998
 30
0.0
 40
2.5
 41
24.983741184205
 71
     1
 72
     5
  1
{\Fmonotxt.shx,bigfont.shx|c128;製図　DRAWN}
  0
MTEXT
  5
2A45
330
2A32
100
AcDbEntity
  8
図枠細線
 48
10.0
100
AcDbMText
 10
139.28009927741
 20
21.866713069868
 30
0.0
 40
2.5
 41
22.629632913243
 71
     1
 72
     5
  1
{\Fmonotxt.shx,bigfont.shx|c128;尺度　SCALE}
  0
MTEXT
  5
2A46
330
2A32
100
AcDbEntity
  8
図枠細線
 48
10.0
100
AcDbMText
 10
139.910091179835
 20
41.311840415554
 30
0.0
 40
2.5
 41
28.998753428368
 71
     1
 72
     5
  1
{\Fmonotxt.shx,bigfont.shx|c128;検図  CHECKED}
  0
MTEXT
  5
2A47
330
2A32
100
AcDbEntity
  8
図枠細線
 48
10.0
100
AcDbMText
 10
114.253294667728
 20
21.916124850174
 30
0.0
 40
3.0
 41
19.692400475383
 71
     1
 72
     5
  1
{\Fmonotxt.shx,bigfont.shx|c128;第三角法}
  0
MTEXT
  5
2A48
330
2A32
100
AcDbEntity
  8
図枠細線
 48
10.0
100
AcDbMText
 10
108.986959929915
 20
15.282880185837
 30
0.0
 40
2.5
 41
27.954882823547
 71
     1
 72
     5
  1
{\Fmonotxt.shx,bigfont.shx|c128;THIRD ANGLE\PPROJECTION}
  0
MTEXT
  5
2A49
330
2A32
100
AcDbEntity
  8
図枠細線
 48
10.0
100
AcDbMText
 10
106.319432640184
 20
41.511437145487
 30
0.0
 40
2.5
 41
28.233595265074
 71
     1
 72
     5
  1
{\Fmonotxt.shx,bigfont.shx|c128;承認 APPROVED}
  0
LINE
  5
2A4A
330
2A32
100
AcDbEntity
  8
図枠太線
  6
CONTINUOUS
 62
   251
100
AcDbLine
 10
5.098414535793
 20
3.525959753527
 30
0.0
 11
405.098414535793
 21
3.525959753527
 31
0.0
  0
LINE
  5
2A4B
330
2A32
100
AcDbEntity
  8
図枠太線
 48
10.0
100
AcDbLine
 10
5.098414535793
 20
3.525959753527
 30
0.0
 11
5.098414535793
 21
43.525959753527
 31
0.0
  0
LINE
  5
2A4C
330
2A32
100
AcDbEntity
  8
図枠太線
  6
CONTINUOUS
 62
   251
100
AcDbLine
 10
105.098414535793
 20
3.525959753527
 30
0.0
 11
105.098414535793
 21
43.525959753527
 31
0.0
  0
LINE
  5
2A4D
330
2A32
100
AcDbEntity
  8
図枠細線
  6
CONTINUOUS
 62
   252
100
AcDbLine
 10
138.398414535793
 20
3.525959753527
 30
0.0
 11
138.398414535793
 21
18.525957753527
 31
0.0
  0
LINE
  5
2A4E
330
2A32
100
AcDbEntity
  8
図枠細線
  6
CONTINUOUS
 62
   252
100
AcDbLine
 10
171.698414535793
 20
3.525959753527
 30
0.0
 11
171.698414535793
 21
18.525957753527
 31
0.0
  0
LINE
  5
2A4F
330
2A32
100
AcDbEntity
  8
図枠太線
  6
CONTINUOUS
 62
   251
100
AcDbLine
 10
205.098414535793
 20
3.525959753527
 30
0.0
 11
205.098414535793
 21
43.525959753527
 31
0.0
  0
LINE
  5
2A50
330
2A32
100
AcDbEntity
  8
図枠太線
 48
10.0
100
AcDbLine
 10
405.098414535793
 20
43.525959753527
 30
0.0
 11
405.098414535793
 21
3.525959753527
 31
0.0
  0
TEXT
  5
2A51
330
2A32
100
AcDbEntity
  8
図枠細線
  6
CONTINUOUS
 62
   252
100
AcDbText
 10
208.519754474572
 20
6.482358407285
 30
0.0
 40
3.5
  1
ＴＯＷＡ　ＳＥＩＤＥＮ　ＩＮＤＵＳＴＲＩＡＬ　ＣＯ．，ＬＴＤ．
 41
0.746656297509
  7
EXCADSTD
 72
     5
 11
303.295327171727
 21
6.482358407285
 31
0.0
100
AcDbText
  0
LINE
  5
2A52
330
2A32
100
AcDbEntity
  8
図枠太線
  6
CONTINUOUS
 62
   251
100
AcDbLine
 10
305.098414535793
 20
3.525959753527
 30
0.0
 11
305.098414535793
 21
43.525959753527
 31
0.0
  0
ENDBLK
  5
2A53
330
2A32
100
AcDbEntity
  8
0
100
AcDbBlockEnd
  0
BLOCK
  5
2A6D
330
2A6C
100
AcDbEntity
  8
0
100
AcDbBlockBegin
  2
A3縦用_タイトル
 70
     0
 10
0.0
 20
0.0
 30
0.0
  3
A3縦用_タイトル
  1
A3縦用_タイトル
  0
MTEXT
  5
2A6E
330
2A6C
100
AcDbEntity
  8
図枠細線
100
AcDbMText
 10
5.040804501593
 20
31.626098649005
 30
0.0
 40
2.5
 41
49.938282706292
 71
     1
 72
     5
  1
{\Fmonotxt.shx,bigfont.shx|c128;図暦　CHANGE　NOTICE}
  0
LINE
  5
2A6F
330
2A6C
100
AcDbEntity
  8
図枠太線
  6
CONTINUOUS
 62
   251
100
AcDbLine
 10
283.577871882961
 20
2.820844689254
 30
0.0
 11
283.577871882961
 21
32.820842689254
 31
0.0
  0
MTEXT
  5
2A70
330
2A6C
100
AcDbEntity
  8
図枠細線
 48
10.0
100
AcDbMText
 10
214.912458947454
 20
31.621488632308
 30
0.0
 40
2.5
 41
28.002809618823
 71
     1
 72
     5
  1
{\Fmonotxt.shx,bigfont.shx|c128;名称　TITLE}
  0
MTEXT
  5
2A71
330
2A6C
100
AcDbEntity
  8
図枠細線
 48
10.0
100
AcDbMText
 10
214.740030458938
 20
16.310225796722
 30
0.0
 40
2.5
 41
24.385612216707
 71
     1
 72
     5
  1
{\Fmonotxt.shx,bigfont.shx|c128;図面番号\PDRG.　No.}
  0
LINE
  5
2A72
330
2A6C
100
AcDbEntity
  8
図枠太線
  6
CONTINUOUS
 62
   251
100
AcDbLine
 10
213.577871882961
 20
2.820844689254
 30
0.0
 11
213.577871882961
 21
32.820842689254
 31
0.0
  0
LINE
  5
2A73
330
2A6C
100
AcDbEntity
  8
図枠太線
  6
CONTINUOUS
 62
   251
100
AcDbLine
 10
143.577871882961
 20
2.820844689254
 30
0.0
 11
143.577871882961
 21
32.820842689254
 31
0.0
  0
TEXT
  5
2A74
330
2A6C
100
AcDbEntity
  8
図枠細線
  6
CONTINUOUS
 62
   252
100
AcDbText
 10
145.716454488093
 20
4.468335689254
 30
0.0
 40
3.5
  1
ＴＯＷＡ　ＳＥＩＤＥＮ　ＩＮＤＵＳＴＲＩＡＬ　ＣＯ．，ＬＴＤ．
 41
0.528937826907
  7
EXCADSTD
 72
     5
 11
212.856295983498
 21
4.468335689254
 31
0.0
100
AcDbText
  0
TEXT
  5
2A75
330
2A6C
100
AcDbEntity
  8
図枠ロゴマーク
  6
CONTINUOUS
 62
   253
100
AcDbText
 10
145.950637593507
 20
9.413236689254
 30
0.0
 40
7.0
  1
東和制電工業株式会社
 41
0.80361088462
  7
EXCADSTD
 72
     5
 11
211.953878250259
 21
9.413236689254
 31
0.0
100
AcDbText
  0
LINE
  5
2A76
330
2A6C
100
AcDbEntity
  8
図枠細線
  6
CONTINUOUS
 62
   252
100
AcDbLine
 10
143.577871882961
 20
25.320842689254
 30
0.0
 11
213.577871882961
 21
25.320842689254
 31
0.0
  0
LINE
  5
2A77
330
2A6C
100
AcDbEntity
  8
図枠太線
  6
CONTINUOUS
 62
   251
100
AcDbLine
 10
143.577863882961
 20
17.820842689254
 30
0.0
 11
213.577871882961
 21
17.820842689254
 31
0.0
  0
LINE
  5
2A78
330
2A6C
100
AcDbEntity
  8
図枠細線
  6
CONTINUOUS
 62
   252
100
AcDbLine
 10
213.577871882961
 20
17.820842689254
 30
0.0
 11
283.577871882961
 21
17.820842689254
 31
0.0
  0
LINE
  5
2A79
330
2A6C
100
AcDbEntity
  8
図枠細線
  6
CONTINUOUS
 62
   252
100
AcDbLine
 10
120.577871882961
 20
32.820842689254
 30
0.0
 11
120.577871882961
 21
17.820842689254
 31
0.0
  0
MTEXT
  5
2A7A
330
2A6C
100
AcDbEntity
  8
図枠細線
 48
10.0
100
AcDbMText
 10
121.100885670352
 20
16.33785922638
 30
0.0
 40
2.0
 41
17.705978285068
 71
     1
 72
     5
  1
{\Fmonotxt.shx,bigfont.shx|c128;日付 DATE}
  0
MTEXT
  5
2A7B
330
2A6C
100
AcDbEntity
  8
図枠細線
 48
10.0
100
AcDbMText
 10
121.254842273491
 20
31.208993514037
 30
0.0
 40
2.0
 41
18.363799568758
 71
     1
 72
     5
  1
{\Fmonotxt.shx,bigfont.shx|c128;製図　DRAWN}
  0
LINE
  5
2A7C
330
2A6C
100
AcDbEntity
  8
図枠細線
  6
CONTINUOUS
 62
   252
100
AcDbLine
 10
97.577871882961
 20
32.820842689254
 30
0.0
 11
97.577871882961
 21
17.820842689254
 31
0.0
  0
MTEXT
  5
2A7D
330
2A6C
100
AcDbEntity
  8
図枠細線
 48
10.0
100
AcDbMText
 10
98.239734796872
 20
16.467764839281
 30
0.0
 40
2.0
 41
17.757791689903
 71
     1
 72
     5
  1
{\Fmonotxt.shx,bigfont.shx|c128;尺度　SCALE}
  0
MTEXT
  5
2A7E
330
2A6C
100
AcDbEntity
  8
図枠細線
 48
10.0
100
AcDbMText
 10
97.864744625154
 20
31.298433377664
 30
0.0
 40
2.0
 41
23.162655920976
 71
     1
 72
     5
  1
{\Fmonotxt.shx,bigfont.shx|c128;検図  CHECKED}
  0
LINE
  5
2A7F
330
2A6C
100
AcDbEntity
  8
図枠細線
  6
CONTINUOUS
 62
   252
100
AcDbLine
 10
97.577871882961
 20
2.820843367826
 30
0.0
 11
97.577871882961
 21
17.820841367826
 31
0.0
  0
LINE
  5
2A80
330
2A6C
100
AcDbEntity
  8
図枠細線
  6
CONTINUOUS
 62
   252
100
AcDbLine
 10
120.577871882961
 20
2.820844010683
 30
0.0
 11
120.577871882961
 21
17.820842010683
 31
0.0
  0
MTEXT
  5
2A81
330
2A6C
100
AcDbEntity
  8
図枠細線
 48
10.0
100
AcDbMText
 10
81.402399084102
 20
16.316484117426
 30
0.0
 40
2.0
 41
12.920322819369
 71
     1
 72
     5
  1
{\Fmonotxt.shx,bigfont.shx|c128;第三角法}
  0
MTEXT
  5
2A82
330
2A6C
100
AcDbEntity
  8
図枠細線
 48
10.0
100
AcDbMText
 10
75.736576535096
 20
11.080410931319
 30
0.0
 40
2.0
 41
21.072870671471
 71
     1
 72
     5
  1
{\Fmonotxt.shx,bigfont.shx|c128;THIRD ANGLE\PPROJECTION}
  0
LINE
  5
2A83
330
2A6C
100
AcDbEntity
  8
図枠太線
  6
CONTINUOUS
 62
   251
100
AcDbLine
 10
74.577871882961
 20
2.820844689254
 30
0.0
 11
74.577871882961
 21
32.820842689254
 31
0.0
  0
MTEXT
  5
2A84
330
2A6C
100
AcDbEntity
  8
図枠細線
 48
10.0
100
AcDbMText
 10
75.060214781573
 20
31.298434778555
 30
0.0
 40
2.0
 41
22.240928805967
 71
     1
 72
     5
  1
{\Fmonotxt.shx,bigfont.shx|c128;承認 APPROVED}
  0
LINE
  5
2A85
330
2A6C
100
AcDbEntity
  8
図枠細線
  6
CONTINUOUS
100
AcDbLine
 10
3.577871882961
 20
17.820844689254
 30
0.0
 11
74.577871882961
 21
17.820844689254
 31
0.0
  0
LINE
  5
2A86
330
2A6C
100
AcDbEntity
  8
図枠細線
  6
CONTINUOUS
 62
   252
100
AcDbLine
 10
3.577871882961
 20
27.820842689254
 30
0.0
 11
74.577871882961
 21
27.820842689254
 31
0.0
  0
LINE
  5
2A87
330
2A6C
100
AcDbEntity
  8
図枠細線
  6
CONTINUOUS
 62
   252
100
AcDbLine
 10
3.577871882961
 20
22.820842689254
 30
0.0
 11
74.577871882961
 21
22.820842689254
 31
0.0
  0
LINE
  5
2A88
330
2A6C
100
AcDbEntity
  8
図枠細線
  6
CONTINUOUS
 62
   252
100
AcDbLine
 10
3.577871882961
 20
12.820842689254
 30
0.0
 11
74.577871882961
 21
12.820842689254
 31
0.0
  0
LINE
  5
2A89
330
2A6C
100
AcDbEntity
  8
図枠細線
  6
CONTINUOUS
 62
   252
100
AcDbLine
 10
3.577871882961
 20
7.820844689254
 30
0.0
 11
74.577871882961
 21
7.820844689254
 31
0.0
  0
LINE
  5
2A8A
330
2A6C
100
AcDbEntity
  8
図枠細線
  6
CONTINUOUS
100
AcDbLine
 10
74.577871882961
 20
17.820843689254
 30
0.0
 11
143.577871882961
 21
17.820841224969
 31
0.0
  0
LINE
  5
2A8B
330
2A6C
100
AcDbEntity
  8
図枠太線
  6
CONTINUOUS
 62
   251
100
AcDbLine
 10
3.577871882961
 20
2.820844689254
 30
0.0
 11
283.577871882961
 21
2.820844689254
 31
0.0
  0
LINE
  5
2A8C
330
2A6C
100
AcDbEntity
  8
図枠太線
  6
CONTINUOUS
 62
   251
100
AcDbLine
 10
3.577871882961
 20
2.820844689254
 30
0.0
 11
3.577871882961
 21
32.820842689254
 31
0.0
  0
ENDBLK
  5
2A8D
330
2A6C
100
AcDbEntity
  8
0
100
AcDbBlockEnd
  0
BLOCK
  5
2AF8
330
2AF4
100
AcDbEntity
  8
0
 48
10.0
100
AcDbBlockBegin
  2
_OPEN30
 70
     0
 10
0.0
 20
0.0
 30
0.0
  3
_OPEN30
  1
_OPEN30
  0
LINE
  5
2AF5
330
2AF4
100
AcDbEntity
  8
0
  6
BYBLOCK
 62
     0
100
AcDbLine
 10
-1.0
 20
0.26794919
 30
0.0
 11
0.0
 21
0.0
 31
0.0
  0
LINE
  5
2AF6
330
2AF4
100
AcDbEntity
  8
0
  6
BYBLOCK
 62
     0
100
AcDbLine
 10
0.0
 20
0.0
 30
0.0
 11
-1.0
 21
-0.26794919
 31
0.0
  0
LINE
  5
2AF7
330
2AF4
100
AcDbEntity
  8
0
  6
BYBLOCK
 62
     0
100
AcDbLine
 10
0.0
 20
0.0
 30
0.0
 11
-1.0
 21
0.0
 31
0.0
  0
ENDBLK
  5
2AF9
330
2AF4
100
AcDbEntity
  8
0
 48
10.0
100
AcDbBlockEnd
  0
BLOCK
  5
2E6A
330
2E69
100
AcDbEntity
  8
0
 48
10.0
100
AcDbBlockBegin
  2
ケース外形図_HL-100
 70
     0
 10
0.0
 20
0.0
 30
0.0
  3
ケース外形図_HL-100
  1
ケース外形図_HL-100
  0
ARC
  5
2E6B
330
2E69
100
AcDbEntity
  8
外形線
100
AcDbCircle
 10
-2925.377906671296
 20
152.118815834594
 30
0.0
 40
7.5
100
AcDbArc
 50
0.0
 51
86.629979268965
  0
LINE
  5
2E6C
330
2E69
100
AcDbEntity
  8
外形線
100
AcDbLine
 10
-3002.377829171295
 20
141.457735857521
 30
0.0
 11
-2990.377829171296
 21
165.457828357521
 31
0.0
  0
LINE
  5
2E6D
330
2E69
100
AcDbEntity
  8
外形線
100
AcDbLine
 10
-2924.937026299913
 20
159.605846253801
 30
0.0
 11
-2966.627829171296
 21
162.060845849639
 31
0.0
  0
LINE
  5
2E6E
330
2E69
100
AcDbEntity
  8
外形線
100
AcDbLine
 10
-2990.377829171296
 20
165.457828357521
 30
0.0
 11
-2990.377829171296
 21
62.457798357521
 31
0.0
  0
LINE
  5
2E6F
330
2E69
100
AcDbEntity
  8
外形線
100
AcDbLine
 10
-2983.377861671295
 20
167.457798357521
 30
0.0
 11
-2983.377861671295
 21
60.457828357521
 31
0.0
  0
LINE
  5
2E70
330
2E69
100
AcDbEntity
  8
外形線
100
AcDbLine
 10
-2975.377829171296
 20
60.457828357521
 30
0.0
 11
-2975.377829171296
 21
167.457798357521
 31
0.0
  0
LINE
  5
2E71
330
2E69
100
AcDbEntity
  8
外形線
100
AcDbLine
 10
-2973.627829171295
 20
167.457798357521
 30
0.0
 11
-2973.627829171295
 21
60.457828357521
 31
0.0
  0
LINE
  5
2E72
330
2E69
100
AcDbEntity
  8
外形線
100
AcDbLine
 10
-2966.627829171296
 20
60.457828357521
 30
0.0
 11
-2966.627829171296
 21
167.457798357521
 31
0.0
  0
LINE
  5
2E73
330
2E69
100
AcDbEntity
  8
外形線
100
AcDbLine
 10
-3027.377829171295
 20
40.957783357521
 30
0.0
 11
-3027.377829171295
 21
195.957783357521
 31
0.0
  0
LINE
  5
2E74
330
2E69
100
AcDbEntity
  8
外形線
100
AcDbLine
 10
-3037.377829171295
 20
40.957860857521
 30
0.0
 11
-3037.377829171295
 21
195.957860857521
 31
0.0
  0
LINE
  5
2E75
330
2E69
100
AcDbEntity
  8
外形線
100
AcDbLine
 10
-2983.377861671295
 20
60.457828357521
 30
0.0
 11
-2966.627829171296
 21
60.457828357521
 31
0.0
  0
LINE
  5
2E76
330
2E69
100
AcDbEntity
  8
外形線
100
AcDbLine
 10
-3002.377829171295
 20
95.457828357521
 30
0.0
 11
-2990.377829171296
 21
62.457798357521
 31
0.0
  0
LINE
  5
2E77
330
2E69
100
AcDbEntity
  8
外形線
100
AcDbLine
 10
-3037.377829171295
 20
40.957783357521
 30
0.0
 11
-3027.377829171295
 21
40.957783357521
 31
0.0
  0
LINE
  5
2E78
330
2E69
100
AcDbEntity
  8
中心線
 48
10.0
100
AcDbLine
 10
-3044.864706671296
 20
53.457783357521
 30
0.0
 11
-3019.114164171296
 21
53.457783357521
 31
0.0
  0
LINE
  5
2E79
330
2E69
100
AcDbEntity
  8
外形線
100
AcDbLine
 10
-2990.377829171296
 20
62.457798357521
 30
0.0
 11
-2983.377861671295
 21
61.457735857521
 31
0.0
  0
LINE
  5
2E7A
330
2E69
100
AcDbEntity
  8
外形線
100
AcDbLine
 10
-3002.377829171295
 20
95.457828357521
 30
0.0
 11
-3002.377829171295
 21
141.457735857521
 31
0.0
  0
ARC
  5
2E7B
330
2E69
100
AcDbEntity
  8
細線
100
AcDbCircle
 10
-3053.115528206043
 20
118.457782357522
 30
0.0
 40
9.86227696525272
100
AcDbArc
 50
131.155220883625
 51
228.844779116375
  0
LINE
  5
2E7C
330
2E69
100
AcDbEntity
  8
外形線
100
AcDbLine
 10
-3062.977805171295
 20
130.157856357522
 30
0.0
 11
-3062.977805171295
 21
106.757710357522
 31
0.0
  0
LINE
  5
2E7D
330
2E69
100
AcDbEntity
  8
細線
100
AcDbLine
 10
-3042.804099171295
 20
133.308980357522
 30
0.0
 11
-3042.804099171295
 21
103.606586357521
 31
0.0
  0
LINE
  5
2E7E
330
2E69
100
AcDbEntity
  8
外形線
100
AcDbLine
 10
-3062.977805171295
 20
106.757710357522
 30
0.0
 11
-3059.446677171295
 21
103.457782357522
 31
0.0
  0
LINE
  5
2E7F
330
2E69
100
AcDbEntity
  8
外形線
100
AcDbLine
 10
-3059.605906697185
 20
103.606586357521
 30
0.0
 11
-3037.377829171295
 21
103.606586357521
 31
0.0
  0
LINE
  5
2E80
330
2E69
100
AcDbEntity
  8
細線
100
AcDbLine
 10
-3042.804099171295
 20
111.032183357522
 30
0.0
 11
-3059.605904653565
 21
111.032183357522
 31
0.0
  0
ARC
  5
2E81
330
2E69
100
AcDbEntity
  8
細線
100
AcDbCircle
 10
-3055.384420729553
 20
104.23489277973
 30
0.0
 40
8.00150521587242
100
AcDbArc
 50
121.842510322088
 51
161.621519846142
  0
ARC
  5
2E82
330
2E69
100
AcDbEntity
  8
外形線
100
AcDbCircle
 10
-3021.377921671296
 20
89.457765857521
 30
0.0
 40
6.0
100
AcDbArc
 50
89.999981276021
 51
180.00001984784
  0
LINE
  5
2E83
330
2E69
100
AcDbEntity
  8
外形線
100
AcDbLine
 10
-3021.377921671296
 20
95.457828357521
 30
0.0
 11
-3002.377829171295
 21
95.457828357521
 31
0.0
  0
LINE
  5
2E84
330
2E69
100
AcDbEntity
  8
外形線
100
AcDbLine
 10
-3059.605904653565
 20
133.308980357522
 30
0.0
 11
-3037.377829171295
 21
133.308980357522
 31
0.0
  0
LINE
  5
2E85
330
2E69
100
AcDbEntity
  8
細線
100
AcDbLine
 10
-3042.804099171295
 20
125.883381357521
 30
0.0
 11
-3059.605904653565
 21
125.883381357521
 31
0.0
  0
ARC
  5
2E86
330
2E69
100
AcDbEntity
  8
細線
100
AcDbCircle
 10
-3055.384420729553
 20
132.680671935313
 30
0.0
 40
8.00150521587242
100
AcDbArc
 50
198.378480153858
 51
238.157489677912
  0
LINE
  5
2E87
330
2E69
100
AcDbEntity
  8
外形線
100
AcDbLine
 10
-3062.977805171295
 20
130.157856357522
 30
0.0
 11
-3059.605904653565
 21
133.308980357522
 31
0.0
  0
ARC
  5
2E88
330
2E69
100
AcDbEntity
  8
外形線
100
AcDbCircle
 10
-3021.377921671296
 20
147.457798357521
 30
0.0
 40
6.0
100
AcDbArc
 50
180.00001984784
 51
270.0
  0
LINE
  5
2E89
330
2E69
100
AcDbEntity
  8
外形線
100
AcDbLine
 10
-3021.377921671296
 20
141.457735857521
 30
0.0
 11
-3002.377829171295
 21
141.457735857521
 31
0.0
  0
LINE
  5
2E8A
330
2E69
100
AcDbEntity
  8
外形線
100
AcDbLine
 10
-2917.877906671296
 20
152.118815834594
 30
0.0
 11
-2917.877906671296
 21
75.796810880449
 31
0.0
  0
LINE
  5
2E8B
330
2E69
100
AcDbEntity
  8
外形線
100
AcDbLine
 10
-2925.789370913838
 20
67.122885519941
 30
0.0
 11
-2926.321109507413
 21
51.266759702689
 31
0.0
  0
LINE
  5
2E8C
330
2E69
100
AcDbEntity
  8
外形線
100
AcDbLine
 10
-2954.86089061111
 20
63.980015655949
 30
0.0
 11
-2954.434548835178
 21
51.266759702689
 31
0.0
  0
LINE
  5
2E8D
330
2E69
100
AcDbEntity
  8
中心線
 48
10.0
100
AcDbLine
 10
-2940.377829171296
 20
75.649935857521
 30
0.0
 11
-2940.377829171296
 21
33.510113357521
 31
0.0
  0
ARC
  5
2E8E
330
2E69
100
AcDbEntity
  8
細線
100
AcDbCircle
 10
-2940.377906671296
 20
52.324970857521
 30
0.0
 40
12.7495375
100
AcDbArc
 50
241.926501556963
 51
298.073500690785
  0
LINE
  5
2E8F
330
2E69
100
AcDbEntity
  8
外形線
100
AcDbLine
 10
-2952.377876671295
 20
45.575473357521
 30
0.0
 11
-2928.377936671295
 21
45.575473357521
 31
0.0
  0
LINE
  5
2E90
330
2E69
100
AcDbEntity
  8
外形線
100
AcDbLine
 10
-2952.685532040298
 20
49.575413357521
 30
0.0
 11
-2928.070126302293
 21
49.575413357521
 31
0.0
  0
LINE
  5
2E91
330
2E69
100
AcDbEntity
  8
外形線
100
AcDbLine
 10
-2949.377844171295
 20
39.575413357521
 30
0.0
 11
-2931.377891671295
 21
39.575413357521
 31
0.0
  0
ARC
  5
2E92
330
2E69
100
AcDbEntity
  8
細線
100
AcDbCircle
 10
-2950.887549171296
 20
46.344820857521
 30
0.0
 40
6.935630000000001
100
AcDbArc
 50
282.571898360404
 51
310.557678088908
  0
LINE
  5
2E93
330
2E69
100
AcDbEntity
  8
細線
100
AcDbLine
 10
-2946.377891671295
 20
45.575473357521
 30
0.0
 11
-2946.377891671295
 21
41.075428357521
 31
0.0
  0
LINE
  5
2E94
330
2E69
100
AcDbEntity
  8
外形線
100
AcDbLine
 10
-2950.627921671295
 20
45.575473357521
 30
0.0
 11
-2950.627921671295
 21
49.575413357521
 31
0.0
  0
LINE
  5
2E95
330
2E69
100
AcDbEntity
  8
細線
100
AcDbLine
 10
-2948.127921671295
 20
49.575413357521
 30
0.0
 11
-2948.127921671295
 21
45.575473357521
 31
0.0
  0
ARC
  5
2E96
330
2E69
100
AcDbEntity
  8
外形線
100
AcDbCircle
 10
-2952.685532040298
 20
51.325413357521
 30
0.0
 40
1.75
100
AcDbArc
 50
181.920706503578
 51
270.0
  0
LINE
  5
2E97
330
2E69
100
AcDbEntity
  8
外形線
100
AcDbLine
 10
-2949.377844171295
 20
39.575413357521
 30
0.0
 11
-2952.377876671295
 21
41.075428357521
 31
0.0
  0
LINE
  5
2E98
330
2E69
100
AcDbEntity
  8
外形線
100
AcDbLine
 10
-2952.377876671295
 20
45.575473357521
 30
0.0
 11
-2952.377876671295
 21
41.075428357521
 31
0.0
  0
ARC
  5
2E99
330
2E69
100
AcDbEntity
  8
細線
100
AcDbCircle
 10
-2929.868261671295
 20
46.344820857521
 30
0.0
 40
6.935630000000001
100
AcDbArc
 50
229.442381454627
 51
257.428103887329
  0
LINE
  5
2E9A
330
2E69
100
AcDbEntity
  8
細線
100
AcDbLine
 10
-2934.377921671295
 20
45.575473357521
 30
0.0
 11
-2934.377921671295
 21
41.075428357521
 31
0.0
  0
LINE
  5
2E9B
330
2E69
100
AcDbEntity
  8
外形線
100
AcDbLine
 10
-2930.127891671295
 20
45.575473357521
 30
0.0
 11
-2930.127891671295
 21
49.575413357521
 31
0.0
  0
LINE
  5
2E9C
330
2E69
100
AcDbEntity
  8
細線
100
AcDbLine
 10
-2932.627891671295
 20
49.575413357521
 30
0.0
 11
-2932.627891671295
 21
45.575473357521
 31
0.0
  0
ARC
  5
2E9D
330
2E69
100
AcDbEntity
  8
外形線
100
AcDbCircle
 10
-2928.070126302293
 20
51.325413357521
 30
0.0
 40
1.75
100
AcDbArc
 50
270.0
 51
358.079293496422
  0
LINE
  5
2E9E
330
2E69
100
AcDbEntity
  8
外形線
100
AcDbLine
 10
-2931.377966671296
 20
39.575413357521
 30
0.0
 11
-2928.377936671295
 21
41.075428357521
 31
0.0
  0
LINE
  5
2E9F
330
2E69
100
AcDbEntity
  8
外形線
100
AcDbLine
 10
-2928.377936671295
 20
45.575473357521
 30
0.0
 11
-2928.377936671295
 21
41.075428357521
 31
0.0
  0
ARC
  5
2EA0
330
2E69
100
AcDbEntity
  8
外形線
100
AcDbCircle
 10
-2925.377906671296
 20
75.796810880449
 30
0.0
 40
7.5
100
AcDbArc
 50
273.370020731035
 51
0.0
  0
LINE
  5
2EA1
330
2E69
100
AcDbEntity
  8
外形線
100
AcDbLine
 10
-2924.937026299913
 20
68.309780461244
 30
0.0
 11
-2966.627829171296
 21
65.854780865404
 31
0.0
  0
ARC
  5
2EA2
330
2E69
100
AcDbEntity
  8
外形線
100
AcDbCircle
 10
-2957.359486032368
 20
63.896224720476
 30
0.0
 40
2.5
100
AcDbArc
 50
1.920706503578
 51
93.370020731035
  0
LINE
  5
2EA3
330
2E69
100
AcDbEntity
  8
外形線
100
AcDbLine
 10
-2924.598459495897
 20
67.694343137641
 30
0.0
 11
-2924.603574782856
 21
67.694122607611
 31
0.0
  0
ARC
  5
2EA4
330
2E69
100
AcDbEntity
  8
外形線
100
AcDbCircle
 10
-2924.540073203208
 20
67.080990052204
 30
0.0
 40
1.25
100
AcDbArc
 50
93.370020731035
 51
178.079293496422
  0
LINE
  5
2EA5
330
2E69
100
AcDbEntity
  8
外形線
100
AcDbLine
 10
-2915.377981671295
 20
138.457783357521
 30
0.0
 11
-2915.377981671295
 21
98.457783357521
 31
0.0
  0
ARC
  5
2EA6
330
2E69
100
AcDbEntity
  8
外形線
100
AcDbCircle
 10
-2915.712531671295
 20
96.243655857521
 30
0.0
 40
2.2392525
100
AcDbArc
 50
81.407104039339
 51
165.246528510565
  0
ARC
  5
2EA7
330
2E69
100
AcDbEntity
  8
外形線
100
AcDbCircle
 10
-2915.712531671295
 20
140.671908357521
 30
0.0
 40
2.2392525
100
AcDbArc
 50
194.753453889343
 51
278.592935656363
  0
LINE
  5
2EA8
330
2E69
100
AcDbEntity
  8
外形線
100
AcDbLine
 10
-2966.627829171296
 20
167.457798357521
 30
0.0
 11
-2983.377861671295
 21
167.457798357521
 31
0.0
  0
LINE
  5
2EA9
330
2E69
100
AcDbEntity
  8
中心線
 48
10.0
100
AcDbLine
 10
-3044.864706671296
 20
183.457783357521
 30
0.0
 11
-3019.114164171296
 21
183.457783357521
 31
0.0
  0
LINE
  5
2EAA
330
2E69
100
AcDbEntity
  8
外形線
100
AcDbLine
 10
-2990.377829171296
 20
165.457828357521
 30
0.0
 11
-2983.377861671295
 21
166.457735857521
 31
0.0
  0
LINE
  5
2EAB
330
2E69
100
AcDbEntity
  8
外形線
100
AcDbLine
 10
-3037.377829171295
 20
195.957783357521
 30
0.0
 11
-3027.377829171295
 21
195.957783357521
 31
0.0
  0
ENDBLK
  5
2EAC
330
2E69
100
AcDbEntity
  8
0
 48
10.0
100
AcDbBlockEnd
  0
BLOCK
  5
2EB6
330
2EB5
100
AcDbEntity
  8
0
 48
10.0
100
AcDbBlockBegin
  2
パドル_W1
 70
     0
 10
0.0
 20
0.0
 30
0.0
  3
パドル_W1
  1
パドル_W1
  0
LINE
  5
2EB7
330
2EB5
100
AcDbEntity
  8
中心線
 48
10.0
100
AcDbLine
 10
124.6832879095
 20
220.674073777677
 30
0.0
 11
131.9189439095
 21
220.674073777677
 31
0.0
  0
LINE
  5
2EB8
330
2EB5
100
AcDbEntity
  8
外形線
 48
10.0
100
AcDbLine
 10
58.3011159095
 20
260.651761921811
 30
0.0
 11
58.3011159095
 21
180.651761921811
 31
0.0
  0
LINE
  5
2EB9
330
2EB5
100
AcDbEntity
  8
外形線
 48
10.0
100
AcDbLine
 10
58.3011159095
 20
180.651761921811
 30
0.0
 11
123.3011159095
 21
180.651761921811
 31
0.0
  0
LINE
  5
2EBA
330
2EB5
100
AcDbEntity
  8
外形線
 48
10.0
100
AcDbLine
 10
138.3011159095
 20
208.651761921811
 30
0.0
 11
138.3011159095
 21
212.376811207105
 31
0.0
  0
LINE
  5
2EBB
330
2EB5
100
AcDbEntity
  8
外形線
 48
10.0
100
AcDbLine
 10
123.3011159095
 20
260.651761921811
 30
0.0
 11
58.3011159095
 21
260.651761921811
 31
0.0
  0
LINE
  5
2EBC
330
2EB5
100
AcDbEntity
  8
外形線
 48
10.0
100
AcDbLine
 10
138.3011159095
 20
232.651761921811
 30
0.0
 11
123.3011159095
 21
260.651761921811
 31
0.0
  0
LINE
  5
2EBD
330
2EB5
100
AcDbEntity
  8
外形線
 48
10.0
100
AcDbLine
 10
138.3011159095
 20
208.651761921811
 30
0.0
 11
123.3011159095
 21
180.651761921811
 31
0.0
  0
LINE
  5
2EBE
330
2EB5
100
AcDbEntity
  8
外形線
 48
10.0
100
AcDbLine
 10
153.3011159095
 20
212.376811207105
 30
0.0
 11
153.3011159095
 21
228.941629207105
 31
0.0
  0
LINE
  5
2EBF
330
2EB5
100
AcDbEntity
  8
外形線
100
AcDbLine
 10
125.0147379095
 20
212.376811207105
 30
0.0
 11
153.3011159095
 21
212.376811207105
 31
0.0
  0
LINE
  5
2EC0
330
2EB5
100
AcDbEntity
  8
細線
100
AcDbLine
 10
153.2891519095
 20
216.518045207105
 30
0.0
 11
124.6692799095
 21
216.518045207105
 31
0.0
  0
LINE
  5
2EC1
330
2EB5
100
AcDbEntity
  8
外形線
100
AcDbLine
 10
125.0147379095
 20
228.941629207105
 30
0.0
 11
123.3011159095
 21
227.228007207105
 31
0.0
  0
ARC
  5
2EC2
330
2EB5
100
AcDbEntity
  8
細線
100
AcDbCircle
 10
126.4810479095
 20
227.420755207105
 30
0.0
 40
3.18575
100
AcDbArc
 50
183.469852255156
 51
235.339263082109
  0
LINE
  5
2EC3
330
2EB5
100
AcDbEntity
  8
細線
100
AcDbLine
 10
153.2891519095
 20
224.800395207105
 30
0.0
 11
124.6692799095
 21
224.800395207105
 31
0.0
  0
ARC
  5
2EC4
330
2EB5
100
AcDbEntity
  8
細線
100
AcDbCircle
 10
126.4810479095
 20
213.897685207105
 30
0.0
 40
3.18575
100
AcDbArc
 50
124.660776613574
 51
176.530130144749
  0
LINE
  5
2EC5
330
2EB5
100
AcDbEntity
  8
外形線
100
AcDbLine
 10
123.3011159095
 20
227.228007207105
 30
0.0
 11
123.3011159095
 21
214.090433207105
 31
0.0
  0
CIRCLE
  5
2EC6
330
2EB5
100
AcDbEntity
  8
外形線
100
AcDbCircle
 10
128.3011159095
 20
220.674073777677
 30
0.0
 40
2.28479
  0
ARC
  5
2EC7
330
2EB5
100
AcDbEntity
  8
細線
100
AcDbCircle
 10
130.2525019095
 20
220.659219207105
 30
0.0
 40
6.951389999999999
100
AcDbArc
 50
143.43540034864
 51
216.564582051267
  0
LINE
  5
2EC8
330
2EB5
100
AcDbEntity
  8
中心線
 48
10.0
100
AcDbLine
 10
128.3011159095
 20
224.291901777677
 30
0.0
 11
128.3011159095
 21
217.056245777676
 31
0.0
  0
LINE
  5
2EC9
330
2EB5
100
AcDbEntity
  8
外形線
100
AcDbLine
 10
125.0147379095
 20
212.376811207105
 30
0.0
 11
123.3011159095
 21
214.090433207105
 31
0.0
  0
LINE
  5
2ECA
330
2EB5
100
AcDbEntity
  8
外形線
100
AcDbLine
 10
125.0147379095
 20
228.941629207105
 30
0.0
 11
153.3011159095
 21
228.941629207105
 31
0.0
  0
LINE
  5
2ECB
330
2EB5
100
AcDbEntity
  8
外形線
 48
10.0
100
AcDbLine
 10
138.3011159095
 20
228.941629207105
 30
0.0
 11
138.3011159095
 21
232.651761921811
 31
0.0
  0
ENDBLK
  5
2ECC
330
2EB5
100
AcDbEntity
  8
0
 48
10.0
100
AcDbBlockEnd
  0
BLOCK
  5
2EE6
330
2EE5
100
AcDbEntity
  8
0
 48
10.0
100
AcDbBlockBegin
  2
パドル_W1立面図
 70
     0
 10
0.0
 20
0.0
 30
0.0
  3
パドル_W1立面図
  1
パドル_W1立面図
  0
LINE
  5
2EE7
330
2EE5
100
AcDbEntity
  8
外形線
 48
10.0
100
AcDbLine
 10
-4.385455455444
 20
189.61846140322
 30
0.0
 11
-7.241459969979
 21
189.61846140322
 31
0.0
  0
LINE
  5
2EE8
330
2EE5
100
AcDbEntity
  8
外形線
 48
10.0
100
AcDbLine
 10
-4.385455455444
 20
269.61846140322
 30
0.0
 11
-7.241459969979
 21
269.61846140322
 31
0.0
  0
LINE
  5
2EE9
330
2EE5
100
AcDbEntity
  8
外形線
 48
10.0
100
AcDbLine
 10
-4.385455455444
 20
189.61846140322
 30
0.0
 11
-4.385455455444
 21
269.61846140322
 31
0.0
  0
LINE
  5
2EEA
330
2EE5
100
AcDbEntity
  8
外形線
 48
10.0
100
AcDbLine
 10
-7.241459969979
 20
269.61846140322
 30
0.0
 11
-7.241459969979
 21
189.61846140322
 31
0.0
  0
LINE
  5
2EEB
330
2EE5
100
AcDbEntity
  8
外形線
100
AcDbLine
 10
-4.385468503734
 20
237.376935973808
 30
0.0
 11
1.606659496266
 21
233.917433973808
 31
0.0
  0
ARC
  5
2EEC
330
2EE5
100
AcDbEntity
  8
細線
100
AcDbCircle
 10
-5.813446503734
 20
229.633375973808
 30
0.0
 40
8.568
100
AcDbArc
 50
279.594007516002
 51
80.406014579591
  0
LINE
  5
2EED
330
2EE5
100
AcDbEntity
  8
外形線
100
AcDbLine
 10
1.606659496266
 20
233.917433973808
 30
0.0
 11
1.606659496266
 21
225.349439973808
 31
0.0
  0
LINE
  5
2EEE
330
2EE5
100
AcDbEntity
  8
外形線
100
AcDbLine
 10
-4.385468503734
 20
221.889815973808
 30
0.0
 11
1.606659496266
 21
225.349439973808
 31
0.0
  0
ARC
  5
2EEF
330
2EE5
100
AcDbEntity
  8
細線
100
AcDbCircle
 10
-5.813446503734
 20
229.633375973808
 30
0.0
 40
7.458525999999999
100
AcDbArc
 50
281.037746568172
 51
78.962275527419
  0
LINE
  5
2EF0
330
2EE5
100
AcDbEntity
  8
外形線
100
AcDbLine
 10
-7.241454503734
 20
221.889845973808
 30
0.0
 11
-13.233550503734
 21
225.349439973808
 31
0.0
  0
LINE
  5
2EF1
330
2EE5
100
AcDbEntity
  8
外形線
100
AcDbLine
 10
-13.233550503734
 20
225.349439973808
 30
0.0
 11
-13.233550503734
 21
233.917433973808
 31
0.0
  0
LINE
  5
2EF2
330
2EE5
100
AcDbEntity
  8
外形線
100
AcDbLine
 10
-7.241454503734
 20
237.376905973808
 30
0.0
 11
-13.233550503734
 21
233.917433973808
 31
0.0
  0
ARC
  5
2EF3
330
2EE5
100
AcDbEntity
  8
細線
100
AcDbCircle
 10
-5.813446503734
 20
229.633375973808
 30
0.0
 40
7.458525999999999
100
AcDbArc
 50
101.038013199227
 51
258.962026496458
  0
ARC
  5
2EF4
330
2EE5
100
AcDbEntity
  8
細線
100
AcDbCircle
 10
-5.813446503734
 20
229.633375973808
 30
0.0
 40
8.568
100
AcDbArc
 50
99.594159555498
 51
260.405880140189
  0
ENDBLK
  5
2EF5
330
2EE5
100
AcDbEntity
  8
0
 48
10.0
100
AcDbBlockEnd
  0
BLOCK
  5
2F2A
330
2F20
100
AcDbEntity
  8
0
 48
10.0
100
AcDbBlockBegin
  2
*D9
 70
     1
 10
0.0
 20
0.0
 30
0.0
  3
*D9
  1
*D9
  0
LINE
  5
4082
330
2F20
100
AcDbEntity
  8
寸法線
 62
     0
 48
10.0
100
AcDbLine
 10
796.471727728042
 20
1596.140439659016
 30
0.0
 11
796.471727728042
 21
1576.989382473444
 31
0.0
  0
LINE
  5
4083
330
2F20
100
AcDbEntity
  8
寸法線
 62
     0
 48
10.0
100
AcDbLine
 10
876.471727728042
 20
1624.140439659016
 30
0.0
 11
876.471727728042
 21
1576.989382473444
 31
0.0
  0
LINE
  5
4084
330
2F20
100
AcDbEntity
  8
寸法線
 62
     0
 48
10.0
100
AcDbLine
 10
802.471727728042
 20
1578.239382473444
 30
0.0
 11
870.471727728042
 21
1578.239382473444
 31
0.0
  0
INSERT
  5
4085
330
2F20
100
AcDbEntity
  8
寸法線
 62
     0
 48
10.0
100
AcDbBlockReference
  2
_OPEN30
 10
796.471727728042
 20
1578.239382473444
 30
0.0
 41
6.0
 42
6.0
 43
6.0
 50
180.0
  0
INSERT
  5
4086
330
2F20
100
AcDbEntity
  8
寸法線
 62
     0
 48
10.0
100
AcDbBlockReference
  2
_OPEN30
 10
876.471727728042
 20
1578.239382473444
 30
0.0
 41
6.0
 42
6.0
 43
6.0
  0
MTEXT
  5
4087
330
2F20
100
AcDbEntity
  8
寸法線
 62
     0
 48
10.0
100
AcDbMText
 10
836.471727728042
 20
1582.864382473444
 30
0.0
 40
8.0
 41
0.0
 71
     5
 72
     1
  1
\A1;80
  0
POINT
  5
4088
330
2F20
100
AcDbEntity
  8
DEFPOINTS
 62
     0
 48
10.0
100
AcDbPoint
 10
796.471727728042
 20
1596.765439659016
 30
0.0
  0
POINT
  5
4089
330
2F20
100
AcDbEntity
  8
DEFPOINTS
 62
     0
 48
10.0
100
AcDbPoint
 10
876.471727728042
 20
1624.765439659016
 30
0.0
  0
POINT
  5
408A
330
2F20
100
AcDbEntity
  8
DEFPOINTS
 62
     0
 48
10.0
100
AcDbPoint
 10
876.471727728042
 20
1578.239382473444
 30
0.0
  0
ENDBLK
  5
2F2B
330
2F20
100
AcDbEntity
  8
0
 48
10.0
100
AcDbBlockEnd
  0
BLOCK
  5
2F36
330
2F2C
100
AcDbEntity
  8
0
 48
10.0
100
AcDbBlockBegin
  2
*D10
 70
     1
 10
0.0
 20
0.0
 30
0.0
  3
*D10
  1
*D10
  0
LINE
  5
4079
330
2F2C
100
AcDbEntity
  8
寸法線
 62
     0
 48
10.0
100
AcDbLine
 10
795.846727728042
 20
1676.765439659016
 30
0.0
 11
773.262486438838
 21
1676.765439659016
 31
0.0
  0
LINE
  5
407A
330
2F2C
100
AcDbEntity
  8
寸法線
 62
     0
 48
10.0
100
AcDbLine
 10
795.846727728042
 20
1596.765439659016
 30
0.0
 11
773.262486438838
 21
1596.765439659016
 31
0.0
  0
LINE
  5
407B
330
2F2C
100
AcDbEntity
  8
寸法線
 62
     0
 48
10.0
100
AcDbLine
 10
774.512486438838
 20
1670.765439659016
 30
0.0
 11
774.512486438838
 21
1602.765439659016
 31
0.0
  0
INSERT
  5
407C
330
2F2C
100
AcDbEntity
  8
寸法線
 62
     0
 48
10.0
100
AcDbBlockReference
  2
_OPEN30
 10
774.512486438838
 20
1676.765439659016
 30
0.0
 41
6.0
 42
6.0
 43
6.0
 50
90.0
  0
INSERT
  5
407D
330
2F2C
100
AcDbEntity
  8
寸法線
 62
     0
 48
10.0
100
AcDbBlockReference
  2
_OPEN30
 10
774.512486438838
 20
1596.765439659016
 30
0.0
 41
6.0
 42
6.0
 43
6.0
 50
270.0
  0
MTEXT
  5
407E
330
2F2C
100
AcDbEntity
  8
寸法線
 62
     0
 48
10.0
100
AcDbMText
 10
769.887486438837
 20
1636.765439659016
 30
0.0
 40
8.0
 41
0.0
 71
     5
 72
     1
  1
\A1;80
 11
6.123031769111886E-17
 21
1.0
 31
0.0
  0
POINT
  5
407F
330
2F2C
100
AcDbEntity
  8
DEFPOINTS
 62
     0
 48
10.0
100
AcDbPoint
 10
796.471727728042
 20
1676.765439659016
 30
0.0
  0
POINT
  5
4080
330
2F2C
100
AcDbEntity
  8
DEFPOINTS
 62
     0
 48
10.0
100
AcDbPoint
 10
796.471727728042
 20
1596.765439659016
 30
0.0
  0
POINT
  5
4081
330
2F2C
100
AcDbEntity
  8
DEFPOINTS
 62
     0
 48
10.0
100
AcDbPoint
 10
774.512486438838
 20
1596.765439659016
 30
0.0
  0
ENDBLK
  5
2F37
330
2F2C
100
AcDbEntity
  8
0
 48
10.0
100
AcDbBlockEnd
  0
BLOCK
  5
2F56
330
2F55
100
AcDbEntity
  8
0
 48
10.0
100
AcDbBlockBegin
  2
*D11
 70
     1
 10
0.0
 20
0.0
 30
0.0
  3
*D11
  1
*D11
  0
LINE
  5
2F57
330
2F55
100
AcDbEntity
  8
寸法線
 62
     0
 48
10.0
100
AcDbLine
 10
-49.24303505395
 20
269.61846140322
 30
0.0
 11
-71.827276343155
 21
269.61846140322
 31
0.0
  0
LINE
  5
2F58
330
2F55
100
AcDbEntity
  8
寸法線
 62
     0
 48
10.0
100
AcDbLine
 10
-49.24303505395
 20
189.61846140322
 30
0.0
 11
-71.827276343155
 21
189.61846140322
 31
0.0
  0
LINE
  5
2F59
330
2F55
100
AcDbEntity
  8
寸法線
 62
     0
 48
10.0
100
AcDbLine
 10
-70.577276343155
 20
263.61846140322
 30
0.0
 11
-70.577276343155
 21
195.61846140322
 31
0.0
  0
INSERT
  5
2F5A
330
2F55
100
AcDbEntity
  8
寸法線
 62
     0
 48
10.0
100
AcDbBlockReference
  2
_OPEN30
 10
-70.577276343155
 20
269.61846140322
 30
0.0
 41
6.0
 42
6.0
 43
6.0
 50
90.0
  0
INSERT
  5
2F5B
330
2F55
100
AcDbEntity
  8
寸法線
 62
     0
 48
10.0
100
AcDbBlockReference
  2
_OPEN30
 10
-70.577276343155
 20
189.61846140322
 30
0.0
 41
6.0
 42
6.0
 43
6.0
 50
270.0
  0
MTEXT
  5
2F5C
330
2F55
100
AcDbEntity
  8
寸法線
 62
     0
 48
10.0
100
AcDbMText
 10
-73.702276343155
 20
229.61846140322
 30
0.0
 40
5.0
 41
0.0
 71
     5
 72
     1
  1
\A1;80
 11
6.123031769111886E-17
 21
1.0
 31
0.0
  0
POINT
  5
2F5D
330
2F55
100
AcDbEntity
  8
DEFPOINTS
 62
     0
 48
10.0
100
AcDbPoint
 10
-48.61803505395
 20
269.61846140322
 30
0.0
  0
POINT
  5
2F5E
330
2F55
100
AcDbEntity
  8
DEFPOINTS
 62
     0
 48
10.0
100
AcDbPoint
 10
-48.61803505395
 20
189.61846140322
 30
0.0
  0
POINT
  5
2F5F
330
2F55
100
AcDbEntity
  8
DEFPOINTS
 62
     0
 48
10.0
100
AcDbPoint
 10
-70.577276343155
 20
189.61846140322
 30
0.0
  0
ENDBLK
  5
2F60
330
2F55
100
AcDbEntity
  8
0
 48
10.0
100
AcDbBlockEnd
  0
BLOCK
  5
2F62
330
2F61
100
AcDbEntity
  8
0
 48
10.0
100
AcDbBlockBegin
  2
*D12
 70
     1
 10
0.0
 20
0.0
 30
0.0
  3
*D12
  1
*D12
  0
LINE
  5
2F63
330
2F61
100
AcDbEntity
  8
寸法線
 62
     0
 48
10.0
100
AcDbLine
 10
-48.61803505395
 20
188.99346140322
 30
0.0
 11
-48.61803505395
 21
169.842404217648
 31
0.0
  0
LINE
  5
2F64
330
2F61
100
AcDbEntity
  8
寸法線
 62
     0
 48
10.0
100
AcDbLine
 10
31.38196494605
 20
216.99346140322
 30
0.0
 11
31.38196494605
 21
169.842404217648
 31
0.0
  0
LINE
  5
2F65
330
2F61
100
AcDbEntity
  8
寸法線
 62
     0
 48
10.0
100
AcDbLine
 10
-42.61803505395
 20
171.092404217648
 30
0.0
 11
25.38196494605
 21
171.092404217648
 31
0.0
  0
INSERT
  5
2F66
330
2F61
100
AcDbEntity
  8
寸法線
 62
     0
 48
10.0
100
AcDbBlockReference
  2
_OPEN30
 10
-48.61803505395
 20
171.092404217648
 30
0.0
 41
6.0
 42
6.0
 43
6.0
 50
180.0
  0
INSERT
  5
2F67
330
2F61
100
AcDbEntity
  8
寸法線
 62
     0
 48
10.0
100
AcDbBlockReference
  2
_OPEN30
 10
31.38196494605
 20
171.092404217648
 30
0.0
 41
6.0
 42
6.0
 43
6.0
  0
MTEXT
  5
2F68
330
2F61
100
AcDbEntity
  8
寸法線
 62
     0
 48
10.0
100
AcDbMText
 10
-8.61803505395
 20
174.217404217648
 30
0.0
 40
5.0
 41
0.0
 71
     5
 72
     1
  1
\A1;80
  0
POINT
  5
2F69
330
2F61
100
AcDbEntity
  8
DEFPOINTS
 62
     0
 48
10.0
100
AcDbPoint
 10
-48.61803505395
 20
189.61846140322
 30
0.0
  0
POINT
  5
2F6A
330
2F61
100
AcDbEntity
  8
DEFPOINTS
 62
     0
 48
10.0
100
AcDbPoint
 10
31.38196494605
 20
217.61846140322
 30
0.0
  0
POINT
  5
2F6B
330
2F61
100
AcDbEntity
  8
DEFPOINTS
 62
     0
 48
10.0
100
AcDbPoint
 10
31.38196494605
 20
171.092404217648
 30
0.0
  0
ENDBLK
  5
2F6C
330
2F61
100
AcDbEntity
  8
0
 48
10.0
100
AcDbBlockEnd
  0
BLOCK
  5
2F6E
330
2F6D
100
AcDbEntity
  8
0
 48
10.0
100
AcDbBlockBegin
  2
*D13
 70
     1
 10
0.0
 20
0.0
 30
0.0
  3
*D13
  1
*D13
  0
LINE
  5
2F6F
330
2F6D
100
AcDbEntity
  8
寸法線
 62
     0
 48
10.0
100
AcDbLine
 10
-142.545856406188
 20
188.99346140322
 30
0.0
 11
-142.545856406188
 21
171.16763126853
 31
0.0
  0
LINE
  5
2F70
330
2F6D
100
AcDbEntity
  8
寸法線
 62
     0
 48
10.0
100
AcDbLine
 10
-139.689851891653
 20
188.99346140322
 30
0.0
 11
-139.689851891653
 21
171.16763126853
 31
0.0
  0
LINE
  5
2F71
330
2F6D
100
AcDbEntity
  8
寸法線
 62
     0
 48
10.0
100
AcDbLine
 10
-148.545856406188
 20
172.41763126853
 30
0.0
 11
-154.545856406188
 21
172.41763126853
 31
0.0
  0
LINE
  5
2F72
330
2F6D
100
AcDbEntity
  8
寸法線
 62
     0
 48
10.0
100
AcDbLine
 10
-133.689851891653
 20
172.41763126853
 30
0.0
 11
-120.232745110466
 21
172.41763126853
 31
0.0
  0
LINE
  5
2F73
330
2F6D
100
AcDbEntity
  8
寸法線
 62
     0
 48
10.0
100
AcDbLine
 10
-142.545856406188
 20
172.41763126853
 30
0.0
 11
-139.689851891653
 21
172.41763126853
 31
0.0
  0
INSERT
  5
2F74
330
2F6D
100
AcDbEntity
  8
寸法線
 62
     0
 48
10.0
100
AcDbBlockReference
  2
_OPEN30
 10
-142.545856406188
 20
172.41763126853
 30
0.0
 41
6.0
 42
6.0
 43
6.0
  0
INSERT
  5
2F75
330
2F6D
100
AcDbEntity
  8
寸法線
 62
     0
 48
10.0
100
AcDbBlockReference
  2
_OPEN30
 10
-139.689851891653
 20
172.41763126853
 30
0.0
 41
6.0
 42
6.0
 43
6.0
 50
180.0
  0
MTEXT
  5
2F76
330
2F6D
100
AcDbEntity
  8
寸法線
 62
     0
 48
10.0
100
AcDbMText
 10
-123.961298501059
 20
175.54263126853
 30
0.0
 40
5.0
 41
0.0
 71
     5
 72
     1
  1
\A1;1.5
  0
POINT
  5
2F77
330
2F6D
100
AcDbEntity
  8
DEFPOINTS
 62
     0
 48
10.0
100
AcDbPoint
 10
-142.545856406188
 20
189.61846140322
 30
0.0
  0
POINT
  5
2F78
330
2F6D
100
AcDbEntity
  8
DEFPOINTS
 62
     0
 48
10.0
100
AcDbPoint
 10
-139.689851891653
 20
189.61846140322
 30
0.0
  0
POINT
  5
2F79
330
2F6D
100
AcDbEntity
  8
DEFPOINTS
 62
     0
 48
10.0
100
AcDbPoint
 10
-139.689851891653
 20
172.41763126853
 30
0.0
  0
ENDBLK
  5
2F7A
330
2F6D
100
AcDbEntity
  8
0
 48
10.0
100
AcDbBlockEnd
  0
BLOCK
  5
2F8F
330
2F7B
100
AcDbEntity
  8
0
 48
10.0
100
AcDbBlockBegin
  2
A$C7CD60800
 70
     0
 10
0.0
 20
0.0
 30
0.0
  3
A$C7CD60800
  1
A$C7CD60800
  0
INSERT
  5
2F7C
330
2F7B
100
AcDbEntity
  8
外形線
 48
10.0
100
AcDbBlockReference
  2
パドル_W1
 10
47.626705283949
 20
-160.518009493956
 30
0.0
  0
DIMENSION
  5
2F7D
330
2F7B
100
AcDbEntity
  8
寸法線
 48
10.0
100
AcDbDimension
  2
*D13
 10
14.856004355747
 20
2.932922293165
 30
0.0
 11
30.58455774634
 21
6.057922293165
 31
0.0
 12
154.5458562474
 22
-169.484708975365
 32
0.0
  1
1.5
  3
ISO-25
100
AcDbAlignedDimension
 13
11.999999841212
 23
20.133752427855
 33
0.0
 14
14.856004355747
 24
20.133752427855
 34
0.0
100
AcDbRotatedDimension
1001
ACAD
1000
DSTYLE
1002
{
1070
     5
1000
OPEN30
1070
    41
1040
6.0
1070
    47
1040
0.1
1070
    48
1040
0.1
1070
    73
1070
     0
1070
   140
1040
5.0
1070
   271
1070
     1
1070
   272
1070
     1
1070
   341
1005
2AF4
1002
}
  0
INSERT
  5
2F7E
330
2F7B
100
AcDbEntity
  8
外形線
100
AcDbBlockReference
  2
パドル_W1立面図
 10
19.241459811191
 20
-169.484708975365
 30
0.0
  0
DIMENSION
  5
2F7F
330
2F7B
100
AcDbEntity
  8
寸法線
 48
10.0
100
AcDbDimension
  2
*D12
 10
185.92782119345
 20
1.607695242283
 30
0.0
 11
145.92782119345
 21
4.732695242283
 31
0.0
 12
154.5458562474
 22
-169.484708975365
 32
0.0
  3
ISO-25
100
AcDbAlignedDimension
 13
105.92782119345
 23
20.133752427855
 33
0.0
 14
185.92782119345
 24
48.133752427855
 34
0.0
100
AcDbRotatedDimension
1001
ACAD
1000
DSTYLE
1002
{
1070
     5
1000
OPEN30
1070
    41
1040
6.0
1070
    47
1040
0.1
1070
    48
1040
0.1
1070
    73
1070
     0
1070
   140
1040
5.0
1070
   271
1070
     1
1070
   272
1070
     1
1070
   341
1005
2AF4
1002
}
  0
DIMENSION
  5
2F80
330
2F7B
100
AcDbEntity
  8
寸法線
 48
10.0
100
AcDbDimension
  2
*D11
 10
83.968579904245
 20
20.133752427855
 30
0.0
 11
80.843579904245
 21
60.133752427855
 31
0.0
 12
154.5458562474
 22
-169.484708975365
 32
0.0
  3
ISO-25
100
AcDbAlignedDimension
 13
105.92782119345
 23
100.133752427855
 33
0.0
 14
105.92782119345
 24
20.133752427855
 34
0.0
 50
90.0
100
AcDbRotatedDimension
1001
ACAD
1000
DSTYLE
1002
{
1070
     5
1000
OPEN30
1070
    41
1040
6.0
1070
    47
1040
0.1
1070
    48
1040
0.1
1070
    73
1070
     0
1070
   140
1040
5.0
1070
   271
1070
     1
1070
   272
1070
     1
1070
   341
1005
2AF4
1002
}
  0
LINE
  5
2F81
330
2F7B
100
AcDbEntity
  8
外形線
100
AcDbLine
 10
312.227696202849
 20
154.159896392983
 30
0.0
 11
519.638226201979
 21
154.159896392983
 31
0.0
  0
LINE
  5
2F82
330
2F7B
100
AcDbEntity
  8
外形線
100
AcDbLine
 10
312.227696202849
 20
144.159973892983
 30
0.0
 11
519.638226201979
 21
144.159973892983
 31
0.0
  0
LINE
  5
2F83
330
2F7B
100
AcDbEntity
  8
外形線
100
AcDbLine
 10
303.727696202849
 20
157.303858892983
 30
0.0
 11
309.981068702849
 21
157.303858892983
 31
0.0
  0
LINE
  5
2F84
330
2F7B
100
AcDbEntity
  8
外形線
100
AcDbLine
 10
309.981068702849
 20
157.303858892983
 30
0.0
 11
312.227621202848
 21
155.057153892983
 31
0.0
  0
LINE
  5
2F85
330
2F7B
100
AcDbEntity
  8
細線
100
AcDbLine
 10
305.727696202848
 20
153.231858892983
 30
0.0
 11
310.983177129857
 21
153.231858892983
 31
0.0
  0
ARC
  5
2F86
330
2F7B
100
AcDbEntity
  8
細線
100
AcDbCircle
 10
308.639058702848
 20
156.166926392983
 30
0.0
 40
3.7563025
100
AcDbArc
 50
308.612371782873
 51
342.81588950412
  0
LINE
  5
2F87
330
2F7B
100
AcDbEntity
  8
外形線
100
AcDbLine
 10
303.727696202849
 20
141.015938892983
 30
0.0
 11
309.981068702849
 21
141.015938892983
 31
0.0
  0
LINE
  5
2F88
330
2F7B
100
AcDbEntity
  8
外形線
100
AcDbLine
 10
309.981068702849
 20
141.015938892983
 30
0.0
 11
312.227621202848
 21
143.262568892983
 31
0.0
  0
LINE
  5
2F89
330
2F7B
100
AcDbEntity
  8
外形線
100
AcDbLine
 10
303.727696202849
 20
157.303858892983
 30
0.0
 11
303.727696202849
 21
141.015938892983
 31
0.0
  0
LINE
  5
2F8A
330
2F7B
100
AcDbEntity
  8
外形線
100
AcDbLine
 10
305.727696202848
 20
157.303858892983
 30
0.0
 11
305.727696202848
 21
141.015938892983
 31
0.0
  0
LINE
  5
2F8B
330
2F7B
100
AcDbEntity
  8
細線
100
AcDbLine
 10
305.727696202848
 20
145.087976392983
 30
0.0
 11
310.983137175218
 21
145.087976392983
 31
0.0
  0
ARC
  5
2F8C
330
2F7B
100
AcDbEntity
  8
細線
100
AcDbCircle
 10
308.639058702848
 20
142.152718892983
 30
0.0
 40
3.7563025
100
AcDbArc
 50
17.184150191555
 51
51.38761061704
  0
LINE
  5
2F8D
330
2F7B
100
AcDbEntity
  8
外形線
100
AcDbLine
 10
312.227696202849
 20
143.262491392983
 30
0.0
 11
312.227696202849
 21
155.057153892983
 31
0.0
  0
ARC
  5
2F8E
330
2F7B
100
AcDbEntity
  8
細線
100
AcDbCircle
 10
304.943838702849
 20
149.159861392983
 30
0.0
 40
7.2838425
100
AcDbArc
 50
326.010120640452
 51
33.98932849733
  0
ENDBLK
  5
2F90
330
2F7B
100
AcDbEntity
  8
0
 48
10.0
100
AcDbBlockEnd
  0
BLOCK
  5
32DB
330
32DA
100
AcDbEntity
  8
0
 48
10.0
100
AcDbBlockBegin
  2
ケース外形図_HL-170
 70
     0
 10
0.0
 20
0.0
 30
0.0
  3
ケース外形図_HL-170
  1
ケース外形図_HL-170
  0
LINE
  5
32DC
330
32DA
100
AcDbEntity
  8
外形線
100
AcDbLine
 10
-2965.542266380175
 20
-151.854003787588
 30
0.0
 11
-2982.292298880176
 21
-151.854003787588
 31
0.0
  0
ARC
  5
32DD
330
32DA
100
AcDbEntity
  8
細線
100
AcDbCircle
 10
-3014.792326380176
 20
-200.854018787588
 30
0.0
 40
18.75000000000005
100
AcDbArc
 50
143.130102354164
 51
216.869897645836
  0
LINE
  5
32DE
330
32DA
100
AcDbEntity
  8
外形線
100
AcDbLine
 10
-3041.292266380176
 20
-185.854018787588
 30
0.0
 11
-3041.292266380176
 21
-215.854018787588
 31
0.0
  0
LINE
  5
32DF
330
32DA
100
AcDbEntity
  8
外形線
100
AcDbLine
 10
-3061.292266380176
 20
-188.354018787588
 30
0.0
 11
-3061.292266380176
 21
-213.354018787588
 31
0.0
  0
LINE
  5
32E0
330
32DA
100
AcDbEntity
  8
細線
100
AcDbLine
 10
-3060.042266380176
 20
-214.604018787588
 30
0.0
 11
-3060.042266380176
 21
-187.104018787588
 31
0.0
  0
LINE
  5
32E1
330
32DA
100
AcDbEntity
  8
外形線
100
AcDbLine
 10
-3005.792233880175
 20
-223.853973787588
 30
0.0
 11
-3005.792233880175
 21
-177.854066287588
 31
0.0
  0
LINE
  5
32E2
330
32DA
100
AcDbEntity
  8
外形線
100
AcDbLine
 10
-3021.042326380176
 20
-172.104058787588
 30
0.0
 11
-3021.042326380176
 21
-229.603981287588
 31
0.0
  0
LINE
  5
32E3
330
32DA
100
AcDbEntity
  8
外形線
100
AcDbLine
 10
-3033.542326380176
 20
-182.104058787588
 30
0.0
 11
-3033.542326380176
 21
-219.603981287588
 31
0.0
  0
LINE
  5
32E4
330
32DA
100
AcDbEntity
  8
外形線
100
AcDbLine
 10
-3015.542296380175
 20
-172.104058787588
 30
0.0
 11
-3015.542296380175
 21
-229.603981287588
 31
0.0
  0
LINE
  5
32E5
330
32DA
100
AcDbEntity
  8
外形線
100
AcDbLine
 10
-3011.292266380176
 20
-226.353973787588
 30
0.0
 11
-3011.292266380176
 21
-175.354066287588
 31
0.0
  0
LINE
  5
32E6
330
32DA
100
AcDbEntity
  8
細線
100
AcDbLine
 10
-3029.792326380176
 20
-212.104018787588
 30
0.0
 11
-3021.042326380176
 21
-212.104018787588
 31
0.0
  0
LINE
  5
32E7
330
32DA
100
AcDbEntity
  8
外形線
100
AcDbLine
 10
-3029.792326380176
 20
-223.353981287588
 30
0.0
 11
-3021.042326380176
 21
-223.353981287588
 31
0.0
  0
ARC
  5
32E8
330
32DA
100
AcDbEntity
  8
細線
100
AcDbCircle
 10
-3021.894699971185
 20
-220.740338052558
 30
0.0
 40
11.70292755435463
100
AcDbArc
 50
132.441877635514
 51
174.427775547293
  0
LINE
  5
32E9
330
32DA
100
AcDbEntity
  8
外形線
100
AcDbLine
 10
-3033.542326380176
 20
-219.603981287588
 30
0.0
 11
-3029.792326380176
 21
-223.353981287588
 31
0.0
  0
LINE
  5
32EA
330
32DA
100
AcDbEntity
  8
外形線
100
AcDbLine
 10
-3041.292266380176
 20
-214.604018787588
 30
0.0
 11
-3060.042266380176
 21
-214.604018787588
 31
0.0
  0
LINE
  5
32EB
330
32DA
100
AcDbEntity
  8
細線
100
AcDbLine
 10
-3060.042266380176
 20
-201.854003787588
 30
0.0
 11
-3041.292266380176
 21
-201.854003787588
 31
0.0
  0
LINE
  5
32EC
330
32DA
100
AcDbEntity
  8
細線
100
AcDbLine
 10
-3060.042266380176
 20
-203.854011287588
 30
0.0
 11
-3041.292266380176
 21
-203.854011287588
 31
0.0
  0
LINE
  5
32ED
330
32DA
100
AcDbEntity
  8
細線
100
AcDbLine
 10
-3060.042266380176
 20
-205.854018787588
 30
0.0
 11
-3041.292266380176
 21
-205.854018787588
 31
0.0
  0
LINE
  5
32EE
330
32DA
100
AcDbEntity
  8
細線
100
AcDbLine
 10
-3060.042266380176
 20
-207.854028787588
 30
0.0
 11
-3041.292266380176
 21
-207.854028787588
 31
0.0
  0
LINE
  5
32EF
330
32DA
100
AcDbEntity
  8
細線
100
AcDbLine
 10
-3060.042266380176
 20
-209.854036287588
 30
0.0
 11
-3041.292266380176
 21
-209.854036287588
 31
0.0
  0
LINE
  5
32F0
330
32DA
100
AcDbEntity
  8
細線
100
AcDbLine
 10
-3060.042266380176
 20
-213.854051287588
 30
0.0
 11
-3041.292266380176
 21
-213.854051287588
 31
0.0
  0
LINE
  5
32F1
330
32DA
100
AcDbEntity
  8
細線
100
AcDbLine
 10
-3060.042266380176
 20
-211.854043787588
 30
0.0
 11
-3041.292266380176
 21
-211.854043787588
 31
0.0
  0
LINE
  5
32F2
330
32DA
100
AcDbEntity
  8
外形線
100
AcDbLine
 10
-3061.292266380176
 20
-213.354018787588
 30
0.0
 11
-3060.042266380176
 21
-214.604018787588
 31
0.0
  0
LINE
  5
32F3
330
32DA
100
AcDbEntity
  8
細線
100
AcDbLine
 10
-3041.292266380176
 20
-213.354018787588
 30
0.0
 11
-3033.542326380176
 21
-213.354018787588
 31
0.0
  0
LINE
  5
32F4
330
32DA
100
AcDbEntity
  8
外形線
100
AcDbLine
 10
-3041.292266380176
 20
-215.854018787588
 30
0.0
 11
-3033.542326380176
 21
-215.854018787588
 31
0.0
  0
LINE
  5
32F5
330
32DA
100
AcDbEntity
  8
外形線
100
AcDbLine
 10
-3005.792233880175
 20
-223.853973787588
 30
0.0
 11
-3011.292266380176
 21
-223.853973787588
 31
0.0
  0
LINE
  5
32F6
330
32DA
100
AcDbEntity
  8
外形線
100
AcDbLine
 10
-3011.292266380176
 20
-226.353973787588
 30
0.0
 11
-3015.542296380175
 21
-226.353973787588
 31
0.0
  0
LINE
  5
32F7
330
32DA
100
AcDbEntity
  8
外形線
100
AcDbLine
 10
-3015.542296380175
 20
-229.603981287588
 30
0.0
 11
-3021.042326380176
 21
-229.603981287588
 31
0.0
  0
LINE
  5
32F8
330
32DA
100
AcDbEntity
  8
外形線
100
AcDbLine
 10
-3005.792233880175
 20
-177.854066287588
 30
0.0
 11
-2989.292266380175
 21
-153.853973787588
 31
0.0
  0
LINE
  5
32F9
330
32DA
100
AcDbEntity
  8
細線
100
AcDbLine
 10
-3029.792326380176
 20
-189.604018787588
 30
0.0
 11
-3021.042326380176
 21
-189.604018787588
 31
0.0
  0
LINE
  5
32FA
330
32DA
100
AcDbEntity
  8
外形線
100
AcDbLine
 10
-3029.792326380176
 20
-178.354058787588
 30
0.0
 11
-3021.042326380176
 21
-178.354058787588
 31
0.0
  0
LINE
  5
32FB
330
32DA
100
AcDbEntity
  8
外形線
100
AcDbLine
 10
-3029.792326380176
 20
-178.354058787588
 30
0.0
 11
-3033.542326380176
 21
-182.104058787588
 31
0.0
  0
LINE
  5
32FC
330
32DA
100
AcDbEntity
  8
外形線
100
AcDbLine
 10
-3041.292266380176
 20
-187.104018787588
 30
0.0
 11
-3060.042266380176
 21
-187.104018787588
 31
0.0
  0
LINE
  5
32FD
330
32DA
100
AcDbEntity
  8
細線
100
AcDbLine
 10
-3060.042266380176
 20
-199.854036287588
 30
0.0
 11
-3041.292266380176
 21
-199.854036287588
 31
0.0
  0
LINE
  5
32FE
330
32DA
100
AcDbEntity
  8
細線
100
AcDbLine
 10
-3060.042266380176
 20
-197.854028787588
 30
0.0
 11
-3041.292266380176
 21
-197.854028787588
 31
0.0
  0
LINE
  5
32FF
330
32DA
100
AcDbEntity
  8
細線
100
AcDbLine
 10
-3060.042266380176
 20
-195.854018787588
 30
0.0
 11
-3041.292266380176
 21
-195.854018787588
 31
0.0
  0
LINE
  5
3300
330
32DA
100
AcDbEntity
  8
細線
100
AcDbLine
 10
-3060.042266380176
 20
-193.854011287588
 30
0.0
 11
-3041.292266380176
 21
-193.854011287588
 31
0.0
  0
LINE
  5
3301
330
32DA
100
AcDbEntity
  8
細線
100
AcDbLine
 10
-3060.042266380176
 20
-191.854003787588
 30
0.0
 11
-3041.292266380176
 21
-191.854003787588
 31
0.0
  0
LINE
  5
3302
330
32DA
100
AcDbEntity
  8
細線
100
AcDbLine
 10
-3060.042266380176
 20
-187.853988787588
 30
0.0
 11
-3041.292266380176
 21
-187.853988787588
 31
0.0
  0
LINE
  5
3303
330
32DA
100
AcDbEntity
  8
細線
100
AcDbLine
 10
-3060.042266380176
 20
-189.853996287588
 30
0.0
 11
-3041.292266380176
 21
-189.853996287588
 31
0.0
  0
LINE
  5
3304
330
32DA
100
AcDbEntity
  8
外形線
100
AcDbLine
 10
-3061.292266380176
 20
-188.354018787588
 30
0.0
 11
-3060.042266380176
 21
-187.104018787588
 31
0.0
  0
ARC
  5
3305
330
32DA
100
AcDbEntity
  8
細線
100
AcDbCircle
 10
-3021.894699971185
 20
-180.967699522618
 30
0.0
 40
11.70292755435463
100
AcDbArc
 50
185.572224452707
 51
227.558122364486
  0
LINE
  5
3306
330
32DA
100
AcDbEntity
  8
細線
100
AcDbLine
 10
-3041.292266380176
 20
-188.354018787588
 30
0.0
 11
-3033.542326380176
 21
-188.354018787588
 31
0.0
  0
LINE
  5
3307
330
32DA
100
AcDbEntity
  8
外形線
100
AcDbLine
 10
-3041.292266380176
 20
-185.854018787588
 30
0.0
 11
-3033.542326380176
 21
-185.854018787588
 31
0.0
  0
LINE
  5
3308
330
32DA
100
AcDbEntity
  8
外形線
100
AcDbLine
 10
-3005.792233880175
 20
-177.854066287588
 30
0.0
 11
-3011.292266380176
 21
-177.854066287588
 31
0.0
  0
LINE
  5
3309
330
32DA
100
AcDbEntity
  8
外形線
100
AcDbLine
 10
-3011.292266380176
 20
-175.354066287588
 30
0.0
 11
-3015.542296380175
 21
-175.354066287588
 31
0.0
  0
LINE
  5
330A
330
32DA
100
AcDbEntity
  8
外形線
100
AcDbLine
 10
-3015.542296380175
 20
-172.104058787588
 30
0.0
 11
-3021.042326380176
 21
-172.104058787588
 31
0.0
  0
LINE
  5
330B
330
32DA
100
AcDbEntity
  8
外形線
100
AcDbLine
 10
-2989.292266380175
 20
-153.853973787588
 30
0.0
 11
-2982.292298880176
 21
-152.854066287588
 31
0.0
  0
LINE
  5
330C
330
32DA
100
AcDbEntity
  8
外形線
100
AcDbLine
 10
-2914.292418880175
 20
-180.854018787588
 30
0.0
 11
-2914.292418880175
 21
-220.854018787588
 31
0.0
  0
ARC
  5
330D
330
32DA
100
AcDbEntity
  8
外形線
100
AcDbCircle
 10
-2914.626968880176
 20
-223.068146287588
 30
0.0
 40
2.2392525
100
AcDbArc
 50
81.407104039339
 51
165.246528510562
  0
ARC
  5
330E
330
32DA
100
AcDbEntity
  8
外形線
100
AcDbCircle
 10
-2924.292343880175
 20
-167.192986310516
 30
0.0
 40
7.5
100
AcDbArc
 50
0.0
 51
86.629979268965
  0
ARC
  5
330F
330
32DA
100
AcDbEntity
  8
外形線
100
AcDbCircle
 10
-2914.626968880176
 20
-178.639893787588
 30
0.0
 40
2.2392525
100
AcDbArc
 50
194.753453889343
 51
278.592935656363
  0
LINE
  5
3310
330
32DA
100
AcDbEntity
  8
外形線
100
AcDbLine
 10
-2923.851463508792
 20
-159.705955891308
 30
0.0
 11
-2965.542266380175
 21
-157.250956295471
 31
0.0
  0
LINE
  5
3311
330
32DA
100
AcDbEntity
  8
外形線
100
AcDbLine
 10
-2982.292298880176
 20
-258.853973787588
 30
0.0
 11
-2965.542266380175
 21
-258.853973787588
 31
0.0
  0
LINE
  5
3312
330
32DA
100
AcDbEntity
  8
外形線
100
AcDbLine
 10
-2989.292266380175
 20
-153.853973787588
 30
0.0
 11
-2989.292266380175
 21
-256.854003787588
 31
0.0
  0
LINE
  5
3313
330
32DA
100
AcDbEntity
  8
外形線
100
AcDbLine
 10
-2982.292298880176
 20
-151.854003787588
 30
0.0
 11
-2982.292298880176
 21
-258.853973787588
 31
0.0
  0
LINE
  5
3314
330
32DA
100
AcDbEntity
  8
外形線
100
AcDbLine
 10
-2974.292266380175
 20
-258.853973787588
 30
0.0
 11
-2974.292266380175
 21
-151.854003787588
 31
0.0
  0
LINE
  5
3315
330
32DA
100
AcDbEntity
  8
外形線
100
AcDbLine
 10
-2972.542266380176
 20
-151.854003787588
 30
0.0
 11
-2972.542266380176
 21
-258.853973787588
 31
0.0
  0
LINE
  5
3316
330
32DA
100
AcDbEntity
  8
外形線
100
AcDbLine
 10
-3005.792233880175
 20
-223.853973787588
 30
0.0
 11
-2989.292266380175
 21
-256.854003787588
 31
0.0
  0
LINE
  5
3317
330
32DA
100
AcDbEntity
  8
外形線
100
AcDbLine
 10
-2989.292266380175
 20
-256.854003787588
 30
0.0
 11
-2982.292298880176
 21
-257.854066287588
 31
0.0
  0
LINE
  5
3318
330
32DA
100
AcDbEntity
  8
中心線
 48
10.0
100
AcDbLine
 10
-2939.292266380175
 20
-243.661866287588
 30
0.0
 11
-2939.292266380175
 21
-285.801688787588
 31
0.0
  0
LINE
  5
3319
330
32DA
100
AcDbEntity
  8
細線
100
AcDbLine
 10
-2931.542328880175
 20
-269.736388787588
 30
0.0
 11
-2931.542328880175
 21
-273.736328787588
 31
0.0
  0
LINE
  5
331A
330
32DA
100
AcDbEntity
  8
細線
100
AcDbLine
 10
-2947.042358880175
 20
-269.736388787588
 30
0.0
 11
-2947.042358880175
 21
-273.736328787588
 31
0.0
  0
LINE
  5
331B
330
32DA
100
AcDbEntity
  8
外形線
100
AcDbLine
 10
-2929.042328880175
 20
-273.736328787588
 30
0.0
 11
-2929.042328880175
 21
-269.736388787588
 31
0.0
  0
LINE
  5
331C
330
32DA
100
AcDbEntity
  8
外形線
100
AcDbLine
 10
-2949.542358880175
 20
-273.736328787588
 30
0.0
 11
-2949.542358880175
 21
-269.736388787588
 31
0.0
  0
ARC
  5
331D
330
32DA
100
AcDbEntity
  8
細線
100
AcDbCircle
 10
-2939.292343880175
 20
-266.986831287588
 30
0.0
 40
12.7495375
100
AcDbArc
 50
241.92650155696
 51
298.073500690788
  0
LINE
  5
331E
330
32DA
100
AcDbEntity
  8
外形線
100
AcDbLine
 10
-2951.292313880176
 20
-273.736328787588
 30
0.0
 11
-2927.292373880176
 21
-273.736328787588
 31
0.0
  0
LINE
  5
331F
330
32DA
100
AcDbEntity
  8
外形線
100
AcDbLine
 10
-2948.292281380175
 20
-279.736388787588
 30
0.0
 11
-2930.292328880175
 21
-279.736388787588
 31
0.0
  0
LINE
  5
3320
330
32DA
100
AcDbEntity
  8
細線
100
AcDbLine
 10
-2945.292328880175
 20
-273.736328787588
 30
0.0
 11
-2945.292328880175
 21
-278.236373787588
 31
0.0
  0
ARC
  5
3321
330
32DA
100
AcDbEntity
  8
細線
100
AcDbCircle
 10
-2949.801986380175
 20
-272.966981287588
 30
0.0
 40
6.935630000000001
100
AcDbArc
 50
282.571898360404
 51
310.557678088908
  0
LINE
  5
3322
330
32DA
100
AcDbEntity
  8
外形線
100
AcDbLine
 10
-2951.292313880176
 20
-273.736328787588
 30
0.0
 11
-2951.292313880176
 21
-278.236373787588
 31
0.0
  0
LINE
  5
3323
330
32DA
100
AcDbEntity
  8
外形線
100
AcDbLine
 10
-2948.292281380175
 20
-279.736388787588
 30
0.0
 11
-2951.292313880176
 21
-278.236373787588
 31
0.0
  0
LINE
  5
3324
330
32DA
100
AcDbEntity
  8
細線
100
AcDbLine
 10
-2933.292358880175
 20
-273.736328787588
 30
0.0
 11
-2933.292358880175
 21
-278.236373787588
 31
0.0
  0
ARC
  5
3325
330
32DA
100
AcDbEntity
  8
細線
100
AcDbCircle
 10
-2928.782698880175
 20
-272.966981287588
 30
0.0
 40
6.935630000000001
100
AcDbArc
 50
229.442381454627
 51
257.428103887329
  0
LINE
  5
3326
330
32DA
100
AcDbEntity
  8
外形線
100
AcDbLine
 10
-2927.292373880176
 20
-273.736328787588
 30
0.0
 11
-2927.292373880176
 21
-278.236373787588
 31
0.0
  0
LINE
  5
3327
330
32DA
100
AcDbEntity
  8
外形線
100
AcDbLine
 10
-2930.292403880175
 20
-279.736388787588
 30
0.0
 11
-2927.292373880176
 21
-278.236373787588
 31
0.0
  0
LINE
  5
3328
330
32DA
100
AcDbEntity
  8
外形線
100
AcDbLine
 10
-2916.792343880175
 20
-167.192986310516
 30
0.0
 11
-2916.792343880175
 21
-243.514991264661
 31
0.0
  0
LINE
  5
3329
330
32DA
100
AcDbEntity
  8
外形線
100
AcDbLine
 10
-2965.542266380175
 20
-258.853973787588
 30
0.0
 11
-2965.542266380175
 21
-151.854003787588
 31
0.0
  0
ARC
  5
332A
330
32DA
100
AcDbEntity
  8
外形線
100
AcDbCircle
 10
-2924.292343880175
 20
-243.514991264661
 30
0.0
 40
7.5
100
AcDbArc
 50
273.370020731035
 51
0.0
  0
LINE
  5
332B
330
32DA
100
AcDbEntity
  8
外形線
100
AcDbLine
 10
-2924.703808122718
 20
-252.188916625168
 30
0.0
 11
-2925.235546716292
 21
-268.045042442421
 31
0.0
  0
ARC
  5
332C
330
32DA
100
AcDbEntity
  8
外形線
100
AcDbCircle
 10
-2956.273923241248
 20
-255.415577424633
 30
0.0
 40
2.5
100
AcDbArc
 50
1.920706503578
 51
93.370020731035
  0
LINE
  5
332D
330
32DA
100
AcDbEntity
  8
外形線
100
AcDbLine
 10
-2951.599969249177
 20
-269.736388787588
 30
0.0
 11
-2926.984563511173
 21
-269.736388787588
 31
0.0
  0
LINE
  5
332E
330
32DA
100
AcDbEntity
  8
外形線
100
AcDbLine
 10
-2953.775327819991
 20
-255.331786489161
 30
0.0
 11
-2953.348986044058
 21
-268.045042442421
 31
0.0
  0
ARC
  5
332F
330
32DA
100
AcDbEntity
  8
外形線
100
AcDbCircle
 10
-2951.599969249177
 20
-267.986388787588
 30
0.0
 40
1.75
100
AcDbArc
 50
181.920706503581
 51
270.0
  0
ARC
  5
3330
330
32DA
100
AcDbEntity
  8
外形線
100
AcDbCircle
 10
-2926.984563511173
 20
-267.986388787588
 30
0.0
 40
1.75
100
AcDbArc
 50
270.0
 51
358.079293496419
  0
LINE
  5
3331
330
32DA
100
AcDbEntity
  8
外形線
100
AcDbLine
 10
-2923.851463508792
 20
-251.002021683866
 30
0.0
 11
-2965.542266380175
 21
-253.457021279706
 31
0.0
  0
LINE
  5
3332
330
32DA
100
AcDbEntity
  8
外形線
100
AcDbLine
 10
-2923.512896704778
 20
-251.617459007468
 30
0.0
 11
-2923.518011991735
 21
-251.617679537498
 31
0.0
  0
ARC
  5
3333
330
32DA
100
AcDbEntity
  8
外形線
100
AcDbCircle
 10
-2923.454510412087
 20
-252.230812092906
 30
0.0
 40
1.25
100
AcDbArc
 50
93.370020731035
 51
178.079293496416
  0
ENDBLK
  5
3334
330
32DA
100
AcDbEntity
  8
0
 48
10.0
100
AcDbBlockEnd
  0
BLOCK
  5
39DC
330
39DB
100
AcDbEntity
  8
0
 48
10.0
100
AcDbBlockBegin
  2
ケース外形図_PRL-101-LONG-Fなし
 70
     0
 10
0.0
 20
0.0
 30
0.0
  3
ケース外形図_PRL-101-LONG-Fなし
  1
ケース外形図_PRL-101-LONG-Fなし
  0
LINE
  5
39DD
330
39DB
100
AcDbEntity
  8
外形線
100
AcDbLine
 10
110.168921433947
 20
2143.39203805301
 30
0.0
 11
112.018287433947
 21
2143.39203805301
 31
0.0
  0
ARC
  5
39DE
330
39DB
100
AcDbEntity
  8
外形線
100
AcDbCircle
 10
110.168921433947
 20
2141.89203805301
 30
0.0
 40
1.5
100
AcDbArc
 50
89.999981276034
 51
180.00001984784
  0
LINE
  5
39DF
330
39DB
100
AcDbEntity
  8
外形線
100
AcDbLine
 10
108.668921433947
 20
2141.89203805301
 30
0.0
 11
108.668921433947
 21
2094.89203805301
 31
0.0
  0
LINE
  5
39E0
330
39DB
100
AcDbEntity
  8
外形線
100
AcDbLine
 10
110.168921433947
 20
2093.39203805301
 30
0.0
 11
112.018287433947
 21
2093.39203805301
 31
0.0
  0
ARC
  5
39E1
330
39DB
100
AcDbEntity
  8
外形線
100
AcDbCircle
 10
110.168921433947
 20
2094.89203805301
 30
0.0
 40
1.5
100
AcDbArc
 50
180.00001984784
 51
270.0
  0
ARC
  5
39E2
330
39DB
100
AcDbEntity
  8
外形線
100
AcDbCircle
 10
232.798805433947
 20
2149.66022605301
 30
0.0
 40
1.86215
100
AcDbArc
 50
276.184221085629
 51
91.517843466792
  0
LINE
  5
39E3
330
39DB
100
AcDbEntity
  8
外形線
100
AcDbLine
 10
234.660987433947
 20
2141.81122605301
 30
0.0
 11
234.660987433947
 21
2124.38959605301
 31
0.0
  0
ARC
  5
39E4
330
39DB
100
AcDbEntity
  8
外形線
100
AcDbCircle
 10
232.661719433946
 20
2124.38959605301
 30
0.0
 40
1.9992
100
AcDbArc
 50
270.0
 51
359.999982399908
  0
ARC
  5
39E5
330
39DB
100
AcDbEntity
  8
外形線
100
AcDbCircle
 10
232.661719433946
 20
2141.81122605301
 30
0.0
 40
1.9992
100
AcDbArc
 50
0.0
 51
89.999981276021
  0
LINE
  5
39E6
330
39DB
100
AcDbEntity
  8
外形線
100
AcDbLine
 10
234.660987433947
 20
2094.972848053009
 30
0.0
 11
234.660987433947
 21
2112.39447805301
 31
0.0
  0
ARC
  5
39E7
330
39DB
100
AcDbEntity
  8
外形線
100
AcDbCircle
 10
232.798805433947
 20
2087.12397005301
 30
0.0
 40
1.86215
100
AcDbArc
 50
268.482178628784
 51
83.815801009983
  0
ARC
  5
39E8
330
39DB
100
AcDbEntity
  8
外形線
100
AcDbCircle
 10
232.661719433946
 20
2094.972848053009
 30
0.0
 40
1.9992
100
AcDbArc
 50
270.0
 51
359.999982399908
  0
ARC
  5
39E9
330
39DB
100
AcDbEntity
  8
外形線
100
AcDbCircle
 10
232.661719433946
 20
2112.39447805301
 30
0.0
 40
1.9992
100
AcDbArc
 50
0.0
 51
89.999981276021
  0
ARC
  5
39EA
330
39DB
100
AcDbEntity
  8
外形線
100
AcDbCircle
 10
220.095313433946
 20
2160.88044005301
 30
0.0
 40
4.8552
100
AcDbArc
 50
0.0
 51
87.349306628423
  0
LINE
  5
39EB
330
39DB
100
AcDbEntity
  8
細線
100
AcDbLine
 10
190.392921433947
 20
2149.23688605301
 30
0.0
 11
190.392921433947
 21
2160.66083605301
 31
0.0
  0
LINE
  5
39EC
330
39DB
100
AcDbEntity
  8
外形線
100
AcDbLine
 10
174.684913433946
 20
2149.23688605301
 30
0.0
 11
190.482031433947
 21
2149.23688605301
 31
0.0
  0
LINE
  5
39ED
330
39DB
100
AcDbEntity
  8
外形線
100
AcDbLine
 10
192.433021433946
 20
2160.66083605301
 30
0.0
 11
174.684913433946
 21
2160.66083605301
 31
0.0
  0
LINE
  5
39EE
330
39DB
100
AcDbEntity
  8
外形線
100
AcDbLine
 10
192.433021433946
 20
2164.08808205301
 30
0.0
 11
174.684913433946
 21
2164.08808205301
 31
0.0
  0
LINE
  5
39EF
330
39DB
100
AcDbEntity
  8
外形線
100
AcDbLine
 10
190.392921433947
 20
2169.39203605301
 30
0.0
 11
194.105689433946
 21
2166.94403805301
 31
0.0
  0
LINE
  5
39F0
330
39DB
100
AcDbEntity
  8
細線
100
AcDbLine
 10
190.392921433947
 20
2164.08808205301
 30
0.0
 11
190.392921433947
 21
2169.39203605301
 31
0.0
  0
ARC
  5
39F1
330
39DB
100
AcDbEntity
  8
外形線
100
AcDbCircle
 10
192.379005433947
 20
2162.37445805301
 30
0.0
 40
1.714446
100
AcDbArc
 50
271.804703586973
 51
88.195318508605
  0
LINE
  5
39F2
330
39DB
100
AcDbEntity
  8
外形線
100
AcDbLine
 10
194.105689433946
 20
2166.94403805301
 30
0.0
 11
220.319923433946
 21
2165.730416053009
 31
0.0
  0
ARC
  5
39F3
330
39DB
100
AcDbEntity
  8
外形線
100
AcDbCircle
 10
227.104957433947
 20
2120.24494205301
 30
0.0
 40
2.15556
100
AcDbArc
 50
95.512637406103
 51
178.089033713747
  0
ARC
  5
39F4
330
39DB
100
AcDbEntity
  8
外形線
100
AcDbCircle
 10
227.104957433947
 20
2116.53925405301
 30
0.0
 40
2.15556
100
AcDbArc
 50
181.910948686169
 51
264.487402289583
  0
ARC
  5
39F5
330
39DB
100
AcDbEntity
  8
外形線
100
AcDbCircle
 10
189.105811433947
 20
2117.809640053009
 30
0.0
 40
5.033766
100
AcDbArc
 50
6.644133183896
 51
75.184725088441
  0
ARC
  5
39F6
330
39DB
100
AcDbEntity
  8
外形線
100
AcDbCircle
 10
189.105811433947
 20
2118.97455605301
 30
0.0
 40
5.033766
100
AcDbArc
 50
284.815257311479
 51
353.35584921602
  0
LINE
  5
39F7
330
39DB
100
AcDbEntity
  8
細線
100
AcDbLine
 10
190.392921433947
 20
2122.676094053009
 30
0.0
 11
190.392921433947
 21
2141.24006005301
 31
0.0
  0
LINE
  5
39F8
330
39DB
100
AcDbEntity
  8
外形線
100
AcDbLine
 10
174.684913433946
 20
2122.676094053009
 30
0.0
 11
190.392921433947
 21
2122.676094053009
 31
0.0
  0
LINE
  5
39F9
330
39DB
100
AcDbEntity
  8
外形線
100
AcDbLine
 10
174.684913433946
 20
2114.10810205301
 30
0.0
 11
190.392921433947
 21
2114.10810205301
 31
0.0
  0
LINE
  5
39FA
330
39DB
100
AcDbEntity
  8
外形線
100
AcDbLine
 10
174.684913433946
 20
2141.24006005301
 30
0.0
 11
190.392921433947
 21
2141.24006005301
 31
0.0
  0
LINE
  5
39FB
330
39DB
100
AcDbEntity
  8
外形線
100
AcDbLine
 10
224.950537433947
 20
2118.39203605301
 30
0.0
 11
224.950537433947
 21
2160.88044005301
 31
0.0
  0
ARC
  5
39FC
330
39DB
100
AcDbEntity
  8
外形線
100
AcDbCircle
 10
190.066871433946
 20
2145.24262205301
 30
0.0
 40
4.015794000000001
100
AcDbArc
 50
274.656944786915
 51
84.065438721313
  0
LINE
  5
39FD
330
39DB
100
AcDbEntity
  8
外形線
100
AcDbLine
 10
165.545753433947
 20
2164.08808205301
 30
0.0
 11
168.401709433946
 21
2169.39203605301
 31
0.0
  0
LINE
  5
39FE
330
39DB
100
AcDbEntity
  8
外形線
100
AcDbLine
 10
168.401709433946
 20
2169.39203605301
 30
0.0
 11
190.392921433947
 21
2169.39203605301
 31
0.0
  0
ARC
  5
39FF
330
39DB
100
AcDbEntity
  8
外形線
100
AcDbCircle
 10
190.066871433946
 20
2091.54157405301
 30
0.0
 40
4.015794000000001
100
AcDbArc
 50
275.934583374273
 51
85.343077308665
  0
LINE
  5
3A00
330
39DB
100
AcDbEntity
  8
外形線
100
AcDbLine
 10
174.684913433946
 20
2087.54731005301
 30
0.0
 11
190.482031433947
 21
2087.54731005301
 31
0.0
  0
LINE
  5
3A01
330
39DB
100
AcDbEntity
  8
外形線
100
AcDbLine
 10
174.684913433946
 20
2095.54401405301
 30
0.0
 11
190.392921433947
 21
2095.54401405301
 31
0.0
  0
ARC
  5
3A02
330
39DB
100
AcDbEntity
  8
外形線
100
AcDbCircle
 10
220.095313433946
 20
2075.90375605301
 30
0.0
 40
4.8552
100
AcDbArc
 50
272.650733067261
 51
359.999982399908
  0
LINE
  5
3A03
330
39DB
100
AcDbEntity
  8
外形線
100
AcDbLine
 10
194.105689433946
 20
2069.84003405301
 30
0.0
 11
190.392921433947
 21
2067.39203605301
 31
0.0
  0
LINE
  5
3A04
330
39DB
100
AcDbEntity
  8
外形線
100
AcDbLine
 10
192.433021433946
 20
2076.12323805301
 30
0.0
 11
174.684913433946
 21
2076.12323805301
 31
0.0
  0
LINE
  5
3A05
330
39DB
100
AcDbEntity
  8
外形線
100
AcDbLine
 10
192.433021433946
 20
2072.696114053009
 30
0.0
 11
174.684913433946
 21
2072.696114053009
 31
0.0
  0
LINE
  5
3A06
330
39DB
100
AcDbEntity
  8
細線
100
AcDbLine
 10
190.392921433947
 20
2072.696114053009
 30
0.0
 11
190.392921433947
 21
2067.39203605301
 31
0.0
  0
ARC
  5
3A07
330
39DB
100
AcDbEntity
  8
外形線
100
AcDbCircle
 10
192.379005433947
 20
2074.40961605301
 30
0.0
 40
1.714446
100
AcDbArc
 50
271.804703586973
 51
88.195318508605
  0
LINE
  5
3A08
330
39DB
100
AcDbEntity
  8
外形線
100
AcDbLine
 10
194.105689433946
 20
2069.84003405301
 30
0.0
 11
220.319923433946
 21
2071.05372005301
 31
0.0
  0
LINE
  5
3A09
330
39DB
100
AcDbEntity
  8
細線
100
AcDbLine
 10
190.392921433947
 20
2087.54731005301
 30
0.0
 11
190.392921433947
 21
2076.12323805301
 31
0.0
  0
LINE
  5
3A0A
330
39DB
100
AcDbEntity
  8
外形線
100
AcDbLine
 10
167.332540844539
 20
2066.523929892186
 30
0.0
 11
165.724459344066
 21
2054.438201968303
 31
0.0
  0
LINE
  5
3A0B
330
39DB
100
AcDbEntity
  8
細線
100
AcDbLine
 10
168.401709433946
 20
2067.39203605301
 30
0.0
 11
165.545753433947
 21
2075.490020603784
 31
0.0
  0
ARC
  5
3A0C
330
39DB
100
AcDbEntity
  8
外形線
100
AcDbCircle
 10
168.32380469195
 20
2066.39203605301
 30
0.0
 40
1.0
100
AcDbArc
 50
90.0
 51
172.42095622959
  0
LINE
  5
3A0D
330
39DB
100
AcDbEntity
  8
外形線
100
AcDbLine
 10
135.422919931233
 20
2071.925232733321
 30
0.0
 11
137.658025931233
 21
2054.452514733321
 31
0.0
  0
ARC
  5
3A0E
330
39DB
100
AcDbEntity
  8
外形線
100
AcDbCircle
 10
132.533722849268
 20
2071.533944727406
 30
0.0
 40
2.915573028070137
100
AcDbArc
 50
7.712721372168
 51
85.846565215995
  0
LINE
  5
3A0F
330
39DB
100
AcDbEntity
  8
外形線
100
AcDbLine
 10
140.490943433946
 20
2051.95890005301
 30
0.0
 11
162.893409433947
 21
2051.95890005301
 31
0.0
  0
ARC
  5
3A10
330
39DB
100
AcDbEntity
  8
細線
100
AcDbCircle
 10
152.301247433947
 20
2041.191902053009
 30
0.0
 40
36.766532
100
AcDbArc
 50
68.885514212377
 51
115.2117858394
  0
LINE
  5
3A11
330
39DB
100
AcDbEntity
  8
外形線
100
AcDbLine
 10
168.32380469195
 20
2067.39203605301
 30
0.0
 11
190.392921433947
 21
2067.39203605301
 31
0.0
  0
ARC
  5
3A12
330
39DB
100
AcDbEntity
  8
細線
100
AcDbCircle
 10
165.108131433946
 20
2060.836984053009
 30
0.0
 40
18.322924
100
AcDbArc
 50
247.068453993572
 51
267.322397459893
  0
LINE
  5
3A13
330
39DB
100
AcDbEntity
  8
細線
100
AcDbLine
 10
157.968971433947
 20
2043.96210605301
 30
0.0
 11
157.968971433947
 21
2047.67487405301
 31
0.0
  0
LINE
  5
3A14
330
39DB
100
AcDbEntity
  8
細線
100
AcDbLine
 10
145.402565433947
 20
2043.96210605301
 30
0.0
 11
145.402565433947
 21
2047.67487405301
 31
0.0
  0
ARC
  5
3A15
330
39DB
100
AcDbEntity
  8
細線
100
AcDbCircle
 10
151.685767433946
 20
2057.07074805301
 30
0.0
 40
14.53669
100
AcDbArc
 50
244.390793033801
 51
295.609209213941
  0
LINE
  5
3A16
330
39DB
100
AcDbEntity
  8
外形線
100
AcDbLine
 10
165.680275433947
 20
2043.96210605301
 30
0.0
 11
164.252175433947
 21
2042.53406605301
 31
0.0
  0
LINE
  5
3A17
330
39DB
100
AcDbEntity
  8
外形線
100
AcDbLine
 10
165.680275433947
 20
2047.67487405301
 30
0.0
 11
165.680275433947
 21
2043.96210605301
 31
0.0
  0
LINE
  5
3A18
330
39DB
100
AcDbEntity
  8
外形線
100
AcDbLine
 10
137.691383433947
 20
2043.96210605301
 30
0.0
 11
139.119361433946
 21
2042.53406605301
 31
0.0
  0
LINE
  5
3A19
330
39DB
100
AcDbEntity
  8
外形線
100
AcDbLine
 10
137.691383433947
 20
2047.67487405301
 30
0.0
 11
137.691383433947
 21
2043.96210605301
 31
0.0
  0
LINE
  5
3A1A
330
39DB
100
AcDbEntity
  8
外形線
100
AcDbLine
 10
139.119361433946
 20
2042.53406605301
 30
0.0
 11
164.252175433947
 21
2042.53406605301
 31
0.0
  0
LINE
  5
3A1B
330
39DB
100
AcDbEntity
  8
外形線
100
AcDbLine
 10
137.691383433947
 20
2047.67487405301
 30
0.0
 11
165.680275433947
 21
2047.67487405301
 31
0.0
  0
ARC
  5
3A1C
330
39DB
100
AcDbEntity
  8
細線
100
AcDbCircle
 10
138.263405433946
 20
2060.836984053009
 30
0.0
 40
18.322924
100
AcDbArc
 50
272.67766208363
 51
292.93154825417
  0
LINE
  5
3A1D
330
39DB
100
AcDbEntity
  8
中心線
 48
10.0
100
AcDbLine
 10
151.685767433946
 20
2092.05121605301
 30
0.0
 11
151.685767433946
 21
2036.448922053009
 31
0.0
  0
ARC
  5
3A1E
330
39DB
100
AcDbEntity
  8
外形線
100
AcDbCircle
 10
162.893409433947
 20
2054.81488805301
 30
0.0
 40
2.856
100
AcDbArc
 50
270.0
 51
352.421011277462
  0
LINE
  5
3A1F
330
39DB
100
AcDbEntity
  8
細線
100
AcDbLine
 10
158.825783433947
 20
2051.958870053009
 30
0.0
 11
158.825783433947
 21
2047.67487405301
 31
0.0
  0
LINE
  5
3A20
330
39DB
100
AcDbEntity
  8
外形線
100
AcDbLine
 10
161.110573433946
 20
2047.67487405301
 30
0.0
 11
161.110573433946
 21
2051.958870053009
 31
0.0
  0
LINE
  5
3A21
330
39DB
100
AcDbEntity
  8
細線
100
AcDbLine
 10
144.545753433947
 20
2051.958870053009
 30
0.0
 11
144.545753433947
 21
2047.67487405301
 31
0.0
  0
LINE
  5
3A22
330
39DB
100
AcDbEntity
  8
外形線
100
AcDbLine
 10
142.260963433947
 20
2047.67487405301
 30
0.0
 11
142.260963433947
 21
2051.958870053009
 31
0.0
  0
ARC
  5
3A23
330
39DB
100
AcDbEntity
  8
外形線
100
AcDbCircle
 10
140.490943433946
 20
2054.81488805301
 30
0.0
 40
2.856
100
AcDbArc
 50
187.289418100602
 51
270.0
  0
LINE
  5
3A24
330
39DB
100
AcDbEntity
  8
細線
100
AcDbLine
 10
194.105689433946
 20
2166.94403805301
 30
0.0
 11
194.105689433946
 21
2069.84003405301
 31
0.0
  0
LINE
  5
3A25
330
39DB
100
AcDbEntity
  8
細線
100
AcDbLine
 10
165.545753433947
 20
2164.08808205301
 30
0.0
 11
165.545753433947
 21
2075.38434605301
 31
0.0
  0
LINE
  5
3A26
330
39DB
100
AcDbEntity
  8
外形線
100
AcDbLine
 10
174.684913433946
 20
2067.39203605301
 30
0.0
 11
174.684913433946
 21
2169.39203605301
 31
0.0
  0
LINE
  5
3A27
330
39DB
100
AcDbEntity
  8
外形線
100
AcDbLine
 10
172.685767433946
 20
2169.39203605301
 30
0.0
 11
172.685767433946
 21
2067.39203605301
 31
0.0
  0
LINE
  5
3A28
330
39DB
100
AcDbEntity
  8
細線
100
AcDbLine
 10
168.401709433946
 20
2169.39203605301
 30
0.0
 11
168.401709433946
 21
2067.39203605301
 31
0.0
  0
LINE
  5
3A29
330
39DB
100
AcDbEntity
  8
細線
100
AcDbLine
 10
124.673823413021
 20
2157.519264053009
 30
0.0
 11
124.673823413021
 21
2079.26487005301
 31
0.0
  0
LINE
  5
3A2A
330
39DB
100
AcDbEntity
  8
細線
100
AcDbLine
 10
190.392921433947
 20
2114.10810205301
 30
0.0
 11
190.392921433947
 21
2095.54401405301
 31
0.0
  0
LINE
  5
3A2B
330
39DB
100
AcDbEntity
  8
外形線
100
AcDbLine
 10
224.950537433947
 20
2118.39203605301
 30
0.0
 11
224.950537433947
 21
2075.90375605301
 31
0.0
  0
ARC
  5
3A2C
330
39DB
100
AcDbEntity
  8
外形線
100
AcDbCircle
 10
226.951027433946
 20
2090.97452605301
 30
0.0
 40
2.000724
100
AcDbArc
 50
87.757023395436
 51
272.242959004484
  0
LINE
  5
3A2D
330
39DB
100
AcDbEntity
  8
外形線
100
AcDbLine
 10
227.029273433946
 20
2088.97528805301
 30
0.0
 11
232.999365433946
 21
2088.97528805301
 31
0.0
  0
LINE
  5
3A2E
330
39DB
100
AcDbEntity
  8
外形線
100
AcDbLine
 10
224.950537433947
 20
2085.26252005301
 30
0.0
 11
232.749487433946
 21
2085.26252005301
 31
0.0
  0
LINE
  5
3A2F
330
39DB
100
AcDbEntity
  8
外形線
100
AcDbLine
 10
227.029335433946
 20
2092.97370205301
 30
0.0
 11
232.661719433946
 21
2092.97370205301
 31
0.0
  0
LINE
  5
3A30
330
39DB
100
AcDbEntity
  8
外形線
100
AcDbLine
 10
226.897925433947
 20
2122.39045005301
 30
0.0
 11
232.661719433946
 21
2122.39045005301
 31
0.0
  0
LINE
  5
3A31
330
39DB
100
AcDbEntity
  8
外形線
100
AcDbLine
 10
226.897925433947
 20
2114.39374605301
 30
0.0
 11
232.661719433946
 21
2114.39374605301
 31
0.0
  0
LINE
  5
3A32
330
39DB
100
AcDbEntity
  8
外形線
100
AcDbLine
 10
224.950537433947
 20
2151.521676053009
 30
0.0
 11
232.749487433946
 21
2151.521676053009
 31
0.0
  0
ARC
  5
3A33
330
39DB
100
AcDbEntity
  8
外形線
100
AcDbCircle
 10
226.949745433946
 20
2145.809640053009
 30
0.0
 40
2.000726
100
AcDbArc
 50
87.722187561486
 51
272.27785213419
  0
LINE
  5
3A34
330
39DB
100
AcDbEntity
  8
外形線
100
AcDbLine
 10
227.029273433946
 20
2143.81049405301
 30
0.0
 11
232.661719433946
 21
2143.81049405301
 31
0.0
  0
LINE
  5
3A35
330
39DB
100
AcDbEntity
  8
外形線
100
AcDbLine
 10
227.029273433946
 20
2147.80878405301
 30
0.0
 11
232.999365433946
 21
2147.80878405301
 31
0.0
  0
LINE
  5
3A36
330
39DB
100
AcDbEntity
  8
外形線
100
AcDbLine
 10
126.699805433947
 20
2161.988228053011
 30
0.0
 11
165.545753433947
 21
2164.08808205301
 31
0.0
  0
LINE
  5
3A37
330
39DB
100
AcDbEntity
  8
外形線
100
AcDbLine
 10
121.679297433947
 20
2158.72419005301
 30
0.0
 11
114.690467433947
 21
2145.02851205301
 31
0.0
  0
ARC
  5
3A38
330
39DB
100
AcDbEntity
  8
外形線
100
AcDbCircle
 10
127.023659433947
 20
2155.99695605301
 30
0.0
 40
6.0
100
AcDbArc
 50
93.094182552856
 51
152.964948988829
  0
LINE
  5
3A39
330
39DB
100
AcDbEntity
  8
外形線
100
AcDbLine
 10
121.778053433947
 20
2077.86634205301
 30
0.0
 11
114.690467433947
 21
2091.75556205301
 31
0.0
  0
ARC
  5
3A3A
330
39DB
100
AcDbEntity
  8
外形線
100
AcDbCircle
 10
127.122475433947
 20
2080.59351405301
 30
0.0
 40
6.0
100
AcDbArc
 50
207.035033411102
 51
266.905857142828
  0
LINE
  5
3A3B
330
39DB
100
AcDbEntity
  8
外形線
100
AcDbLine
 10
132.744890920782
 20
2074.441860497779
 30
0.0
 11
126.798561433947
 21
2074.60230405301
 31
0.0
  0
ARC
  5
3A3C
330
39DB
100
AcDbEntity
  8
外形線
100
AcDbCircle
 10
112.018287433947
 20
2146.39203805301
 30
0.0
 40
3.0
100
AcDbArc
 50
270.0
 51
332.965140723993
  0
ARC
  5
3A3D
330
39DB
100
AcDbEntity
  8
外形線
100
AcDbCircle
 10
112.018287433947
 20
2090.39203805301
 30
0.0
 40
3.0
100
AcDbArc
 50
27.034841675909
 51
89.99998127603
  0
ENDBLK
  5
3A3E
330
39DB
100
AcDbEntity
  8
0
 48
10.0
100
AcDbBlockEnd
  0
BLOCK
  5
3ACF
330
3ACE
100
AcDbEntity
  8
0
 48
10.0
100
AcDbBlockBegin
  2
A$C480F1F2B
 70
     0
 10
0.0
 20
0.0
 30
0.0
  3
A$C480F1F2B
  1
A$C480F1F2B
  0
LINE
  5
3AD0
330
3ACE
100
AcDbEntity
  8
外形線
100
AcDbLine
 10
8.500001501512
 20
2.385002184348
 30
0.0
 11
8.500001501512
 21
14.179664684348
 31
0.0
  0
ARC
  5
3AD1
330
3ACE
100
AcDbEntity
  8
細線
100
AcDbCircle
 10
1.216144001512
 20
8.282372184348
 30
0.0
 40
7.2838425
100
AcDbArc
 50
326.010120640452
 51
33.98932849733
  0
ARC
  5
3AD2
330
3ACE
100
AcDbEntity
  8
細線
100
AcDbCircle
 10
4.911364001511
 20
1.275229684348
 30
0.0
 40
3.7563025
100
AcDbArc
 50
17.184150191555
 51
51.38761061704
  0
LINE
  5
3AD3
330
3ACE
100
AcDbEntity
  8
細線
100
AcDbLine
 10
2.000001501511
 20
4.210487184348
 30
0.0
 11
7.255442473881
 21
4.210487184348
 31
0.0
  0
LINE
  5
3AD4
330
3ACE
100
AcDbEntity
  8
外形線
100
AcDbLine
 10
2.000001501511
 20
16.564818684348
 30
0.0
 11
2.000001501511
 21
0.000000684348
 31
0.0
  0
LINE
  5
3AD5
330
3ACE
100
AcDbEntity
  8
外形線
100
AcDbLine
 10
0.000001501512
 20
16.564818684348
 30
0.0
 11
0.000001501512
 21
0.000000684348
 31
0.0
  0
LINE
  5
3AD6
330
3ACE
100
AcDbEntity
  8
外形線
100
AcDbLine
 10
6.114929777464
 20
0.000000684348
 30
0.0
 11
8.499926501511
 21
2.385079684348
 31
0.0
  0
LINE
  5
3AD7
330
3ACE
100
AcDbEntity
  8
外形線
100
AcDbLine
 10
0.000001501512
 20
0.000000684348
 30
0.0
 11
6.114929777464
 21
0.000000684348
 31
0.0
  0
ARC
  5
3AD8
330
3ACE
100
AcDbEntity
  8
細線
100
AcDbCircle
 10
4.911364001511
 20
15.289437184348
 30
0.0
 40
3.7563025
100
AcDbArc
 50
308.612371782873
 51
342.81588950412
  0
LINE
  5
3AD9
330
3ACE
100
AcDbEntity
  8
細線
100
AcDbLine
 10
2.000001501511
 20
12.354369684348
 30
0.0
 11
7.25548242852
 21
12.354369684348
 31
0.0
  0
LINE
  5
3ADA
330
3ACE
100
AcDbEntity
  8
外形線
100
AcDbLine
 10
6.11493439904
 20
16.564818684348
 30
0.0
 11
8.499926501511
 21
14.179664684348
 31
0.0
  0
LINE
  5
3ADB
330
3ACE
100
AcDbEntity
  8
外形線
100
AcDbLine
 10
0.000001501512
 20
16.564818684348
 30
0.0
 11
6.11493439904
 21
16.564818684348
 31
0.0
  0
ENDBLK
  5
3ADC
330
3ACE
100
AcDbEntity
  8
0
 48
10.0
100
AcDbBlockEnd
  0
BLOCK
  5
3AF3
330
3AE9
100
AcDbEntity
  8
0
 48
10.0
100
AcDbBlockBegin
  2
*D18
 70
     1
 10
0.0
 20
0.0
 30
0.0
  3
*D18
  1
*D18
  0
LINE
  5
41DF
330
3AE9
100
AcDbEntity
  8
寸法線
 62
     0
 48
10.0
100
AcDbLine
 10
1052.803881728043
 20
1687.765438909016
 30
0.0
 11
1119.737079178323
 21
1687.765438909016
 31
0.0
  0
LINE
  5
41E0
330
3AE9
100
AcDbEntity
  8
寸法線
 62
     0
 48
10.0
100
AcDbLine
 10
1052.803881728043
 20
1585.765438909015
 30
0.0
 11
1119.737079178323
 21
1585.765438909015
 31
0.0
  0
LINE
  5
41E1
330
3AE9
100
AcDbEntity
  8
寸法線
 62
     0
 48
10.0
100
AcDbLine
 10
1118.487079178323
 20
1681.765438909016
 30
0.0
 11
1118.487079178323
 21
1591.765438909015
 31
0.0
  0
INSERT
  5
41E2
330
3AE9
100
AcDbEntity
  8
寸法線
 62
     0
 48
10.0
100
AcDbBlockReference
  2
_OPEN30
 10
1118.487079178323
 20
1687.765438909016
 30
0.0
 41
6.0
 42
6.0
 43
6.0
 50
90.0
  0
INSERT
  5
41E3
330
3AE9
100
AcDbEntity
  8
寸法線
 62
     0
 48
10.0
100
AcDbBlockReference
  2
_OPEN30
 10
1118.487079178323
 20
1585.765438909015
 30
0.0
 41
6.0
 42
6.0
 43
6.0
 50
270.0
  0
MTEXT
  5
41E4
330
3AE9
100
AcDbEntity
  8
寸法線
 62
     0
 48
10.0
100
AcDbMText
 10
1113.861291776748
 20
1636.765438909016
 30
0.0
 40
8.0
 41
0.0
 71
     5
 72
     1
  1
\A1;φ102
 11
6.123031769111886E-17
 21
1.0
 31
0.0
  0
POINT
  5
41E5
330
3AE9
100
AcDbEntity
  8
DEFPOINTS
 62
     0
 48
10.0
100
AcDbPoint
 10
1052.178881728043
 20
1687.765438909016
 30
0.0
  0
POINT
  5
41E6
330
3AE9
100
AcDbEntity
  8
DEFPOINTS
 62
     0
 48
10.0
100
AcDbPoint
 10
1052.178881728043
 20
1585.765438909015
 30
0.0
  0
POINT
  5
41E7
330
3AE9
100
AcDbEntity
  8
DEFPOINTS
 62
     0
 48
10.0
100
AcDbPoint
 10
1118.487079178323
 20
1585.765438909015
 30
0.0
  0
ENDBLK
  5
3AF4
330
3AE9
100
AcDbEntity
  8
0
 48
10.0
100
AcDbBlockEnd
  0
BLOCK
  5
3B12
330
3B08
100
AcDbEntity
  8
0
 48
10.0
100
AcDbBlockBegin
  2
*D19
 70
     1
 10
0.0
 20
0.0
 30
0.0
  3
*D19
  1
*D19
  0
LINE
  5
41FA
330
3B08
100
AcDbEntity
  8
寸法線
 62
     0
 48
10.0
100
AcDbLine
 10
1096.471727728042
 20
1604.630052581373
 30
0.0
 11
1096.471727728042
 21
1531.453226293389
 31
0.0
  0
LINE
  5
41FB
330
3B08
100
AcDbEntity
  8
寸法線
 62
     0
 48
10.0
100
AcDbLine
 10
1013.471727728042
 20
1554.197324909015
 30
0.0
 11
1013.471727728042
 21
1531.453226293389
 31
0.0
  0
LINE
  5
41FC
330
3B08
100
AcDbEntity
  8
寸法線
 62
     0
 48
10.0
100
AcDbLine
 10
1090.471727728042
 20
1532.703226293389
 30
0.0
 11
1019.471727728042
 21
1532.703226293389
 31
0.0
  0
INSERT
  5
41FD
330
3B08
100
AcDbEntity
  8
寸法線
 62
     0
 48
10.0
100
AcDbBlockReference
  2
_OPEN30
 10
1096.471727728042
 20
1532.703226293389
 30
0.0
 41
6.0
 42
6.0
 43
6.0
  0
INSERT
  5
41FE
330
3B08
100
AcDbEntity
  8
寸法線
 62
     0
 48
10.0
100
AcDbBlockReference
  2
_OPEN30
 10
1013.471727728042
 20
1532.703226293389
 30
0.0
 41
6.0
 42
6.0
 43
6.0
 50
180.0
  0
MTEXT
  5
41FF
330
3B08
100
AcDbEntity
  8
寸法線
 62
     0
 48
10.0
100
AcDbMText
 10
1054.971727728042
 20
1537.328226293389
 30
0.0
 40
8.0
 41
0.0
 71
     5
 72
     1
  1
\A1;83
  0
POINT
  5
4200
330
3B08
100
AcDbEntity
  8
DEFPOINTS
 62
     0
 48
10.0
100
AcDbPoint
 10
1096.471727728042
 20
1605.255052581373
 30
0.0
  0
POINT
  5
4201
330
3B08
100
AcDbEntity
  8
DEFPOINTS
 62
     0
 48
10.0
100
AcDbPoint
 10
1013.471727728042
 20
1554.822324909015
 30
0.0
  0
POINT
  5
4202
330
3B08
100
AcDbEntity
  8
DEFPOINTS
 62
     0
 48
10.0
100
AcDbPoint
 10
1013.471727728042
 20
1532.703226293389
 30
0.0
  0
ENDBLK
  5
3B13
330
3B08
100
AcDbEntity
  8
0
 48
10.0
100
AcDbBlockEnd
  0
BLOCK
  5
3B6E
330
3B64
100
AcDbEntity
  8
0
 48
10.0
100
AcDbBlockBegin
  2
*D20
 70
     1
 10
0.0
 20
0.0
 30
0.0
  3
*D20
  1
*D20
  0
LINE
  5
404C
330
3B64
100
AcDbEntity
  8
寸法線
 62
     0
 48
10.0
100
AcDbLine
 10
941.471727728042
 20
1621.060887307491
 30
0.0
 11
941.471727728042
 21
1531.453226293389
 31
0.0
  0
LINE
  5
404D
330
3B64
100
AcDbEntity
  8
寸法線
 62
     0
 48
10.0
100
AcDbLine
 10
971.471727728042
 20
1609.502375845003
 30
0.0
 11
971.471727728042
 21
1531.453226293389
 31
0.0
  0
LINE
  5
404E
330
3B64
100
AcDbEntity
  8
寸法線
 62
     0
 48
10.0
100
AcDbLine
 10
947.471727728042
 20
1532.703226293389
 30
0.0
 11
965.471727728042
 21
1532.703226293389
 31
0.0
  0
INSERT
  5
404F
330
3B64
100
AcDbEntity
  8
寸法線
 62
     0
 48
10.0
100
AcDbBlockReference
  2
_OPEN30
 10
941.471727728042
 20
1532.703226293389
 30
0.0
 41
6.0
 42
6.0
 43
6.0
 50
180.0
  0
INSERT
  5
4050
330
3B64
100
AcDbEntity
  8
寸法線
 62
     0
 48
10.0
100
AcDbBlockReference
  2
_OPEN30
 10
971.471727728042
 20
1532.703226293389
 30
0.0
 41
6.0
 42
6.0
 43
6.0
  0
MTEXT
  5
4051
330
3B64
100
AcDbEntity
  8
寸法線
 62
     0
 48
10.0
100
AcDbMText
 10
956.471727728042
 20
1537.328226293389
 30
0.0
 40
8.0
 41
0.0
 71
     5
 72
     1
  1
\A1;30
  0
POINT
  5
4052
330
3B64
100
AcDbEntity
  8
DEFPOINTS
 62
     0
 48
10.0
100
AcDbPoint
 10
941.471727728042
 20
1621.685887307491
 30
0.0
  0
POINT
  5
4053
330
3B64
100
AcDbEntity
  8
DEFPOINTS
 62
     0
 48
10.0
100
AcDbPoint
 10
971.471727728042
 20
1610.127375845003
 30
0.0
  0
POINT
  5
4054
330
3B64
100
AcDbEntity
  8
DEFPOINTS
 62
     0
 48
10.0
100
AcDbPoint
 10
971.471727728042
 20
1532.703226293389
 30
0.0
  0
ENDBLK
  5
3B6F
330
3B64
100
AcDbEntity
  8
0
 48
10.0
100
AcDbBlockEnd
  0
BLOCK
  5
3B7B
330
3B71
100
AcDbEntity
  8
0
 48
10.0
100
AcDbBlockBegin
  2
*D21
 70
     1
 10
0.0
 20
0.0
 30
0.0
  3
*D21
  1
*D21
  0
LINE
  5
41E8
330
3B71
100
AcDbEntity
  8
寸法線
 62
     0
 48
10.0
100
AcDbLine
 10
971.471727728042
 20
1527.126929365584
 30
0.0
 11
971.471727728042
 21
1512.747162297084
 31
0.0
  0
LINE
  5
41E9
330
3B71
100
AcDbEntity
  8
寸法線
 62
     0
 48
10.0
100
AcDbLine
 10
1096.471727728042
 20
1532.078226293389
 30
0.0
 11
1096.471727728042
 21
1512.747162297084
 31
0.0
  0
LINE
  5
41EA
330
3B71
100
AcDbEntity
  8
寸法線
 62
     0
 48
10.0
100
AcDbLine
 10
977.471727728042
 20
1513.997162297084
 30
0.0
 11
1090.471727728042
 21
1513.997162297084
 31
0.0
  0
INSERT
  5
41EB
330
3B71
100
AcDbEntity
  8
寸法線
 62
     0
 48
10.0
100
AcDbBlockReference
  2
_OPEN30
 10
971.471727728042
 20
1513.997162297084
 30
0.0
 41
6.0
 42
6.0
 43
6.0
 50
180.0
  0
INSERT
  5
41EC
330
3B71
100
AcDbEntity
  8
寸法線
 62
     0
 48
10.0
100
AcDbBlockReference
  2
_OPEN30
 10
1096.471727728042
 20
1513.997162297084
 30
0.0
 41
6.0
 42
6.0
 43
6.0
  0
MTEXT
  5
41ED
330
3B71
100
AcDbEntity
  8
寸法線
 62
     0
 48
10.0
100
AcDbMText
 10
1034.465642425398
 20
1518.622949698658
 30
0.0
 40
8.0
 41
0.0
 71
     5
 72
     1
  1
\A1;125
  0
POINT
  5
41EE
330
3B71
100
AcDbEntity
  8
DEFPOINTS
 62
     0
 48
10.0
100
AcDbPoint
 10
971.471727728042
 20
1527.751929365584
 30
0.0
  0
POINT
  5
41EF
330
3B71
100
AcDbEntity
  8
DEFPOINTS
 62
     0
 48
10.0
100
AcDbPoint
 10
1096.471727728042
 20
1532.703226293389
 30
0.0
  0
POINT
  5
41F0
330
3B71
100
AcDbEntity
  8
DEFPOINTS
 62
     0
 48
10.0
100
AcDbPoint
 10
1096.471727728042
 20
1513.997162297084
 30
0.0
  0
ENDBLK
  5
3B7C
330
3B71
100
AcDbEntity
  8
0
 48
10.0
100
AcDbBlockEnd
  0
BLOCK
  5
3BA5
330
3B9B
100
AcDbEntity
  8
0
 48
10.0
100
AcDbBlockBegin
  2
*D22
 70
     1
 10
0.0
 20
0.0
 30
0.0
  3
*D22
  1
*D22
  0
LINE
  5
403A
330
3B9B
100
AcDbEntity
  8
寸法線
 62
     0
 48
10.0
100
AcDbLine
 10
796.471727728042
 20
1576.364382473444
 30
0.0
 11
796.471727728042
 21
1512.793982891293
 31
0.0
  0
LINE
  5
403B
330
3B9B
100
AcDbEntity
  8
寸法線
 62
     0
 48
10.0
100
AcDbLine
 10
971.471727728042
 20
1530.828226293389
 30
0.0
 11
971.471727728042
 21
1512.793982891293
 31
0.0
  0
LINE
  5
403C
330
3B9B
100
AcDbEntity
  8
寸法線
 62
     0
 48
10.0
100
AcDbLine
 10
802.471727728042
 20
1514.043982891293
 30
0.0
 11
965.471727728042
 21
1514.043982891293
 31
0.0
  0
INSERT
  5
403D
330
3B9B
100
AcDbEntity
  8
寸法線
 62
     0
 48
10.0
100
AcDbBlockReference
  2
_OPEN30
 10
796.471727728042
 20
1514.043982891293
 30
0.0
 41
6.0
 42
6.0
 43
6.0
 50
180.0
  0
INSERT
  5
403E
330
3B9B
100
AcDbEntity
  8
寸法線
 62
     0
 48
10.0
100
AcDbBlockReference
  2
_OPEN30
 10
971.471727728042
 20
1514.043982891293
 30
0.0
 41
6.0
 42
6.0
 43
6.0
  0
MTEXT
  5
403F
330
3B9B
100
AcDbEntity
  8
寸法線
 62
     0
 48
10.0
100
AcDbMText
 10
883.971727728042
 20
1518.668982891293
 30
0.0
 40
8.0
 41
0.0
 71
     5
 72
     1
  1
\A1;175
  0
POINT
  5
4040
330
3B9B
100
AcDbEntity
  8
DEFPOINTS
 62
     0
 48
10.0
100
AcDbPoint
 10
796.471727728042
 20
1576.989382473444
 30
0.0
  0
POINT
  5
4041
330
3B9B
100
AcDbEntity
  8
DEFPOINTS
 62
     0
 48
10.0
100
AcDbPoint
 10
971.471727728042
 20
1531.453226293389
 30
0.0
  0
POINT
  5
4042
330
3B9B
100
AcDbEntity
  8
DEFPOINTS
 62
     0
 48
10.0
100
AcDbPoint
 10
971.471727728042
 20
1514.043982891293
 30
0.0
  0
ENDBLK
  5
3BA6
330
3B9B
100
AcDbEntity
  8
0
 48
10.0
100
AcDbBlockEnd
  0
BLOCK
  5
3C76
330
3C6A
100
AcDbEntity
  8
0
 48
10.0
100
AcDbBlockBegin
  2
*D23
 70
     1
 10
0.0
 20
0.0
 30
0.0
  3
*D23
  1
*D23
  0
LINE
  5
40FA
330
3C6A
100
AcDbEntity
  8
寸法線
 62
     0
 48
10.0
100
AcDbLine
 10
624.163585977488
 20
1599.555671980182
 30
0.0
 11
624.163585977488
 21
1603.434719226299
 31
0.0
  0
LINE
  5
40FB
330
3C6A
100
AcDbEntity
  8
寸法線
 62
     0
 48
10.0
100
AcDbLine
 10
626.913603477488
 20
1602.809719226299
 30
0.0
 11
626.913603477488
 21
1603.434719226299
 31
0.0
  0
LINE
  5
40FC
330
3C6A
100
AcDbEntity
  8
寸法線
 62
     0
 48
10.0
100
AcDbLine
 10
618.163585977488
 20
1602.184719226299
 30
0.0
 11
612.163585977488
 21
1602.184719226299
 31
0.0
  0
LINE
  5
40FD
330
3C6A
100
AcDbEntity
  8
寸法線
 62
     0
 48
10.0
100
AcDbLine
 10
632.913603477488
 20
1602.184719226299
 30
0.0
 11
638.913603477488
 21
1602.184719226299
 31
0.0
  0
MTEXT
  5
40FE
330
3C6A
100
AcDbEntity
  8
寸法線
 62
     0
 48
10.0
100
AcDbMText
 10
644.116991895441
 20
1603.620255339584
 30
0.0
 40
8.0
 41
0.0
 71
     5
 72
     1
  1
\A1;1.5
  0
LINE
  5
40FF
330
3C6A
100
AcDbEntity
  8
寸法線
 62
     0
 48
10.0
100
AcDbLine
 10
624.163585977488
 20
1602.184719226299
 30
0.0
 11
626.913603477488
 21
1602.184719226299
 31
0.0
  0
INSERT
  5
4100
330
3C6A
100
AcDbEntity
  8
寸法線
 62
     0
 48
10.0
100
AcDbBlockReference
  2
_OPEN30
 10
624.163585977488
 20
1602.184719226299
 30
0.0
 41
6.0
 42
6.0
 43
6.0
  0
INSERT
  5
4101
330
3C6A
100
AcDbEntity
  8
寸法線
 62
     0
 48
10.0
100
AcDbBlockReference
  2
_OPEN30
 10
626.913603477488
 20
1602.184719226299
 30
0.0
 41
6.0
 42
6.0
 43
6.0
 50
180.0
  0
POINT
  5
4102
330
3C6A
100
AcDbEntity
  8
DEFPOINTS
 62
     0
 48
10.0
100
AcDbPoint
 10
624.163585977488
 20
1598.930671980182
 30
0.0
  0
POINT
  5
4103
330
3C6A
100
AcDbEntity
  8
DEFPOINTS
 62
     0
 48
10.0
100
AcDbPoint
 10
626.913603477488
 20
1602.184719226299
 30
0.0
  0
POINT
  5
4104
330
3C6A
100
AcDbEntity
  8
DEFPOINTS
 62
     0
 48
10.0
100
AcDbPoint
 10
626.913603477488
 20
1602.184719226299
 30
0.0
  0
ENDBLK
  5
3C77
330
3C6A
100
AcDbEntity
  8
0
 48
10.0
100
AcDbBlockEnd
  0
BLOCK
  5
3D6B
330
3D69
100
AcDbEntity
  8
0
 48
10.0
100
AcDbBlockBegin
  2
A$C33ED5A0F
 70
     0
 10
0.0
 20
0.0
 30
0.0
  3
A$C33ED5A0F
  1
A$C33ED5A0F
  0
LINE
  5
3D6A
330
3D69
100
AcDbEntity
  8
下書線
 48
10.0
100
AcDbLine
 10
72.665537001366
 20
0.000000461309
 30
0.0
 11
0.000001398175
 21
0.000000461309
 31
0.0
  0
ENDBLK
  5
3D6C
330
3D69
100
AcDbEntity
  8
0
 48
10.0
100
AcDbBlockEnd
  0
BLOCK
  5
3E09
330
3DFD
100
AcDbEntity
  8
0
 48
10.0
100
AcDbBlockBegin
  2
*D25
 70
     1
 10
0.0
 20
0.0
 30
0.0
  3
*D25
  1
*D25
  0
LINE
  5
4024
330
3DFD
100
AcDbEntity
  8
寸法線
 62
     0
 48
10.0
100
AcDbLine
 10
921.646727728042
 20
1631.77286044431
 30
0.0
 11
911.65817556948
 21
1631.77286044431
 31
0.0
  0
LINE
  5
4025
330
3DFD
100
AcDbEntity
  8
寸法線
 62
     0
 48
10.0
100
AcDbLine
 10
912.28317556948
 20
1641.772782944309
 30
0.0
 11
911.65817556948
 21
1641.772782944309
 31
0.0
  0
LINE
  5
4026
330
3DFD
100
AcDbEntity
  8
寸法線
 62
     0
 48
10.0
100
AcDbLine
 10
912.90817556948
 20
1625.77286044431
 30
0.0
 11
912.90817556948
 21
1619.77286044431
 31
0.0
  0
LINE
  5
4027
330
3DFD
100
AcDbEntity
  8
寸法線
 62
     0
 48
10.0
100
AcDbLine
 10
912.90817556948
 20
1647.772782944309
 30
0.0
 11
912.90817556948
 21
1653.772782944309
 31
0.0
  0
MTEXT
  5
4028
330
3DFD
100
AcDbEntity
  8
寸法線
 62
     0
 48
10.0
100
AcDbMText
 10
912.768111234878
 20
1662.926179614125
 30
0.0
 40
8.0
 41
0.0
 71
     5
 72
     1
  1
\A1;φ10
 11
6.123031769111886E-17
 21
1.0
 31
0.0
  0
LINE
  5
4029
330
3DFD
100
AcDbEntity
  8
寸法線
 62
     0
 48
10.0
100
AcDbLine
 10
912.90817556948
 20
1631.77286044431
 30
0.0
 11
912.90817556948
 21
1641.772782944309
 31
0.0
  0
INSERT
  5
402A
330
3DFD
100
AcDbEntity
  8
寸法線
 62
     0
 48
10.0
100
AcDbBlockReference
  2
_OPEN30
 10
912.90817556948
 20
1631.77286044431
 30
0.0
 41
6.0
 42
6.0
 43
6.0
 50
90.0
  0
INSERT
  5
402B
330
3DFD
100
AcDbEntity
  8
寸法線
 62
     0
 48
10.0
100
AcDbBlockReference
  2
_OPEN30
 10
912.90817556948
 20
1641.772782944309
 30
0.0
 41
6.0
 42
6.0
 43
6.0
 50
270.0
  0
POINT
  5
402C
330
3DFD
100
AcDbEntity
  8
DEFPOINTS
 62
     0
 48
10.0
100
AcDbPoint
 10
922.271727728042
 20
1631.77286044431
 30
0.0
  0
POINT
  5
402D
330
3DFD
100
AcDbEntity
  8
DEFPOINTS
 62
     0
 48
10.0
100
AcDbPoint
 10
912.90817556948
 20
1641.772782944309
 30
0.0
  0
POINT
  5
402E
330
3DFD
100
AcDbEntity
  8
DEFPOINTS
 62
     0
 48
10.0
100
AcDbPoint
 10
912.90817556948
 20
1641.772782944309
 30
0.0
  0
ENDBLK
  5
3E0A
330
3DFD
100
AcDbEntity
  8
0
 48
10.0
100
AcDbBlockEnd
  0
BLOCK
  5
40C5
330
40BB
100
AcDbEntity
  8
0
 48
10.0
100
AcDbBlockBegin
  2
*D26
 70
     1
 10
0.0
 20
0.0
 30
0.0
  3
*D26
  1
*D26
  0
LINE
  5
4113
330
40BB
100
AcDbEntity
  8
寸法線
 62
     0
 48
10.0
100
AcDbLine
 10
605.038595977489
 20
1649.226120177403
 30
0.0
 11
605.038595977489
 21
1707.734579226196
 31
0.0
  0
LINE
  5
4114
330
40BB
100
AcDbEntity
  8
寸法線
 62
     0
 48
10.0
100
AcDbLine
 10
646.038595977489
 20
1649.226120177403
 30
0.0
 11
646.038595977489
 21
1707.734579226196
 31
0.0
  0
LINE
  5
4115
330
40BB
100
AcDbEntity
  8
寸法線
 62
     0
 48
10.0
100
AcDbLine
 10
611.038595977489
 20
1706.484579226196
 30
0.0
 11
640.038595977489
 21
1706.484579226196
 31
0.0
  0
INSERT
  5
4116
330
40BB
100
AcDbEntity
  8
寸法線
 62
     0
 48
10.0
100
AcDbBlockReference
  2
_OPEN30
 10
605.038595977489
 20
1706.484579226196
 30
0.0
 41
6.0
 42
6.0
 43
6.0
 50
180.0
  0
INSERT
  5
4117
330
40BB
100
AcDbEntity
  8
寸法線
 62
     0
 48
10.0
100
AcDbBlockReference
  2
_OPEN30
 10
646.038595977489
 20
1706.484579226196
 30
0.0
 41
6.0
 42
6.0
 43
6.0
  0
MTEXT
  5
4118
330
40BB
100
AcDbEntity
  8
寸法線
 62
     0
 48
10.0
100
AcDbMText
 10
625.470510977488
 20
1711.109579226196
 30
0.0
 40
8.0
 41
0.0
 71
     5
 72
     1
  1
\A1;41
  0
POINT
  5
4119
330
40BB
100
AcDbEntity
  8
DEFPOINTS
 62
     0
 48
10.0
100
AcDbPoint
 10
605.038595977489
 20
1648.601120177403
 30
0.0
  0
POINT
  5
411A
330
40BB
100
AcDbEntity
  8
DEFPOINTS
 62
     0
 48
10.0
100
AcDbPoint
 10
646.038595977489
 20
1648.601120177403
 30
0.0
  0
POINT
  5
411B
330
40BB
100
AcDbEntity
  8
DEFPOINTS
 62
     0
 48
10.0
100
AcDbPoint
 10
646.038595977489
 20
1706.484579226196
 30
0.0
  0
ENDBLK
  5
40C6
330
40BB
100
AcDbEntity
  8
0
 48
10.0
100
AcDbBlockEnd
  0
ENDSEC
  0
SECTION
  2
ENTITIES
  0
DIMENSION
  5
2F10
330
1A
100
AcDbEntity
  8
寸法線
 48
10.0
100
AcDbDimension
  2
*D9
 10
876.471727728042
 20
1578.239382473444
 30
0.0
 11
836.471727728042
 21
1582.864382473444
 31
0.0
 70
    32
  3
ISO-25
100
AcDbAlignedDimension
 13
796.471727728042
 23
1596.765439659016
 33
0.0
 14
876.471727728042
 24
1624.765439659016
 34
0.0
100
AcDbRotatedDimension
1001
ACAD
1000
DSTYLE
1002
{
1070
     5
1000
OPEN30
1070
    41
1040
6.0
1070
    47
1040
0.1
1070
    48
1040
0.1
1070
    73
1070
     0
1070
   140
1040
8.0
1070
   271
1070
     1
1070
   272
1070
     1
1070
   341
1005
2AF4
1002
}
  0
DIMENSION
  5
2F11
330
1A
100
AcDbEntity
  8
寸法線
 48
10.0
100
AcDbDimension
  2
*D10
 10
774.512486438838
 20
1596.765439659016
 30
0.0
 11
769.887486438837
 21
1636.765439659016
 31
0.0
 70
    32
  3
ISO-25
100
AcDbAlignedDimension
 13
796.471727728042
 23
1676.765439659016
 33
0.0
 14
796.471727728042
 24
1596.765439659016
 34
0.0
 50
90.0
100
AcDbRotatedDimension
1001
ACAD
1000
DSTYLE
1002
{
1070
     5
1000
OPEN30
1070
    41
1040
6.0
1070
    47
1040
0.1
1070
    48
1040
0.1
1070
    73
1070
     0
1070
   140
1040
8.0
1070
   271
1070
     1
1070
   272
1070
     1
1070
   341
1005
2AF4
1002
}
  0
LINE
  5
3190
330
1A
100
AcDbEntity
  8
下書線
 48
10.0
100
AcDbLine
 10
755.323030323417
 20
1751.858629632394
 30
0.0
 11
1165.634727256055
 21
1751.858629632394
 31
0.0
  0
MTEXT
  5
3205
330
1A
100
AcDbEntity
  8
寸法線
 48
10.0
100
AcDbMText
 10
763.825323894695
 20
1760.49219784197
 30
0.0
 40
8.0
 41
0.0
 71
     1
 72
     5
  1
SUS304
  0
MTEXT
  5
3240
330
1A
100
AcDbEntity
  8
寸法線
 48
10.0
100
AcDbMText
 10
893.767070396968
 20
1760.481325171597
 30
0.0
 40
8.0
 41
17.617431142437
 71
     1
 72
     5
  1
BsBM
  0
MTEXT
  5
3243
330
1A
100
AcDbEntity
  8
寸法線
 48
10.0
100
AcDbMText
 10
971.008060070581
 20
1773.591560755021
 30
0.0
 40
8.0
 41
31.391412236184
 71
     1
 72
     5
  1
座金\PSS400
  0
LEADER
  5
3245
330
1A
100
AcDbEntity
  8
寸法線
 48
10.0
100
AcDbLeader
  3
ISO-25
 76
     3
 10
967.502426559774
 20
1665.515400909016
 30
0.0
 10
970.699439934381
 20
1751.820475732562
 30
0.0
 10
980.659389744399
 20
1751.820475732562
 30
0.0
1001
ACAD
1000
DSTYLE
1002
{
1070
     5
1000
OPEN30
1070
   147
1040
0.625
1070
    77
1070
     0
1070
    41
1040
6.0
1070
    47
1040
0.1
1070
    48
1040
0.1
1070
    73
1070
     0
1070
   140
1040
5.0
1070
   271
1070
     1
1070
   272
1070
     1
1070
   341
1005
2AF4
1070
   342
1005
2AF4
1002
}
  0
LEADER
  5
3247
330
1A
100
AcDbEntity
  8
寸法線
 48
10.0
100
AcDbLeader
  3
ISO-25
 76
     3
 10
1035.655166770959
 20
1687.765438909016
 30
0.0
 10
1068.0009814835
 20
1751.820475732562
 30
0.0
 10
1079.926409540576
 20
1751.820475732562
 30
0.0
1001
ACAD
1000
DSTYLE
1002
{
1070
     5
1000
OPEN30
1070
   147
1040
0.625
1070
    77
1070
     0
1070
    41
1040
6.0
1070
    47
1040
0.1
1070
    48
1040
0.1
1070
    73
1070
     0
1070
   140
1040
5.0
1070
   271
1070
     1
1070
   272
1070
     1
1070
   341
1005
2AF4
1070
   342
1005
2AF4
1002
}
  0
MTEXT
  5
3248
330
1A
100
AcDbEntity
  8
寸法線
 48
10.0
100
AcDbMText
 10
1068.743840580106
 20
1760.482888448371
 30
0.0
 40
8.0
 41
70.269720452548
 71
     1
 72
     5
  1
Oリング
  0
MTEXT
  5
3250
330
1A
100
AcDbEntity
  8
寸法線
 48
10.0
100
AcDbMText
 10
1112.418752871931
 20
1760.761423797378
 30
0.0
 40
8.0
 41
63.165795224124
 71
     1
 72
     5
  1
アルミ鋳物
  0
LEADER
  5
3251
330
1A
100
AcDbEntity
  8
寸法線
 48
10.0
100
AcDbLeader
  3
ISO-25
 76
     3
 10
1068.65775634909
 20
1684.710629909015
 30
0.0
 10
1111.171247431916
 20
1751.820475732562
 30
0.0
 10
1126.53353435993
 20
1751.820475732562
 30
0.0
1001
ACAD
1000
DSTYLE
1002
{
1070
     5
1000
OPEN30
1070
   147
1040
0.625
1070
    77
1070
     0
1070
    41
1040
6.0
1070
    47
1040
0.1
1070
    48
1040
0.1
1070
    73
1070
     0
1070
   140
1040
5.0
1070
   271
1070
     1
1070
   272
1070
     1
1070
   341
1005
2AF4
1070
   342
1005
2AF4
1002
}
  0
LEADER
  5
3356
330
1A
100
AcDbEntity
  8
寸法線
 48
10.0
100
AcDbLeader
  3
ISO-25
 76
     3
 10
945.346697728042
 20
1621.700169850169
 30
0.0
 10
932.058070340956
 20
1577.677099857218
 30
0.0
 10
896.422848608439
 20
1577.677099857218
 30
0.0
1001
ACAD
1000
DSTYLE
1002
{
1070
     5
1000
OPEN30
1070
   147
1040
0.625
1070
    77
1070
     0
1070
    41
1040
6.0
1070
    47
1040
0.1
1070
    48
1040
0.1
1070
    73
1070
     0
1070
   140
1040
5.0
1070
   271
1070
     1
1070
   272
1070
     1
1070
   341
1005
2AF4
1070
   342
1005
2AF4
1002
}
  0
MTEXT
  5
3357
330
1A
100
AcDbEntity
  8
寸法線
 48
10.0
100
AcDbMText
 10
896.809721155812
 20
1585.921722593945
 30
0.0
 40
8.0
 41
42.025950424568
 71
     1
 72
     5
  1
M30 P2
  0
LEADER
  5
35BC
330
1A
100
AcDbEntity
  8
寸法線
 48
10.0
100
AcDbLeader
  3
ISO-25
 76
     3
 10
1022.896533728042
 20
1568.190274909015
 30
0.0
 10
1045.40195766446
 20
1548.645947452174
 30
0.0
 10
1082.298546715656
 20
1548.645947452174
 30
0.0
1001
ACAD
1000
DSTYLE
1002
{
1070
     5
1000
OPEN30
1070
   147
1040
0.625
1070
    77
1070
     0
1070
    41
1040
6.0
1070
    47
1040
0.1
1070
    48
1040
0.1
1070
    73
1070
     0
1070
   140
1040
5.0
1070
   271
1070
     1
1070
   272
1070
     1
1070
   341
1005
2AF4
1070
   342
1005
2AF4
1002
}
  0
MTEXT
  5
35BD
330
1A
100
AcDbEntity
  8
寸法線
 48
10.0
100
AcDbMText
 10
1046.76946832771
 20
1570.652197089305
 30
0.0
 40
8.0
 41
65.843230169923
 71
     1
 72
     5
  1
導線取出口\PG 1/2"
  0
MTEXT
  5
35C6
330
1A
100
AcDbEntity
  8
寸法線
 48
10.0
100
AcDbMText
 10
927.017942641208
 20
1774.232934104352
 30
0.0
 40
8.0
 41
31.391412236184
 71
     1
 72
     5
  1
ナット\PSS400
  0
LEADER
  5
35C7
330
1A
100
AcDbEntity
  8
寸法線
 48
10.0
100
AcDbLeader
  3
ISO-25
 76
     3
 10
960.788393875715
 20
1659.203219050816
 30
0.0
 10
956.011055892749
 20
1752.019043994145
 30
0.0
 10
945.295725530141
 20
1752.019043994145
 30
0.0
1001
ACAD
1000
DSTYLE
1002
{
1070
     5
1000
OPEN30
1070
   147
1040
0.625
1070
    77
1070
     0
1070
    41
1040
6.0
1070
    47
1040
0.1
1070
    48
1040
0.1
1070
    73
1070
     0
1070
   140
1040
5.0
1070
   271
1070
     1
1070
   272
1070
     1
1070
   341
1005
2AF4
1070
   342
1005
2AF4
1002
}
  0
LEADER
  5
35C9
330
1A
100
AcDbEntity
  8
寸法線
 48
10.0
100
AcDbLeader
  3
ISO-25
 76
     3
 10
937.005124349635
 20
1650.515440909016
 30
0.0
 10
918.207691145551
 20
1751.820475732562
 30
0.0
 10
907.682264382953
 20
1751.820475732562
 30
0.0
1001
ACAD
1000
DSTYLE
1002
{
1070
     5
1000
OPEN30
1070
   147
1040
0.625
1070
    77
1070
     0
1070
    41
1040
6.0
1070
    47
1040
0.1
1070
    48
1040
0.1
1070
    73
1070
     0
1070
   140
1040
5.0
1070
   271
1070
     1
1070
   272
1070
     1
1070
   341
1005
2AF4
1070
   342
1005
2AF4
1002
}
  0
LEADER
  5
35CC
330
1A
100
AcDbEntity
  8
寸法線
 48
10.0
100
AcDbLeader
  3
ISO-25
 76
     3
 10
810.984062688753
 20
1676.765439659016
 30
0.0
 10
797.810806550906
 20
1751.820475732562
 30
0.0
 10
785.087587580988
 20
1751.820475732562
 30
0.0
1001
ACAD
1000
DSTYLE
1002
{
1070
     5
1000
OPEN30
1070
   147
1040
0.625
1070
    77
1070
     0
1070
    41
1040
6.0
1070
    47
1040
0.1
1070
    48
1040
0.1
1070
    73
1070
     0
1070
   140
1040
5.0
1070
   271
1070
     1
1070
   272
1070
     1
1070
   341
1005
2AF4
1070
   342
1005
2AF4
1002
}
  0
ARC
  5
382F
330
1A
100
AcDbEntity
  8
外形線
100
AcDbCircle
 10
646.102257904276
 20
1591.523435299036
 30
0.0
 40
4.0
100
AcDbArc
 50
114.443025365217
 51
172.420956229589
  0
ARC
  5
3830
330
1A
100
AcDbEntity
  8
外形線
100
AcDbCircle
 10
605.093381691584
 20
1591.469784644974
 30
0.0
 40
4.0
100
AcDbArc
 50
7.289673304173
 51
65.706891168757
  0
ARC
  5
3831
330
1A
100
AcDbEntity
  8
外形線
100
AcDbCircle
 10
625.538595977489
 20
1636.765439659016
 30
0.0
 40
45.696108
100
AcDbArc
 50
294.443025365217
 51
245.706891168757
  0
ARC
  5
3832
330
1A
100
AcDbEntity
  8
外形線
100
AcDbCircle
 10
625.538595977489
 20
1636.765439659016
 30
0.0
 40
51.0000619999998
100
AcDbArc
 50
288.413707533473
 51
251.700960080537
  0
ARC
  5
3833
330
1A
100
AcDbEntity
  8
細線
100
AcDbCircle
 10
612.823890571387
 20
1618.21721475084
 30
0.0
 40
57.30987496239921
100
AcDbArc
 50
270.14826109759
 51
282.818238208934
  0
ARC
  5
3834
330
1A
100
AcDbEntity
  8
細線
100
AcDbCircle
 10
638.25330138359
 20
1618.21721475084
 30
0.0
 40
57.30987496239921
100
AcDbArc
 50
257.181761791066
 51
269.85173890241
  0
LINE
  5
3835
330
1A
100
AcDbEntity
  8
細線
100
AcDbLine
 10
625.538595977489
 20
1566.048339659016
 30
0.0
 11
625.538595977489
 21
1562.335571659016
 31
0.0
  0
LINE
  5
3836
330
1A
100
AcDbEntity
  8
細線
100
AcDbLine
 10
618.398581977488
 20
1570.332335659016
 30
0.0
 11
618.398581977488
 21
1566.048339659016
 31
0.0
  0
LINE
  5
3837
330
1A
100
AcDbEntity
  8
細線
100
AcDbLine
 10
632.678611977488
 20
1570.332335659016
 30
0.0
 11
632.678611977488
 21
1566.048339659016
 31
0.0
  0
LINE
  5
3838
330
1A
100
AcDbEntity
  8
外形線
100
AcDbLine
 10
612.972189977488
 20
1560.907531659016
 30
0.0
 11
638.105003977488
 21
1560.907531659016
 31
0.0
  0
LINE
  5
3839
330
1A
100
AcDbEntity
  8
外形線
100
AcDbLine
 10
611.544211977488
 20
1566.048339659016
 30
0.0
 11
639.533103977488
 21
1566.048339659016
 31
0.0
  0
LINE
  5
383A
330
1A
100
AcDbEntity
  8
外形線
100
AcDbLine
 10
614.343771977488
 20
1570.332365659016
 30
0.0
 11
636.746237977488
 21
1570.332365659016
 31
0.0
  0
LINE
  5
383B
330
1A
100
AcDbEntity
  8
外形線
100
AcDbLine
 10
639.533103977488
 20
1562.335571659016
 30
0.0
 11
638.105003977488
 21
1560.907531659016
 31
0.0
  0
LINE
  5
383C
330
1A
100
AcDbEntity
  8
外形線
100
AcDbLine
 10
639.533103977488
 20
1566.048339659016
 30
0.0
 11
639.533103977488
 21
1562.335571659016
 31
0.0
  0
LINE
  5
383D
330
1A
100
AcDbEntity
  8
外形線
100
AcDbLine
 10
634.963401977489
 20
1566.048339659016
 30
0.0
 11
634.963401977489
 21
1570.332335659016
 31
0.0
  0
LINE
  5
383E
330
1A
100
AcDbEntity
  8
外形線
100
AcDbLine
 10
611.544211977488
 20
1562.335571659016
 30
0.0
 11
612.972189977488
 21
1560.907531659016
 31
0.0
  0
LINE
  5
383F
330
1A
100
AcDbEntity
  8
外形線
100
AcDbLine
 10
611.544211977488
 20
1566.048339659016
 30
0.0
 11
611.544211977488
 21
1562.335571659016
 31
0.0
  0
LINE
  5
3840
330
1A
100
AcDbEntity
  8
外形線
100
AcDbLine
 10
616.113791977488
 20
1566.048339659016
 30
0.0
 11
616.113791977488
 21
1570.332335659016
 31
0.0
  0
ARC
  5
3841
330
1A
100
AcDbEntity
  8
外形線
100
AcDbCircle
 10
636.746237977488
 20
1573.188353659016
 30
0.0
 40
2.856
100
AcDbArc
 50
270.0
 51
352.421011277475
  0
LINE
  5
3842
330
1A
100
AcDbEntity
  8
外形線
100
AcDbLine
 10
642.137202514625
 20
1592.051010655739
 30
0.0
 11
639.577287887608
 21
1572.81166757431
 31
0.0
  0
ARC
  5
3843
330
1A
100
AcDbEntity
  8
外形線
100
AcDbCircle
 10
614.343771977488
 20
1573.188353659016
 30
0.0
 40
2.856
100
AcDbArc
 50
187.289418100615
 51
270.0
  0
LINE
  5
3844
330
1A
100
AcDbEntity
  8
外形線
100
AcDbLine
 10
609.06105100338
 20
1591.977327975372
 30
0.0
 11
611.510885977488
 21
1572.825987659016
 31
0.0
  0
LINE
  5
389C
330
1A
100
AcDbEntity
  8
外形線
  6
CONTINUOUS
 62
     0
100
AcDbLine
 10
624.163585977488
 20
1676.765439659016
 30
0.0
 11
626.913603477488
 21
1676.765439659016
 31
0.0
  0
ARC
  5
3A53
330
1A
100
AcDbEntity
  8
細線
100
AcDbCircle
 10
973.721727728042
 20
1636.765439659016
 30
0.0
 40
18.75000000000005
100
AcDbArc
 50
143.130102354166
 51
216.869897645834
  0
LINE
  5
3A54
330
1A
100
AcDbEntity
  8
外形線
100
AcDbLine
 10
941.471727728043
 20
1651.76544154461
 30
0.0
 11
941.471727728042
 21
1621.76544029461
 31
0.0
  0
LINE
  5
3A55
330
1A
100
AcDbEntity
  8
外形線
100
AcDbLine
 10
922.271727728042
 20
1649.265440909016
 30
0.0
 11
922.271727728042
 21
1624.265440909016
 31
0.0
  0
LINE
  5
3A56
330
1A
100
AcDbEntity
  8
細線
100
AcDbLine
 10
923.521727728042
 20
1623.015440909016
 30
0.0
 11
923.521727728042
 21
1650.515440909016
 31
0.0
  0
LINE
  5
3A57
330
1A
100
AcDbEntity
  8
外形線
100
AcDbLine
 10
971.471727728042
 20
1613.765487159016
 30
0.0
 11
971.471727728042
 21
1659.765394659016
 31
0.0
  0
LINE
  5
3A58
330
1A
100
AcDbEntity
  8
外形線
100
AcDbLine
 10
964.971727728042
 20
1665.515401534016
 30
0.0
 11
964.971727728042
 21
1608.015479034016
 31
0.0
  0
LINE
  5
3A59
330
1A
100
AcDbEntity
  8
外形線
100
AcDbLine
 10
954.971727728042
 20
1655.515399659016
 30
0.0
 11
954.971727728042
 21
1618.015477159016
 31
0.0
  0
LINE
  5
3A5A
330
1A
100
AcDbEntity
  8
外形線
100
AcDbLine
 10
969.471727728042
 20
1665.515401534016
 30
0.0
 11
969.471727728042
 21
1608.015479034016
 31
0.0
  0
LINE
  5
3A5B
330
1A
100
AcDbEntity
  8
外形線
100
AcDbLine
 10
971.471727728042
 20
1611.265486534016
 30
0.0
 11
971.471727728042
 21
1662.265394034016
 31
0.0
  0
LINE
  5
3A5C
330
1A
100
AcDbEntity
  8
細線
100
AcDbLine
 10
958.721726321793
 20
1625.515441534016
 30
0.0
 11
964.971727728042
 21
1625.515441534016
 31
0.0
  0
LINE
  5
3A5D
330
1A
100
AcDbEntity
  8
外形線
100
AcDbLine
 10
958.721727728042
 20
1614.265477159016
 30
0.0
 11
964.971727728042
 21
1614.265479034016
 31
0.0
  0
ARC
  5
3A5E
330
1A
100
AcDbEntity
  8
細線
100
AcDbCircle
 10
966.619354137033
 20
1616.879120394046
 30
0.0
 40
11.70292755435463
100
AcDbArc
 50
132.44187763551
 51
174.42777554729
  0
LINE
  5
3A5F
330
1A
100
AcDbEntity
  8
外形線
100
AcDbLine
 10
954.971727728042
 20
1618.015477159016
 30
0.0
 11
958.721727728042
 21
1614.265477159016
 31
0.0
  0
LINE
  5
3A60
330
1A
100
AcDbEntity
  8
外形線
100
AcDbLine
 10
941.471727728042
 20
1623.015440909016
 30
0.0
 11
923.521727728042
 21
1623.015440909016
 31
0.0
  0
LINE
  5
3A61
330
1A
100
AcDbEntity
  8
細線
100
AcDbLine
 10
923.521727728042
 20
1635.765455909016
 30
0.0
 11
941.471727728042
 21
1635.765455909016
 31
0.0
  0
LINE
  5
3A62
330
1A
100
AcDbEntity
  8
細線
100
AcDbLine
 10
923.521727728042
 20
1633.765448409016
 30
0.0
 11
941.471727728042
 21
1633.765448409016
 31
0.0
  0
LINE
  5
3A63
330
1A
100
AcDbEntity
  8
細線
100
AcDbLine
 10
923.521727728042
 20
1631.765440909016
 30
0.0
 11
941.471727728042
 21
1631.765440909016
 31
0.0
  0
LINE
  5
3A64
330
1A
100
AcDbEntity
  8
細線
100
AcDbLine
 10
923.521727728042
 20
1629.765430909016
 30
0.0
 11
941.471727728042
 21
1629.765430909016
 31
0.0
  0
LINE
  5
3A65
330
1A
100
AcDbEntity
  8
細線
100
AcDbLine
 10
923.521727728042
 20
1627.765423409016
 30
0.0
 11
941.471727728042
 21
1627.765423409016
 31
0.0
  0
LINE
  5
3A66
330
1A
100
AcDbEntity
  8
細線
100
AcDbLine
 10
923.521727728042
 20
1623.765408409016
 30
0.0
 11
941.471727728042
 21
1623.765408409016
 31
0.0
  0
LINE
  5
3A67
330
1A
100
AcDbEntity
  8
細線
100
AcDbLine
 10
923.521727728042
 20
1625.765415909016
 30
0.0
 11
941.471727728042
 21
1625.765415909016
 31
0.0
  0
LINE
  5
3A68
330
1A
100
AcDbEntity
  8
外形線
100
AcDbLine
 10
922.271727728042
 20
1624.265440909016
 30
0.0
 11
923.521727728042
 21
1623.015440909016
 31
0.0
  0
LINE
  5
3A69
330
1A
100
AcDbEntity
  8
細線
100
AcDbLine
 10
941.471727728042
 20
1624.265441534016
 30
0.0
 11
954.971727728042
 21
1624.265441534016
 31
0.0
  0
LINE
  5
3A6A
330
1A
100
AcDbEntity
  8
外形線
100
AcDbLine
 10
941.471727728042
 20
1621.765441534015
 30
0.0
 11
954.971727728042
 21
1621.765441534016
 31
0.0
  0
LINE
  5
3A6C
330
1A
100
AcDbEntity
  8
外形線
100
AcDbLine
 10
971.471727728042
 20
1611.265486534016
 30
0.0
 11
969.471727728043
 21
1611.265486534016
 31
0.0
  0
LINE
  5
3A6D
330
1A
100
AcDbEntity
  8
外形線
100
AcDbLine
 10
969.471727728042
 20
1608.015479034016
 30
0.0
 11
964.971727728042
 21
1608.015479034016
 31
0.0
  0
LINE
  5
3A6F
330
1A
100
AcDbEntity
  8
細線
100
AcDbLine
 10
958.721729134292
 20
1648.015441534016
 30
0.0
 11
964.971727728042
 21
1648.015441534016
 31
0.0
  0
LINE
  5
3A70
330
1A
100
AcDbEntity
  8
外形線
100
AcDbLine
 10
958.721729603042
 20
1659.265401534016
 30
0.0
 11
964.971727728042
 21
1659.265401534016
 31
0.0
  0
LINE
  5
3A71
330
1A
100
AcDbEntity
  8
外形線
100
AcDbLine
 10
958.721727728042
 20
1659.265399659016
 30
0.0
 11
954.971727728042
 21
1655.515399659016
 31
0.0
  0
LINE
  5
3A72
330
1A
100
AcDbEntity
  8
外形線
100
AcDbLine
 10
941.471727728042
 20
1650.515440909016
 30
0.0
 11
923.521727728042
 21
1650.515440909016
 31
0.0
  0
LINE
  5
3A73
330
1A
100
AcDbEntity
  8
細線
100
AcDbLine
 10
923.521727728042
 20
1637.765423409016
 30
0.0
 11
941.471727728042
 21
1637.765423409016
 31
0.0
  0
LINE
  5
3A74
330
1A
100
AcDbEntity
  8
細線
100
AcDbLine
 10
923.521727728042
 20
1639.765430909016
 30
0.0
 11
941.471727728042
 21
1639.765430909016
 31
0.0
  0
LINE
  5
3A75
330
1A
100
AcDbEntity
  8
細線
100
AcDbLine
 10
923.521727728042
 20
1641.765440909016
 30
0.0
 11
941.471727728042
 21
1641.765440909016
 31
0.0
  0
LINE
  5
3A76
330
1A
100
AcDbEntity
  8
細線
100
AcDbLine
 10
923.521727728042
 20
1643.765448409016
 30
0.0
 11
941.471727728042
 21
1643.765448409016
 31
0.0
  0
LINE
  5
3A77
330
1A
100
AcDbEntity
  8
細線
100
AcDbLine
 10
923.521727728042
 20
1645.765455909016
 30
0.0
 11
941.471727728042
 21
1645.765455909016
 31
0.0
  0
LINE
  5
3A78
330
1A
100
AcDbEntity
  8
細線
100
AcDbLine
 10
923.521727728042
 20
1649.765470909016
 30
0.0
 11
941.471727728042
 21
1649.765470909016
 31
0.0
  0
LINE
  5
3A79
330
1A
100
AcDbEntity
  8
細線
100
AcDbLine
 10
923.521727728042
 20
1647.765463409016
 30
0.0
 11
941.471727728042
 21
1647.765463409016
 31
0.0
  0
LINE
  5
3A7A
330
1A
100
AcDbEntity
  8
外形線
100
AcDbLine
 10
922.271727728042
 20
1649.265440909016
 30
0.0
 11
923.521727728042
 21
1650.515440909016
 31
0.0
  0
ARC
  5
3A7B
330
1A
100
AcDbEntity
  8
細線
100
AcDbCircle
 10
966.619354137033
 20
1656.651758923987
 30
0.0
 40
11.70292755435463
100
AcDbArc
 50
185.57222445271
 51
227.55812236449
  0
LINE
  5
3A7C
330
1A
100
AcDbEntity
  8
細線
100
AcDbLine
 10
941.471727728042
 20
1649.265441534016
 30
0.0
 11
954.971727728042
 21
1649.265441534016
 31
0.0
  0
LINE
  5
3A7D
330
1A
100
AcDbEntity
  8
外形線
100
AcDbLine
 10
941.471727728043
 20
1651.765441534016
 30
0.0
 11
954.971727728042
 21
1651.765441534016
 31
0.0
  0
LINE
  5
3A7F
330
1A
100
AcDbEntity
  8
外形線
100
AcDbLine
 10
971.471727728042
 20
1662.265394034016
 30
0.0
 11
969.471727728043
 21
1662.265394034016
 31
0.0
  0
LINE
  5
3A80
330
1A
100
AcDbEntity
  8
外形線
100
AcDbLine
 10
969.471727728042
 20
1665.515401534016
 30
0.0
 11
964.971727728042
 21
1665.515401534015
 31
0.0
  0
LINE
  5
3AC4
330
1A
100
AcDbEntity
  8
外形線
100
AcDbLine
 10
891.471727728042
 20
1644.91685794431
 30
0.0
 11
891.471727728042
 21
1628.62893794431
 31
0.0
  0
INSERT
  5
3AC8
330
1A
100
AcDbEntity
  8
外形線
 48
10.0
100
AcDbBlockReference
  2
パドル_W1
 10
738.170611818542
 20
1416.113677737205
 30
0.0
  0
INSERT
  5
3AE4
330
1A
100
AcDbEntity
  8
外形線
 48
10.0
100
AcDbBlockReference
  2
A$C480F1F2B
 10
891.471726226531
 20
1628.490488259962
 30
0.0
  0
LINE
  5
3AE5
330
1A
100
AcDbEntity
  8
外形線
100
AcDbLine
 10
899.971727728043
 20
1641.77278294431
 30
0.0
 11
922.271727728042
 21
1641.772782944309
 31
0.0
  0
LINE
  5
3AE6
330
1A
100
AcDbEntity
  8
外形線
100
AcDbLine
 10
899.971727728043
 20
1631.77286044431
 30
0.0
 11
922.271727728042
 21
1631.77286044431
 31
0.0
  0
DIMENSION
  5
3AE8
330
1A
100
AcDbEntity
  8
寸法線
 48
10.0
100
AcDbDimension
  2
*D18
 10
1118.487079178323
 20
1585.765438909015
 30
0.0
 11
1118.487079178323
 21
1636.765438909016
 31
0.0
 70
   160
  1
φ<>
  3
ISO-25
100
AcDbAlignedDimension
 13
1052.178881728043
 23
1687.765438909016
 33
0.0
 14
1052.178881728043
 24
1585.765438909015
 34
0.0
 50
90.0
100
AcDbRotatedDimension
1001
ACAD
1000
DSTYLE
1002
{
1070
     5
1000
OPEN30
1070
    41
1040
6.0
1070
    47
1040
0.1
1070
    48
1040
0.1
1070
    73
1070
     0
1070
   140
1040
8.0
1070
   271
1070
     1
1070
   272
1070
     1
1070
   341
1005
2AF4
1002
}
  0
DIMENSION
  5
3B07
330
1A
100
AcDbEntity
  8
寸法線
 48
10.0
100
AcDbDimension
  2
*D19
 10
1013.471727728042
 20
1532.703226293389
 30
0.0
 11
1054.971727728042
 21
1537.328226293389
 31
0.0
 70
    32
  3
ISO-25
100
AcDbAlignedDimension
 13
1096.471727728042
 23
1605.255052581373
 33
0.0
 14
1013.471727728042
 24
1554.822324909015
 34
0.0
100
AcDbRotatedDimension
1001
ACAD
1000
DSTYLE
1002
{
1070
     5
1000
OPEN30
1070
    41
1040
6.0
1070
    47
1040
0.1
1070
    48
1040
0.1
1070
    73
1070
     0
1070
   140
1040
8.0
1070
   271
1070
     1
1070
   272
1070
     1
1070
   341
1005
2AF4
1002
}
  0
DIMENSION
  5
3B63
330
1A
100
AcDbEntity
  8
寸法線
 48
10.0
100
AcDbDimension
  2
*D20
 10
971.471727728042
 20
1532.703226293389
 30
0.0
 11
956.471727728042
 21
1532.703226293389
 31
0.0
 70
   160
  3
ISO-25
100
AcDbAlignedDimension
 13
941.471727728042
 23
1621.685887307491
 33
0.0
 14
971.471727728042
 24
1610.127375845003
 34
0.0
100
AcDbRotatedDimension
1001
ACAD
1000
DSTYLE
1002
{
1070
     5
1000
OPEN30
1070
    41
1040
6.0
1070
    47
1040
0.1
1070
    48
1040
0.1
1070
    73
1070
     0
1070
   140
1040
8.0
1070
   271
1070
     1
1070
   272
1070
     1
1070
   341
1005
2AF4
1002
}
  0
DIMENSION
  5
3B70
330
1A
100
AcDbEntity
  8
寸法線
 48
10.0
100
AcDbDimension
  2
*D21
 10
1096.471727728042
 20
1513.997162297084
 30
0.0
 11
1034.465642425398
 21
1513.997162297084
 31
0.0
 70
   160
  1
125
  3
ISO-25
100
AcDbAlignedDimension
 13
971.471727728042
 23
1527.751929365584
 33
0.0
 14
1096.471727728042
 24
1532.703226293389
 34
0.0
100
AcDbRotatedDimension
1001
ACAD
1000
DSTYLE
1002
{
1070
     5
1000
OPEN30
1070
    41
1040
6.0
1070
    47
1040
0.1
1070
    48
1040
0.1
1070
    73
1070
     0
1070
   140
1040
8.0
1070
   271
1070
     1
1070
   272
1070
     1
1070
   341
1005
2AF4
1002
}
  0
DIMENSION
  5
3B9A
330
1A
100
AcDbEntity
  8
寸法線
 48
10.0
100
AcDbDimension
  2
*D22
 10
971.471727728042
 20
1514.043982891293
 30
0.0
 11
883.971727728042
 21
1518.668982891293
 31
0.0
 70
    32
  3
ISO-25
100
AcDbAlignedDimension
 13
796.471727728042
 23
1576.989382473444
 33
0.0
 14
971.471727728042
 24
1531.453226293389
 34
0.0
100
AcDbRotatedDimension
1001
ACAD
1000
DSTYLE
1002
{
1070
     5
1000
OPEN30
1070
    41
1040
6.0
1070
    47
1040
0.1
1070
    48
1040
0.1
1070
    73
1070
     0
1070
   140
1040
8.0
1070
   271
1070
     1
1070
   272
1070
     1
1070
   341
1005
2AF4
1002
}
  0
LINE
  5
3C01
330
1A
100
AcDbEntity
  8
中心線
 48
10.0
100
AcDbLine
 10
784.886275580679
 20
1636.765439659016
 30
0.0
 11
1098.275614795474
 21
1636.765439659016
 31
0.0
  0
LEADER
  5
3C13
330
1A
100
AcDbEntity
  8
寸法線
 48
10.0
100
AcDbLeader
  3
ISO-25
 76
     3
 10
1008.070683701706
 20
1681.411557909016
 30
0.0
 10
1007.921177624777
 20
1751.820475732562
 30
0.0
 10
1018.148254232368
 20
1751.820475732562
 30
0.0
1001
ACAD
1000
DSTYLE
1002
{
1070
     5
1000
OPEN30
1070
   147
1040
0.625
1070
    77
1070
     0
1070
    41
1040
6.0
1070
    47
1040
0.1
1070
    48
1040
0.1
1070
    73
1070
     0
1070
   140
1040
5.0
1070
   271
1070
     1
1070
   272
1070
     1
1070
   341
1005
2AF4
1070
   342
1005
2AF4
1002
}
  0
MTEXT
  5
3C14
330
1A
100
AcDbEntity
  8
寸法線
 48
10.0
100
AcDbMText
 10
1007.569252213577
 20
1760.761423797378
 30
0.0
 40
8.0
 41
63.165795224124
 71
     1
 72
     5
  1
アルミ鋳物
  0
LINE
  5
3C19
330
1A
100
AcDbEntity
  8
中心線
 48
10.0
100
AcDbLine
 10
561.297071487271
 20
1636.765439659016
 30
0.0
 11
691.941639411042
 21
1636.765439659016
 31
0.0
  0
LINE
  5
3C1A
330
1A
100
AcDbEntity
  8
中心線
 48
10.0
100
AcDbLine
 10
625.538595977489
 20
1700.475843700755
 30
0.0
 11
625.538595977489
 21
1546.145549659016
 31
0.0
  0
DIMENSION
  5
3C4C
330
1A
100
AcDbEntity
  8
寸法線
 48
10.0
100
AcDbDimension
  2
*D23
 10
626.913603477488
 20
1602.184719226299
 30
0.0
 11
644.116991895441
 21
1603.620255339584
 31
0.0
 70
   160
  1
1.5
  3
ISO-25
100
AcDbAlignedDimension
 13
624.163585977488
 23
1598.930671980182
 33
0.0
 14
626.913603477488
 24
1602.184719226299
 34
0.0
100
AcDbRotatedDimension
1001
ACAD
1000
DSTYLE
1002
{
1070
   287
1070
     5
1070
     5
1000
OPEN30
1070
    41
1040
6.0
1070
    47
1040
0.1
1070
    48
1040
0.1
1070
    73
1070
     0
1070
   140
1040
8.0
1070
   271
1070
     1
1070
   272
1070
     1
1070
   279
1070
     2
1070
   341
1005
2AF4
1002
}
  0
ARC
  5
3C4D
330
1A
100
AcDbEntity
  8
外形線
100
AcDbCircle
 10
625.538595977489
 20
1636.765439659016
 30
0.0
 40
29.9999975
100
AcDbArc
 50
272.62701261455
 51
87.373027081139
  0
LINE
  5
3C4E
330
1A
100
AcDbEntity
  8
外形線
100
AcDbLine
 10
626.913603477488
 20
1676.756969659016
 30
0.0
 11
626.913603477488
 21
1596.756969659016
 31
0.0
  0
LINE
  5
3C4F
330
1A
100
AcDbEntity
  8
外形線
100
AcDbLine
 10
624.163585977488
 20
1596.756969659016
 30
0.0
 11
626.913603477488
 21
1596.756969659016
 31
0.0
  0
ARC
  5
3C50
330
1A
100
AcDbEntity
  8
外形線
100
AcDbCircle
 10
625.538595977489
 20
1636.765439659016
 30
0.0
 40
29.9999975
100
AcDbArc
 50
92.626992766709
 51
267.372989633202
  0
LINE
  5
3C51
330
1A
100
AcDbEntity
  8
外形線
100
AcDbLine
 10
624.163585977488
 20
1676.756969659016
 30
0.0
 11
624.163585977488
 21
1596.756969659016
 31
0.0
  0
LINE
  5
3C52
330
1A
100
AcDbEntity
  8
外形線
100
AcDbLine
 10
626.913603477488
 20
1659.642939745528
 30
0.0
 11
646.038595977489
 21
1648.601120177403
 31
0.0
  0
ARC
  5
3C55
330
1A
100
AcDbEntity
  8
外形線
100
AcDbCircle
 10
625.538595977489
 20
1636.765439659016
 30
0.0
 40
15.0
100
AcDbArc
 50
275.259524500055
 51
84.740457899851
  0
ARC
  5
3C56
330
1A
100
AcDbEntity
  8
外形線
100
AcDbCircle
 10
625.538595977489
 20
1636.765439659016
 30
0.0
 40
13.75
100
AcDbArc
 50
275.73920476614
 51
84.260777633768
  0
ARC
  5
3C57
330
1A
100
AcDbEntity
  8
細線
100
AcDbCircle
 10
625.538595977489
 20
1636.765439659016
 30
0.0
 40
12.50846999999987
100
AcDbArc
 50
276.311056388065
 51
83.688943611935
  0
LINE
  5
3C58
330
1A
100
AcDbEntity
  8
外形線
100
AcDbLine
 10
626.913603477488
 20
1629.423885609278
 30
0.0
 11
632.584072037818
 21
1632.697732159016
 31
0.0
  0
LINE
  5
3C59
330
1A
100
AcDbEntity
  8
外形線
100
AcDbLine
 10
632.584072037818
 20
1632.697732159016
 30
0.0
 11
632.584072037818
 21
1640.833147159016
 31
0.0
  0
ARC
  5
3C5A
330
1A
100
AcDbEntity
  8
細線
100
AcDbCircle
 10
625.538595977489
 20
1636.765439659016
 30
0.0
 40
8.135415000000075
100
AcDbArc
 50
279.730556408162
 51
80.269443591838
  0
ARC
  5
3C5B
330
1A
100
AcDbEntity
  8
細線
100
AcDbCircle
 10
625.538595977489
 20
1636.765439659016
 30
0.0
 40
7.045481151601374
100
AcDbArc
 50
281.254165008758
 51
78.745834991242
  0
LINE
  5
3C5C
330
1A
100
AcDbEntity
  8
外形線
100
AcDbLine
 10
605.038595977489
 20
1648.601120177404
 30
0.0
 11
605.038595977489
 21
1624.929759140628
 31
0.0
  0
ARC
  5
3C5F
330
1A
100
AcDbEntity
  8
外形線
100
AcDbCircle
 10
625.538595977489
 20
1636.765439659016
 30
0.0
 40
15.0
100
AcDbArc
 50
95.259561947996
 51
264.740477747692
  0
ARC
  5
3C60
330
1A
100
AcDbEntity
  8
外形線
100
AcDbCircle
 10
625.538595977489
 20
1636.765439659016
 30
0.0
 40
13.75
100
AcDbArc
 50
95.739184918296
 51
264.260797481605
  0
ARC
  5
3C61
330
1A
100
AcDbEntity
  8
細線
100
AcDbCircle
 10
625.538595977489
 20
1636.765439659016
 30
0.0
 40
12.50846999999987
100
AcDbArc
 50
96.311067909281
 51
263.688932090719
  0
LINE
  5
3C62
330
1A
100
AcDbEntity
  8
外形線
100
AcDbLine
 10
618.493119917159
 20
1640.833147159016
 30
0.0
 11
618.493119917159
 21
1632.697732159016
 31
0.0
  0
LINE
  5
3C63
330
1A
100
AcDbEntity
  8
外形線
100
AcDbLine
 10
618.493119917159
 20
1632.697732159016
 30
0.0
 11
624.163585977488
 21
1629.423887052653
 31
0.0
  0
ARC
  5
3C64
330
1A
100
AcDbEntity
  8
細線
100
AcDbCircle
 10
625.538595977489
 20
1636.765439659016
 30
0.0
 40
8.135415000000075
100
AcDbArc
 50
99.730574272069
 51
260.269425727931
  0
ARC
  5
3C65
330
1A
100
AcDbEntity
  8
細線
100
AcDbCircle
 10
625.538595977489
 20
1636.765439659016
 30
0.0
 40
7.045481151601374
100
AcDbArc
 50
101.25418573804
 51
258.74581426196
  0
LINE
  5
3C67
330
1A
100
AcDbEntity
  8
外形線
100
AcDbLine
 10
624.163585977488
 20
1644.106992265379
 30
0.0
 11
618.493119917159
 21
1640.833147159016
 31
0.0
  0
LINE
  5
3C69
330
1A
100
AcDbEntity
  8
外形線
100
AcDbLine
 10
632.584072037818
 20
1640.833147159016
 30
0.0
 11
626.913603477488
 21
1644.106993708754
 31
0.0
  0
LINE
  5
3C99
330
1A
100
AcDbEntity
  8
細線
 48
10.0
100
AcDbLine
 10
611.999309378601
 20
1593.121173085492
 30
0.0
 11
639.719602321094
 21
1593.121173085492
 31
0.0
  0
DIMENSION
  5
3DFC
330
1A
100
AcDbEntity
  8
寸法線
 48
10.0
100
AcDbDimension
  2
*D25
 10
912.90817556948
 20
1641.772782944309
 30
0.0
 11
912.768111234878
 21
1662.926179614125
 31
0.0
 70
   160
  1
φ10
  3
ISO-25
100
AcDbAlignedDimension
 13
922.271727728042
 23
1631.77286044431
 33
0.0
 14
912.90817556948
 24
1641.772782944309
 34
0.0
 50
90.0
100
AcDbRotatedDimension
1001
ACAD
1000
DSTYLE
1002
{
1070
   287
1070
     5
1070
     5
1000
OPEN30
1070
    41
1040
6.0
1070
    47
1040
0.1
1070
    48
1040
0.1
1070
    73
1070
     0
1070
   140
1040
8.0
1070
   271
1070
     1
1070
   272
1070
     1
1070
   279
1070
     2
1070
   341
1005
2AF4
1002
}
  0
MTEXT
  5
3F70
330
1A
100
AcDbEntity
  8
寸法線
 48
10.0
100
AcDbMText
 10
848.288946818776
 20
1760.415810776361
 30
0.0
 40
8.0
 41
0.0
 71
     1
 72
     5
  1
SUS304
  0
LEADER
  5
3F71
330
1A
100
AcDbEntity
  8
寸法線
 48
10.0
100
AcDbLeader
  3
ISO-25
 76
     3
 10
905.25331780501
 20
1641.832887165997
 30
0.0
 10
883.266318499738
 20
1751.883192682737
 30
0.0
 10
871.672974414496
 20
1751.883192682737
 30
0.0
1001
ACAD
1000
DSTYLE
1002
{
1070
     5
1000
OPEN30
1070
   147
1040
0.625
1070
    77
1070
     0
1070
    41
1040
6.0
1070
    47
1040
0.1
1070
    48
1040
0.1
1070
    73
1070
     0
1070
   140
1040
8.0
1070
   271
1070
     1
1070
   272
1070
     1
1070
   341
1005
2AF4
1070
   342
1005
2AF4
1002
}
  0
MTEXT
  5
40B9
330
1A
100
AcDbEntity
  8
寸法線
 48
10.0
100
AcDbMText
 10
617.811382884797
 20
1725.9263389321
 30
0.0
 40
8.0
 41
35.76492085637
 71
     1
 72
     5
  1
平径
  0
DIMENSION
  5
40BA
330
1A
100
AcDbEntity
  8
寸法線
 48
10.0
100
AcDbDimension
  2
*D26
 10
646.038595977489
 20
1706.484579226196
 30
0.0
 11
625.470510977488
 21
1706.484579226196
 31
0.0
 70
   160
  3
ISO-25
100
AcDbAlignedDimension
 13
605.038595977489
 23
1648.601120177403
 33
0.0
 14
646.038595977489
 24
1648.601120177403
 34
0.0
100
AcDbRotatedDimension
1001
ACAD
1000
DSTYLE
1002
{
1070
     5
1000
OPEN30
1070
    41
1040
6.0
1070
    47
1040
0.1
1070
    48
1040
0.1
1070
    73
1070
     0
1070
   140
1040
8.0
1070
   271
1070
     1
1070
   272
1070
     1
1070
   341
1005
2AF4
1002
}
  0
LINE
  5
4106
330
1A
100
AcDbEntity
  8
外形線
100
AcDbLine
 10
626.913603477488
 20
1613.887939572504
 30
0.0
 11
646.038595977489
 21
1624.929759140628
 31
0.0
  0
LINE
  5
4107
330
1A
100
AcDbEntity
  8
外形線
100
AcDbLine
 10
646.038595977489
 20
1648.601120177403
 30
0.0
 11
646.038595977489
 21
1624.929759140628
 31
0.0
  0
LINE
  5
4108
330
1A
100
AcDbEntity
  8
外形線
100
AcDbLine
 10
624.163585977488
 20
1659.642938302152
 30
0.0
 11
605.038595977489
 21
1648.601120177403
 31
0.0
  0
LINE
  5
4109
330
1A
100
AcDbEntity
  8
外形線
100
AcDbLine
 10
624.163585977488
 20
1613.88794101588
 30
0.0
 11
605.038595977489
 21
1624.929759140629
 31
0.0
  0
ARC
  5
411C
330
1A
100
AcDbEntity
  8
細線
 48
10.0
100
AcDbCircle
 10
625.538595977489
 20
1636.765439659016
 30
0.0
 40
20.50000000000033
100
AcDbArc
 50
93.845924958038
 51
266.154075041962
  0
ARC
  5
411D
330
1A
100
AcDbEntity
  8
細線
 48
10.0
100
AcDbCircle
 10
625.538595977489
 20
1636.765439659016
 30
0.0
 40
20.49999999999996
100
AcDbArc
 50
273.845917954976
 51
86.154082045024
  0
LINE
  5
4159
330
1A
100
AcDbEntity
  8
外形線
100
AcDbLine
 10
972.971727728042
 20
1661.765440909016
 30
0.0
 11
974.821093728042
 21
1661.765440909016
 31
0.0
  0
ARC
  5
415A
330
1A
100
AcDbEntity
  8
外形線
100
AcDbCircle
 10
972.971727728042
 20
1660.265440909016
 30
0.0
 40
1.5
100
AcDbArc
 50
89.999981276034
 51
180.00001984784
  0
LINE
  5
415B
330
1A
100
AcDbEntity
  8
外形線
100
AcDbLine
 10
971.471727728042
 20
1660.265440909016
 30
0.0
 11
971.471727728042
 21
1613.265440909016
 31
0.0
  0
LINE
  5
415C
330
1A
100
AcDbEntity
  8
外形線
100
AcDbLine
 10
972.971727728042
 20
1611.765440909016
 30
0.0
 11
974.821093728042
 21
1611.765440909016
 31
0.0
  0
ARC
  5
415D
330
1A
100
AcDbEntity
  8
外形線
100
AcDbCircle
 10
972.971727728042
 20
1613.265440909016
 30
0.0
 40
1.5
100
AcDbArc
 50
180.00001984784
 51
270.0
  0
ARC
  5
415E
330
1A
100
AcDbEntity
  8
外形線
100
AcDbCircle
 10
1094.609545728043
 20
1668.033628909016
 30
0.0
 40
1.86215
100
AcDbArc
 50
276.18422108563
 51
91.517843466792
  0
LINE
  5
415F
330
1A
100
AcDbEntity
  8
外形線
100
AcDbLine
 10
1096.471727728042
 20
1660.184628909015
 30
0.0
 11
1096.471727728042
 21
1642.762998909016
 31
0.0
  0
ARC
  5
4160
330
1A
100
AcDbEntity
  8
外形線
100
AcDbCircle
 10
1094.472459728042
 20
1642.762998909016
 30
0.0
 40
1.9992
100
AcDbArc
 50
270.0
 51
359.999982399908
  0
ARC
  5
4161
330
1A
100
AcDbEntity
  8
外形線
100
AcDbCircle
 10
1094.472459728042
 20
1660.184628909015
 30
0.0
 40
1.9992
100
AcDbArc
 50
0.0
 51
89.999981276021
  0
LINE
  5
4162
330
1A
100
AcDbEntity
  8
外形線
100
AcDbLine
 10
1096.471727728042
 20
1613.346250909015
 30
0.0
 11
1096.471727728042
 21
1630.767880909015
 31
0.0
  0
ARC
  5
4163
330
1A
100
AcDbEntity
  8
外形線
100
AcDbCircle
 10
1094.609545728043
 20
1605.497372909015
 30
0.0
 40
1.86215
100
AcDbArc
 50
268.482178628784
 51
83.815801009983
  0
ARC
  5
4164
330
1A
100
AcDbEntity
  8
外形線
100
AcDbCircle
 10
1094.472459728042
 20
1613.346250909015
 30
0.0
 40
1.9992
100
AcDbArc
 50
270.0
 51
359.999982399908
  0
ARC
  5
4165
330
1A
100
AcDbEntity
  8
外形線
100
AcDbCircle
 10
1094.472459728042
 20
1630.767880909015
 30
0.0
 40
1.9992
100
AcDbArc
 50
0.0
 51
89.999981276021
  0
ARC
  5
4166
330
1A
100
AcDbEntity
  8
外形線
100
AcDbCircle
 10
1081.908039052231
 20
1679.254638482727
 30
0.0
 40
4.853214741019229
100
AcDbArc
 50
359.990607665518
 51
87.663650269136
  0
LINE
  5
4167
330
1A
100
AcDbEntity
  8
細線
100
AcDbLine
 10
1052.178881728043
 20
1667.610288909015
 30
0.0
 11
1052.178881728043
 21
1679.034238909016
 31
0.0
  0
LINE
  5
4168
330
1A
100
AcDbEntity
  8
外形線
100
AcDbLine
 10
1036.470873728043
 20
1667.610288909015
 30
0.0
 11
1052.267991728043
 21
1667.610288909015
 31
0.0
  0
LINE
  5
4169
330
1A
100
AcDbEntity
  8
外形線
100
AcDbLine
 10
1054.218981728042
 20
1679.034238909016
 30
0.0
 11
1036.470873728043
 21
1679.034238909016
 31
0.0
  0
LINE
  5
416A
330
1A
100
AcDbEntity
  8
外形線
100
AcDbLine
 10
1054.218981728042
 20
1682.461484909015
 30
0.0
 11
1036.470873728043
 21
1682.461484909015
 31
0.0
  0
LINE
  5
416B
330
1A
100
AcDbEntity
  8
外形線
100
AcDbLine
 10
1052.178881728043
 20
1687.765438909015
 30
0.0
 11
1055.891649728042
 21
1685.317440909015
 31
0.0
  0
LINE
  5
416C
330
1A
100
AcDbEntity
  8
細線
100
AcDbLine
 10
1052.178881728043
 20
1682.461484909015
 30
0.0
 11
1052.178881728043
 21
1687.765438909015
 31
0.0
  0
ARC
  5
416D
330
1A
100
AcDbEntity
  8
外形線
100
AcDbCircle
 10
1054.164965728043
 20
1680.747860909015
 30
0.0
 40
1.714446
100
AcDbArc
 50
271.804703586974
 51
88.195318508605
  0
LINE
  5
416E
330
1A
100
AcDbEntity
  8
外形線
100
AcDbLine
 10
1055.891649728042
 20
1685.317440909015
 30
0.0
 11
1082.105883728042
 21
1684.103818909015
 31
0.0
  0
ARC
  5
416F
330
1A
100
AcDbEntity
  8
外形線
100
AcDbCircle
 10
1088.915697728043
 20
1638.618344909015
 30
0.0
 40
2.15556
100
AcDbArc
 50
95.512637406103
 51
178.089033713747
  0
ARC
  5
4170
330
1A
100
AcDbEntity
  8
外形線
100
AcDbCircle
 10
1088.915697728043
 20
1634.912656909015
 30
0.0
 40
2.15556
100
AcDbArc
 50
181.910948686169
 51
264.487402289583
  0
ARC
  5
4171
330
1A
100
AcDbEntity
  8
外形線
100
AcDbCircle
 10
1050.891771728043
 20
1636.183042909015
 30
0.0
 40
5.033766
100
AcDbArc
 50
6.644133183896
 51
75.184725088441
  0
ARC
  5
4172
330
1A
100
AcDbEntity
  8
外形線
100
AcDbCircle
 10
1050.891771728043
 20
1637.347958909015
 30
0.0
 40
5.033766
100
AcDbArc
 50
284.815257311477
 51
353.35584921602
  0
LINE
  5
4173
330
1A
100
AcDbEntity
  8
細線
100
AcDbLine
 10
1052.178881728043
 20
1641.049496909015
 30
0.0
 11
1052.178881728043
 21
1659.613462909015
 31
0.0
  0
LINE
  5
4174
330
1A
100
AcDbEntity
  8
外形線
100
AcDbLine
 10
1036.470873728043
 20
1641.049496909015
 30
0.0
 11
1052.178881728043
 21
1641.049496909015
 31
0.0
  0
LINE
  5
4175
330
1A
100
AcDbEntity
  8
外形線
100
AcDbLine
 10
1036.470873728043
 20
1632.481504909015
 30
0.0
 11
1052.178881728043
 21
1632.481504909015
 31
0.0
  0
LINE
  5
4176
330
1A
100
AcDbEntity
  8
外形線
100
AcDbLine
 10
1036.470873728043
 20
1659.613462909015
 30
0.0
 11
1052.178881728043
 21
1659.613462909015
 31
0.0
  0
LINE
  5
4177
330
1A
100
AcDbEntity
  8
外形線
100
AcDbLine
 10
1086.761277728043
 20
1636.765438909015
 30
0.0
 11
1086.761277728043
 21
1679.253842909015
 31
0.0
  0
ARC
  5
4178
330
1A
100
AcDbEntity
  8
外形線
100
AcDbCircle
 10
1051.852831728042
 20
1663.616024909015
 30
0.0
 40
4.015794000000001
100
AcDbArc
 50
274.656944786913
 51
84.065438721313
  0
LINE
  5
4179
330
1A
100
AcDbEntity
  8
外形線
100
AcDbLine
 10
1027.331713728043
 20
1682.461484909015
 30
0.0
 11
1030.187669728042
 21
1687.765438909015
 31
0.0
  0
LINE
  5
417A
330
1A
100
AcDbEntity
  8
外形線
100
AcDbLine
 10
1030.187669728042
 20
1687.765438909015
 30
0.0
 11
1052.178881728043
 21
1687.765438909015
 31
0.0
  0
ARC
  5
417B
330
1A
100
AcDbEntity
  8
外形線
100
AcDbCircle
 10
1051.852831728042
 20
1609.914976909015
 30
0.0
 40
4.015794000000001
100
AcDbArc
 50
275.934583374273
 51
85.343077308665
  0
LINE
  5
417C
330
1A
100
AcDbEntity
  8
外形線
100
AcDbLine
 10
1036.470873728043
 20
1605.920712909015
 30
0.0
 11
1052.267991728043
 21
1605.920712909015
 31
0.0
  0
LINE
  5
417D
330
1A
100
AcDbEntity
  8
外形線
100
AcDbLine
 10
1036.470873728043
 20
1613.917416909016
 30
0.0
 11
1052.178881728043
 21
1613.917416909016
 31
0.0
  0
ARC
  5
417E
330
1A
100
AcDbEntity
  8
外形線
100
AcDbCircle
 10
1081.907931761814
 20
1594.276406329385
 30
0.0
 40
4.853322024345879
100
AcDbArc
 50
272.337565725699
 51
0.008866954339
  0
LINE
  5
417F
330
1A
100
AcDbEntity
  8
外形線
100
AcDbLine
 10
1055.891649728042
 20
1588.213436909015
 30
0.0
 11
1052.178881728043
 21
1585.765438909015
 31
0.0
  0
LINE
  5
4180
330
1A
100
AcDbEntity
  8
外形線
100
AcDbLine
 10
1054.218981728042
 20
1594.496640909015
 30
0.0
 11
1036.470873728043
 21
1594.496640909015
 31
0.0
  0
LINE
  5
4181
330
1A
100
AcDbEntity
  8
外形線
100
AcDbLine
 10
1054.218981728042
 20
1591.069516909015
 30
0.0
 11
1036.470873728043
 21
1591.069516909015
 31
0.0
  0
LINE
  5
4182
330
1A
100
AcDbEntity
  8
細線
100
AcDbLine
 10
1052.178881728043
 20
1591.069516909015
 30
0.0
 11
1052.178881728043
 21
1585.765438909015
 31
0.0
  0
ARC
  5
4183
330
1A
100
AcDbEntity
  8
外形線
100
AcDbCircle
 10
1054.164965728043
 20
1592.783018909015
 30
0.0
 40
1.714446
100
AcDbArc
 50
271.804703586974
 51
88.195318508605
  0
LINE
  5
4184
330
1A
100
AcDbEntity
  8
外形線
100
AcDbLine
 10
1055.891649728042
 20
1588.213436909015
 30
0.0
 11
1082.105883728042
 21
1589.427122909015
 31
0.0
  0
LINE
  5
4185
330
1A
100
AcDbEntity
  8
細線
100
AcDbLine
 10
1052.178881728043
 20
1605.920712909015
 30
0.0
 11
1052.178881728043
 21
1594.496640909015
 31
0.0
  0
LINE
  5
4186
330
1A
100
AcDbEntity
  8
外形線
100
AcDbLine
 10
1029.118501138635
 20
1584.897332748191
 30
0.0
 11
1027.510419638163
 21
1572.811604824309
 31
0.0
  0
LINE
  5
4187
330
1A
100
AcDbEntity
  8
細線
100
AcDbLine
 10
1030.187669728042
 20
1585.765438909015
 30
0.0
 11
1027.331713728043
 21
1593.863423459789
 31
0.0
  0
ARC
  5
4188
330
1A
100
AcDbEntity
  8
外形線
100
AcDbCircle
 10
1030.109764986047
 20
1584.765438909015
 30
0.0
 40
1.0
100
AcDbArc
 50
90.0
 51
172.420956229589
  0
LINE
  5
4189
330
1A
100
AcDbEntity
  8
外形線
100
AcDbLine
 10
997.208880225329
 20
1590.298635589327
 30
0.0
 11
999.443986225329
 21
1572.825917589327
 31
0.0
  0
ARC
  5
418A
330
1A
100
AcDbEntity
  8
外形線
100
AcDbCircle
 10
994.319683143364
 20
1589.907347583412
 30
0.0
 40
2.915573028070137
100
AcDbArc
 50
7.712721372167
 51
85.846565215997
  0
LINE
  5
418B
330
1A
100
AcDbEntity
  8
外形線
100
AcDbLine
 10
1002.276903728042
 20
1570.332302909015
 30
0.0
 11
1024.679369728043
 21
1570.332302909015
 31
0.0
  0
ARC
  5
418C
330
1A
100
AcDbEntity
  8
細線
100
AcDbCircle
 10
1014.087207728043
 20
1559.565304909015
 30
0.0
 40
36.766532
100
AcDbArc
 50
68.885514212377
 51
115.211785839403
  0
LINE
  5
418D
330
1A
100
AcDbEntity
  8
外形線
100
AcDbLine
 10
1030.109764986047
 20
1585.765438909015
 30
0.0
 11
1052.178881728043
 21
1585.765438909015
 31
0.0
  0
ARC
  5
418E
330
1A
100
AcDbEntity
  8
細線
100
AcDbCircle
 10
1026.894091728042
 20
1579.210386909015
 30
0.0
 40
18.322924
100
AcDbArc
 50
247.068453993571
 51
267.322397459894
  0
LINE
  5
418F
330
1A
100
AcDbEntity
  8
細線
100
AcDbLine
 10
1019.754931728043
 20
1562.335508909016
 30
0.0
 11
1019.754931728043
 21
1566.048276909015
 31
0.0
  0
LINE
  5
4190
330
1A
100
AcDbEntity
  8
細線
100
AcDbLine
 10
1007.188525728043
 20
1562.335508909016
 30
0.0
 11
1007.188525728043
 21
1566.048276909015
 31
0.0
  0
ARC
  5
4191
330
1A
100
AcDbEntity
  8
細線
100
AcDbCircle
 10
1013.471727728042
 20
1575.444150909016
 30
0.0
 40
14.53669
100
AcDbArc
 50
244.390793033799
 51
295.609209213943
  0
LINE
  5
4192
330
1A
100
AcDbEntity
  8
外形線
100
AcDbLine
 10
1027.466235728043
 20
1562.335508909016
 30
0.0
 11
1026.038135728043
 21
1560.907468909015
 31
0.0
  0
LINE
  5
4193
330
1A
100
AcDbEntity
  8
外形線
100
AcDbLine
 10
1027.466235728043
 20
1566.048276909015
 30
0.0
 11
1027.466235728043
 21
1562.335508909016
 31
0.0
  0
LINE
  5
4194
330
1A
100
AcDbEntity
  8
外形線
100
AcDbLine
 10
999.477343728043
 20
1562.335508909016
 30
0.0
 11
1000.905321728043
 21
1560.907468909015
 31
0.0
  0
LINE
  5
4195
330
1A
100
AcDbEntity
  8
外形線
100
AcDbLine
 10
999.477343728043
 20
1566.048276909015
 30
0.0
 11
999.477343728043
 21
1562.335508909016
 31
0.0
  0
LINE
  5
4196
330
1A
100
AcDbEntity
  8
外形線
100
AcDbLine
 10
1000.905321728043
 20
1560.907468909015
 30
0.0
 11
1026.038135728043
 21
1560.907468909015
 31
0.0
  0
LINE
  5
4197
330
1A
100
AcDbEntity
  8
外形線
100
AcDbLine
 10
999.477343728043
 20
1566.048276909015
 30
0.0
 11
1027.466235728043
 21
1566.048276909015
 31
0.0
  0
ARC
  5
4198
330
1A
100
AcDbEntity
  8
細線
100
AcDbCircle
 10
1000.049365728042
 20
1579.210386909015
 30
0.0
 40
18.322924
100
AcDbArc
 50
272.67766208363
 51
292.93154825417
  0
LINE
  5
4199
330
1A
100
AcDbEntity
  8
中心線
 48
10.0
100
AcDbLine
 10
1013.471727728042
 20
1610.424618909015
 30
0.0
 11
1013.471727728042
 21
1554.822324909015
 31
0.0
  0
ARC
  5
419A
330
1A
100
AcDbEntity
  8
外形線
100
AcDbCircle
 10
1024.679369728043
 20
1573.188290909015
 30
0.0
 40
2.856
100
AcDbArc
 50
270.0
 51
352.421011277462
  0
LINE
  5
419B
330
1A
100
AcDbEntity
  8
細線
100
AcDbLine
 10
1020.611743728043
 20
1570.332272909015
 30
0.0
 11
1020.611743728043
 21
1566.048276909015
 31
0.0
  0
LINE
  5
419C
330
1A
100
AcDbEntity
  8
外形線
100
AcDbLine
 10
1022.896533728042
 20
1566.048276909015
 30
0.0
 11
1022.896533728042
 21
1570.332272909015
 31
0.0
  0
LINE
  5
419D
330
1A
100
AcDbEntity
  8
細線
100
AcDbLine
 10
1006.331713728043
 20
1570.332272909015
 30
0.0
 11
1006.331713728043
 21
1566.048276909015
 31
0.0
  0
LINE
  5
419E
330
1A
100
AcDbEntity
  8
外形線
100
AcDbLine
 10
1004.046923728043
 20
1566.048276909015
 30
0.0
 11
1004.046923728043
 21
1570.332272909015
 31
0.0
  0
ARC
  5
419F
330
1A
100
AcDbEntity
  8
外形線
100
AcDbCircle
 10
1002.276903728042
 20
1573.188290909015
 30
0.0
 40
2.856
100
AcDbArc
 50
187.289418100602
 51
270.0
  0
LINE
  5
41A0
330
1A
100
AcDbEntity
  8
細線
100
AcDbLine
 10
1055.891649728042
 20
1685.317440909015
 30
0.0
 11
1055.891649728042
 21
1588.213436909015
 31
0.0
  0
LINE
  5
41A1
330
1A
100
AcDbEntity
  8
細線
100
AcDbLine
 10
1027.331713728043
 20
1682.461484909015
 30
0.0
 11
1027.331713728043
 21
1593.757748909015
 31
0.0
  0
LINE
  5
41A2
330
1A
100
AcDbEntity
  8
外形線
100
AcDbLine
 10
1036.470873728043
 20
1585.765438909015
 30
0.0
 11
1036.470873728043
 21
1687.765438909015
 31
0.0
  0
LINE
  5
41A3
330
1A
100
AcDbEntity
  8
外形線
100
AcDbLine
 10
1034.471727728042
 20
1687.765438909015
 30
0.0
 11
1034.471727728042
 21
1585.765438909015
 31
0.0
  0
LINE
  5
41A4
330
1A
100
AcDbEntity
  8
細線
100
AcDbLine
 10
1030.187669728042
 20
1687.765438909015
 30
0.0
 11
1030.187669728042
 21
1585.765438909015
 31
0.0
  0
LINE
  5
41A5
330
1A
100
AcDbEntity
  8
細線
100
AcDbLine
 10
987.476629707116
 20
1675.892666909015
 30
0.0
 11
987.476629707116
 21
1597.638272909016
 31
0.0
  0
LINE
  5
41A6
330
1A
100
AcDbEntity
  8
細線
100
AcDbLine
 10
1052.178881728043
 20
1632.481504909015
 30
0.0
 11
1052.178881728043
 21
1613.917416909016
 31
0.0
  0
LINE
  5
41A7
330
1A
100
AcDbEntity
  8
外形線
100
AcDbLine
 10
1086.761277728043
 20
1636.765438909015
 30
0.0
 11
1086.761277728043
 21
1594.277158909015
 31
0.0
  0
ARC
  5
41A8
330
1A
100
AcDbEntity
  8
外形線
100
AcDbCircle
 10
1088.761767728042
 20
1609.347928909016
 30
0.0
 40
2.000724
100
AcDbArc
 50
87.757023395436
 51
272.242959004484
  0
LINE
  5
41A9
330
1A
100
AcDbEntity
  8
外形線
100
AcDbLine
 10
1088.840013728042
 20
1607.348690909015
 30
0.0
 11
1094.810105728042
 21
1607.348690909015
 31
0.0
  0
LINE
  5
41AA
330
1A
100
AcDbEntity
  8
外形線
100
AcDbLine
 10
1086.761277728043
 20
1603.635922909015
 30
0.0
 11
1094.560227728042
 21
1603.635922909015
 31
0.0
  0
LINE
  5
41AB
330
1A
100
AcDbEntity
  8
外形線
100
AcDbLine
 10
1088.840075728042
 20
1611.347104909015
 30
0.0
 11
1094.472459728042
 21
1611.347104909015
 31
0.0
  0
LINE
  5
41AC
330
1A
100
AcDbEntity
  8
外形線
100
AcDbLine
 10
1088.708665728042
 20
1640.763852909015
 30
0.0
 11
1094.472459728042
 21
1640.763852909015
 31
0.0
  0
LINE
  5
41AD
330
1A
100
AcDbEntity
  8
外形線
100
AcDbLine
 10
1088.708665728042
 20
1632.767148909015
 30
0.0
 11
1094.472459728042
 21
1632.767148909015
 31
0.0
  0
LINE
  5
41AE
330
1A
100
AcDbEntity
  8
外形線
100
AcDbLine
 10
1086.761277728043
 20
1669.895078909015
 30
0.0
 11
1094.560227728042
 21
1669.895078909015
 31
0.0
  0
ARC
  5
41AF
330
1A
100
AcDbEntity
  8
外形線
100
AcDbCircle
 10
1088.760485728042
 20
1664.183042909015
 30
0.0
 40
2.000726
100
AcDbArc
 50
87.722187561485
 51
272.27785213419
  0
LINE
  5
41B0
330
1A
100
AcDbEntity
  8
外形線
100
AcDbLine
 10
1088.840013728042
 20
1662.183896909015
 30
0.0
 11
1094.472459728042
 21
1662.183896909015
 31
0.0
  0
LINE
  5
41B1
330
1A
100
AcDbEntity
  8
外形線
100
AcDbLine
 10
1088.840013728042
 20
1666.182186909015
 30
0.0
 11
1094.810105728042
 21
1666.182186909015
 31
0.0
  0
LINE
  5
41B2
330
1A
100
AcDbEntity
  8
外形線
100
AcDbLine
 10
989.502601161983
 20
1680.361611844993
 30
0.0
 11
1027.331713728043
 21
1682.461484909015
 31
0.0
  0
LINE
  5
41B3
330
1A
100
AcDbEntity
  8
外形線
100
AcDbLine
 10
984.482103728042
 20
1677.097592909016
 30
0.0
 11
977.493273728042
 21
1663.401914909016
 31
0.0
  0
ARC
  5
41B4
330
1A
100
AcDbEntity
  8
外形線
100
AcDbCircle
 10
989.826465728042
 20
1674.370358909016
 30
0.0
 40
6.0
100
AcDbArc
 50
93.094182552856
 51
152.964948988829
  0
LINE
  5
41B5
330
1A
100
AcDbEntity
  8
外形線
100
AcDbLine
 10
984.580859728042
 20
1596.239744909016
 30
0.0
 11
977.493273728042
 21
1610.128964909016
 31
0.0
  0
ARC
  5
41B6
330
1A
100
AcDbEntity
  8
外形線
100
AcDbCircle
 10
989.925281728042
 20
1598.966916909016
 30
0.0
 40
6.0
100
AcDbArc
 50
207.0350334111
 51
266.905857142825
  0
LINE
  5
41B7
330
1A
100
AcDbEntity
  8
外形線
100
AcDbLine
 10
994.530851214882
 20
1592.815263353784
 30
0.0
 11
989.601367728042
 21
1592.975706909016
 31
0.0
  0
ARC
  5
41B8
330
1A
100
AcDbEntity
  8
外形線
100
AcDbCircle
 10
974.821093728042
 20
1664.765440909016
 30
0.0
 40
3.0
100
AcDbArc
 50
270.0
 51
332.965140723992
  0
ARC
  5
41B9
330
1A
100
AcDbEntity
  8
外形線
100
AcDbCircle
 10
974.821093728042
 20
1608.765440909016
 30
0.0
 40
3.0
100
AcDbArc
 50
27.034841675909
 51
89.999981276027
  0
MTEXT
  5
42ED
102
{ACAD_XDICTIONARY
360
42EE
102
}
330
1A
100
AcDbEntity
  8
寸法線
 48
10.0
100
AcDbMText
 10
715.326704191953
 20
1481.514821287239
 30
0.0
 40
8.0
 41
168.503621648242
 71
     1
 72
     5
  1
御仕様   電源電圧    リード線色\P       AC100/110V　 シロ・シロ\P       AC200/220V　クロ・クロ
1001
ACADANNOTATIVE
1000
AnnotativeData
1002
{
1070
     1
1070
     0
1002
}
  0
MTEXT
  5
42F1
102
{ACAD_XDICTIONARY
360
42F2
102
}
330
1A
100
AcDbEntity
  8
寸法線
 48
10.0
100
AcDbMText
 10
603.74125750313
 20
1378.498554729932
 30
0.0
 40
6.0
 41
49.50078544177
 71
     1
 72
     5
  1
L　　C　　 H
1001
ACADANNOTATIVE
1000
AnnotativeData
1002
{
1070
     1
1070
     0
1002
}
  0
MTEXT
  5
42F5
330
1A
100
AcDbEntity
  8
寸法線
 48
10.0
100
AcDbMText
 10
663.14614819093
 20
1357.715953492723
 30
0.0
 40
6.0
 41
22.662715674224
 71
     1
 72
     5
  1
電　源
  0
LINE
  5
42F6
330
1A
100
AcDbEntity
  8
寸法線
100
AcDbLine
 10
603.737777775283
 20
1387.555561614224
 30
0.0
 11
603.737777775283
 21
1484.687519614223
 31
0.0
  0
LINE
  5
42F7
330
1A
100
AcDbEntity
  8
寸法線
100
AcDbLine
 10
603.737777775283
 20
1484.687519614223
 30
0.0
 11
616.589767775283
 21
1484.687519614223
 31
0.0
  0
LINE
  5
42F8
330
1A
100
AcDbEntity
  8
寸法線
100
AcDbLine
 10
616.589767775283
 20
1484.687519614223
 30
0.0
 11
616.589767775283
 21
1464.981099614223
 31
0.0
  0
LINE
  5
42F9
330
1A
100
AcDbEntity
  8
寸法線
100
AcDbLine
 10
632.297775775283
 20
1484.687519614223
 30
0.0
 11
645.149765775283
 21
1484.687519614223
 31
0.0
  0
LINE
  5
42FA
330
1A
100
AcDbEntity
  8
寸法線
100
AcDbLine
 10
664.856123775283
 20
1484.687519614223
 30
0.0
 11
684.848189775283
 21
1484.687519614223
 31
0.0
  0
TEXT
  5
42FB
330
1A
100
AcDbEntity
  8
寸法線
100
AcDbText
 10
619.247665775283
 20
1416.898763614224
 30
0.0
 40
8.571428571429
  1
キ
  7
EXCADVERT
 72
     3
 11
619.247665775283
 21
1408.898763614224
 31
0.0
100
AcDbText
  0
TEXT
  5
42FC
330
1A
100
AcDbEntity
  8
寸法線
100
AcDbText
 10
678.846847775283
 20
1448.053975614223
 30
0.0
 40
12.0
  1
Ｍ
 41
1.25
  7
EXCADSTD
 72
     5
 11
690.846847775283
 21
1448.053975614223
 31
0.0
100
AcDbText
  0
LINE
  5
42FD
330
1A
100
AcDbEntity
  8
寸法線
100
AcDbLine
 10
684.848189775283
 20
1484.687519614223
 30
0.0
 11
684.848189775283
 21
1463.454549614223
 31
0.0
  0
CIRCLE
  5
42FE
330
1A
100
AcDbEntity
  8
寸法線
100
AcDbCircle
 10
624.443771775283
 20
1447.160359614223
 30
0.0
 40
1.600006
  0
LINE
  5
42FF
330
1A
100
AcDbEntity
  8
寸法線
100
AcDbLine
 10
624.443771775283
 20
1445.560323614224
 30
0.0
 11
624.443771775283
 21
1387.555561614224
 31
0.0
  0
LINE
  5
4300
330
1A
100
AcDbEntity
  8
寸法線
100
AcDbLine
 10
645.149765775283
 20
1484.687519614223
 30
0.0
 11
645.149765775283
 21
1387.555561614224
 31
0.0
  0
LINE
  5
4301
330
1A
100
AcDbEntity
  8
寸法線
100
AcDbLine
 10
684.848189775283
 20
1445.070087614223
 30
0.0
 11
684.848189775283
 21
1387.555561614224
 31
0.0
  0
CIRCLE
  5
4302
330
1A
100
AcDbEntity
  8
寸法線
100
AcDbCircle
 10
603.737777775283
 20
1384.555561614224
 30
0.0
 40
1.599998
  0
LINE
  5
4303
330
1A
100
AcDbEntity
  8
寸法線
100
AcDbLine
 10
664.856123775283
 20
1445.560323614224
 30
0.0
 11
664.856123775283
 21
1387.555561614224
 31
0.0
  0
CIRCLE
  5
4304
330
1A
100
AcDbEntity
  8
寸法線
100
AcDbCircle
 10
664.856123775283
 20
1447.160359614223
 30
0.0
 40
1.600006
  0
CIRCLE
  5
4305
330
1A
100
AcDbEntity
  8
寸法線
100
AcDbCircle
 10
616.589767775283
 20
1463.381123614223
 30
0.0
 40
1.600006
  0
LINE
  5
4306
330
1A
100
AcDbEntity
  8
寸法線
100
AcDbLine
 10
632.297775775283
 20
1484.687519614223
 30
0.0
 11
632.297775775283
 21
1464.981099614223
 31
0.0
  0
CIRCLE
  5
4307
330
1A
100
AcDbEntity
  8
寸法線
100
AcDbCircle
 10
632.297775775283
 20
1463.381123614223
 30
0.0
 40
1.600006
  0
LINE
  5
4308
330
1A
100
AcDbEntity
  8
寸法線
100
AcDbLine
 10
664.856123775283
 20
1484.687519614223
 30
0.0
 11
664.856123775283
 21
1464.981099614223
 31
0.0
  0
CIRCLE
  5
4309
330
1A
100
AcDbEntity
  8
寸法線
100
AcDbCircle
 10
664.856123775283
 20
1463.381123614223
 30
0.0
 40
1.600006
  0
LINE
  5
430A
330
1A
100
AcDbEntity
  8
寸法線
100
AcDbLine
 10
624.443771775283
 20
1448.760335614223
 30
0.0
 11
618.189743775283
 21
1463.381123614223
 31
0.0
  0
LINE
  5
430B
330
1A
100
AcDbEntity
  8
寸法線
100
AcDbLine
 10
664.856123775283
 20
1448.760335614223
 30
0.0
 11
666.456161775283
 21
1463.381123614223
 31
0.0
  0
CIRCLE
  5
430C
330
1A
100
AcDbEntity
  8
寸法線
100
AcDbCircle
 10
684.855757775283
 20
1454.276753614223
 30
0.0
 40
9.177798
  0
TEXT
  5
430D
330
1A
100
AcDbEntity
  8
寸法線
100
AcDbText
 10
640.311569775283
 20
1425.998981614224
 30
0.0
 40
8.041237113402
  1
ア　カ
  7
EXCADVERT
 72
     3
 11
640.311569775283
 21
1399.998981614224
 31
0.0
100
AcDbText
  0
TEXT
  5
430E
330
1A
100
AcDbEntity
  8
寸法線
100
AcDbText
 10
598.761275775283
 20
1425.998981614224
 30
0.0
 40
7.515151518764
  1
ミドリ
  7
EXCADVERT
 72
     3
 11
598.761275775283
 21
1401.198981602302
 31
0.0
100
AcDbText
  0
CIRCLE
  5
430F
330
1A
100
AcDbEntity
  8
寸法線
100
AcDbCircle
 10
603.737777775283
 20
1384.555561614224
 30
0.0
 40
3.0
  0
CIRCLE
  5
4310
330
1A
100
AcDbEntity
  8
寸法線
100
AcDbCircle
 10
624.443771775283
 20
1384.555561614224
 30
0.0
 40
1.599998
  0
CIRCLE
  5
4311
330
1A
100
AcDbEntity
  8
寸法線
100
AcDbCircle
 10
624.443771775283
 20
1384.555561614224
 30
0.0
 40
3.0
  0
CIRCLE
  5
4312
330
1A
100
AcDbEntity
  8
寸法線
100
AcDbCircle
 10
664.856123775283
 20
1384.555561614224
 30
0.0
 40
1.599998
  0
CIRCLE
  5
4313
330
1A
100
AcDbEntity
  8
寸法線
100
AcDbCircle
 10
664.856123775283
 20
1384.555561614224
 30
0.0
 40
3.0
  0
CIRCLE
  5
4314
330
1A
100
AcDbEntity
  8
寸法線
100
AcDbCircle
 10
684.848189775283
 20
1384.555561614224
 30
0.0
 40
1.599998
  0
CIRCLE
  5
4315
330
1A
100
AcDbEntity
  8
寸法線
100
AcDbCircle
 10
684.848189775283
 20
1384.555561614224
 30
0.0
 40
3.0
  0
CIRCLE
  5
4316
330
1A
100
AcDbEntity
  8
寸法線
100
AcDbCircle
 10
645.149765775283
 20
1384.555561614224
 30
0.0
 40
1.599998
  0
CIRCLE
  5
4317
330
1A
100
AcDbEntity
  8
寸法線
100
AcDbCircle
 10
645.149765775283
 20
1384.555561614224
 30
0.0
 40
3.0
  0
MTEXT
  5
4318
102
{ACAD_XDICTIONARY
360
4319
102
}
330
1A
100
AcDbEntity
  8
寸法線
 62
     1
 48
10.0
100
AcDbMText
 10
655.439706652353
 20
1432.040168376131
 30
0.0
 40
8.0
 41
75.886769199617
 71
     1
 72
     3
  1
シロ クロ
1001
ACADANNOTATIVE
1000
AnnotativeData
1002
{
1070
     1
1070
     0
1002
}
  0
MTEXT
  5
431C
330
1A
100
AcDbEntity
  8
寸法線
 62
     1
 48
10.0
100
AcDbMText
 10
654.230558865765
 20
1390.296192762154
 30
0.0
 40
8.0
 41
113.327544635948
 71
     1
 72
     1
  1
(    )
 11
6.123233995736766E-17
 21
1.0
 31
0.0
  0
MTEXT
  5
431D
102
{ACAD_XDICTIONARY
360
431E
102
}
330
1A
100
AcDbEntity
  8
寸法線
 48
10.0
100
AcDbMText
 10
653.75887283918
 20
1377.967801557524
 30
0.0
 40
6.0
 41
101.805806042976
 71
     1
 72
     5
  1
100/110 0
1001
ACADANNOTATIVE
1000
AnnotativeData
1002
{
1070
     1
1070
     0
1002
}
  0
MTEXT
  5
4321
102
{ACAD_XDICTIONARY
360
4322
102
}
330
1A
100
AcDbEntity
  8
寸法線
 62
     1
 48
10.0
100
AcDbMText
 10
675.880749186158
 20
1431.438961242784
 30
0.0
 40
8.0
 41
75.886769199617
 71
     1
 72
     3
  1
シロ クロ
1001
ACADANNOTATIVE
1000
AnnotativeData
1002
{
1070
     1
1070
     0
1002
}
  0
MTEXT
  5
4325
330
1A
100
AcDbEntity
  8
寸法線
 62
     1
 48
10.0
100
AcDbMText
 10
674.67160139957
 20
1389.694985628807
 30
0.0
 40
8.0
 41
113.327544635948
 71
     1
 72
     1
  1
(    )
 11
6.123233995736766E-17
 21
1.0
 31
0.0
  0
MTEXT
  5
4326
102
{ACAD_XDICTIONARY
360
4327
102
}
330
1A
100
AcDbEntity
  8
寸法線
 48
10.0
100
AcDbMText
 10
648.892852603651
 20
1370.138018031822
 30
0.0
 40
6.0
 41
101.805806042976
 71
     1
 72
     5
  1
(200/220 0)
1001
ACADANNOTATIVE
1000
AnnotativeData
1002
{
1070
     1
1070
     0
1002
}
  0
MTEXT
  5
432A
102
{ACAD_XDICTIONARY
360
432B
102
}
330
1A
100
AcDbEntity
  8
寸法線
 48
10.0
100
AcDbMText
 10
715.503322091147
 20
1407.474630111641
 30
0.0
 40
8.0
 41
251.713339384691
 71
     1
 72
     5
  1
塗　装　色：10YR7.5/14\P接点　容量：AC250V5A\P静止トルク：約10.0N・cm\P回　転　数：1RPM
1001
ACADANNOTATIVE
1000
AnnotativeData
1002
{
1070
     1
1070
     0
1002
}
  0
MTEXT
  5
432E
330
1A
100
AcDbEntity
  8
寸法線
 48
10.0
100
AcDbMText
 10
735.509606314448
 20
1440.458107183474
 30
0.0
 40
8.0
 41
161.650793650794
 71
     1
 72
     5
  1
○印が今回の貴社の御仕様です。
  0
LINE
  5
432F
330
1A
100
AcDbEntity
  8
寸法線
 62
     1
 48
10.0
100
AcDbLine
 10
712.895212628223
 20
1470.669555057348
 30
0.0
 11
875.118673375819
 21
1470.669555057348
 31
0.0
  0
LINE
  5
4330
330
1A
100
AcDbEntity
  8
寸法線
 62
     1
 48
10.0
100
AcDbLine
 10
712.895212628223
 20
1457.408006293102
 30
0.0
 11
875.118673375819
 21
1457.408006293102
 31
0.0
  0
LINE
  5
4331
330
1A
100
AcDbEntity
  8
寸法線
 62
     1
 48
10.0
100
AcDbLine
 10
712.895212628223
 20
1444.146457528855
 30
0.0
 11
875.118673375819
 21
1444.146457528855
 31
0.0
  0
LINE
  5
4332
330
1A
100
AcDbEntity
  8
寸法線
 62
     1
 48
10.0
100
AcDbLine
 10
712.895212628223
 20
1483.671073453668
 30
0.0
 11
875.118673375819
 21
1483.671073453668
 31
0.0
  0
LINE
  5
4333
330
1A
100
AcDbEntity
  8
寸法線
 62
     1
 48
10.0
100
AcDbLine
 10
745.65903898695
 20
1483.671073453668
 30
0.0
 11
745.65903898695
 21
1444.146457528855
 31
0.0
  0
LINE
  5
4334
330
1A
100
AcDbEntity
  8
寸法線
 62
     1
 48
10.0
100
AcDbLine
 10
712.895212628223
 20
1483.671073453668
 30
0.0
 11
712.895212628223
 21
1444.146457528855
 31
0.0
  0
LINE
  5
4335
330
1A
100
AcDbEntity
  8
寸法線
 62
     1
 48
10.0
100
AcDbLine
 10
810.666630968551
 20
1483.671073453668
 30
0.0
 11
810.666630968551
 21
1444.146457528855
 31
0.0
  0
LINE
  5
4336
330
1A
100
AcDbEntity
  8
寸法線
 62
     1
 48
10.0
100
AcDbLine
 10
875.118673375819
 20
1483.671073453668
 30
0.0
 11
875.118673375819
 21
1444.146457528855
 31
0.0
  0
VIEWPORT
  5
2902
330
28FB
100
AcDbEntity
 67
     1
  8
0
 48
10.0
100
AcDbViewport
 10
0.0
 20
0.0
 30
0.0
 40
453.639810131336
 41
289.410714311637
 68
     1
 69
     1
1001
ACAD
1000
MVIEW
1002
{
1070
    16
1010
0.0
1020
0.0
1030
0.0
1010
0.0
1020
0.0
1030
1.0
1040
0.0
1040
289.410714311637
1040
169.969372852034
1040
87.259871258392
1040
50.0
1040
0.0
1040
0.0
1070
    16
1070
   100
1070
     0
1070
     1
1070
     0
1070
     0
1070
     0
1070
     0
1040
0.0
1040
0.0
1040
0.0
1040
10.0
1040
10.0
1040
10.0
1040
10.0
1070
     0
1002
{
1002
}
1002
}
  0
VIEWPORT
  5
2904
330
28FB
100
AcDbEntity
 67
     1
  8
図枠太線
 48
10.0
100
AcDbViewport
 10
204.746305129083
 20
163.176661756292
 30
0.0
 40
400.0
 41
240.0
 68
     2
 69
     2
1001
ACAD
1000
MVIEW
1002
{
1070
    16
1010
0.0
1020
0.0
1030
0.0
1010
0.0
1020
0.0
1030
1.0
1040
0.0
1040
479.999997629191
1040
829.264672149099
1040
1572.52767145825
1040
50.0
1040
0.0
1040
0.0
1070
     0
1070
   100
1070
     0
1070
     0
1070
     0
1070
     0
1070
     0
1070
     0
1040
0.0
1040
0.0
1040
0.0
1040
1.0
1040
1.0
1040
0.0
1040
0.0
1070
     0
1002
{
1002
}
1002
}
  0
INSERT
  5
2A59
330
28FB
100
AcDbEntity
 67
     1
  8
図枠太線
100
AcDbBlockReference
  2
A3横用_タイトル
 10
-0.352109406709
 20
-0.349297997235
 30
0.0
  0
MTEXT
  5
2DFB
330
28FB
100
AcDbEntity
 67
     1
  8
寸法線
 48
10.0
100
AcDbMText
 10
148.95890642478
 20
15.495735089314
 30
0.0
 40
7.0
 41
16.6
 71
     1
 72
     5
  1
1:2
  0
MTEXT
  5
2DFE
330
28FB
100
AcDbEntity
 67
     1
  8
寸法線
 48
10.0
100
AcDbMText
 10
317.000776392397
 20
35.490477672036
 30
0.0
 40
7.0
 41
32.383434389391
 71
     1
 72
     5
  1
PRL-170
  0
MTEXT
  5
2DFF
330
28FB
100
AcDbEntity
 67
     1
  8
寸法線
 48
10.0
100
AcDbMText
 10
361.873883470692
 20
39.124260075462
 30
0.0
 40
5.0
 41
41.743045853249
 71
     1
 72
     5
  1
{\H0.9919x;パドル式\Pレベルスイッチ}
  0
MTEXT
  5
2E00
102
{ACAD_XDICTIONARY
360
4267
102
}
330
28FB
100
AcDbEntity
 67
     1
  8
寸法線
 48
10.0
100
AcDbMText
 10
337.742321461592
 20
16.714243611872
 30
0.0
 40
8.0
 41
38.035797213659
 71
     1
 72
     5
  1
HR-10007
1001
ACADANNOTATIVE
1000
AnnotativeData
1002
{
1070
     1
1070
     0
1002
}
  0
MTEXT
  5
2E03
102
{ACAD_XDICTIONARY
360
426D
102
}
330
28FB
100
AcDbEntity
 67
     1
  8
寸法線
 48
10.0
100
AcDbMText
 10
371.689506115943
 20
51.796836460625
 30
0.0
 40
5.0
 41
35.555555555556
 71
     1
 72
     5
  1
台数   台
1001
ACADANNOTATIVE
1000
AnnotativeData
1002
{
1070
     1
1070
     0
1002
}
  0
MTEXT
  5
414B
102
{ACAD_XDICTIONARY
360
4270
102
}
330
28FB
100
AcDbEntity
 67
     1
  8
寸法線
 48
10.0
100
AcDbMText
 10
180.653418648009
 20
33.370933997538
 30
0.0
 40
4.5
 41
21.375384236178
 71
     1
 72
     5
  1
ohno
1001
ACADANNOTATIVE
1000
AnnotativeData
1002
{
1070
     1
1070
     0
1002
}
  0
MTEXT
  5
414C
102
{ACAD_XDICTIONARY
360
426A
102
}
330
28FB
100
AcDbEntity
 67
     1
  8
寸法線
 48
10.0
100
AcDbMText
 10
174.567412479345
 20
14.700052701078
 30
0.0
 40
4.0
 41
23.156665718806
 71
     1
 72
     5
  1
\H1.25x;2015.6.11
1001
ACADANNOTATIVE
1000
AnnotativeData
1002
{
1070
     1
1070
     0
1002
}
  0
ENDSEC
  0
SECTION
  2
OBJECTS
  0
DICTIONARY
  5
C
330
0
100
AcDbDictionary
  3
ACAD_COLOR
350
2948
  3
ACAD_GROUP
350
D
  3
ACAD_LAYOUT
350
2816
  3
ACAD_MATERIAL
350
2947
  3
ACAD_MLEADERSTYLE
350
4263
  3
ACAD_MLINESTYLE
350
E
  3
ACAD_PLOTSETTINGS
350
2817
  3
ACAD_SCALELIST
350
423C
  3
ACAD_VISUALSTYLE
350
4223
  3
ACDBHEADERROUNDTRIPXREC
350
433F
  3
ACDBVARIABLEDICTIONARY
350
4337
  3
DWGPROPS
350
4364
  0
DICTIONARY
  5
4365
330
8
100
AcDbDictionary
280
     1
  3
ACAD_XREC_ROUNDTRIP
360
4366
  0
DICTIONARY
  5
29EA
330
2
100
AcDbDictionary
280
     1
  3
ACAD_LAYERFILTERS
360
2B0C
  3
ACAD_LAYERSTATES
360
29EB
  0
DICTIONARY
  5
42EE
330
42ED
100
AcDbDictionary
280
     1
  3
ACDBCONTEXTDATAMANAGER
360
42EF
  0
DICTIONARY
  5
42F2
330
42F1
100
AcDbDictionary
280
     1
  3
ACDBCONTEXTDATAMANAGER
360
42F3
  0
DICTIONARY
  5
4319
330
4318
100
AcDbDictionary
280
     1
  3
ACDBCONTEXTDATAMANAGER
360
431A
  0
DICTIONARY
  5
431E
330
431D
100
AcDbDictionary
280
     1
  3
ACDBCONTEXTDATAMANAGER
360
431F
  0
DICTIONARY
  5
4322
330
4321
100
AcDbDictionary
280
     1
  3
ACDBCONTEXTDATAMANAGER
360
4323
  0
DICTIONARY
  5
4327
330
4326
100
AcDbDictionary
280
     1
  3
ACDBCONTEXTDATAMANAGER
360
4328
  0
DICTIONARY
  5
432B
330
432A
100
AcDbDictionary
280
     1
  3
ACDBCONTEXTDATAMANAGER
360
432C
  0
DICTIONARY
  5
4267
330
2E00
100
AcDbDictionary
280
     1
  3
ACDBCONTEXTDATAMANAGER
360
4268
  0
DICTIONARY
  5
426D
330
2E03
100
AcDbDictionary
280
     1
  3
ACDBCONTEXTDATAMANAGER
360
426E
  0
DICTIONARY
  5
4270
330
414B
100
AcDbDictionary
280
     1
  3
ACDBCONTEXTDATAMANAGER
360
4271
  0
DICTIONARY
  5
426A
330
414C
100
AcDbDictionary
280
     1
  3
ACDBCONTEXTDATAMANAGER
360
426B
  0
DICTIONARY
  5
2948
102
{ACAD_REACTORS
330
C
102
}
330
C
100
AcDbDictionary
  0
DICTIONARY
  5
D
102
{ACAD_REACTORS
330
C
102
}
330
C
100
AcDbDictionary
  0
DICTIONARY
  5
2816
102
{ACAD_REACTORS
330
C
102
}
330
C
100
AcDbDictionary
  0
DICTIONARY
  5
2947
102
{ACAD_REACTORS
330
C
102
}
330
C
100
AcDbDictionary
  3
BYBLOCK
350
425F
  3
BYLAYER
350
425E
  3
GLOBAL
350
4260
  0
DICTIONARY
  5
4263
102
{ACAD_REACTORS
330
C
102
}
330
C
100
AcDbDictionary
  3
STANDARD
350
4264
  0
DICTIONARY
  5
E
102
{ACAD_REACTORS
330
C
102
}
330
C
100
AcDbDictionary
  3
STANDARD
350
13
  0
DICTIONARY
  5
2817
102
{ACAD_REACTORS
330
C
102
}
330
C
100
AcDbDictionary
  0
DICTIONARY
  5
423C
102
{ACAD_REACTORS
330
C
102
}
330
C
100
AcDbDictionary
  3
A0
350
423D
  3
A1
350
423E
  3
A2
350
423F
  3
A3
350
4240
  3
A4
350
4241
  3
A5
350
4242
  3
A6
350
4243
  3
A7
350
4244
  3
A8
350
4245
  3
A9
350
4246
  3
B0
350
4247
  3
B1
350
4248
  3
B2
350
4249
  3
B3
350
424A
  3
B4
350
424B
  3
B5
350
424C
  3
B6
350
424D
  3
B7
350
424E
  3
B8
350
424F
  3
B9
350
4250
  3
C0
350
4251
  3
C1
350
4252
  3
C2
350
4253
  3
C3
350
4254
  3
C4
350
4255
  3
C5
350
4256
  3
C6
350
4257
  3
C7
350
4258
  3
C8
350
4259
  3
C9
350
425A
  3
D0
350
425B
  3
D1
350
425C
  3
D2
350
425D
  0
DICTIONARY
  5
4223
102
{ACAD_REACTORS
330
C
102
}
330
C
100
AcDbDictionary
  3
2DWIREFRAME
350
4228
  3
BASIC
350
422B
  3
BRIGHTEN
350
422F
  3
COLORCHANGE
350
4233
  3
CONCEPTUAL
350
422D
  3
DIM
350
422E
  3
EDGECOLOROFF
350
4236
  3
FACEPATTERN
350
4232
  3
FLAT
350
4224
  3
FLATWITHEDGES
350
4225
  3
GOURAUD
350
4226
  3
GOURAUDWITHEDGES
350
4227
  3
HIDDEN
350
422A
  3
JITTEROFF
350
4234
  3
LINEPATTERN
350
4231
  3
OVERHANGOFF
350
4235
  3
REALISTIC
350
422C
  3
SHADED
350
423B
  3
SHADED_WITH_EDGES
350
423A
  3
SHADES_OF_GRAY
350
4237
  3
SKETCHY
350
4238
  3
THICKEN
350
4230
  3
WIREFRAME
350
4229
  3
X-RAY
350
4239
  0
DICTIONARY
  5
433F
102
{ACAD_REACTORS
330
C
102
}
330
C
100
AcDbDictionary
  3
CEPSNID
350
4349
  3
CEPSNTYPE
350
4348
  3
COLORDICT
350
4362
  3
DIMSTYLEDATA
350
435F
  3
FINGERPRINTGUID
350
434A
  3
HYPERLINKBASE
350
4342
  3
INSUNITS
350
4347
  3
LAYOUTDICT
350
4344
  3
LWETCUNION
350
4346
  3
MATERIALDICT
350
4363
  3
PLOTSETDICT
350
4345
  3
PSVPSCALE
350
434C
  3
PUCSBASE
350
434F
  3
PUCSORGBACK
350
4355
  3
PUCSORGBOTTOM
350
4351
  3
PUCSORGFRONT
350
4354
  3
PUCSORGLEFT
350
4352
  3
PUCSORGRIGHT
350
4353
  3
PUCSORGTOP
350
4350
  3
PUCSORTHOREF
350
434D
  3
PUCSORTHOVIEW
350
434E
  3
STYLESHEET
350
4343
  3
TSTACKALIGN
350
4340
  3
TSTACKSIZE
350
4341
  3
UCSBASE
350
4358
  3
UCSORGBACK
350
435E
  3
UCSORGBOTTOM
350
435A
  3
UCSORGFRONT
350
435D
  3
UCSORGLEFT
350
435B
  3
UCSORGRIGHT
350
435C
  3
UCSORGTOP
350
4359
  3
UCSORTHOREF
350
4356
  3
UCSORTHOVIEW
350
4357
  3
VERSIONGUID
350
434B
  0
DICTIONARY
  5
4337
102
{ACAD_REACTORS
330
C
102
}
330
C
100
AcDbDictionary
  3
CANNOSCALE
350
4338
  3
CMLEADERSTYLE
350
433A
  3
CTABLESTYLE
350
4339
  3
DIMASSOC
350
4360
  3
HIDETEXT
350
4361
  3
MSLTSCALE
350
433B
  3
XCLIPFRAME
350
433C
  0
XRECORD
  5
4364
102
{ACAD_REACTORS
330
C
102
}
330
C
100
AcDbXrecord
  1
DWGPROPS COOKIE
  2

  3

  4

  6

  7

  8
y-ohno
  9

300
=
301
=
302
=
303
=
304
=
305
=
306
=
307
=
308
=
309
=
 40
0.0
 41
2450576.222302431
 42
2457191.27638066
  1

 90
        0
  0
XRECORD
  5
4366
102
{ACAD_REACTORS
330
4365
102
}
330
4365
100
AcDbXrecord
102
VTR_0.000_0.000_1.000_1.000_VISUALSTYLE
340
4228
102
VTR_0.000_0.000_1.000_1.000_GRIDDISPLAY
 70
     3
102
VTR_0.000_0.000_1.000_1.000_GRIDMAJOR
 70
     5
102
VTR_0.000_0.000_1.000_1.000_DEFAULTLIGHTING
280
     1
102
VTR_0.000_0.000_1.000_1.000_DEFAULTLIGHTINGTYPE
 70
     1
102
VTR_0.000_0.000_1.000_1.000_BRIGHTNESS
141
0.0
102
VTR_0.000_0.000_1.000_1.000_CONTRAST
142
0.0
  0
DICTIONARY
  5
2B0C
102
{ACAD_REACTORS
330
29EA
102
}
330
29EA
100
AcDbDictionary
  0
DICTIONARY
  5
29EB
102
{ACAD_REACTORS
330
29EA
102
}
330
29EA
100
AcDbDictionary
  0
DICTIONARY
  5
42EF
102
{ACAD_REACTORS
330
42EE
102
}
330
42EE
100
AcDbDictionary
  3
ACDB_ANNOTATIONSCALES
350
42F0
  0
DICTIONARY
  5
42F3
102
{ACAD_REACTORS
330
42F2
102
}
330
42F2
100
AcDbDictionary
  3
ACDB_ANNOTATIONSCALES
350
42F4
  0
DICTIONARY
  5
431A
102
{ACAD_REACTORS
330
4319
102
}
330
4319
100
AcDbDictionary
  3
ACDB_ANNOTATIONSCALES
350
431B
  0
DICTIONARY
  5
431F
102
{ACAD_REACTORS
330
431E
102
}
330
431E
100
AcDbDictionary
  3
ACDB_ANNOTATIONSCALES
350
4320
  0
DICTIONARY
  5
4323
102
{ACAD_REACTORS
330
4322
102
}
330
4322
100
AcDbDictionary
  3
ACDB_ANNOTATIONSCALES
350
4324
  0
DICTIONARY
  5
4328
102
{ACAD_REACTORS
330
4327
102
}
330
4327
100
AcDbDictionary
  3
ACDB_ANNOTATIONSCALES
350
4329
  0
DICTIONARY
  5
432C
102
{ACAD_REACTORS
330
432B
102
}
330
432B
100
AcDbDictionary
  3
ACDB_ANNOTATIONSCALES
350
432D
  0
DICTIONARY
  5
4268
102
{ACAD_REACTORS
330
4267
102
}
330
4267
100
AcDbDictionary
  3
ACDB_ANNOTATIONSCALES
350
4269
  0
DICTIONARY
  5
426E
102
{ACAD_REACTORS
330
426D
102
}
330
426D
100
AcDbDictionary
  3
ACDB_ANNOTATIONSCALES
350
426F
  0
DICTIONARY
  5
4271
102
{ACAD_REACTORS
330
4270
102
}
330
4270
100
AcDbDictionary
  3
ACDB_ANNOTATIONSCALES
350
4272
  0
DICTIONARY
  5
426B
102
{ACAD_REACTORS
330
426A
102
}
330
426A
100
AcDbDictionary
  3
ACDB_ANNOTATIONSCALES
350
426C
  0
MATERIAL
  5
425F
102
{ACAD_REACTORS
330
2947
102
}
102
{ACAD_XDICTIONARY
360
4369
102
}
330
2947
100
AcDbMaterial
  1
BYBLOCK
  0
MATERIAL
  5
425E
102
{ACAD_REACTORS
330
2947
102
}
102
{ACAD_XDICTIONARY
360
4367
102
}
330
2947
100
AcDbMaterial
  1
BYLAYER
  0
MATERIAL
  5
4260
102
{ACAD_REACTORS
330
2947
102
}
102
{ACAD_XDICTIONARY
360
436B
102
}
330
2947
100
AcDbMaterial
  1
GLOBAL
  0
ACAD_PROXY_OBJECT
  5
4264
102
{ACAD_REACTORS
330
4263
102
}
330
4263
100
AcDbProxyObject
 90
      499
 91
      508
 93
      610
310
40901902A4063FBFFFFFE0000000000000020400000000000020404214DD185B99185C990000000000000104090141901A00000000000004100000000000000041025764000000000000039000
340
14
340
0
340
10
340
0
 94
        0
1001
ACAD_MLEADERVER
1070
     2
  0
MLINESTYLE
  5
13
102
{ACAD_REACTORS
330
E
102
}
330
E
100
AcDbMlineStyle
  2
STANDARD
 70
     0
  3

 62
     0
 51
90.0
 52
90.0
 71
     2
 49
0.5
 62
   256
  6
BYLAYER
 49
-0.5
 62
   256
  6
BYLAYER
  0
ACAD_PROXY_OBJECT
  5
423D
102
{ACAD_REACTORS
330
423C
102
}
330
423C
100
AcDbProxyObject
 90
      499
 91
      505
 93
       41
310
903313A31580
  0
ACAD_PROXY_OBJECT
  5
423E
102
{ACAD_REACTORS
330
423C
102
}
330
423C
100
AcDbProxyObject
 90
      499
 91
      505
 93
      105
310
903313A324000000000000004000
  0
ACAD_PROXY_OBJECT
  5
423F
102
{ACAD_REACTORS
330
423C
102
}
330
423C
100
AcDbProxyObject
 90
      499
 91
      505
 93
      105
310
903313A344000000000000104000
  0
ACAD_PROXY_OBJECT
  5
4240
102
{ACAD_REACTORS
330
423C
102
}
330
423C
100
AcDbProxyObject
 90
      499
 91
      505
 93
      105
310
903313A354000000000000144000
  0
ACAD_PROXY_OBJECT
  5
4241
102
{ACAD_REACTORS
330
423C
102
}
330
423C
100
AcDbProxyObject
 90
      499
 91
      505
 93
      105
310
903313A384000000000000204000
  0
ACAD_PROXY_OBJECT
  5
4242
102
{ACAD_REACTORS
330
423C
102
}
330
423C
100
AcDbProxyObject
 90
      499
 91
      505
 93
      113
310
904313A31304000000000000244000
  0
ACAD_PROXY_OBJECT
  5
4243
102
{ACAD_REACTORS
330
423C
102
}
330
423C
100
AcDbProxyObject
 90
      499
 91
      505
 93
      113
310
904313A31364000000000000304000
  0
ACAD_PROXY_OBJECT
  5
4244
102
{ACAD_REACTORS
330
423C
102
}
330
423C
100
AcDbProxyObject
 90
      499
 91
      505
 93
      113
310
904313A32304000000000000344000
  0
ACAD_PROXY_OBJECT
  5
4245
102
{ACAD_REACTORS
330
423C
102
}
330
423C
100
AcDbProxyObject
 90
      499
 91
      505
 93
      113
310
904313A333040000000000003E4000
  0
ACAD_PROXY_OBJECT
  5
4246
102
{ACAD_REACTORS
330
423C
102
}
330
423C
100
AcDbProxyObject
 90
      499
 91
      505
 93
      113
310
904313A34304000000000000444000
  0
ACAD_PROXY_OBJECT
  5
4247
102
{ACAD_REACTORS
330
423C
102
}
330
423C
100
AcDbProxyObject
 90
      499
 91
      505
 93
      113
310
904313A35304000000000000494000
  0
ACAD_PROXY_OBJECT
  5
4248
102
{ACAD_REACTORS
330
423C
102
}
330
423C
100
AcDbProxyObject
 90
      499
 91
      505
 93
      121
310
905313A3130304000000000000594000
  0
ACAD_PROXY_OBJECT
  5
4249
102
{ACAD_REACTORS
330
423C
102
}
330
423C
100
AcDbProxyObject
 90
      499
 91
      505
 93
      105
310
903323A310000000000000010100
  0
ACAD_PROXY_OBJECT
  5
424A
102
{ACAD_REACTORS
330
423C
102
}
330
423C
100
AcDbProxyObject
 90
      499
 91
      505
 93
      105
310
903343A310000000000000410100
  0
ACAD_PROXY_OBJECT
  5
424B
102
{ACAD_REACTORS
330
423C
102
}
330
423C
100
AcDbProxyObject
 90
      499
 91
      505
 93
      105
310
903383A310000000000000810100
  0
ACAD_PROXY_OBJECT
  5
424C
102
{ACAD_REACTORS
330
423C
102
}
330
423C
100
AcDbProxyObject
 90
      499
 91
      505
 93
      113
310
90431303A310000000000000910100
  0
ACAD_PROXY_OBJECT
  5
424D
102
{ACAD_REACTORS
330
423C
102
}
330
423C
100
AcDbProxyObject
 90
      499
 91
      505
 93
      121
310
9053130303A310000000000001650100
  0
ACAD_PROXY_OBJECT
  5
424E
102
{ACAD_REACTORS
330
423C
102
}
330
423C
100
AcDbProxyObject
 90
      499
 91
      505
 93
      257
310
90E312F31323822203D2031272D3022000000000000200FC000000000000284000
  0
ACAD_PROXY_OBJECT
  5
424F
102
{ACAD_REACTORS
330
423C
102
}
330
423C
100
AcDbProxyObject
 90
      499
 91
      505
 93
      249
310
90D312F363422203D2031272D3022000000000000240FC000000000000284000
  0
ACAD_PROXY_OBJECT
  5
4250
102
{ACAD_REACTORS
330
423C
102
}
330
423C
100
AcDbProxyObject
 90
      499
 91
      505
 93
      249
310
90D312F333222203D2031272D3022000000000000280FC000000000000284000
  0
ACAD_PROXY_OBJECT
  5
4251
102
{ACAD_REACTORS
330
423C
102
}
330
423C
100
AcDbProxyObject
 90
      499
 91
      505
 93
      249
310
90D312F313622203D2031272D30220000000000002C0FC000000000000284000
  0
ACAD_PROXY_OBJECT
  5
4252
102
{ACAD_REACTORS
330
423C
102
}
330
423C
100
AcDbProxyObject
 90
      499
 91
      505
 93
      249
310
90D332F333222203D2031272D30220000000000002E0FC000000000000284000
  0
ACAD_PROXY_OBJECT
  5
4253
102
{ACAD_REACTORS
330
423C
102
}
330
423C
100
AcDbProxyObject
 90
      499
 91
      505
 93
      241
310
90C312F3822203D2031272D3022000000000000300FC000000000000284000
  0
ACAD_PROXY_OBJECT
  5
4254
102
{ACAD_REACTORS
330
423C
102
}
330
423C
100
AcDbProxyObject
 90
      499
 91
      505
 93
      249
310
90D332F313622203D2031272D3022000000000000320FC000000000000284000
  0
ACAD_PROXY_OBJECT
  5
4255
102
{ACAD_REACTORS
330
423C
102
}
330
423C
100
AcDbProxyObject
 90
      499
 91
      505
 93
      241
310
90C312F3422203D2031272D3022000000000000340FC000000000000284000
  0
ACAD_PROXY_OBJECT
  5
4256
102
{ACAD_REACTORS
330
423C
102
}
330
423C
100
AcDbProxyObject
 90
      499
 91
      505
 93
      241
310
90C332F3822203D2031272D3022000000000000360FC000000000000284000
  0
ACAD_PROXY_OBJECT
  5
4257
102
{ACAD_REACTORS
330
423C
102
}
330
423C
100
AcDbProxyObject
 90
      499
 91
      505
 93
      241
310
90C312F3222203D2031272D3022000000000000380FC000000000000284000
  0
ACAD_PROXY_OBJECT
  5
4258
102
{ACAD_REACTORS
330
423C
102
}
330
423C
100
AcDbProxyObject
 90
      499
 91
      505
 93
      241
310
90C332F3422203D2031272D30220000000000003A0FC000000000000284000
  0
ACAD_PROXY_OBJECT
  5
4259
102
{ACAD_REACTORS
330
423C
102
}
330
423C
100
AcDbProxyObject
 90
      499
 91
      505
 93
      161
310
90A3122203D2031272D30224000000000000284000
  0
ACAD_PROXY_OBJECT
  5
425A
102
{ACAD_REACTORS
330
423C
102
}
330
423C
100
AcDbProxyObject
 90
      499
 91
      505
 93
      257
310
90E312D312F3222203D2031272D30220000000000003E0FC000000000000284000
  0
ACAD_PROXY_OBJECT
  5
425B
102
{ACAD_REACTORS
330
423C
102
}
330
423C
100
AcDbProxyObject
 90
      499
 91
      505
 93
      225
310
90A3322203D2031272D302200000000000002100000000000000284000
  0
ACAD_PROXY_OBJECT
  5
425C
102
{ACAD_REACTORS
330
423C
102
}
330
423C
100
AcDbProxyObject
 90
      499
 91
      505
 93
      225
310
90A3622203D2031272D302200000000000006100000000000000284000
  0
ACAD_PROXY_OBJECT
  5
425D
102
{ACAD_REACTORS
330
423C
102
}
330
423C
100
AcDbProxyObject
 90
      499
 91
      505
 93
      249
310
90D31272D3022203D2031272D30220000000000000A100000000000000284000
  0
ACAD_PROXY_OBJECT
  5
4228
102
{ACAD_REACTORS
330
4223
102
}
330
4223
100
AcDbProxyObject
 90
      499
 91
      504
 93
      436
310
42CC9915DA5C99599C985B595049028333333333333E33F0000000000000F90107901411070040501600405405064090741402480A0340
1001
ACAD
1000
AcDbSavedByObjectVersion
1070
     0
  0
ACAD_PROXY_OBJECT
  5
422B
102
{ACAD_REACTORS
330
4223
102
}
330
4223
100
AcDbProxyObject
 90
      499
 91
      504
 93
      388
310
4150985CDA58D07406404333333333333E33F0000000000000F90107A41107004050150841D405064090741402480A0350
1001
ACAD
1000
AcDbSavedByObjectVersion
1070
     0
  0
ACAD_PROXY_OBJECT
  5
422F
102
{ACAD_REACTORS
330
4223
102
}
330
4223
100
AcDbProxyObject
 90
      499
 91
      504
 93
      428
310
42109C9A59DA1D195B90C409028333333333333E33F0000000000000F9010790141107004050150841D405064090741402480A029950
1001
ACAD
1000
AcDbSavedByObjectVersion
1070
     0
  0
ACAD_PROXY_OBJECT
  5
4233
102
{ACAD_REACTORS
330
4223
102
}
330
4223
100
AcDbProxyObject
 90
      499
 91
      504
 93
      452
310
42D0DBDB1BDC90DA185B99D95104090240C333333333333E33F0000000000000F90108901411070040501508421405064090741402480A0350
1001
ACAD
1000
AcDbSavedByObjectVersion
1070
     0
  0
ACAD_PROXY_OBJECT
  5
422D
102
{ACAD_REACTORS
330
4223
102
}
330
4223
100
AcDbProxyObject
 90
      499
 91
      504
 93
      500
310
4290DBDB98D95C1D1D585B10940D028333333333333E33F0000000000000F90107902409070040501000000000018199010841D405064090740C02480A0340
1001
ACAD
1000
AcDbSavedByObjectVersion
1070
     0
  0
ACAD_PROXY_OBJECT
  5
422E
102
{ACAD_REACTORS
330
4223
102
}
330
4223
100
AcDbProxyObject
 90
      499
 91
      504
 93
      412
310
40D11A5B50B409028333333333333E33F0000000000000F9010790141107004050150841D405064090741402480A02677FFFFFD0
1001
ACAD
1000
AcDbSavedByObjectVersion
1070
     0
  0
ACAD_PROXY_OBJECT
  5
4236
102
{ACAD_REACTORS
330
4223
102
}
330
4223
100
AcDbProxyObject
 90
      499
 91
      504
 93
      452
310
43115919D950DBDB1BDC93D999916409028333333333333E33F0000000000000F9010790141107004050150841D405064090741402480A0350
1001
ACAD
1000
AcDbSavedByObjectVersion
1070
     0
  0
ACAD_PROXY_OBJECT
  5
4232
102
{ACAD_REACTORS
330
4223
102
}
330
4223
100
AcDbProxyObject
 90
      499
 91
      504
 93
      444
310
42D19858D95C185D1D195C9B90F409028333333333333E33F0000000000000F9010790141107004050150841D405064090741402480A0350
1001
ACAD
1000
AcDbSavedByObjectVersion
1070
     0
  0
ACAD_PROXY_OBJECT
  5
4224
102
{ACAD_REACTORS
330
4223
102
}
330
4223
100
AcDbProxyObject
 90
      499
 91
      504
 93
      380
310
41119B185D240901404333333333333E33F0000000000000F9010740A907004050150841D405064090741402480A1B50
1001
ACAD
1000
AcDbSavedByObjectVersion
1070
     0
  0
ACAD_PROXY_OBJECT
  5
4225
102
{ACAD_REACTORS
330
4223
102
}
330
4223
100
AcDbProxyObject
 90
      499
 91
      504
 93
      468
310
43519B185D15DA5D1A115919D95CD0140901404333333333333E33F0000000000000F90107409019070040501600405405064090741402480A1B50
1001
ACAD
1000
AcDbSavedByObjectVersion
1070
     0
  0
ACAD_PROXY_OBJECT
  5
4226
102
{ACAD_REACTORS
330
4223
102
}
330
4223
100
AcDbProxyObject
 90
      499
 91
      504
 93
      404
310
41D1DBDD5C985D5910240902404333333333333E33F0000000000000F9010740A9070040501641D405064090741402480A1B50
1001
ACAD
1000
AcDbSavedByObjectVersion
1070
     0
  0
ACAD_PROXY_OBJECT
  5
4227
102
{ACAD_REACTORS
330
4223
102
}
330
4223
100
AcDbProxyObject
 90
      499
 91
      504
 93
      492
310
4411DBDD5C985D5915DA5D1A115919D95CD0340902404333333333333E33F0000000000000F90107409019070040501600405405064090741402480A1B50
1001
ACAD
1000
AcDbSavedByObjectVersion
1070
     0
  0
ACAD_PROXY_OBJECT
  5
422A
102
{ACAD_REACTORS
330
4223
102
}
330
4223
100
AcDbProxyObject
 90
      499
 91
      504
 93
      476
310
41921A5919195B90640502408333333333333E33F0000000000000F901079024090700405020000000000001110200405405064090740C02480A0340
1001
ACAD
1000
AcDbSavedByObjectVersion
1070
     0
  0
ACAD_PROXY_OBJECT
  5
4234
102
{ACAD_REACTORS
330
4223
102
}
330
4223
100
AcDbProxyObject
 90
      499
 91
      504
 93
      428
310
42529A5D1D195C93D999914409028333333333333E33F0000000000000F9010790141107004050150A41D405064090741402480A0350
1001
ACAD
1000
AcDbSavedByObjectVersion
1070
     0
  0
ACAD_PROXY_OBJECT
  5
4231
102
{ACAD_REACTORS
330
4223
102
}
330
4223
100
AcDbProxyObject
 90
      499
 91
      504
 93
      444
310
42D31A5B995C185D1D195C9B90E409028333333333333E33F0000000000000F9010790141107004050750841D405064090741402483A0350
1001
ACAD
1000
AcDbSavedByObjectVersion
1070
     0
  0
ACAD_PROXY_OBJECT
  5
4235
102
{ACAD_REACTORS
330
4223
102
}
330
4223
100
AcDbProxyObject
 90
      499
 91
      504
 93
      444
310
42D3DD995C9A185B99D3D999915409028333333333333E33F0000000000000F9010790141107004050150941D405064090741402480A0350
1001
ACAD
1000
AcDbSavedByObjectVersion
1070
     0
  0
ACAD_PROXY_OBJECT
  5
422C
102
{ACAD_REACTORS
330
4223
102
}
330
4223
100
AcDbProxyObject
 90
      499
 91
      504
 93
      428
310
425499585B1A5CDD1A58D08409038333333333333E33F0000000000000F9010740A907004050150800405405064090740C02480A1B40
1001
ACAD
1000
AcDbSavedByObjectVersion
1070
     0
  0
ACAD_PROXY_OBJECT
  5
423B
102
{ACAD_REACTORS
330
4223
102
}
330
4223
100
AcDbProxyObject
 90
      499
 91
      504
 93
      420
310
4194DA1859195911B40902404333333333333E33F0000000000000F9010740A41107004050150800405405064090840C02480A0B40
1001
ACAD
1000
AcDbSavedByObjectVersion
1070
     0
  0
ACAD_PROXY_OBJECT
  5
423A
102
{ACAD_REACTORS
330
4223
102
}
330
4223
100
AcDbProxyObject
 90
      499
 91
      504
 93
      516
310
4454DA18591959081DDA5D1A08195919D95CD1A40902404333333333333E33F0000000000000F901074090142907004050250800405405064090740C02480A0B40
1001
ACAD
1000
AcDbSavedByObjectVersion
1070
     0
  0
ACAD_PROXY_OBJECT
  5
4237
102
{ACAD_REACTORS
330
4223
102
}
330
4223
100
AcDbProxyObject
 90
      499
 91
      504
 93
      532
310
4394DA1859195CC81BD98811DC985E5174090240C333333333333E33F0000000000000F901079024090741D01000000000000111010841D405064090740C02480A0340
1001
ACAD
1000
AcDbSavedByObjectVersion
1070
     0
  0
ACAD_PROXY_OBJECT
  5
4238
102
{ACAD_REACTORS
330
4223
102
}
330
4223
100
AcDbProxyObject
 90
      499
 91
      504
 93
      476
310
41D4DAD95D18DA1E51840502408333333333333E33F0000000000000F901079024090741D01000000000000111010B41D405064090741802480A0340
1001
ACAD
1000
AcDbSavedByObjectVersion
1070
     0
  0
ACAD_PROXY_OBJECT
  5
4230
102
{ACAD_REACTORS
330
4223
102
}
330
4223
100
AcDbProxyObject
 90
      499
 91
      504
 93
      412
310
41D51A1A58DAD95B90D409028333333333333E33F0000000000000F9010790141107004050150C41D405064090741402480A0350
1001
ACAD
1000
AcDbSavedByObjectVersion
1070
     0
  0
ACAD_PROXY_OBJECT
  5
4229
102
{ACAD_REACTORS
330
4223
102
}
330
4223
100
AcDbProxyObject
 90
      499
 91
      504
 93
      420
310
4255DA5C99599C985B595059028333333333333E33F0000000000000F90107901411070040501600405405064090740C02480A0340
1001
ACAD
1000
AcDbSavedByObjectVersion
1070
     0
  0
ACAD_PROXY_OBJECT
  5
4239
102
{ACAD_REACTORS
330
4223
102
}
330
4223
100
AcDbProxyObject
 90
      499
 91
      504
 93
      404
310
41560B54985E51940902404000000000000E03F0000000000000F9010740501907004050150841D405064090740C02480A1B40
1001
ACAD
1000
AcDbSavedByObjectVersion
1070
     0
  0
XRECORD
  5
4349
102
{ACAD_REACTORS
330
433F
102
}
330
433F
100
AcDbXrecord
340
0
  0
XRECORD
  5
4348
102
{ACAD_REACTORS
330
433F
102
}
330
433F
100
AcDbXrecord
 90
        0
  0
XRECORD
  5
4362
102
{ACAD_REACTORS
330
433F
102
}
330
433F
100
AcDbXrecord
340
2948
  0
XRECORD
  5
435F
102
{ACAD_REACTORS
330
433F
102
}
330
433F
100
AcDbXrecord
1000
DSTYLE
1002
{
1070
   171
 70
     2
1070
   143
 40
0.0394
1070
   274
 70
     2
1070
    41
 40
6.0
1070
   342
340
2AF4
1070
   271
 70
     1
1070
   278
 70
    46
1070
   341
340
2AF4
1070
   272
 70
     1
1070
    48
 40
0.1
1070
   283
 70
     1
1070
    47
 40
0.1
1070
   145
 40
1.0
1070
   340
340
10
1070
   140
 40
8.0
1070
   284
 70
     0
1002
}
  0
XRECORD
  5
434A
102
{ACAD_REACTORS
330
433F
102
}
330
433F
100
AcDbXrecord
  1
{23698909-1D67-4744-B0E2-8DE11E3ED422}
  0
XRECORD
  5
4342
102
{ACAD_REACTORS
330
433F
102
}
330
433F
100
AcDbXrecord
  1

  0
XRECORD
  5
4347
102
{ACAD_REACTORS
330
433F
102
}
330
433F
100
AcDbXrecord
 90
        0
  0
XRECORD
  5
4344
102
{ACAD_REACTORS
330
433F
102
}
330
433F
100
AcDbXrecord
340
2816
  0
XRECORD
  5
4346
102
{ACAD_REACTORS
330
433F
102
}
330
433F
100
AcDbXrecord
 90
    10781
  0
XRECORD
  5
4363
102
{ACAD_REACTORS
330
433F
102
}
330
433F
100
AcDbXrecord
340
2947
  0
XRECORD
  5
4345
102
{ACAD_REACTORS
330
433F
102
}
330
433F
100
AcDbXrecord
340
2817
  0
XRECORD
  5
434C
102
{ACAD_REACTORS
330
433F
102
}
330
433F
100
AcDbXrecord
 40
0.25
  0
XRECORD
  5
434F
102
{ACAD_REACTORS
330
433F
102
}
330
433F
100
AcDbXrecord
340
0
  0
XRECORD
  5
4355
102
{ACAD_REACTORS
330
433F
102
}
330
433F
100
AcDbXrecord
 10
0.0
 20
0.0
 30
0.0
  0
XRECORD
  5
4351
102
{ACAD_REACTORS
330
433F
102
}
330
433F
100
AcDbXrecord
 10
0.0
 20
0.0
 30
0.0
  0
XRECORD
  5
4354
102
{ACAD_REACTORS
330
433F
102
}
330
433F
100
AcDbXrecord
 10
0.0
 20
0.0
 30
0.0
  0
XRECORD
  5
4352
102
{ACAD_REACTORS
330
433F
102
}
330
433F
100
AcDbXrecord
 10
0.0
 20
0.0
 30
0.0
  0
XRECORD
  5
4353
102
{ACAD_REACTORS
330
433F
102
}
330
433F
100
AcDbXrecord
 10
0.0
 20
0.0
 30
0.0
  0
XRECORD
  5
4350
102
{ACAD_REACTORS
330
433F
102
}
330
433F
100
AcDbXrecord
 10
0.0
 20
0.0
 30
0.0
  0
XRECORD
  5
434D
102
{ACAD_REACTORS
330
433F
102
}
330
433F
100
AcDbXrecord
340
0
  0
XRECORD
  5
434E
102
{ACAD_REACTORS
330
433F
102
}
330
433F
100
AcDbXrecord
 70
     0
  0
XRECORD
  5
4343
102
{ACAD_REACTORS
330
433F
102
}
330
433F
100
AcDbXrecord
  1

  0
XRECORD
  5
4340
102
{ACAD_REACTORS
330
433F
102
}
330
433F
100
AcDbXrecord
 90
        1
  0
XRECORD
  5
4341
102
{ACAD_REACTORS
330
433F
102
}
330
433F
100
AcDbXrecord
 90
       70
  0
XRECORD
  5
4358
102
{ACAD_REACTORS
330
433F
102
}
330
433F
100
AcDbXrecord
340
0
  0
XRECORD
  5
435E
102
{ACAD_REACTORS
330
433F
102
}
330
433F
100
AcDbXrecord
 10
0.0
 20
0.0
 30
0.0
  0
XRECORD
  5
435A
102
{ACAD_REACTORS
330
433F
102
}
330
433F
100
AcDbXrecord
 10
0.0
 20
0.0
 30
0.0
  0
XRECORD
  5
435D
102
{ACAD_REACTORS
330
433F
102
}
330
433F
100
AcDbXrecord
 10
0.0
 20
0.0
 30
0.0
  0
XRECORD
  5
435B
102
{ACAD_REACTORS
330
433F
102
}
330
433F
100
AcDbXrecord
 10
0.0
 20
0.0
 30
0.0
  0
XRECORD
  5
435C
102
{ACAD_REACTORS
330
433F
102
}
330
433F
100
AcDbXrecord
 10
0.0
 20
0.0
 30
0.0
  0
XRECORD
  5
4359
102
{ACAD_REACTORS
330
433F
102
}
330
433F
100
AcDbXrecord
 10
0.0
 20
0.0
 30
0.0
  0
XRECORD
  5
4356
102
{ACAD_REACTORS
330
433F
102
}
330
433F
100
AcDbXrecord
340
0
  0
XRECORD
  5
4357
102
{ACAD_REACTORS
330
433F
102
}
330
433F
100
AcDbXrecord
 70
     0
  0
XRECORD
  5
434B
102
{ACAD_REACTORS
330
433F
102
}
330
433F
100
AcDbXrecord
  1
{39B2865F-2750-480A-9FCE-D6DA4DE0444B}
  0
DICTIONARYVAR
  5
4338
102
{ACAD_REACTORS
330
4337
102
}
330
4337
100
DictionaryVariables
280
     0
  1
1:1
  0
DICTIONARYVAR
  5
433A
102
{ACAD_REACTORS
330
4337
102
}
330
4337
100
DictionaryVariables
280
     0
  1
Standard
  0
DICTIONARYVAR
  5
4339
102
{ACAD_REACTORS
330
4337
102
}
330
4337
100
DictionaryVariables
280
     0
  1
Standard
  0
DICTIONARYVAR
  5
4360
102
{ACAD_REACTORS
330
4337
102
}
330
4337
100
DictionaryVariables
280
     0
  1
1
  0
DICTIONARYVAR
  5
4361
102
{ACAD_REACTORS
330
4337
102
}
330
4337
100
DictionaryVariables
280
     0
  1
0
  0
DICTIONARYVAR
  5
433B
102
{ACAD_REACTORS
330
4337
102
}
330
4337
100
DictionaryVariables
280
     0
  1
0
  0
DICTIONARYVAR
  5
433C
102
{ACAD_REACTORS
330
4337
102
}
330
4337
100
DictionaryVariables
280
     0
  1
0
  0
DICTIONARY
  5
42F0
102
{ACAD_REACTORS
330
42EF
102
}
330
42EF
100
AcDbDictionary
  0
DICTIONARY
  5
42F4
102
{ACAD_REACTORS
330
42F3
102
}
330
42F3
100
AcDbDictionary
  0
DICTIONARY
  5
431B
102
{ACAD_REACTORS
330
431A
102
}
330
431A
100
AcDbDictionary
  0
DICTIONARY
  5
4320
102
{ACAD_REACTORS
330
431F
102
}
330
431F
100
AcDbDictionary
  0
DICTIONARY
  5
4324
102
{ACAD_REACTORS
330
4323
102
}
330
4323
100
AcDbDictionary
  0
DICTIONARY
  5
4329
102
{ACAD_REACTORS
330
4328
102
}
330
4328
100
AcDbDictionary
  0
DICTIONARY
  5
432D
102
{ACAD_REACTORS
330
432C
102
}
330
432C
100
AcDbDictionary
  0
DICTIONARY
  5
4269
102
{ACAD_REACTORS
330
4268
102
}
330
4268
100
AcDbDictionary
  0
DICTIONARY
  5
426F
102
{ACAD_REACTORS
330
426E
102
}
330
426E
100
AcDbDictionary
  0
DICTIONARY
  5
4272
102
{ACAD_REACTORS
330
4271
102
}
330
4271
100
AcDbDictionary
  0
DICTIONARY
  5
426C
102
{ACAD_REACTORS
330
426B
102
}
330
426B
100
AcDbDictionary
  0
DICTIONARY
  5
4369
330
425F
100
AcDbDictionary
280
     1
  3
ACAD_XREC_ROUNDTRIP
360
436A
  0
DICTIONARY
  5
4367
330
425E
100
AcDbDictionary
280
     1
  3
ACAD_XREC_ROUNDTRIP
360
4368
  0
DICTIONARY
  5
436B
330
4260
100
AcDbDictionary
280
     1
  3
ACAD_XREC_ROUNDTRIP
360
436C
  0
XRECORD
  5
436A
102
{ACAD_REACTORS
330
4369
102
}
330
4369
100
AcDbXrecord
102
MATERIAL
148
0.0
149
0.0
149
0.0
 93
        0
 94
      127
282
     0
 72
     1
 77
     1
171
     1
175
     1
179
     1
273
     0
  0
XRECORD
  5
4368
102
{ACAD_REACTORS
330
4367
102
}
330
4367
100
AcDbXrecord
102
MATERIAL
148
0.0
149
0.0
149
0.0
 93
        0
 94
      127
282
     0
 72
     1
 77
     1
171
     1
175
     1
179
     1
273
     0
  0
XRECORD
  5
436C
102
{ACAD_REACTORS
330
436B
102
}
330
436B
100
AcDbXrecord
102
MATERIAL
148
0.0
149
0.0
149
0.0
 93
        0
 94
      127
282
     0
 72
     1
 77
     1
171
     1
175
     1
179
     1
273
     0
  0
ENDSEC
  0
EOF
