  0
SECTION
  2
HEADER
  9
$ACADVER
  1
AC1014
  9
$ACADMAINTVER
 70
     9
  9
$DWGCODEPAGE
  3
ANSI_932
  9
$INSBASE
 10
0.0
 20
0.0
 30
0.0
  9
$EXTMIN
 10
-302.945413251416
 20
636.599018833156
 30
0.0
  9
$EXTMAX
 10
463.886390472042
 20
1058.442129736309
 30
0.0
  9
$LIMMIN
 10
-360.747566795242
 20
4.457354754526
  9
$LIMMAX
 10
-162.153696144267
 20
287.675440264018
  9
$ORTHOMODE
 70
     1
  9
$REGENMODE
 70
     1
  9
$FILLMODE
 70
     1
  9
$QTEXTMODE
 70
     0
  9
$MIRRTEXT
 70
     1
  9
$DRAGMODE
 70
     2
  9
$LTSCALE
 40
1.0
  9
$OSMODE
 70
    32
  9
$ATTMODE
 70
     1
  9
$TEXTSIZE
 40
2.333873885063
  9
$TRACEWID
 40
1.0
  9
$TEXTSTYLE
  7
STANDARD
  9
$CLAYER
  8
外形線
  9
$CELTYPE
  6
BYLAYER
  9
$CECOLOR
 62
   256
  9
$CELTSCALE
 40
10.0
  9
$DELOBJ
 70
     1
  9
$DISPSILH
 70
     0
  9
$DIMSCALE
 40
1.0
  9
$DIMASZ
 40
6.0
  9
$DIMEXO
 40
0.625
  9
$DIMDLI
 40
3.75
  9
$DIMRND
 40
0.0
  9
$DIMDLE
 40
0.0
  9
$DIMEXE
 40
1.25
  9
$DIMTP
 40
0.1
  9
$DIMTM
 40
0.1
  9
$DIMTXT
 40
5.0
  9
$DIMCEN
 40
2.5
  9
$DIMTSZ
 40
0.0
  9
$DIMTOL
 70
     0
  9
$DIMLIM
 70
     0
  9
$DIMTIH
 70
     0
  9
$DIMTOH
 70
     0
  9
$DIMSE1
 70
     0
  9
$DIMSE2
 70
     0
  9
$DIMTAD
 70
     1
  9
$DIMZIN
 70
     8
  9
$DIMBLK
  1
OPEN30
  9
$DIMASO
 70
     1
  9
$DIMSHO
 70
     1
  9
$DIMPOST
  1

  9
$DIMAPOST
  1

  9
$DIMALT
 70
     0
  9
$DIMALTD
 70
     2
  9
$DIMALTF
 40
0.0394
  9
$DIMLFAC
 40
1.0
  9
$DIMTOFL
 70
     1
  9
$DIMTVP
 40
1.0
  9
$DIMTIX
 70
     0
  9
$DIMSOXD
 70
     0
  9
$DIMSAH
 70
     0
  9
$DIMBLK1
  1

  9
$DIMBLK2
  1

  9
$DIMSTYLE
  2
ISO-25
  9
$DIMCLRD
 70
     0
  9
$DIMCLRE
 70
     0
  9
$DIMCLRT
 70
     0
  9
$DIMTFAC
 40
1.0
  9
$DIMGAP
 40
0.625
  9
$DIMJUST
 70
     0
  9
$DIMSD1
 70
     0
  9
$DIMSD2
 70
     0
  9
$DIMTOLJ
 70
     1
  9
$DIMTZIN
 70
     0
  9
$DIMALTZ
 70
     0
  9
$DIMALTTZ
 70
     0
  9
$DIMFIT
 70
     3
  9
$DIMUPT
 70
     0
  9
$DIMUNIT
 70
     2
  9
$DIMDEC
 70
     1
  9
$DIMTDEC
 70
     1
  9
$DIMALTU
 70
     2
  9
$DIMALTTD
 70
     2
  9
$DIMTXSTY
  7
STANDARD
  9
$DIMAUNIT
 70
     0
  9
$LUNITS
 70
     2
  9
$LUPREC
 70
     4
  9
$SKETCHINC
 40
1.0
  9
$FILLETRAD
 40
6.5
  9
$AUNITS
 70
     0
  9
$AUPREC
 70
     0
  9
$MENU
  1
.
  9
$ELEVATION
 40
0.0
  9
$PELEVATION
 40
0.0
  9
$THICKNESS
 40
0.0
  9
$LIMCHECK
 70
     0
  9
$CHAMFERA
 40
10.0
  9
$CHAMFERB
 40
10.0
  9
$CHAMFERC
 40
20.0
  9
$CHAMFERD
 40
0.0
  9
$SKPOLY
 70
     0
  9
$TDCREATE
 40
2450576.597302431
  9
$TDUPDATE
 40
2457191.654432419
  9
$TDINDWG
 40
1.2158046181
  9
$TDUSRTIMER
 40
1.2158046181
  9
$USRTIMER
 70
     1
  9
$ANGBASE
 50
0.0
  9
$ANGDIR
 70
     0
  9
$PDMODE
 70
     0
  9
$PDSIZE
 40
0.0
  9
$PLINEWID
 40
0.0
  9
$COORDS
 70
     1
  9
$SPLFRAME
 70
     0
  9
$SPLINETYPE
 70
     6
  9
$SPLINESEGS
 70
     8
  9
$ATTDIA
 70
     0
  9
$ATTREQ
 70
     1
  9
$HANDLING
 70
     1
  9
$HANDSEED
  5
461E
  9
$SURFTAB1
 70
     6
  9
$SURFTAB2
 70
     6
  9
$SURFTYPE
 70
     6
  9
$SURFU
 70
     6
  9
$SURFV
 70
     6
  9
$UCSNAME
  2

  9
$UCSORG
 10
0.0
 20
0.0
 30
0.0
  9
$UCSXDIR
 10
1.0
 20
0.0
 30
0.0
  9
$UCSYDIR
 10
0.0
 20
1.0
 30
0.0
  9
$PUCSNAME
  2

  9
$PUCSORG
 10
0.0
 20
0.0
 30
0.0
  9
$PUCSXDIR
 10
1.0
 20
0.0
 30
0.0
  9
$PUCSYDIR
 10
0.0
 20
1.0
 30
0.0
  9
$USERI1
 70
     0
  9
$USERI2
 70
     0
  9
$USERI3
 70
     0
  9
$USERI4
 70
     0
  9
$USERI5
 70
     0
  9
$USERR1
 40
0.0
  9
$USERR2
 40
0.0
  9
$USERR3
 40
0.0
  9
$USERR4
 40
0.0
  9
$USERR5
 40
0.0
  9
$WORLDVIEW
 70
     1
  9
$SHADEDGE
 70
     3
  9
$SHADEDIF
 70
    70
  9
$TILEMODE
 70
     0
  9
$MAXACTVP
 70
    16
  9
$PINSBASE
 10
0.0
 20
0.0
 30
0.0
  9
$PLIMCHECK
 70
     0
  9
$PEXTMIN
 10
4.746305129083
 20
2.243778970686
 30
0.0
  9
$PEXTMAX
 10
404.746305129083
 20
282.243778970686
 30
0.0
  9
$PLIMMIN
 10
-6.946593322754
 20
-6.94658241272
  9
$PLIMMAX
 10
417.778637084961
 20
293.315276107788
  9
$UNITMODE
 70
     0
  9
$VISRETAIN
 70
     0
  9
$PLINEGEN
 70
     0
  9
$PSLTSCALE
 70
     1
  9
$TREEDEPTH
 70
  3020
  9
$PICKSTYLE
 70
     1
  9
$CMLSTYLE
  2
STANDARD
  9
$CMLJUST
 70
     0
  9
$CMLSCALE
 40
1.0
  9
$PROXYGRAPHICS
 70
     1
  9
$MEASUREMENT
 70
     1
  0
ENDSEC
  0
SECTION
  2
CLASSES
  0
CLASS
  1
ACDBDICTIONARYWDFLT
  2
AcDbDictionaryWithDefault
  3
ObjectDBX Classes
 90
        0
280
     0
281
     0
  0
CLASS
  1
ACDBPLACEHOLDER
  2
AcDbPlaceHolder
  3
ObjectDBX Classes
 90
        0
280
     0
281
     0
  0
CLASS
  1
LAYOUT
  2
AcDbLayout
  3
ObjectDBX Classes
 90
        0
280
     0
281
     0
  0
CLASS
  1
SORTENTSTABLE
  2
AcDbSortentsTable
  3
ObjectDBX Classes
 90
        0
280
     0
281
     0
  0
CLASS
  1
VISUALSTYLE
  2
AcDbVisualStyle
  3
ObjectDBX Classes
 90
     4095
280
     0
281
     0
  0
CLASS
  1
SCALE
  2
AcDbScale
  3
ObjectDBX Classes
 90
     1153
280
     0
281
     0
  0
CLASS
  1
MATERIAL
  2
AcDbMaterial
  3
ObjectDBX Classes
 90
     1153
280
     0
281
     0
  0
CLASS
  1
TABLESTYLE
  2
AcDbTableStyle
  3
ObjectDBX Classes
 90
     4095
280
     0
281
     0
  0
CLASS
  1
MLEADERSTYLE
  2
AcDbMLeaderStyle
  3
ACDB_MLEADERSTYLE_CLASS
 90
     4095
280
     0
281
     0
  0
CLASS
  1
SUN
  2
AcDbSun
  3
SCENEOE
 90
     1153
280
     0
281
     0
  0
CLASS
  1
DICTIONARYVAR
  2
AcDbDictionaryVar
  3
ObjectDBX Classes
 90
        0
280
     0
281
     0
  0
CLASS
  1
CELLSTYLEMAP
  2
AcDbCellStyleMap
  3
ObjectDBX Classes
 90
     1152
280
     0
281
     0
  0
CLASS
  1
XRECORD
  2
AcDbXrecord
  3
ObjectDBX Classes
 90
        0
280
     0
281
     0
  0
CLASS
  1
LWPOLYLINE
  2
AcDbPolyline
  3
ObjectDBX Classes
 90
        0
280
     0
281
     1
  0
CLASS
  1
HATCH
  2
AcDbHatch
  3
ObjectDBX Classes
 90
        0
280
     0
281
     1
  0
ENDSEC
  0
SECTION
  2
TABLES
  0
TABLE
  2
VPORT
  5
8
102
{ACAD_XDICTIONARY
360
4616
102
}
330
0
100
AcDbSymbolTable
 70
     1
  0
VPORT
  5
3FFD
330
8
100
AcDbSymbolTableRecord
100
AcDbViewportTableRecord
  2
*ACTIVE
 70
     0
 10
0.0
 20
0.0
 11
1.0
 21
1.0
 12
-112.356850559126
 22
650.445228232124
 13
0.0
 23
0.0
 14
1.0
 24
1.0
 15
0.0
 25
0.0
 16
0.0
 26
0.0
 36
1.0
 17
0.0
 27
0.0
 37
0.0
 40
111.061822523747
 41
1.56746031746
 42
50.0
 43
0.0
 44
0.0
 50
0.0
 51
0.0
 71
    16
 72
   100
 73
     1
 74
     0
 75
     0
 76
     0
 77
     0
 78
     0
  0
ENDTAB
  0
TABLE
  2
LTYPE
  5
5
330
0
100
AcDbSymbolTable
 70
     3
  0
LTYPE
  5
14
330
5
100
AcDbSymbolTableRecord
100
AcDbLinetypeTableRecord
  2
BYBLOCK
 70
     0
  3

 72
    65
 73
     0
 40
0.0
  0
LTYPE
  5
15
330
5
100
AcDbSymbolTableRecord
100
AcDbLinetypeTableRecord
  2
BYLAYER
 70
     0
  3

 72
    65
 73
     0
 40
0.0
  0
LTYPE
  5
16
330
5
100
AcDbSymbolTableRecord
100
AcDbLinetypeTableRecord
  2
CONTINUOUS
 70
     0
  3
Solid line
 72
    65
 73
     0
 40
0.0
  0
LTYPE
  5
1EC
330
5
100
AcDbSymbolTableRecord
100
AcDbLinetypeTableRecord
  2
CENTER
 70
     0
  3
____ _ ____ _ ____ _ ____ _ ____ _ ____ _ ____ 
 72
    65
 73
     4
 40
2.0
 49
1.25
 74
     0
 49
-0.25
 74
     0
 49
0.25
 74
     0
 49
-0.25
 74
     0
  0
LTYPE
  5
1ED
330
5
100
AcDbSymbolTableRecord
100
AcDbLinetypeTableRecord
  2
DASHED
 70
     0
  3
__ __ __ __ __ __ __ __ __ __ __ __ __ __ __ __
 72
    65
 73
     2
 40
0.75
 49
0.5
 74
     0
 49
-0.25
 74
     0
  0
ENDTAB
  0
TABLE
  2
LAYER
  5
2
102
{ACAD_XDICTIONARY
360
29EA
102
}
330
0
100
AcDbSymbolTable
 70
    11
  0
LAYER
  5
F
330
2
100
AcDbSymbolTableRecord
100
AcDbLayerTableRecord
  2
0
 70
     0
 62
     7
  6
CONTINUOUS
  0
LAYER
  5
61
330
2
100
AcDbSymbolTableRecord
100
AcDbLayerTableRecord
  2
図枠太線
 70
     0
 62
   251
  6
CONTINUOUS
  0
LAYER
  5
62
330
2
100
AcDbSymbolTableRecord
100
AcDbLayerTableRecord
  2
図枠細線
 70
     0
 62
   252
  6
CONTINUOUS
  0
LAYER
  5
63
330
2
100
AcDbSymbolTableRecord
100
AcDbLayerTableRecord
  2
図枠ロゴマーク
 70
     0
 62
   253
  6
CONTINUOUS
  0
LAYER
  5
1EF
330
2
100
AcDbSymbolTableRecord
100
AcDbLayerTableRecord
  2
外形線
 70
     0
 62
     7
  6
CONTINUOUS
  0
LAYER
  5
1F0
330
2
100
AcDbSymbolTableRecord
100
AcDbLayerTableRecord
  2
寸法線
 70
     0
 62
     1
  6
CONTINUOUS
  0
LAYER
  5
1F1
330
2
100
AcDbSymbolTableRecord
100
AcDbLayerTableRecord
  2
中心線
 70
     0
 62
     4
  6
CENTER
  0
LAYER
  5
1F4
330
2
100
AcDbSymbolTableRecord
100
AcDbLayerTableRecord
  2
DEFPOINTS
 70
     0
 62
     7
  6
CONTINUOUS
  0
LAYER
  5
2AA2
330
2
100
AcDbSymbolTableRecord
100
AcDbLayerTableRecord
  2
下書線
 70
     0
 62
     2
  6
CONTINUOUS
  0
LAYER
  5
2AA4
330
2
100
AcDbSymbolTableRecord
100
AcDbLayerTableRecord
  2
細線
 70
     0
 62
     6
  6
CONTINUOUS
  0
LAYER
  5
3E0F
330
2
100
AcDbSymbolTableRecord
100
AcDbLayerTableRecord
  2
隠れ線
 70
     0
 62
     3
  6
DASHED
  0
ENDTAB
  0
TABLE
  2
STYLE
  5
3
330
0
100
AcDbSymbolTable
 70
     3
  0
STYLE
  5
10
330
3
100
AcDbSymbolTableRecord
100
AcDbTextStyleTableRecord
  2
STANDARD
 70
     0
 40
0.0
 41
1.0
 50
0.0
 71
     0
 42
2.333873885063
  3
ISOCP
  4
bigfont.shx
  0
STYLE
  5
64
330
3
100
AcDbSymbolTableRecord
100
AcDbTextStyleTableRecord
  2
EXCADSTD
 70
     0
 40
0.0
 41
1.0
 50
0.0
 71
     0
 42
0.2
  3
monotxt
  4
bigfont
  0
STYLE
  5
2B21
330
3
100
AcDbSymbolTableRecord
100
AcDbTextStyleTableRecord
  2
EXCADVERT
 70
     4
 40
0.0
 41
1.0
 50
0.0
 71
     0
 42
0.286885
  3
monotxt
  4
bigfont
  0
ENDTAB
  0
TABLE
  2
VIEW
  5
6
330
0
100
AcDbSymbolTable
 70
     0
  0
ENDTAB
  0
TABLE
  2
UCS
  5
7
330
0
100
AcDbSymbolTable
 70
     0
  0
ENDTAB
  0
TABLE
  2
APPID
  5
9
330
0
100
AcDbSymbolTable
 70
     3
  0
APPID
  5
11
330
9
100
AcDbSymbolTableRecord
100
AcDbRegAppTableRecord
  2
ACAD
 70
     0
  0
APPID
  5
40C0
330
9
100
AcDbSymbolTableRecord
100
AcDbRegAppTableRecord
  2
ACAD_MLEADERVER
 70
     0
  0
APPID
  5
40C4
330
9
100
AcDbSymbolTableRecord
100
AcDbRegAppTableRecord
  2
ACADANNOTATIVE
 70
     0
  0
ENDTAB
  0
TABLE
  2
DIMSTYLE
  5
A
330
0
100
AcDbSymbolTable
 70
     2
  0
DIMSTYLE
105
1D
330
A
100
AcDbSymbolTableRecord
100
AcDbDimStyleTableRecord
  2
STANDARD
 70
     0
  3

  4

  5

  6

  7

 40
1.0
 41
0.18
 42
0.0625
 43
0.38
 44
0.18
 45
0.0
 46
0.0
 47
0.0
 48
0.0
140
0.18
141
0.09
142
0.0
143
25.4
144
1.0
145
0.0
146
1.0
147
0.09
 71
     0
 72
     0
 73
     1
 74
     1
 75
     0
 76
     0
 77
     0
 78
     0
170
     0
171
     2
172
     0
173
     0
174
     0
175
     0
176
     0
177
     0
178
     0
270
     2
271
     4
272
     4
273
     2
274
     2
340
10
275
     0
280
     0
281
     0
282
     0
283
     1
284
     0
285
     0
286
     0
287
     3
288
     0
  0
DIMSTYLE
105
24
102
{ACAD_REACTORS
330
300F
330
3010
330
3037
330
3038
330
303A
330
3649
330
368D
330
369C
330
36CA
330
3BB6
330
3BB7
330
4197
102
}
330
A
100
AcDbSymbolTableRecord
100
AcDbDimStyleTableRecord
  2
ISO-25
 70
     0
  3

  4

  5

  6

  7

 40
1.0
 41
2.5
 42
0.625
 43
3.75
 44
1.25
 45
0.0
 46
0.0
 47
0.0
 48
0.0
140
2.5
141
2.5
142
0.0
143
0.0394
144
1.0
145
1.0
146
1.0
147
0.625
 71
     0
 72
     0
 73
     1
 74
     0
 75
     0
 76
     0
 77
     1
 78
     8
170
     0
171
     2
172
     1
173
     0
174
     0
175
     0
176
     0
177
     0
178
     0
270
     2
271
     4
272
     4
273
     2
274
     2
340
10
275
     0
280
     0
281
     0
282
     0
283
     1
284
     0
285
     0
286
     0
287
     3
288
     0
  0
ENDTAB
  0
TABLE
  2
BLOCK_RECORD
  5
1
330
0
100
AcDbSymbolTable
 70
    22
  0
BLOCK_RECORD
  5
1A
330
1
100
AcDbSymbolTableRecord
100
AcDbBlockTableRecord
  2
*MODEL_SPACE
  0
BLOCK_RECORD
  5
28FB
330
1
100
AcDbSymbolTableRecord
100
AcDbBlockTableRecord
  2
*PAPER_SPACE
  0
BLOCK_RECORD
  5
2A32
330
1
100
AcDbSymbolTableRecord
100
AcDbBlockTableRecord
  2
A3横用_タイトル
1001
ACAD
1000
DesignCenter Data
1002
{
1070
     1
1070
     4
1002
}
  0
BLOCK_RECORD
  5
2AF4
330
1
100
AcDbSymbolTableRecord
100
AcDbBlockTableRecord
  2
_OPEN30
  0
BLOCK_RECORD
  5
2EB5
330
1
100
AcDbSymbolTableRecord
100
AcDbBlockTableRecord
  2
パドル_W1
  0
BLOCK_RECORD
  5
2ECD
330
1
100
AcDbSymbolTableRecord
100
AcDbBlockTableRecord
  2
パドル_W1立面図
  0
BLOCK_RECORD
  5
30CC
330
1
100
AcDbSymbolTableRecord
100
AcDbBlockTableRecord
  2
*D4
  0
BLOCK_RECORD
  5
30D8
330
1
100
AcDbSymbolTableRecord
100
AcDbBlockTableRecord
  2
*D5
  0
BLOCK_RECORD
  5
30E4
330
1
100
AcDbSymbolTableRecord
100
AcDbBlockTableRecord
  2
*D6
  0
BLOCK_RECORD
  5
30F0
330
1
100
AcDbSymbolTableRecord
100
AcDbBlockTableRecord
  2
*D7
  0
BLOCK_RECORD
  5
30FC
330
1
100
AcDbSymbolTableRecord
100
AcDbBlockTableRecord
  2
*D8
  0
BLOCK_RECORD
  5
35DA
330
1
100
AcDbSymbolTableRecord
100
AcDbBlockTableRecord
  2
ケース外形図_PRL-101-LONG-Fなし
  0
BLOCK_RECORD
  5
364A
330
1
100
AcDbSymbolTableRecord
100
AcDbBlockTableRecord
  2
*D10
  0
BLOCK_RECORD
  5
368E
330
1
100
AcDbSymbolTableRecord
100
AcDbBlockTableRecord
  2
*D12
  0
BLOCK_RECORD
  5
369D
330
1
100
AcDbSymbolTableRecord
100
AcDbBlockTableRecord
  2
*D13
  0
BLOCK_RECORD
  5
36CB
330
1
100
AcDbSymbolTableRecord
100
AcDbBlockTableRecord
  2
*D14
  0
BLOCK_RECORD
  5
3BE3
330
1
100
AcDbSymbolTableRecord
100
AcDbBlockTableRecord
  2
*D15
  0
BLOCK_RECORD
  5
3BEF
330
1
100
AcDbSymbolTableRecord
100
AcDbBlockTableRecord
  2
*D16
  0
BLOCK_RECORD
  5
4198
330
1
100
AcDbSymbolTableRecord
100
AcDbBlockTableRecord
  2
*D18
  0
BLOCK_RECORD
  5
4280
330
1
100
AcDbSymbolTableRecord
100
AcDbBlockTableRecord
  2
A$C480F1F2B
  0
ENDTAB
  0
ENDSEC
  0
SECTION
  2
BLOCKS
  0
BLOCK
  5
1B
330
1A
100
AcDbEntity
  8
0
100
AcDbBlockBegin
  2
*MODEL_SPACE
 70
     0
 10
0.0
 20
0.0
 30
0.0
  3
*MODEL_SPACE
  1

  0
ENDBLK
  5
1C
330
1A
100
AcDbEntity
  8
0
100
AcDbBlockEnd
  0
BLOCK
  5
28FD
330
28FB
100
AcDbEntity
 67
     1
  8
0
 48
10.0
100
AcDbBlockBegin
  2
*PAPER_SPACE
 70
     0
 10
0.0
 20
0.0
 30
0.0
  3
*PAPER_SPACE
  1

  0
ENDBLK
  5
28FE
330
28FB
100
AcDbEntity
 67
     1
  8
0
 48
10.0
100
AcDbBlockEnd
  0
BLOCK
  5
2A33
330
2A32
100
AcDbEntity
  8
0
100
AcDbBlockBegin
  2
A3横用_タイトル
 70
     0
 10
0.0
 20
0.0
 30
0.0
  3
A3横用_タイトル
  1
A3横用_タイトル
  0
LINE
  5
2A34
330
2A32
100
AcDbEntity
  8
図枠細線
  6
CONTINUOUS
 62
   252
100
AcDbLine
 10
205.098414535793
 20
33.525959753527
 30
0.0
 11
305.098414535793
 21
33.525959753527
 31
0.0
  0
LINE
  5
2A35
330
2A32
100
AcDbEntity
  8
図枠太線
  6
CONTINUOUS
 62
   251
100
AcDbLine
 10
205.098414535793
 20
23.525959753527
 30
0.0
 11
305.098414535793
 21
23.525959753527
 31
0.0
  0
LINE
  5
2A36
330
2A32
100
AcDbEntity
  8
図枠細線
  6
CONTINUOUS
100
AcDbLine
 10
5.098414535793
 20
23.525959753527
 30
0.0
 11
105.098414535793
 21
23.525959753527
 31
0.0
  0
LINE
  5
2A37
330
2A32
100
AcDbEntity
  8
図枠細線
  6
CONTINUOUS
 62
   252
100
AcDbLine
 10
5.098414535793
 20
36.725957753527
 30
0.0
 11
105.098414535793
 21
36.725957753527
 31
0.0
  0
LINE
  5
2A38
330
2A32
100
AcDbEntity
  8
図枠細線
  6
CONTINUOUS
 62
   252
100
AcDbLine
 10
5.098414535793
 20
30.125957753527
 30
0.0
 11
105.098414535793
 21
30.125957753527
 31
0.0
  0
LINE
  5
2A39
330
2A32
100
AcDbEntity
  8
図枠細線
  6
CONTINUOUS
 62
   252
100
AcDbLine
 10
5.098414535793
 20
16.725959753527
 30
0.0
 11
105.098414535793
 21
16.725959753527
 31
0.0
  0
LINE
  5
2A3A
330
2A32
100
AcDbEntity
  8
図枠細線
  6
CONTINUOUS
 62
   252
100
AcDbLine
 10
5.098414535793
 20
10.125959753527
 30
0.0
 11
105.098414535793
 21
10.125959753527
 31
0.0
  0
LINE
  5
2A3B
330
2A32
100
AcDbEntity
  8
図枠細線
  6
CONTINUOUS
100
AcDbLine
 10
105.098414535793
 20
23.525961753527
 30
0.0
 11
205.098414535793
 21
23.525959753527
 31
0.0
  0
LINE
  5
2A3C
330
2A32
100
AcDbEntity
  8
図枠細線
  6
CONTINUOUS
 62
   252
100
AcDbLine
 10
138.398414535793
 20
43.525959753527
 30
0.0
 11
138.398414535793
 21
18.525957753527
 31
0.0
  0
LINE
  5
2A3D
330
2A32
100
AcDbEntity
  8
図枠細線
  6
CONTINUOUS
 62
   252
100
AcDbLine
 10
171.698414535793
 20
43.525959753527
 30
0.0
 11
171.698414535793
 21
18.525957753527
 31
0.0
  0
LINE
  5
2A3E
330
2A32
100
AcDbEntity
  8
図枠細線
  6
CONTINUOUS
 62
   252
100
AcDbLine
 10
305.098414535793
 20
23.525959753527
 30
0.0
 11
405.098414535793
 21
23.525959753527
 31
0.0
  0
TEXT
  5
2A3F
330
2A32
100
AcDbEntity
  8
図枠ロゴマーク
  6
CONTINUOUS
 62
   253
100
AcDbText
 10
206.102509212755
 20
13.294257570546
 30
0.0
 40
7.0
  1
東和制電工業株式会社
 50
0.016555220185
 41
1.186384129432
  7
EXCADSTD
 72
     5
 11
303.544188309143
 21
13.322412672217
 31
0.0
100
AcDbText
  0
MTEXT
  5
2A40
330
2A32
100
AcDbEntity
  8
図枠細線
100
AcDbMText
 10
6.356764112375
 20
41.976594175478
 30
0.0
 40
2.5
 41
49.938282706292
 71
     1
 72
     5
  1
{\Fmonotxt.shx,bigfont.shx|c128;図暦　CHANGE　NOTICE}
  0
MTEXT
  5
2A41
330
2A32
100
AcDbEntity
  8
図枠細線
 48
10.0
100
AcDbMText
 10
306.544114926828
 20
41.701835800934
 30
0.0
 40
2.5
 41
28.002809618823
 71
     1
 72
     5
  1
{\Fmonotxt.shx,bigfont.shx|c128;名称　TITLE}
  0
MTEXT
  5
2A42
330
2A32
100
AcDbEntity
  8
図枠細線
 48
10.0
100
AcDbMText
 10
307.329617114284
 20
21.606206797226
 30
0.0
 40
2.5
 41
24.385612216707
 71
     1
 72
     5
  1
{\Fmonotxt.shx,bigfont.shx|c128;図面番号\PDRG.　No.}
  0
MTEXT
  5
2A43
330
2A32
100
AcDbEntity
  8
図枠細線
 48
10.0
100
AcDbMText
 10
173.726349404609
 20
21.73680662198
 30
0.0
 40
2.5
 41
25.735090160813
 71
     1
 72
     5
  1
{\Fmonotxt.shx,bigfont.shx|c128;日付 DATE}
  0
MTEXT
  5
2A44
330
2A32
100
AcDbEntity
  8
図枠細線
 48
10.0
100
AcDbMText
 10
173.48708833982
 20
41.621592044998
 30
0.0
 40
2.5
 41
24.983741184205
 71
     1
 72
     5
  1
{\Fmonotxt.shx,bigfont.shx|c128;製図　DRAWN}
  0
MTEXT
  5
2A45
330
2A32
100
AcDbEntity
  8
図枠細線
 48
10.0
100
AcDbMText
 10
139.28009927741
 20
21.866713069868
 30
0.0
 40
2.5
 41
22.629632913243
 71
     1
 72
     5
  1
{\Fmonotxt.shx,bigfont.shx|c128;尺度　SCALE}
  0
MTEXT
  5
2A46
330
2A32
100
AcDbEntity
  8
図枠細線
 48
10.0
100
AcDbMText
 10
139.910091179835
 20
41.311840415554
 30
0.0
 40
2.5
 41
28.998753428368
 71
     1
 72
     5
  1
{\Fmonotxt.shx,bigfont.shx|c128;検図  CHECKED}
  0
MTEXT
  5
2A47
330
2A32
100
AcDbEntity
  8
図枠細線
 48
10.0
100
AcDbMText
 10
114.253294667728
 20
21.916124850174
 30
0.0
 40
3.0
 41
19.692400475383
 71
     1
 72
     5
  1
{\Fmonotxt.shx,bigfont.shx|c128;第三角法}
  0
MTEXT
  5
2A48
330
2A32
100
AcDbEntity
  8
図枠細線
 48
10.0
100
AcDbMText
 10
108.986959929915
 20
15.282880185837
 30
0.0
 40
2.5
 41
27.954882823547
 71
     1
 72
     5
  1
{\Fmonotxt.shx,bigfont.shx|c128;THIRD ANGLE\PPROJECTION}
  0
MTEXT
  5
2A49
330
2A32
100
AcDbEntity
  8
図枠細線
 48
10.0
100
AcDbMText
 10
106.319432640184
 20
41.511437145487
 30
0.0
 40
2.5
 41
28.233595265074
 71
     1
 72
     5
  1
{\Fmonotxt.shx,bigfont.shx|c128;承認 APPROVED}
  0
LINE
  5
2A4A
330
2A32
100
AcDbEntity
  8
図枠太線
  6
CONTINUOUS
 62
   251
100
AcDbLine
 10
5.098414535793
 20
3.525959753527
 30
0.0
 11
405.098414535793
 21
3.525959753527
 31
0.0
  0
LINE
  5
2A4B
330
2A32
100
AcDbEntity
  8
図枠太線
 48
10.0
100
AcDbLine
 10
5.098414535793
 20
3.525959753527
 30
0.0
 11
5.098414535793
 21
43.525959753527
 31
0.0
  0
LINE
  5
2A4C
330
2A32
100
AcDbEntity
  8
図枠太線
  6
CONTINUOUS
 62
   251
100
AcDbLine
 10
105.098414535793
 20
3.525959753527
 30
0.0
 11
105.098414535793
 21
43.525959753527
 31
0.0
  0
LINE
  5
2A4D
330
2A32
100
AcDbEntity
  8
図枠細線
  6
CONTINUOUS
 62
   252
100
AcDbLine
 10
138.398414535793
 20
3.525959753527
 30
0.0
 11
138.398414535793
 21
18.525957753527
 31
0.0
  0
LINE
  5
2A4E
330
2A32
100
AcDbEntity
  8
図枠細線
  6
CONTINUOUS
 62
   252
100
AcDbLine
 10
171.698414535793
 20
3.525959753527
 30
0.0
 11
171.698414535793
 21
18.525957753527
 31
0.0
  0
LINE
  5
2A4F
330
2A32
100
AcDbEntity
  8
図枠太線
  6
CONTINUOUS
 62
   251
100
AcDbLine
 10
205.098414535793
 20
3.525959753527
 30
0.0
 11
205.098414535793
 21
43.525959753527
 31
0.0
  0
LINE
  5
2A50
330
2A32
100
AcDbEntity
  8
図枠太線
 48
10.0
100
AcDbLine
 10
405.098414535793
 20
43.525959753527
 30
0.0
 11
405.098414535793
 21
3.525959753527
 31
0.0
  0
TEXT
  5
2A51
330
2A32
100
AcDbEntity
  8
図枠細線
  6
CONTINUOUS
 62
   252
100
AcDbText
 10
208.519754474572
 20
6.482358407285
 30
0.0
 40
3.5
  1
ＴＯＷＡ　ＳＥＩＤＥＮ　ＩＮＤＵＳＴＲＩＡＬ　ＣＯ．，ＬＴＤ．
 41
0.746656297509
  7
EXCADSTD
 72
     5
 11
303.295327171727
 21
6.482358407285
 31
0.0
100
AcDbText
  0
LINE
  5
2A52
330
2A32
100
AcDbEntity
  8
図枠太線
  6
CONTINUOUS
 62
   251
100
AcDbLine
 10
305.098414535793
 20
3.525959753527
 30
0.0
 11
305.098414535793
 21
43.525959753527
 31
0.0
  0
ENDBLK
  5
2A53
330
2A32
100
AcDbEntity
  8
0
100
AcDbBlockEnd
  0
BLOCK
  5
2AF8
330
2AF4
100
AcDbEntity
  8
0
 48
10.0
100
AcDbBlockBegin
  2
_OPEN30
 70
     0
 10
0.0
 20
0.0
 30
0.0
  3
_OPEN30
  1
_OPEN30
  0
LINE
  5
2AF5
330
2AF4
100
AcDbEntity
  8
0
  6
BYBLOCK
 62
     0
100
AcDbLine
 10
-1.0
 20
0.26794919
 30
0.0
 11
0.0
 21
0.0
 31
0.0
  0
LINE
  5
2AF6
330
2AF4
100
AcDbEntity
  8
0
  6
BYBLOCK
 62
     0
100
AcDbLine
 10
0.0
 20
0.0
 30
0.0
 11
-1.0
 21
-0.26794919
 31
0.0
  0
LINE
  5
2AF7
330
2AF4
100
AcDbEntity
  8
0
  6
BYBLOCK
 62
     0
100
AcDbLine
 10
0.0
 20
0.0
 30
0.0
 11
-1.0
 21
0.0
 31
0.0
  0
ENDBLK
  5
2AF9
330
2AF4
100
AcDbEntity
  8
0
 48
10.0
100
AcDbBlockEnd
  0
BLOCK
  5
2EB6
330
2EB5
100
AcDbEntity
  8
0
 48
10.0
100
AcDbBlockBegin
  2
パドル_W1
 70
     0
 10
0.0
 20
0.0
 30
0.0
  3
パドル_W1
  1
パドル_W1
  0
LINE
  5
2EB7
330
2EB5
100
AcDbEntity
  8
中心線
 48
10.0
100
AcDbLine
 10
124.6832879095
 20
220.674073777677
 30
0.0
 11
131.9189439095
 21
220.674073777677
 31
0.0
  0
LINE
  5
2EB8
330
2EB5
100
AcDbEntity
  8
外形線
 48
10.0
100
AcDbLine
 10
58.3011159095
 20
260.651761921811
 30
0.0
 11
58.3011159095
 21
180.651761921811
 31
0.0
  0
LINE
  5
2EB9
330
2EB5
100
AcDbEntity
  8
外形線
 48
10.0
100
AcDbLine
 10
58.3011159095
 20
180.651761921811
 30
0.0
 11
123.3011159095
 21
180.651761921811
 31
0.0
  0
LINE
  5
2EBA
330
2EB5
100
AcDbEntity
  8
外形線
 48
10.0
100
AcDbLine
 10
138.3011159095
 20
208.651761921811
 30
0.0
 11
138.3011159095
 21
212.376811207105
 31
0.0
  0
LINE
  5
2EBB
330
2EB5
100
AcDbEntity
  8
外形線
 48
10.0
100
AcDbLine
 10
123.3011159095
 20
260.651761921811
 30
0.0
 11
58.3011159095
 21
260.651761921811
 31
0.0
  0
LINE
  5
2EBC
330
2EB5
100
AcDbEntity
  8
外形線
 48
10.0
100
AcDbLine
 10
138.3011159095
 20
232.651761921811
 30
0.0
 11
123.3011159095
 21
260.651761921811
 31
0.0
  0
LINE
  5
2EBD
330
2EB5
100
AcDbEntity
  8
外形線
 48
10.0
100
AcDbLine
 10
138.3011159095
 20
208.651761921811
 30
0.0
 11
123.3011159095
 21
180.651761921811
 31
0.0
  0
LINE
  5
2EBE
330
2EB5
100
AcDbEntity
  8
外形線
 48
10.0
100
AcDbLine
 10
153.3011159095
 20
212.376811207105
 30
0.0
 11
153.3011159095
 21
228.941629207105
 31
0.0
  0
LINE
  5
2EBF
330
2EB5
100
AcDbEntity
  8
外形線
100
AcDbLine
 10
125.0147379095
 20
212.376811207105
 30
0.0
 11
153.3011159095
 21
212.376811207105
 31
0.0
  0
LINE
  5
2EC0
330
2EB5
100
AcDbEntity
  8
細線
100
AcDbLine
 10
153.2891519095
 20
216.518045207105
 30
0.0
 11
124.6692799095
 21
216.518045207105
 31
0.0
  0
LINE
  5
2EC1
330
2EB5
100
AcDbEntity
  8
外形線
100
AcDbLine
 10
125.0147379095
 20
228.941629207105
 30
0.0
 11
123.3011159095
 21
227.228007207105
 31
0.0
  0
ARC
  5
2EC2
330
2EB5
100
AcDbEntity
  8
細線
100
AcDbCircle
 10
126.4810479095
 20
227.420755207105
 30
0.0
 40
3.18575
100
AcDbArc
 50
183.469852255156
 51
235.339263082109
  0
LINE
  5
2EC3
330
2EB5
100
AcDbEntity
  8
細線
100
AcDbLine
 10
153.2891519095
 20
224.800395207105
 30
0.0
 11
124.6692799095
 21
224.800395207105
 31
0.0
  0
ARC
  5
2EC4
330
2EB5
100
AcDbEntity
  8
細線
100
AcDbCircle
 10
126.4810479095
 20
213.897685207105
 30
0.0
 40
3.18575
100
AcDbArc
 50
124.660776613574
 51
176.530130144749
  0
LINE
  5
2EC5
330
2EB5
100
AcDbEntity
  8
外形線
100
AcDbLine
 10
123.3011159095
 20
227.228007207105
 30
0.0
 11
123.3011159095
 21
214.090433207105
 31
0.0
  0
CIRCLE
  5
2EC6
330
2EB5
100
AcDbEntity
  8
外形線
100
AcDbCircle
 10
128.3011159095
 20
220.674073777677
 30
0.0
 40
2.28479
  0
ARC
  5
2EC7
330
2EB5
100
AcDbEntity
  8
細線
100
AcDbCircle
 10
130.2525019095
 20
220.659219207105
 30
0.0
 40
6.951389999999999
100
AcDbArc
 50
143.43540034864
 51
216.564582051267
  0
LINE
  5
2EC8
330
2EB5
100
AcDbEntity
  8
中心線
 48
10.0
100
AcDbLine
 10
128.3011159095
 20
224.291901777677
 30
0.0
 11
128.3011159095
 21
217.056245777676
 31
0.0
  0
LINE
  5
2EC9
330
2EB5
100
AcDbEntity
  8
外形線
100
AcDbLine
 10
125.0147379095
 20
212.376811207105
 30
0.0
 11
123.3011159095
 21
214.090433207105
 31
0.0
  0
LINE
  5
2ECA
330
2EB5
100
AcDbEntity
  8
外形線
100
AcDbLine
 10
125.0147379095
 20
228.941629207105
 30
0.0
 11
153.3011159095
 21
228.941629207105
 31
0.0
  0
LINE
  5
2ECB
330
2EB5
100
AcDbEntity
  8
外形線
 48
10.0
100
AcDbLine
 10
138.3011159095
 20
228.941629207105
 30
0.0
 11
138.3011159095
 21
232.651761921811
 31
0.0
  0
ENDBLK
  5
2ECC
330
2EB5
100
AcDbEntity
  8
0
 48
10.0
100
AcDbBlockEnd
  0
BLOCK
  5
2ECE
330
2ECD
100
AcDbEntity
  8
0
 48
10.0
100
AcDbBlockBegin
  2
パドル_W1立面図
 70
     0
 10
0.0
 20
0.0
 30
0.0
  3
パドル_W1立面図
  1
パドル_W1立面図
  0
LINE
  5
2ECF
330
2ECD
100
AcDbEntity
  8
外形線
 48
10.0
100
AcDbLine
 10
-4.385455455444
 20
189.61846140322
 30
0.0
 11
-7.241459969979
 21
189.61846140322
 31
0.0
  0
LINE
  5
2ED0
330
2ECD
100
AcDbEntity
  8
外形線
 48
10.0
100
AcDbLine
 10
-4.385455455444
 20
269.61846140322
 30
0.0
 11
-7.241459969979
 21
269.61846140322
 31
0.0
  0
LINE
  5
2ED1
330
2ECD
100
AcDbEntity
  8
外形線
 48
10.0
100
AcDbLine
 10
-4.385455455444
 20
189.61846140322
 30
0.0
 11
-4.385455455444
 21
269.61846140322
 31
0.0
  0
LINE
  5
2ED2
330
2ECD
100
AcDbEntity
  8
外形線
 48
10.0
100
AcDbLine
 10
-7.241459969979
 20
269.61846140322
 30
0.0
 11
-7.241459969979
 21
189.61846140322
 31
0.0
  0
LINE
  5
2ED3
330
2ECD
100
AcDbEntity
  8
外形線
100
AcDbLine
 10
-4.385468503734
 20
237.376935973808
 30
0.0
 11
1.606659496266
 21
233.917433973808
 31
0.0
  0
ARC
  5
2ED4
330
2ECD
100
AcDbEntity
  8
細線
100
AcDbCircle
 10
-5.813446503734
 20
229.633375973808
 30
0.0
 40
8.568
100
AcDbArc
 50
279.594007516002
 51
80.406014579591
  0
LINE
  5
2ED5
330
2ECD
100
AcDbEntity
  8
外形線
100
AcDbLine
 10
1.606659496266
 20
233.917433973808
 30
0.0
 11
1.606659496266
 21
225.349439973808
 31
0.0
  0
LINE
  5
2ED6
330
2ECD
100
AcDbEntity
  8
外形線
100
AcDbLine
 10
-4.385468503734
 20
221.889815973808
 30
0.0
 11
1.606659496266
 21
225.349439973808
 31
0.0
  0
ARC
  5
2ED7
330
2ECD
100
AcDbEntity
  8
細線
100
AcDbCircle
 10
-5.813446503734
 20
229.633375973808
 30
0.0
 40
7.458525999999999
100
AcDbArc
 50
281.037746568172
 51
78.962275527419
  0
LINE
  5
2ED8
330
2ECD
100
AcDbEntity
  8
外形線
100
AcDbLine
 10
-7.241454503734
 20
221.889845973808
 30
0.0
 11
-13.233550503734
 21
225.349439973808
 31
0.0
  0
LINE
  5
2ED9
330
2ECD
100
AcDbEntity
  8
外形線
100
AcDbLine
 10
-13.233550503734
 20
225.349439973808
 30
0.0
 11
-13.233550503734
 21
233.917433973808
 31
0.0
  0
LINE
  5
2EDA
330
2ECD
100
AcDbEntity
  8
外形線
100
AcDbLine
 10
-7.241454503734
 20
237.376905973808
 30
0.0
 11
-13.233550503734
 21
233.917433973808
 31
0.0
  0
ARC
  5
2EDB
330
2ECD
100
AcDbEntity
  8
細線
100
AcDbCircle
 10
-5.813446503734
 20
229.633375973808
 30
0.0
 40
7.458525999999999
100
AcDbArc
 50
101.038013199227
 51
258.962026496458
  0
ARC
  5
2EDC
330
2ECD
100
AcDbEntity
  8
細線
100
AcDbCircle
 10
-5.813446503734
 20
229.633375973808
 30
0.0
 40
8.568
100
AcDbArc
 50
99.594159555498
 51
260.405880140189
  0
ENDBLK
  5
2EDD
330
2ECD
100
AcDbEntity
  8
0
 48
10.0
100
AcDbBlockEnd
  0
BLOCK
  5
30D6
330
30CC
100
AcDbEntity
  8
0
 48
10.0
100
AcDbBlockBegin
  2
*D4
 70
     1
 10
0.0
 20
0.0
 30
0.0
  3
*D4
  1
*D4
  0
LINE
  5
3F52
330
30CC
100
AcDbEntity
  8
寸法線
 62
     0
 48
10.0
100
AcDbLine
 10
-285.907998769323
 20
907.904914304242
 30
0.0
 11
-286.015442124102
 21
908.520609785395
 31
0.0
  0
LINE
  5
3F53
330
30CC
100
AcDbEntity
  8
寸法線
 62
     0
 48
10.0
100
AcDbLine
 10
-133.215519443068
 20
934.550866289512
 30
0.0
 11
-133.322962797847
 21
935.166561770664
 31
0.0
  0
LINE
  5
3F54
330
30CC
100
AcDbEntity
  8
寸法線
 62
     0
 48
10.0
100
AcDbLine
 10
-279.889878795462
 20
908.320675028968
 30
0.0
 11
-139.018752707369
 21
932.903714602475
 31
0.0
  0
INSERT
  5
3F55
330
30CC
100
AcDbEntity
  8
寸法線
 62
     0
100
AcDbBlockReference
  2
_OPEN30
 10
-285.800555414543
 20
907.289218823087
 30
0.0
 41
6.0
 42
6.0
 43
6.0
 50
189.898852315621
  0
INSERT
  5
3F56
330
30CC
100
AcDbEntity
  8
寸法線
 62
     0
100
AcDbBlockReference
  2
_OPEN30
 10
-133.108076088288
 20
933.935170808356
 30
0.0
 41
6.0
 42
6.0
 43
6.0
 50
9.898852315621
  0
MTEXT
  5
3F57
330
30CC
100
AcDbEntity
  8
寸法線
 62
     0
 48
10.0
100
AcDbMText
 10
-164.37724908984
 20
933.173365885601
 30
0.0
 40
8.0
 41
0.0
 71
     5
 72
     1
  1
\A1;φ155
 11
0.9851127698468047
 21
0.1719093676468983
 31
0.0
  0
POINT
  5
3F58
330
30CC
100
AcDbEntity
  8
DEFPOINTS
 62
     0
100
AcDbPoint
 10
-285.800555414543
 20
907.289218823088
 30
0.0
  0
POINT
  5
3F59
330
30CC
100
AcDbEntity
  8
DEFPOINTS
 62
     0
100
AcDbPoint
 10
-133.108076088289
 20
933.935170808357
 30
0.0
  0
POINT
  5
3F5A
330
30CC
100
AcDbEntity
  8
DEFPOINTS
 62
     0
100
AcDbPoint
 10
-133.108076088288
 20
933.935170808356
 30
0.0
  0
ENDBLK
  5
30D7
330
30CC
100
AcDbEntity
  8
0
 48
10.0
100
AcDbBlockEnd
  0
BLOCK
  5
30E2
330
30D8
100
AcDbEntity
  8
0
 48
10.0
100
AcDbBlockBegin
  2
*D5
 70
     1
 10
0.0
 20
0.0
 30
0.0
  3
*D5
  1
*D5
  0
LINE
  5
3F49
330
30D8
100
AcDbEntity
  8
寸法線
 62
     0
 48
10.0
100
AcDbLine
 10
-268.381925496232
 20
893.181389694458
 30
0.0
 11
-268.651122084852
 21
893.745444830659
 31
0.0
  0
LINE
  5
3F4A
330
30D8
100
AcDbEntity
  8
寸法線
 62
     0
 48
10.0
100
AcDbLine
 10
-151.058457991493
 20
949.174279733449
 30
0.0
 11
-151.327654580113
 21
949.738334869651
 31
0.0
  0
LINE
  5
3F4B
330
30D8
100
AcDbEntity
  8
寸法線
 62
     0
 48
10.0
100
AcDbLine
 10
-262.697799600075
 20
895.201621809002
 30
0.0
 11
-156.204190710411
 21
946.025937346501
 31
0.0
  0
INSERT
  5
3F4C
330
30D8
100
AcDbEntity
  8
寸法線
 62
     0
100
AcDbBlockReference
  2
_OPEN30
 10
-268.112728907613
 20
892.617334558256
 30
0.0
 41
6.0
 42
6.0
 43
6.0
 50
205.512915306565
  0
INSERT
  5
3F4D
330
30D8
100
AcDbEntity
  8
寸法線
 62
     0
100
AcDbBlockReference
  2
_OPEN30
 10
-150.789261402874
 20
948.610224597247
 30
0.0
 41
6.0
 42
6.0
 43
6.0
 50
25.512915306565
  0
MTEXT
  5
3F4E
330
30D8
100
AcDbEntity
  8
寸法線
 62
     0
 48
10.0
100
AcDbMText
 10
-169.555420247857
 20
944.783370381491
 30
0.0
 40
8.0
 41
0.0
 71
     5
 72
     1
  1
\A1;φ130
 11
0.9024882179229284
 21
0.4307145417910765
 31
0.0
  0
POINT
  5
3F4F
330
30D8
100
AcDbEntity
  8
DEFPOINTS
 62
     0
100
AcDbPoint
 10
-268.112728907613
 20
892.617334558256
 30
0.0
  0
POINT
  5
3F50
330
30D8
100
AcDbEntity
  8
DEFPOINTS
 62
     0
100
AcDbPoint
 10
-150.789261402874
 20
948.610224597247
 30
0.0
  0
POINT
  5
3F51
330
30D8
100
AcDbEntity
  8
DEFPOINTS
 62
     0
100
AcDbPoint
 10
-150.789261402874
 20
948.610224597247
 30
0.0
  0
ENDBLK
  5
30E3
330
30D8
100
AcDbEntity
  8
0
 48
10.0
100
AcDbBlockEnd
  0
BLOCK
  5
30EE
330
30E4
100
AcDbEntity
  8
0
 48
10.0
100
AcDbBlockBegin
  2
*D6
 70
     1
 10
0.0
 20
0.0
 30
0.0
  3
*D6
  1
*D6
  0
LINE
  5
3EDB
330
30E4
100
AcDbEntity
  8
寸法線
 62
     0
 48
10.0
100
AcDbLine
 10
-76.099944395938
 20
960.612194815723
 30
0.0
 11
-98.684185685143
 21
960.612194815723
 31
0.0
  0
LINE
  5
3EDC
330
30E4
100
AcDbEntity
  8
寸法線
 62
     0
 48
10.0
100
AcDbLine
 10
-76.099944395938
 20
880.612194815723
 30
0.0
 11
-98.684185685143
 21
880.612194815723
 31
0.0
  0
LINE
  5
3EDD
330
30E4
100
AcDbEntity
  8
寸法線
 62
     0
 48
10.0
100
AcDbLine
 10
-97.434185685143
 20
954.612194815723
 30
0.0
 11
-97.434185685143
 21
886.612194815723
 31
0.0
  0
INSERT
  5
3EDE
330
30E4
100
AcDbEntity
  8
寸法線
 62
     0
100
AcDbBlockReference
  2
_OPEN30
 10
-97.434185685143
 20
960.612194815723
 30
0.0
 41
6.0
 42
6.0
 43
6.0
 50
90.0
  0
INSERT
  5
3EDF
330
30E4
100
AcDbEntity
  8
寸法線
 62
     0
100
AcDbBlockReference
  2
_OPEN30
 10
-97.434185685143
 20
880.612194815723
 30
0.0
 41
6.0
 42
6.0
 43
6.0
 50
270.0
  0
MTEXT
  5
3EE0
330
30E4
100
AcDbEntity
  8
寸法線
 62
     0
 48
10.0
100
AcDbMText
 10
-102.067519018476
 20
920.612194815723
 30
0.0
 40
8.0
 41
0.0
 71
     5
 72
     1
  1
\A1;80
 11
0.0
 21
1.0
 31
0.0
  0
POINT
  5
3EE1
330
30E4
100
AcDbEntity
  8
DEFPOINTS
 62
     0
100
AcDbPoint
 10
-75.474944395938
 20
960.612194815723
 30
0.0
  0
POINT
  5
3EE2
330
30E4
100
AcDbEntity
  8
DEFPOINTS
 62
     0
100
AcDbPoint
 10
-75.474944395938
 20
880.612194815723
 30
0.0
  0
POINT
  5
3EE3
330
30E4
100
AcDbEntity
  8
DEFPOINTS
 62
     0
100
AcDbPoint
 10
-97.434185685143
 20
880.612194815723
 30
0.0
  0
ENDBLK
  5
30EF
330
30E4
100
AcDbEntity
  8
0
 48
10.0
100
AcDbBlockEnd
  0
BLOCK
  5
30FA
330
30F0
100
AcDbEntity
  8
0
 48
10.0
100
AcDbBlockBegin
  2
*D7
 70
     1
 10
0.0
 20
0.0
 30
0.0
  3
*D7
  1
*D7
  0
LINE
  5
3ED2
330
30F0
100
AcDbEntity
  8
寸法線
 62
     0
 48
10.0
100
AcDbLine
 10
-75.474944395938
 20
879.987194815723
 30
0.0
 11
-75.474944395938
 21
860.836137630151
 31
0.0
  0
LINE
  5
3ED3
330
30F0
100
AcDbEntity
  8
寸法線
 62
     0
 48
10.0
100
AcDbLine
 10
4.525055604062
 20
907.987194815723
 30
0.0
 11
4.525055604062
 21
860.836137630151
 31
0.0
  0
LINE
  5
3ED4
330
30F0
100
AcDbEntity
  8
寸法線
 62
     0
 48
10.0
100
AcDbLine
 10
-69.474944395938
 20
862.086137630151
 30
0.0
 11
-1.474944395938
 21
862.086137630151
 31
0.0
  0
INSERT
  5
3ED5
330
30F0
100
AcDbEntity
  8
寸法線
 62
     0
100
AcDbBlockReference
  2
_OPEN30
 10
-75.474944395938
 20
862.086137630151
 30
0.0
 41
6.0
 42
6.0
 43
6.0
 50
180.0
  0
INSERT
  5
3ED6
330
30F0
100
AcDbEntity
  8
寸法線
 62
     0
100
AcDbBlockReference
  2
_OPEN30
 10
4.525055604062
 20
862.086137630151
 30
0.0
 41
6.0
 42
6.0
 43
6.0
  0
MTEXT
  5
3ED7
330
30F0
100
AcDbEntity
  8
寸法線
 62
     0
 48
10.0
100
AcDbMText
 10
-35.474944395938
 20
866.719470963484
 30
0.0
 40
8.0
 41
0.0
 71
     5
 72
     1
  1
\A1;80
  0
POINT
  5
3ED8
330
30F0
100
AcDbEntity
  8
DEFPOINTS
 62
     0
100
AcDbPoint
 10
-75.474944395938
 20
880.612194815723
 30
0.0
  0
POINT
  5
3ED9
330
30F0
100
AcDbEntity
  8
DEFPOINTS
 62
     0
100
AcDbPoint
 10
4.525055604062
 20
908.612194815723
 30
0.0
  0
POINT
  5
3EDA
330
30F0
100
AcDbEntity
  8
DEFPOINTS
 62
     0
100
AcDbPoint
 10
4.525055604062
 20
862.086137630151
 30
0.0
  0
ENDBLK
  5
30FB
330
30F0
100
AcDbEntity
  8
0
 48
10.0
100
AcDbBlockEnd
  0
BLOCK
  5
3108
330
30FC
100
AcDbEntity
  8
0
 48
10.0
100
AcDbBlockBegin
  2
*D8
 70
     1
 10
0.0
 20
0.0
 30
0.0
  3
*D8
  1
*D8
  0
LINE
  5
3EC7
330
30FC
100
AcDbEntity
  8
寸法線
 62
     0
 48
10.0
100
AcDbLine
 10
-210.872774217661
 20
890.153438087199
 30
0.0
 11
-210.872774217661
 21
890.782998232545
 31
0.0
  0
LINE
  5
3EC8
330
30FC
100
AcDbEntity
  8
寸法線
 62
     0
 48
10.0
100
AcDbLine
 10
-208.016769703126
 20
890.153438087199
 30
0.0
 11
-208.016769703126
 21
890.782998232545
 31
0.0
  0
LINE
  5
3EC9
330
30FC
100
AcDbEntity
  8
寸法線
 62
     0
 48
10.0
100
AcDbLine
 10
-202.016769703126
 20
889.532998232545
 30
0.0
 11
-185.166769703126
 21
889.532998232545
 31
0.0
  0
LINE
  5
3ECA
330
30FC
100
AcDbEntity
  8
寸法線
 62
     0
 48
10.0
100
AcDbLine
 10
-210.872774217661
 20
889.532998232545
 30
0.0
 11
-208.016769703126
 21
889.532998232545
 31
0.0
  0
LINE
  5
3ECB
330
30FC
100
AcDbEntity
  8
寸法線
 62
     0
 48
10.0
100
AcDbLine
 10
-216.872774217661
 20
889.532998232545
 30
0.0
 11
-222.872774217661
 21
889.532998232545
 31
0.0
  0
INSERT
  5
3ECC
330
30FC
100
AcDbEntity
  8
寸法線
 62
     0
100
AcDbBlockReference
  2
_OPEN30
 10
-210.872774217661
 20
889.532998232545
 30
0.0
 41
6.0
 42
6.0
 43
6.0
  0
INSERT
  5
3ECD
330
30FC
100
AcDbEntity
  8
寸法線
 62
     0
100
AcDbBlockReference
  2
_OPEN30
 10
-208.016769703126
 20
889.532998232545
 30
0.0
 41
6.0
 42
6.0
 43
6.0
 50
180.0
  0
MTEXT
  5
3ECE
330
30FC
100
AcDbEntity
  8
寸法線
 62
     0
 48
10.0
100
AcDbMText
 10
-190.591769703126
 20
894.157998232545
 30
0.0
 40
8.0
 41
0.0
 71
     5
 72
     1
  1
\A1;1.5
  0
POINT
  5
3ECF
330
30FC
100
AcDbEntity
  8
DEFPOINTS
 62
     0
100
AcDbPoint
 10
-210.872774217661
 20
889.528438087199
 30
0.0
  0
POINT
  5
3ED0
330
30FC
100
AcDbEntity
  8
DEFPOINTS
 62
     0
100
AcDbPoint
 10
-208.016769703126
 20
889.528438087199
 30
0.0
  0
POINT
  5
3ED1
330
30FC
100
AcDbEntity
  8
DEFPOINTS
 62
     0
100
AcDbPoint
 10
-208.016769703126
 20
889.532998232545
 30
0.0
  0
ENDBLK
  5
3109
330
30FC
100
AcDbEntity
  8
0
 48
10.0
100
AcDbBlockEnd
  0
BLOCK
  5
35DB
330
35DA
100
AcDbEntity
  8
0
 48
10.0
100
AcDbBlockBegin
  2
ケース外形図_PRL-101-LONG-Fなし
 70
     0
 10
0.0
 20
0.0
 30
0.0
  3
ケース外形図_PRL-101-LONG-Fなし
  1
ケース外形図_PRL-101-LONG-Fなし
  0
LINE
  5
35DC
330
35DA
100
AcDbEntity
  8
外形線
100
AcDbLine
 10
110.168921433947
 20
2143.39203805301
 30
0.0
 11
112.018287433947
 21
2143.39203805301
 31
0.0
  0
ARC
  5
35DD
330
35DA
100
AcDbEntity
  8
外形線
100
AcDbCircle
 10
110.168921433947
 20
2141.89203805301
 30
0.0
 40
1.5
100
AcDbArc
 50
89.999981276034
 51
180.00001984784
  0
LINE
  5
35DE
330
35DA
100
AcDbEntity
  8
外形線
100
AcDbLine
 10
108.668921433947
 20
2141.89203805301
 30
0.0
 11
108.668921433947
 21
2094.89203805301
 31
0.0
  0
LINE
  5
35DF
330
35DA
100
AcDbEntity
  8
外形線
100
AcDbLine
 10
110.168921433947
 20
2093.39203805301
 30
0.0
 11
112.018287433947
 21
2093.39203805301
 31
0.0
  0
ARC
  5
35E0
330
35DA
100
AcDbEntity
  8
外形線
100
AcDbCircle
 10
110.168921433947
 20
2094.89203805301
 30
0.0
 40
1.5
100
AcDbArc
 50
180.00001984784
 51
270.0
  0
ARC
  5
35E1
330
35DA
100
AcDbEntity
  8
外形線
100
AcDbCircle
 10
232.798805433947
 20
2149.66022605301
 30
0.0
 40
1.86215
100
AcDbArc
 50
276.184221085629
 51
91.517843466792
  0
LINE
  5
35E2
330
35DA
100
AcDbEntity
  8
外形線
100
AcDbLine
 10
234.660987433947
 20
2141.81122605301
 30
0.0
 11
234.660987433947
 21
2124.38959605301
 31
0.0
  0
ARC
  5
35E3
330
35DA
100
AcDbEntity
  8
外形線
100
AcDbCircle
 10
232.661719433946
 20
2124.38959605301
 30
0.0
 40
1.9992
100
AcDbArc
 50
270.0
 51
359.999982399908
  0
ARC
  5
35E4
330
35DA
100
AcDbEntity
  8
外形線
100
AcDbCircle
 10
232.661719433946
 20
2141.81122605301
 30
0.0
 40
1.9992
100
AcDbArc
 50
0.0
 51
89.999981276021
  0
LINE
  5
35E5
330
35DA
100
AcDbEntity
  8
外形線
100
AcDbLine
 10
234.660987433947
 20
2094.972848053009
 30
0.0
 11
234.660987433947
 21
2112.39447805301
 31
0.0
  0
ARC
  5
35E6
330
35DA
100
AcDbEntity
  8
外形線
100
AcDbCircle
 10
232.798805433947
 20
2087.12397005301
 30
0.0
 40
1.86215
100
AcDbArc
 50
268.482178628784
 51
83.815801009983
  0
ARC
  5
35E7
330
35DA
100
AcDbEntity
  8
外形線
100
AcDbCircle
 10
232.661719433946
 20
2094.972848053009
 30
0.0
 40
1.9992
100
AcDbArc
 50
270.0
 51
359.999982399908
  0
ARC
  5
35E8
330
35DA
100
AcDbEntity
  8
外形線
100
AcDbCircle
 10
232.661719433946
 20
2112.39447805301
 30
0.0
 40
1.9992
100
AcDbArc
 50
0.0
 51
89.999981276021
  0
ARC
  5
35E9
330
35DA
100
AcDbEntity
  8
外形線
100
AcDbCircle
 10
220.095313433946
 20
2160.88044005301
 30
0.0
 40
4.8552
100
AcDbArc
 50
0.0
 51
87.349306628423
  0
LINE
  5
35EA
330
35DA
100
AcDbEntity
  8
細線
100
AcDbLine
 10
190.392921433947
 20
2149.23688605301
 30
0.0
 11
190.392921433947
 21
2160.66083605301
 31
0.0
  0
LINE
  5
35EB
330
35DA
100
AcDbEntity
  8
外形線
100
AcDbLine
 10
174.684913433946
 20
2149.23688605301
 30
0.0
 11
190.482031433947
 21
2149.23688605301
 31
0.0
  0
LINE
  5
35EC
330
35DA
100
AcDbEntity
  8
外形線
100
AcDbLine
 10
192.433021433946
 20
2160.66083605301
 30
0.0
 11
174.684913433946
 21
2160.66083605301
 31
0.0
  0
LINE
  5
35ED
330
35DA
100
AcDbEntity
  8
外形線
100
AcDbLine
 10
192.433021433946
 20
2164.08808205301
 30
0.0
 11
174.684913433946
 21
2164.08808205301
 31
0.0
  0
LINE
  5
35EE
330
35DA
100
AcDbEntity
  8
外形線
100
AcDbLine
 10
190.392921433947
 20
2169.39203605301
 30
0.0
 11
194.105689433946
 21
2166.94403805301
 31
0.0
  0
LINE
  5
35EF
330
35DA
100
AcDbEntity
  8
細線
100
AcDbLine
 10
190.392921433947
 20
2164.08808205301
 30
0.0
 11
190.392921433947
 21
2169.39203605301
 31
0.0
  0
ARC
  5
35F0
330
35DA
100
AcDbEntity
  8
外形線
100
AcDbCircle
 10
192.379005433947
 20
2162.37445805301
 30
0.0
 40
1.714446
100
AcDbArc
 50
271.804703586973
 51
88.195318508605
  0
LINE
  5
35F1
330
35DA
100
AcDbEntity
  8
外形線
100
AcDbLine
 10
194.105689433946
 20
2166.94403805301
 30
0.0
 11
220.319923433946
 21
2165.730416053009
 31
0.0
  0
ARC
  5
35F2
330
35DA
100
AcDbEntity
  8
外形線
100
AcDbCircle
 10
227.104957433947
 20
2120.24494205301
 30
0.0
 40
2.15556
100
AcDbArc
 50
95.512637406103
 51
178.089033713747
  0
ARC
  5
35F3
330
35DA
100
AcDbEntity
  8
外形線
100
AcDbCircle
 10
227.104957433947
 20
2116.53925405301
 30
0.0
 40
2.15556
100
AcDbArc
 50
181.910948686169
 51
264.487402289583
  0
ARC
  5
35F4
330
35DA
100
AcDbEntity
  8
外形線
100
AcDbCircle
 10
189.105811433947
 20
2117.809640053009
 30
0.0
 40
5.033766
100
AcDbArc
 50
6.644133183896
 51
75.184725088441
  0
ARC
  5
35F5
330
35DA
100
AcDbEntity
  8
外形線
100
AcDbCircle
 10
189.105811433947
 20
2118.97455605301
 30
0.0
 40
5.033766
100
AcDbArc
 50
284.815257311479
 51
353.35584921602
  0
LINE
  5
35F6
330
35DA
100
AcDbEntity
  8
細線
100
AcDbLine
 10
190.392921433947
 20
2122.676094053009
 30
0.0
 11
190.392921433947
 21
2141.24006005301
 31
0.0
  0
LINE
  5
35F7
330
35DA
100
AcDbEntity
  8
外形線
100
AcDbLine
 10
174.684913433946
 20
2122.676094053009
 30
0.0
 11
190.392921433947
 21
2122.676094053009
 31
0.0
  0
LINE
  5
35F8
330
35DA
100
AcDbEntity
  8
外形線
100
AcDbLine
 10
174.684913433946
 20
2114.10810205301
 30
0.0
 11
190.392921433947
 21
2114.10810205301
 31
0.0
  0
LINE
  5
35F9
330
35DA
100
AcDbEntity
  8
外形線
100
AcDbLine
 10
174.684913433946
 20
2141.24006005301
 30
0.0
 11
190.392921433947
 21
2141.24006005301
 31
0.0
  0
LINE
  5
35FA
330
35DA
100
AcDbEntity
  8
外形線
100
AcDbLine
 10
224.950537433947
 20
2118.39203605301
 30
0.0
 11
224.950537433947
 21
2160.88044005301
 31
0.0
  0
ARC
  5
35FB
330
35DA
100
AcDbEntity
  8
外形線
100
AcDbCircle
 10
190.066871433946
 20
2145.24262205301
 30
0.0
 40
4.015794000000001
100
AcDbArc
 50
274.656944786915
 51
84.065438721313
  0
LINE
  5
35FC
330
35DA
100
AcDbEntity
  8
外形線
100
AcDbLine
 10
165.545753433947
 20
2164.08808205301
 30
0.0
 11
168.401709433946
 21
2169.39203605301
 31
0.0
  0
LINE
  5
35FD
330
35DA
100
AcDbEntity
  8
外形線
100
AcDbLine
 10
168.401709433946
 20
2169.39203605301
 30
0.0
 11
190.392921433947
 21
2169.39203605301
 31
0.0
  0
ARC
  5
35FE
330
35DA
100
AcDbEntity
  8
外形線
100
AcDbCircle
 10
190.066871433946
 20
2091.54157405301
 30
0.0
 40
4.015794000000001
100
AcDbArc
 50
275.934583374273
 51
85.343077308665
  0
LINE
  5
35FF
330
35DA
100
AcDbEntity
  8
外形線
100
AcDbLine
 10
174.684913433946
 20
2087.54731005301
 30
0.0
 11
190.482031433947
 21
2087.54731005301
 31
0.0
  0
LINE
  5
3600
330
35DA
100
AcDbEntity
  8
外形線
100
AcDbLine
 10
174.684913433946
 20
2095.54401405301
 30
0.0
 11
190.392921433947
 21
2095.54401405301
 31
0.0
  0
ARC
  5
3601
330
35DA
100
AcDbEntity
  8
外形線
100
AcDbCircle
 10
220.095313433946
 20
2075.90375605301
 30
0.0
 40
4.8552
100
AcDbArc
 50
272.650733067261
 51
359.999982399908
  0
LINE
  5
3602
330
35DA
100
AcDbEntity
  8
外形線
100
AcDbLine
 10
194.105689433946
 20
2069.84003405301
 30
0.0
 11
190.392921433947
 21
2067.39203605301
 31
0.0
  0
LINE
  5
3603
330
35DA
100
AcDbEntity
  8
外形線
100
AcDbLine
 10
192.433021433946
 20
2076.12323805301
 30
0.0
 11
174.684913433946
 21
2076.12323805301
 31
0.0
  0
LINE
  5
3604
330
35DA
100
AcDbEntity
  8
外形線
100
AcDbLine
 10
192.433021433946
 20
2072.696114053009
 30
0.0
 11
174.684913433946
 21
2072.696114053009
 31
0.0
  0
LINE
  5
3605
330
35DA
100
AcDbEntity
  8
細線
100
AcDbLine
 10
190.392921433947
 20
2072.696114053009
 30
0.0
 11
190.392921433947
 21
2067.39203605301
 31
0.0
  0
ARC
  5
3606
330
35DA
100
AcDbEntity
  8
外形線
100
AcDbCircle
 10
192.379005433947
 20
2074.40961605301
 30
0.0
 40
1.714446
100
AcDbArc
 50
271.804703586973
 51
88.195318508605
  0
LINE
  5
3607
330
35DA
100
AcDbEntity
  8
外形線
100
AcDbLine
 10
194.105689433946
 20
2069.84003405301
 30
0.0
 11
220.319923433946
 21
2071.05372005301
 31
0.0
  0
LINE
  5
3608
330
35DA
100
AcDbEntity
  8
細線
100
AcDbLine
 10
190.392921433947
 20
2087.54731005301
 30
0.0
 11
190.392921433947
 21
2076.12323805301
 31
0.0
  0
LINE
  5
3609
330
35DA
100
AcDbEntity
  8
外形線
100
AcDbLine
 10
167.332540844539
 20
2066.523929892186
 30
0.0
 11
165.724459344066
 21
2054.438201968303
 31
0.0
  0
LINE
  5
360A
330
35DA
100
AcDbEntity
  8
細線
100
AcDbLine
 10
168.401709433946
 20
2067.39203605301
 30
0.0
 11
165.545753433947
 21
2075.490020603784
 31
0.0
  0
ARC
  5
360B
330
35DA
100
AcDbEntity
  8
外形線
100
AcDbCircle
 10
168.32380469195
 20
2066.39203605301
 30
0.0
 40
1.0
100
AcDbArc
 50
90.0
 51
172.42095622959
  0
LINE
  5
360C
330
35DA
100
AcDbEntity
  8
外形線
100
AcDbLine
 10
135.422919931233
 20
2071.925232733321
 30
0.0
 11
137.658025931233
 21
2054.452514733321
 31
0.0
  0
ARC
  5
360D
330
35DA
100
AcDbEntity
  8
外形線
100
AcDbCircle
 10
132.533722849268
 20
2071.533944727406
 30
0.0
 40
2.915573028070137
100
AcDbArc
 50
7.712721372168
 51
85.846565215995
  0
LINE
  5
360E
330
35DA
100
AcDbEntity
  8
外形線
100
AcDbLine
 10
140.490943433946
 20
2051.95890005301
 30
0.0
 11
162.893409433947
 21
2051.95890005301
 31
0.0
  0
ARC
  5
360F
330
35DA
100
AcDbEntity
  8
細線
100
AcDbCircle
 10
152.301247433947
 20
2041.191902053009
 30
0.0
 40
36.766532
100
AcDbArc
 50
68.885514212377
 51
115.2117858394
  0
LINE
  5
3610
330
35DA
100
AcDbEntity
  8
外形線
100
AcDbLine
 10
168.32380469195
 20
2067.39203605301
 30
0.0
 11
190.392921433947
 21
2067.39203605301
 31
0.0
  0
ARC
  5
3611
330
35DA
100
AcDbEntity
  8
細線
100
AcDbCircle
 10
165.108131433946
 20
2060.836984053009
 30
0.0
 40
18.322924
100
AcDbArc
 50
247.068453993572
 51
267.322397459893
  0
LINE
  5
3612
330
35DA
100
AcDbEntity
  8
細線
100
AcDbLine
 10
157.968971433947
 20
2043.96210605301
 30
0.0
 11
157.968971433947
 21
2047.67487405301
 31
0.0
  0
LINE
  5
3613
330
35DA
100
AcDbEntity
  8
細線
100
AcDbLine
 10
145.402565433947
 20
2043.96210605301
 30
0.0
 11
145.402565433947
 21
2047.67487405301
 31
0.0
  0
ARC
  5
3614
330
35DA
100
AcDbEntity
  8
細線
100
AcDbCircle
 10
151.685767433946
 20
2057.07074805301
 30
0.0
 40
14.53669
100
AcDbArc
 50
244.390793033801
 51
295.609209213941
  0
LINE
  5
3615
330
35DA
100
AcDbEntity
  8
外形線
100
AcDbLine
 10
165.680275433947
 20
2043.96210605301
 30
0.0
 11
164.252175433947
 21
2042.53406605301
 31
0.0
  0
LINE
  5
3616
330
35DA
100
AcDbEntity
  8
外形線
100
AcDbLine
 10
165.680275433947
 20
2047.67487405301
 30
0.0
 11
165.680275433947
 21
2043.96210605301
 31
0.0
  0
LINE
  5
3617
330
35DA
100
AcDbEntity
  8
外形線
100
AcDbLine
 10
137.691383433947
 20
2043.96210605301
 30
0.0
 11
139.119361433946
 21
2042.53406605301
 31
0.0
  0
LINE
  5
3618
330
35DA
100
AcDbEntity
  8
外形線
100
AcDbLine
 10
137.691383433947
 20
2047.67487405301
 30
0.0
 11
137.691383433947
 21
2043.96210605301
 31
0.0
  0
LINE
  5
3619
330
35DA
100
AcDbEntity
  8
外形線
100
AcDbLine
 10
139.119361433946
 20
2042.53406605301
 30
0.0
 11
164.252175433947
 21
2042.53406605301
 31
0.0
  0
LINE
  5
361A
330
35DA
100
AcDbEntity
  8
外形線
100
AcDbLine
 10
137.691383433947
 20
2047.67487405301
 30
0.0
 11
165.680275433947
 21
2047.67487405301
 31
0.0
  0
ARC
  5
361B
330
35DA
100
AcDbEntity
  8
細線
100
AcDbCircle
 10
138.263405433946
 20
2060.836984053009
 30
0.0
 40
18.322924
100
AcDbArc
 50
272.67766208363
 51
292.93154825417
  0
LINE
  5
361C
330
35DA
100
AcDbEntity
  8
中心線
 48
10.0
100
AcDbLine
 10
151.685767433946
 20
2092.05121605301
 30
0.0
 11
151.685767433946
 21
2036.448922053009
 31
0.0
  0
ARC
  5
361D
330
35DA
100
AcDbEntity
  8
外形線
100
AcDbCircle
 10
162.893409433947
 20
2054.81488805301
 30
0.0
 40
2.856
100
AcDbArc
 50
270.0
 51
352.421011277462
  0
LINE
  5
361E
330
35DA
100
AcDbEntity
  8
細線
100
AcDbLine
 10
158.825783433947
 20
2051.958870053009
 30
0.0
 11
158.825783433947
 21
2047.67487405301
 31
0.0
  0
LINE
  5
361F
330
35DA
100
AcDbEntity
  8
外形線
100
AcDbLine
 10
161.110573433946
 20
2047.67487405301
 30
0.0
 11
161.110573433946
 21
2051.958870053009
 31
0.0
  0
LINE
  5
3620
330
35DA
100
AcDbEntity
  8
細線
100
AcDbLine
 10
144.545753433947
 20
2051.958870053009
 30
0.0
 11
144.545753433947
 21
2047.67487405301
 31
0.0
  0
LINE
  5
3621
330
35DA
100
AcDbEntity
  8
外形線
100
AcDbLine
 10
142.260963433947
 20
2047.67487405301
 30
0.0
 11
142.260963433947
 21
2051.958870053009
 31
0.0
  0
ARC
  5
3622
330
35DA
100
AcDbEntity
  8
外形線
100
AcDbCircle
 10
140.490943433946
 20
2054.81488805301
 30
0.0
 40
2.856
100
AcDbArc
 50
187.289418100602
 51
270.0
  0
LINE
  5
3623
330
35DA
100
AcDbEntity
  8
細線
100
AcDbLine
 10
194.105689433946
 20
2166.94403805301
 30
0.0
 11
194.105689433946
 21
2069.84003405301
 31
0.0
  0
LINE
  5
3624
330
35DA
100
AcDbEntity
  8
細線
100
AcDbLine
 10
165.545753433947
 20
2164.08808205301
 30
0.0
 11
165.545753433947
 21
2075.38434605301
 31
0.0
  0
LINE
  5
3625
330
35DA
100
AcDbEntity
  8
外形線
100
AcDbLine
 10
174.684913433946
 20
2067.39203605301
 30
0.0
 11
174.684913433946
 21
2169.39203605301
 31
0.0
  0
LINE
  5
3626
330
35DA
100
AcDbEntity
  8
外形線
100
AcDbLine
 10
172.685767433946
 20
2169.39203605301
 30
0.0
 11
172.685767433946
 21
2067.39203605301
 31
0.0
  0
LINE
  5
3627
330
35DA
100
AcDbEntity
  8
細線
100
AcDbLine
 10
168.401709433946
 20
2169.39203605301
 30
0.0
 11
168.401709433946
 21
2067.39203605301
 31
0.0
  0
LINE
  5
3628
330
35DA
100
AcDbEntity
  8
細線
100
AcDbLine
 10
124.673823413021
 20
2157.519264053009
 30
0.0
 11
124.673823413021
 21
2079.26487005301
 31
0.0
  0
LINE
  5
3629
330
35DA
100
AcDbEntity
  8
細線
100
AcDbLine
 10
190.392921433947
 20
2114.10810205301
 30
0.0
 11
190.392921433947
 21
2095.54401405301
 31
0.0
  0
LINE
  5
362A
330
35DA
100
AcDbEntity
  8
外形線
100
AcDbLine
 10
224.950537433947
 20
2118.39203605301
 30
0.0
 11
224.950537433947
 21
2075.90375605301
 31
0.0
  0
ARC
  5
362B
330
35DA
100
AcDbEntity
  8
外形線
100
AcDbCircle
 10
226.951027433946
 20
2090.97452605301
 30
0.0
 40
2.000724
100
AcDbArc
 50
87.757023395436
 51
272.242959004484
  0
LINE
  5
362C
330
35DA
100
AcDbEntity
  8
外形線
100
AcDbLine
 10
227.029273433946
 20
2088.97528805301
 30
0.0
 11
232.999365433946
 21
2088.97528805301
 31
0.0
  0
LINE
  5
362D
330
35DA
100
AcDbEntity
  8
外形線
100
AcDbLine
 10
224.950537433947
 20
2085.26252005301
 30
0.0
 11
232.749487433946
 21
2085.26252005301
 31
0.0
  0
LINE
  5
362E
330
35DA
100
AcDbEntity
  8
外形線
100
AcDbLine
 10
227.029335433946
 20
2092.97370205301
 30
0.0
 11
232.661719433946
 21
2092.97370205301
 31
0.0
  0
LINE
  5
362F
330
35DA
100
AcDbEntity
  8
外形線
100
AcDbLine
 10
226.897925433947
 20
2122.39045005301
 30
0.0
 11
232.661719433946
 21
2122.39045005301
 31
0.0
  0
LINE
  5
3630
330
35DA
100
AcDbEntity
  8
外形線
100
AcDbLine
 10
226.897925433947
 20
2114.39374605301
 30
0.0
 11
232.661719433946
 21
2114.39374605301
 31
0.0
  0
LINE
  5
3631
330
35DA
100
AcDbEntity
  8
外形線
100
AcDbLine
 10
224.950537433947
 20
2151.521676053009
 30
0.0
 11
232.749487433946
 21
2151.521676053009
 31
0.0
  0
ARC
  5
3632
330
35DA
100
AcDbEntity
  8
外形線
100
AcDbCircle
 10
226.949745433946
 20
2145.809640053009
 30
0.0
 40
2.000726
100
AcDbArc
 50
87.722187561486
 51
272.27785213419
  0
LINE
  5
3633
330
35DA
100
AcDbEntity
  8
外形線
100
AcDbLine
 10
227.029273433946
 20
2143.81049405301
 30
0.0
 11
232.661719433946
 21
2143.81049405301
 31
0.0
  0
LINE
  5
3634
330
35DA
100
AcDbEntity
  8
外形線
100
AcDbLine
 10
227.029273433946
 20
2147.80878405301
 30
0.0
 11
232.999365433946
 21
2147.80878405301
 31
0.0
  0
LINE
  5
3635
330
35DA
100
AcDbEntity
  8
外形線
100
AcDbLine
 10
126.699805433947
 20
2161.988228053011
 30
0.0
 11
165.545753433947
 21
2164.08808205301
 31
0.0
  0
LINE
  5
3636
330
35DA
100
AcDbEntity
  8
外形線
100
AcDbLine
 10
121.679297433947
 20
2158.72419005301
 30
0.0
 11
114.690467433947
 21
2145.02851205301
 31
0.0
  0
ARC
  5
3637
330
35DA
100
AcDbEntity
  8
外形線
100
AcDbCircle
 10
127.023659433947
 20
2155.99695605301
 30
0.0
 40
6.0
100
AcDbArc
 50
93.094182552856
 51
152.964948988829
  0
LINE
  5
3638
330
35DA
100
AcDbEntity
  8
外形線
100
AcDbLine
 10
121.778053433947
 20
2077.86634205301
 30
0.0
 11
114.690467433947
 21
2091.75556205301
 31
0.0
  0
ARC
  5
3639
330
35DA
100
AcDbEntity
  8
外形線
100
AcDbCircle
 10
127.122475433947
 20
2080.59351405301
 30
0.0
 40
6.0
100
AcDbArc
 50
207.035033411102
 51
266.905857142828
  0
LINE
  5
363A
330
35DA
100
AcDbEntity
  8
外形線
100
AcDbLine
 10
132.744890920782
 20
2074.441860497779
 30
0.0
 11
126.798561433947
 21
2074.60230405301
 31
0.0
  0
ARC
  5
363B
330
35DA
100
AcDbEntity
  8
外形線
100
AcDbCircle
 10
112.018287433947
 20
2146.39203805301
 30
0.0
 40
3.0
100
AcDbArc
 50
270.0
 51
332.965140723993
  0
ARC
  5
363C
330
35DA
100
AcDbEntity
  8
外形線
100
AcDbCircle
 10
112.018287433947
 20
2090.39203805301
 30
0.0
 40
3.0
100
AcDbArc
 50
27.034841675909
 51
89.99998127603
  0
ENDBLK
  5
363D
330
35DA
100
AcDbEntity
  8
0
 48
10.0
100
AcDbBlockEnd
  0
BLOCK
  5
3654
330
364A
100
AcDbEntity
  8
0
 48
10.0
100
AcDbBlockBegin
  2
*D10
 70
     1
 10
0.0
 20
0.0
 30
0.0
  3
*D10
  1
*D10
  0
LINE
  5
3EBD
330
364A
100
AcDbEntity
  8
寸法線
 62
     0
 48
10.0
100
AcDbLine
 10
149.500085605936
 20
903.612194815723
 30
0.0
 11
140.277874921113
 21
903.612194815723
 31
0.0
  0
LINE
  5
3EBE
330
364A
100
AcDbEntity
  8
寸法線
 62
     0
 48
10.0
100
AcDbLine
 10
149.500085605936
 20
937.612194815723
 30
0.0
 11
140.277874921113
 21
937.612194815723
 31
0.0
  0
LINE
  5
3EBF
330
364A
100
AcDbEntity
  8
寸法線
 62
     0
 48
10.0
100
AcDbLine
 10
141.527874921113
 20
937.612194815723
 30
0.0
 11
141.527874921113
 21
966.240452162115
 31
0.0
  0
LINE
  5
3EC0
330
364A
100
AcDbEntity
  8
寸法線
 62
     0
 48
10.0
100
AcDbLine
 10
141.527874921113
 20
909.612194815723
 30
0.0
 11
141.527874921113
 21
931.612194815723
 31
0.0
  0
INSERT
  5
3EC1
330
364A
100
AcDbEntity
  8
寸法線
 62
     0
100
AcDbBlockReference
  2
_OPEN30
 10
141.527874921113
 20
903.612194815723
 30
0.0
 41
6.0
 42
6.0
 43
6.0
 50
270.0
  0
INSERT
  5
3EC2
330
364A
100
AcDbEntity
  8
寸法線
 62
     0
100
AcDbBlockReference
  2
_OPEN30
 10
141.527874921113
 20
937.612194815723
 30
0.0
 41
6.0
 42
6.0
 43
6.0
 50
90.0
  0
MTEXT
  5
3EC3
330
364A
100
AcDbEntity
  8
寸法線
 62
     0
 48
10.0
100
AcDbMText
 10
136.898708254446
 20
956.482118828782
 30
0.0
 40
8.0
 41
0.0
 71
     5
 72
     1
  1
\A1;φ34
 11
0.0
 21
1.0
 31
0.0
  0
POINT
  5
3EC4
330
364A
100
AcDbEntity
  8
DEFPOINTS
 62
     0
100
AcDbPoint
 10
150.125085605936
 20
903.612194815723
 30
0.0
  0
POINT
  5
3EC5
330
364A
100
AcDbEntity
  8
DEFPOINTS
 62
     0
100
AcDbPoint
 10
150.125085605936
 20
937.612194815723
 30
0.0
  0
POINT
  5
3EC6
330
364A
100
AcDbEntity
  8
DEFPOINTS
 62
     0
100
AcDbPoint
 10
141.527874921113
 20
937.612194815723
 30
0.0
  0
ENDBLK
  5
3655
330
364A
100
AcDbEntity
  8
0
 48
10.0
100
AcDbBlockEnd
  0
BLOCK
  5
369A
330
368E
100
AcDbEntity
  8
0
 48
10.0
100
AcDbBlockBegin
  2
*D12
 70
     1
 10
0.0
 20
0.0
 30
0.0
  3
*D12
  1
*D12
  0
LINE
  5
3F1E
330
368E
100
AcDbEntity
  8
寸法線
 62
     0
 48
10.0
100
AcDbLine
 10
161.468832532914
 20
842.987194815723
 30
0.0
 11
161.468832532914
 21
821.862194815724
 31
0.0
  0
LINE
  5
3F1F
330
368E
100
AcDbEntity
  8
寸法線
 62
     0
 48
10.0
100
AcDbLine
 10
171.468832532914
 20
843.487194815723
 30
0.0
 11
171.468832532914
 21
821.862194815724
 31
0.0
  0
LINE
  5
3F20
330
368E
100
AcDbEntity
  8
寸法線
 62
     0
 48
10.0
100
AcDbLine
 10
161.468832532914
 20
823.112194815724
 30
0.0
 11
171.468832532914
 21
823.112194815724
 31
0.0
  0
LINE
  5
3F21
330
368E
100
AcDbEntity
  8
寸法線
 62
     0
 48
10.0
100
AcDbLine
 10
155.468832532914
 20
823.112194815724
 30
0.0
 11
149.468832532914
 21
823.112194815724
 31
0.0
  0
LINE
  5
3F22
330
368E
100
AcDbEntity
  8
寸法線
 62
     0
 48
10.0
100
AcDbLine
 10
177.468832532914
 20
823.112194815724
 30
0.0
 11
183.468832532914
 21
823.112194815724
 31
0.0
  0
INSERT
  5
3F23
330
368E
100
AcDbEntity
  8
寸法線
 62
     0
100
AcDbBlockReference
  2
_OPEN30
 10
161.468832532914
 20
823.112194815724
 30
0.0
 41
6.0
 42
6.0
 43
6.0
  0
INSERT
  5
3F24
330
368E
100
AcDbEntity
  8
寸法線
 62
     0
100
AcDbBlockReference
  2
_OPEN30
 10
171.468832532914
 20
823.112194815724
 30
0.0
 41
6.0
 42
6.0
 43
6.0
 50
180.0
  0
MTEXT
  5
3F25
330
368E
100
AcDbEntity
  8
寸法線
 62
     0
 48
10.0
100
AcDbMText
 10
166.468832532914
 20
827.737194815724
 30
0.0
 40
8.0
 41
0.0
 71
     5
 72
     1
  1
\A1;10
  0
POINT
  5
3F26
330
368E
100
AcDbEntity
  8
DEFPOINTS
 62
     0
100
AcDbPoint
 10
161.468832532914
 20
843.612194815723
 30
0.0
  0
POINT
  5
3F27
330
368E
100
AcDbEntity
  8
DEFPOINTS
 62
     0
100
AcDbPoint
 10
171.468832532914
 20
844.112194815723
 30
0.0
  0
POINT
  5
3F28
330
368E
100
AcDbEntity
  8
DEFPOINTS
 62
     0
100
AcDbPoint
 10
171.468832532914
 20
823.112194815724
 30
0.0
  0
ENDBLK
  5
369B
330
368E
100
AcDbEntity
  8
0
 48
10.0
100
AcDbBlockEnd
  0
BLOCK
  5
36A7
330
369D
100
AcDbEntity
  8
0
 48
10.0
100
AcDbBlockBegin
  2
*D13
 70
     1
 10
0.0
 20
0.0
 30
0.0
  3
*D13
  1
*D13
  0
LINE
  5
3E9E
330
369D
100
AcDbEntity
  8
寸法線
 62
     0
 48
10.0
100
AcDbLine
 10
-75.474944395938
 20
860.203741344857
 30
0.0
 11
-75.474944395938
 21
801.862194815723
 31
0.0
  0
LINE
  5
3E9F
330
369D
100
AcDbEntity
  8
寸法線
 62
     0
 48
10.0
100
AcDbLine
 10
161.468832532914
 20
822.487194815724
 30
0.0
 11
161.468832532914
 21
801.862194815723
 31
0.0
  0
LINE
  5
3EA0
330
369D
100
AcDbEntity
  8
寸法線
 62
     0
 48
10.0
100
AcDbLine
 10
-69.474944395938
 20
803.112194815723
 30
0.0
 11
155.468832532914
 21
803.112194815723
 31
0.0
  0
INSERT
  5
3EA1
330
369D
100
AcDbEntity
  8
寸法線
 62
     0
100
AcDbBlockReference
  2
_OPEN30
 10
-75.474944395938
 20
803.112194815723
 30
0.0
 41
6.0
 42
6.0
 43
6.0
 50
180.0
  0
INSERT
  5
3EA2
330
369D
100
AcDbEntity
  8
寸法線
 62
     0
100
AcDbBlockReference
  2
_OPEN30
 10
161.468832532914
 20
803.112194815723
 30
0.0
 41
6.0
 42
6.0
 43
6.0
  0
POINT
  5
3EA3
330
369D
100
AcDbEntity
  8
DEFPOINTS
 62
     0
100
AcDbPoint
 10
-75.474944395938
 20
860.828741344857
 30
0.0
  0
POINT
  5
3EA4
330
369D
100
AcDbEntity
  8
DEFPOINTS
 62
     0
100
AcDbPoint
 10
161.468832532914
 20
823.112194815724
 30
0.0
  0
POINT
  5
3EA5
330
369D
100
AcDbEntity
  8
DEFPOINTS
 62
     0
100
AcDbPoint
 10
161.468832532914
 20
803.112194815723
 30
0.0
  0
ENDBLK
  5
36A8
330
369D
100
AcDbEntity
  8
0
 48
10.0
100
AcDbBlockEnd
  0
BLOCK
  5
36D5
330
36CB
100
AcDbEntity
  8
0
 48
10.0
100
AcDbBlockBegin
  2
*D14
 70
     1
 10
0.0
 20
0.0
 30
0.0
  3
*D14
  1
*D14
  0
LINE
  5
3E95
330
36CB
100
AcDbEntity
  8
寸法線
 62
     0
 48
10.0
100
AcDbLine
 10
411.468850532914
 20
888.094066815722
 30
0.0
 11
411.468850532914
 21
801.862194815723
 31
0.0
  0
LINE
  5
3E96
330
36CB
100
AcDbEntity
  8
寸法線
 62
     0
 48
10.0
100
AcDbLine
 10
161.468832532914
 20
821.237194815724
 30
0.0
 11
161.468832532914
 21
801.862194815723
 31
0.0
  0
LINE
  5
3E97
330
36CB
100
AcDbEntity
  8
寸法線
 62
     0
 48
10.0
100
AcDbLine
 10
405.468850532914
 20
803.112194815723
 30
0.0
 11
167.468832532914
 21
803.112194815723
 31
0.0
  0
INSERT
  5
3E98
330
36CB
100
AcDbEntity
  8
寸法線
 62
     0
100
AcDbBlockReference
  2
_OPEN30
 10
411.468850532914
 20
803.112194815723
 30
0.0
 41
6.0
 42
6.0
 43
6.0
  0
INSERT
  5
3E99
330
36CB
100
AcDbEntity
  8
寸法線
 62
     0
100
AcDbBlockReference
  2
_OPEN30
 10
161.468832532914
 20
803.112194815723
 30
0.0
 41
6.0
 42
6.0
 43
6.0
 50
180.0
  0
MTEXT
  5
3E9A
330
36CB
100
AcDbEntity
  8
寸法線
 62
     0
 48
10.0
100
AcDbMText
 10
286.468841532914
 20
807.74136148239
 30
0.0
 40
8.0
 41
0.0
 71
     5
 72
     1
  1
\A1;250
  0
POINT
  5
3E9B
330
36CB
100
AcDbEntity
  8
DEFPOINTS
 62
     0
100
AcDbPoint
 10
411.468850532914
 20
888.719066815722
 30
0.0
  0
POINT
  5
3E9C
330
36CB
100
AcDbEntity
  8
DEFPOINTS
 62
     0
100
AcDbPoint
 10
161.468832532914
 20
821.862194815724
 30
0.0
  0
POINT
  5
3E9D
330
36CB
100
AcDbEntity
  8
DEFPOINTS
 62
     0
100
AcDbPoint
 10
161.468832532914
 20
803.112194815723
 30
0.0
  0
ENDBLK
  5
36D6
330
36CB
100
AcDbEntity
  8
0
 48
10.0
100
AcDbBlockEnd
  0
BLOCK
  5
3BED
330
3BE3
100
AcDbEntity
  8
0
 48
10.0
100
AcDbBlockBegin
  2
*D15
 70
     1
 10
0.0
 20
0.0
 30
0.0
  3
*D15
  1
*D15
  0
LINE
  5
3E8C
330
3BE3
100
AcDbEntity
  8
寸法線
 62
     0
 48
10.0
100
AcDbLine
 10
411.468850532914
 20
888.719066815722
 30
0.0
 11
411.468850532914
 21
821.862194815724
 31
0.0
  0
LINE
  5
3E8D
330
3BE3
100
AcDbEntity
  8
寸法線
 62
     0
 48
10.0
100
AcDbLine
 10
328.468882532914
 20
838.044018815722
 30
0.0
 11
328.468882532914
 21
821.862194815724
 31
0.0
  0
LINE
  5
3E8E
330
3BE3
100
AcDbEntity
  8
寸法線
 62
     0
 48
10.0
100
AcDbLine
 10
405.468850532914
 20
823.112194815724
 30
0.0
 11
334.468882532914
 21
823.112194815724
 31
0.0
  0
INSERT
  5
3E8F
330
3BE3
100
AcDbEntity
  8
寸法線
 62
     0
100
AcDbBlockReference
  2
_OPEN30
 10
411.468850532914
 20
823.112194815724
 30
0.0
 41
6.0
 42
6.0
 43
6.0
  0
INSERT
  5
3E90
330
3BE3
100
AcDbEntity
  8
寸法線
 62
     0
100
AcDbBlockReference
  2
_OPEN30
 10
328.468882532914
 20
823.112194815724
 30
0.0
 41
6.0
 42
6.0
 43
6.0
 50
180.0
  0
MTEXT
  5
3E91
330
3BE3
100
AcDbEntity
  8
寸法線
 62
     0
 48
10.0
100
AcDbMText
 10
369.968866532914
 20
827.749694815724
 30
0.0
 40
8.0
 41
0.0
 71
     5
 72
     1
  1
\A1;83
  0
POINT
  5
3E92
330
3BE3
100
AcDbEntity
  8
DEFPOINTS
 62
     0
100
AcDbPoint
 10
411.468850532914
 20
889.344066815722
 30
0.0
  0
POINT
  5
3E93
330
3BE3
100
AcDbEntity
  8
DEFPOINTS
 62
     0
100
AcDbPoint
 10
328.468882532914
 20
838.669018815722
 30
0.0
  0
POINT
  5
3E94
330
3BE3
100
AcDbEntity
  8
DEFPOINTS
 62
     0
100
AcDbPoint
 10
328.468882532914
 20
823.112194815724
 30
0.0
  0
ENDBLK
  5
3BEE
330
3BE3
100
AcDbEntity
  8
0
 48
10.0
100
AcDbBlockEnd
  0
BLOCK
  5
3BF9
330
3BEF
100
AcDbEntity
  8
0
 48
10.0
100
AcDbBlockBegin
  2
*D16
 70
     1
 10
0.0
 20
0.0
 30
0.0
  3
*D16
  1
*D16
  0
LINE
  5
3E83
330
3BEF
100
AcDbEntity
  8
寸法線
 62
     0
 48
10.0
100
AcDbLine
 10
369.823423202169
 20
971.612194815723
 30
0.0
 11
435.77115373289
 21
971.612194815723
 31
0.0
  0
LINE
  5
3E84
330
3BEF
100
AcDbEntity
  8
寸法線
 62
     0
 48
10.0
100
AcDbLine
 10
369.277032788172
 20
869.612194815723
 30
0.0
 11
435.77115373289
 21
869.612194815723
 31
0.0
  0
LINE
  5
3E85
330
3BEF
100
AcDbEntity
  8
寸法線
 62
     0
 48
10.0
100
AcDbLine
 10
434.52115373289
 20
965.612194815723
 30
0.0
 11
434.52115373289
 21
875.612194815723
 31
0.0
  0
INSERT
  5
3E86
330
3BEF
100
AcDbEntity
  8
寸法線
 62
     0
100
AcDbBlockReference
  2
_OPEN30
 10
434.52115373289
 20
971.612194815723
 30
0.0
 41
6.0
 42
6.0
 43
6.0
 50
90.0
  0
INSERT
  5
3E87
330
3BEF
100
AcDbEntity
  8
寸法線
 62
     0
100
AcDbBlockReference
  2
_OPEN30
 10
434.52115373289
 20
869.612194815723
 30
0.0
 41
6.0
 42
6.0
 43
6.0
 50
270.0
  0
MTEXT
  5
3E88
330
3BEF
100
AcDbEntity
  8
寸法線
 62
     0
 48
10.0
100
AcDbMText
 10
429.891987066224
 20
920.000195315723
 30
0.0
 40
8.0
 41
0.0
 71
     5
 72
     1
  1
\A1;φ102
 11
0.0
 21
1.0
 31
0.0
  0
POINT
  5
3E89
330
3BEF
100
AcDbEntity
  8
DEFPOINTS
 62
     0
100
AcDbPoint
 10
369.198423202169
 20
971.612194815723
 30
0.0
  0
POINT
  5
3E8A
330
3BEF
100
AcDbEntity
  8
DEFPOINTS
 62
     0
100
AcDbPoint
 10
368.652032788172
 20
869.612194815723
 30
0.0
  0
POINT
  5
3E8B
330
3BEF
100
AcDbEntity
  8
DEFPOINTS
 62
     0
100
AcDbPoint
 10
434.52115373289
 20
869.612194815723
 30
0.0
  0
ENDBLK
  5
3BFA
330
3BEF
100
AcDbEntity
  8
0
 48
10.0
100
AcDbBlockEnd
  0
BLOCK
  5
4199
330
4198
100
AcDbEntity
  8
0
100
AcDbBlockBegin
  2
*D18
 70
     1
 10
0.0
 20
0.0
 30
0.0
  3
*D18
  1
*D18
  0
LINE
  5
419B
330
4198
100
AcDbEntity
  8
寸法線
 62
     0
 48
10.0
100
AcDbLine
 10
35.40739837303
 20
915.612194815723
 30
0.0
 11
33.187330739096
 21
915.612194815723
 31
0.0
  0
LINE
  5
419C
330
4198
100
AcDbEntity
  8
寸法線
 62
     0
 48
10.0
100
AcDbLine
 10
35.40739837303
 20
925.612194815723
 30
0.0
 11
33.187330739096
 21
925.612194815723
 31
0.0
  0
LINE
  5
419D
330
4198
100
AcDbEntity
  8
寸法線
 62
     0
 48
10.0
100
AcDbLine
 10
34.437330739096
 20
925.612194815723
 30
0.0
 11
34.437330739096
 21
954.998677755356
 31
0.0
  0
LINE
  5
419E
330
4198
100
AcDbEntity
  8
寸法線
 62
     0
 48
10.0
100
AcDbLine
 10
34.437330739096
 20
915.612194815723
 30
0.0
 11
34.437330739096
 21
925.612194815723
 31
0.0
  0
LINE
  5
419F
330
4198
100
AcDbEntity
  8
寸法線
 62
     0
 48
10.0
100
AcDbLine
 10
34.437330739096
 20
909.612194815723
 30
0.0
 11
34.437330739096
 21
903.612194815723
 31
0.0
  0
LINE
  5
41A0
330
4198
100
AcDbEntity
  8
寸法線
 62
     0
 48
10.0
100
AcDbLine
 10
34.437330739096
 20
931.612194815723
 30
0.0
 11
34.437330739096
 21
937.612194815723
 31
0.0
  0
INSERT
  5
41A1
330
4198
100
AcDbEntity
  8
寸法線
 62
     0
100
AcDbBlockReference
  2
_OPEN30
 10
34.437330739096
 20
915.612194815723
 30
0.0
 41
6.0
 42
6.0
 43
6.0
 50
90.0
  0
INSERT
  5
41A2
330
4198
100
AcDbEntity
  8
寸法線
 62
     0
100
AcDbBlockReference
  2
_OPEN30
 10
34.437330739096
 20
925.612194815723
 30
0.0
 41
6.0
 42
6.0
 43
6.0
 50
270.0
  0
MTEXT
  5
41A3
330
4198
100
AcDbEntity
  8
寸法線
 62
     0
 48
10.0
100
AcDbMText
 10
29.812330739096
 20
946.440344422023
 30
0.0
 40
8.0
 41
0.0
 71
     5
 72
     1
  1
\A1;φ10
 11
0.0
 21
1.0
 31
0.0
  0
POINT
  5
41A4
330
4198
100
AcDbEntity
  8
DEFPOINTS
 62
     0
100
AcDbPoint
 10
36.03239837303
 20
915.612194815723
 30
0.0
  0
POINT
  5
41A5
330
4198
100
AcDbEntity
  8
DEFPOINTS
 62
     0
100
AcDbPoint
 10
36.03239837303
 20
925.612194815723
 30
0.0
  0
POINT
  5
41A6
330
4198
100
AcDbEntity
  8
DEFPOINTS
 62
     0
100
AcDbPoint
 10
34.437330739096
 20
925.612194815723
 30
0.0
  0
ENDBLK
  5
419A
330
4198
100
AcDbEntity
  8
0
100
AcDbBlockEnd
  0
BLOCK
  5
43F5
330
4280
100
AcDbEntity
  8
0
100
AcDbBlockBegin
  2
A$C480F1F2B
 70
     0
 10
0.0
 20
0.0
 30
0.0
  3
A$C480F1F2B
  1
A$C480F1F2B
  0
LINE
  5
4282
330
4280
100
AcDbEntity
  8
外形線
100
AcDbLine
 10
8.500001501512
 20
2.385002184348
 30
0.0
 11
8.500001501512
 21
14.179664684348
 31
0.0
  0
ARC
  5
4283
330
4280
100
AcDbEntity
  8
細線
100
AcDbCircle
 10
1.216144001512
 20
8.282372184348
 30
0.0
 40
7.2838425
100
AcDbArc
 50
326.010120640452
 51
33.98932849733
  0
ARC
  5
4284
330
4280
100
AcDbEntity
  8
細線
100
AcDbCircle
 10
4.911364001511
 20
1.275229684348
 30
0.0
 40
3.7563025
100
AcDbArc
 50
17.184150191555
 51
51.38761061704
  0
LINE
  5
4285
330
4280
100
AcDbEntity
  8
細線
100
AcDbLine
 10
2.000001501511
 20
4.210487184348
 30
0.0
 11
7.255442473881
 21
4.210487184348
 31
0.0
  0
LINE
  5
4286
330
4280
100
AcDbEntity
  8
外形線
100
AcDbLine
 10
2.000001501511
 20
16.564818684348
 30
0.0
 11
2.000001501511
 21
0.000000684348
 31
0.0
  0
LINE
  5
4287
330
4280
100
AcDbEntity
  8
外形線
100
AcDbLine
 10
0.000001501512
 20
16.564818684348
 30
0.0
 11
0.000001501512
 21
0.000000684348
 31
0.0
  0
LINE
  5
4288
330
4280
100
AcDbEntity
  8
外形線
100
AcDbLine
 10
6.114929777464
 20
0.000000684348
 30
0.0
 11
8.499926501511
 21
2.385079684348
 31
0.0
  0
LINE
  5
4289
330
4280
100
AcDbEntity
  8
外形線
100
AcDbLine
 10
0.000001501512
 20
0.000000684348
 30
0.0
 11
6.114929777464
 21
0.000000684348
 31
0.0
  0
ARC
  5
428A
330
4280
100
AcDbEntity
  8
細線
100
AcDbCircle
 10
4.911364001511
 20
15.289437184348
 30
0.0
 40
3.7563025
100
AcDbArc
 50
308.612371782873
 51
342.81588950412
  0
LINE
  5
428B
330
4280
100
AcDbEntity
  8
細線
100
AcDbLine
 10
2.000001501511
 20
12.354369684348
 30
0.0
 11
7.25548242852
 21
12.354369684348
 31
0.0
  0
LINE
  5
428C
330
4280
100
AcDbEntity
  8
外形線
100
AcDbLine
 10
6.11493439904
 20
16.564818684348
 30
0.0
 11
8.499926501511
 21
14.179664684348
 31
0.0
  0
LINE
  5
428D
330
4280
100
AcDbEntity
  8
外形線
100
AcDbLine
 10
0.000001501512
 20
16.564818684348
 30
0.0
 11
6.11493439904
 21
16.564818684348
 31
0.0
  0
ENDBLK
  5
43F6
330
4280
100
AcDbEntity
  8
0
100
AcDbBlockEnd
  0
ENDSEC
  0
SECTION
  2
ENTITIES
  0
LEADER
  5
2FF6
330
1A
100
AcDbEntity
  8
寸法線
 48
10.0
100
AcDbLeader
  3
ISO-25
 76
     3
 10
386.3803557658
 20
968.458976795506
 30
0.0
 10
418.100152088523
 20
1035.66715213927
 30
0.0
 10
430.88121794367
 20
1035.66715213927
 30
0.0
1001
ACAD
1000
DSTYLE
1002
{
1070
     5
1000
OPEN30
1070
   147
1040
0.625
1070
    77
1070
     0
1070
    41
1040
6.0
1070
    47
1040
0.1
1070
    48
1040
0.1
1070
    73
1070
     0
1070
   140
1040
5.0
1070
   271
1070
     1
1070
   272
1070
     1
1070
   341
1005
2AF4
1070
   342
1005
2AF4
1002
}
  0
MTEXT
  5
2FF7
330
1A
100
AcDbEntity
  8
寸法線
 48
10.0
100
AcDbMText
 10
417.753057138709
 20
1044.865265329521
 30
0.0
 40
8.0
 41
49.634809108893
 71
     1
 72
     5
  1
アルミ鋳物
  0
MTEXT
  5
2FF8
330
1A
100
AcDbEntity
  8
寸法線
 48
10.0
100
AcDbMText
 10
373.037578863869
 20
1044.425503573866
 30
0.0
 40
8.0
 41
38.931165525765
 71
     1
 72
     5
  1
Oリング
  0
LEADER
  5
2FF9
330
1A
100
AcDbEntity
  8
寸法線
 48
10.0
100
AcDbLeader
  3
ISO-25
 76
     3
 10
350.439712971886
 20
971.612194815723
 30
0.0
 10
372.732205248348
 20
1035.66715213927
 30
0.0
 10
383.456515566619
 20
1035.66715213927
 30
0.0
1001
ACAD
1000
DSTYLE
1002
{
1070
     5
1000
OPEN30
1070
   147
1040
0.625
1070
    77
1070
     0
1070
    41
1040
6.0
1070
    47
1040
0.1
1070
    48
1040
0.1
1070
    73
1070
     0
1070
   140
1040
5.0
1070
   271
1070
     1
1070
   272
1070
     1
1070
   341
1005
2AF4
1070
   342
1005
2AF4
1002
}
  0
LEADER
  5
2FFA
330
1A
100
AcDbEntity
  8
寸法線
 48
10.0
100
AcDbLeader
  3
ISO-25
 76
     3
 10
165.8106545719
 20
998.112117315723
 30
0.0
 10
152.773820858976
 20
1035.66715213927
 30
0.0
 10
141.896120515612
 20
1035.66715213927
 30
0.0
1001
ACAD
1000
DSTYLE
1002
{
1070
     5
1000
OPEN30
1070
   147
1040
0.625
1070
    77
1070
     0
1070
    41
1040
6.0
1070
    47
1040
0.1
1070
    48
1040
0.1
1070
    73
1070
     0
1070
   140
1040
5.0
1070
   271
1070
     1
1070
   272
1070
     1
1070
   341
1005
2AF4
1070
   342
1005
2AF4
1002
}
  0
MTEXT
  5
2FFB
330
1A
100
AcDbEntity
  8
寸法線
 48
10.0
100
AcDbMText
 10
152.325088032264
 20
1037.375463069642
 30
0.0
 40
8.0
 41
50.276164421688
 71
     9
 72
     5
  1
フランジ\Pアルミ鋳物
  0
LEADER
  5
2FFC
330
1A
100
AcDbEntity
  8
寸法線
 48
10.0
100
AcDbLeader
  3
ISO-25
 76
     3
 10
121.717607124163
 20
937.612194815723
 30
0.0
 10
92.353181606365
 20
1035.66715213927
 30
0.0
 10
81.371416183791
 20
1035.66715213927
 30
0.0
1001
ACAD
1000
DSTYLE
1002
{
1070
     5
1000
OPEN30
1070
   147
1040
0.625
1070
    77
1070
     0
1070
    41
1040
6.0
1070
    47
1040
0.1
1070
    48
1040
0.1
1070
    73
1070
     0
1070
   140
1040
5.0
1070
   271
1070
     1
1070
   272
1070
     1
1070
   341
1005
2AF4
1070
   342
1005
2AF4
1002
}
  0
MTEXT
  5
3001
330
1A
100
AcDbEntity
  8
寸法線
 48
10.0
100
AcDbMText
 10
-98.258832799575
 20
1044.815320559233
 30
0.0
 40
8.0
 41
0.0
 71
     1
 72
     5
  1
SUS304
  0
LEADER
  5
3002
330
1A
100
AcDbEntity
  8
寸法線
 48
10.0
100
AcDbLeader
  3
ISO-25
 76
     3
 10
-42.974949696433
 20
960.612194815723
 30
0.0
 10
-64.315760449759
 20
1035.66715213927
 30
0.0
 10
-76.411774645311
 20
1035.66715213927
 30
0.0
1001
ACAD
1000
DSTYLE
1002
{
1070
     5
1000
OPEN30
1070
   147
1040
0.625
1070
    77
1070
     0
1070
    41
1040
6.0
1070
    47
1040
0.1
1070
    48
1040
0.1
1070
    73
1070
     0
1070
   140
1040
5.0
1070
   271
1070
     1
1070
   272
1070
     1
1070
   341
1005
2AF4
1070
   342
1005
2AF4
1002
}
  0
LINE
  5
300C
330
1A
100
AcDbEntity
  8
下書線
 48
10.0
100
AcDbLine
 10
-116.950476414356
 20
1035.66715213927
 30
0.0
 11
396.970420649659
 21
1035.66715213927
 31
0.0
  0
MTEXT
  5
300D
330
1A
100
AcDbEntity
  8
寸法線
 48
10.0
100
AcDbMText
 10
-279.49475483133
 20
833.837109092375
 30
0.0
 40
8.0
 41
29.037887961948
 71
     1
 72
     5
  1
4-φ15
  0
LEADER
  5
300E
330
1A
100
AcDbEntity
  8
寸法線
 48
10.0
100
AcDbLeader
  3
ISO-25
 76
     3
 10
-255.416256528541
 20
867.150254038598
 30
0.0
 10
-244.822362722929
 20
823.447888997462
 30
0.0
 10
-279.287956909471
 20
823.447888997462
 30
0.0
1001
ACAD
1000
DSTYLE
1002
{
1070
     5
1000
OPEN30
1070
   147
1040
0.625
1070
    77
1070
     0
1070
    41
1040
6.0
1070
    47
1040
0.1
1070
    48
1040
0.1
1070
    73
1070
     0
1070
   140
1040
5.0
1070
   271
1070
     1
1070
   272
1070
     1
1070
   341
1005
2AF4
1070
   342
1005
2AF4
1002
}
  0
DIMENSION
  5
300F
330
1A
100
AcDbEntity
  8
寸法線
 48
10.0
100
AcDbDimension
  2
*D4
 10
-133.108076088288
 20
933.935170808356
 30
0.0
 11
-163.582168264473
 21
928.617219325059
 31
0.0
 70
   161
  1
φ<>
  3
ISO-25
100
AcDbAlignedDimension
 13
-285.800555414543
 23
907.289218823088
 33
0.0
 14
-133.108076088289
 24
933.935170808357
 34
0.0
1001
ACAD
1000
DSTYLE
1002
{
1070
     5
1000
OPEN30
1070
    41
1040
6.0
1070
    47
1040
0.1
1070
    48
1040
0.1
1070
    73
1070
     0
1070
   140
1040
8.0
1070
   271
1070
     1
1070
   272
1070
     1
1070
   341
1005
2AF4
1002
}
  0
DIMENSION
  5
3010
330
1A
100
AcDbEntity
  8
寸法線
 48
10.0
100
AcDbDimension
  2
*D5
 10
-150.789261402874
 20
948.610224597247
 30
0.0
 11
-167.561570848149
 21
940.605602006022
 31
0.0
 70
   161
  1
φ<>
  3
ISO-25
100
AcDbAlignedDimension
 13
-268.112728907613
 23
892.617334558256
 33
0.0
 14
-150.789261402874
 24
948.610224597247
 34
0.0
1001
ACAD
1000
DSTYLE
1002
{
1070
     5
1000
OPEN30
1070
    41
1040
6.0
1070
    47
1040
0.1
1070
    48
1040
0.1
1070
    73
1070
     0
1070
   140
1040
8.0
1070
   271
1070
     1
1070
   272
1070
     1
1070
   341
1005
2AF4
1002
}
  0
LINE
  5
3012
330
1A
100
AcDbEntity
  8
中心線
 48
10.0
100
AcDbLine
 10
-209.444760751416
 20
827.111542315723
 30
0.0
 11
-209.444760751416
 21
1014.112847315723
 31
0.0
  0
LINE
  5
3013
330
1A
100
AcDbEntity
  8
中心線
 48
10.0
100
AcDbLine
 10
-115.944108251416
 20
920.612194815723
 30
0.0
 11
-302.945413251416
 21
920.612194815723
 31
0.0
  0
LINE
  5
3014
330
1A
100
AcDbEntity
  8
中心線
 48
10.0
100
AcDbLine
 10
-264.433652886145
 20
975.591531950452
 30
0.0
 11
-246.398861331895
 21
957.556740396201
 31
0.0
  0
LINE
  5
3015
330
1A
100
AcDbEntity
  8
中心線
 48
10.0
100
AcDbLine
 10
-172.509770751416
 20
957.556739815722
 30
0.0
 11
-154.474979197166
 21
975.591531369973
 31
0.0
  0
LINE
  5
3016
330
1A
100
AcDbEntity
  8
中心線
 48
10.0
100
AcDbLine
 10
-264.433652305667
 20
865.632858261472
 30
0.0
 11
-246.398860751416
 21
883.667649815723
 31
0.0
  0
LINE
  5
3017
330
1A
100
AcDbEntity
  8
中心線
 48
10.0
100
AcDbLine
 10
-172.509770751416
 20
883.667649815723
 30
0.0
 11
-154.474979197166
 21
865.632858261472
 31
0.0
  0
CIRCLE
  5
3018
330
1A
100
AcDbEntity
  8
中心線
 48
10.0
100
AcDbCircle
 10
-209.454315751416
 20
920.620737315723
 30
0.0
 40
65.0
  0
CIRCLE
  5
3019
330
1A
100
AcDbEntity
  8
外形線
100
AcDbCircle
 10
-255.416256528541
 20
874.650254038598
 30
0.0
 40
7.5
  0
CIRCLE
  5
301A
330
1A
100
AcDbEntity
  8
外形線
100
AcDbCircle
 10
-255.416256528541
 20
966.574135592848
 30
0.0
 40
7.5
  0
CIRCLE
  5
301B
330
1A
100
AcDbEntity
  8
外形線
100
AcDbCircle
 10
-163.492374974291
 20
874.650254038598
 30
0.0
 40
7.5
  0
CIRCLE
  5
301C
330
1A
100
AcDbEntity
  8
外形線
100
AcDbCircle
 10
-163.492374974291
 20
966.574135592848
 30
0.0
 40
7.5
  0
CIRCLE
  5
301D
330
1A
100
AcDbEntity
  8
外形線
100
AcDbCircle
 10
-209.454315751416
 20
920.612194815723
 30
0.0
 40
77.5
  0
DIMENSION
  5
3037
330
1A
100
AcDbEntity
  8
寸法線
 48
10.0
100
AcDbDimension
  2
*D6
 10
-97.434185685143
 20
880.612194815723
 30
0.0
 11
-102.067519018476
 21
920.612194815723
 31
0.0
 70
    32
  3
ISO-25
100
AcDbAlignedDimension
 13
-75.474944395938
 23
960.612194815723
 33
0.0
 14
-75.474944395938
 24
880.612194815723
 34
0.0
 50
90.0
100
AcDbRotatedDimension
1001
ACAD
1000
DSTYLE
1002
{
1070
     5
1000
OPEN30
1070
    41
1040
6.0
1070
    47
1040
0.1
1070
    48
1040
0.1
1070
    73
1070
     0
1070
   140
1040
8.0
1070
   271
1070
     1
1070
   272
1070
     1
1070
   341
1005
2AF4
1002
}
  0
DIMENSION
  5
3038
330
1A
100
AcDbEntity
  8
寸法線
 48
10.0
100
AcDbDimension
  2
*D7
 10
4.525055604062
 20
862.086137630151
 30
0.0
 11
-35.474944395938
 21
866.719470963484
 31
0.0
 70
    32
  3
ISO-25
100
AcDbAlignedDimension
 13
-75.474944395938
 23
880.612194815723
 33
0.0
 14
4.525055604062
 24
908.612194815723
 34
0.0
100
AcDbRotatedDimension
1001
ACAD
1000
DSTYLE
1002
{
1070
     5
1000
OPEN30
1070
    41
1040
6.0
1070
    47
1040
0.1
1070
    48
1040
0.1
1070
    73
1070
     0
1070
   140
1040
8.0
1070
   271
1070
     1
1070
   272
1070
     1
1070
   341
1005
2AF4
1002
}
  0
INSERT
  5
3039
330
1A
100
AcDbEntity
  8
外形線
100
AcDbBlockReference
  2
パドル_W1立面図
 10
-203.631314247682
 20
690.983378987261
 30
0.0
  0
DIMENSION
  5
303A
330
1A
100
AcDbEntity
  8
寸法線
 48
10.0
100
AcDbDimension
  2
*D8
 10
-208.016769703126
 20
889.532998232545
 30
0.0
 11
-190.591769703126
 21
894.157998232545
 31
0.0
 70
    32
  1
1.5
  3
ISO-25
100
AcDbAlignedDimension
 13
-210.872774217661
 23
889.528438087199
 33
0.0
 14
-208.016769703126
 24
889.528438087199
 34
0.0
100
AcDbRotatedDimension
1001
ACAD
1000
DSTYLE
1002
{
1070
     5
1000
OPEN30
1070
    41
1040
6.0
1070
    47
1040
0.1
1070
    48
1040
0.1
1070
    73
1070
     0
1070
   140
1040
8.0
1070
   271
1070
     1
1070
   272
1070
     1
1070
   341
1005
2AF4
1002
}
  0
INSERT
  5
303B
330
1A
100
AcDbEntity
  8
外形線
 48
10.0
100
AcDbBlockReference
  2
パドル_W1
 10
-133.776060305438
 20
699.960432893912
 30
0.0
  0
LEADER
  5
32DD
330
1A
100
AcDbEntity
  8
寸法線
 48
10.0
100
AcDbLeader
  3
ISO-25
 76
     3
 10
227.336678602676
 20
937.412182815723
 30
0.0
 10
227.300726262879
 20
1035.667152139269
 30
0.0
 10
237.81243709576
 20
1035.667152139269
 30
0.0
1001
ACAD
1000
DSTYLE
1002
{
1070
     5
1000
OPEN30
1070
   147
1040
0.625
1070
    77
1070
     0
1070
    41
1040
6.0
1070
    47
1040
0.1
1070
    48
1040
0.1
1070
    73
1070
     0
1070
   140
1040
5.0
1070
   271
1070
     1
1070
   272
1070
     1
1070
   341
1005
2AF4
1070
   342
1005
2AF4
1002
}
  0
LINE
  5
3481
330
1A
100
AcDbEntity
  8
外形線
100
AcDbLine
 10
191.468832532914
 20
897.226420378097
 30
0.0
 11
190.054618970542
 21
895.812206815723
 31
0.0
  0
LINE
  5
3482
330
1A
100
AcDbEntity
  8
外形線
100
AcDbLine
 10
190.054618970542
 20
945.412182815723
 30
0.0
 11
191.468832532914
 21
943.997969253351
 31
0.0
  0
LINE
  5
34C4
330
1A
100
AcDbEntity
  8
外形線
100
AcDbLine
 10
171.468832532914
 20
844.112194815723
 30
0.0
 11
171.468832532914
 21
997.112194815723
 31
0.0
  0
LINE
  5
34C5
330
1A
100
AcDbEntity
  8
外形線
100
AcDbLine
 10
161.968832532914
 20
843.112194815723
 30
0.0
 11
170.468832532914
 21
843.112194815723
 31
0.0
  0
ARC
  5
3530
330
1A
100
AcDbEntity
  8
細線
100
AcDbCircle
 10
20.685425604062
 20
920.619623101017
 30
0.0
 40
7.407655999999999
100
AcDbArc
 50
326.010693598258
 51
33.989271201549
  0
LINE
  5
3540
330
1A
100
AcDbEntity
  8
外形線
100
AcDbLine
 10
28.093079604062
 20
926.617181101017
 30
0.0
 11
28.093079604062
 21
914.622063101017
 31
0.0
  0
LINE
  5
3541
330
1A
100
AcDbEntity
  8
外形線
100
AcDbLine
 10
21.809845604062
 20
928.902063101017
 30
0.0
 11
21.809845604062
 21
912.337243101017
 31
0.0
  0
ARC
  5
356E
330
1A
100
AcDbEntity
  8
細線
100
AcDbCircle
 10
24.443451604062
 20
913.493371101017
 30
0.0
 40
3.82017
100
AcDbArc
 50
17.184150191565
 51
51.38761061703
  0
LINE
  5
356F
330
1A
100
AcDbEntity
  8
細線
100
AcDbLine
 10
21.809845604062
 20
916.478479101017
 30
0.0
 11
26.827423604062
 21
916.478479101017
 31
0.0
  0
LINE
  5
3573
330
1A
100
AcDbEntity
  8
外形線
100
AcDbLine
 10
25.808259604062
 20
912.337243101017
 30
0.0
 11
28.093049604062
 21
914.622033101017
 31
0.0
  0
ARC
  5
358D
330
1A
100
AcDbEntity
  8
細線
100
AcDbCircle
 10
24.443451604062
 20
927.745813101017
 30
0.0
 40
3.82017
100
AcDbArc
 50
308.612371782879
 51
342.815889504127
  0
LINE
  5
358E
330
1A
100
AcDbEntity
  8
細線
100
AcDbLine
 10
21.809845604062
 20
924.760827101017
 30
0.0
 11
26.827423604062
 21
924.760827101017
 31
0.0
  0
LINE
  5
3592
330
1A
100
AcDbEntity
  8
外形線
100
AcDbLine
 10
25.808259604062
 20
928.902063101017
 30
0.0
 11
28.093049604062
 21
926.617151101017
 31
0.0
  0
LINE
  5
3597
330
1A
100
AcDbEntity
  8
外形線
100
AcDbLine
 10
44.386597604062
 20
915.619591101017
 30
0.0
 11
28.093079604062
 21
915.619591101017
 31
0.0
  0
LINE
  5
3598
330
1A
100
AcDbEntity
  8
外形線
100
AcDbLine
 10
44.386597604062
 20
925.619591101017
 30
0.0
 11
28.093079604062
 21
925.619591101017
 31
0.0
  0
LINE
  5
35AF
330
1A
100
AcDbEntity
  8
外形線
100
AcDbLine
 10
191.468832532914
 20
897.226420378097
 30
0.0
 11
191.468832532914
 21
943.997969253351
 31
0.0
  0
LINE
  5
35CB
330
1A
100
AcDbEntity
  8
外形線
100
AcDbLine
 10
191.468832532914
 20
903.812206815723
 30
0.0
 11
261.468832532914
 21
903.812206815723
 31
0.0
  0
LINE
  5
35CC
330
1A
100
AcDbEntity
  8
外形線
100
AcDbLine
 10
191.468832532914
 20
937.412182815723
 30
0.0
 11
261.468832532914
 21
937.412182815723
 31
0.0
  0
LINE
  5
35CD
330
1A
100
AcDbEntity
  8
外形線
100
AcDbLine
 10
161.468832532914
 20
843.612194815723
 30
0.0
 11
161.468832532914
 21
997.612194815723
 31
0.0
  0
ARC
  5
35CE
330
1A
100
AcDbEntity
  8
外形線
100
AcDbCircle
 10
174.468832532914
 20
892.812206815723
 30
0.0
 40
3.0
100
AcDbArc
 50
89.999981276032
 51
180.00001984784
  0
LINE
  5
35CF
330
1A
100
AcDbEntity
  8
外形線
100
AcDbLine
 10
190.054618970542
 20
895.812206815723
 30
0.0
 11
174.468832532914
 21
895.812206815723
 31
0.0
  0
ARC
  5
35D0
330
1A
100
AcDbEntity
  8
外形線
100
AcDbCircle
 10
174.468832532914
 20
948.412182815723
 30
0.0
 40
3.0
100
AcDbArc
 50
180.00001984784
 51
270.0
  0
LINE
  5
35D1
330
1A
100
AcDbEntity
  8
外形線
100
AcDbLine
 10
190.054618970542
 20
945.412182815723
 30
0.0
 11
174.468832532914
 21
945.412182815723
 31
0.0
  0
LINE
  5
35D4
330
1A
100
AcDbEntity
  8
外形線
100
AcDbLine
 10
44.386597604062
 20
937.612194815723
 30
0.0
 11
44.386597604062
 21
903.612194815723
 31
0.0
  0
LINE
  5
3645
330
1A
100
AcDbEntity
  8
中心線
 48
10.0
100
AcDbLine
 10
152.454628532914
 20
855.612194815723
 30
0.0
 11
180.854628532914
 21
855.612194815723
 31
0.0
  0
LINE
  5
3646
330
1A
100
AcDbEntity
  8
中心線
 48
10.0
100
AcDbLine
 10
152.454628532914
 20
985.612194815723
 30
0.0
 11
180.854628532914
 21
985.612194815723
 31
0.0
  0
LINE
  5
3648
330
1A
100
AcDbEntity
  8
中心線
 48
10.0
100
AcDbLine
 10
183.468832532914
 20
952.192334815723
 30
0.0
 11
183.468832532914
 21
938.632030815723
 31
0.0
  0
DIMENSION
  5
3649
330
1A
100
AcDbEntity
  8
寸法線
 48
10.0
100
AcDbDimension
  2
*D10
 10
141.527874921113
 20
937.612194815723
 30
0.0
 11
141.527874921113
 21
956.482118828782
 31
0.0
 70
   160
  1
φ34
  3
ISO-25
100
AcDbAlignedDimension
 13
150.125085605936
 23
903.612194815723
 33
0.0
 14
150.125085605936
 24
937.612194815723
 34
0.0
 50
90.0
100
AcDbRotatedDimension
1001
ACAD
1000
DSTYLE
1002
{
1070
     5
1000
OPEN30
1070
    41
1040
6.0
1070
    47
1040
0.1
1070
    48
1040
0.1
1070
    73
1070
     0
1070
   140
1040
8.0
1070
   271
1070
     1
1070
   272
1070
     1
1070
   341
1005
2AF4
1002
}
  0
LINE
  5
368B
330
1A
100
AcDbEntity
  8
外形線
 48
10.0
100
AcDbLine
 10
19.525055604062
 20
928.902062101017
 30
0.0
 11
25.808259604062
 21
928.902063101017
 31
0.0
  0
LINE
  5
368C
330
1A
100
AcDbEntity
  8
外形線
 48
10.0
100
AcDbLine
 10
19.525055604062
 20
912.337244101017
 30
0.0
 11
25.808259604062
 21
912.337243101017
 31
0.0
  0
DIMENSION
  5
368D
330
1A
100
AcDbEntity
  8
寸法線
 48
10.0
100
AcDbDimension
  2
*D12
 10
171.468832532914
 20
823.112194815724
 30
0.0
 11
166.468832532914
 21
827.737194815724
 31
0.0
 70
    32
  3
ISO-25
100
AcDbAlignedDimension
 13
161.468832532914
 23
843.612194815723
 33
0.0
 14
171.468832532914
 24
844.112194815723
 34
0.0
100
AcDbRotatedDimension
1001
ACAD
1000
DSTYLE
1002
{
1070
     5
1000
OPEN30
1070
    41
1040
6.0
1070
    47
1040
0.1
1070
    48
1040
0.1
1070
    73
1070
     0
1070
   140
1040
8.0
1070
   271
1070
     1
1070
   272
1070
     1
1070
   341
1005
2AF4
1002
}
  0
DIMENSION
  5
369C
330
1A
100
AcDbEntity
  8
寸法線
 48
10.0
100
AcDbDimension
  2
*D13
 10
161.468832532914
 20
803.112194815723
 30
0.0
 11
42.996944068488
 21
807.745528149057
 31
0.0
 70
    32
  1
 
  3
ISO-25
100
AcDbAlignedDimension
 13
-75.474944395938
 23
860.828741344857
 33
0.0
 14
161.468832532914
 24
823.112194815724
 34
0.0
100
AcDbRotatedDimension
1001
ACAD
1000
DSTYLE
1002
{
1070
     5
1000
OPEN30
1070
    41
1040
6.0
1070
    47
1040
0.1
1070
    48
1040
0.1
1070
    73
1070
     0
1070
   140
1040
8.0
1070
   271
1070
     1
1070
   272
1070
     1
1070
   341
1005
2AF4
1002
}
  0
MTEXT
  5
36C5
330
1A
100
AcDbEntity
  8
寸法線
 48
10.0
100
AcDbMText
 10
24.258446233735
 20
882.441566752634
 30
0.0
 40
7.0
 41
55.851997888908
 71
     1
 72
     5
  1
シール\Pシリコンゴム
1001
ACAD
1000
MTEXTBEGIN
1070
    44
1040
0.8
1000
MTEXTEND
  0
DIMENSION
  5
36CA
330
1A
100
AcDbEntity
  8
寸法線
 48
10.0
100
AcDbDimension
  2
*D14
 10
161.468832532914
 20
803.112194815723
 30
0.0
 11
286.468841532914
 21
807.74136148239
 31
0.0
 70
    32
  1
250
  3
ISO-25
100
AcDbAlignedDimension
 13
411.468850532914
 23
888.719066815722
 33
0.0
 14
161.468832532914
 24
821.862194815724
 34
0.0
100
AcDbRotatedDimension
1001
ACAD
1000
DSTYLE
1002
{
1070
     5
1000
OPEN30
1070
    41
1040
6.0
1070
    47
1040
0.1
1070
    48
1040
0.1
1070
    73
1070
     0
1070
   140
1040
8.0
1070
   271
1070
     1
1070
   272
1070
     1
1070
   341
1005
2AF4
1002
}
  0
LINE
  5
375E
330
1A
100
AcDbEntity
  8
中心線
 48
10.0
100
AcDbLine
 10
-85.816213551656
 20
920.612194815723
 30
0.0
 11
412.736228427721
 21
920.612194815723
 31
0.0
  0
ARC
  5
377D
330
1A
100
AcDbEntity
  8
外形線
 48
10.0
100
AcDbCircle
 10
-209.454315751416
 20
920.620737315723
 30
0.0
 40
17.0
100
AcDbArc
 50
274.85081174141
 51
85.14918825859
  0
ARC
  5
377E
330
1A
100
AcDbEntity
  8
外形線
 48
10.0
100
AcDbCircle
 10
-209.454315751416
 20
920.620737315723
 30
0.0
 40
17.0
100
AcDbArc
 50
94.786251926257
 51
265.213748073743
  0
MTEXT
  5
3785
330
1A
100
AcDbEntity
  8
寸法線
 48
10.0
100
AcDbMText
 10
57.881308886571
 20
1044.626226898871
 30
0.0
 40
8.0
 41
0.0
 71
     1
 72
     5
  1
SUS304
  0
MTEXT
  5
378C
330
1A
100
AcDbEntity
  8
寸法線
 48
10.0
100
AcDbMText
 10
227.034104145191
 20
1044.924491571114
 30
0.0
 40
8.0
 41
0.0
 71
     1
 72
     5
  1
SUS304
  0
MTEXT
  5
3794
330
1A
100
AcDbEntity
  8
寸法線
 48
10.0
100
AcDbMText
 10
273.571282829067
 20
1044.630830830695
 30
0.0
 40
8.0
 41
31.391412236184
 71
     1
 72
     5
  1
アルミ
  0
MTEXT
  5
379A
330
1A
100
AcDbEntity
  8
寸法線
 48
10.0
100
AcDbMText
 10
314.356792472649
 20
1044.570389795732
 30
0.0
 40
8.0
 41
53.106937437654
 71
     1
 72
     5
  1
アルミ鋳物
  0
LEADER
  5
379B
330
1A
100
AcDbEntity
  8
寸法線
 48
10.0
100
AcDbLeader
  3
ISO-25
 76
     3
 10
274.323313633021
 20
980.440820332394
 30
0.0
 10
274.323313633021
 20
1035.66715213927
 30
0.0
 10
285.273780839524
 20
1035.66715213927
 30
0.0
1001
ACAD
1000
DSTYLE
1002
{
1070
     5
1000
OPEN30
1070
   147
1040
0.625
1070
    77
1070
     0
1070
    41
1040
6.0
1070
    47
1040
0.1
1070
    48
1040
0.1
1070
    73
1070
     0
1070
   140
1040
5.0
1070
   271
1070
     1
1070
   272
1070
     1
1070
   341
1005
2AF4
1070
   342
1005
2AF4
1002
}
  0
LEADER
  5
379F
330
1A
100
AcDbEntity
  8
寸法線
 48
10.0
100
AcDbLeader
  3
ISO-25
 76
     3
 10
309.02401644918
 20
964.517352712281
 30
0.0
 10
314.36771805633
 20
1035.66715213927
 30
0.0
 10
324.49187982213
 20
1035.66715213927
 30
0.0
1001
ACAD
1000
DSTYLE
1002
{
1070
     5
1000
OPEN30
1070
   147
1040
0.625
1070
    77
1070
     0
1070
    41
1040
6.0
1070
    47
1040
0.1
1070
    48
1040
0.1
1070
    73
1070
     0
1070
   140
1040
5.0
1070
   271
1070
     1
1070
   272
1070
     1
1070
   341
1005
2AF4
1070
   342
1005
2AF4
1002
}
  0
LINE
  5
3B53
330
1A
100
AcDbEntity
  8
外形線
 48
10.0
100
AcDbLine
 10
286.468882532914
 20
944.112134296107
 30
0.0
 11
286.468882532914
 21
897.112134815723
 31
0.0
  0
ARC
  5
3B54
330
1A
100
AcDbEntity
  8
外形線
100
AcDbCircle
 10
289.818248532913
 20
892.612134815723
 30
0.0
 40
3.0
100
AcDbArc
 50
27.034841675909
 51
89.999981276021
  0
ARC
  5
3B55
330
1A
100
AcDbEntity
  8
外形線
100
AcDbCircle
 10
287.968882532914
 20
897.112134815723
 30
0.0
 40
1.5
100
AcDbArc
 50
180.00001984784
 51
270.0
  0
LINE
  5
3B56
330
1A
100
AcDbEntity
  8
外形線
100
AcDbLine
 10
287.968882532914
 20
895.612134815723
 30
0.0
 11
289.818248532913
 21
895.612134815723
 31
0.0
  0
ARC
  5
3B57
330
1A
100
AcDbEntity
  8
外形線
100
AcDbCircle
 10
289.818248532913
 20
948.612134815723
 30
0.0
 40
3.0
100
AcDbArc
 50
270.0
 51
332.96514072401
  0
ARC
  5
3B58
330
1A
100
AcDbEntity
  8
外形線
100
AcDbCircle
 10
287.968882532914
 20
944.112134815723
 30
0.0
 40
1.5
100
AcDbArc
 50
89.999981276021
 51
180.00001984784
  0
LINE
  5
3B59
330
1A
100
AcDbEntity
  8
外形線
100
AcDbLine
 10
287.968882532914
 20
945.612134815723
 30
0.0
 11
289.818248532913
 21
945.612134815723
 31
0.0
  0
LINE
  5
3B5A
330
1A
100
AcDbEntity
  8
外形線
100
AcDbLine
 10
309.528006019755
 20
876.661957260491
 30
0.0
 11
304.598522532914
 21
876.822400815723
 31
0.0
  0
ARC
  5
3B5B
330
1A
100
AcDbEntity
  8
外形線
100
AcDbCircle
 10
304.922436532914
 20
882.813610815723
 30
0.0
 40
6.0
100
AcDbArc
 50
207.035033411086
 51
266.905857142793
  0
LINE
  5
3B5C
330
1A
100
AcDbEntity
  8
外形線
100
AcDbLine
 10
299.578014532914
 20
880.086438815723
 30
0.0
 11
292.490428532914
 21
893.975658815723
 31
0.0
  0
ARC
  5
3B5D
330
1A
100
AcDbEntity
  8
外形線
100
AcDbCircle
 10
304.823620532914
 20
958.217052815723
 30
0.0
 40
6.0
100
AcDbArc
 50
93.094182552862
 51
152.96494898883
  0
LINE
  5
3B5E
330
1A
100
AcDbEntity
  8
外形線
100
AcDbLine
 10
299.479258532914
 20
960.944286815723
 30
0.0
 11
292.490428532914
 21
947.248608815722
 31
0.0
  0
LINE
  5
3B5F
330
1A
100
AcDbEntity
  8
外形線
100
AcDbLine
 10
304.499755966853
 20
964.2083057517
 30
0.0
 11
342.328868532914
 21
966.308178815722
 31
0.0
  0
LINE
  5
3B60
330
1A
100
AcDbEntity
  8
外形線
100
AcDbLine
 10
403.837168532914
 20
950.028880815722
 30
0.0
 11
409.807260532913
 21
950.028880815722
 31
0.0
  0
LINE
  5
3B61
330
1A
100
AcDbEntity
  8
外形線
100
AcDbLine
 10
403.837168532914
 20
946.030590815723
 30
0.0
 11
409.469614532913
 21
946.030590815723
 31
0.0
  0
ARC
  5
3B62
330
1A
100
AcDbEntity
  8
外形線
100
AcDbCircle
 10
403.757640532914
 20
948.029736815722
 30
0.0
 40
2.000726
100
AcDbArc
 50
87.722187561485
 51
272.27785213419
  0
LINE
  5
3B63
330
1A
100
AcDbEntity
  8
外形線
100
AcDbLine
 10
401.758432532914
 20
953.741772815722
 30
0.0
 11
409.557382532914
 21
953.741772815722
 31
0.0
  0
LINE
  5
3B64
330
1A
100
AcDbEntity
  8
外形線
100
AcDbLine
 10
403.705820532914
 20
916.613842815722
 30
0.0
 11
409.469614532913
 21
916.613842815722
 31
0.0
  0
LINE
  5
3B65
330
1A
100
AcDbEntity
  8
外形線
100
AcDbLine
 10
403.705820532914
 20
924.610546815723
 30
0.0
 11
409.469614532913
 21
924.610546815723
 31
0.0
  0
LINE
  5
3B66
330
1A
100
AcDbEntity
  8
外形線
100
AcDbLine
 10
403.837230532914
 20
895.193798815723
 30
0.0
 11
409.469614532913
 21
895.193798815723
 31
0.0
  0
LINE
  5
3B67
330
1A
100
AcDbEntity
  8
外形線
100
AcDbLine
 10
401.758432532914
 20
887.482616815722
 30
0.0
 11
409.557382532914
 21
887.482616815722
 31
0.0
  0
LINE
  5
3B68
330
1A
100
AcDbEntity
  8
外形線
100
AcDbLine
 10
403.837168532914
 20
891.195384815722
 30
0.0
 11
409.807260532913
 21
891.195384815722
 31
0.0
  0
ARC
  5
3B69
330
1A
100
AcDbEntity
  8
外形線
100
AcDbCircle
 10
403.758922532914
 20
893.194622815723
 30
0.0
 40
2.000724
100
AcDbArc
 50
87.757023395462
 51
272.242959004485
  0
LINE
  5
3B6A
330
1A
100
AcDbEntity
  8
外形線
100
AcDbLine
 10
401.758432532914
 20
920.612132815723
 30
0.0
 11
401.758432532914
 21
878.123852815722
 31
0.0
  0
LINE
  5
3B6B
330
1A
100
AcDbEntity
  8
細線
100
AcDbLine
 10
367.176036532914
 20
916.328198815722
 30
0.0
 11
367.176036532914
 21
897.764110815723
 31
0.0
  0
LINE
  5
3B6C
330
1A
100
AcDbEntity
  8
細線
100
AcDbLine
 10
302.473784511988
 20
959.739360815722
 30
0.0
 11
302.473784511988
 21
881.484966815723
 31
0.0
  0
LINE
  5
3B6D
330
1A
100
AcDbEntity
  8
細線
100
AcDbLine
 10
345.184824532914
 20
971.612132815723
 30
0.0
 11
345.184824532914
 21
869.612132815723
 31
0.0
  0
LINE
  5
3B6E
330
1A
100
AcDbEntity
  8
外形線
100
AcDbLine
 10
349.468882532914
 20
971.612132815723
 30
0.0
 11
349.468882532914
 21
869.612132815723
 31
0.0
  0
LINE
  5
3B6F
330
1A
100
AcDbEntity
  8
外形線
100
AcDbLine
 10
351.468028532914
 20
869.612132815723
 30
0.0
 11
351.468028532914
 21
971.612132815723
 31
0.0
  0
LINE
  5
3B70
330
1A
100
AcDbEntity
  8
細線
100
AcDbLine
 10
342.328868532914
 20
966.308178815722
 30
0.0
 11
342.328868532914
 21
877.604442815722
 31
0.0
  0
LINE
  5
3B71
330
1A
100
AcDbEntity
  8
細線
100
AcDbLine
 10
370.888804532914
 20
969.164134815722
 30
0.0
 11
370.888804532914
 21
872.060130815722
 31
0.0
  0
ARC
  5
3B72
330
1A
100
AcDbEntity
  8
外形線
100
AcDbCircle
 10
317.274058532914
 20
857.034984815723
 30
0.0
 40
2.856
100
AcDbArc
 50
187.289418100602
 51
270.0
  0
LINE
  5
3B73
330
1A
100
AcDbEntity
  8
外形線
100
AcDbLine
 10
319.044078532915
 20
849.894970815722
 30
0.0
 11
319.044078532915
 21
854.178966815722
 31
0.0
  0
LINE
  5
3B74
330
1A
100
AcDbEntity
  8
細線
100
AcDbLine
 10
321.328868532914
 20
854.178966815722
 30
0.0
 11
321.328868532914
 21
849.894970815722
 31
0.0
  0
LINE
  5
3B75
330
1A
100
AcDbEntity
  8
外形線
100
AcDbLine
 10
337.893688532914
 20
849.894970815722
 30
0.0
 11
337.893688532914
 21
854.178966815722
 31
0.0
  0
LINE
  5
3B76
330
1A
100
AcDbEntity
  8
細線
100
AcDbLine
 10
335.608898532914
 20
854.178966815722
 30
0.0
 11
335.608898532914
 21
849.894970815722
 31
0.0
  0
ARC
  5
3B77
330
1A
100
AcDbEntity
  8
外形線
100
AcDbCircle
 10
339.676524532914
 20
857.034984815723
 30
0.0
 40
2.856
100
AcDbArc
 50
270.0
 51
352.421011277462
  0
LINE
  5
3B78
330
1A
100
AcDbEntity
  8
中心線
 48
10.0
100
AcDbLine
 10
328.468882532914
 20
895.022564929005
 30
0.0
 11
328.468882532914
 21
838.669018815722
 31
0.0
  0
ARC
  5
3B79
330
1A
100
AcDbEntity
  8
細線
100
AcDbCircle
 10
315.046520532914
 20
863.057080815722
 30
0.0
 40
18.322924
100
AcDbArc
 50
272.67766208363
 51
292.931548254141
  0
LINE
  5
3B7A
330
1A
100
AcDbEntity
  8
外形線
100
AcDbLine
 10
314.474498532914
 20
849.894970815722
 30
0.0
 11
342.463390532915
 21
849.894970815722
 31
0.0
  0
LINE
  5
3B7B
330
1A
100
AcDbEntity
  8
外形線
100
AcDbLine
 10
315.902476532914
 20
844.754162815722
 30
0.0
 11
341.035290532914
 21
844.754162815722
 31
0.0
  0
LINE
  5
3B7C
330
1A
100
AcDbEntity
  8
外形線
100
AcDbLine
 10
314.474498532914
 20
849.894970815722
 30
0.0
 11
314.474498532914
 21
846.182202815723
 31
0.0
  0
LINE
  5
3B7D
330
1A
100
AcDbEntity
  8
外形線
100
AcDbLine
 10
314.474498532914
 20
846.182202815723
 30
0.0
 11
315.902476532914
 21
844.754162815722
 31
0.0
  0
LINE
  5
3B7E
330
1A
100
AcDbEntity
  8
外形線
100
AcDbLine
 10
342.463390532915
 20
849.894970815722
 30
0.0
 11
342.463390532915
 21
846.182202815723
 31
0.0
  0
LINE
  5
3B7F
330
1A
100
AcDbEntity
  8
外形線
100
AcDbLine
 10
342.463390532915
 20
846.182202815723
 30
0.0
 11
341.035290532914
 21
844.754162815722
 31
0.0
  0
ARC
  5
3B80
330
1A
100
AcDbEntity
  8
細線
100
AcDbCircle
 10
328.468882532914
 20
859.290844815723
 30
0.0
 40
14.53669
100
AcDbArc
 50
244.3907930338
 51
295.609209213942
  0
LINE
  5
3B81
330
1A
100
AcDbEntity
  8
細線
100
AcDbLine
 10
322.185680532914
 20
846.182202815723
 30
0.0
 11
322.185680532914
 21
849.894970815722
 31
0.0
  0
LINE
  5
3B82
330
1A
100
AcDbEntity
  8
細線
100
AcDbLine
 10
334.752086532914
 20
846.182202815723
 30
0.0
 11
334.752086532914
 21
849.894970815722
 31
0.0
  0
ARC
  5
3B83
330
1A
100
AcDbEntity
  8
細線
100
AcDbCircle
 10
341.891246532914
 20
863.057080815722
 30
0.0
 40
18.322924
100
AcDbArc
 50
247.068453993571
 51
267.322397459867
  0
LINE
  5
3B84
330
1A
100
AcDbEntity
  8
外形線
100
AcDbLine
 10
345.106919790918
 20
869.612132815723
 30
0.0
 11
367.176036532914
 21
869.612132815723
 31
0.0
  0
ARC
  5
3B85
330
1A
100
AcDbEntity
  8
細線
100
AcDbCircle
 10
329.084362532914
 20
843.411998815722
 30
0.0
 40
36.766532
100
AcDbArc
 50
68.885514212355
 51
115.211785839405
  0
LINE
  5
3B86
330
1A
100
AcDbEntity
  8
外形線
100
AcDbLine
 10
317.274058532914
 20
854.178996815722
 30
0.0
 11
339.676524532914
 21
854.178996815722
 31
0.0
  0
ARC
  5
3B87
330
1A
100
AcDbEntity
  8
外形線
100
AcDbCircle
 10
309.316837948236
 20
873.754041490118
 30
0.0
 40
2.915573028070137
100
AcDbArc
 50
7.71272137218
 51
85.846565215985
  0
LINE
  5
3B88
330
1A
100
AcDbEntity
  8
外形線
100
AcDbLine
 10
312.206035030201
 20
874.145329496034
 30
0.0
 11
314.441141030201
 21
856.672611496033
 31
0.0
  0
ARC
  5
3B89
330
1A
100
AcDbEntity
  8
外形線
100
AcDbCircle
 10
345.106919790918
 20
868.612132815723
 30
0.0
 40
1.0
100
AcDbArc
 50
90.0
 51
172.42095622959
  0
LINE
  5
3B8A
330
1A
100
AcDbEntity
  8
細線
100
AcDbLine
 10
345.184824532914
 20
869.612132815723
 30
0.0
 11
342.328868532914
 21
877.710117366496
 31
0.0
  0
LINE
  5
3B8B
330
1A
100
AcDbEntity
  8
外形線
100
AcDbLine
 10
344.115655943507
 20
868.744026654899
 30
0.0
 11
342.507574443034
 21
856.658298731016
 31
0.0
  0
LINE
  5
3B8C
330
1A
100
AcDbEntity
  8
細線
100
AcDbLine
 10
367.176036532914
 20
889.767406815723
 30
0.0
 11
367.176036532914
 21
878.343334815722
 31
0.0
  0
LINE
  5
3B8D
330
1A
100
AcDbEntity
  8
外形線
100
AcDbLine
 10
370.888804532914
 20
872.060130815722
 30
0.0
 11
397.103038532914
 21
873.273816815723
 31
0.0
  0
ARC
  5
3B8E
330
1A
100
AcDbEntity
  8
外形線
100
AcDbCircle
 10
369.162120532915
 20
876.629712815723
 30
0.0
 40
1.714446
100
AcDbArc
 50
271.804703587001
 51
88.195318508578
  0
LINE
  5
3B8F
330
1A
100
AcDbEntity
  8
細線
100
AcDbLine
 10
367.176036532914
 20
874.916210815722
 30
0.0
 11
367.176036532914
 21
869.612132815723
 31
0.0
  0
LINE
  5
3B90
330
1A
100
AcDbEntity
  8
外形線
100
AcDbLine
 10
369.216136532914
 20
874.916210815722
 30
0.0
 11
351.468028532914
 21
874.916210815722
 31
0.0
  0
LINE
  5
3B91
330
1A
100
AcDbEntity
  8
外形線
100
AcDbLine
 10
369.216136532914
 20
878.343334815722
 30
0.0
 11
351.468028532914
 21
878.343334815722
 31
0.0
  0
LINE
  5
3B92
330
1A
100
AcDbEntity
  8
外形線
100
AcDbLine
 10
370.888804532914
 20
872.060130815722
 30
0.0
 11
367.176036532914
 21
869.612132815723
 31
0.0
  0
ARC
  5
3B93
330
1A
100
AcDbEntity
  8
外形線
100
AcDbCircle
 10
396.905086566687
 20
878.123100236091
 30
0.0
 40
4.853322024345492
100
AcDbArc
 50
272.337565725697
 51
0.008866954343
  0
LINE
  5
3B94
330
1A
100
AcDbEntity
  8
外形線
100
AcDbLine
 10
351.468028532914
 20
897.764110815723
 30
0.0
 11
367.176036532914
 21
897.764110815723
 31
0.0
  0
LINE
  5
3B95
330
1A
100
AcDbEntity
  8
外形線
100
AcDbLine
 10
351.468028532914
 20
889.767406815723
 30
0.0
 11
367.265146532914
 21
889.767406815723
 31
0.0
  0
ARC
  5
3B96
330
1A
100
AcDbEntity
  8
外形線
100
AcDbCircle
 10
366.849986532914
 20
893.761670815722
 30
0.0
 40
4.015794000000001
100
AcDbArc
 50
275.934583374274
 51
85.343077308638
  0
LINE
  5
3B97
330
1A
100
AcDbEntity
  8
外形線
100
AcDbLine
 10
345.184824532914
 20
971.612132815723
 30
0.0
 11
367.176036532914
 21
971.612132815723
 31
0.0
  0
LINE
  5
3B98
330
1A
100
AcDbEntity
  8
外形線
100
AcDbLine
 10
342.328868532914
 20
966.308178815722
 30
0.0
 11
345.184824532914
 21
971.612132815723
 31
0.0
  0
ARC
  5
3B99
330
1A
100
AcDbEntity
  8
外形線
100
AcDbCircle
 10
366.849986532914
 20
947.462718815722
 30
0.0
 40
4.015794000000001
100
AcDbArc
 50
274.656944786913
 51
84.065438721313
  0
LINE
  5
3B9A
330
1A
100
AcDbEntity
  8
外形線
100
AcDbLine
 10
401.758432532914
 20
920.612132815723
 30
0.0
 11
401.758432532914
 21
963.100536815723
 31
0.0
  0
LINE
  5
3B9B
330
1A
100
AcDbEntity
  8
外形線
100
AcDbLine
 10
351.468028532914
 20
943.460156815722
 30
0.0
 11
367.176036532914
 21
943.460156815722
 31
0.0
  0
LINE
  5
3B9C
330
1A
100
AcDbEntity
  8
外形線
100
AcDbLine
 10
351.468028532914
 20
916.328198815722
 30
0.0
 11
367.176036532914
 21
916.328198815722
 31
0.0
  0
LINE
  5
3B9D
330
1A
100
AcDbEntity
  8
外形線
100
AcDbLine
 10
351.468028532914
 20
924.896190815722
 30
0.0
 11
367.176036532914
 21
924.896190815722
 31
0.0
  0
LINE
  5
3B9E
330
1A
100
AcDbEntity
  8
細線
100
AcDbLine
 10
367.176036532914
 20
924.896190815722
 30
0.0
 11
367.176036532914
 21
943.460156815722
 31
0.0
  0
ARC
  5
3B9F
330
1A
100
AcDbEntity
  8
外形線
100
AcDbCircle
 10
365.888926532914
 20
921.194652815723
 30
0.0
 40
5.033766
100
AcDbArc
 50
284.815257311503
 51
353.35584921602
  0
ARC
  5
3BA0
330
1A
100
AcDbEntity
  8
外形線
100
AcDbCircle
 10
365.888926532914
 20
920.029736815722
 30
0.0
 40
5.033766
100
AcDbArc
 50
6.644133183896
 51
75.184725088468
  0
ARC
  5
3BA1
330
1A
100
AcDbEntity
  8
外形線
100
AcDbCircle
 10
403.912852532914
 20
918.759350815723
 30
0.0
 40
2.15556
100
AcDbArc
 50
181.91094868617
 51
264.487402289583
  0
ARC
  5
3BA2
330
1A
100
AcDbEntity
  8
外形線
100
AcDbCircle
 10
403.912852532914
 20
922.465038815723
 30
0.0
 40
2.15556
100
AcDbArc
 50
95.512637406102
 51
178.089033713746
  0
LINE
  5
3BA3
330
1A
100
AcDbEntity
  8
外形線
100
AcDbLine
 10
370.888804532914
 20
969.164134815722
 30
0.0
 11
397.103038532914
 21
967.950512815722
 31
0.0
  0
ARC
  5
3BA4
330
1A
100
AcDbEntity
  8
外形線
100
AcDbCircle
 10
369.162120532915
 20
964.594554815722
 30
0.0
 40
1.714446
100
AcDbArc
 50
271.804703587001
 51
88.195318508578
  0
LINE
  5
3BA5
330
1A
100
AcDbEntity
  8
細線
100
AcDbLine
 10
367.176036532914
 20
966.308178815722
 30
0.0
 11
367.176036532914
 21
971.612132815723
 31
0.0
  0
LINE
  5
3BA6
330
1A
100
AcDbEntity
  8
外形線
100
AcDbLine
 10
367.176036532914
 20
971.612132815723
 30
0.0
 11
370.888804532914
 21
969.164134815722
 31
0.0
  0
LINE
  5
3BA7
330
1A
100
AcDbEntity
  8
外形線
100
AcDbLine
 10
369.216136532914
 20
966.308178815722
 30
0.0
 11
351.468028532914
 21
966.308178815722
 31
0.0
  0
LINE
  5
3BA8
330
1A
100
AcDbEntity
  8
外形線
100
AcDbLine
 10
369.216136532914
 20
962.880932815723
 30
0.0
 11
351.468028532914
 21
962.880932815723
 31
0.0
  0
LINE
  5
3BA9
330
1A
100
AcDbEntity
  8
外形線
100
AcDbLine
 10
351.468028532914
 20
951.456982815722
 30
0.0
 11
367.265146532914
 21
951.456982815722
 31
0.0
  0
LINE
  5
3BAA
330
1A
100
AcDbEntity
  8
細線
100
AcDbLine
 10
367.176036532914
 20
951.456982815722
 30
0.0
 11
367.176036532914
 21
962.880932815723
 31
0.0
  0
ARC
  5
3BAB
330
1A
100
AcDbEntity
  8
外形線
100
AcDbCircle
 10
396.9051938571
 20
963.101332389433
 30
0.0
 40
4.853214741021503
100
AcDbArc
 50
359.990607665531
 51
87.663650269117
  0
ARC
  5
3BAC
330
1A
100
AcDbEntity
  8
外形線
100
AcDbCircle
 10
409.469614532913
 20
914.614574815722
 30
0.0
 40
1.9992
100
AcDbArc
 50
0.0
 51
89.99998127602
  0
ARC
  5
3BAD
330
1A
100
AcDbEntity
  8
外形線
100
AcDbCircle
 10
409.469614532913
 20
897.192944815722
 30
0.0
 40
1.9992
100
AcDbArc
 50
270.0
 51
359.999982399909
  0
ARC
  5
3BAE
330
1A
100
AcDbEntity
  8
外形線
100
AcDbCircle
 10
409.606700532914
 20
889.344066815722
 30
0.0
 40
1.86215
100
AcDbArc
 50
268.482178628784
 51
83.815801009984
  0
LINE
  5
3BAF
330
1A
100
AcDbEntity
  8
外形線
100
AcDbLine
 10
411.468882532914
 20
897.192944815722
 30
0.0
 11
411.468882532914
 21
914.614574815722
 31
0.0
  0
ARC
  5
3BB0
330
1A
100
AcDbEntity
  8
外形線
100
AcDbCircle
 10
409.469614532913
 20
944.031322815722
 30
0.0
 40
1.9992
100
AcDbArc
 50
0.0
 51
89.99998127602
  0
ARC
  5
3BB1
330
1A
100
AcDbEntity
  8
外形線
100
AcDbCircle
 10
409.469614532913
 20
926.609692815723
 30
0.0
 40
1.9992
100
AcDbArc
 50
270.0
 51
359.999982399909
  0
LINE
  5
3BB2
330
1A
100
AcDbEntity
  8
外形線
100
AcDbLine
 10
411.468882532914
 20
944.031322815722
 30
0.0
 11
411.468882532914
 21
926.609692815723
 31
0.0
  0
ARC
  5
3BB3
330
1A
100
AcDbEntity
  8
外形線
100
AcDbCircle
 10
409.606700532914
 20
951.880322815723
 30
0.0
 40
1.86215
100
AcDbArc
 50
276.184221085604
 51
91.517843466766
  0
DIMENSION
  5
3BB6
330
1A
100
AcDbEntity
  8
寸法線
 48
10.0
100
AcDbDimension
  2
*D15
 10
328.468882532914
 20
823.112194815724
 30
0.0
 11
369.968866532914
 21
827.749694815724
 31
0.0
 70
    32
  3
ISO-25
100
AcDbAlignedDimension
 13
411.468850532914
 23
889.344066815722
 33
0.0
 14
328.468882532914
 24
838.669018815722
 34
0.0
100
AcDbRotatedDimension
1001
ACAD
1000
DSTYLE
1002
{
1070
     5
1000
OPEN30
1070
    41
1040
6.0
1070
    47
1040
0.1
1070
    48
1040
0.1
1070
    73
1070
     0
1070
   140
1040
8.0
1070
   271
1070
     1
1070
   272
1070
     1
1070
   341
1005
2AF4
1002
}
  0
DIMENSION
  5
3BB7
330
1A
100
AcDbEntity
  8
寸法線
 48
10.0
100
AcDbDimension
  2
*D16
 10
434.52115373289
 20
869.612194815723
 30
0.0
 11
434.52115373289
 21
920.000195315723
 31
0.0
 70
   160
  1
φ102
  3
ISO-25
100
AcDbAlignedDimension
 13
369.198423202169
 23
971.612194815723
 33
0.0
 14
368.652032788172
 24
869.612194815723
 34
0.0
 50
90.0
100
AcDbRotatedDimension
1001
ACAD
1000
DSTYLE
1002
{
1070
     5
1000
OPEN30
1070
    41
1040
6.0
1070
    47
1040
0.1
1070
    48
1040
0.1
1070
    73
1070
     0
1070
   140
1040
8.0
1070
   271
1070
     1
1070
   272
1070
     1
1070
   341
1005
2AF4
1002
}
  0
LEADER
  5
3BB8
330
1A
100
AcDbEntity
  8
寸法線
 48
10.0
100
AcDbLeader
  3
ISO-25
 76
     3
 10
337.920920915449
 20
852.235014054931
 30
0.0
 10
360.887559802706
 20
837.112973027364
 30
0.0
 10
371.520582461657
 20
837.112973027364
 30
0.0
213
-30.82689238682104
223
0.0
233
0.0
1001
ACAD
1000
DSTYLE
1002
{
1070
     5
1000
OPEN30
1070
   147
1040
0.625
1070
    77
1070
     0
1070
    41
1040
6.0
1070
    47
1040
0.1
1070
    48
1040
0.1
1070
    73
1070
     0
1070
   140
1040
8.0
1070
   271
1070
     1
1070
   272
1070
     1
1070
   341
1005
2AF4
1070
   342
1005
2AF4
1002
}
  0
LINE
  5
3BBA
330
1A
100
AcDbEntity
  8
外形線
100
AcDbLine
 10
261.468832532914
 20
980.612194815723
 30
0.0
 11
263.468832532914
 21
980.612194815723
 31
0.0
  0
LINE
  5
3BBB
330
1A
100
AcDbEntity
  8
外形線
100
AcDbLine
 10
263.568832532914
 20
940.612194815723
 30
0.0
 11
272.968858532914
 21
940.612194815723
 31
0.0
  0
LINE
  5
3BBC
330
1A
100
AcDbEntity
  8
外形線
100
AcDbLine
 10
272.968858532914
 20
980.612194815723
 30
0.0
 11
274.968858532914
 21
980.612194815723
 31
0.0
  0
LINE
  5
3BBD
330
1A
100
AcDbEntity
  8
外形線
100
AcDbLine
 10
284.468882532914
 20
980.612194815723
 30
0.0
 11
286.468882532914
 21
980.612194815723
 31
0.0
  0
LINE
  5
3BBE
330
1A
100
AcDbEntity
  8
外形線
100
AcDbLine
 10
275.068858532914
 20
940.612194815723
 30
0.0
 11
284.268882532914
 21
940.612194815723
 31
0.0
  0
LINE
  5
3BBF
330
1A
100
AcDbEntity
  8
外形線
100
AcDbLine
 10
261.468832532914
 20
860.612194815723
 30
0.0
 11
263.468832532914
 21
860.612194815723
 31
0.0
  0
LINE
  5
3BC0
330
1A
100
AcDbEntity
  8
外形線
100
AcDbLine
 10
263.568832532914
 20
900.612194815723
 30
0.0
 11
272.968858532914
 21
900.612194815723
 31
0.0
  0
LINE
  5
3BC1
330
1A
100
AcDbEntity
  8
外形線
100
AcDbLine
 10
272.968858532914
 20
860.612194815723
 30
0.0
 11
274.968858532914
 21
860.612194815723
 31
0.0
  0
LINE
  5
3BC2
330
1A
100
AcDbEntity
  8
外形線
100
AcDbLine
 10
284.468882532914
 20
860.612194815723
 30
0.0
 11
286.468882532914
 21
860.612194815723
 31
0.0
  0
LINE
  5
3BC3
330
1A
100
AcDbEntity
  8
外形線
100
AcDbLine
 10
275.068858532914
 20
900.612194815723
 30
0.0
 11
284.268882532914
 21
900.612194815723
 31
0.0
  0
LINE
  5
3BC4
330
1A
100
AcDbEntity
  8
外形線
100
AcDbLine
 10
261.468832532914
 20
980.612194815723
 30
0.0
 11
261.468832532914
 21
860.612194815723
 31
0.0
  0
LINE
  5
3BC5
330
1A
100
AcDbEntity
  8
外形線
100
AcDbLine
 10
263.468832532914
 20
980.612194815723
 30
0.0
 11
263.468832532914
 21
860.612194815723
 31
0.0
  0
LINE
  5
3BC6
330
1A
100
AcDbEntity
  8
外形線
100
AcDbLine
 10
272.968858532914
 20
980.612194815723
 30
0.0
 11
272.968858532914
 21
860.612194815723
 31
0.0
  0
LINE
  5
3BC7
330
1A
100
AcDbEntity
  8
外形線
100
AcDbLine
 10
274.968858532914
 20
980.612194815723
 30
0.0
 11
274.968858532914
 21
860.612194815723
 31
0.0
  0
LINE
  5
3BC8
330
1A
100
AcDbEntity
  8
外形線
100
AcDbLine
 10
284.468882532914
 20
980.612194815723
 30
0.0
 11
284.468882532914
 21
860.612194815723
 31
0.0
  0
LINE
  5
3BC9
330
1A
100
AcDbEntity
  8
外形線
100
AcDbLine
 10
286.468882532914
 20
980.612194815723
 30
0.0
 11
286.468882532914
 21
860.612194815723
 31
0.0
  0
MTEXT
  5
3BCA
330
1A
100
AcDbEntity
  8
寸法線
 48
10.0
100
AcDbMText
 10
361.573385388463
 20
838.243113235937
 30
0.0
 40
8.0
 41
0.0
 71
     7
 72
     1
  1
導線取出口{\fTahoma|b0|i0|c0|p34;\P}G 1/2"
  0
LINE
  5
3F0E
330
1A
100
AcDbEntity
  8
外形線
100
AcDbLine
 10
170.468832532914
 20
998.112194815723
 30
0.0
 11
161.968832532914
 21
998.112194815723
 31
0.0
  0
LINE
  5
3F0F
330
1A
100
AcDbEntity
  8
外形線
100
AcDbLine
 10
161.968832532914
 20
998.112194815723
 30
0.0
 11
161.468832532914
 21
997.612194815723
 31
0.0
  0
LINE
  5
3F10
330
1A
100
AcDbEntity
  8
外形線
100
AcDbLine
 10
170.468832532914
 20
998.112194815723
 30
0.0
 11
171.468832532914
 21
997.112194815723
 31
0.0
  0
LINE
  5
3F11
330
1A
100
AcDbEntity
  8
外形線
100
AcDbLine
 10
161.968832532914
 20
843.112194815723
 30
0.0
 11
161.468832532914
 21
843.612194815723
 31
0.0
  0
LINE
  5
3F12
330
1A
100
AcDbEntity
  8
外形線
100
AcDbLine
 10
170.468832532914
 20
843.112194815723
 30
0.0
 11
171.468832532914
 21
844.112194815723
 31
0.0
  0
LEADER
  5
3F74
330
1A
100
AcDbEntity
  8
寸法線
 62
     1
 48
10.0
100
AcDbLeader
  3
ISO-25
 76
     3
 10
183.399016707896
 20
953.013290942776
 30
0.0
 10
181.467540774591
 20
1035.66715213927
 30
0.0
 10
195.092461551213
 20
1035.66715213927
 30
0.0
1001
ACAD
1000
DSTYLE
1002
{
1070
     5
1000
OPEN30
1070
   147
1040
0.625
1070
    77
1070
     0
1070
    41
1040
6.0
1070
    47
1040
0.1
1070
    48
1040
0.1
1070
    73
1070
     0
1070
   140
1040
5.0
1070
   271
1070
     1
1070
   272
1070
     1
1070
   341
1005
2AF4
1070
   342
1005
2AF4
1002
}
  0
MTEXT
  5
3F7B
330
1A
100
AcDbEntity
  8
寸法線
 48
10.0
100
AcDbMText
 10
180.600665094882
 20
1045.111829572626
 30
0.0
 40
8.0
 41
0.0
 71
     1
 72
     5
  1
押しネジ
  0
MTEXT
  5
414A
102
{ACAD_XDICTIONARY
360
414B
102
}
330
1A
100
AcDbEntity
  8
寸法線
 48
10.0
100
AcDbMText
 10
-116.509923730395
 20
766.197886627671
 30
0.0
 40
8.0
 41
168.503621648242
 71
     1
 72
     5
  1
御仕様   電源電圧    リード線色\P       AC100/110V　 シロ・シロ\P       AC200/220V　クロ・クロ
1001
ACADANNOTATIVE
1000
AnnotativeData
1002
{
1070
     1
1070
     0
1002
}
  0
MTEXT
  5
414E
102
{ACAD_XDICTIONARY
360
414F
102
}
330
1A
100
AcDbEntity
  8
寸法線
 48
10.0
100
AcDbMText
 10
-228.095370419218
 20
663.181620070364
 30
0.0
 40
6.0
 41
49.50078544177
 71
     1
 72
     5
  1
L　　C　　 H
1001
ACADANNOTATIVE
1000
AnnotativeData
1002
{
1070
     1
1070
     0
1002
}
  0
MTEXT
  5
4152
330
1A
100
AcDbEntity
  8
寸法線
 48
10.0
100
AcDbMText
 10
-168.690479731419
 20
642.399018833156
 30
0.0
 40
6.0
 41
22.662715674224
 71
     1
 72
     5
  1
電　源
  0
LINE
  5
4153
330
1A
100
AcDbEntity
  8
寸法線
100
AcDbLine
 10
-228.098850147065
 20
672.238626954656
 30
0.0
 11
-228.098850147065
 21
769.370584954656
 31
0.0
  0
LINE
  5
4154
330
1A
100
AcDbEntity
  8
寸法線
100
AcDbLine
 10
-228.098850147065
 20
769.370584954656
 30
0.0
 11
-215.246860147065
 21
769.370584954656
 31
0.0
  0
LINE
  5
4155
330
1A
100
AcDbEntity
  8
寸法線
100
AcDbLine
 10
-215.246860147065
 20
769.370584954656
 30
0.0
 11
-215.246860147065
 21
749.664164954656
 31
0.0
  0
LINE
  5
4156
330
1A
100
AcDbEntity
  8
寸法線
100
AcDbLine
 10
-199.538852147065
 20
769.370584954656
 30
0.0
 11
-186.686862147065
 21
769.370584954656
 31
0.0
  0
LINE
  5
4157
330
1A
100
AcDbEntity
  8
寸法線
100
AcDbLine
 10
-166.980504147065
 20
769.370584954656
 30
0.0
 11
-146.988438147065
 21
769.370584954656
 31
0.0
  0
TEXT
  5
4158
330
1A
100
AcDbEntity
  8
寸法線
100
AcDbText
 10
-212.588962147065
 20
701.581828954656
 30
0.0
 40
8.571428571429
  1
キ
  7
EXCADVERT
 72
     3
 11
-212.588962147065
 21
693.581828954656
 31
0.0
100
AcDbText
  0
TEXT
  5
4159
330
1A
100
AcDbEntity
  8
寸法線
100
AcDbText
 10
-152.989780147065
 20
732.737040954656
 30
0.0
 40
12.0
  1
Ｍ
 41
1.25
  7
EXCADSTD
 72
     5
 11
-140.989780147065
 21
732.737040954656
 31
0.0
100
AcDbText
  0
LINE
  5
415A
330
1A
100
AcDbEntity
  8
寸法線
100
AcDbLine
 10
-146.988438147065
 20
769.370584954656
 30
0.0
 11
-146.988438147065
 21
748.137614954656
 31
0.0
  0
CIRCLE
  5
415B
330
1A
100
AcDbEntity
  8
寸法線
100
AcDbCircle
 10
-207.392856147065
 20
731.843424954656
 30
0.0
 40
1.600006
  0
LINE
  5
415C
330
1A
100
AcDbEntity
  8
寸法線
100
AcDbLine
 10
-207.392856147065
 20
730.243388954656
 30
0.0
 11
-207.392856147065
 21
672.238626954656
 31
0.0
  0
LINE
  5
415D
330
1A
100
AcDbEntity
  8
寸法線
100
AcDbLine
 10
-186.686862147065
 20
769.370584954656
 30
0.0
 11
-186.686862147065
 21
672.238626954656
 31
0.0
  0
LINE
  5
415E
330
1A
100
AcDbEntity
  8
寸法線
100
AcDbLine
 10
-146.988438147065
 20
729.753152954656
 30
0.0
 11
-146.988438147065
 21
672.238626954656
 31
0.0
  0
CIRCLE
  5
415F
330
1A
100
AcDbEntity
  8
寸法線
100
AcDbCircle
 10
-228.098850147065
 20
669.238626954656
 30
0.0
 40
1.599998
  0
LINE
  5
4160
330
1A
100
AcDbEntity
  8
寸法線
100
AcDbLine
 10
-166.980504147065
 20
730.243388954656
 30
0.0
 11
-166.980504147065
 21
672.238626954656
 31
0.0
  0
CIRCLE
  5
4161
330
1A
100
AcDbEntity
  8
寸法線
100
AcDbCircle
 10
-166.980504147065
 20
731.843424954656
 30
0.0
 40
1.600006
  0
CIRCLE
  5
4162
330
1A
100
AcDbEntity
  8
寸法線
100
AcDbCircle
 10
-215.246860147065
 20
748.064188954656
 30
0.0
 40
1.600006
  0
LINE
  5
4163
330
1A
100
AcDbEntity
  8
寸法線
100
AcDbLine
 10
-199.538852147065
 20
769.370584954656
 30
0.0
 11
-199.538852147065
 21
749.664164954656
 31
0.0
  0
CIRCLE
  5
4164
330
1A
100
AcDbEntity
  8
寸法線
100
AcDbCircle
 10
-199.538852147065
 20
748.064188954656
 30
0.0
 40
1.600006
  0
LINE
  5
4165
330
1A
100
AcDbEntity
  8
寸法線
100
AcDbLine
 10
-166.980504147065
 20
769.370584954656
 30
0.0
 11
-166.980504147065
 21
749.664164954656
 31
0.0
  0
CIRCLE
  5
4166
330
1A
100
AcDbEntity
  8
寸法線
100
AcDbCircle
 10
-166.980504147065
 20
748.064188954656
 30
0.0
 40
1.600006
  0
LINE
  5
4167
330
1A
100
AcDbEntity
  8
寸法線
100
AcDbLine
 10
-207.392856147065
 20
733.443400954656
 30
0.0
 11
-213.646884147065
 21
748.064188954656
 31
0.0
  0
LINE
  5
4168
330
1A
100
AcDbEntity
  8
寸法線
100
AcDbLine
 10
-166.980504147065
 20
733.443400954656
 30
0.0
 11
-165.380466147065
 21
748.064188954656
 31
0.0
  0
CIRCLE
  5
4169
330
1A
100
AcDbEntity
  8
寸法線
100
AcDbCircle
 10
-146.980870147065
 20
738.959818954656
 30
0.0
 40
9.177798
  0
TEXT
  5
416A
330
1A
100
AcDbEntity
  8
寸法線
100
AcDbText
 10
-191.525058147065
 20
710.682046954656
 30
0.0
 40
8.041237113402
  1
ア　カ
  7
EXCADVERT
 72
     3
 11
-191.525058147065
 21
684.682046954656
 31
0.0
100
AcDbText
  0
TEXT
  5
416B
330
1A
100
AcDbEntity
  8
寸法線
100
AcDbText
 10
-233.075352147065
 20
710.682046954656
 30
0.0
 40
7.515151518764
  1
ミドリ
  7
EXCADVERT
 72
     3
 11
-233.075352147065
 21
685.882046942735
 31
0.0
100
AcDbText
  0
CIRCLE
  5
416C
330
1A
100
AcDbEntity
  8
寸法線
100
AcDbCircle
 10
-228.098850147065
 20
669.238626954656
 30
0.0
 40
3.0
  0
CIRCLE
  5
416D
330
1A
100
AcDbEntity
  8
寸法線
100
AcDbCircle
 10
-207.392856147065
 20
669.238626954656
 30
0.0
 40
1.599998
  0
CIRCLE
  5
416E
330
1A
100
AcDbEntity
  8
寸法線
100
AcDbCircle
 10
-207.392856147065
 20
669.238626954656
 30
0.0
 40
3.0
  0
CIRCLE
  5
416F
330
1A
100
AcDbEntity
  8
寸法線
100
AcDbCircle
 10
-166.980504147065
 20
669.238626954656
 30
0.0
 40
1.599998
  0
CIRCLE
  5
4170
330
1A
100
AcDbEntity
  8
寸法線
100
AcDbCircle
 10
-166.980504147065
 20
669.238626954656
 30
0.0
 40
3.0
  0
CIRCLE
  5
4171
330
1A
100
AcDbEntity
  8
寸法線
100
AcDbCircle
 10
-146.988438147065
 20
669.238626954656
 30
0.0
 40
1.599998
  0
CIRCLE
  5
4172
330
1A
100
AcDbEntity
  8
寸法線
100
AcDbCircle
 10
-146.988438147065
 20
669.238626954656
 30
0.0
 40
3.0
  0
CIRCLE
  5
4173
330
1A
100
AcDbEntity
  8
寸法線
100
AcDbCircle
 10
-186.686862147065
 20
669.238626954656
 30
0.0
 40
1.599998
  0
CIRCLE
  5
4174
330
1A
100
AcDbEntity
  8
寸法線
100
AcDbCircle
 10
-186.686862147065
 20
669.238626954656
 30
0.0
 40
3.0
  0
MTEXT
  5
4175
102
{ACAD_XDICTIONARY
360
4176
102
}
330
1A
100
AcDbEntity
  8
寸法線
 62
     1
 48
10.0
100
AcDbMText
 10
-176.396921269995
 20
716.723233716563
 30
0.0
 40
8.0
 41
75.886769199617
 71
     1
 72
     3
  1
シロ クロ
1001
ACADANNOTATIVE
1000
AnnotativeData
1002
{
1070
     1
1070
     0
1002
}
  0
MTEXT
  5
4179
330
1A
100
AcDbEntity
  8
寸法線
 62
     1
 48
10.0
100
AcDbMText
 10
-177.606069056583
 20
674.979258102586
 30
0.0
 40
8.0
 41
113.327544635948
 71
     1
 72
     1
  1
(    )
 11
6.123233995736766E-17
 21
1.0
 31
0.0
  0
MTEXT
  5
417A
102
{ACAD_XDICTIONARY
360
417B
102
}
330
1A
100
AcDbEntity
  8
寸法線
 48
10.0
100
AcDbMText
 10
-178.077755083168
 20
662.650866897956
 30
0.0
 40
6.0
 41
101.805806042976
 71
     1
 72
     5
  1
100/110 0
1001
ACADANNOTATIVE
1000
AnnotativeData
1002
{
1070
     1
1070
     0
1002
}
  0
MTEXT
  5
417E
102
{ACAD_XDICTIONARY
360
417F
102
}
330
1A
100
AcDbEntity
  8
寸法線
 62
     1
 48
10.0
100
AcDbMText
 10
-155.95587873619
 20
716.122026583216
 30
0.0
 40
8.0
 41
75.886769199617
 71
     1
 72
     3
  1
シロ クロ
1001
ACADANNOTATIVE
1000
AnnotativeData
1002
{
1070
     1
1070
     0
1002
}
  0
MTEXT
  5
4182
330
1A
100
AcDbEntity
  8
寸法線
 62
     1
 48
10.0
100
AcDbMText
 10
-157.165026522778
 20
674.378050969239
 30
0.0
 40
8.0
 41
113.327544635948
 71
     1
 72
     1
  1
(    )
 11
6.123233995736766E-17
 21
1.0
 31
0.0
  0
MTEXT
  5
4183
102
{ACAD_XDICTIONARY
360
4184
102
}
330
1A
100
AcDbEntity
  8
寸法線
 48
10.0
100
AcDbMText
 10
-182.943775318697
 20
654.821083372254
 30
0.0
 40
6.0
 41
101.805806042976
 71
     1
 72
     5
  1
(200/220 0)
1001
ACADANNOTATIVE
1000
AnnotativeData
1002
{
1070
     1
1070
     0
1002
}
  0
MTEXT
  5
4187
102
{ACAD_XDICTIONARY
360
4188
102
}
330
1A
100
AcDbEntity
  8
寸法線
 48
10.0
100
AcDbMText
 10
-116.333305831202
 20
692.157695452073
 30
0.0
 40
8.0
 41
251.713339384691
 71
     1
 72
     5
  1
塗　装　色：10YR7.5/14\P接点　容量：AC250V5A\P静止トルク：約10.0N・cm\P回　転　数：1RPM
1001
ACADANNOTATIVE
1000
AnnotativeData
1002
{
1070
     1
1070
     0
1002
}
  0
MTEXT
  5
418B
330
1A
100
AcDbEntity
  8
寸法線
 48
10.0
100
AcDbMText
 10
-96.327021607901
 20
725.141172523906
 30
0.0
 40
8.0
 41
161.650793650794
 71
     1
 72
     5
  1
○印が今回の貴社の御仕様です。
  0
LINE
  5
418C
330
1A
100
AcDbEntity
  8
寸法線
 62
     1
 48
10.0
100
AcDbLine
 10
-118.941415294126
 20
755.35262039778
 30
0.0
 11
43.28204545347
 21
755.35262039778
 31
0.0
  0
LINE
  5
418D
330
1A
100
AcDbEntity
  8
寸法線
 62
     1
 48
10.0
100
AcDbLine
 10
-118.941415294126
 20
742.091071633534
 30
0.0
 11
43.28204545347
 21
742.091071633534
 31
0.0
  0
LINE
  5
418E
330
1A
100
AcDbEntity
  8
寸法線
 62
     1
 48
10.0
100
AcDbLine
 10
-118.941415294126
 20
728.829522869287
 30
0.0
 11
43.28204545347
 21
728.829522869287
 31
0.0
  0
LINE
  5
418F
330
1A
100
AcDbEntity
  8
寸法線
 62
     1
 48
10.0
100
AcDbLine
 10
-118.941415294126
 20
768.354138794101
 30
0.0
 11
43.28204545347
 21
768.354138794101
 31
0.0
  0
LINE
  5
4190
330
1A
100
AcDbEntity
  8
寸法線
 62
     1
 48
10.0
100
AcDbLine
 10
-86.177588935399
 20
768.354138794101
 30
0.0
 11
-86.177588935399
 21
728.829522869287
 31
0.0
  0
LINE
  5
4191
330
1A
100
AcDbEntity
  8
寸法線
 62
     1
 48
10.0
100
AcDbLine
 10
-118.941415294126
 20
768.354138794101
 30
0.0
 11
-118.941415294126
 21
728.829522869287
 31
0.0
  0
LINE
  5
4192
330
1A
100
AcDbEntity
  8
寸法線
 62
     1
 48
10.0
100
AcDbLine
 10
-21.169996953798
 20
768.354138794101
 30
0.0
 11
-21.169996953798
 21
728.829522869287
 31
0.0
  0
LINE
  5
4193
330
1A
100
AcDbEntity
  8
寸法線
 62
     1
 48
10.0
100
AcDbLine
 10
43.28204545347
 20
768.354138794101
 30
0.0
 11
43.28204545347
 21
728.829522869287
 31
0.0
  0
LEADER
  5
4194
330
1A
100
AcDbEntity
  8
寸法線
 62
     1
 48
10.0
100
AcDbLeader
  3
ISO-25
 76
     3
 10
43.542231739182
 20
914.550642021884
 30
0.0
 10
9.361463355197
 20
865.478609264305
 30
0.0
 10
36.699801297631
 20
865.478609264305
 30
0.0
1001
ACAD
1000
DSTYLE
1002
{
1070
     5
1000
OPEN30
1070
    41
1040
6.0
1070
   342
1005
2AF4
1070
   271
1070
     1
1070
   341
1005
2AF4
1070
   272
1070
     1
1070
    73
1070
     0
1070
    48
1040
0.1
1070
    47
1040
0.1
1070
   140
1040
5.0
1002
}
  0
LEADER
  5
4195
330
1A
100
AcDbEntity
  8
寸法線
 48
10.0
100
AcDbLeader
  3
ISO-25
 76
     3
 10
41.117888496564
 20
925.726058221147
 30
0.0
 10
21.995604007524
 20
1035.66715213927
 30
0.0
 10
11.01383858495
 20
1035.66715213927
 30
0.0
1001
ACAD
1000
DSTYLE
1002
{
1070
     5
1000
OPEN30
1070
   147
1040
0.625
1070
    77
1070
     0
1070
    41
1040
6.0
1070
    47
1040
0.1
1070
    48
1040
0.1
1070
    73
1070
     0
1070
   140
1040
5.0
1070
   271
1070
     1
1070
   272
1070
     1
1070
   341
1005
2AF4
1070
   342
1005
2AF4
1002
}
  0
MTEXT
  5
4196
330
1A
100
AcDbEntity
  8
寸法線
 48
10.0
100
AcDbMText
 10
-12.47626871227
 20
1044.626226898871
 30
0.0
 40
8.0
 41
0.0
 71
     1
 72
     5
  1
SUS304
  0
DIMENSION
  5
4197
330
1A
100
AcDbEntity
  8
寸法線
 48
10.0
100
AcDbDimension
  2
*D18
 10
34.437330739096
 20
925.612194815723
 30
0.0
 11
34.437330739096
 21
946.440344422023
 31
0.0
 70
   160
  1
φ<>
  3
ISO-25
100
AcDbAlignedDimension
 13
36.03239837303
 23
915.612194815723
 33
0.0
 14
36.03239837303
 24
925.612194815723
 34
0.0
 50
90.0
100
AcDbRotatedDimension
1001
ACAD
1000
DSTYLE
1002
{
1070
     5
1000
OPEN30
1070
    41
1040
6.0
1070
    47
1040
0.1
1070
    48
1040
0.1
1070
    73
1070
     0
1070
   140
1040
8.0
1070
   271
1070
     1
1070
   272
1070
     1
1070
   341
1005
2AF4
1002
}
  0
ARC
  5
4483
330
1A
100
AcDbEntity
  8
寸法線
100
AcDbCircle
 10
52.337384423114
 20
806.56811813221
 30
0.0
 40
2.1127368
100
AcDbArc
 50
252.904086432755
 51
337.41192346779
  0
ARC
  5
4484
330
1A
100
AcDbEntity
  8
寸法線
100
AcDbCircle
 10
52.337384423114
 20
806.56804373221
 30
0.0
 40
2.112708
100
AcDbArc
 50
252.903398883409
 51
337.412611017142
  0
ARC
  5
4485
330
1A
100
AcDbEntity
  8
寸法線
100
AcDbCircle
 10
46.882160423114
 20
810.55351733221
 30
0.0
 40
6.024468
100
AcDbArc
 50
274.628927150738
 51
33.374029121142
  0
ARC
  5
4486
330
1A
100
AcDbEntity
  8
寸法線
100
AcDbCircle
 10
54.512823623114
 20
809.34868373221
 30
0.0
 40
5.555256
100
AcDbArc
 50
123.469024399695
 51
239.774013712196
  0
ARC
  5
4487
330
1A
100
AcDbEntity
  8
寸法線
100
AcDbCircle
 10
54.512823623114
 20
809.34868373221
 30
0.0
 40
5.5552632
100
AcDbArc
 50
123.469024399695
 51
239.773899120644
  0
ARC
  5
4488
330
1A
100
AcDbEntity
  8
寸法線
100
AcDbCircle
 10
51.629132423114
 20
813.71494373221
 30
0.0
 40
0.32274
100
AcDbArc
 50
28.230948369008
 51
123.883845843401
  0
ARC
  5
448B
330
1A
100
AcDbEntity
  8
細線
100
AcDbCircle
 10
112.711353164389
 20
929.012188704206
 30
0.0
 40
16.99026
100
AcDbArc
 50
149.590768910527
 51
209.630245744144
  0
ARC
  5
448C
330
1A
100
AcDbEntity
  8
細線
100
AcDbCircle
 10
81.932909863259
 20
928.649212704206
 30
0.0
 40
18.44903
100
AcDbArc
 50
350.525036637612
 51
29.066474752608
  0
LINE
  5
448D
330
1A
100
AcDbEntity
  8
外形線
100
AcDbLine
 10
96.064777164389
 20
925.612194704206
 30
0.0
 11
103.698597164389
 21
925.612194704206
 31
0.0
  0
ARC
  5
448E
330
1A
100
AcDbEntity
  8
細線
100
AcDbCircle
 10
99.368469279441
 20
923.112193204207
 30
0.0
 40
5.0
100
AcDbArc
 50
330.000019847839
 51
30.000019847843
  0
ARC
  5
448F
330
1A
100
AcDbEntity
  8
細線
100
AcDbCircle
 10
108.028723317285
 20
923.112196204206
 30
0.0
 40
5.0
100
AcDbArc
 50
150.000019847839
 51
210.000019847843
  0
ARC
  5
4490
330
1A
100
AcDbEntity
  8
細線
100
AcDbCircle
 10
128.967517164389
 20
929.012188704206
 30
0.0
 40
16.82178
100
AcDbArc
 50
149.253383364017
 51
209.957175462036
  0
LINE
  5
4491
330
1A
100
AcDbEntity
  8
外形線
100
AcDbLine
 10
107.498645164389
 20
925.612194704206
 30
0.0
 11
112.492877164389
 21
925.612194704206
 31
0.0
  0
ARC
  5
4492
330
1A
100
AcDbEntity
  8
細線
100
AcDbCircle
 10
111.828772183311
 20
923.112194704206
 30
0.0
 40
5.0
100
AcDbArc
 50
150.0
 51
210.0
  0
ARC
  5
4493
330
1A
100
AcDbEntity
  8
細線
100
AcDbCircle
 10
82.624720289473
 20
912.000870848299
 30
0.0
 40
17.57267569136965
100
AcDbArc
 50
331.486197931403
 51
29.343252120109
  0
LINE
  5
4494
330
1A
100
AcDbEntity
  8
外形線
100
AcDbLine
 10
99.848133164389
 20
915.612194704206
 30
0.0
 11
103.698597164389
 21
915.612194704206
 31
0.0
  0
ARC
  5
4495
330
1A
100
AcDbEntity
  8
細線
100
AcDbCircle
 10
99.368471011493
 20
918.112193204207
 30
0.0
 40
5.0
100
AcDbArc
 50
330.000019847839
 51
30.000019847843
  0
ARC
  5
4496
330
1A
100
AcDbEntity
  8
細線
100
AcDbCircle
 10
99.884419164389
 20
912.212200704206
 30
0.0
 40
16.76491
100
AcDbArc
 50
329.13769879071
 51
30.069265854605
  0
ARC
  5
4497
330
1A
100
AcDbEntity
  8
細線
100
AcDbCircle
 10
129.643983444486
 20
912.395154704206
 30
0.0
 40
17.701182
100
AcDbArc
 50
169.528815071361
 51
209.747544050483
  0
LINE
  5
4498
330
1A
100
AcDbEntity
  8
外形線
100
AcDbLine
 10
116.300953164389
 20
915.612194704206
 30
0.0
 11
107.498645164389
 21
915.612194704206
 31
0.0
  0
ARC
  5
4499
330
1A
100
AcDbEntity
  8
細線
100
AcDbCircle
 10
111.828772183311
 20
918.112194704206
 30
0.0
 40
5.0
100
AcDbArc
 50
150.0
 51
210.0
  0
ARC
  5
449A
330
1A
100
AcDbEntity
  8
細線
100
AcDbCircle
 10
103.168518145467
 20
918.112194704206
 30
0.0
 40
5.0
100
AcDbArc
 50
330.0
 51
30.0
  0
MTEXT
  5
4517
102
{ACAD_XDICTIONARY
360
4518
102
}
330
1A
100
AcDbEntity
  8
寸法線
 48
10.0
100
AcDbMText
 10
123.368234345898
 20
769.871443983273
 30
0.0
 40
8.0
 41
148.46544809231
 71
     1
 72
     5
  1
\P250\P300\P350\P400\P450\P500\P550\P600
1001
ACADANNOTATIVE
1000
AnnotativeData
1002
{
1070
     1
1070
     0
1002
}
  0
MTEXT
  5
451B
102
{ACAD_XDICTIONARY
360
451C
102
}
330
1A
100
AcDbEntity
  8
寸法線
 48
10.0
100
AcDbMText
 10
83.845849641635
 20
769.89280939668
 30
0.0
 40
8.0
 41
60.717249709215
 71
     1
 72
     5
  1
御仕様\P　\P　\P\P\P\P\P　\P\P\P　
1001
ACADANNOTATIVE
1000
AnnotativeData
1002
{
1070
     1
1070
     0
1002
}
  0
MTEXT
  5
451F
330
1A
100
AcDbEntity
  8
寸法線
 48
10.0
100
AcDbMText
 10
165.1838234623
 20
769.89280939668
 30
0.0
 40
8.0
 41
60.717249709215
 71
     1
 72
     5
  1
記事
  0
MTEXT
  5
4520
102
{ACAD_XDICTIONARY
360
4521
102
}
330
1A
100
AcDbEntity
  8
寸法線
 48
10.0
100
AcDbMText
 10
204.662178896543
 20
769.89280939668
 30
0.0
 40
8.0
 41
60.717249709215
 71
     1
 72
     5
  1
台数 \P \P\P\P\P\P\P \P 
1001
ACADANNOTATIVE
1000
AnnotativeData
1002
{
1070
     1
1070
     0
1002
}
  0
LINE
  5
4524
330
1A
100
AcDbEntity
  8
寸法線
 48
10.0
100
AcDbLine
 10
80.904583810626
 20
772.954053550846
 30
0.0
 11
80.904583810626
 21
653.304022315455
 31
0.0
  0
LINE
  5
4525
330
1A
100
AcDbEntity
  8
寸法線
 48
10.0
100
AcDbLine
 10
114.030704442764
 20
772.954053550846
 30
0.0
 11
114.030704442764
 21
653.304022315455
 31
0.0
  0
LINE
  5
4526
330
1A
100
AcDbEntity
  8
寸法線
 48
10.0
100
AcDbLine
 10
148.730675834068
 20
772.954053550846
 30
0.0
 11
148.730675834068
 21
653.304022315455
 31
0.0
  0
LINE
  5
4527
330
1A
100
AcDbEntity
  8
寸法線
 48
10.0
100
AcDbLine
 10
199.689866026025
 20
772.954053550846
 30
0.0
 11
199.689866026024
 21
653.304022315455
 31
0.0
  0
LINE
  5
4528
330
1A
100
AcDbEntity
  8
寸法線
 48
10.0
100
AcDbLine
 10
227.006907648588
 20
772.954053550846
 30
0.0
 11
227.006907648588
 21
653.304022315455
 31
0.0
  0
LINE
  5
4529
330
1A
100
AcDbEntity
  8
寸法線
 48
10.0
100
AcDbLine
 10
80.904583810626
 20
772.954053550846
 30
0.0
 11
376.511235465592
 21
772.954053550846
 31
0.0
  0
LINE
  5
452A
330
1A
100
AcDbEntity
  8
寸法線
 48
10.0
100
AcDbLine
 10
80.904583810626
 20
759.479405013347
 30
0.0
 11
376.511235465592
 21
759.479405013347
 31
0.0
  0
LINE
  5
452B
330
1A
100
AcDbEntity
  8
寸法線
 48
10.0
100
AcDbLine
 10
80.904583810626
 20
746.004756475848
 30
0.0
 11
376.511235465592
 21
746.004756475848
 31
0.0
  0
LINE
  5
452C
330
1A
100
AcDbEntity
  8
寸法線
 48
10.0
100
AcDbLine
 10
80.904583810626
 20
732.530107938349
 30
0.0
 11
376.511235465592
 21
732.530107938349
 31
0.0
  0
LINE
  5
452D
330
1A
100
AcDbEntity
  8
寸法線
 48
10.0
100
AcDbLine
 10
80.904583810626
 20
719.05545940085
 30
0.0
 11
376.511235465592
 21
719.05545940085
 31
0.0
  0
LINE
  5
452E
330
1A
100
AcDbEntity
  8
寸法線
 48
10.0
100
AcDbLine
 10
80.904583810626
 20
705.580810863351
 30
0.0
 11
376.511235465592
 21
705.580810863351
 31
0.0
  0
LINE
  5
452F
330
1A
100
AcDbEntity
  8
寸法線
 48
10.0
100
AcDbLine
 10
80.904583810626
 20
692.106162325852
 30
0.0
 11
376.511235465592
 21
692.106162325852
 31
0.0
  0
LINE
  5
4530
330
1A
100
AcDbEntity
  8
寸法線
 48
10.0
100
AcDbLine
 10
80.904583810626
 20
705.580810863351
 30
0.0
 11
376.511235465592
 21
705.580810863351
 31
0.0
  0
LINE
  5
4531
330
1A
100
AcDbEntity
  8
寸法線
 48
10.0
100
AcDbLine
 10
80.904583810626
 20
678.631513788353
 30
0.0
 11
376.511235465592
 21
678.631513788353
 31
0.0
  0
LINE
  5
4532
330
1A
100
AcDbEntity
  8
寸法線
 48
10.0
100
AcDbLine
 10
80.904583810626
 20
665.156865250854
 30
0.0
 11
376.511235465592
 21
665.156865250854
 31
0.0
  0
MTEXT
  5
4533
102
{ACAD_XDICTIONARY
360
4534
102
}
330
1A
100
AcDbEntity
  8
寸法線
 48
10.0
100
AcDbMText
 10
280.831955706844
 20
769.871443983273
 30
0.0
 40
8.0
 41
148.46544809231
 71
     2
 72
     5
  1
\P650\P700\P750\P800\P850\P900\P950\P1000
1001
ACADANNOTATIVE
1000
AnnotativeData
1002
{
1070
     1
1070
     0
1002
}
  0
MTEXT
  5
4537
102
{ACAD_XDICTIONARY
360
4538
102
}
330
1A
100
AcDbEntity
  8
寸法線
 48
10.0
100
AcDbMText
 10
233.35017745864
 20
769.89280939668
 30
0.0
 40
8.0
 41
60.717249709215
 71
     1
 72
     5
  1
御仕様\P　\P\P　\P\P\P　\P\P\P　
1001
ACADANNOTATIVE
1000
AnnotativeData
1002
{
1070
     1
1070
     0
1002
}
  0
MTEXT
  5
453B
330
1A
100
AcDbEntity
  8
寸法線
 48
10.0
100
AcDbMText
 10
314.688151279304
 20
769.89280939668
 30
0.0
 40
8.0
 41
60.717249709215
 71
     1
 72
     5
  1
記事
  0
MTEXT
  5
453C
102
{ACAD_XDICTIONARY
360
453D
102
}
330
1A
100
AcDbEntity
  8
寸法線
 48
10.0
100
AcDbMText
 10
355.550806045186
 20
769.89280939668
 30
0.0
 40
8.0
 41
60.717249709215
 71
     1
 72
     5
  1
台数 \P \P\P\P\P\P \P 
1001
ACADANNOTATIVE
1000
AnnotativeData
1002
{
1070
     1
1070
     0
1002
}
  0
LINE
  5
4540
330
1A
100
AcDbEntity
  8
寸法線
 48
10.0
100
AcDbLine
 10
230.40891162763
 20
772.954053550846
 30
0.0
 11
230.40891162763
 21
653.304022315455
 31
0.0
  0
TEXT
  5
4541
330
1A
100
AcDbEntity
  8
寸法線
 48
10.0
100
AcDbText
 10
238.807752431441
 20
643.438753761376
 30
0.0
 40
8.0
  1
○印が今回の貴社の御仕様です。
100
AcDbText
  0
LINE
  5
4542
330
1A
100
AcDbEntity
  8
寸法線
 48
10.0
100
AcDbLine
 10
263.535032259769
 20
772.954053550846
 30
0.0
 11
263.535032259769
 21
653.304022315455
 31
0.0
  0
LINE
  5
4543
330
1A
100
AcDbEntity
  8
寸法線
 48
10.0
100
AcDbLine
 10
298.235003651073
 20
772.954053550846
 30
0.0
 11
298.235003651073
 21
653.304022315455
 31
0.0
  0
LINE
  5
4544
330
1A
100
AcDbEntity
  8
寸法線
 48
10.0
100
AcDbLine
 10
349.194193843029
 20
772.954053550846
 30
0.0
 11
349.194193843029
 21
653.304022315455
 31
0.0
  0
LINE
  5
4545
330
1A
100
AcDbEntity
  8
寸法線
 48
10.0
100
AcDbLine
 10
376.511235465592
 20
772.954053550846
 30
0.0
 11
376.511235465592
 21
653.304022315455
 31
0.0
  0
ARC
  5
4546
330
1A
100
AcDbEntity
  8
寸法線
100
AcDbCircle
 10
131.729500346622
 20
770.057706535589
 30
0.0
 40
0.30472035
100
AcDbArc
 50
28.230948369035
 51
123.883845843355
  0
ARC
  5
4547
330
1A
100
AcDbEntity
  8
寸法線
100
AcDbCircle
 10
134.452185454622
 20
765.935229385589
 30
0.0
 40
5.245094338
100
AcDbArc
 50
123.469024399697
 51
239.773899120641
  0
ARC
  5
4548
330
1A
100
AcDbEntity
  8
寸法線
100
AcDbCircle
 10
134.452185454622
 20
765.935229385589
 30
0.0
 40
5.245087540000001
100
AcDbArc
 50
123.469024399695
 51
239.774013712202
  0
ARC
  5
4549
330
1A
100
AcDbEntity
  8
寸法線
100
AcDbCircle
 10
127.247567616622
 20
767.072793109589
 30
0.0
 40
5.688101870000001
100
AcDbArc
 50
274.628927150731
 51
33.374029121143
  0
ARC
  5
454A
330
1A
100
AcDbEntity
  8
寸法線
100
AcDbCircle
 10
132.398208276622
 20
763.309841785588
 30
0.0
 40
1.99474847
100
AcDbArc
 50
252.903398883401
 51
337.412611017149
  0
ARC
  5
454B
330
1A
100
AcDbEntity
  8
寸法線
100
AcDbCircle
 10
132.398208276622
 20
763.309912031589
 30
0.0
 40
1.994775662
100
AcDbArc
 50
252.904086432753
 51
337.411923467792
  0
ARC
  5
454C
330
1A
100
AcDbEntity
  8
寸法線
100
AcDbCircle
 10
281.653562721434
 20
770.22410394111
 30
0.0
 40
0.30472035
100
AcDbArc
 50
28.230948369037
 51
123.883845843387
  0
ARC
  5
454D
330
1A
100
AcDbEntity
  8
寸法線
100
AcDbCircle
 10
284.376247829433
 20
766.10162679111
 30
0.0
 40
5.245094338
100
AcDbArc
 50
123.469024399696
 51
239.773899120641
  0
ARC
  5
454E
330
1A
100
AcDbEntity
  8
寸法線
100
AcDbCircle
 10
284.376247829433
 20
766.10162679111
 30
0.0
 40
5.245087540000001
100
AcDbArc
 50
123.469024399696
 51
239.774013712202
  0
ARC
  5
454F
330
1A
100
AcDbEntity
  8
寸法線
100
AcDbCircle
 10
277.171629991433
 20
767.23919051511
 30
0.0
 40
5.688101870000001
100
AcDbArc
 50
274.62892715073
 51
33.374029121143
  0
ARC
  5
4550
330
1A
100
AcDbEntity
  8
寸法線
100
AcDbCircle
 10
282.322270651433
 20
763.47623919111
 30
0.0
 40
1.99474847
100
AcDbArc
 50
252.903398883398
 51
337.412611017142
  0
ARC
  5
4551
330
1A
100
AcDbEntity
  8
寸法線
100
AcDbCircle
 10
282.322270651433
 20
763.47630943711
 30
0.0
 40
1.994775662
100
AcDbArc
 50
252.904086432755
 51
337.411923467791
  0
LINE
  5
45E9
330
1A
100
AcDbEntity
  8
寸法線
 48
10.0
100
AcDbLine
 10
80.904583810626
 20
653.304022315455
 30
0.0
 11
376.511235465592
 21
653.304022315455
 31
0.0
  0
LINE
  5
45EB
330
1A
100
AcDbEntity
  8
外形線
 48
10.0
100
AcDbLine
 10
161.468832532914
 20
937.612194815723
 30
0.0
 11
114.510263716715
 21
937.612194815723
 31
0.0
  0
LINE
  5
45EC
330
1A
100
AcDbEntity
  8
外形線
 48
10.0
100
AcDbLine
 10
161.468832532914
 20
903.612194815723
 30
0.0
 11
114.275461726558
 21
903.612194815723
 31
0.0
  0
LINE
  5
45EE
330
1A
100
AcDbEntity
  8
外形線
 48
10.0
100
AcDbLine
 10
44.386597604062
 20
937.612194815723
 30
0.0
 11
98.058407052788
 21
937.612194815723
 31
0.0
  0
LINE
  5
45EF
330
1A
100
AcDbEntity
  8
外形線
 48
10.0
100
AcDbLine
 10
44.386597604062
 20
903.612194815723
 30
0.0
 11
98.065868089249
 21
903.612194815723
 31
0.0
  0
VIEWPORT
  5
2902
330
28FB
100
AcDbEntity
 67
     1
  8
0
 48
10.0
100
AcDbViewport
 10
0.0
 20
0.0
 30
0.0
 40
518.145737303938
 41
330.56386278631
 68
     1
 69
     1
1001
ACAD
1000
MVIEW
1002
{
1070
    16
1010
0.0
1020
0.0
1030
0.0
1010
0.0
1020
0.0
1030
1.0
1040
0.0
1040
330.56386278631
1040
212.508355339652
1040
131.646930598197
1040
50.0
1040
0.0
1040
0.0
1070
    16
1070
   100
1070
     0
1070
     1
1070
     0
1070
     0
1070
     0
1070
     0
1040
0.0
1040
0.0
1040
0.0
1040
10.0
1040
10.0
1040
10.0
1040
10.0
1070
     0
1002
{
1002
}
1002
}
  0
VIEWPORT
  5
2904
330
28FB
100
AcDbEntity
 67
     1
  8
図枠太線
 48
10.0
100
AcDbViewport
 10
204.746305129083
 20
162.243778970686
 30
0.0
 40
400.0
 41
240.0
 68
     2
 69
     2
1001
ACAD
1000
MVIEW
1002
{
1070
    16
1010
0.0
1020
0.0
1030
0.0
1010
0.0
1020
0.0
1030
1.0
1040
0.0
1040
480.000001325868
1040
69.750981462704
1040
858.488236949447
1040
50.0
1040
0.0
1040
0.0
1070
     0
1070
   100
1070
     0
1070
     0
1070
     0
1070
     0
1070
     0
1070
     0
1040
0.0
1040
0.0
1040
0.0
1040
1.0
1040
1.0
1040
0.0
1040
0.0
1070
     0
1002
{
1002
}
1002
}
  0
INSERT
  5
2A59
330
28FB
100
AcDbEntity
 67
     1
  8
図枠太線
100
AcDbBlockReference
  2
A3横用_タイトル
 10
-0.352109406709
 20
-1.282180782841
 30
0.0
  0
MTEXT
  5
2E5D
330
28FB
100
AcDbEntity
 67
     1
  8
寸法線
 48
10.0
100
AcDbMText
 10
149.717021038353
 20
14.329780144702
 30
0.0
 40
7.0
 41
15.363556412778
 71
     1
 72
     5
  1
1:2
  0
MTEXT
  5
2E60
330
28FB
100
AcDbEntity
 67
     1
  8
寸法線
 48
10.0
100
AcDbMText
 10
361.046496229979
 20
38.539537930604
 30
0.0
 40
5.0
 41
43.047199206047
 71
     1
 72
     5
  1
パドル式\Pレベルスイッチ
  0
MTEXT
  5
2E61
102
{ACAD_XDICTIONARY
360
41A7
102
}
330
28FB
100
AcDbEntity
 67
     1
  8
寸法線
 48
10.0
100
AcDbMText
 10
317.260058747044
 20
33.200384229327
 30
0.0
 40
7.0
 41
41.045003631856
 71
     1
 72
     5
  1
PRL-201
1001
ACADANNOTATIVE
1000
AnnotativeData
1002
{
1070
     1
1070
     0
1002
}
  0
MTEXT
  5
2E62
102
{ACAD_XDICTIONARY
360
40C5
102
}
330
28FB
100
AcDbEntity
 67
     1
  8
寸法線
 48
10.0
100
AcDbMText
 10
338.966049035874
 20
15.730191269981
 30
0.0
 40
8.0
 41
38.04171107615
 71
     1
 72
     5
  1
HR-10011
1001
ACADANNOTATIVE
1000
AnnotativeData
1002
{
1070
     1
1070
     0
1002
}
  0
MTEXT
  5
2E63
102
{ACAD_XDICTIONARY
360
40CE
102
}
330
28FB
100
AcDbEntity
 67
     1
  8
寸法線
 48
10.0
100
AcDbMText
 10
372.188384853902
 20
51.983263214489
 30
0.0
 40
5.0
 41
31.298704771866
 71
     1
 72
     5
  1
台数   台
1001
ACADANNOTATIVE
1000
AnnotativeData
1002
{
1070
     1
1070
     0
1002
}
  0
MTEXT
  5
32FF
330
28FB
100
AcDbEntity
 67
     1
  8
寸法線
 48
10.0
100
AcDbMText
 10
220.620331067817
 20
39.798711328379
 30
0.0
 40
5.0
 41
70.329402835366
 71
     1
 72
     5
  1
タンク内温度:max.200{\H0.9854x;℃}
  0
MTEXT
  5
3E80
102
{ACAD_XDICTIONARY
360
40CB
102
}
330
28FB
100
AcDbEntity
 67
     1
  8
寸法線
 48
10.0
100
AcDbMText
 10
180.853189565995
 20
32.427152843793
 30
0.0
 40
4.5
 41
21.375384236178
 71
     1
 72
     5
  1
ohno
1001
ACADANNOTATIVE
1000
AnnotativeData
1002
{
1070
     1
1070
     0
1002
}
  0
MTEXT
  5
3E81
102
{ACAD_XDICTIONARY
360
40C8
102
}
330
28FB
100
AcDbEntity
 67
     1
  8
寸法線
 48
10.0
100
AcDbMText
 10
174.767183397331
 20
13.756271547333
 30
0.0
 40
4.0
 41
23.156665718806
 71
     1
 72
     5
  1
\H1.25x;2015.6.11
1001
ACADANNOTATIVE
1000
AnnotativeData
1002
{
1070
     1
1070
     0
1002
}
  0
ENDSEC
  0
SECTION
  2
OBJECTS
  0
DICTIONARY
  5
C
330
0
100
AcDbDictionary
  3
ACAD_COLOR
350
2948
  3
ACAD_GROUP
350
D
  3
ACAD_LAYOUT
350
2816
  3
ACAD_MATERIAL
350
2947
  3
ACAD_MLEADERSTYLE
350
405C
  3
ACAD_MLINESTYLE
350
E
  3
ACAD_PLOTSETTINGS
350
2817
  3
ACAD_SCALELIST
350
4035
  3
ACAD_VISUALSTYLE
350
401C
  3
ACADDIM
350
3F5B
  3
ACDBHEADERROUNDTRIPXREC
350
45F0
  3
ACDBVARIABLEDICTIONARY
350
4060
  3
DWGPROPS
350
4615
  0
DICTIONARY
  5
4616
330
8
100
AcDbDictionary
280
     1
  3
ACAD_XREC_ROUNDTRIP
360
4617
  0
DICTIONARY
  5
29EA
330
2
100
AcDbDictionary
280
     1
  3
ACAD_LAYERFILTERS
360
2B0C
  3
ACAD_LAYERSTATES
360
29EB
  0
DICTIONARY
  5
414B
330
414A
100
AcDbDictionary
280
     1
  3
ACDBCONTEXTDATAMANAGER
360
414C
  0
DICTIONARY
  5
414F
330
414E
100
AcDbDictionary
280
     1
  3
ACDBCONTEXTDATAMANAGER
360
4150
  0
DICTIONARY
  5
4176
330
4175
100
AcDbDictionary
280
     1
  3
ACDBCONTEXTDATAMANAGER
360
4177
  0
DICTIONARY
  5
417B
330
417A
100
AcDbDictionary
280
     1
  3
ACDBCONTEXTDATAMANAGER
360
417C
  0
DICTIONARY
  5
417F
330
417E
100
AcDbDictionary
280
     1
  3
ACDBCONTEXTDATAMANAGER
360
4180
  0
DICTIONARY
  5
4184
330
4183
100
AcDbDictionary
280
     1
  3
ACDBCONTEXTDATAMANAGER
360
4185
  0
DICTIONARY
  5
4188
330
4187
100
AcDbDictionary
280
     1
  3
ACDBCONTEXTDATAMANAGER
360
4189
  0
DICTIONARY
  5
4518
330
4517
100
AcDbDictionary
280
     1
  3
ACDBCONTEXTDATAMANAGER
360
4519
  0
DICTIONARY
  5
451C
330
451B
100
AcDbDictionary
280
     1
  3
ACDBCONTEXTDATAMANAGER
360
451D
  0
DICTIONARY
  5
4521
330
4520
100
AcDbDictionary
280
     1
  3
ACDBCONTEXTDATAMANAGER
360
4522
  0
DICTIONARY
  5
4534
330
4533
100
AcDbDictionary
280
     1
  3
ACDBCONTEXTDATAMANAGER
360
4535
  0
DICTIONARY
  5
4538
330
4537
100
AcDbDictionary
280
     1
  3
ACDBCONTEXTDATAMANAGER
360
4539
  0
DICTIONARY
  5
453D
330
453C
100
AcDbDictionary
280
     1
  3
ACDBCONTEXTDATAMANAGER
360
453E
  0
DICTIONARY
  5
41A7
330
2E61
100
AcDbDictionary
280
     1
  3
ACDBCONTEXTDATAMANAGER
360
41A8
  0
DICTIONARY
  5
40C5
330
2E62
100
AcDbDictionary
280
     1
  3
ACDBCONTEXTDATAMANAGER
360
40C6
  0
DICTIONARY
  5
40CE
330
2E63
100
AcDbDictionary
280
     1
  3
ACDBCONTEXTDATAMANAGER
360
40CF
  0
DICTIONARY
  5
40CB
330
3E80
100
AcDbDictionary
280
     1
  3
ACDBCONTEXTDATAMANAGER
360
40CC
  0
DICTIONARY
  5
40C8
330
3E81
100
AcDbDictionary
280
     1
  3
ACDBCONTEXTDATAMANAGER
360
40C9
  0
DICTIONARY
  5
2948
102
{ACAD_REACTORS
330
C
102
}
330
C
100
AcDbDictionary
  0
DICTIONARY
  5
D
102
{ACAD_REACTORS
330
C
102
}
330
C
100
AcDbDictionary
  0
DICTIONARY
  5
2816
102
{ACAD_REACTORS
330
C
102
}
330
C
100
AcDbDictionary
  0
DICTIONARY
  5
2947
102
{ACAD_REACTORS
330
C
102
}
330
C
100
AcDbDictionary
  3
BYBLOCK
350
4058
  3
BYLAYER
350
4057
  3
GLOBAL
350
4059
  0
DICTIONARY
  5
405C
102
{ACAD_REACTORS
330
C
102
}
330
C
100
AcDbDictionary
  3
STANDARD
350
405D
  0
DICTIONARY
  5
E
102
{ACAD_REACTORS
330
C
102
}
330
C
100
AcDbDictionary
  3
STANDARD
350
13
  0
DICTIONARY
  5
2817
102
{ACAD_REACTORS
330
C
102
}
330
C
100
AcDbDictionary
  0
DICTIONARY
  5
4035
102
{ACAD_REACTORS
330
C
102
}
330
C
100
AcDbDictionary
  3
A0
350
4036
  3
A1
350
4037
  3
A2
350
4038
  3
A3
350
4039
  3
A4
350
403A
  3
A5
350
403B
  3
A6
350
403C
  3
A7
350
403D
  3
A8
350
403E
  3
A9
350
403F
  3
B0
350
4040
  3
B1
350
4041
  3
B2
350
4042
  3
B3
350
4043
  3
B4
350
4044
  3
B5
350
4045
  3
B6
350
4046
  3
B7
350
4047
  3
B8
350
4048
  3
B9
350
4049
  3
C0
350
404A
  3
C1
350
404B
  3
C2
350
404C
  3
C3
350
404D
  3
C4
350
404E
  3
C5
350
404F
  3
C6
350
4050
  3
C7
350
4051
  3
C8
350
4052
  3
C9
350
4053
  3
D0
350
4054
  3
D1
350
4055
  3
D2
350
4056
  0
DICTIONARY
  5
401C
102
{ACAD_REACTORS
330
C
102
}
330
C
100
AcDbDictionary
  3
2DWIREFRAME
350
4021
  3
BASIC
350
4024
  3
BRIGHTEN
350
4028
  3
COLORCHANGE
350
402C
  3
CONCEPTUAL
350
4026
  3
DIM
350
4027
  3
EDGECOLOROFF
350
402F
  3
FACEPATTERN
350
402B
  3
FLAT
350
401D
  3
FLATWITHEDGES
350
401E
  3
GOURAUD
350
401F
  3
GOURAUDWITHEDGES
350
4020
  3
HIDDEN
350
4023
  3
JITTEROFF
350
402D
  3
LINEPATTERN
350
402A
  3
OVERHANGOFF
350
402E
  3
REALISTIC
350
4025
  3
SHADED
350
4034
  3
SHADED_WITH_EDGES
350
4033
  3
SHADES_OF_GRAY
350
4030
  3
SKETCHY
350
4031
  3
THICKEN
350
4029
  3
WIREFRAME
350
4022
  3
X-RAY
350
4032
  0
XRECORD
  5
3F5B
102
{ACAD_REACTORS
330
C
102
}
330
C
100
AcDbXrecord
 90
   990106
  3

 60
     0
 61
     0
 62
     1
 63
     3
 64
     0
 65
     0
 66
     0
 67
     3
 68
     1
 69
     0
 70
     0
 71
     0
 72
     0
 40
24.119305247045
170
     0
  0
DICTIONARY
  5
45F0
102
{ACAD_REACTORS
330
C
102
}
330
C
100
AcDbDictionary
  3
CEPSNID
350
45FA
  3
CEPSNTYPE
350
45F9
  3
COLORDICT
350
4613
  3
DIMSTYLEDATA
350
4610
  3
FINGERPRINTGUID
350
45FB
  3
HYPERLINKBASE
350
45F3
  3
INSUNITS
350
45F8
  3
LAYOUTDICT
350
45F5
  3
LWETCUNION
350
45F7
  3
MATERIALDICT
350
4614
  3
PLOTSETDICT
350
45F6
  3
PSVPSCALE
350
45FD
  3
PUCSBASE
350
4600
  3
PUCSORGBACK
350
4606
  3
PUCSORGBOTTOM
350
4602
  3
PUCSORGFRONT
350
4605
  3
PUCSORGLEFT
350
4603
  3
PUCSORGRIGHT
350
4604
  3
PUCSORGTOP
350
4601
  3
PUCSORTHOREF
350
45FE
  3
PUCSORTHOVIEW
350
45FF
  3
STYLESHEET
350
45F4
  3
TSTACKALIGN
350
45F1
  3
TSTACKSIZE
350
45F2
  3
UCSBASE
350
4609
  3
UCSORGBACK
350
460F
  3
UCSORGBOTTOM
350
460B
  3
UCSORGFRONT
350
460E
  3
UCSORGLEFT
350
460C
  3
UCSORGRIGHT
350
460D
  3
UCSORGTOP
350
460A
  3
UCSORTHOREF
350
4607
  3
UCSORTHOVIEW
350
4608
  3
VERSIONGUID
350
45FC
  0
DICTIONARY
  5
4060
102
{ACAD_REACTORS
330
C
102
}
330
C
100
AcDbDictionary
  3
CANNOSCALE
350
4061
  3
CMLEADERSTYLE
350
4063
  3
CTABLESTYLE
350
4062
  3
DIMASSOC
350
4611
  3
HIDETEXT
350
4612
  3
MSLTSCALE
350
4064
  3
XCLIPFRAME
350
4065
  0
XRECORD
  5
4615
102
{ACAD_REACTORS
330
C
102
}
330
C
100
AcDbXrecord
  1
DWGPROPS COOKIE
  2

  3

  4

  6

  7

  8
y-ohno
  9

300
=
301
=
302
=
303
=
304
=
305
=
306
=
307
=
308
=
309
=
 40
0.0
 41
2450576.222302431
 42
2457191.279432419
  1

 90
        0
  0
XRECORD
  5
4617
102
{ACAD_REACTORS
330
4616
102
}
330
4616
100
AcDbXrecord
102
VTR_0.000_0.000_1.000_1.000_VISUALSTYLE
340
4021
102
VTR_0.000_0.000_1.000_1.000_GRIDDISPLAY
 70
     3
102
VTR_0.000_0.000_1.000_1.000_GRIDMAJOR
 70
     5
102
VTR_0.000_0.000_1.000_1.000_DEFAULTLIGHTING
280
     1
102
VTR_0.000_0.000_1.000_1.000_DEFAULTLIGHTINGTYPE
 70
     1
102
VTR_0.000_0.000_1.000_1.000_BRIGHTNESS
141
0.0
102
VTR_0.000_0.000_1.000_1.000_CONTRAST
142
0.0
  0
DICTIONARY
  5
2B0C
102
{ACAD_REACTORS
330
29EA
102
}
330
29EA
100
AcDbDictionary
  0
DICTIONARY
  5
29EB
102
{ACAD_REACTORS
330
29EA
102
}
330
29EA
100
AcDbDictionary
  0
DICTIONARY
  5
414C
102
{ACAD_REACTORS
330
414B
102
}
330
414B
100
AcDbDictionary
  3
ACDB_ANNOTATIONSCALES
350
414D
  0
DICTIONARY
  5
4150
102
{ACAD_REACTORS
330
414F
102
}
330
414F
100
AcDbDictionary
  3
ACDB_ANNOTATIONSCALES
350
4151
  0
DICTIONARY
  5
4177
102
{ACAD_REACTORS
330
4176
102
}
330
4176
100
AcDbDictionary
  3
ACDB_ANNOTATIONSCALES
350
4178
  0
DICTIONARY
  5
417C
102
{ACAD_REACTORS
330
417B
102
}
330
417B
100
AcDbDictionary
  3
ACDB_ANNOTATIONSCALES
350
417D
  0
DICTIONARY
  5
4180
102
{ACAD_REACTORS
330
417F
102
}
330
417F
100
AcDbDictionary
  3
ACDB_ANNOTATIONSCALES
350
4181
  0
DICTIONARY
  5
4185
102
{ACAD_REACTORS
330
4184
102
}
330
4184
100
AcDbDictionary
  3
ACDB_ANNOTATIONSCALES
350
4186
  0
DICTIONARY
  5
4189
102
{ACAD_REACTORS
330
4188
102
}
330
4188
100
AcDbDictionary
  3
ACDB_ANNOTATIONSCALES
350
418A
  0
DICTIONARY
  5
4519
102
{ACAD_REACTORS
330
4518
102
}
330
4518
100
AcDbDictionary
  3
ACDB_ANNOTATIONSCALES
350
451A
  0
DICTIONARY
  5
451D
102
{ACAD_REACTORS
330
451C
102
}
330
451C
100
AcDbDictionary
  3
ACDB_ANNOTATIONSCALES
350
451E
  0
DICTIONARY
  5
4522
102
{ACAD_REACTORS
330
4521
102
}
330
4521
100
AcDbDictionary
  3
ACDB_ANNOTATIONSCALES
350
4523
  0
DICTIONARY
  5
4535
102
{ACAD_REACTORS
330
4534
102
}
330
4534
100
AcDbDictionary
  3
ACDB_ANNOTATIONSCALES
350
4536
  0
DICTIONARY
  5
4539
102
{ACAD_REACTORS
330
4538
102
}
330
4538
100
AcDbDictionary
  3
ACDB_ANNOTATIONSCALES
350
453A
  0
DICTIONARY
  5
453E
102
{ACAD_REACTORS
330
453D
102
}
330
453D
100
AcDbDictionary
  3
ACDB_ANNOTATIONSCALES
350
453F
  0
DICTIONARY
  5
41A8
102
{ACAD_REACTORS
330
41A7
102
}
330
41A7
100
AcDbDictionary
  3
ACDB_ANNOTATIONSCALES
350
41A9
  0
DICTIONARY
  5
40C6
102
{ACAD_REACTORS
330
40C5
102
}
330
40C5
100
AcDbDictionary
  3
ACDB_ANNOTATIONSCALES
350
40C7
  0
DICTIONARY
  5
40CF
102
{ACAD_REACTORS
330
40CE
102
}
330
40CE
100
AcDbDictionary
  3
ACDB_ANNOTATIONSCALES
350
40D0
  0
DICTIONARY
  5
40CC
102
{ACAD_REACTORS
330
40CB
102
}
330
40CB
100
AcDbDictionary
  3
ACDB_ANNOTATIONSCALES
350
40CD
  0
DICTIONARY
  5
40C9
102
{ACAD_REACTORS
330
40C8
102
}
330
40C8
100
AcDbDictionary
  3
ACDB_ANNOTATIONSCALES
350
40CA
  0
MATERIAL
  5
4058
102
{ACAD_REACTORS
330
2947
102
}
102
{ACAD_XDICTIONARY
360
461A
102
}
330
2947
100
AcDbMaterial
  1
BYBLOCK
  0
MATERIAL
  5
4057
102
{ACAD_REACTORS
330
2947
102
}
102
{ACAD_XDICTIONARY
360
4618
102
}
330
2947
100
AcDbMaterial
  1
BYLAYER
  0
MATERIAL
  5
4059
102
{ACAD_REACTORS
330
2947
102
}
102
{ACAD_XDICTIONARY
360
461C
102
}
330
2947
100
AcDbMaterial
  1
GLOBAL
  0
ACAD_PROXY_OBJECT
  5
405D
102
{ACAD_REACTORS
330
405C
102
}
330
405C
100
AcDbProxyObject
 90
      499
 91
      508
 93
      610
310
40901902A4063FBFFFFFE0000000000000020400000000000020404214DD185B99185C990000000000000104090141901A00000000000004100000000000000041025764000000000000039000
340
14
340
0
340
10
340
0
 94
        0
1001
ACAD_MLEADERVER
1070
     2
  0
MLINESTYLE
  5
13
102
{ACAD_REACTORS
330
E
102
}
330
E
100
AcDbMlineStyle
  2
STANDARD
 70
     0
  3

 62
     0
 51
90.0
 52
90.0
 71
     2
 49
0.5
 62
   256
  6
BYLAYER
 49
-0.5
 62
   256
  6
BYLAYER
  0
ACAD_PROXY_OBJECT
  5
4036
102
{ACAD_REACTORS
330
4035
102
}
330
4035
100
AcDbProxyObject
 90
      499
 91
      505
 93
       41
310
903313A31580
  0
ACAD_PROXY_OBJECT
  5
4037
102
{ACAD_REACTORS
330
4035
102
}
330
4035
100
AcDbProxyObject
 90
      499
 91
      505
 93
      105
310
903313A324000000000000004000
  0
ACAD_PROXY_OBJECT
  5
4038
102
{ACAD_REACTORS
330
4035
102
}
330
4035
100
AcDbProxyObject
 90
      499
 91
      505
 93
      105
310
903313A344000000000000104000
  0
ACAD_PROXY_OBJECT
  5
4039
102
{ACAD_REACTORS
330
4035
102
}
330
4035
100
AcDbProxyObject
 90
      499
 91
      505
 93
      105
310
903313A354000000000000144000
  0
ACAD_PROXY_OBJECT
  5
403A
102
{ACAD_REACTORS
330
4035
102
}
330
4035
100
AcDbProxyObject
 90
      499
 91
      505
 93
      105
310
903313A384000000000000204000
  0
ACAD_PROXY_OBJECT
  5
403B
102
{ACAD_REACTORS
330
4035
102
}
330
4035
100
AcDbProxyObject
 90
      499
 91
      505
 93
      113
310
904313A31304000000000000244000
  0
ACAD_PROXY_OBJECT
  5
403C
102
{ACAD_REACTORS
330
4035
102
}
330
4035
100
AcDbProxyObject
 90
      499
 91
      505
 93
      113
310
904313A31364000000000000304000
  0
ACAD_PROXY_OBJECT
  5
403D
102
{ACAD_REACTORS
330
4035
102
}
330
4035
100
AcDbProxyObject
 90
      499
 91
      505
 93
      113
310
904313A32304000000000000344000
  0
ACAD_PROXY_OBJECT
  5
403E
102
{ACAD_REACTORS
330
4035
102
}
330
4035
100
AcDbProxyObject
 90
      499
 91
      505
 93
      113
310
904313A333040000000000003E4000
  0
ACAD_PROXY_OBJECT
  5
403F
102
{ACAD_REACTORS
330
4035
102
}
330
4035
100
AcDbProxyObject
 90
      499
 91
      505
 93
      113
310
904313A34304000000000000444000
  0
ACAD_PROXY_OBJECT
  5
4040
102
{ACAD_REACTORS
330
4035
102
}
330
4035
100
AcDbProxyObject
 90
      499
 91
      505
 93
      113
310
904313A35304000000000000494000
  0
ACAD_PROXY_OBJECT
  5
4041
102
{ACAD_REACTORS
330
4035
102
}
330
4035
100
AcDbProxyObject
 90
      499
 91
      505
 93
      121
310
905313A3130304000000000000594000
  0
ACAD_PROXY_OBJECT
  5
4042
102
{ACAD_REACTORS
330
4035
102
}
330
4035
100
AcDbProxyObject
 90
      499
 91
      505
 93
      105
310
903323A310000000000000010100
  0
ACAD_PROXY_OBJECT
  5
4043
102
{ACAD_REACTORS
330
4035
102
}
330
4035
100
AcDbProxyObject
 90
      499
 91
      505
 93
      105
310
903343A310000000000000410100
  0
ACAD_PROXY_OBJECT
  5
4044
102
{ACAD_REACTORS
330
4035
102
}
330
4035
100
AcDbProxyObject
 90
      499
 91
      505
 93
      105
310
903383A310000000000000810100
  0
ACAD_PROXY_OBJECT
  5
4045
102
{ACAD_REACTORS
330
4035
102
}
330
4035
100
AcDbProxyObject
 90
      499
 91
      505
 93
      113
310
90431303A310000000000000910100
  0
ACAD_PROXY_OBJECT
  5
4046
102
{ACAD_REACTORS
330
4035
102
}
330
4035
100
AcDbProxyObject
 90
      499
 91
      505
 93
      121
310
9053130303A310000000000001650100
  0
ACAD_PROXY_OBJECT
  5
4047
102
{ACAD_REACTORS
330
4035
102
}
330
4035
100
AcDbProxyObject
 90
      499
 91
      505
 93
      257
310
90E312F31323822203D2031272D3022000000000000200FC000000000000284000
  0
ACAD_PROXY_OBJECT
  5
4048
102
{ACAD_REACTORS
330
4035
102
}
330
4035
100
AcDbProxyObject
 90
      499
 91
      505
 93
      249
310
90D312F363422203D2031272D3022000000000000240FC000000000000284000
  0
ACAD_PROXY_OBJECT
  5
4049
102
{ACAD_REACTORS
330
4035
102
}
330
4035
100
AcDbProxyObject
 90
      499
 91
      505
 93
      249
310
90D312F333222203D2031272D3022000000000000280FC000000000000284000
  0
ACAD_PROXY_OBJECT
  5
404A
102
{ACAD_REACTORS
330
4035
102
}
330
4035
100
AcDbProxyObject
 90
      499
 91
      505
 93
      249
310
90D312F313622203D2031272D30220000000000002C0FC000000000000284000
  0
ACAD_PROXY_OBJECT
  5
404B
102
{ACAD_REACTORS
330
4035
102
}
330
4035
100
AcDbProxyObject
 90
      499
 91
      505
 93
      249
310
90D332F333222203D2031272D30220000000000002E0FC000000000000284000
  0
ACAD_PROXY_OBJECT
  5
404C
102
{ACAD_REACTORS
330
4035
102
}
330
4035
100
AcDbProxyObject
 90
      499
 91
      505
 93
      241
310
90C312F3822203D2031272D3022000000000000300FC000000000000284000
  0
ACAD_PROXY_OBJECT
  5
404D
102
{ACAD_REACTORS
330
4035
102
}
330
4035
100
AcDbProxyObject
 90
      499
 91
      505
 93
      249
310
90D332F313622203D2031272D3022000000000000320FC000000000000284000
  0
ACAD_PROXY_OBJECT
  5
404E
102
{ACAD_REACTORS
330
4035
102
}
330
4035
100
AcDbProxyObject
 90
      499
 91
      505
 93
      241
310
90C312F3422203D2031272D3022000000000000340FC000000000000284000
  0
ACAD_PROXY_OBJECT
  5
404F
102
{ACAD_REACTORS
330
4035
102
}
330
4035
100
AcDbProxyObject
 90
      499
 91
      505
 93
      241
310
90C332F3822203D2031272D3022000000000000360FC000000000000284000
  0
ACAD_PROXY_OBJECT
  5
4050
102
{ACAD_REACTORS
330
4035
102
}
330
4035
100
AcDbProxyObject
 90
      499
 91
      505
 93
      241
310
90C312F3222203D2031272D3022000000000000380FC000000000000284000
  0
ACAD_PROXY_OBJECT
  5
4051
102
{ACAD_REACTORS
330
4035
102
}
330
4035
100
AcDbProxyObject
 90
      499
 91
      505
 93
      241
310
90C332F3422203D2031272D30220000000000003A0FC000000000000284000
  0
ACAD_PROXY_OBJECT
  5
4052
102
{ACAD_REACTORS
330
4035
102
}
330
4035
100
AcDbProxyObject
 90
      499
 91
      505
 93
      161
310
90A3122203D2031272D30224000000000000284000
  0
ACAD_PROXY_OBJECT
  5
4053
102
{ACAD_REACTORS
330
4035
102
}
330
4035
100
AcDbProxyObject
 90
      499
 91
      505
 93
      257
310
90E312D312F3222203D2031272D30220000000000003E0FC000000000000284000
  0
ACAD_PROXY_OBJECT
  5
4054
102
{ACAD_REACTORS
330
4035
102
}
330
4035
100
AcDbProxyObject
 90
      499
 91
      505
 93
      225
310
90A3322203D2031272D302200000000000002100000000000000284000
  0
ACAD_PROXY_OBJECT
  5
4055
102
{ACAD_REACTORS
330
4035
102
}
330
4035
100
AcDbProxyObject
 90
      499
 91
      505
 93
      225
310
90A3622203D2031272D302200000000000006100000000000000284000
  0
ACAD_PROXY_OBJECT
  5
4056
102
{ACAD_REACTORS
330
4035
102
}
330
4035
100
AcDbProxyObject
 90
      499
 91
      505
 93
      249
310
90D31272D3022203D2031272D30220000000000000A100000000000000284000
  0
ACAD_PROXY_OBJECT
  5
4021
102
{ACAD_REACTORS
330
401C
102
}
330
401C
100
AcDbProxyObject
 90
      499
 91
      504
 93
      436
310
42CC9915DA5C99599C985B595049028333333333333E33F0000000000000F90107901411070040501600405405064090741402480A0340
1001
ACAD
1000
AcDbSavedByObjectVersion
1070
     0
  0
ACAD_PROXY_OBJECT
  5
4024
102
{ACAD_REACTORS
330
401C
102
}
330
401C
100
AcDbProxyObject
 90
      499
 91
      504
 93
      388
310
4150985CDA58D07406404333333333333E33F0000000000000F90107A41107004050150841D405064090741402480A0350
1001
ACAD
1000
AcDbSavedByObjectVersion
1070
     0
  0
ACAD_PROXY_OBJECT
  5
4028
102
{ACAD_REACTORS
330
401C
102
}
330
401C
100
AcDbProxyObject
 90
      499
 91
      504
 93
      428
310
42109C9A59DA1D195B90C409028333333333333E33F0000000000000F9010790141107004050150841D405064090741402480A029950
1001
ACAD
1000
AcDbSavedByObjectVersion
1070
     0
  0
ACAD_PROXY_OBJECT
  5
402C
102
{ACAD_REACTORS
330
401C
102
}
330
401C
100
AcDbProxyObject
 90
      499
 91
      504
 93
      452
310
42D0DBDB1BDC90DA185B99D95104090240C333333333333E33F0000000000000F90108901411070040501508421405064090741402480A0350
1001
ACAD
1000
AcDbSavedByObjectVersion
1070
     0
  0
ACAD_PROXY_OBJECT
  5
4026
102
{ACAD_REACTORS
330
401C
102
}
330
401C
100
AcDbProxyObject
 90
      499
 91
      504
 93
      500
310
4290DBDB98D95C1D1D585B10940D028333333333333E33F0000000000000F90107902409070040501000000000018199010841D405064090740C02480A0340
1001
ACAD
1000
AcDbSavedByObjectVersion
1070
     0
  0
ACAD_PROXY_OBJECT
  5
4027
102
{ACAD_REACTORS
330
401C
102
}
330
401C
100
AcDbProxyObject
 90
      499
 91
      504
 93
      412
310
40D11A5B50B409028333333333333E33F0000000000000F9010790141107004050150841D405064090741402480A02677FFFFFD0
1001
ACAD
1000
AcDbSavedByObjectVersion
1070
     0
  0
ACAD_PROXY_OBJECT
  5
402F
102
{ACAD_REACTORS
330
401C
102
}
330
401C
100
AcDbProxyObject
 90
      499
 91
      504
 93
      452
310
43115919D950DBDB1BDC93D999916409028333333333333E33F0000000000000F9010790141107004050150841D405064090741402480A0350
1001
ACAD
1000
AcDbSavedByObjectVersion
1070
     0
  0
ACAD_PROXY_OBJECT
  5
402B
102
{ACAD_REACTORS
330
401C
102
}
330
401C
100
AcDbProxyObject
 90
      499
 91
      504
 93
      444
310
42D19858D95C185D1D195C9B90F409028333333333333E33F0000000000000F9010790141107004050150841D405064090741402480A0350
1001
ACAD
1000
AcDbSavedByObjectVersion
1070
     0
  0
ACAD_PROXY_OBJECT
  5
401D
102
{ACAD_REACTORS
330
401C
102
}
330
401C
100
AcDbProxyObject
 90
      499
 91
      504
 93
      380
310
41119B185D240901404333333333333E33F0000000000000F9010740A907004050150841D405064090741402480A1B50
1001
ACAD
1000
AcDbSavedByObjectVersion
1070
     0
  0
ACAD_PROXY_OBJECT
  5
401E
102
{ACAD_REACTORS
330
401C
102
}
330
401C
100
AcDbProxyObject
 90
      499
 91
      504
 93
      468
310
43519B185D15DA5D1A115919D95CD0140901404333333333333E33F0000000000000F90107409019070040501600405405064090741402480A1B50
1001
ACAD
1000
AcDbSavedByObjectVersion
1070
     0
  0
ACAD_PROXY_OBJECT
  5
401F
102
{ACAD_REACTORS
330
401C
102
}
330
401C
100
AcDbProxyObject
 90
      499
 91
      504
 93
      404
310
41D1DBDD5C985D5910240902404333333333333E33F0000000000000F9010740A9070040501641D405064090741402480A1B50
1001
ACAD
1000
AcDbSavedByObjectVersion
1070
     0
  0
ACAD_PROXY_OBJECT
  5
4020
102
{ACAD_REACTORS
330
401C
102
}
330
401C
100
AcDbProxyObject
 90
      499
 91
      504
 93
      492
310
4411DBDD5C985D5915DA5D1A115919D95CD0340902404333333333333E33F0000000000000F90107409019070040501600405405064090741402480A1B50
1001
ACAD
1000
AcDbSavedByObjectVersion
1070
     0
  0
ACAD_PROXY_OBJECT
  5
4023
102
{ACAD_REACTORS
330
401C
102
}
330
401C
100
AcDbProxyObject
 90
      499
 91
      504
 93
      476
310
41921A5919195B90640502408333333333333E33F0000000000000F901079024090700405020000000000001110200405405064090740C02480A0340
1001
ACAD
1000
AcDbSavedByObjectVersion
1070
     0
  0
ACAD_PROXY_OBJECT
  5
402D
102
{ACAD_REACTORS
330
401C
102
}
330
401C
100
AcDbProxyObject
 90
      499
 91
      504
 93
      428
310
42529A5D1D195C93D999914409028333333333333E33F0000000000000F9010790141107004050150A41D405064090741402480A0350
1001
ACAD
1000
AcDbSavedByObjectVersion
1070
     0
  0
ACAD_PROXY_OBJECT
  5
402A
102
{ACAD_REACTORS
330
401C
102
}
330
401C
100
AcDbProxyObject
 90
      499
 91
      504
 93
      444
310
42D31A5B995C185D1D195C9B90E409028333333333333E33F0000000000000F9010790141107004050750841D405064090741402483A0350
1001
ACAD
1000
AcDbSavedByObjectVersion
1070
     0
  0
ACAD_PROXY_OBJECT
  5
402E
102
{ACAD_REACTORS
330
401C
102
}
330
401C
100
AcDbProxyObject
 90
      499
 91
      504
 93
      444
310
42D3DD995C9A185B99D3D999915409028333333333333E33F0000000000000F9010790141107004050150941D405064090741402480A0350
1001
ACAD
1000
AcDbSavedByObjectVersion
1070
     0
  0
ACAD_PROXY_OBJECT
  5
4025
102
{ACAD_REACTORS
330
401C
102
}
330
401C
100
AcDbProxyObject
 90
      499
 91
      504
 93
      428
310
425499585B1A5CDD1A58D08409038333333333333E33F0000000000000F9010740A907004050150800405405064090740C02480A1B40
1001
ACAD
1000
AcDbSavedByObjectVersion
1070
     0
  0
ACAD_PROXY_OBJECT
  5
4034
102
{ACAD_REACTORS
330
401C
102
}
330
401C
100
AcDbProxyObject
 90
      499
 91
      504
 93
      420
310
4194DA1859195911B40902404333333333333E33F0000000000000F9010740A41107004050150800405405064090840C02480A0B40
1001
ACAD
1000
AcDbSavedByObjectVersion
1070
     0
  0
ACAD_PROXY_OBJECT
  5
4033
102
{ACAD_REACTORS
330
401C
102
}
330
401C
100
AcDbProxyObject
 90
      499
 91
      504
 93
      516
310
4454DA18591959081DDA5D1A08195919D95CD1A40902404333333333333E33F0000000000000F901074090142907004050250800405405064090740C02480A0B40
1001
ACAD
1000
AcDbSavedByObjectVersion
1070
     0
  0
ACAD_PROXY_OBJECT
  5
4030
102
{ACAD_REACTORS
330
401C
102
}
330
401C
100
AcDbProxyObject
 90
      499
 91
      504
 93
      532
310
4394DA1859195CC81BD98811DC985E5174090240C333333333333E33F0000000000000F901079024090741D01000000000000111010841D405064090740C02480A0340
1001
ACAD
1000
AcDbSavedByObjectVersion
1070
     0
  0
ACAD_PROXY_OBJECT
  5
4031
102
{ACAD_REACTORS
330
401C
102
}
330
401C
100
AcDbProxyObject
 90
      499
 91
      504
 93
      476
310
41D4DAD95D18DA1E51840502408333333333333E33F0000000000000F901079024090741D01000000000000111010B41D405064090741802480A0340
1001
ACAD
1000
AcDbSavedByObjectVersion
1070
     0
  0
ACAD_PROXY_OBJECT
  5
4029
102
{ACAD_REACTORS
330
401C
102
}
330
401C
100
AcDbProxyObject
 90
      499
 91
      504
 93
      412
310
41D51A1A58DAD95B90D409028333333333333E33F0000000000000F9010790141107004050150C41D405064090741402480A0350
1001
ACAD
1000
AcDbSavedByObjectVersion
1070
     0
  0
ACAD_PROXY_OBJECT
  5
4022
102
{ACAD_REACTORS
330
401C
102
}
330
401C
100
AcDbProxyObject
 90
      499
 91
      504
 93
      420
310
4255DA5C99599C985B595059028333333333333E33F0000000000000F90107901411070040501600405405064090740C02480A0340
1001
ACAD
1000
AcDbSavedByObjectVersion
1070
     0
  0
ACAD_PROXY_OBJECT
  5
4032
102
{ACAD_REACTORS
330
401C
102
}
330
401C
100
AcDbProxyObject
 90
      499
 91
      504
 93
      404
310
41560B54985E51940902404000000000000E03F0000000000000F9010740501907004050150841D405064090740C02480A1B40
1001
ACAD
1000
AcDbSavedByObjectVersion
1070
     0
  0
XRECORD
  5
45FA
102
{ACAD_REACTORS
330
45F0
102
}
330
45F0
100
AcDbXrecord
340
0
  0
XRECORD
  5
45F9
102
{ACAD_REACTORS
330
45F0
102
}
330
45F0
100
AcDbXrecord
 90
        0
  0
XRECORD
  5
4613
102
{ACAD_REACTORS
330
45F0
102
}
330
45F0
100
AcDbXrecord
340
2948
  0
XRECORD
  5
4610
102
{ACAD_REACTORS
330
45F0
102
}
330
45F0
100
AcDbXrecord
1000
DSTYLE
1002
{
1070
   171
 70
     2
1070
   143
 40
0.0394
1070
   274
 70
     2
1070
    41
 40
6.0
1070
   342
340
2AF4
1070
   271
 70
     1
1070
   278
 70
    46
1070
   341
340
2AF4
1070
   272
 70
     1
1070
    48
 40
0.1
1070
   283
 70
     1
1070
    47
 40
0.1
1070
   145
 40
1.0
1070
   340
340
10
1070
   140
 40
5.0
1070
   284
 70
     0
1002
}
  0
XRECORD
  5
45FB
102
{ACAD_REACTORS
330
45F0
102
}
330
45F0
100
AcDbXrecord
  1
{23698909-1D67-4744-B0E2-8DE11E3ED422}
  0
XRECORD
  5
45F3
102
{ACAD_REACTORS
330
45F0
102
}
330
45F0
100
AcDbXrecord
  1

  0
XRECORD
  5
45F8
102
{ACAD_REACTORS
330
45F0
102
}
330
45F0
100
AcDbXrecord
 90
        0
  0
XRECORD
  5
45F5
102
{ACAD_REACTORS
330
45F0
102
}
330
45F0
100
AcDbXrecord
340
2816
  0
XRECORD
  5
45F7
102
{ACAD_REACTORS
330
45F0
102
}
330
45F0
100
AcDbXrecord
 90
    10781
  0
XRECORD
  5
4614
102
{ACAD_REACTORS
330
45F0
102
}
330
45F0
100
AcDbXrecord
340
2947
  0
XRECORD
  5
45F6
102
{ACAD_REACTORS
330
45F0
102
}
330
45F0
100
AcDbXrecord
340
2817
  0
XRECORD
  5
45FD
102
{ACAD_REACTORS
330
45F0
102
}
330
45F0
100
AcDbXrecord
 40
0.25
  0
XRECORD
  5
4600
102
{ACAD_REACTORS
330
45F0
102
}
330
45F0
100
AcDbXrecord
340
0
  0
XRECORD
  5
4606
102
{ACAD_REACTORS
330
45F0
102
}
330
45F0
100
AcDbXrecord
 10
0.0
 20
0.0
 30
0.0
  0
XRECORD
  5
4602
102
{ACAD_REACTORS
330
45F0
102
}
330
45F0
100
AcDbXrecord
 10
0.0
 20
0.0
 30
0.0
  0
XRECORD
  5
4605
102
{ACAD_REACTORS
330
45F0
102
}
330
45F0
100
AcDbXrecord
 10
0.0
 20
0.0
 30
0.0
  0
XRECORD
  5
4603
102
{ACAD_REACTORS
330
45F0
102
}
330
45F0
100
AcDbXrecord
 10
0.0
 20
0.0
 30
0.0
  0
XRECORD
  5
4604
102
{ACAD_REACTORS
330
45F0
102
}
330
45F0
100
AcDbXrecord
 10
0.0
 20
0.0
 30
0.0
  0
XRECORD
  5
4601
102
{ACAD_REACTORS
330
45F0
102
}
330
45F0
100
AcDbXrecord
 10
0.0
 20
0.0
 30
0.0
  0
XRECORD
  5
45FE
102
{ACAD_REACTORS
330
45F0
102
}
330
45F0
100
AcDbXrecord
340
0
  0
XRECORD
  5
45FF
102
{ACAD_REACTORS
330
45F0
102
}
330
45F0
100
AcDbXrecord
 70
     0
  0
XRECORD
  5
45F4
102
{ACAD_REACTORS
330
45F0
102
}
330
45F0
100
AcDbXrecord
  1

  0
XRECORD
  5
45F1
102
{ACAD_REACTORS
330
45F0
102
}
330
45F0
100
AcDbXrecord
 90
        1
  0
XRECORD
  5
45F2
102
{ACAD_REACTORS
330
45F0
102
}
330
45F0
100
AcDbXrecord
 90
       70
  0
XRECORD
  5
4609
102
{ACAD_REACTORS
330
45F0
102
}
330
45F0
100
AcDbXrecord
340
0
  0
XRECORD
  5
460F
102
{ACAD_REACTORS
330
45F0
102
}
330
45F0
100
AcDbXrecord
 10
0.0
 20
0.0
 30
0.0
  0
XRECORD
  5
460B
102
{ACAD_REACTORS
330
45F0
102
}
330
45F0
100
AcDbXrecord
 10
0.0
 20
0.0
 30
0.0
  0
XRECORD
  5
460E
102
{ACAD_REACTORS
330
45F0
102
}
330
45F0
100
AcDbXrecord
 10
0.0
 20
0.0
 30
0.0
  0
XRECORD
  5
460C
102
{ACAD_REACTORS
330
45F0
102
}
330
45F0
100
AcDbXrecord
 10
0.0
 20
0.0
 30
0.0
  0
XRECORD
  5
460D
102
{ACAD_REACTORS
330
45F0
102
}
330
45F0
100
AcDbXrecord
 10
0.0
 20
0.0
 30
0.0
  0
XRECORD
  5
460A
102
{ACAD_REACTORS
330
45F0
102
}
330
45F0
100
AcDbXrecord
 10
0.0
 20
0.0
 30
0.0
  0
XRECORD
  5
4607
102
{ACAD_REACTORS
330
45F0
102
}
330
45F0
100
AcDbXrecord
340
0
  0
XRECORD
  5
4608
102
{ACAD_REACTORS
330
45F0
102
}
330
45F0
100
AcDbXrecord
 70
     0
  0
XRECORD
  5
45FC
102
{ACAD_REACTORS
330
45F0
102
}
330
45F0
100
AcDbXrecord
  1
{18209394-5FD8-4290-846E-D2EE1925B0F5}
  0
DICTIONARYVAR
  5
4061
102
{ACAD_REACTORS
330
4060
102
}
330
4060
100
DictionaryVariables
280
     0
  1
1:1
  0
DICTIONARYVAR
  5
4063
102
{ACAD_REACTORS
330
4060
102
}
330
4060
100
DictionaryVariables
280
     0
  1
Standard
  0
DICTIONARYVAR
  5
4062
102
{ACAD_REACTORS
330
4060
102
}
330
4060
100
DictionaryVariables
280
     0
  1
Standard
  0
DICTIONARYVAR
  5
4611
102
{ACAD_REACTORS
330
4060
102
}
330
4060
100
DictionaryVariables
280
     0
  1
1
  0
DICTIONARYVAR
  5
4612
102
{ACAD_REACTORS
330
4060
102
}
330
4060
100
DictionaryVariables
280
     0
  1
0
  0
DICTIONARYVAR
  5
4064
102
{ACAD_REACTORS
330
4060
102
}
330
4060
100
DictionaryVariables
280
     0
  1
0
  0
DICTIONARYVAR
  5
4065
102
{ACAD_REACTORS
330
4060
102
}
330
4060
100
DictionaryVariables
280
     0
  1
0
  0
DICTIONARY
  5
414D
102
{ACAD_REACTORS
330
414C
102
}
330
414C
100
AcDbDictionary
  0
DICTIONARY
  5
4151
102
{ACAD_REACTORS
330
4150
102
}
330
4150
100
AcDbDictionary
  0
DICTIONARY
  5
4178
102
{ACAD_REACTORS
330
4177
102
}
330
4177
100
AcDbDictionary
  0
DICTIONARY
  5
417D
102
{ACAD_REACTORS
330
417C
102
}
330
417C
100
AcDbDictionary
  0
DICTIONARY
  5
4181
102
{ACAD_REACTORS
330
4180
102
}
330
4180
100
AcDbDictionary
  0
DICTIONARY
  5
4186
102
{ACAD_REACTORS
330
4185
102
}
330
4185
100
AcDbDictionary
  0
DICTIONARY
  5
418A
102
{ACAD_REACTORS
330
4189
102
}
330
4189
100
AcDbDictionary
  0
DICTIONARY
  5
451A
102
{ACAD_REACTORS
330
4519
102
}
330
4519
100
AcDbDictionary
  0
DICTIONARY
  5
451E
102
{ACAD_REACTORS
330
451D
102
}
330
451D
100
AcDbDictionary
  0
DICTIONARY
  5
4523
102
{ACAD_REACTORS
330
4522
102
}
330
4522
100
AcDbDictionary
  0
DICTIONARY
  5
4536
102
{ACAD_REACTORS
330
4535
102
}
330
4535
100
AcDbDictionary
  0
DICTIONARY
  5
453A
102
{ACAD_REACTORS
330
4539
102
}
330
4539
100
AcDbDictionary
  0
DICTIONARY
  5
453F
102
{ACAD_REACTORS
330
453E
102
}
330
453E
100
AcDbDictionary
  0
DICTIONARY
  5
41A9
102
{ACAD_REACTORS
330
41A8
102
}
330
41A8
100
AcDbDictionary
  0
DICTIONARY
  5
40C7
102
{ACAD_REACTORS
330
40C6
102
}
330
40C6
100
AcDbDictionary
  0
DICTIONARY
  5
40D0
102
{ACAD_REACTORS
330
40CF
102
}
330
40CF
100
AcDbDictionary
  0
DICTIONARY
  5
40CD
102
{ACAD_REACTORS
330
40CC
102
}
330
40CC
100
AcDbDictionary
  0
DICTIONARY
  5
40CA
102
{ACAD_REACTORS
330
40C9
102
}
330
40C9
100
AcDbDictionary
  0
DICTIONARY
  5
461A
330
4058
100
AcDbDictionary
280
     1
  3
ACAD_XREC_ROUNDTRIP
360
461B
  0
DICTIONARY
  5
4618
330
4057
100
AcDbDictionary
280
     1
  3
ACAD_XREC_ROUNDTRIP
360
4619
  0
DICTIONARY
  5
461C
330
4059
100
AcDbDictionary
280
     1
  3
ACAD_XREC_ROUNDTRIP
360
461D
  0
XRECORD
  5
461B
102
{ACAD_REACTORS
330
461A
102
}
330
461A
100
AcDbXrecord
102
MATERIAL
148
0.0
149
0.0
149
0.0
 93
        0
 94
      127
282
     0
 72
     1
 77
     1
171
     1
175
     1
179
     1
273
     0
  0
XRECORD
  5
4619
102
{ACAD_REACTORS
330
4618
102
}
330
4618
100
AcDbXrecord
102
MATERIAL
148
0.0
149
0.0
149
0.0
 93
        0
 94
      127
282
     0
 72
     1
 77
     1
171
     1
175
     1
179
     1
273
     0
  0
XRECORD
  5
461D
102
{ACAD_REACTORS
330
461C
102
}
330
461C
100
AcDbXrecord
102
MATERIAL
148
0.0
149
0.0
149
0.0
 93
        0
 94
      127
282
     0
 72
     1
 77
     1
171
     1
175
     1
179
     1
273
     0
  0
ENDSEC
  0
EOF
