  0
SECTION
  2
HEADER
  9
$ACADVER
  1
AC1014
  9
$ACADMAINTVER
 70
     9
  9
$DWGCODEPAGE
  3
ANSI_932
  9
$INSBASE
 10
0.0
 20
0.0
 30
0.0
  9
$EXTMIN
 10
-46.100617985379
 20
85.12636832033
 30
0.0
  9
$EXTMAX
 10
578.515651376999
 20
503.691021814087
 30
0.0
  9
$LIMMIN
 10
-360.747566795242
 20
4.457354754526
  9
$LIMMAX
 10
-162.153696144267
 20
287.675440264018
  9
$ORTHOMODE
 70
     1
  9
$REGENMODE
 70
     1
  9
$FILLMODE
 70
     1
  9
$QTEXTMODE
 70
     0
  9
$MIRRTEXT
 70
     1
  9
$DRAGMODE
 70
     2
  9
$LTSCALE
 40
1.0
  9
$OSMODE
 70
    32
  9
$ATTMODE
 70
     1
  9
$TEXTSIZE
 40
2.333873885063
  9
$TRACEWID
 40
1.0
  9
$TEXTSTYLE
  7
STANDARD
  9
$CLAYER
  8
寸法線
  9
$CELTYPE
  6
BYLAYER
  9
$CECOLOR
 62
   256
  9
$CELTSCALE
 40
10.0
  9
$DELOBJ
 70
     1
  9
$DISPSILH
 70
     0
  9
$DIMSCALE
 40
1.0
  9
$DIMASZ
 40
6.0
  9
$DIMEXO
 40
0.625
  9
$DIMDLI
 40
3.75
  9
$DIMRND
 40
0.0
  9
$DIMDLE
 40
0.0
  9
$DIMEXE
 40
1.25
  9
$DIMTP
 40
0.1
  9
$DIMTM
 40
0.1
  9
$DIMTXT
 40
5.0
  9
$DIMCEN
 40
2.5
  9
$DIMTSZ
 40
0.0
  9
$DIMTOL
 70
     0
  9
$DIMLIM
 70
     0
  9
$DIMTIH
 70
     0
  9
$DIMTOH
 70
     0
  9
$DIMSE1
 70
     0
  9
$DIMSE2
 70
     0
  9
$DIMTAD
 70
     1
  9
$DIMZIN
 70
     8
  9
$DIMBLK
  1
OPEN30
  9
$DIMASO
 70
     1
  9
$DIMSHO
 70
     1
  9
$DIMPOST
  1

  9
$DIMAPOST
  1

  9
$DIMALT
 70
     0
  9
$DIMALTD
 70
     2
  9
$DIMALTF
 40
0.0394
  9
$DIMLFAC
 40
1.0
  9
$DIMTOFL
 70
     1
  9
$DIMTVP
 40
1.0
  9
$DIMTIX
 70
     0
  9
$DIMSOXD
 70
     0
  9
$DIMSAH
 70
     0
  9
$DIMBLK1
  1

  9
$DIMBLK2
  1

  9
$DIMSTYLE
  2
ISO-25
  9
$DIMCLRD
 70
     0
  9
$DIMCLRE
 70
     0
  9
$DIMCLRT
 70
     0
  9
$DIMTFAC
 40
1.0
  9
$DIMGAP
 40
0.625
  9
$DIMJUST
 70
     0
  9
$DIMSD1
 70
     0
  9
$DIMSD2
 70
     0
  9
$DIMTOLJ
 70
     1
  9
$DIMTZIN
 70
     0
  9
$DIMALTZ
 70
     0
  9
$DIMALTTZ
 70
     0
  9
$DIMFIT
 70
     3
  9
$DIMUPT
 70
     0
  9
$DIMUNIT
 70
     2
  9
$DIMDEC
 70
     1
  9
$DIMTDEC
 70
     1
  9
$DIMALTU
 70
     2
  9
$DIMALTTD
 70
     2
  9
$DIMTXSTY
  7
STANDARD
  9
$DIMAUNIT
 70
     0
  9
$LUNITS
 70
     2
  9
$LUPREC
 70
     4
  9
$SKETCHINC
 40
1.0
  9
$FILLETRAD
 40
6.5
  9
$AUNITS
 70
     0
  9
$AUPREC
 70
     0
  9
$MENU
  1
.
  9
$ELEVATION
 40
0.0
  9
$PELEVATION
 40
0.0
  9
$THICKNESS
 40
0.0
  9
$LIMCHECK
 70
     0
  9
$CHAMFERA
 40
10.0
  9
$CHAMFERB
 40
10.0
  9
$CHAMFERC
 40
20.0
  9
$CHAMFERD
 40
0.0
  9
$SKPOLY
 70
     0
  9
$TDCREATE
 40
2450576.597302431
  9
$TDUPDATE
 40
2457191.654698021
  9
$TDINDWG
 40
1.1403133912
  9
$TDUSRTIMER
 40
1.1403133912
  9
$USRTIMER
 70
     1
  9
$ANGBASE
 50
0.0
  9
$ANGDIR
 70
     0
  9
$PDMODE
 70
     0
  9
$PDSIZE
 40
0.0
  9
$PLINEWID
 40
0.0
  9
$COORDS
 70
     1
  9
$SPLFRAME
 70
     0
  9
$SPLINETYPE
 70
     6
  9
$SPLINESEGS
 70
     8
  9
$ATTDIA
 70
     0
  9
$ATTREQ
 70
     1
  9
$HANDLING
 70
     1
  9
$HANDSEED
  5
40AB
  9
$SURFTAB1
 70
     6
  9
$SURFTAB2
 70
     6
  9
$SURFTYPE
 70
     6
  9
$SURFU
 70
     6
  9
$SURFV
 70
     6
  9
$UCSNAME
  2

  9
$UCSORG
 10
0.0
 20
0.0
 30
0.0
  9
$UCSXDIR
 10
1.0
 20
0.0
 30
0.0
  9
$UCSYDIR
 10
0.0
 20
1.0
 30
0.0
  9
$PUCSNAME
  2

  9
$PUCSORG
 10
0.0
 20
0.0
 30
0.0
  9
$PUCSXDIR
 10
1.0
 20
0.0
 30
0.0
  9
$PUCSYDIR
 10
0.0
 20
1.0
 30
0.0
  9
$USERI1
 70
     0
  9
$USERI2
 70
     0
  9
$USERI3
 70
     0
  9
$USERI4
 70
     0
  9
$USERI5
 70
     0
  9
$USERR1
 40
0.0
  9
$USERR2
 40
0.0
  9
$USERR3
 40
0.0
  9
$USERR4
 40
0.0
  9
$USERR5
 40
0.0
  9
$WORLDVIEW
 70
     1
  9
$SHADEDGE
 70
     3
  9
$SHADEDIF
 70
    70
  9
$TILEMODE
 70
     0
  9
$MAXACTVP
 70
    16
  9
$PINSBASE
 10
0.0
 20
0.0
 30
0.0
  9
$PLIMCHECK
 70
     0
  9
$PEXTMIN
 10
4.746305129083
 20
2.690735462727
 30
0.0
  9
$PEXTMAX
 10
404.746305129083
 20
282.690735462727
 30
0.0
  9
$PLIMMIN
 10
-7.007122192383
 20
-7.007118782997
  9
$PLIMMAX
 10
417.718108215332
 20
293.315290427208
  9
$UNITMODE
 70
     0
  9
$VISRETAIN
 70
     0
  9
$PLINEGEN
 70
     0
  9
$PSLTSCALE
 70
     1
  9
$TREEDEPTH
 70
  3020
  9
$PICKSTYLE
 70
     1
  9
$CMLSTYLE
  2
STANDARD
  9
$CMLJUST
 70
     0
  9
$CMLSCALE
 40
1.0
  9
$PROXYGRAPHICS
 70
     1
  9
$MEASUREMENT
 70
     1
  0
ENDSEC
  0
SECTION
  2
CLASSES
  0
CLASS
  1
ACDBDICTIONARYWDFLT
  2
AcDbDictionaryWithDefault
  3
ObjectDBX Classes
 90
        0
280
     0
281
     0
  0
CLASS
  1
ACDBPLACEHOLDER
  2
AcDbPlaceHolder
  3
ObjectDBX Classes
 90
        0
280
     0
281
     0
  0
CLASS
  1
LAYOUT
  2
AcDbLayout
  3
ObjectDBX Classes
 90
        0
280
     0
281
     0
  0
CLASS
  1
DIMASSOC
  2
AcDbDimAssoc
  3
"AcDbDimAssoc|Product Desc:     AcDim ARX App For Dimension|Company:          Autodesk, Inc.|WEB Address:      www.autodesk.com"
 90
        0
280
     0
281
     0
  0
CLASS
  1
SORTENTSTABLE
  2
AcDbSortentsTable
  3
ObjectDBX Classes
 90
        0
280
     0
281
     0
  0
CLASS
  1
VISUALSTYLE
  2
AcDbVisualStyle
  3
ObjectDBX Classes
 90
     4095
280
     0
281
     0
  0
CLASS
  1
SCALE
  2
AcDbScale
  3
ObjectDBX Classes
 90
     1153
280
     0
281
     0
  0
CLASS
  1
MATERIAL
  2
AcDbMaterial
  3
ObjectDBX Classes
 90
     1153
280
     0
281
     0
  0
CLASS
  1
TABLESTYLE
  2
AcDbTableStyle
  3
ObjectDBX Classes
 90
     4095
280
     0
281
     0
  0
CLASS
  1
MLEADERSTYLE
  2
AcDbMLeaderStyle
  3
ACDB_MLEADERSTYLE_CLASS
 90
     4095
280
     0
281
     0
  0
CLASS
  1
SUN
  2
AcDbSun
  3
SCENEOE
 90
     1153
280
     0
281
     0
  0
CLASS
  1
DICTIONARYVAR
  2
AcDbDictionaryVar
  3
ObjectDBX Classes
 90
        0
280
     0
281
     0
  0
CLASS
  1
XRECORD
  2
AcDbXrecord
  3
ObjectDBX Classes
 90
        0
280
     0
281
     0
  0
CLASS
  1
LWPOLYLINE
  2
AcDbPolyline
  3
ObjectDBX Classes
 90
        0
280
     0
281
     1
  0
CLASS
  1
HATCH
  2
AcDbHatch
  3
ObjectDBX Classes
 90
        0
280
     0
281
     1
  0
ENDSEC
  0
SECTION
  2
TABLES
  0
TABLE
  2
VPORT
  5
8
102
{ACAD_XDICTIONARY
360
40A2
102
}
330
0
100
AcDbSymbolTable
 70
     1
  0
VPORT
  5
3F56
330
8
100
AcDbSymbolTableRecord
100
AcDbViewportTableRecord
  2
*ACTIVE
 70
     0
 10
0.0
 20
0.0
 11
1.0
 21
1.0
 12
156.446973027711
 22
218.77760686546
 13
0.0
 23
0.0
 14
1.0
 24
1.0
 15
0.0
 25
0.0
 16
0.0
 26
0.0
 36
1.0
 17
0.0
 27
0.0
 37
0.0
 40
250.823805694542
 41
1.56746031746
 42
50.0
 43
0.0
 44
0.0
 50
0.0
 51
0.0
 71
    16
 72
   100
 73
     1
 74
     0
 75
     0
 76
     0
 77
     0
 78
     0
  0
ENDTAB
  0
TABLE
  2
LTYPE
  5
5
330
0
100
AcDbSymbolTable
 70
     4
  0
LTYPE
  5
14
330
5
100
AcDbSymbolTableRecord
100
AcDbLinetypeTableRecord
  2
BYBLOCK
 70
     0
  3

 72
    65
 73
     0
 40
0.0
  0
LTYPE
  5
15
330
5
100
AcDbSymbolTableRecord
100
AcDbLinetypeTableRecord
  2
BYLAYER
 70
     0
  3

 72
    65
 73
     0
 40
0.0
  0
LTYPE
  5
16
330
5
100
AcDbSymbolTableRecord
100
AcDbLinetypeTableRecord
  2
CONTINUOUS
 70
     0
  3
Solid line
 72
    65
 73
     0
 40
0.0
  0
LTYPE
  5
1EC
330
5
100
AcDbSymbolTableRecord
100
AcDbLinetypeTableRecord
  2
CENTER
 70
     0
  3
____ _ ____ _ ____ _ ____ _ ____ _ ____ _ ____ 
 72
    65
 73
     4
 40
2.0
 49
1.25
 74
     0
 49
-0.25
 74
     0
 49
0.25
 74
     0
 49
-0.25
 74
     0
  0
LTYPE
  5
1ED
330
5
100
AcDbSymbolTableRecord
100
AcDbLinetypeTableRecord
  2
DASHED
 70
     0
  3
__ __ __ __ __ __ __ __ __ __ __ __ __ __ __ __
 72
    65
 73
     2
 40
0.75
 49
0.5
 74
     0
 49
-0.25
 74
     0
  0
LTYPE
  5
3873
330
5
100
AcDbSymbolTableRecord
100
AcDbLinetypeTableRecord
  2
CENTER2
 70
     0
  3
Center (.5x) ___ _ ___ _ ___ _ ___ _ ___ _ ___
 72
    65
 73
     4
 40
28.575
 49
19.05
 74
     0
 49
-3.175
 74
     0
 49
3.175
 74
     0
 49
-3.175
 74
     0
  0
ENDTAB
  0
TABLE
  2
LAYER
  5
2
102
{ACAD_XDICTIONARY
360
29EA
102
}
330
0
100
AcDbSymbolTable
 70
    11
  0
LAYER
  5
F
330
2
100
AcDbSymbolTableRecord
100
AcDbLayerTableRecord
  2
0
 70
     0
 62
     7
  6
CONTINUOUS
  0
LAYER
  5
61
330
2
100
AcDbSymbolTableRecord
100
AcDbLayerTableRecord
  2
図枠太線
 70
     0
 62
   251
  6
CONTINUOUS
  0
LAYER
  5
62
330
2
100
AcDbSymbolTableRecord
100
AcDbLayerTableRecord
  2
図枠細線
 70
     0
 62
   252
  6
CONTINUOUS
  0
LAYER
  5
63
330
2
100
AcDbSymbolTableRecord
100
AcDbLayerTableRecord
  2
図枠ロゴマーク
 70
     0
 62
   253
  6
CONTINUOUS
  0
LAYER
  5
1EF
330
2
100
AcDbSymbolTableRecord
100
AcDbLayerTableRecord
  2
外形線
 70
     0
 62
     7
  6
CONTINUOUS
  0
LAYER
  5
1F0
330
2
100
AcDbSymbolTableRecord
100
AcDbLayerTableRecord
  2
寸法線
 70
     0
 62
     1
  6
CONTINUOUS
  0
LAYER
  5
1F1
330
2
100
AcDbSymbolTableRecord
100
AcDbLayerTableRecord
  2
中心線
 70
     0
 62
     4
  6
CENTER
  0
LAYER
  5
1F4
330
2
100
AcDbSymbolTableRecord
100
AcDbLayerTableRecord
  2
DEFPOINTS
 70
     0
 62
     7
  6
CONTINUOUS
  0
LAYER
  5
2AA2
330
2
100
AcDbSymbolTableRecord
100
AcDbLayerTableRecord
  2
下書線
 70
     0
 62
     2
  6
CONTINUOUS
  0
LAYER
  5
2AA4
330
2
100
AcDbSymbolTableRecord
100
AcDbLayerTableRecord
  2
細線
 70
     0
 62
     6
  6
CONTINUOUS
  0
LAYER
  5
3874
330
2
100
AcDbSymbolTableRecord
100
AcDbLayerTableRecord
  2
寸法線_文字
 70
     0
 62
     1
  6
CONTINUOUS
  0
ENDTAB
  0
TABLE
  2
STYLE
  5
3
330
0
100
AcDbSymbolTable
 70
     3
  0
STYLE
  5
10
330
3
100
AcDbSymbolTableRecord
100
AcDbTextStyleTableRecord
  2
STANDARD
 70
     0
 40
0.0
 41
1.0
 50
0.0
 71
     0
 42
2.333873885063
  3
ISOCP
  4
bigfont.shx
  0
STYLE
  5
64
330
3
100
AcDbSymbolTableRecord
100
AcDbTextStyleTableRecord
  2
EXCADSTD
 70
     0
 40
0.0
 41
1.0
 50
0.0
 71
     0
 42
0.2
  3
monotxt
  4
bigfont
  0
STYLE
  5
2B21
330
3
100
AcDbSymbolTableRecord
100
AcDbTextStyleTableRecord
  2
EXCADVERT
 70
     4
 40
0.0
 41
1.0
 50
0.0
 71
     0
 42
0.286885
  3
monotxt
  4
bigfont
  0
ENDTAB
  0
TABLE
  2
VIEW
  5
6
330
0
100
AcDbSymbolTable
 70
     0
  0
ENDTAB
  0
TABLE
  2
UCS
  5
7
330
0
100
AcDbSymbolTable
 70
     0
  0
ENDTAB
  0
TABLE
  2
APPID
  5
9
330
0
100
AcDbSymbolTable
 70
     3
  0
APPID
  5
11
330
9
100
AcDbSymbolTableRecord
100
AcDbRegAppTableRecord
  2
ACAD
 70
     0
  0
APPID
  5
3FA3
330
9
100
AcDbSymbolTableRecord
100
AcDbRegAppTableRecord
  2
ACADANNOTATIVE
 70
     0
  0
APPID
  5
40AA
330
9
100
AcDbSymbolTableRecord
100
AcDbRegAppTableRecord
  2
ACAD_MLEADERVER
 70
     0
  0
ENDTAB
  0
TABLE
  2
DIMSTYLE
  5
A
330
0
100
AcDbSymbolTable
 70
     2
  0
DIMSTYLE
105
1D
330
A
100
AcDbSymbolTableRecord
100
AcDbDimStyleTableRecord
  2
STANDARD
 70
     0
  3

  4

  5

  6

  7

 40
1.0
 41
0.18
 42
0.0625
 43
0.38
 44
0.18
 45
0.0
 46
0.0
 47
0.0
 48
0.0
140
0.18
141
0.09
142
0.0
143
25.4
144
1.0
145
0.0
146
1.0
147
0.09
 71
     0
 72
     0
 73
     1
 74
     1
 75
     0
 76
     0
 77
     0
 78
     0
170
     0
171
     2
172
     0
173
     0
174
     0
175
     0
176
     0
177
     0
178
     0
270
     2
271
     4
272
     4
273
     2
274
     2
340
10
275
     0
280
     0
281
     0
282
     0
283
     1
284
     0
285
     0
286
     0
287
     3
288
     0
  0
DIMSTYLE
105
24
102
{ACAD_REACTORS
330
2FF0
330
321A
330
3255
330
3262
330
3278
330
32A1
330
32B7
330
32CD
330
3308
330
336B
330
3644
330
3EC2
102
}
330
A
100
AcDbSymbolTableRecord
100
AcDbDimStyleTableRecord
  2
ISO-25
 70
     0
  3

  4

  5

  6

  7

 40
1.0
 41
2.5
 42
0.625
 43
3.75
 44
1.25
 45
0.0
 46
0.0
 47
0.0
 48
0.0
140
2.5
141
2.5
142
0.0
143
0.0394
144
1.0
145
1.0
146
1.0
147
0.625
 71
     0
 72
     0
 73
     1
 74
     0
 75
     0
 76
     0
 77
     1
 78
     8
170
     0
171
     2
172
     1
173
     0
174
     0
175
     0
176
     0
177
     0
178
     0
270
     2
271
     4
272
     4
273
     2
274
     2
340
10
275
     0
280
     0
281
     0
282
     0
283
     1
284
     0
285
     0
286
     0
287
     3
288
     0
  0
ENDTAB
  0
TABLE
  2
BLOCK_RECORD
  5
1
330
0
100
AcDbSymbolTable
 70
    18
  0
BLOCK_RECORD
  5
1A
330
1
100
AcDbSymbolTableRecord
100
AcDbBlockTableRecord
  2
*MODEL_SPACE
  0
BLOCK_RECORD
  5
28FB
330
1
100
AcDbSymbolTableRecord
100
AcDbBlockTableRecord
  2
*PAPER_SPACE
  0
BLOCK_RECORD
  5
2A32
330
1
100
AcDbSymbolTableRecord
100
AcDbBlockTableRecord
  2
A3横用_タイトル
1001
ACAD
1000
DesignCenter Data
1002
{
1070
     1
1070
     4
1002
}
  0
BLOCK_RECORD
  5
2AF4
330
1
100
AcDbSymbolTableRecord
100
AcDbBlockTableRecord
  2
_OPEN30
  0
BLOCK_RECORD
  5
2F2A
330
1
100
AcDbSymbolTableRecord
100
AcDbBlockTableRecord
  2
A$C5F435AFC
  0
BLOCK_RECORD
  5
2F6C
330
1
100
AcDbSymbolTableRecord
100
AcDbBlockTableRecord
  2
A$C2AA85C5D
  0
BLOCK_RECORD
  5
2FF1
330
1
100
AcDbSymbolTableRecord
100
AcDbBlockTableRecord
  2
*D4
  0
BLOCK_RECORD
  5
321B
330
1
100
AcDbSymbolTableRecord
100
AcDbBlockTableRecord
  2
*D6
  0
BLOCK_RECORD
  5
3256
330
1
100
AcDbSymbolTableRecord
100
AcDbBlockTableRecord
  2
*D7
  0
BLOCK_RECORD
  5
3263
330
1
100
AcDbSymbolTableRecord
100
AcDbBlockTableRecord
  2
*D8
  0
BLOCK_RECORD
  5
3279
330
1
100
AcDbSymbolTableRecord
100
AcDbBlockTableRecord
  2
*D9
  0
BLOCK_RECORD
  5
32A2
330
1
100
AcDbSymbolTableRecord
100
AcDbBlockTableRecord
  2
*D10
  0
BLOCK_RECORD
  5
32B8
330
1
100
AcDbSymbolTableRecord
100
AcDbBlockTableRecord
  2
*D11
  0
BLOCK_RECORD
  5
32CE
330
1
100
AcDbSymbolTableRecord
100
AcDbBlockTableRecord
  2
*D12
  0
BLOCK_RECORD
  5
3309
330
1
100
AcDbSymbolTableRecord
100
AcDbBlockTableRecord
  2
*D13
  0
BLOCK_RECORD
  5
336C
330
1
100
AcDbSymbolTableRecord
100
AcDbBlockTableRecord
  2
*D14
  0
BLOCK_RECORD
  5
3396
330
1
100
AcDbSymbolTableRecord
100
AcDbBlockTableRecord
  2
ケース外形図_PRL-500
  0
BLOCK_RECORD
  5
3645
330
1
100
AcDbSymbolTableRecord
100
AcDbBlockTableRecord
  2
*D16
  0
BLOCK_RECORD
  5
3EC3
330
1
100
AcDbSymbolTableRecord
100
AcDbBlockTableRecord
  2
*D17
  0
ENDTAB
  0
ENDSEC
  0
SECTION
  2
BLOCKS
  0
BLOCK
  5
1B
330
1A
100
AcDbEntity
  8
0
100
AcDbBlockBegin
  2
*MODEL_SPACE
 70
     0
 10
0.0
 20
0.0
 30
0.0
  3
*MODEL_SPACE
  1

  0
ENDBLK
  5
1C
330
1A
100
AcDbEntity
  8
0
100
AcDbBlockEnd
  0
BLOCK
  5
28FD
330
28FB
100
AcDbEntity
 67
     1
  8
0
 48
10.0
100
AcDbBlockBegin
  2
*PAPER_SPACE
 70
     0
 10
0.0
 20
0.0
 30
0.0
  3
*PAPER_SPACE
  1

  0
ENDBLK
  5
28FE
330
28FB
100
AcDbEntity
 67
     1
  8
0
 48
10.0
100
AcDbBlockEnd
  0
BLOCK
  5
2A33
330
2A32
100
AcDbEntity
  8
0
100
AcDbBlockBegin
  2
A3横用_タイトル
 70
     0
 10
0.0
 20
0.0
 30
0.0
  3
A3横用_タイトル
  1
A3横用_タイトル
  0
LINE
  5
2A34
330
2A32
100
AcDbEntity
  8
図枠細線
  6
CONTINUOUS
 62
   252
100
AcDbLine
 10
205.098414535793
 20
33.525959753527
 30
0.0
 11
305.098414535793
 21
33.525959753527
 31
0.0
  0
LINE
  5
2A35
330
2A32
100
AcDbEntity
  8
図枠太線
  6
CONTINUOUS
 62
   251
100
AcDbLine
 10
205.098414535793
 20
23.525959753527
 30
0.0
 11
305.098414535793
 21
23.525959753527
 31
0.0
  0
LINE
  5
2A36
330
2A32
100
AcDbEntity
  8
図枠細線
  6
CONTINUOUS
100
AcDbLine
 10
5.098414535793
 20
23.525959753527
 30
0.0
 11
105.098414535793
 21
23.525959753527
 31
0.0
  0
LINE
  5
2A37
330
2A32
100
AcDbEntity
  8
図枠細線
  6
CONTINUOUS
 62
   252
100
AcDbLine
 10
5.098414535793
 20
36.725957753527
 30
0.0
 11
105.098414535793
 21
36.725957753527
 31
0.0
  0
LINE
  5
2A38
330
2A32
100
AcDbEntity
  8
図枠細線
  6
CONTINUOUS
 62
   252
100
AcDbLine
 10
5.098414535793
 20
30.125957753527
 30
0.0
 11
105.098414535793
 21
30.125957753527
 31
0.0
  0
LINE
  5
2A39
330
2A32
100
AcDbEntity
  8
図枠細線
  6
CONTINUOUS
 62
   252
100
AcDbLine
 10
5.098414535793
 20
16.725959753527
 30
0.0
 11
105.098414535793
 21
16.725959753527
 31
0.0
  0
LINE
  5
2A3A
330
2A32
100
AcDbEntity
  8
図枠細線
  6
CONTINUOUS
 62
   252
100
AcDbLine
 10
5.098414535793
 20
10.125959753527
 30
0.0
 11
105.098414535793
 21
10.125959753527
 31
0.0
  0
LINE
  5
2A3B
330
2A32
100
AcDbEntity
  8
図枠細線
  6
CONTINUOUS
100
AcDbLine
 10
105.098414535793
 20
23.525961753527
 30
0.0
 11
205.098414535793
 21
23.525959753527
 31
0.0
  0
LINE
  5
2A3C
330
2A32
100
AcDbEntity
  8
図枠細線
  6
CONTINUOUS
 62
   252
100
AcDbLine
 10
138.398414535793
 20
43.525959753527
 30
0.0
 11
138.398414535793
 21
18.525957753527
 31
0.0
  0
LINE
  5
2A3D
330
2A32
100
AcDbEntity
  8
図枠細線
  6
CONTINUOUS
 62
   252
100
AcDbLine
 10
171.698414535793
 20
43.525959753527
 30
0.0
 11
171.698414535793
 21
18.525957753527
 31
0.0
  0
LINE
  5
2A3E
330
2A32
100
AcDbEntity
  8
図枠細線
  6
CONTINUOUS
 62
   252
100
AcDbLine
 10
305.098414535793
 20
23.525959753527
 30
0.0
 11
405.098414535793
 21
23.525959753527
 31
0.0
  0
TEXT
  5
2A3F
330
2A32
100
AcDbEntity
  8
図枠ロゴマーク
  6
CONTINUOUS
 62
   253
100
AcDbText
 10
206.102509212755
 20
13.294257570546
 30
0.0
 40
7.0
  1
東和制電工業株式会社
 50
0.016555220185
 41
1.186384129432
  7
EXCADSTD
 72
     5
 11
303.544188309143
 21
13.322412672217
 31
0.0
100
AcDbText
  0
MTEXT
  5
2A40
330
2A32
100
AcDbEntity
  8
図枠細線
100
AcDbMText
 10
6.356764112375
 20
41.976594175478
 30
0.0
 40
2.5
 41
49.938282706292
 71
     1
 72
     5
  1
{\Fmonotxt.shx,bigfont.shx|c128;図暦　CHANGE　NOTICE}
  0
MTEXT
  5
2A41
330
2A32
100
AcDbEntity
  8
図枠細線
 48
10.0
100
AcDbMText
 10
306.544114926828
 20
41.701835800934
 30
0.0
 40
2.5
 41
28.002809618823
 71
     1
 72
     5
  1
{\Fmonotxt.shx,bigfont.shx|c128;名称　TITLE}
  0
MTEXT
  5
2A42
330
2A32
100
AcDbEntity
  8
図枠細線
 48
10.0
100
AcDbMText
 10
307.329617114284
 20
21.606206797226
 30
0.0
 40
2.5
 41
24.385612216707
 71
     1
 72
     5
  1
{\Fmonotxt.shx,bigfont.shx|c128;図面番号\PDRG.　No.}
  0
MTEXT
  5
2A43
330
2A32
100
AcDbEntity
  8
図枠細線
 48
10.0
100
AcDbMText
 10
173.726349404609
 20
21.73680662198
 30
0.0
 40
2.5
 41
25.735090160813
 71
     1
 72
     5
  1
{\Fmonotxt.shx,bigfont.shx|c128;日付 DATE}
  0
MTEXT
  5
2A44
330
2A32
100
AcDbEntity
  8
図枠細線
 48
10.0
100
AcDbMText
 10
173.48708833982
 20
41.621592044998
 30
0.0
 40
2.5
 41
24.983741184205
 71
     1
 72
     5
  1
{\Fmonotxt.shx,bigfont.shx|c128;製図　DRAWN}
  0
MTEXT
  5
2A45
330
2A32
100
AcDbEntity
  8
図枠細線
 48
10.0
100
AcDbMText
 10
139.28009927741
 20
21.866713069868
 30
0.0
 40
2.5
 41
22.629632913243
 71
     1
 72
     5
  1
{\Fmonotxt.shx,bigfont.shx|c128;尺度　SCALE}
  0
MTEXT
  5
2A46
330
2A32
100
AcDbEntity
  8
図枠細線
 48
10.0
100
AcDbMText
 10
139.910091179835
 20
41.311840415554
 30
0.0
 40
2.5
 41
28.998753428368
 71
     1
 72
     5
  1
{\Fmonotxt.shx,bigfont.shx|c128;検図  CHECKED}
  0
MTEXT
  5
2A47
330
2A32
100
AcDbEntity
  8
図枠細線
 48
10.0
100
AcDbMText
 10
114.253294667728
 20
21.916124850174
 30
0.0
 40
3.0
 41
19.692400475383
 71
     1
 72
     5
  1
{\Fmonotxt.shx,bigfont.shx|c128;第三角法}
  0
MTEXT
  5
2A48
330
2A32
100
AcDbEntity
  8
図枠細線
 48
10.0
100
AcDbMText
 10
108.986959929915
 20
15.282880185837
 30
0.0
 40
2.5
 41
27.954882823547
 71
     1
 72
     5
  1
{\Fmonotxt.shx,bigfont.shx|c128;THIRD ANGLE\PPROJECTION}
  0
MTEXT
  5
2A49
330
2A32
100
AcDbEntity
  8
図枠細線
 48
10.0
100
AcDbMText
 10
106.319432640184
 20
41.511437145487
 30
0.0
 40
2.5
 41
28.233595265074
 71
     1
 72
     5
  1
{\Fmonotxt.shx,bigfont.shx|c128;承認 APPROVED}
  0
LINE
  5
2A4A
330
2A32
100
AcDbEntity
  8
図枠太線
  6
CONTINUOUS
 62
   251
100
AcDbLine
 10
5.098414535793
 20
3.525959753527
 30
0.0
 11
405.098414535793
 21
3.525959753527
 31
0.0
  0
LINE
  5
2A4B
330
2A32
100
AcDbEntity
  8
図枠太線
 48
10.0
100
AcDbLine
 10
5.098414535793
 20
3.525959753527
 30
0.0
 11
5.098414535793
 21
43.525959753527
 31
0.0
  0
LINE
  5
2A4C
330
2A32
100
AcDbEntity
  8
図枠太線
  6
CONTINUOUS
 62
   251
100
AcDbLine
 10
105.098414535793
 20
3.525959753527
 30
0.0
 11
105.098414535793
 21
43.525959753527
 31
0.0
  0
LINE
  5
2A4D
330
2A32
100
AcDbEntity
  8
図枠細線
  6
CONTINUOUS
 62
   252
100
AcDbLine
 10
138.398414535793
 20
3.525959753527
 30
0.0
 11
138.398414535793
 21
18.525957753527
 31
0.0
  0
LINE
  5
2A4E
330
2A32
100
AcDbEntity
  8
図枠細線
  6
CONTINUOUS
 62
   252
100
AcDbLine
 10
171.698414535793
 20
3.525959753527
 30
0.0
 11
171.698414535793
 21
18.525957753527
 31
0.0
  0
LINE
  5
2A4F
330
2A32
100
AcDbEntity
  8
図枠太線
  6
CONTINUOUS
 62
   251
100
AcDbLine
 10
205.098414535793
 20
3.525959753527
 30
0.0
 11
205.098414535793
 21
43.525959753527
 31
0.0
  0
LINE
  5
2A50
330
2A32
100
AcDbEntity
  8
図枠太線
 48
10.0
100
AcDbLine
 10
405.098414535793
 20
43.525959753527
 30
0.0
 11
405.098414535793
 21
3.525959753527
 31
0.0
  0
TEXT
  5
2A51
330
2A32
100
AcDbEntity
  8
図枠細線
  6
CONTINUOUS
 62
   252
100
AcDbText
 10
208.519754474572
 20
6.482358407285
 30
0.0
 40
3.5
  1
ＴＯＷＡ　ＳＥＩＤＥＮ　ＩＮＤＵＳＴＲＩＡＬ　ＣＯ．，ＬＴＤ．
 41
0.746656297509
  7
EXCADSTD
 72
     5
 11
303.295327171727
 21
6.482358407285
 31
0.0
100
AcDbText
  0
LINE
  5
2A52
330
2A32
100
AcDbEntity
  8
図枠太線
  6
CONTINUOUS
 62
   251
100
AcDbLine
 10
305.098414535793
 20
3.525959753527
 30
0.0
 11
305.098414535793
 21
43.525959753527
 31
0.0
  0
ENDBLK
  5
2A53
330
2A32
100
AcDbEntity
  8
0
100
AcDbBlockEnd
  0
BLOCK
  5
2AF8
330
2AF4
100
AcDbEntity
  8
0
 48
10.0
100
AcDbBlockBegin
  2
_OPEN30
 70
     0
 10
0.0
 20
0.0
 30
0.0
  3
_OPEN30
  1
_OPEN30
  0
LINE
  5
2AF5
330
2AF4
100
AcDbEntity
  8
0
  6
BYBLOCK
 62
     0
100
AcDbLine
 10
-1.0
 20
0.26794919
 30
0.0
 11
0.0
 21
0.0
 31
0.0
  0
LINE
  5
2AF6
330
2AF4
100
AcDbEntity
  8
0
  6
BYBLOCK
 62
     0
100
AcDbLine
 10
0.0
 20
0.0
 30
0.0
 11
-1.0
 21
-0.26794919
 31
0.0
  0
LINE
  5
2AF7
330
2AF4
100
AcDbEntity
  8
0
  6
BYBLOCK
 62
     0
100
AcDbLine
 10
0.0
 20
0.0
 30
0.0
 11
-1.0
 21
0.0
 31
0.0
  0
ENDBLK
  5
2AF9
330
2AF4
100
AcDbEntity
  8
0
 48
10.0
100
AcDbBlockEnd
  0
BLOCK
  5
2F2B
330
2F2A
100
AcDbEntity
  8
0
 48
10.0
100
AcDbBlockBegin
  2
A$C5F435AFC
 70
     0
 10
0.0
 20
0.0
 30
0.0
  3
A$C5F435AFC
  1
A$C5F435AFC
  0
LINE
  5
2F2C
330
2F2A
100
AcDbEntity
  8
外形線
 48
10.0
100
AcDbLine
 10
48.799987606332
 20
59.999999460263
 30
0.0
 11
48.799987606332
 21
35.999999460263
 31
0.0
  0
LINE
  5
2F2D
330
2F2A
100
AcDbEntity
  8
中心線
 48
10.0
100
AcDbLine
 10
22.999999606332
 20
53.999999460263
 30
0.0
 11
22.999999606332
 21
41.999999460263
 31
0.0
  0
LINE
  5
2F2E
330
2F2A
100
AcDbEntity
  8
中心線
 48
10.0
100
AcDbLine
 10
10.999999606332
 20
53.999999460263
 30
0.0
 11
10.999999606332
 21
41.999999460263
 31
0.0
  0
CIRCLE
  5
2F2F
330
2F2A
100
AcDbEntity
  8
外形線
100
AcDbCircle
 10
22.999999606332
 20
47.999999460263
 30
0.0
 40
2.4
  0
CIRCLE
  5
2F30
330
2F2A
100
AcDbEntity
  8
外形線
100
AcDbCircle
 10
10.999999606332
 20
47.999999460263
 30
0.0
 40
2.4
  0
LINE
  5
2F31
330
2F2A
100
AcDbEntity
  8
外形線
100
AcDbLine
 10
3.999999606332
 20
57.399993460263
 30
0.0
 11
3.999999606332
 21
47.999999460263
 31
0.0
  0
LINE
  5
2F32
330
2F2A
100
AcDbEntity
  8
外形線
100
AcDbLine
 10
48.799987606332
 20
59.999999460263
 30
0.0
 11
7.399993606332
 21
59.999999460263
 31
0.0
  0
LINE
  5
2F33
330
2F2A
100
AcDbEntity
  8
細線
100
AcDbLine
 10
5.991119606332
 20
53.999999460263
 30
0.0
 11
48.799987606332
 21
53.999999460263
 31
0.0
  0
LINE
  5
2F34
330
2F2A
100
AcDbEntity
  8
外形線
100
AcDbLine
 10
3.999999606332
 20
57.399993460263
 30
0.0
 11
7.399993606332
 21
59.999999460263
 31
0.0
  0
LINE
  5
2F35
330
2F2A
100
AcDbEntity
  8
外形線
100
AcDbLine
 10
-0.000000393668
 20
59.999999460263
 30
0.0
 11
7.399993606332
 21
59.999999460263
 31
0.0
  0
ARC
  5
2F36
330
2F2A
100
AcDbEntity
  8
細線
100
AcDbCircle
 10
7.751899987068
 20
57.314177090845
 30
0.0
 40
3.75288168161888
100
AcDbArc
 50
178.689715050974
 51
242.018860308436
  0
LINE
  5
2F37
330
2F2A
100
AcDbEntity
  8
外形線
100
AcDbLine
 10
48.799987606332
 20
35.999999460263
 30
0.0
 11
7.399993606332
 21
35.999999460263
 31
0.0
  0
LINE
  5
2F38
330
2F2A
100
AcDbEntity
  8
外形線
100
AcDbLine
 10
3.999999606332
 20
38.600005460263
 30
0.0
 11
3.999999606332
 21
47.999999460263
 31
0.0
  0
LINE
  5
2F39
330
2F2A
100
AcDbEntity
  8
細線
100
AcDbLine
 10
5.991119606332
 20
41.999999460263
 30
0.0
 11
48.799987606332
 21
41.999999460263
 31
0.0
  0
LINE
  5
2F3A
330
2F2A
100
AcDbEntity
  8
外形線
100
AcDbLine
 10
3.999999606332
 20
38.600005460263
 30
0.0
 11
7.399993606332
 21
35.999999460263
 31
0.0
  0
ARC
  5
2F3B
330
2F2A
100
AcDbEntity
  8
細線
100
AcDbCircle
 10
14.035697820002
 20
47.999999460263
 30
0.0
 40
10.03569821366904
100
AcDbArc
 50
143.282806020859
 51
216.717193979141
  0
ARC
  5
2F3C
330
2F2A
100
AcDbEntity
  8
細線
100
AcDbCircle
 10
7.751899987068
 20
38.685821829683
 30
0.0
 40
3.75288168161888
100
AcDbArc
 50
117.981139691564
 51
181.310284949026
  0
LINE
  5
2F3D
330
2F2A
100
AcDbEntity
  8
外形線
100
AcDbLine
 10
-0.000000393668
 20
-0.000000539737
 30
0.0
 11
29.999999606332
 21
-0.000000539737
 31
0.0
  0
LINE
  5
2F3E
330
2F2A
100
AcDbEntity
  8
外形線
100
AcDbLine
 10
-0.000000393668
 20
59.999999460263
 30
0.0
 11
-0.000000393668
 21
-0.000000539737
 31
0.0
  0
LINE
  5
2F3F
330
2F2A
100
AcDbEntity
  8
外形線
100
AcDbLine
 10
29.999999606332
 20
-0.000000539737
 30
0.0
 11
29.999999606332
 21
35.999999460263
 31
0.0
  0
ENDBLK
  5
2F40
330
2F2A
100
AcDbEntity
  8
0
 48
10.0
100
AcDbBlockEnd
  0
BLOCK
  5
2F6D
330
2F6C
100
AcDbEntity
  8
0
 48
10.0
100
AcDbBlockBegin
  2
A$C2AA85C5D
 70
     0
 10
0.0
 20
0.0
 30
0.0
  3
A$C2AA85C5D
  1
A$C2AA85C5D
  0
LINE
  5
2F6E
330
2F6C
100
AcDbEntity
  8
外形線
100
AcDbLine
 10
10.570220168629
 20
59.914734238971
 30
0.0
 11
13.49823016863
 21
59.914734238971
 31
0.0
  0
LINE
  5
2F6F
330
2F6C
100
AcDbEntity
  8
外形線
100
AcDbLine
 10
13.49823016863
 20
59.133972238971
 30
0.0
 11
22.390532168629
 21
54.000000238971
 31
0.0
  0
LINE
  5
2F70
330
2F6C
100
AcDbEntity
  8
外形線
100
AcDbLine
 10
10.49823016863
 20
59.133972238971
 30
0.0
 11
1.60592616863
 21
54.000000238971
 31
0.0
  0
LINE
  5
2F71
330
2F6C
100
AcDbEntity
  8
外形線
100
AcDbLine
 10
1.60592616863
 20
42.000000238971
 30
0.0
 11
1.60592616863
 21
54.000000238971
 31
0.0
  0
LINE
  5
2F72
330
2F6C
100
AcDbEntity
  8
外形線
100
AcDbLine
 10
10.49823016863
 20
36.866028238971
 30
0.0
 11
1.60592616863
 21
42.000000238971
 31
0.0
  0
ARC
  5
2F73
330
2F6C
100
AcDbEntity
  8
細線
100
AcDbCircle
 10
11.99823016863
 20
48.000000238971
 30
0.0
 40
10.392304
100
AcDbArc
 50
98.298931163823
 51
261.701051236085
  0
LINE
  5
2F74
330
2F6C
100
AcDbEntity
  8
外形線
100
AcDbLine
 10
22.390532168629
 20
54.000000238971
 30
0.0
 11
22.390532168629
 21
42.000000238971
 31
0.0
  0
LINE
  5
2F75
330
2F6C
100
AcDbEntity
  8
外形線
100
AcDbLine
 10
13.49823016863
 20
36.866058238971
 30
0.0
 11
22.390532168629
 21
42.000000238971
 31
0.0
  0
ARC
  5
2F76
330
2F6C
100
AcDbEntity
  8
細線
100
AcDbCircle
 10
11.99823016863
 20
48.000000238971
 30
0.0
 40
12.0
100
AcDbArc
 50
277.180766578687
 51
261.701051236085
  0
ARC
  5
2F77
330
2F6C
100
AcDbEntity
  8
細線
100
AcDbCircle
 10
11.99823016863
 20
48.000000238971
 30
0.0
 40
10.392304
100
AcDbArc
 50
278.298951011672
 51
81.701088684012
  0
LINE
  5
2F78
330
2F6C
100
AcDbEntity
  8
外形線
100
AcDbLine
 10
10.49823016863
 20
0.000000238971
 30
0.0
 11
13.49823016863
 21
0.000000238971
 31
0.0
  0
LINE
  5
2F79
330
2F6C
100
AcDbEntity
  8
外形線
100
AcDbLine
 10
10.49823016863
 20
59.914734238971
 30
0.0
 11
10.49823016863
 21
0.000000238971
 31
0.0
  0
LINE
  5
2F7A
330
2F6C
100
AcDbEntity
  8
外形線
100
AcDbLine
 10
13.49823016863
 20
59.914734238971
 30
0.0
 11
13.49823016863
 21
0.000000238971
 31
0.0
  0
ENDBLK
  5
2F7B
330
2F6C
100
AcDbEntity
  8
0
 48
10.0
100
AcDbBlockEnd
  0
BLOCK
  5
2FFD
330
2FF1
100
AcDbEntity
  8
0
 48
10.0
100
AcDbBlockBegin
  2
*D4
 70
     1
 10
0.0
 20
0.0
 30
0.0
  3
*D4
  1
*D4
  0
LINE
  5
3F49
330
2FF1
100
AcDbEntity
  8
寸法線
 62
     0
 48
10.0
100
AcDbLine
 10
39.507368903357
 20
329.532836855459
 30
0.0
 11
39.507368903357
 21
330.157836855459
 31
0.0
  0
LINE
  5
3F4A
330
2FF1
100
AcDbEntity
  8
寸法線
 62
     0
 48
10.0
100
AcDbLine
 10
42.507368903357
 20
329.532836855459
 30
0.0
 11
42.507368903357
 21
330.157836855459
 31
0.0
  0
LINE
  5
3F4B
330
2FF1
100
AcDbEntity
  8
寸法線
 62
     0
 48
10.0
100
AcDbLine
 10
33.507368903357
 20
328.907836855459
 30
0.0
 11
27.507368903357
 21
328.907836855459
 31
0.0
  0
LINE
  5
3F4C
330
2FF1
100
AcDbEntity
  8
寸法線
 62
     0
 48
10.0
100
AcDbLine
 10
48.507368903357
 20
328.907836855459
 30
0.0
 11
59.288739753255
 21
328.907836855459
 31
0.0
  0
LINE
  5
3F4D
330
2FF1
100
AcDbEntity
  8
寸法線
 62
     0
 48
10.0
100
AcDbLine
 10
39.507368903357
 20
328.907836855459
 30
0.0
 11
42.507368903357
 21
328.907836855459
 31
0.0
  0
INSERT
  5
3F4E
330
2FF1
100
AcDbEntity
  8
寸法線
 62
     0
 48
10.0
100
AcDbBlockReference
  2
_OPEN30
 10
39.507368903357
 20
328.907836855459
 30
0.0
 41
6.0
 42
6.0
 43
6.0
  0
INSERT
  5
3F4F
330
2FF1
100
AcDbEntity
  8
寸法線
 62
     0
 48
10.0
100
AcDbBlockReference
  2
_OPEN30
 10
42.507368903357
 20
328.907836855459
 30
0.0
 41
6.0
 42
6.0
 43
6.0
 50
180.0
  0
MTEXT
  5
3F50
330
2FF1
100
AcDbEntity
  8
寸法線
 62
     0
 48
10.0
100
AcDbMText
 10
56.898054328306
 20
333.532836855459
 30
0.0
 40
8.0
 41
0.0
 71
     5
 72
     1
  1
\A1;3
  0
POINT
  5
3F51
330
2FF1
100
AcDbEntity
  8
DEFPOINTS
 62
     0
 48
10.0
100
AcDbPoint
 10
39.507368903357
 20
328.907836855459
 30
0.0
  0
POINT
  5
3F52
330
2FF1
100
AcDbEntity
  8
DEFPOINTS
 62
     0
 48
10.0
100
AcDbPoint
 10
42.507368903357
 20
328.907836855459
 30
0.0
  0
POINT
  5
3F53
330
2FF1
100
AcDbEntity
  8
DEFPOINTS
 62
     0
 48
10.0
100
AcDbPoint
 10
42.507368903357
 20
328.907836855459
 30
0.0
  0
ENDBLK
  5
2FFE
330
2FF1
100
AcDbEntity
  8
0
 48
10.0
100
AcDbBlockEnd
  0
BLOCK
  5
3225
330
321B
100
AcDbEntity
  8
0
 48
10.0
100
AcDbBlockBegin
  2
*D6
 70
     1
 10
0.0
 20
0.0
 30
0.0
  3
*D6
  1
*D6
  0
LINE
  5
3F40
330
321B
100
AcDbEntity
  8
寸法線
 62
     0
 48
10.0
100
AcDbLine
 10
-35.304676669523
 20
351.451983123581
 30
0.0
 11
-35.186922488833
 21
350.755278293911
 31
0.0
  0
LINE
  5
3F41
330
321B
100
AcDbEntity
  8
寸法線
 62
     0
 48
10.0
100
AcDbLine
 10
117.52774511199
 20
377.28308955969
 30
0.0
 11
117.64549929268
 21
376.586384730021
 31
0.0
  0
LINE
  5
3F42
330
321B
100
AcDbEntity
  8
寸法線
 62
     0
 48
10.0
100
AcDbLine
 10
-29.479143547622
 20
352.987711844605
 30
0.0
 11
111.521089560943
 21
376.818990486191
 31
0.0
  0
INSERT
  5
3F43
330
321B
100
AcDbEntity
  8
寸法線
 62
     0
 48
10.0
100
AcDbBlockReference
  2
_OPEN30
 10
-35.395237884096
 20
351.987797947344
 30
0.0
 41
6.0
 42
6.0
 43
6.0
 50
189.593234344017
  0
INSERT
  5
3F44
330
321B
100
AcDbEntity
  8
寸法線
 62
     0
 48
10.0
100
AcDbBlockReference
  2
_OPEN30
 10
117.437183897417
 20
377.818904383453
 30
0.0
 41
6.0
 42
6.0
 43
6.0
 50
9.593234344017
  0
MTEXT
  5
3F45
330
321B
100
AcDbEntity
  8
寸法線
 62
     0
 48
10.0
100
AcDbMText
 10
86.560438161058
 20
377.290838570718
 30
0.0
 40
8.0
 41
0.0
 71
     5
 72
     1
  1
\A1;φ155
 11
0.9860157227457056
 21
0.1666523162103192
 31
0.0
  0
POINT
  5
3F46
330
321B
100
AcDbEntity
  8
DEFPOINTS
 62
     0
 48
10.0
100
AcDbPoint
 10
-35.408834367155
 20
352.068242950297
 30
0.0
  0
POINT
  5
3F47
330
321B
100
AcDbEntity
  8
DEFPOINTS
 62
     0
 48
10.0
100
AcDbPoint
 10
117.423587414359
 20
377.899349386406
 30
0.0
  0
POINT
  5
3F48
330
321B
100
AcDbEntity
  8
DEFPOINTS
 62
     0
 48
10.0
100
AcDbPoint
 10
117.437183897417
 20
377.818904383453
 30
0.0
  0
ENDBLK
  5
3226
330
321B
100
AcDbEntity
  8
0
 48
10.0
100
AcDbBlockEnd
  0
BLOCK
  5
3260
330
3256
100
AcDbEntity
  8
0
 48
10.0
100
AcDbBlockBegin
  2
*D7
 70
     1
 10
0.0
 20
0.0
 30
0.0
  3
*D7
  1
*D7
  0
LINE
  5
3F37
330
3256
100
AcDbEntity
  8
寸法線
 62
     0
 48
10.0
100
AcDbLine
 10
216.298712033145
 20
376.983794869517
 30
0.0
 11
196.033170277499
 21
376.983794869517
 31
0.0
  0
LINE
  5
3F38
330
3256
100
AcDbEntity
  8
寸法線
 62
     0
 48
10.0
100
AcDbLine
 10
216.298712033145
 20
316.983794869517
 30
0.0
 11
196.033170277499
 21
316.983794869517
 31
0.0
  0
LINE
  5
3F39
330
3256
100
AcDbEntity
  8
寸法線
 62
     0
 48
10.0
100
AcDbLine
 10
197.283170277499
 20
370.983794869517
 30
0.0
 11
197.283170277499
 21
322.983794869517
 31
0.0
  0
INSERT
  5
3F3A
330
3256
100
AcDbEntity
  8
寸法線
 62
     0
 48
10.0
100
AcDbBlockReference
  2
_OPEN30
 10
197.283170277499
 20
376.983794869517
 30
0.0
 41
6.0
 42
6.0
 43
6.0
 50
90.0
  0
INSERT
  5
3F3B
330
3256
100
AcDbEntity
  8
寸法線
 62
     0
 48
10.0
100
AcDbBlockReference
  2
_OPEN30
 10
197.283170277499
 20
316.983794869517
 30
0.0
 41
6.0
 42
6.0
 43
6.0
 50
270.0
  0
MTEXT
  5
3F3C
330
3256
100
AcDbEntity
  8
寸法線
 62
     0
 48
10.0
100
AcDbMText
 10
192.658170277499
 20
346.983794869517
 30
0.0
 40
8.0
 41
0.0
 71
     5
 72
     1
  1
\A1;60
 11
6.123031769111886E-17
 21
1.0
 31
0.0
  0
POINT
  5
3F3D
330
3256
100
AcDbEntity
  8
DEFPOINTS
 62
     0
 48
10.0
100
AcDbPoint
 10
216.923712033145
 20
376.983794869517
 30
0.0
  0
POINT
  5
3F3E
330
3256
100
AcDbEntity
  8
DEFPOINTS
 62
     0
 48
10.0
100
AcDbPoint
 10
216.923712033145
 20
316.983794869517
 30
0.0
  0
POINT
  5
3F3F
330
3256
100
AcDbEntity
  8
DEFPOINTS
 62
     0
 48
10.0
100
AcDbPoint
 10
197.283170277499
 20
316.983794869517
 30
0.0
  0
ENDBLK
  5
3261
330
3256
100
AcDbEntity
  8
0
 48
10.0
100
AcDbBlockEnd
  0
BLOCK
  5
326D
330
3263
100
AcDbEntity
  8
0
 48
10.0
100
AcDbBlockBegin
  2
*D8
 70
     1
 10
0.0
 20
0.0
 30
0.0
  3
*D8
  1
*D8
  0
LINE
  5
3F2E
330
3263
100
AcDbEntity
  8
寸法線
 62
     0
 48
10.0
100
AcDbLine
 10
216.923712033145
 20
316.358794869517
 30
0.0
 11
216.923712033145
 21
296.255671747303
 31
0.0
  0
LINE
  5
3F2F
330
3263
100
AcDbEntity
  8
寸法線
 62
     0
 48
10.0
100
AcDbLine
 10
246.923712033145
 20
316.358794869517
 30
0.0
 11
246.923712033145
 21
296.255671747303
 31
0.0
  0
LINE
  5
3F30
330
3263
100
AcDbEntity
  8
寸法線
 62
     0
 48
10.0
100
AcDbLine
 10
222.923712033145
 20
297.505671747303
 30
0.0
 11
240.923712033145
 21
297.505671747303
 31
0.0
  0
INSERT
  5
3F31
330
3263
100
AcDbEntity
  8
寸法線
 62
     0
 48
10.0
100
AcDbBlockReference
  2
_OPEN30
 10
216.923712033145
 20
297.505671747303
 30
0.0
 41
6.0
 42
6.0
 43
6.0
 50
180.0
  0
INSERT
  5
3F32
330
3263
100
AcDbEntity
  8
寸法線
 62
     0
 48
10.0
100
AcDbBlockReference
  2
_OPEN30
 10
246.923712033145
 20
297.505671747303
 30
0.0
 41
6.0
 42
6.0
 43
6.0
  0
MTEXT
  5
3F33
330
3263
100
AcDbEntity
  8
寸法線
 62
     0
 48
10.0
100
AcDbMText
 10
231.923712033145
 20
302.130671747303
 30
0.0
 40
8.0
 41
0.0
 71
     5
 72
     1
  1
\A1;30
  0
POINT
  5
3F34
330
3263
100
AcDbEntity
  8
DEFPOINTS
 62
     0
 48
10.0
100
AcDbPoint
 10
216.923712033145
 20
316.983794869517
 30
0.0
  0
POINT
  5
3F35
330
3263
100
AcDbEntity
  8
DEFPOINTS
 62
     0
 48
10.0
100
AcDbPoint
 10
246.923712033145
 20
316.983794869517
 30
0.0
  0
POINT
  5
3F36
330
3263
100
AcDbEntity
  8
DEFPOINTS
 62
     0
 48
10.0
100
AcDbPoint
 10
246.923712033145
 20
297.505671747303
 30
0.0
  0
ENDBLK
  5
326E
330
3263
100
AcDbEntity
  8
0
 48
10.0
100
AcDbBlockEnd
  0
BLOCK
  5
3285
330
3279
100
AcDbEntity
  8
0
 48
10.0
100
AcDbBlockBegin
  2
*D9
 70
     1
 10
0.0
 20
0.0
 30
0.0
  3
*D9
  1
*D9
  0
LINE
  5
3F23
330
3279
100
AcDbEntity
  8
寸法線
 62
     0
 48
10.0
100
AcDbLine
 10
366.923712033145
 20
287.266876869517
 30
0.0
 11
366.923712033145
 21
262.710603087358
 31
0.0
  0
LINE
  5
3F24
330
3279
100
AcDbEntity
  8
寸法線
 62
     0
 48
10.0
100
AcDbLine
 10
378.923712033145
 20
287.266876869517
 30
0.0
 11
378.923712033145
 21
262.710603087358
 31
0.0
  0
LINE
  5
3F25
330
3279
100
AcDbEntity
  8
寸法線
 62
     0
 48
10.0
100
AcDbLine
 10
360.923712033145
 20
263.960603087358
 30
0.0
 11
354.923712033145
 21
263.960603087358
 31
0.0
  0
LINE
  5
3F26
330
3279
100
AcDbEntity
  8
寸法線
 62
     0
 48
10.0
100
AcDbLine
 10
384.923712033145
 20
263.960603087358
 30
0.0
 11
390.923712033145
 21
263.960603087358
 31
0.0
  0
LINE
  5
3F27
330
3279
100
AcDbEntity
  8
寸法線
 62
     0
 48
10.0
100
AcDbLine
 10
366.923712033145
 20
263.960603087358
 30
0.0
 11
378.923712033145
 21
263.960603087358
 31
0.0
  0
INSERT
  5
3F28
330
3279
100
AcDbEntity
  8
寸法線
 62
     0
 48
10.0
100
AcDbBlockReference
  2
_OPEN30
 10
366.923712033145
 20
263.960603087358
 30
0.0
 41
6.0
 42
6.0
 43
6.0
  0
INSERT
  5
3F29
330
3279
100
AcDbEntity
  8
寸法線
 62
     0
 48
10.0
100
AcDbBlockReference
  2
_OPEN30
 10
378.923712033145
 20
263.960603087358
 30
0.0
 41
6.0
 42
6.0
 43
6.0
 50
180.0
  0
MTEXT
  5
3F2A
330
3279
100
AcDbEntity
  8
寸法線
 62
     0
 48
10.0
100
AcDbMText
 10
372.923712033145
 20
268.586390488933
 30
0.0
 40
8.0
 41
0.0
 71
     5
 72
     1
  1
\A1;12
  0
POINT
  5
3F2B
330
3279
100
AcDbEntity
  8
DEFPOINTS
 62
     0
 48
10.0
100
AcDbPoint
 10
366.923712033145
 20
287.891876869517
 30
0.0
  0
POINT
  5
3F2C
330
3279
100
AcDbEntity
  8
DEFPOINTS
 62
     0
 48
10.0
100
AcDbPoint
 10
378.923712033145
 20
287.891876869517
 30
0.0
  0
POINT
  5
3F2D
330
3279
100
AcDbEntity
  8
DEFPOINTS
 62
     0
 48
10.0
100
AcDbPoint
 10
378.923712033145
 20
263.960603087358
 30
0.0
  0
ENDBLK
  5
3286
330
3279
100
AcDbEntity
  8
0
 48
10.0
100
AcDbBlockEnd
  0
BLOCK
  5
32AC
330
32A2
100
AcDbEntity
  8
0
 48
10.0
100
AcDbBlockBegin
  2
*D10
 70
     1
 10
0.0
 20
0.0
 30
0.0
  3
*D10
  1
*D10
  0
LINE
  5
3F1A
330
32A2
100
AcDbEntity
  8
寸法線
 62
     0
 48
10.0
100
AcDbLine
 10
521.923712033145
 20
332.688534899375
 30
0.0
 11
521.923712033145
 21
262.710603087358
 31
0.0
  0
LINE
  5
3F1B
330
32A2
100
AcDbEntity
  8
寸法線
 62
     0
 48
10.0
100
AcDbLine
 10
438.923712033145
 20
284.498523618311
 30
0.0
 11
438.923712033145
 21
262.710603087358
 31
0.0
  0
LINE
  5
3F1C
330
32A2
100
AcDbEntity
  8
寸法線
 62
     0
 48
10.0
100
AcDbLine
 10
515.923712033145
 20
263.960603087358
 30
0.0
 11
444.923712033145
 21
263.960603087358
 31
0.0
  0
INSERT
  5
3F1D
330
32A2
100
AcDbEntity
  8
寸法線
 62
     0
 48
10.0
100
AcDbBlockReference
  2
_OPEN30
 10
521.923712033145
 20
263.960603087358
 30
0.0
 41
6.0
 42
6.0
 43
6.0
  0
INSERT
  5
3F1E
330
32A2
100
AcDbEntity
  8
寸法線
 62
     0
 48
10.0
100
AcDbBlockReference
  2
_OPEN30
 10
438.923712033145
 20
263.960603087358
 30
0.0
 41
6.0
 42
6.0
 43
6.0
 50
180.0
  0
MTEXT
  5
3F1F
330
32A2
100
AcDbEntity
  8
寸法線
 62
     0
 48
10.0
100
AcDbMText
 10
480.423712033145
 20
268.585603087358
 30
0.0
 40
8.0
 41
0.0
 71
     5
 72
     1
  1
\A1;83
  0
POINT
  5
3F20
330
32A2
100
AcDbEntity
  8
DEFPOINTS
 62
     0
 48
10.0
100
AcDbPoint
 10
521.923712033145
 20
333.313534899375
 30
0.0
  0
POINT
  5
3F21
330
32A2
100
AcDbEntity
  8
DEFPOINTS
 62
     0
 48
10.0
100
AcDbPoint
 10
438.923712033145
 20
285.123523618311
 30
0.0
  0
POINT
  5
3F22
330
32A2
100
AcDbEntity
  8
DEFPOINTS
 62
     0
 48
10.0
100
AcDbPoint
 10
438.923712033145
 20
263.960603087358
 30
0.0
  0
ENDBLK
  5
32AD
330
32A2
100
AcDbEntity
  8
0
 48
10.0
100
AcDbBlockEnd
  0
BLOCK
  5
32C2
330
32B8
100
AcDbEntity
  8
0
 48
10.0
100
AcDbBlockBegin
  2
*D11
 70
     1
 10
0.0
 20
0.0
 30
0.0
  3
*D11
  1
*D11
  0
LINE
  5
3F11
330
32B8
100
AcDbEntity
  8
寸法線
 62
     0
 48
10.0
100
AcDbLine
 10
366.923712033145
 20
260.613006168655
 30
0.0
 11
366.923712033145
 21
243.44651086082
 31
0.0
  0
LINE
  5
3F12
330
32B8
100
AcDbEntity
  8
寸法線
 62
     0
 48
10.0
100
AcDbLine
 10
521.923712033145
 20
332.522851246775
 30
0.0
 11
521.923712033145
 21
243.44651086082
 31
0.0
  0
LINE
  5
3F13
330
32B8
100
AcDbEntity
  8
寸法線
 62
     0
 48
10.0
100
AcDbLine
 10
372.923712033145
 20
244.69651086082
 30
0.0
 11
515.923712033145
 21
244.69651086082
 31
0.0
  0
INSERT
  5
3F14
330
32B8
100
AcDbEntity
  8
寸法線
 62
     0
 48
10.0
100
AcDbBlockReference
  2
_OPEN30
 10
366.923712033145
 20
244.69651086082
 30
0.0
 41
6.0
 42
6.0
 43
6.0
 50
180.0
  0
INSERT
  5
3F15
330
32B8
100
AcDbEntity
  8
寸法線
 62
     0
 48
10.0
100
AcDbBlockReference
  2
_OPEN30
 10
521.923712033145
 20
244.69651086082
 30
0.0
 41
6.0
 42
6.0
 43
6.0
  0
MTEXT
  5
3F16
330
32B8
100
AcDbEntity
  8
寸法線
 62
     0
 48
10.0
100
AcDbMText
 10
444.423712033145
 20
249.32151086082
 30
0.0
 40
8.0
 41
0.0
 71
     5
 72
     1
  1
\A1;155
  0
POINT
  5
3F17
330
32B8
100
AcDbEntity
  8
DEFPOINTS
 62
     0
 48
10.0
100
AcDbPoint
 10
366.923712033145
 20
261.238006168655
 30
0.0
  0
POINT
  5
3F18
330
32B8
100
AcDbEntity
  8
DEFPOINTS
 62
     0
 48
10.0
100
AcDbPoint
 10
521.923712033145
 20
333.147851246775
 30
0.0
  0
POINT
  5
3F19
330
32B8
100
AcDbEntity
  8
DEFPOINTS
 62
     0
 48
10.0
100
AcDbPoint
 10
521.923712033145
 20
244.69651086082
 30
0.0
  0
ENDBLK
  5
32C3
330
32B8
100
AcDbEntity
  8
0
 48
10.0
100
AcDbBlockEnd
  0
BLOCK
  5
32D8
330
32CE
100
AcDbEntity
  8
0
 48
10.0
100
AcDbBlockBegin
  2
*D12
 70
     1
 10
0.0
 20
0.0
 30
0.0
  3
*D12
  1
*D12
  0
LINE
  5
3F08
330
32CE
100
AcDbEntity
  8
寸法線
 62
     0
 48
10.0
100
AcDbLine
 10
216.923712033145
 20
301.204449299021
 30
0.0
 11
216.923712033145
 21
243.44651086082
 31
0.0
  0
LINE
  5
3F09
330
32CE
100
AcDbEntity
  8
寸法線
 62
     0
 48
10.0
100
AcDbLine
 10
366.923712033145
 20
265.014836171871
 30
0.0
 11
366.923712033145
 21
243.44651086082
 31
0.0
  0
LINE
  5
3F0A
330
32CE
100
AcDbEntity
  8
寸法線
 62
     0
 48
10.0
100
AcDbLine
 10
222.923712033145
 20
244.69651086082
 30
0.0
 11
360.923712033145
 21
244.69651086082
 31
0.0
  0
INSERT
  5
3F0B
330
32CE
100
AcDbEntity
  8
寸法線
 62
     0
 48
10.0
100
AcDbBlockReference
  2
_OPEN30
 10
216.923712033145
 20
244.69651086082
 30
0.0
 41
6.0
 42
6.0
 43
6.0
 50
180.0
  0
INSERT
  5
3F0C
330
32CE
100
AcDbEntity
  8
寸法線
 62
     0
 48
10.0
100
AcDbBlockReference
  2
_OPEN30
 10
366.923712033145
 20
244.69651086082
 30
0.0
 41
6.0
 42
6.0
 43
6.0
  0
MTEXT
  5
3F0D
330
32CE
100
AcDbEntity
  8
寸法線
 62
     0
 48
10.0
100
AcDbMText
 10
291.923712033145
 20
249.32151086082
 30
0.0
 40
8.0
 41
0.0
 71
     5
 72
     1
  1
\A1;150
  0
POINT
  5
3F0E
330
32CE
100
AcDbEntity
  8
DEFPOINTS
 62
     0
 48
10.0
100
AcDbPoint
 10
216.923712033145
 20
301.829449299021
 30
0.0
  0
POINT
  5
3F0F
330
32CE
100
AcDbEntity
  8
DEFPOINTS
 62
     0
 48
10.0
100
AcDbPoint
 10
366.923712033145
 20
265.639836171871
 30
0.0
  0
POINT
  5
3F10
330
32CE
100
AcDbEntity
  8
DEFPOINTS
 62
     0
 48
10.0
100
AcDbPoint
 10
366.923712033145
 20
244.69651086082
 30
0.0
  0
ENDBLK
  5
32D9
330
32CE
100
AcDbEntity
  8
0
 48
10.0
100
AcDbBlockEnd
  0
BLOCK
  5
3313
330
3309
100
AcDbEntity
  8
0
 48
10.0
100
AcDbBlockBegin
  2
*D13
 70
     1
 10
0.0
 20
0.0
 30
0.0
  3
*D13
  1
*D13
  0
LINE
  5
3EFE
330
3309
100
AcDbEntity
  8
寸法線
 62
     0
 48
10.0
100
AcDbLine
 10
291.748709033145
 20
372.483794869517
 30
0.0
 11
292.426371501862
 21
372.483794869517
 31
0.0
  0
LINE
  5
3EFF
330
3309
100
AcDbEntity
  8
寸法線
 62
     0
 48
10.0
100
AcDbLine
 10
291.748709033145
 20
357.483794869517
 30
0.0
 11
292.426371501862
 21
357.483794869517
 31
0.0
  0
LINE
  5
3F00
330
3309
100
AcDbEntity
  8
寸法線
 62
     0
 48
10.0
100
AcDbLine
 10
291.176371501862
 20
363.483794869517
 30
0.0
 11
291.176371501862
 21
366.483794869517
 31
0.0
  0
LINE
  5
3F01
330
3309
100
AcDbEntity
  8
寸法線
 62
     0
 48
10.0
100
AcDbLine
 10
291.176371501862
 20
372.483794869517
 30
0.0
 11
291.176371501862
 21
396.465165719415
 31
0.0
  0
INSERT
  5
3F02
330
3309
100
AcDbEntity
  8
寸法線
 62
     0
 48
10.0
100
AcDbBlockReference
  2
_OPEN30
 10
291.176371501862
 20
357.483794869517
 30
0.0
 41
6.0
 42
6.0
 43
6.0
 50
270.0
  0
INSERT
  5
3F03
330
3309
100
AcDbEntity
  8
寸法線
 62
     0
 48
10.0
100
AcDbBlockReference
  2
_OPEN30
 10
291.176371501862
 20
372.483794869517
 30
0.0
 41
6.0
 42
6.0
 43
6.0
 50
90.0
  0
MTEXT
  5
3F04
330
3309
100
AcDbEntity
  8
寸法線
 62
     0
 48
10.0
100
AcDbMText
 10
286.551371501862
 20
387.474480294466
 30
0.0
 40
8.0
 41
0.0
 71
     5
 72
     1
  1
\A1;φ15
 11
6.123031769111886E-17
 21
1.0
 31
0.0
  0
POINT
  5
3F05
330
3309
100
AcDbEntity
  8
DEFPOINTS
 62
     0
 48
10.0
100
AcDbPoint
 10
291.123709033145
 20
372.483794869517
 30
0.0
  0
POINT
  5
3F06
330
3309
100
AcDbEntity
  8
DEFPOINTS
 62
     0
 48
10.0
100
AcDbPoint
 10
291.123709033145
 20
357.483794869517
 30
0.0
  0
POINT
  5
3F07
330
3309
100
AcDbEntity
  8
DEFPOINTS
 62
     0
 48
10.0
100
AcDbPoint
 10
291.176371501862
 20
357.483794869517
 30
0.0
  0
ENDBLK
  5
3314
330
3309
100
AcDbEntity
  8
0
 48
10.0
100
AcDbBlockEnd
  0
BLOCK
  5
3376
330
336C
100
AcDbEntity
  8
0
 48
10.0
100
AcDbBlockBegin
  2
*D14
 70
     1
 10
0.0
 20
0.0
 30
0.0
  3
*D14
  1
*D14
  0
LINE
  5
3EF5
330
336C
100
AcDbEntity
  8
寸法線
 62
     0
 48
10.0
100
AcDbLine
 10
478.255866033145
 20
415.983732869517
 30
0.0
 11
548.323422721183
 21
415.983732869517
 31
0.0
  0
LINE
  5
3EF6
330
336C
100
AcDbEntity
  8
寸法線
 62
     0
 48
10.0
100
AcDbLine
 10
478.255866033145
 20
313.983732869517
 30
0.0
 11
548.323422721183
 21
313.983732869517
 31
0.0
  0
LINE
  5
3EF7
330
336C
100
AcDbEntity
  8
寸法線
 62
     0
 48
10.0
100
AcDbLine
 10
547.073422721183
 20
409.983732869517
 30
0.0
 11
547.073422721183
 21
319.983732869517
 31
0.0
  0
INSERT
  5
3EF8
330
336C
100
AcDbEntity
  8
寸法線
 62
     0
 48
10.0
100
AcDbBlockReference
  2
_OPEN30
 10
547.073422721183
 20
415.983732869517
 30
0.0
 41
6.0
 42
6.0
 43
6.0
 50
90.0
  0
INSERT
  5
3EF9
330
336C
100
AcDbEntity
  8
寸法線
 62
     0
 48
10.0
100
AcDbBlockReference
  2
_OPEN30
 10
547.073422721183
 20
313.983732869517
 30
0.0
 41
6.0
 42
6.0
 43
6.0
 50
270.0
  0
MTEXT
  5
3EFA
330
336C
100
AcDbEntity
  8
寸法線
 62
     0
 48
10.0
100
AcDbMText
 10
542.447635319608
 20
365.099251221733
 30
0.0
 40
8.0
 41
0.0
 71
     5
 72
     1
  1
\A1;φ102
 11
6.123031769111886E-17
 21
1.0
 31
0.0
  0
POINT
  5
3EFB
330
336C
100
AcDbEntity
  8
DEFPOINTS
 62
     0
 48
10.0
100
AcDbPoint
 10
477.630866033145
 20
415.983732869517
 30
0.0
  0
POINT
  5
3EFC
330
336C
100
AcDbEntity
  8
DEFPOINTS
 62
     0
 48
10.0
100
AcDbPoint
 10
477.630866033145
 20
313.983732869517
 30
0.0
  0
POINT
  5
3EFD
330
336C
100
AcDbEntity
  8
DEFPOINTS
 62
     0
 48
10.0
100
AcDbPoint
 10
547.073422721183
 20
313.983732869517
 30
0.0
  0
ENDBLK
  5
3377
330
336C
100
AcDbEntity
  8
0
 48
10.0
100
AcDbBlockEnd
  0
BLOCK
  5
3397
330
3396
100
AcDbEntity
  8
0
 48
10.0
100
AcDbBlockBegin
  2
ケース外形図_PRL-500
 70
     0
 10
0.0
 20
0.0
 30
0.0
  3
ケース外形図_PRL-500
  1
ケース外形図_PRL-500
  0
LINE
  5
3398
330
3396
100
AcDbEntity
  8
外形線
100
AcDbLine
 10
-3001.76499475267
 20
831.682030263293
 30
0.0
 11
-3018.16502075267
 21
831.682030263293
 31
0.0
  0
LINE
  5
3399
330
3396
100
AcDbEntity
  8
外形線
100
AcDbLine
 10
-3001.76499475267
 20
761.682092263293
 30
0.0
 11
-3018.16502075267
 21
761.682092263293
 31
0.0
  0
LINE
  5
339A
330
3396
100
AcDbEntity
  8
外形線
100
AcDbLine
 10
-3032.16502075267
 20
719.182092263293
 30
0.0
 11
-3032.16502075267
 21
874.182092263293
 31
0.0
  0
LINE
  5
339B
330
3396
100
AcDbEntity
  8
外形線
100
AcDbLine
 10
-3020.16502075267
 20
874.182092263293
 30
0.0
 11
-3020.16502075267
 21
719.182092263293
 31
0.0
  0
LINE
  5
339C
330
3396
100
AcDbEntity
  8
中心線
 48
10.0
100
AcDbLine
 10
-3041.179224752669
 20
731.682092263293
 30
0.0
 11
-3012.77922475267
 21
731.682092263293
 31
0.0
  0
LINE
  5
339D
330
3396
100
AcDbEntity
  8
外形線
100
AcDbLine
 10
-3032.16502075267
 20
719.182092263293
 30
0.0
 11
-3020.16502075267
 21
719.182092263293
 31
0.0
  0
ARC
  5
339E
330
3396
100
AcDbEntity
  8
外形線
100
AcDbCircle
 10
-3018.16502075267
 20
759.682092263293
 30
0.0
 40
2.0
100
AcDbArc
 50
89.999981276034
 51
180.000019847843
  0
LINE
  5
339F
330
3396
100
AcDbEntity
  8
外形線
100
AcDbLine
 10
-3032.16502075267
 20
772.382104263293
 30
0.0
 11
-3057.941634929785
 21
772.382104263293
 31
0.0
  0
LINE
  5
33A0
330
3396
100
AcDbEntity
  8
外形線
100
AcDbLine
 10
-3032.16502075267
 20
820.982080263293
 30
0.0
 11
-3057.941634929785
 21
820.982080263293
 31
0.0
  0
ARC
  5
33A1
330
3396
100
AcDbEntity
  8
外形線
100
AcDbCircle
 10
-3018.16502075267
 20
833.682030263293
 30
0.0
 40
2.0
100
AcDbArc
 50
180.000019847843
 51
270.0
  0
LINE
  5
33A2
330
3396
100
AcDbEntity
  8
中心線
 48
10.0
100
AcDbLine
 10
-3041.179224752669
 20
861.682092263293
 30
0.0
 11
-3012.77922475267
 21
861.682092263293
 31
0.0
  0
LINE
  5
33A3
330
3396
100
AcDbEntity
  8
外形線
100
AcDbLine
 10
-3032.16502075267
 20
874.182092263293
 30
0.0
 11
-3020.16502075267
 21
874.182092263293
 31
0.0
  0
ARC
  5
33A4
330
3396
100
AcDbEntity
  8
外形線
100
AcDbCircle
 10
-2879.189068752669
 20
802.679652263293
 30
0.0
 40
1.9992
100
AcDbArc
 50
270.0
 51
359.999982399908
  0
ARC
  5
33A5
330
3396
100
AcDbEntity
  8
外形線
100
AcDbCircle
 10
-2884.745830752669
 20
798.534998263293
 30
0.0
 40
2.15556
100
AcDbArc
 50
95.512637406103
 51
178.089033713743
  0
LINE
  5
33A6
330
3396
100
AcDbEntity
  8
外形線
100
AcDbLine
 10
-2886.90025075267
 20
796.682092263293
 30
0.0
 11
-2886.90025075267
 21
839.170496263293
 31
0.0
  0
ARC
  5
33A7
330
3396
100
AcDbEntity
  8
外形線
100
AcDbCircle
 10
-2922.74497675267
 20
796.099696263293
 30
0.0
 40
5.033766
100
AcDbArc
 50
6.644133183896
 51
75.18472508844
  0
LINE
  5
33A8
330
3396
100
AcDbEntity
  8
細線
100
AcDbLine
 10
-2995.56504475267
 20
819.473412263293
 30
0.0
 11
-2995.56504475267
 21
773.890770263293
 31
0.0
  0
LINE
  5
33A9
330
3396
100
AcDbEntity
  8
細線
100
AcDbLine
 10
-3001.76499475267
 20
831.682030263293
 30
0.0
 11
-3001.76499475267
 21
761.682092263293
 31
0.0
  0
LINE
  5
33AA
330
3396
100
AcDbEntity
  8
細線
100
AcDbLine
 10
-2917.74509875267
 20
845.234094263293
 30
0.0
 11
-2917.74509875267
 21
748.130090263293
 31
0.0
  0
LINE
  5
33AB
330
3396
100
AcDbEntity
  8
細線
100
AcDbLine
 10
-2946.30503475267
 20
842.378138263293
 30
0.0
 11
-2946.30503475267
 21
753.674402263293
 31
0.0
  0
LINE
  5
33AC
330
3396
100
AcDbEntity
  8
細線
100
AcDbLine
 10
-2943.449078752669
 20
847.682092263293
 30
0.0
 11
-2943.449078752669
 21
745.682092263293
 31
0.0
  0
LINE
  5
33AD
330
3396
100
AcDbEntity
  8
細線
100
AcDbLine
 10
-2984.76499475267
 20
835.809228263293
 30
0.0
 11
-2984.76499475267
 21
757.554894263293
 31
0.0
  0
LINE
  5
33AE
330
3396
100
AcDbEntity
  8
外形線
100
AcDbLine
 10
-3000.16502075267
 20
830.010888263293
 30
0.0
 11
-3000.16502075267
 21
763.353296263293
 31
0.0
  0
LINE
  5
33AF
330
3396
100
AcDbEntity
  8
外形線
100
AcDbLine
 10
-2939.16502075267
 20
847.682092263293
 30
0.0
 11
-2939.16502075267
 21
745.682092263293
 31
0.0
  0
LINE
  5
33B0
330
3396
100
AcDbEntity
  8
外形線
100
AcDbLine
 10
-2937.16587475267
 20
745.682092263293
 30
0.0
 11
-2937.16587475267
 21
847.682092263293
 31
0.0
  0
LINE
  5
33B1
330
3396
100
AcDbEntity
  8
外形線
100
AcDbLine
 10
-2917.74509875267
 20
748.130090263293
 30
0.0
 11
-2891.53086475267
 21
749.343776263293
 31
0.0
  0
LINE
  5
33B2
330
3396
100
AcDbEntity
  8
外形線
100
AcDbLine
 10
-2944.518247342078
 20
744.813986102469
 30
0.0
 11
-2946.12632884255
 21
732.728258178587
 31
0.0
  0
LINE
  5
33B3
330
3396
100
AcDbEntity
  8
外形線
100
AcDbLine
 10
-2976.42783675267
 20
750.215296263293
 30
0.0
 11
-2974.19273075267
 21
732.742578263293
 31
0.0
  0
LINE
  5
33B4
330
3396
100
AcDbEntity
  8
中心線
 48
10.0
100
AcDbLine
 10
-2960.16502075267
 20
767.062140263293
 30
0.0
 11
-2960.16502075267
 21
714.738978263293
 31
0.0
  0
ARC
  5
33B5
330
3396
100
AcDbEntity
  8
細線
100
AcDbCircle
 10
-2946.74265675267
 20
739.127040263293
 30
0.0
 40
18.322924
100
AcDbArc
 50
247.068453993571
 51
267.322397459894
  0
LINE
  5
33B6
330
3396
100
AcDbEntity
  8
外形線
100
AcDbLine
 10
-2971.35984475267
 20
730.248956263293
 30
0.0
 11
-2948.95737875267
 21
730.248956263293
 31
0.0
  0
LINE
  5
33B7
330
3396
100
AcDbEntity
  8
外形線
100
AcDbLine
 10
-2974.15940475267
 20
725.964930263293
 30
0.0
 11
-2946.17051275267
 21
725.964930263293
 31
0.0
  0
LINE
  5
33B8
330
3396
100
AcDbEntity
  8
外形線
100
AcDbLine
 10
-2972.73142675267
 20
720.824122263293
 30
0.0
 11
-2947.598612752669
 21
720.824122263293
 31
0.0
  0
LINE
  5
33B9
330
3396
100
AcDbEntity
  8
細線
100
AcDbLine
 10
-2953.88181675267
 20
722.252162263293
 30
0.0
 11
-2953.88181675267
 21
725.964930263293
 31
0.0
  0
LINE
  5
33BA
330
3396
100
AcDbEntity
  8
細線
100
AcDbLine
 10
-2953.02500475267
 20
730.248926263293
 30
0.0
 11
-2953.02500475267
 21
725.964930263293
 31
0.0
  0
LINE
  5
33BB
330
3396
100
AcDbEntity
  8
細線
100
AcDbLine
 10
-2966.44822275267
 20
722.252162263293
 30
0.0
 11
-2966.44822275267
 21
725.964930263293
 31
0.0
  0
LINE
  5
33BC
330
3396
100
AcDbEntity
  8
細線
100
AcDbLine
 10
-2967.30503475267
 20
730.248926263293
 30
0.0
 11
-2967.30503475267
 21
725.964930263293
 31
0.0
  0
ARC
  5
33BD
330
3396
100
AcDbEntity
  8
外形線
100
AcDbCircle
 10
-2971.35984475267
 20
733.104944263293
 30
0.0
 40
2.856
100
AcDbArc
 50
187.289418100618
 51
270.0
  0
LINE
  5
33BE
330
3396
100
AcDbEntity
  8
外形線
100
AcDbLine
 10
-2969.58982475267
 20
725.964930263293
 30
0.0
 11
-2969.58982475267
 21
730.248926263293
 31
0.0
  0
LINE
  5
33BF
330
3396
100
AcDbEntity
  8
外形線
100
AcDbLine
 10
-2974.15940475267
 20
725.964930263293
 30
0.0
 11
-2974.15940475267
 21
722.252162263293
 31
0.0
  0
ARC
  5
33C0
330
3396
100
AcDbEntity
  8
細線
100
AcDbCircle
 10
-2973.587382752669
 20
739.127040263293
 30
0.0
 40
18.322924
100
AcDbArc
 50
272.677662083643
 51
292.931548254171
  0
LINE
  5
33C1
330
3396
100
AcDbEntity
  8
外形線
100
AcDbLine
 10
-2974.15940475267
 20
722.252162263293
 30
0.0
 11
-2972.73142675267
 21
720.824122263293
 31
0.0
  0
ARC
  5
33C2
330
3396
100
AcDbEntity
  8
細線
100
AcDbCircle
 10
-2960.16502075267
 20
735.360804263293
 30
0.0
 40
14.53669
100
AcDbArc
 50
244.390793033814
 51
295.609209213942
  0
ARC
  5
33C3
330
3396
100
AcDbEntity
  8
外形線
100
AcDbCircle
 10
-2948.95737875267
 20
733.104944263293
 30
0.0
 40
2.856
100
AcDbArc
 50
270.0
 51
352.421011277472
  0
LINE
  5
33C4
330
3396
100
AcDbEntity
  8
外形線
100
AcDbLine
 10
-2950.74021475267
 20
725.964930263293
 30
0.0
 11
-2950.74021475267
 21
730.248926263293
 31
0.0
  0
LINE
  5
33C5
330
3396
100
AcDbEntity
  8
外形線
100
AcDbLine
 10
-2946.17051275267
 20
725.964930263293
 30
0.0
 11
-2946.17051275267
 21
722.252162263293
 31
0.0
  0
LINE
  5
33C6
330
3396
100
AcDbEntity
  8
外形線
100
AcDbLine
 10
-2946.17051275267
 20
722.252162263293
 30
0.0
 11
-2947.598612752669
 21
720.824122263293
 31
0.0
  0
ARC
  5
33C7
330
3396
100
AcDbEntity
  8
細線
100
AcDbCircle
 10
-2959.54954075267
 20
719.481958263293
 30
0.0
 40
36.766532
100
AcDbArc
 50
68.885514212369
 51
115.21178583939
  0
LWPOLYLINE
  5
33C8
330
3396
100
AcDbEntity
  8
外形線
100
AcDbPolyline
 90
       67
 70
     0
 43
0.0
 10
-2982.436198752669
 20
753.065636263293
 10
-2982.476959670969
 20
753.077383973447
 10
-2982.592143572602
 20
753.111765672743
 10
-2982.771102177659
 20
753.167489214423
 10
-2983.003187206235
 20
753.243262451737
 10
-2983.277750378424
 20
753.337793237927
 10
-2983.584143414318
 20
753.449789426243
 10
-2983.911718034014
 20
753.577958869927
 10
-2984.249825957601
 20
753.721009422229
 10
-2984.587818905177
 20
753.877648936393
 10
-2984.915048596836
 20
754.046585265667
 10
-2985.220866752669
 20
754.226526263293
 10
-2985.56539227456
 20
754.468505521211
 10
-2985.863503339658
 20
754.724684948361
 10
-2986.12025262907
 20
754.993672743865
 10
-2986.340692823903
 20
755.274077106843
 10
-2986.529876605268
 20
755.564506236421
 10
-2986.692856654271
 20
755.863568331719
 10
-2986.834685652023
 20
756.169871591861
 10
-2986.960416279632
 20
756.482024215965
 10
-2987.075101218204
 20
756.798634403159
 10
-2987.183793148845
 20
757.118310352559
 10
-2987.291544752669
 20
757.439660263293
 10
-2987.519217297148
 20
758.088124943531
 10
-2987.762624793829
 20
758.736830981977
 10
-2988.020816901134
 20
759.384874910847
 10
-2988.292843277485
 20
760.031353262361
 10
-2988.577753581306
 20
760.675362568735
 10
-2988.874597471014
 20
761.315999362189
 10
-2989.182424605034
 20
761.952360174941
 10
-2989.500284641787
 20
762.583541539209
 10
-2989.827227239698
 20
763.208639987211
 10
-2990.162302057183
 20
763.826752051167
 10
-2990.50455875267
 20
764.436974263293
 10
-2990.762851346603
 20
764.885092044499
 10
-2991.023467559396
 20
765.329881312953
 10
-2991.285290120922
 20
765.772868993551
 10
-2991.547201761055
 20
766.215582011193
 10
-2991.808085209678
 20
766.659547290773
 10
-2992.066823196662
 20
767.106291757195
 10
-2992.322298451881
 20
767.557342335351
 10
-2992.573393705218
 20
768.014225950141
 10
-2992.818991686544
 20
768.478469526463
 10
-2993.057975125736
 20
768.951599989215
 10
-2993.28922675267
 20
769.435144263293
 10
-2993.450659355364
 20
769.788402505043
 10
-2993.61261280434
 20
770.142887186517
 10
-2993.780162498538
 20
770.493678945025
 10
-2993.958383836894
 20
770.835858417875
 10
-2994.152352218348
 20
771.164506242375
 10
-2994.367143041837
 20
771.474703055833
 10
-2994.607831706301
 20
771.761529495559
 10
-2994.87949361068
 20
772.020066198859
 10
-2995.187204153907
 20
772.245393803043
 10
-2995.536038734924
 20
772.432592945417
 10
-2995.931072752669
 20
772.576744263293
 10
-2996.369925758084
 20
772.674235232909
 10
-2996.843151377804
 20
772.731150445641
 10
-2997.334700806702
 20
772.754082967931
 10
-2997.828525239646
 20
772.749625866219
 10
-2998.308575871505
 20
772.724372206949
 10
-2998.758803897154
 20
772.684915056559
 10
-2999.163160511461
 20
772.637847481493
 10
-2999.505596909295
 20
772.589762548193
 10
-2999.770064285528
 20
772.547253323099
 10
-2999.940513835029
 20
772.516912872651
 10
-3000.000896752669
 20
772.505334263293
  0
LINE
  5
33C9
330
3396
100
AcDbEntity
  8
外形線
100
AcDbLine
 10
-2982.43619875267
 20
753.065636263293
 30
0.0
 11
-2979.106567058968
 21
752.704706868377
 31
0.0
  0
LINE
  5
33CA
330
3396
100
AcDbEntity
  8
外形線
100
AcDbLine
 10
-3001.76499475267
 20
761.682092263293
 30
0.0
 11
-3000.16502075267
 21
763.353296263293
 31
0.0
  0
ARC
  5
33CB
330
3396
100
AcDbEntity
  8
外形線
100
AcDbCircle
 10
-2979.26072275267
 20
749.852870263293
 30
0.0
 40
2.856
100
AcDbArc
 50
7.289398252772
 51
86.90589459077
  0
ARC
  5
33CC
330
3396
100
AcDbEntity
  8
外形線
100
AcDbCircle
 10
-2921.78391675267
 20
769.831630263293
 30
0.0
 40
4.015794000000001
100
AcDbArc
 50
275.934583374286
 51
85.343077308678
  0
LINE
  5
33CD
330
3396
100
AcDbEntity
  8
外形線
100
AcDbLine
 10
-2919.41776675267
 20
750.986170263293
 30
0.0
 11
-2937.16587475267
 21
750.986170263293
 31
0.0
  0
LINE
  5
33CE
330
3396
100
AcDbEntity
  8
外形線
100
AcDbLine
 10
-2919.41776675267
 20
754.413294263293
 30
0.0
 11
-2937.16587475267
 21
754.413294263293
 31
0.0
  0
LINE
  5
33CF
330
3396
100
AcDbEntity
  8
外形線
100
AcDbLine
 10
-2937.16587475267
 20
765.837366263293
 30
0.0
 11
-2921.368756752669
 21
765.837366263293
 31
0.0
  0
LINE
  5
33D0
330
3396
100
AcDbEntity
  8
外形線
100
AcDbLine
 10
-2943.526983494666
 20
745.682092263293
 30
0.0
 11
-2921.45786675267
 21
745.682092263293
 31
0.0
  0
LINE
  5
33D1
330
3396
100
AcDbEntity
  8
細線
100
AcDbLine
 10
-2943.449078752669
 20
745.682092263293
 30
0.0
 11
-2946.30503475267
 21
753.780076814067
 31
0.0
  0
ARC
  5
33D2
330
3396
100
AcDbEntity
  8
外形線
100
AcDbCircle
 10
-2943.526983494666
 20
744.682092263293
 30
0.0
 40
1.0
100
AcDbArc
 50
90.0
 51
172.420956229589
  0
LINE
  5
33D3
330
3396
100
AcDbEntity
  8
細線
100
AcDbLine
 10
-2921.45786675267
 20
765.837366263293
 30
0.0
 11
-2921.45786675267
 21
754.413294263293
 31
0.0
  0
ARC
  5
33D4
330
3396
100
AcDbEntity
  8
外形線
100
AcDbCircle
 10
-2919.47178275267
 20
752.699672263293
 30
0.0
 40
1.714446
100
AcDbArc
 50
271.804703586974
 51
88.195318508618
  0
LINE
  5
33D5
330
3396
100
AcDbEntity
  8
細線
100
AcDbLine
 10
-2921.45786675267
 20
750.986170263293
 30
0.0
 11
-2921.45786675267
 21
745.682092263293
 31
0.0
  0
LINE
  5
33D6
330
3396
100
AcDbEntity
  8
外形線
100
AcDbLine
 10
-2917.74509875267
 20
748.130090263293
 30
0.0
 11
-2921.45786675267
 21
745.682092263293
 31
0.0
  0
LINE
  5
33D7
330
3396
100
AcDbEntity
  8
外形線
100
AcDbLine
 10
-2937.16587475267
 20
773.834070263293
 30
0.0
 11
-2921.45786675267
 21
773.834070263293
 31
0.0
  0
LINE
  5
33D8
330
3396
100
AcDbEntity
  8
外形線
100
AcDbLine
 10
-2937.16587475267
 20
792.398158263293
 30
0.0
 11
-2921.45786675267
 21
792.398158263293
 31
0.0
  0
LINE
  5
33D9
330
3396
100
AcDbEntity
  8
細線
100
AcDbLine
 10
-2921.45786675267
 20
792.398158263293
 30
0.0
 11
-2921.45786675267
 21
773.834070263293
 31
0.0
  0
ARC
  5
33DA
330
3396
100
AcDbEntity
  8
外形線
100
AcDbCircle
 10
-2922.74497675267
 20
797.264612263293
 30
0.0
 40
5.033766
100
AcDbArc
 50
284.815257311476
 51
353.35584921601
  0
LINE
  5
33DB
330
3396
100
AcDbEntity
  8
外形線
100
AcDbLine
 10
-2886.90025075267
 20
796.682092263293
 30
0.0
 11
-2886.90025075267
 21
754.193812263293
 31
0.0
  0
ARC
  5
33DC
330
3396
100
AcDbEntity
  8
外形線
100
AcDbCircle
 10
-2884.89976075267
 20
769.264582263293
 30
0.0
 40
2.000724
100
AcDbArc
 50
87.757023395436
 51
272.242959004471
  0
ARC
  5
33DD
330
3396
100
AcDbEntity
  8
外形線
100
AcDbCircle
 10
-2891.755474752669
 20
754.193812263293
 30
0.0
 40
4.8552
100
AcDbArc
 50
272.650733067261
 51
359.999982399904
  0
LINE
  5
33DE
330
3396
100
AcDbEntity
  8
外形線
100
AcDbLine
 10
-2886.90025075267
 20
763.552576263293
 30
0.0
 11
-2879.10130075267
 21
763.552576263293
 31
0.0
  0
ARC
  5
33DF
330
3396
100
AcDbEntity
  8
外形線
100
AcDbCircle
 10
-2879.05198275267
 20
765.414026263293
 30
0.0
 40
1.86215
100
AcDbArc
 50
268.482178628797
 51
83.81580100997
  0
LINE
  5
33E0
330
3396
100
AcDbEntity
  8
外形線
100
AcDbLine
 10
-2884.82151475267
 20
767.265344263293
 30
0.0
 11
-2878.851422752669
 21
767.265344263293
 31
0.0
  0
LINE
  5
33E1
330
3396
100
AcDbEntity
  8
外形線
100
AcDbLine
 10
-2877.18980075267
 20
773.262904263293
 30
0.0
 11
-2877.18980075267
 21
790.684534263293
 31
0.0
  0
ARC
  5
33E2
330
3396
100
AcDbEntity
  8
外形線
100
AcDbCircle
 10
-2879.189068752669
 20
773.262904263293
 30
0.0
 40
1.9992
100
AcDbArc
 50
270.0
 51
359.999982399901
  0
ARC
  5
33E3
330
3396
100
AcDbEntity
  8
外形線
100
AcDbCircle
 10
-2879.189068752669
 20
790.684534263293
 30
0.0
 40
1.9992
100
AcDbArc
 50
0.0
 51
89.999981276034
  0
LINE
  5
33E4
330
3396
100
AcDbEntity
  8
外形線
100
AcDbLine
 10
-2884.82145275267
 20
771.263758263293
 30
0.0
 11
-2879.189068752669
 21
771.263758263293
 31
0.0
  0
LINE
  5
33E5
330
3396
100
AcDbEntity
  8
外形線
100
AcDbLine
 10
-2884.95286275267
 20
792.683802263293
 30
0.0
 11
-2879.189068752669
 21
792.683802263293
 31
0.0
  0
ARC
  5
33E6
330
3396
100
AcDbEntity
  8
外形線
100
AcDbCircle
 10
-2884.745830752669
 20
794.829310263293
 30
0.0
 40
2.15556
100
AcDbArc
 50
181.910948686163
 51
264.487402289583
  0
LINE
  5
33E7
330
3396
100
AcDbEntity
  8
外形線
100
AcDbLine
 10
-2917.74509875267
 20
845.234094263293
 30
0.0
 11
-2891.53086475267
 21
844.020472263293
 31
0.0
  0
LINE
  5
33E8
330
3396
100
AcDbEntity
  8
外形線
100
AcDbLine
 10
-2946.30503475267
 20
842.378138263293
 30
0.0
 11
-2982.43619875267
 21
840.298486263293
 31
0.0
  0
LINE
  5
33E9
330
3396
100
AcDbEntity
  8
外形線
100
AcDbLine
 10
-3001.76499475267
 20
831.682030263293
 30
0.0
 11
-3000.16502075267
 21
830.010888263293
 31
0.0
  0
LWPOLYLINE
  5
33EA
330
3396
100
AcDbEntity
  8
外形線
100
AcDbPolyline
 90
       67
 70
     0
 43
0.0
 10
-2982.436198752669
 20
840.298486263293
 10
-2982.476959550586
 20
840.286738406571
 10
-2982.592143139217
 20
840.252356326199
 10
-2982.77110131089
 20
840.196632256873
 10
-2983.003185857928
 20
840.120858433287
 10
-2983.277748572656
 20
840.026327090137
 10
-2983.584141247396
 20
839.914330462119
 10
-2983.911715674476
 20
839.786160783923
 10
-2984.249823646217
 20
839.643110290249
 10
-2984.587816954948
 20
839.486471215789
 10
-2984.91504739299
 20
839.317535795239
 10
-2985.220866752669
 20
839.137596263293
 10
-2985.565377344566
 20
838.895633121561
 10
-2985.863479005908
 20
838.639472145099
 10
-2986.120223571056
 20
838.370504760989
 10
-2986.340662874371
 20
838.090122396321
 10
-2986.529848750218
 20
837.799716478181
 10
-2986.692833032955
 20
837.500678433655
 10
-2986.834667556946
 20
837.194399689831
 10
-2986.960404156552
 20
836.882271673797
 10
-2987.075094666133
 20
836.565685812637
 10
-2987.183790920052
 20
836.246033533441
 10
-2987.291544752669
 20
835.924706263293
 10
-2987.519232868207
 20
835.276229684955
 10
-2987.762648269533
 20
834.627506821309
 10
-2988.020842132472
 20
833.979442096927
 10
-2988.292865632844
 20
833.332939936371
 10
-2988.577769946472
 20
832.688904764211
 10
-2988.874606249178
 20
832.048241005015
 10
-2989.182425716785
 20
831.411853083345
 10
-2989.500279525116
 20
830.780645423771
 10
-2989.827218849991
 20
830.155522450861
 10
-2990.162294867235
 20
829.537388589179
 10
-2990.50455875267
 20
828.927148263293
 10
-2990.762846444552
 20
828.479045183587
 10
-2991.02346081554
 20
828.034272225253
 10
-2991.285283902232
 20
827.591302062235
 10
-2991.547197741221
 20
827.148607368485
 10
-2991.808084369107
 20
826.704660817947
 10
-2992.066825822488
 20
826.257935084571
 10
-2992.322304137958
 20
825.806902842305
 10
-2992.573401352113
 20
825.350036765097
 10
-2992.818999501554
 20
824.885809526893
 10
-2993.057980622873
 20
824.412693801643
 10
-2993.28922675267
 20
823.929162263293
 10
-2993.450661302558
 20
823.575893506247
 10
-2993.612614756436
 20
823.221396871781
 10
-2993.78016303086
 20
822.870592151327
 10
-2993.958382042388
 20
822.528399136307
 10
-2994.152347707574
 20
822.199737618153
 10
-2994.367135942976
 20
821.889527388289
 10
-2994.607822665148
 20
821.602688238145
 10
-2994.879483790645
 20
821.344139959145
 10
-2995.18719523603
 20
821.118802342719
 10
-2995.536032917852
 20
820.931595180291
 10
-2995.931072752669
 20
820.787438263293
 10
-2996.369923827852
 20
820.689946152391
 10
-2996.843148250829
 20
820.633030330905
 10
-2997.334697100658
 20
820.610097643089
 10
-2997.828521456392
 20
820.614554933199
 10
-2998.30857239709
 20
820.639809045489
 10
-2998.758801001808
 20
820.679266824213
 10
-2999.163158349602
 20
820.726335113629
 10
-2999.505595519528
 20
820.774420757989
 10
-2999.770063590644
 20
820.816930601551
 10
-2999.940513642005
 20
820.847271488567
 10
-3000.000896752669
 20
820.858850263293
  0
LINE
  5
33EB
330
3396
100
AcDbEntity
  8
細線
100
AcDbLine
 10
-2921.45786675267
 20
827.526942263293
 30
0.0
 11
-2921.45786675267
 21
838.950892263293
 31
0.0
  0
LINE
  5
33EC
330
3396
100
AcDbEntity
  8
外形線
100
AcDbLine
 10
-2937.16587475267
 20
827.526942263293
 30
0.0
 11
-2921.368756752669
 21
827.526942263293
 31
0.0
  0
LINE
  5
33ED
330
3396
100
AcDbEntity
  8
外形線
100
AcDbLine
 10
-2937.16587475267
 20
819.530116263293
 30
0.0
 11
-2921.45786675267
 21
819.530116263293
 31
0.0
  0
LINE
  5
33EE
330
3396
100
AcDbEntity
  8
外形線
100
AcDbLine
 10
-2937.16587475267
 20
800.966150263293
 30
0.0
 11
-2921.45786675267
 21
800.966150263293
 31
0.0
  0
ARC
  5
33EF
330
3396
100
AcDbEntity
  8
外形線
100
AcDbCircle
 10
-2921.78391675267
 20
823.532678263293
 30
0.0
 40
4.015794000000001
100
AcDbArc
 50
274.656944786913
 51
84.065438721313
  0
LINE
  5
33F0
330
3396
100
AcDbEntity
  8
細線
100
AcDbLine
 10
-2921.45786675267
 20
800.966150263293
 30
0.0
 11
-2921.45786675267
 21
819.530116263293
 31
0.0
  0
LINE
  5
33F1
330
3396
100
AcDbEntity
  8
外形線
100
AcDbLine
 10
-2943.449078752669
 20
847.682092263293
 30
0.0
 11
-2921.45786675267
 21
847.682092263293
 31
0.0
  0
LINE
  5
33F2
330
3396
100
AcDbEntity
  8
外形線
100
AcDbLine
 10
-2919.41776675267
 20
842.378138263293
 30
0.0
 11
-2937.16587475267
 21
842.378138263293
 31
0.0
  0
LINE
  5
33F3
330
3396
100
AcDbEntity
  8
外形線
100
AcDbLine
 10
-2919.41776675267
 20
838.950892263293
 30
0.0
 11
-2937.16587475267
 21
838.950892263293
 31
0.0
  0
LINE
  5
33F4
330
3396
100
AcDbEntity
  8
外形線
100
AcDbLine
 10
-2946.30503475267
 20
842.378138263293
 30
0.0
 11
-2943.449078752669
 21
847.682092263293
 31
0.0
  0
LINE
  5
33F5
330
3396
100
AcDbEntity
  8
外形線
100
AcDbLine
 10
-2921.45786675267
 20
847.682092263293
 30
0.0
 11
-2917.74509875267
 21
845.234094263293
 31
0.0
  0
ARC
  5
33F6
330
3396
100
AcDbEntity
  8
外形線
100
AcDbCircle
 10
-2919.47178275267
 20
840.664514263293
 30
0.0
 40
1.714446
100
AcDbArc
 50
271.804703586974
 51
88.195318508618
  0
LINE
  5
33F7
330
3396
100
AcDbEntity
  8
細線
100
AcDbLine
 10
-2921.45786675267
 20
842.378138263293
 30
0.0
 11
-2921.45786675267
 21
847.682092263293
 31
0.0
  0
ARC
  5
33F8
330
3396
100
AcDbEntity
  8
外形線
100
AcDbCircle
 10
-2879.189068752669
 20
820.101282263293
 30
0.0
 40
1.9992
100
AcDbArc
 50
0.0
 51
89.999981276034
  0
LINE
  5
33F9
330
3396
100
AcDbEntity
  8
外形線
100
AcDbLine
 10
-2886.90025075267
 20
829.811732263293
 30
0.0
 11
-2879.10130075267
 21
829.811732263293
 31
0.0
  0
ARC
  5
33FA
330
3396
100
AcDbEntity
  8
外形線
100
AcDbCircle
 10
-2879.05198275267
 20
827.950282263293
 30
0.0
 40
1.86215
100
AcDbArc
 50
276.184221085617
 51
91.517843466792
  0
LINE
  5
33FB
330
3396
100
AcDbEntity
  8
外形線
100
AcDbLine
 10
-2884.82151475267
 20
822.100550263293
 30
0.0
 11
-2879.189068752669
 21
822.100550263293
 31
0.0
  0
LINE
  5
33FC
330
3396
100
AcDbEntity
  8
外形線
100
AcDbLine
 10
-2884.82151475267
 20
826.098840263293
 30
0.0
 11
-2878.851422752669
 21
826.098840263293
 31
0.0
  0
ARC
  5
33FD
330
3396
100
AcDbEntity
  8
外形線
100
AcDbCircle
 10
-2884.901042752669
 20
824.099696263293
 30
0.0
 40
2.000726
100
AcDbArc
 50
87.722187561485
 51
272.277852134203
  0
LINE
  5
33FE
330
3396
100
AcDbEntity
  8
外形線
100
AcDbLine
 10
-2884.95286275267
 20
800.680506263293
 30
0.0
 11
-2879.189068752669
 21
800.680506263293
 31
0.0
  0
LINE
  5
33FF
330
3396
100
AcDbEntity
  8
外形線
100
AcDbLine
 10
-2877.18980075267
 20
820.101282263293
 30
0.0
 11
-2877.18980075267
 21
802.679652263293
 31
0.0
  0
ARC
  5
3400
330
3396
100
AcDbEntity
  8
外形線
100
AcDbCircle
 10
-2891.755474752669
 20
839.170496263293
 30
0.0
 40
4.8552
100
AcDbArc
 50
0.0
 51
87.349306628423
  0
ENDBLK
  5
3401
330
3396
100
AcDbEntity
  8
0
 48
10.0
100
AcDbBlockEnd
  0
BLOCK
  5
364F
330
3645
100
AcDbEntity
  8
0
 48
10.0
100
AcDbBlockBegin
  2
*D16
 70
     1
 10
0.0
 20
0.0
 30
0.0
  3
*D16
  1
*D16
  0
LINE
  5
3EEB
330
3645
100
AcDbEntity
  8
寸法線
 62
     0
 48
10.0
100
AcDbLine
 10
349.481023224622
 20
389.691864869517
 30
0.0
 11
350.889106966404
 21
389.691864869517
 31
0.0
  0
LINE
  5
3EEC
330
3645
100
AcDbEntity
  8
寸法線
 62
     0
 48
10.0
100
AcDbLine
 10
348.169021737519
 20
341.091888869517
 30
0.0
 11
350.889106966404
 21
341.091888869517
 31
0.0
  0
LINE
  5
3EED
330
3645
100
AcDbEntity
  8
寸法線
 62
     0
 48
10.0
100
AcDbLine
 10
349.639106966404
 20
347.091888869517
 30
0.0
 11
349.639106966404
 21
383.691864869517
 31
0.0
  0
LINE
  5
3EEE
330
3645
100
AcDbEntity
  8
寸法線
 62
     0
 48
10.0
100
AcDbLine
 10
349.639106966404
 20
389.691864869517
 30
0.0
 11
349.639106966404
 21
424.138715263218
 31
0.0
  0
INSERT
  5
3EEF
330
3645
100
AcDbEntity
  8
寸法線
 62
     0
 48
10.0
100
AcDbBlockReference
  2
_OPEN30
 10
349.639106966404
 20
341.091888869517
 30
0.0
 41
6.0
 42
6.0
 43
6.0
 50
270.0
  0
INSERT
  5
3EF0
330
3645
100
AcDbEntity
  8
寸法線
 62
     0
 48
10.0
100
AcDbBlockReference
  2
_OPEN30
 10
349.639106966404
 20
389.691864869517
 30
0.0
 41
6.0
 42
6.0
 43
6.0
 50
90.0
  0
MTEXT
  5
3EF1
330
3645
100
AcDbEntity
  8
寸法線
 62
     0
 48
10.0
100
AcDbMText
 10
345.014106966404
 20
409.915290066367
 30
0.0
 40
8.0
 41
0.0
 71
     5
 72
     1
  1
\A1;φ48.6
 11
6.123031769111886E-17
 21
1.0
 31
0.0
  0
POINT
  5
3EF2
330
3645
100
AcDbEntity
  8
DEFPOINTS
 62
     0
 48
10.0
100
AcDbPoint
 10
348.856023224622
 20
389.691864869517
 30
0.0
  0
POINT
  5
3EF3
330
3645
100
AcDbEntity
  8
DEFPOINTS
 62
     0
 48
10.0
100
AcDbPoint
 10
347.544021737519
 20
341.091888869517
 30
0.0
  0
POINT
  5
3EF4
330
3645
100
AcDbEntity
  8
DEFPOINTS
 62
     0
 48
10.0
100
AcDbPoint
 10
349.639106966404
 20
341.091888869517
 30
0.0
  0
ENDBLK
  5
3650
330
3645
100
AcDbEntity
  8
0
 48
10.0
100
AcDbBlockEnd
  0
BLOCK
  5
3ECC
330
3EC3
100
AcDbEntity
  8
0
 48
10.0
100
AcDbBlockBegin
  2
*D17
 70
     1
 10
0.0
 20
0.0
 30
0.0
  3
*D17
  1
*D17
  0
LINE
  5
3EE5
330
3EC3
100
AcDbEntity
  8
寸法線
 62
     0
 48
10.0
100
AcDbLine
 10
-10.917889227004
 20
336.970121306648
 30
0.0
 11
92.932659033717
 21
392.997468432385
 31
0.0
  0
MTEXT
  5
3EE6
330
3EC3
100
AcDbEntity
  8
寸法線
 62
     0
 48
10.0
100
AcDbMText
 10
75.290361298067
 20
389.770008890412
 30
0.0
 40
8.0
 41
0.0
 71
     5
 72
     1
  1
\A1;\U+2205130
 11
0.8800893920400042
 21
0.4748080264892914
 31
0.0
  0
INSERT
  5
3EE7
330
3EC3
100
AcDbEntity
  8
寸法線
 62
     0
 48
10.0
100
AcDbBlockReference
  2
_OPEN30
 10
-16.198425579244
 20
334.121273147712
 30
0.0
 41
6.0
 42
6.0
 43
6.0
 50
208.346851389489
  0
INSERT
  5
3EE8
330
3EC3
100
AcDbEntity
  8
寸法線
 62
     0
 48
10.0
100
AcDbBlockReference
  2
_OPEN30
 10
98.213195385957
 20
395.84631659132
 30
0.0
 41
6.0
 42
6.0
 43
6.0
 50
28.346851389489
  0
POINT
  5
3EE9
330
3EC3
100
AcDbEntity
  8
DEFPOINTS
 62
     0
 48
10.0
100
AcDbPoint
 10
98.213195385957
 20
395.84631659132
 30
0.0
  0
POINT
  5
3EEA
330
3EC3
100
AcDbEntity
  8
DEFPOINTS
 62
     0
 48
10.0
100
AcDbPoint
 10
-16.198425579244
 20
334.121273147712
 30
0.0
  0
ENDBLK
  5
3ECD
330
3EC3
100
AcDbEntity
  8
0
 48
10.0
100
AcDbBlockEnd
  0
ENDSEC
  0
SECTION
  2
ENTITIES
  0
INSERT
  5
2F46
330
1A
100
AcDbEntity
  8
外形線
 48
10.0
100
AcDbBlockReference
  2
A$C5F435AFC
 10
216.923712426813
 20
316.983795409253
 30
0.0
  0
LINE
  5
2F59
330
1A
100
AcDbEntity
  8
外形線
100
AcDbLine
 10
296.923712033145
 20
372.483794869517
 30
0.0
 11
279.323706033145
 21
372.483794869517
 31
0.0
  0
LINE
  5
2F5A
330
1A
100
AcDbEntity
  8
外形線
100
AcDbLine
 10
275.923712033145
 20
376.983794869517
 30
0.0
 11
265.723700033145
 21
376.983794869517
 31
0.0
  0
LINE
  5
2F5B
330
1A
100
AcDbEntity
  8
細線
100
AcDbLine
 10
277.332586033145
 20
370.983794869517
 30
0.0
 11
268.723700033145
 21
370.983794869517
 31
0.0
  0
LINE
  5
2F5C
330
1A
100
AcDbEntity
  8
外形線
100
AcDbLine
 10
275.923712033145
 20
376.983794869517
 30
0.0
 11
279.323706033145
 21
374.383788869517
 31
0.0
  0
ARC
  5
2F5D
330
1A
100
AcDbEntity
  8
細線
100
AcDbCircle
 10
275.571805652409
 20
374.297972500099
 30
0.0
 40
3.75288168161888
100
AcDbArc
 50
297.981139691567
 51
1.310284949026
  0
LINE
  5
2F5E
330
1A
100
AcDbEntity
  8
外形線
100
AcDbLine
 10
296.923712033145
 20
357.483794869517
 30
0.0
 11
279.323706033145
 21
357.483794869517
 31
0.0
  0
LINE
  5
2F5F
330
1A
100
AcDbEntity
  8
外形線
100
AcDbLine
 10
275.923712033145
 20
352.983794869517
 30
0.0
 11
265.723700033145
 21
352.983794869517
 31
0.0
  0
LINE
  5
2F60
330
1A
100
AcDbEntity
  8
外形線
100
AcDbLine
 10
268.723700033145
 20
376.983794869517
 30
0.0
 11
268.723700033145
 21
352.983794869517
 31
0.0
  0
LINE
  5
2F61
330
1A
100
AcDbEntity
  8
細線
100
AcDbLine
 10
277.332586033145
 20
358.983794869517
 30
0.0
 11
268.723700033145
 21
358.983794869517
 31
0.0
  0
LINE
  5
2F62
330
1A
100
AcDbEntity
  8
外形線
100
AcDbLine
 10
275.923712033145
 20
352.983794869517
 30
0.0
 11
279.323706033145
 21
355.583800869517
 31
0.0
  0
LINE
  5
2F64
330
1A
100
AcDbEntity
  8
外形線
100
AcDbLine
 10
279.323706033145
 20
374.383788869517
 30
0.0
 11
279.323706033145
 21
355.583800869517
 31
0.0
  0
ARC
  5
2F65
330
1A
100
AcDbEntity
  8
細線
100
AcDbCircle
 10
269.288007819477
 20
364.983794869517
 30
0.0
 40
10.03569821366904
100
AcDbArc
 50
323.282806020859
 51
36.717193979141
  0
ARC
  5
2F66
330
1A
100
AcDbEntity
  8
細線
100
AcDbCircle
 10
275.571805652409
 20
355.669617238937
 30
0.0
 40
3.75288168161888
100
AcDbArc
 50
358.689715050974
 51
62.018860308433
  0
LINE
  5
2F68
330
1A
100
AcDbEntity
  8
中心線
 48
10.0
100
AcDbLine
 10
522.044294903076
 20
364.983794869517
 30
0.0
 11
203.519238665773
 21
364.983794869517
 31
0.0
  0
INSERT
  5
2F81
330
1A
100
AcDbEntity
  8
寸法線
 48
10.0
100
AcDbBlockReference
  2
A$C2AA85C5D
 10
29.009138734727
 20
316.983794630546
 30
0.0
  0
CIRCLE
  5
2FCD
330
1A
100
AcDbEntity
  8
外形線
100
AcDbCircle
 10
86.969309680483
 20
319.021854092391
 30
0.0
 40
7.5
  0
CIRCLE
  5
2FCF
330
1A
100
AcDbEntity
  8
外形線
100
AcDbCircle
 10
-4.954571873769
 20
319.021854092391
 30
0.0
 40
7.5
  0
CIRCLE
  5
2FD1
330
1A
100
AcDbEntity
  8
外形線
100
AcDbCircle
 10
-4.954571873769
 20
410.945735646642
 30
0.0
 40
7.5
  0
CIRCLE
  5
2FD3
330
1A
100
AcDbEntity
  8
外形線
100
AcDbCircle
 10
86.969309680483
 20
410.945735646642
 30
0.0
 40
7.5
  0
DIMENSION
  5
2FF0
330
1A
100
AcDbEntity
  8
寸法線
 48
10.0
100
AcDbDimension
  2
*D4
 10
42.507368903357
 20
328.907836855459
 30
0.0
 11
56.898054328306
 21
333.532836855459
 31
0.0
 70
    33
  3
ISO-25
100
AcDbAlignedDimension
 13
39.507368903357
 23
328.907836855459
 33
0.0
 14
42.507368903357
 24
328.907836855459
 34
0.0
1001
ACAD
1000
DSTYLE
1002
{
1070
     5
1000
OPEN30
1070
    41
1040
6.0
1070
    47
1040
0.1
1070
    48
1040
0.1
1070
    73
1070
     0
1070
   140
1040
8.0
1070
   271
1070
     1
1070
   272
1070
     1
1070
   341
1005
2AF4
1002
}
  0
CIRCLE
  5
300A
330
1A
100
AcDbEntity
  8
中心線
 48
10.0
100
AcDbCircle
 10
41.007384903357
 20
364.983794869516
 30
0.0
 40
65.0
  0
LINE
  5
300C
330
1A
100
AcDbEntity
  8
中心線
 48
10.0
100
AcDbLine
 10
128.115386903357
 20
364.983794869517
 30
0.0
 11
-46.100617985379
 21
364.983794869517
 31
0.0
  0
LINE
  5
300D
330
1A
100
AcDbEntity
  8
中心線
 48
10.0
100
AcDbLine
 10
41.007384706801
 20
456.67923456694
 30
0.0
 11
41.007384458989
 21
273.288360430391
 31
0.0
  0
LINE
  5
300F
330
1A
100
AcDbEntity
  8
中心線
 48
10.0
100
AcDbLine
 10
78.284470909504
 20
402.260896875664
 30
0.0
 11
95.654148451462
 21
419.630574417621
 31
0.0
  0
LINE
  5
3010
330
1A
100
AcDbEntity
  8
中心線
 48
10.0
100
AcDbLine
 10
-13.639410644748
 20
419.630574417621
 30
0.0
 11
3.73026689721
 21
402.260896875664
 31
0.0
  0
LINE
  5
3018
330
1A
100
AcDbEntity
  8
中心線
 48
10.0
100
AcDbLine
 10
78.284470909504
 20
327.706692863369
 30
0.0
 11
95.654148451461
 21
310.337015321412
 31
0.0
  0
LINE
  5
3019
330
1A
100
AcDbEntity
  8
中心線
 48
10.0
100
AcDbLine
 10
-13.639410644748
 20
310.337015321412
 30
0.0
 11
3.73026689721
 21
327.706692863369
 31
0.0
  0
LEADER
  5
31E5
330
1A
100
AcDbEntity
  8
寸法線
 48
10.0
100
AcDbLeader
  3
ISO-25
 76
     3
 10
-4.977871876367
 20
311.52608931263
 30
0.0
 10
-0.410543222475
 20
265.510152358574
 30
0.0
 10
-39.4698391743
 20
265.510152358574
 30
0.0
1001
ACAD
1000
DSTYLE
1002
{
1070
     5
1000
OPEN30
1070
   147
1040
0.625
1070
    77
1070
     0
1070
    41
1040
6.0
1070
    47
1040
0.1
1070
    48
1040
0.1
1070
    73
1070
     0
1070
   140
1040
5.0
1070
   271
1070
     1
1070
   272
1070
     1
1070
   341
1005
2AF4
1070
   342
1005
2AF4
1002
}
  0
MTEXT
  5
31E6
330
1A
100
AcDbEntity
  8
寸法線
 48
10.0
100
AcDbMText
 10
-37.675414681427
 20
276.121551551966
 30
0.0
 40
8.0
 41
31.60484729315
 71
     1
 72
     5
  1
4-φ15
  0
DIMENSION
  5
321A
330
1A
100
AcDbEntity
  8
寸法線
 48
10.0
100
AcDbDimension
  2
*D6
 10
117.437183897417
 20
377.818904383453
 30
0.0
 11
87.331205123531
 21
372.730515853019
 31
0.0
 70
   161
  1
φ<>
  3
ISO-25
100
AcDbAlignedDimension
 13
-35.408834367155
 23
352.068242950297
 33
0.0
 14
117.423587414359
 24
377.899349386406
 34
0.0
1001
ACAD
1000
DSTYLE
1002
{
1070
     5
1000
OPEN30
1070
    41
1040
6.0
1070
    47
1040
0.1
1070
    48
1040
0.1
1070
    73
1070
     0
1070
   140
1040
8.0
1070
   271
1070
     1
1070
   272
1070
     1
1070
   341
1005
2AF4
1002
}
  0
CIRCLE
  5
3242
330
1A
100
AcDbEntity
  8
外形線
 48
10.0
100
AcDbCircle
 10
41.007384582895
 20
364.983794869517
 30
0.0
 40
77.5
  0
DIMENSION
  5
3255
330
1A
100
AcDbEntity
  8
寸法線
 48
10.0
100
AcDbDimension
  2
*D7
 10
197.283170277499
 20
316.983794869517
 30
0.0
 11
192.658170277499
 21
346.983794869517
 31
0.0
 70
    32
  3
ISO-25
100
AcDbAlignedDimension
 13
216.923712033145
 23
376.983794869517
 33
0.0
 14
216.923712033145
 24
316.983794869517
 34
0.0
 50
90.0
100
AcDbRotatedDimension
1001
ACAD
1000
DSTYLE
1002
{
1070
     5
1000
OPEN30
1070
    41
1040
6.0
1070
    47
1040
0.1
1070
    48
1040
0.1
1070
    73
1070
     0
1070
   140
1040
8.0
1070
   271
1070
     1
1070
   272
1070
     1
1070
   341
1005
2AF4
1002
}
  0
DIMENSION
  5
3262
330
1A
100
AcDbEntity
  8
寸法線
 48
10.0
100
AcDbDimension
  2
*D8
 10
246.923712033145
 20
297.505671747303
 30
0.0
 11
231.923712033145
 21
302.130671747303
 31
0.0
 70
    32
  3
ISO-25
100
AcDbAlignedDimension
 13
216.923712033145
 23
316.983794869517
 33
0.0
 14
246.923712033145
 24
316.983794869517
 34
0.0
100
AcDbRotatedDimension
1001
ACAD
1000
DSTYLE
1002
{
1070
     5
1000
OPEN30
1070
    41
1040
6.0
1070
    47
1040
0.1
1070
    48
1040
0.1
1070
    73
1070
     0
1070
   140
1040
8.0
1070
   271
1070
     1
1070
   272
1070
     1
1070
   341
1005
2AF4
1002
}
  0
DIMENSION
  5
3278
330
1A
100
AcDbEntity
  8
寸法線
 48
10.0
100
AcDbDimension
  2
*D9
 10
378.923712033145
 20
263.960603087358
 30
0.0
 11
372.923712033145
 21
268.586390488933
 31
0.0
 70
    32
  3
ISO-25
100
AcDbAlignedDimension
 13
366.923712033145
 23
287.891876869517
 33
0.0
 14
378.923712033145
 24
287.891876869517
 34
0.0
100
AcDbRotatedDimension
1001
ACAD
1000
DSTYLE
1002
{
1070
     5
1000
OPEN30
1070
    41
1040
6.0
1070
    47
1040
0.1
1070
    48
1040
0.1
1070
    73
1070
     0
1070
   140
1040
8.0
1070
   271
1070
     1
1070
   272
1070
     1
1070
   341
1005
2AF4
1002
}
  0
DIMENSION
  5
32A1
330
1A
100
AcDbEntity
  8
寸法線
 48
10.0
100
AcDbDimension
  2
*D10
 10
438.923712033145
 20
263.960603087358
 30
0.0
 11
480.423712033145
 21
268.585603087358
 31
0.0
 70
    32
  3
ISO-25
100
AcDbAlignedDimension
 13
521.923712033145
 23
333.313534899375
 33
0.0
 14
438.923712033145
 24
285.123523618311
 34
0.0
100
AcDbRotatedDimension
1001
ACAD
1000
DSTYLE
1002
{
1070
     5
1000
OPEN30
1070
    41
1040
6.0
1070
    47
1040
0.1
1070
    48
1040
0.1
1070
    73
1070
     0
1070
   140
1040
8.0
1070
   271
1070
     1
1070
   272
1070
     1
1070
   341
1005
2AF4
1002
}
  0
DIMENSION
  5
32B7
330
1A
100
AcDbEntity
  8
寸法線
 48
10.0
100
AcDbDimension
  2
*D11
 10
521.923712033145
 20
244.69651086082
 30
0.0
 11
444.423712033145
 21
249.32151086082
 31
0.0
 70
    32
  3
ISO-25
100
AcDbAlignedDimension
 13
366.923712033145
 23
261.238006168655
 33
0.0
 14
521.923712033145
 24
333.147851246775
 34
0.0
100
AcDbRotatedDimension
1001
ACAD
1000
DSTYLE
1002
{
1070
     5
1000
OPEN30
1070
    41
1040
6.0
1070
    47
1040
0.1
1070
    48
1040
0.1
1070
    73
1070
     0
1070
   140
1040
8.0
1070
   271
1070
     1
1070
   272
1070
     1
1070
   341
1005
2AF4
1002
}
  0
DIMENSION
  5
32CD
330
1A
100
AcDbEntity
  8
寸法線
 48
10.0
100
AcDbDimension
  2
*D12
 10
366.923712033145
 20
244.69651086082
 30
0.0
 11
291.923712033145
 21
249.32151086082
 31
0.0
 70
    32
  3
ISO-25
100
AcDbAlignedDimension
 13
216.923712033145
 23
301.829449299021
 33
0.0
 14
366.923712033145
 24
265.639836171871
 34
0.0
100
AcDbRotatedDimension
1001
ACAD
1000
DSTYLE
1002
{
1070
     5
1000
OPEN30
1070
    41
1040
6.0
1070
    47
1040
0.1
1070
    48
1040
0.1
1070
    73
1070
     0
1070
   140
1040
8.0
1070
   271
1070
     1
1070
   272
1070
     1
1070
   341
1005
2AF4
1002
}
  0
DIMENSION
  5
3308
330
1A
100
AcDbEntity
  8
寸法線
 48
10.0
100
AcDbDimension
  2
*D13
 10
291.176371501862
 20
357.483794869517
 30
0.0
 11
291.176371501862
 21
387.474480294466
 31
0.0
 70
   160
  1
φ<>
  3
ISO-25
100
AcDbAlignedDimension
 13
291.123709033145
 23
372.483794869517
 33
0.0
 14
291.123709033145
 24
357.483794869517
 34
0.0
 50
90.0
100
AcDbRotatedDimension
1001
ACAD
1000
DSTYLE
1002
{
1070
     5
1000
OPEN30
1070
    41
1040
6.0
1070
    47
1040
0.1
1070
    48
1040
0.1
1070
    73
1070
     0
1070
   140
1040
8.0
1070
   271
1070
     1
1070
   272
1070
     1
1070
   341
1005
2AF4
1002
}
  0
MTEXT
  5
333D
330
1A
100
AcDbEntity
  8
寸法線
 48
10.0
100
AcDbMText
 10
467.766404372381
 20
305.089054686766
 30
0.0
 40
8.0
 41
65.843230169923
 71
     1
 72
     5
  1
導線取出口\PG 1/2"
  0
LEADER
  5
333E
330
1A
100
AcDbEntity
  8
寸法線
 48
10.0
100
AcDbLeader
  3
ISO-25
 76
     3
 10
448.367384613345
 20
297.173118763556
 30
0.0
 10
467.303838739391
 20
281.599974420036
 30
0.0
 10
478.145764543208
 20
281.599974420036
 30
0.0
213
-22.15517955892585
223
0.0
233
0.0
1001
ACAD
1000
DSTYLE
1002
{
1070
     5
1000
OPEN30
1070
   147
1040
0.625
1070
    77
1070
     0
1070
    41
1040
6.0
1070
    47
1040
0.1
1070
    48
1040
0.1
1070
    73
1070
     0
1070
   140
1040
5.0
1070
   271
1070
     1
1070
   272
1070
     1
1070
   341
1005
2AF4
1070
   342
1005
2AF4
1002
}
  0
LEADER
  5
333F
330
1A
100
AcDbEntity
  8
寸法線
 48
10.0
100
AcDbLeader
  3
ISO-25
 76
     3
 10
417.46261379209
 20
409.069583509907
 30
0.0
 10
402.213947071849
 20
480.378854538179
 30
0.0
 10
414.118210013554
 20
480.378854538179
 30
0.0
1001
ACAD
1000
DSTYLE
1002
{
1070
     5
1000
OPEN30
1070
   147
1040
0.625
1070
    77
1070
     0
1070
    41
1040
6.0
1070
    47
1040
0.1
1070
    48
1040
0.1
1070
    73
1070
     0
1070
   140
1040
5.0
1070
   271
1070
     1
1070
   272
1070
     1
1070
   341
1005
2AF4
1070
   342
1005
2AF4
1002
}
  0
MTEXT
  5
3340
330
1A
100
AcDbEntity
  8
寸法線
 48
10.0
100
AcDbMText
 10
399.427631788808
 20
489.471988013959
 30
0.0
 40
8.0
 41
50.418860526721
 71
     1
 72
     5
  1
アルミ鋳物
  0
LINE
  5
3341
330
1A
100
AcDbEntity
  8
下書線
 48
10.0
100
AcDbLine
 10
168.203954444362
 20
480.378854538179
 30
0.0
 11
578.515651376999
 21
480.378854538179
 31
0.0
  0
LEADER
  5
3342
330
1A
100
AcDbEntity
  8
寸法線
 48
10.0
100
AcDbLeader
  3
ISO-25
 76
     3
 10
220.363770238358
 20
376.983794869517
 30
0.0
 10
181.322368299786
 20
480.378854538179
 30
0.0
 10
170.549707501322
 20
480.378854538179
 30
0.0
1001
ACAD
1000
DSTYLE
1002
{
1070
     5
1000
OPEN30
1070
   147
1040
0.625
1070
    77
1070
     0
1070
    41
1040
6.0
1070
    47
1040
0.1
1070
    48
1040
0.1
1070
    73
1070
     0
1070
   140
1040
5.0
1070
   271
1070
     1
1070
   272
1070
     1
1070
   341
1005
2AF4
1070
   342
1005
2AF4
1002
}
  0
MTEXT
  5
3343
330
1A
100
AcDbEntity
  8
寸法線
 48
10.0
100
AcDbMText
 10
146.969927185779
 20
489.25798286816
 30
0.0
 40
8.0
 41
0.0
 71
     1
 72
     5
  1
SUS304
  0
LEADER
  5
3344
330
1A
100
AcDbEntity
  8
寸法線
 48
10.0
100
AcDbLeader
  3
ISO-25
 76
     3
 10
283.802677320088
 20
372.499582600785
 30
0.0
 10
251.265767018261
 20
480.382783429544
 30
0.0
 10
239.445745781078
 20
480.387003742387
 30
0.0
1001
ACAD
1000
DSTYLE
1002
{
1070
     5
1000
OPEN30
1070
   147
1040
0.625
1070
    77
1070
     0
1070
    41
1040
6.0
1070
    47
1040
0.1
1070
    48
1040
0.1
1070
    73
1070
     0
1070
   140
1040
5.0
1070
   271
1070
     1
1070
   272
1070
     1
1070
   341
1005
2AF4
1070
   342
1005
2AF4
1002
}
  0
MTEXT
  5
3345
330
1A
100
AcDbEntity
  8
寸法線
 48
10.0
100
AcDbMText
 10
216.955387437261
 20
488.937761001531
 30
0.0
 40
8.0
 41
0.0
 71
     1
 72
     5
  1
SUS304
  0
MTEXT
  5
3348
330
1A
100
AcDbEntity
  8
寸法線
 48
10.0
100
AcDbMText
 10
381.252197580049
 20
482.624355147421
 30
0.0
 40
8.0
 41
48.027782837223
 71
     9
 72
     5
  1
フランジ\Pアルミ鋳物
  0
LEADER
  5
3349
330
1A
100
AcDbEntity
  8
寸法線
 48
10.0
100
AcDbLeader
  3
ISO-25
 76
     3
 10
372.923712033145
 20
442.891876869517
 30
0.0
 10
379.81944181616
 20
480.378854538179
 30
0.0
 10
370.059155453153
 20
480.378854538179
 30
0.0
1001
ACAD
1000
DSTYLE
1002
{
1070
     5
1000
OPEN30
1070
   147
1040
0.625
1070
    77
1070
     0
1070
    41
1040
6.0
1070
    47
1040
0.1
1070
    48
1040
0.1
1070
    73
1070
     0
1070
   140
1040
5.0
1070
   271
1070
     1
1070
   272
1070
     1
1070
   341
1005
2AF4
1070
   342
1005
2AF4
1002
}
  0
LEADER
  5
334A
330
1A
100
AcDbEntity
  8
寸法線
 48
10.0
100
AcDbLeader
  3
ISO-25
 76
     3
 10
461.067596587878
 20
415.983732869517
 30
0.0
 10
470.009188738274
 20
480.378854538179
 30
0.0
 10
479.518152974024
 20
480.378854538179
 30
0.0
1001
ACAD
1000
DSTYLE
1002
{
1070
     5
1000
OPEN30
1070
   147
1040
0.625
1070
    77
1070
     0
1070
    41
1040
6.0
1070
    47
1040
0.1
1070
    48
1040
0.1
1070
    73
1070
     0
1070
   140
1040
5.0
1070
   271
1070
     1
1070
   272
1070
     1
1070
   341
1005
2AF4
1070
   342
1005
2AF4
1002
}
  0
MTEXT
  5
334B
330
1A
100
AcDbEntity
  8
寸法線
 48
10.0
100
AcDbMText
 10
470.214925838461
 20
489.197531122382
 30
0.0
 40
8.0
 41
38.931165525765
 71
     1
 72
     5
  1
Oリング
  0
MTEXT
  5
334C
330
1A
100
AcDbEntity
  8
寸法線
 48
10.0
100
AcDbMText
 10
529.662650526443
 20
488.696803290958
 30
0.0
 40
8.0
 41
48.483694685896
 71
     1
 72
     5
  1
アルミ鋳物
  0
LEADER
  5
334D
330
1A
100
AcDbEntity
  8
寸法線
 48
10.0
100
AcDbLeader
  3
ISO-25
 76
     3
 10
496.903595937549
 20
412.824614743693
 30
0.0
 10
528.623392260273
 20
480.378854538179
 30
0.0
 10
539.134228100643
 20
480.378854538179
 30
0.0
1001
ACAD
1000
DSTYLE
1002
{
1070
     5
1000
OPEN30
1070
   147
1040
0.625
1070
    77
1070
     0
1070
    41
1040
6.0
1070
    47
1040
0.1
1070
    48
1040
0.1
1070
    73
1070
     0
1070
   140
1040
5.0
1070
   271
1070
     1
1070
   272
1070
     1
1070
   341
1005
2AF4
1070
   342
1005
2AF4
1002
}
  0
DIMENSION
  5
336B
330
1A
100
AcDbEntity
  8
寸法線
 48
10.0
100
AcDbDimension
  2
*D14
 10
547.073422721183
 20
313.983732869517
 30
0.0
 11
547.073422721183
 21
365.099251221733
 31
0.0
 70
   160
  1
φ102
  3
ISO-25
100
AcDbAlignedDimension
 13
477.630866033145
 23
415.983732869517
 33
0.0
 14
477.630866033145
 24
313.983732869517
 34
0.0
 50
90.0
100
AcDbRotatedDimension
1001
ACAD
1000
DSTYLE
1002
{
1070
     5
1000
OPEN30
1070
    41
1040
6.0
1070
    47
1040
0.1
1070
    48
1040
0.1
1070
    73
1070
     0
1070
   140
1040
8.0
1070
   271
1070
     1
1070
   272
1070
     1
1070
   341
1005
2AF4
1002
}
  0
ARC
  5
3395
330
1A
100
AcDbEntity
  8
外形線
 48
10.0
100
AcDbCircle
 10
41.007384582783
 20
364.901054505963
 30
0.0
 40
24.3
100
AcDbArc
 50
273.538989418617
 51
266.460936500607
  0
LINE
  5
3509
330
1A
100
AcDbEntity
  8
外形線
 48
10.0
100
AcDbLine
 10
296.923712033145
 20
341.091888869517
 30
0.0
 11
341.14709785603
 21
341.091888869517
 31
0.0
  0
LINE
  5
350A
330
1A
100
AcDbEntity
  8
外形線
 48
10.0
100
AcDbLine
 10
296.923712033145
 20
341.091888869517
 30
0.0
 11
296.923712033145
 21
389.691864869517
 31
0.0
  0
LINE
  5
350B
330
1A
100
AcDbEntity
  8
外形線
 48
10.0
100
AcDbLine
 10
341.14709785603
 20
389.691864869517
 30
0.0
 11
296.923712033145
 21
389.691864869517
 31
0.0
  0
MTEXT
  5
3514
330
1A
100
AcDbEntity
  8
寸法線
 48
10.0
100
AcDbMText
 10
270.499601849544
 20
489.295906105926
 30
0.0
 40
8.0
 41
0.0
 71
     1
 72
     5
  1
SUS304
  0
LEADER
  5
3515
330
1A
100
AcDbEntity
  8
寸法線
 48
10.0
100
AcDbLeader
  3
ISO-25
 76
     3
 10
326.012245039592
 20
389.691864869517
 30
0.0
 10
306.24362443436
 20
480.378854538179
 30
0.0
 10
296.466641083098
 20
480.378854538179
 30
0.0
1001
ACAD
1000
DSTYLE
1002
{
1070
     5
1000
OPEN30
1070
   147
1040
0.625
1070
    77
1070
     0
1070
    41
1040
6.0
1070
    47
1040
0.1
1070
    48
1040
0.1
1070
    73
1070
     0
1070
   140
1040
5.0
1070
   271
1070
     1
1070
   272
1070
     1
1070
   341
1005
2AF4
1070
   342
1005
2AF4
1002
}
  0
DIMENSION
  5
3644
330
1A
100
AcDbEntity
  8
寸法線
 48
10.0
100
AcDbDimension
  2
*D16
 10
349.639106966404
 20
341.091888869517
 30
0.0
 11
349.639106966404
 21
409.915290066367
 31
0.0
 70
   160
  1
φ<>
  3
ISO-25
100
AcDbAlignedDimension
 13
348.856023224622
 23
389.691864869517
 33
0.0
 14
347.544021737519
 24
341.091888869517
 34
0.0
 50
90.0
100
AcDbRotatedDimension
1001
ACAD
1000
DSTYLE
1002
{
1070
     5
1000
OPEN30
1070
    41
1040
6.0
1070
    47
1040
0.1
1070
    48
1040
0.1
1070
    73
1070
     0
1070
   140
1040
8.0
1070
   271
1070
     1
1070
   272
1070
     1
1070
   341
1005
2AF4
1002
}
  0
LINE
  5
3935
330
1A
100
AcDbEntity
  8
外形線
100
AcDbLine
 10
459.918418265062
 20
313.983794869517
 30
0.0
 11
459.918418265062
 21
415.983794869517
 31
0.0
  0
MTEXT
  5
394F
330
1A
100
AcDbEntity
  8
細線
100
AcDbMText
 10
282.302050209463
 20
570.968656359978
 30
0.0
 40
5.0
 41
0.0
 71
     7
 72
     1
  1
 
  0
LINE
  5
396F
330
1A
100
AcDbEntity
  8
外形線
100
AcDbLine
 10
396.923712033145
 20
344.233794869517
 30
0.0
 11
396.923712033145
 21
341.483794869517
 31
0.0
  0
ARC
  5
3970
330
1A
100
AcDbEntity
  8
外形線
100
AcDbCircle
 10
398.423712033145
 20
341.483794869517
 30
0.0
 40
1.5
100
AcDbArc
 50
180.0
 51
270.0
  0
LINE
  5
3971
330
1A
100
AcDbEntity
  8
外形線
100
AcDbLine
 10
402.270205971949
 20
339.983794869517
 30
0.0
 11
398.423712033145
 21
339.983794869517
 31
0.0
  0
ARC
  5
3972
330
1A
100
AcDbEntity
  8
外形線
100
AcDbCircle
 10
402.270205971949
 20
336.983794869517
 30
0.0
 40
3.0
100
AcDbArc
 50
32.275644314579
 51
90.0
  0
LINE
  5
3973
330
1A
100
AcDbEntity
  8
外形線
100
AcDbLine
 10
396.923712033145
 20
388.483794869517
 30
0.0
 11
396.923712033145
 21
385.733794869517
 31
0.0
  0
ARC
  5
3974
330
1A
100
AcDbEntity
  8
外形線
100
AcDbCircle
 10
398.423712033145
 20
388.483794869517
 30
0.0
 40
1.5
100
AcDbArc
 50
90.0
 51
180.0
  0
LINE
  5
3975
330
1A
100
AcDbEntity
  8
外形線
100
AcDbLine
 10
402.270205971948
 20
389.983794869517
 30
0.0
 11
398.423712033145
 21
389.983794869517
 31
0.0
  0
ARC
  5
3976
330
1A
100
AcDbEntity
  8
外形線
100
AcDbCircle
 10
402.270205971948
 20
392.983794869517
 30
0.0
 40
3.0
100
AcDbArc
 50
270.0
 51
327.724355685421
  0
LINE
  5
397A
330
1A
100
AcDbEntity
  8
外形線
100
AcDbLine
 10
459.418418265062
 20
416.483794869517
 30
0.0
 11
454.918418265062
 21
416.483794869517
 31
0.0
  0
LINE
  5
397B
330
1A
100
AcDbEntity
  8
外形線
100
AcDbLine
 10
454.918418265062
 20
416.483794869517
 30
0.0
 11
451.918418265062
 21
410.983794869517
 31
0.0
  0
LINE
  5
397C
330
1A
100
AcDbEntity
  8
外形線
100
AcDbLine
 10
451.918418265062
 20
410.983794869517
 30
0.0
 11
417.46261379209
 21
409.069583509907
 31
0.0
  0
LINE
  5
397D
330
1A
100
AcDbEntity
  8
外形線
100
AcDbLine
 10
459.418418265062
 20
313.483794869517
 30
0.0
 11
453.918418265062
 21
313.483794869517
 31
0.0
  0
LINE
  5
397E
330
1A
100
AcDbEntity
  8
外形線
100
AcDbLine
 10
426.800111985011
 20
298.983794869517
 30
0.0
 11
451.047312081279
 21
298.983794869517
 31
0.0
  0
LINE
  5
397F
330
1A
100
AcDbEntity
  8
外形線
100
AcDbLine
 10
453.918418265062
 20
313.483794869517
 30
0.0
 11
453.042882396992
 21
300.850756848469
 31
0.0
  0
LINE
  5
3980
330
1A
100
AcDbEntity
  8
外形線
100
AcDbLine
 10
423.656375554331
 20
319.668718211429
 30
0.0
 11
424.803824171848
 21
300.861995990136
 31
0.0
  0
LINE
  5
3981
330
1A
100
AcDbEntity
  8
外形線
100
AcDbLine
 10
422.713701667372
 20
320.606279124944
 30
0.0
 11
417.46261379209
 21
320.898006229126
 31
0.0
  0
LINE
  5
3982
330
1A
100
AcDbEntity
  8
中心線
 48
10.0
100
AcDbLine
 10
438.923712033145
 20
285.123523618311
 30
0.0
 11
438.923712033145
 21
328.706017091739
 31
0.0
  0
LINE
  5
3986
330
1A
100
AcDbEntity
  8
外形線
100
AcDbLine
 10
415.097850909948
 20
407.676181424455
 30
0.0
 11
404.806672681041
 21
391.381815895353
 31
0.0
  0
LINE
  5
3987
330
1A
100
AcDbEntity
  8
外形線
100
AcDbLine
 10
415.097850909948
 20
322.291408314579
 30
0.0
 11
404.806672681041
 21
338.585773843681
 31
0.0
  0
ARC
  5
3988
330
1A
100
AcDbEntity
  8
外形線
100
AcDbCircle
 10
417.634317619041
 20
406.074202450291
 30
0.0
 40
3.0
100
AcDbArc
 50
93.179830119865
 51
147.724355685421
  0
ARC
  5
3989
330
1A
100
AcDbEntity
  8
外形線
100
AcDbCircle
 10
417.634317619041
 20
323.893387288742
 30
0.0
 40
3.0
100
AcDbArc
 50
212.275644314579
 51
266.820169880135
  0
ARC
  5
398A
330
1A
100
AcDbEntity
  8
外形線
100
AcDbCircle
 10
422.658231647749
 20
319.607818771739
 30
0.0
 40
1.0
100
AcDbArc
 50
3.491441283447
 51
86.820169880137
  0
ARC
  5
398B
330
1A
100
AcDbEntity
  8
外形線
100
AcDbCircle
 10
451.047312081279
 20
300.983794869517
 30
0.0
 40
2.0
100
AcDbArc
 50
270.0
 51
356.185925165712
  0
ARC
  5
398C
330
1A
100
AcDbEntity
  8
外形線
100
AcDbCircle
 10
426.800111985011
 20
300.983794869517
 30
0.0
 40
2.0
100
AcDbArc
 50
183.491441283447
 51
270.0
  0
LINE
  5
39A6
330
1A
100
AcDbEntity
  8
外形線
100
AcDbLine
 10
459.418418265062
 20
416.483794869517
 30
0.0
 11
459.918418265062
 21
415.983794869517
 31
0.0
  0
LINE
  5
39A7
330
1A
100
AcDbEntity
  8
外形線
100
AcDbLine
 10
459.418418265062
 20
313.483794869517
 30
0.0
 11
459.918418265062
 21
313.983794869517
 31
0.0
  0
LINE
  5
3BFE
330
1A
100
AcDbEntity
  8
外形線
100
AcDbLine
 10
395.323738033145
 20
400.391814869517
 30
0.0
 11
380.923712033145
 21
400.391814869517
 31
0.0
  0
LINE
  5
3BFF
330
1A
100
AcDbEntity
  8
外形線
100
AcDbLine
 10
395.323738033145
 20
330.391876869517
 30
0.0
 11
380.923712033145
 21
330.391876869517
 31
0.0
  0
LINE
  5
3C00
330
1A
100
AcDbEntity
  8
外形線
100
AcDbLine
 10
366.923916446885
 20
288.391876869517
 30
0.0
 11
366.923916446885
 21
442.391876869517
 31
0.0
  0
LINE
  5
3C01
330
1A
100
AcDbEntity
  8
外形線
100
AcDbLine
 10
378.923712033145
 20
441.891876869517
 30
0.0
 11
378.923712033145
 21
288.891876869517
 31
0.0
  0
LINE
  5
3C02
330
1A
100
AcDbEntity
  8
中心線
 48
10.0
100
AcDbLine
 10
357.909508033146
 20
300.391876869517
 30
0.0
 11
386.309508033145
 21
300.391876869517
 31
0.0
  0
LINE
  5
3C03
330
1A
100
AcDbEntity
  8
外形線
100
AcDbLine
 10
367.423916446885
 20
287.891876869517
 30
0.0
 11
377.923712033145
 21
287.891876869517
 31
0.0
  0
ARC
  5
3C04
330
1A
100
AcDbEntity
  8
外形線
100
AcDbCircle
 10
380.923712033145
 20
328.391876869517
 30
0.0
 40
2.0
100
AcDbArc
 50
89.999981276021
 51
180.000019847843
  0
LINE
  5
3C05
330
1A
100
AcDbEntity
  8
外形線
100
AcDbLine
 10
366.923712033145
 20
341.091888869517
 30
0.0
 11
341.14709785603
 21
341.091888869517
 31
0.0
  0
LINE
  5
3C06
330
1A
100
AcDbEntity
  8
外形線
100
AcDbLine
 10
366.923712033145
 20
389.691864869517
 30
0.0
 11
341.14709785603
 21
389.691864869517
 31
0.0
  0
ARC
  5
3C07
330
1A
100
AcDbEntity
  8
外形線
100
AcDbCircle
 10
380.923712033145
 20
402.391814869517
 30
0.0
 40
2.0
100
AcDbArc
 50
180.000019847843
 51
270.0
  0
LINE
  5
3C08
330
1A
100
AcDbEntity
  8
中心線
 48
10.0
100
AcDbLine
 10
357.909508033146
 20
430.391876869517
 30
0.0
 11
386.309508033145
 21
430.391876869517
 31
0.0
  0
ARC
  5
3C0A
330
1A
100
AcDbEntity
  8
外形線
100
AcDbCircle
 10
519.924444033145
 20
370.981292869517
 30
0.0
 40
1.9992
100
AcDbArc
 50
270.0
 51
359.999982399908
  0
ARC
  5
3C0B
330
1A
100
AcDbEntity
  8
外形線
100
AcDbCircle
 10
514.367682033145
 20
366.836638869517
 30
0.0
 40
2.15556
100
AcDbArc
 50
95.512637406103
 51
178.089033713743
  0
LINE
  5
3C0C
330
1A
100
AcDbEntity
  8
外形線
100
AcDbLine
 10
512.213262033144
 20
364.983732869517
 30
0.0
 11
512.213262033144
 21
407.472136869517
 31
0.0
  0
ARC
  5
3C0D
330
1A
100
AcDbEntity
  8
外形線
100
AcDbCircle
 10
476.338462265062
 20
364.401336869517
 30
0.0
 40
5.033766
100
AcDbArc
 50
6.644133183896
 51
75.184725088441
  0
LINE
  5
3C0F
330
1A
100
AcDbEntity
  8
細線
100
AcDbLine
 10
395.323738033145
 20
400.391814869517
 30
0.0
 11
395.323738033145
 21
330.391876869517
 31
0.0
  0
LINE
  5
3C10
330
1A
100
AcDbEntity
  8
細線
100
AcDbLine
 10
481.338340265062
 20
413.535734869517
 30
0.0
 11
481.338340265062
 21
316.431730869517
 31
0.0
  0
LINE
  5
3C14
330
1A
100
AcDbEntity
  8
外形線
100
AcDbLine
 10
396.923712033145
 20
398.720672869517
 30
0.0
 11
396.923712033145
 21
332.063080869517
 31
0.0
  0
LINE
  5
3C16
330
1A
100
AcDbEntity
  8
外形線
100
AcDbLine
 10
461.917564265062
 20
313.983732869517
 30
0.0
 11
461.917564265062
 21
415.983732869517
 31
0.0
  0
LINE
  5
3C17
330
1A
100
AcDbEntity
  8
外形線
100
AcDbLine
 10
481.343634033145
 20
316.431730869517
 30
0.0
 11
507.557868033145
 21
317.645416869517
 31
0.0
  0
ARC
  5
3C1B
330
1A
100
AcDbEntity
  8
細線
100
AcDbCircle
 10
452.346076033145
 20
307.861878869517
 30
0.0
 40
18.322924
100
AcDbArc
 50
247.068453993571
 51
267.322397459894
  0
LINE
  5
3C1D
330
1A
100
AcDbEntity
  8
外形線
100
AcDbLine
 10
424.929328033145
 20
294.699768869517
 30
0.0
 11
452.918220033145
 21
294.699768869517
 31
0.0
  0
LINE
  5
3C1E
330
1A
100
AcDbEntity
  8
外形線
100
AcDbLine
 10
426.357306033145
 20
289.558960869517
 30
0.0
 11
451.490120033146
 21
289.558960869517
 31
0.0
  0
LINE
  5
3C1F
330
1A
100
AcDbEntity
  8
細線
100
AcDbLine
 10
445.206916033145
 20
290.987000869517
 30
0.0
 11
445.206916033145
 21
294.699768869517
 31
0.0
  0
LINE
  5
3C20
330
1A
100
AcDbEntity
  8
細線
100
AcDbLine
 10
446.063728033145
 20
298.983764869517
 30
0.0
 11
446.063728033145
 21
294.699768869517
 31
0.0
  0
LINE
  5
3C21
330
1A
100
AcDbEntity
  8
細線
100
AcDbLine
 10
432.640510033145
 20
290.987000869517
 30
0.0
 11
432.640510033145
 21
294.699768869517
 31
0.0
  0
LINE
  5
3C22
330
1A
100
AcDbEntity
  8
細線
100
AcDbLine
 10
431.783698033145
 20
298.983764869517
 30
0.0
 11
431.783698033145
 21
294.699768869517
 31
0.0
  0
LINE
  5
3C24
330
1A
100
AcDbEntity
  8
外形線
100
AcDbLine
 10
429.498908033145
 20
294.699768869517
 30
0.0
 11
429.498908033145
 21
298.983764869517
 31
0.0
  0
LINE
  5
3C25
330
1A
100
AcDbEntity
  8
外形線
100
AcDbLine
 10
424.929328033145
 20
294.699768869517
 30
0.0
 11
424.929328033145
 21
290.987000869517
 31
0.0
  0
ARC
  5
3C26
330
1A
100
AcDbEntity
  8
細線
100
AcDbCircle
 10
425.501350033146
 20
307.861878869517
 30
0.0
 40
18.322924
100
AcDbArc
 50
272.677662083656
 51
292.93154825417
  0
LINE
  5
3C27
330
1A
100
AcDbEntity
  8
外形線
100
AcDbLine
 10
424.929328033145
 20
290.987000869517
 30
0.0
 11
426.357306033145
 21
289.558960869517
 31
0.0
  0
ARC
  5
3C28
330
1A
100
AcDbEntity
  8
細線
100
AcDbCircle
 10
438.923712033145
 20
304.095642869517
 30
0.0
 40
14.53669
100
AcDbArc
 50
244.390793033802
 51
295.609209213943
  0
LINE
  5
3C2A
330
1A
100
AcDbEntity
  8
外形線
100
AcDbLine
 10
448.348518033145
 20
294.699768869517
 30
0.0
 11
448.348518033145
 21
298.983764869517
 31
0.0
  0
LINE
  5
3C2B
330
1A
100
AcDbEntity
  8
外形線
100
AcDbLine
 10
452.918220033145
 20
294.699768869517
 30
0.0
 11
452.918220033145
 21
290.987000869517
 31
0.0
  0
LINE
  5
3C2C
330
1A
100
AcDbEntity
  8
外形線
100
AcDbLine
 10
452.918220033145
 20
290.987000869517
 30
0.0
 11
451.490120033146
 21
289.558960869517
 31
0.0
  0
ARC
  5
3C2D
330
1A
100
AcDbEntity
  8
細線
100
AcDbCircle
 10
439.539192033145
 20
288.216796869517
 30
0.0
 40
36.76653199999937
100
AcDbArc
 50
70.324160459539
 51
115.211785839403
  0
LINE
  5
3C30
330
1A
100
AcDbEntity
  8
外形線
100
AcDbLine
 10
395.323738033145
 20
330.391876869517
 30
0.0
 11
396.923712033145
 21
332.063080869517
 31
0.0
  0
ARC
  5
3C32
330
1A
100
AcDbEntity
  8
外形線
100
AcDbCircle
 10
477.299522265062
 20
338.133270869517
 30
0.0
 40
4.015794000000001
100
AcDbArc
 50
275.934583374273
 51
85.343077308691
  0
LINE
  5
3C33
330
1A
100
AcDbEntity
  8
外形線
100
AcDbLine
 10
479.665672265062
 20
319.287810869517
 30
0.0
 11
461.917564265062
 21
319.287810869517
 31
0.0
  0
LINE
  5
3C34
330
1A
100
AcDbEntity
  8
外形線
100
AcDbLine
 10
479.665672265062
 20
322.714934869517
 30
0.0
 11
461.917564265062
 21
322.714934869517
 31
0.0
  0
LINE
  5
3C35
330
1A
100
AcDbEntity
  8
外形線
100
AcDbLine
 10
461.917564265062
 20
334.139006869517
 30
0.0
 11
477.714682265062
 21
334.139006869517
 31
0.0
  0
LINE
  5
3C36
330
1A
100
AcDbEntity
  8
外形線
100
AcDbLine
 10
459.918418265062
 20
313.983732869517
 30
0.0
 11
477.625572265061
 21
313.983732869517
 31
0.0
  0
LINE
  5
3C39
330
1A
100
AcDbEntity
  8
細線
100
AcDbLine
 10
477.625572265061
 20
334.139006869517
 30
0.0
 11
477.625572265061
 21
322.714934869517
 31
0.0
  0
ARC
  5
3C3A
330
1A
100
AcDbEntity
  8
外形線
100
AcDbCircle
 10
479.611656265062
 20
321.001312869517
 30
0.0
 40
1.714446
100
AcDbArc
 50
271.804703586974
 51
88.195318508605
  0
LINE
  5
3C3B
330
1A
100
AcDbEntity
  8
細線
100
AcDbLine
 10
477.625572265061
 20
319.287810869517
 30
0.0
 11
477.625572265061
 21
313.983732869517
 31
0.0
  0
LINE
  5
3C3C
330
1A
100
AcDbEntity
  8
外形線
100
AcDbLine
 10
481.338340265062
 20
316.431730869517
 30
0.0
 11
477.625572265061
 21
313.983732869517
 31
0.0
  0
LINE
  5
3C3D
330
1A
100
AcDbEntity
  8
外形線
100
AcDbLine
 10
461.917564265062
 20
342.135710869517
 30
0.0
 11
477.625572265061
 21
342.135710869517
 31
0.0
  0
LINE
  5
3C3E
330
1A
100
AcDbEntity
  8
外形線
100
AcDbLine
 10
461.917564265062
 20
360.699798869517
 30
0.0
 11
477.625572265061
 21
360.699798869517
 31
0.0
  0
LINE
  5
3C3F
330
1A
100
AcDbEntity
  8
細線
100
AcDbLine
 10
477.625572265061
 20
360.699798869517
 30
0.0
 11
477.625572265061
 21
342.135710869517
 31
0.0
  0
ARC
  5
3C40
330
1A
100
AcDbEntity
  8
外形線
100
AcDbCircle
 10
476.338462265062
 20
365.566252869517
 30
0.0
 40
5.033766
100
AcDbArc
 50
284.815257311476
 51
353.355849216011
  0
LINE
  5
3C41
330
1A
100
AcDbEntity
  8
外形線
100
AcDbLine
 10
512.213262033144
 20
364.983732869517
 30
0.0
 11
512.213262033144
 21
322.495452869517
 31
0.0
  0
ARC
  5
3C42
330
1A
100
AcDbEntity
  8
外形線
100
AcDbCircle
 10
514.213752033145
 20
337.566222869517
 30
0.0
 40
2.000724
100
AcDbArc
 50
87.757023395436
 51
272.242959004458
  0
ARC
  5
3C43
330
1A
100
AcDbEntity
  8
外形線
100
AcDbCircle
 10
507.359916066917
 20
322.494700289886
 30
0.0
 40
4.853322024346074
100
AcDbArc
 50
272.337565725689
 51
0.008866954338
  0
LINE
  5
3C44
330
1A
100
AcDbEntity
  8
外形線
100
AcDbLine
 10
512.213262033144
 20
331.854216869517
 30
0.0
 11
520.012212033145
 21
331.854216869517
 31
0.0
  0
ARC
  5
3C45
330
1A
100
AcDbEntity
  8
外形線
100
AcDbCircle
 10
520.061530033145
 20
333.715666869517
 30
0.0
 40
1.86215
100
AcDbArc
 50
268.482178628784
 51
83.815801009983
  0
LINE
  5
3C46
330
1A
100
AcDbEntity
  8
外形線
100
AcDbLine
 10
514.291998033145
 20
335.566984869517
 30
0.0
 11
520.262090033145
 21
335.566984869517
 31
0.0
  0
LINE
  5
3C47
330
1A
100
AcDbEntity
  8
外形線
100
AcDbLine
 10
521.923712033145
 20
341.564544869517
 30
0.0
 11
521.923712033145
 21
358.986174869517
 31
0.0
  0
ARC
  5
3C48
330
1A
100
AcDbEntity
  8
外形線
100
AcDbCircle
 10
519.924444033145
 20
341.564544869517
 30
0.0
 40
1.9992
100
AcDbArc
 50
270.0
 51
359.999982399901
  0
ARC
  5
3C49
330
1A
100
AcDbEntity
  8
外形線
100
AcDbCircle
 10
519.924444033145
 20
358.986174869517
 30
0.0
 40
1.9992
100
AcDbArc
 50
0.0
 51
89.999981276021
  0
LINE
  5
3C4A
330
1A
100
AcDbEntity
  8
外形線
100
AcDbLine
 10
514.292060033145
 20
339.565398869517
 30
0.0
 11
519.924444033145
 21
339.565398869517
 31
0.0
  0
LINE
  5
3C4B
330
1A
100
AcDbEntity
  8
外形線
100
AcDbLine
 10
514.160650033145
 20
360.985442869517
 30
0.0
 11
519.924444033145
 21
360.985442869517
 31
0.0
  0
ARC
  5
3C4C
330
1A
100
AcDbEntity
  8
外形線
100
AcDbCircle
 10
514.367682033145
 20
363.130950869517
 30
0.0
 40
2.15556
100
AcDbArc
 50
181.910948686163
 51
264.487402289583
  0
LINE
  5
3C4D
330
1A
100
AcDbEntity
  8
外形線
100
AcDbLine
 10
481.343634033145
 20
413.535734869517
 30
0.0
 11
507.557868033145
 21
412.322112869517
 31
0.0
  0
LINE
  5
3C4F
330
1A
100
AcDbEntity
  8
外形線
100
AcDbLine
 10
395.323738033145
 20
400.391814869517
 30
0.0
 11
396.923712033145
 21
398.720672869517
 31
0.0
  0
LINE
  5
3C51
330
1A
100
AcDbEntity
  8
細線
100
AcDbLine
 10
477.625572265061
 20
395.828582869517
 30
0.0
 11
477.625572265061
 21
407.252532869517
 31
0.0
  0
LINE
  5
3C52
330
1A
100
AcDbEntity
  8
外形線
100
AcDbLine
 10
461.917564265062
 20
395.828582869517
 30
0.0
 11
477.714682265062
 21
395.828582869517
 31
0.0
  0
LINE
  5
3C53
330
1A
100
AcDbEntity
  8
外形線
100
AcDbLine
 10
461.917564265062
 20
387.831756869517
 30
0.0
 11
477.625572265061
 21
387.831756869517
 31
0.0
  0
LINE
  5
3C54
330
1A
100
AcDbEntity
  8
外形線
100
AcDbLine
 10
461.917564265062
 20
369.267790869517
 30
0.0
 11
477.625572265061
 21
369.267790869517
 31
0.0
  0
ARC
  5
3C55
330
1A
100
AcDbEntity
  8
外形線
100
AcDbCircle
 10
477.299522265062
 20
391.834318869517
 30
0.0
 40
4.015794000000001
100
AcDbArc
 50
274.656944786913
 51
84.065438721313
  0
LINE
  5
3C56
330
1A
100
AcDbEntity
  8
細線
100
AcDbLine
 10
477.625572265061
 20
369.267790869517
 30
0.0
 11
477.625572265061
 21
387.831756869517
 31
0.0
  0
LINE
  5
3C57
330
1A
100
AcDbEntity
  8
外形線
100
AcDbLine
 10
459.918418265062
 20
415.983732869517
 30
0.0
 11
477.625572265061
 21
415.983732869517
 31
0.0
  0
LINE
  5
3C58
330
1A
100
AcDbEntity
  8
外形線
100
AcDbLine
 10
479.665672265062
 20
410.679778869517
 30
0.0
 11
461.917564265062
 21
410.679778869517
 31
0.0
  0
LINE
  5
3C59
330
1A
100
AcDbEntity
  8
外形線
100
AcDbLine
 10
479.665672265062
 20
407.252532869517
 30
0.0
 11
461.917564265062
 21
407.252532869517
 31
0.0
  0
LINE
  5
3C5B
330
1A
100
AcDbEntity
  8
外形線
100
AcDbLine
 10
477.625572265061
 20
415.983732869517
 30
0.0
 11
481.338340265062
 21
413.535734869517
 31
0.0
  0
ARC
  5
3C5C
330
1A
100
AcDbEntity
  8
外形線
100
AcDbCircle
 10
479.611656265062
 20
408.966154869517
 30
0.0
 40
1.714446
100
AcDbArc
 50
271.804703586974
 51
88.195318508605
  0
LINE
  5
3C5D
330
1A
100
AcDbEntity
  8
細線
100
AcDbLine
 10
477.625572265061
 20
410.679778869517
 30
0.0
 11
477.625572265061
 21
415.983732869517
 31
0.0
  0
ARC
  5
3C5E
330
1A
100
AcDbEntity
  8
外形線
100
AcDbCircle
 10
519.924444033145
 20
388.402922869517
 30
0.0
 40
1.9992
100
AcDbArc
 50
0.0
 51
89.999981276021
  0
LINE
  5
3C5F
330
1A
100
AcDbEntity
  8
外形線
100
AcDbLine
 10
512.213262033144
 20
398.113372869517
 30
0.0
 11
520.012212033145
 21
398.113372869517
 31
0.0
  0
ARC
  5
3C60
330
1A
100
AcDbEntity
  8
外形線
100
AcDbCircle
 10
520.061530033145
 20
396.251922869517
 30
0.0
 40
1.86215
100
AcDbArc
 50
276.18422108563
 51
91.517843466792
  0
LINE
  5
3C61
330
1A
100
AcDbEntity
  8
外形線
100
AcDbLine
 10
514.291998033145
 20
390.402190869517
 30
0.0
 11
519.924444033145
 21
390.402190869517
 31
0.0
  0
LINE
  5
3C62
330
1A
100
AcDbEntity
  8
外形線
100
AcDbLine
 10
514.291998033145
 20
394.400480869517
 30
0.0
 11
520.262090033145
 21
394.400480869517
 31
0.0
  0
ARC
  5
3C63
330
1A
100
AcDbEntity
  8
外形線
100
AcDbCircle
 10
514.212470033146
 20
392.401336869517
 30
0.0
 40
2.000726
100
AcDbArc
 50
87.722187561485
 51
272.27785213419
  0
LINE
  5
3C64
330
1A
100
AcDbEntity
  8
外形線
100
AcDbLine
 10
514.160650033145
 20
368.982146869517
 30
0.0
 11
519.924444033145
 21
368.982146869517
 31
0.0
  0
LINE
  5
3C65
330
1A
100
AcDbEntity
  8
外形線
100
AcDbLine
 10
521.923712033145
 20
388.402922869517
 30
0.0
 11
521.923712033145
 21
370.981292869517
 31
0.0
  0
ARC
  5
3C66
330
1A
100
AcDbEntity
  8
外形線
100
AcDbCircle
 10
507.360023357333
 20
407.472932443227
 30
0.0
 40
4.853214741020253
100
AcDbArc
 50
359.990607665528
 51
87.663650269136
  0
LINE
  5
3C68
330
1A
100
AcDbEntity
  8
細線
 48
10.0
100
AcDbLine
 10
454.918418265062
 20
416.483794869517
 30
0.0
 11
454.918418265062
 21
313.483794869517
 31
0.0
  0
LINE
  5
3C69
330
1A
100
AcDbEntity
  8
細線
 48
10.0
100
AcDbLine
 10
451.918418265062
 20
410.983794869517
 30
0.0
 11
451.918418265062
 21
322.836626926957
 31
0.0
  0
LINE
  5
3C6A
330
1A
100
AcDbEntity
  8
細線
 48
10.0
100
AcDbLine
 10
454.918418265062
 20
313.483794869517
 30
0.0
 11
451.918418265062
 21
322.836626926957
 31
0.0
  0
LINE
  5
3C8B
330
1A
100
AcDbEntity
  8
細線
 48
10.0
100
AcDbLine
 10
417.634317619041
 20
406.074202450291
 30
0.0
 11
417.634317619041
 21
323.893387288742
 31
0.0
  0
LINE
  5
3C8C
330
1A
100
AcDbEntity
  8
細線
 48
10.0
100
AcDbLine
 10
404.021891163608
 20
388.693491155888
 30
0.0
 11
404.021891163608
 21
341.355313885714
 31
0.0
  0
LINE
  5
3E92
330
1A
100
AcDbEntity
  8
外形線
100
AcDbLine
 10
377.923712033145
 20
442.891876869517
 30
0.0
 11
367.423916446885
 21
442.891876869517
 31
0.0
  0
LINE
  5
3E93
330
1A
100
AcDbEntity
  8
外形線
100
AcDbLine
 10
367.423916446885
 20
442.891876869517
 30
0.0
 11
366.923916446885
 21
442.391876869517
 31
0.0
  0
LINE
  5
3E94
330
1A
100
AcDbEntity
  8
外形線
100
AcDbLine
 10
377.923712033145
 20
442.891876869517
 30
0.0
 11
378.923712033145
 21
441.891876869517
 31
0.0
  0
LINE
  5
3E95
330
1A
100
AcDbEntity
  8
外形線
100
AcDbLine
 10
367.423916446885
 20
287.891876869517
 30
0.0
 11
366.923916446885
 21
288.391876869517
 31
0.0
  0
LINE
  5
3E96
330
1A
100
AcDbEntity
  8
外形線
100
AcDbLine
 10
377.923712033145
 20
287.891876869517
 30
0.0
 11
378.923712033145
 21
288.891876869517
 31
0.0
  0
DIMENSION
  5
3EC2
330
1A
100
AcDbEntity
  8
寸法線
 48
10.0
100
AcDbDimension
  2
*D17
 10
-16.198425579244
 20
334.121273147712
 30
0.0
 11
75.290361298067
 21
389.770008890412
 31
0.0
 70
   163
  3
ISO-25
100
AcDbDiametricDimension
 15
98.213195385957
 25
395.84631659132
 35
0.0
 40
0.0
1001
ACAD
1000
DSTYLE
1002
{
1070
   287
1070
     5
1070
     5
1000
OPEN30
1070
    41
1040
6.0
1070
    47
1040
0.1
1070
    48
1040
0.1
1070
    73
1070
     0
1070
   140
1040
8.0
1070
   271
1070
     1
1070
   272
1070
     1
1070
   279
1070
     2
1070
   288
1070
     1
1070
   341
1005
2AF4
1002
}
  0
MTEXT
  5
402A
102
{ACAD_XDICTIONARY
360
402B
102
}
330
1A
100
AcDbEntity
  8
寸法線
 48
10.0
100
AcDbMText
 10
105.687326254214
 20
214.725236114845
 30
0.0
 40
8.0
 41
168.503621648242
 71
     1
 72
     5
  1
御仕様   電源電圧    リード線色\P       AC100/110V　 シロ・シロ\P       AC200/220V　クロ・クロ
1001
ACADANNOTATIVE
1000
AnnotativeData
1002
{
1070
     1
1070
     0
1002
}
  0
MTEXT
  5
402E
102
{ACAD_XDICTIONARY
360
402F
102
}
330
1A
100
AcDbEntity
  8
寸法線
 48
10.0
100
AcDbMText
 10
-5.898120434609
 20
111.708969557538
 30
0.0
 40
6.0
 41
49.50078544177
 71
     1
 72
     5
  1
L　　C　　 H
1001
ACADANNOTATIVE
1000
AnnotativeData
1002
{
1070
     1
1070
     0
1002
}
  0
MTEXT
  5
4032
330
1A
100
AcDbEntity
  8
寸法線
 48
10.0
100
AcDbMText
 10
53.506770253191
 20
90.92636832033
 30
0.0
 40
6.0
 41
22.662715674224
 71
     1
 72
     5
  1
電　源
  0
LINE
  5
4033
330
1A
100
AcDbEntity
  8
寸法線
100
AcDbLine
 10
-5.901600162456
 20
120.76597644183
 30
0.0
 11
-5.901600162456
 21
217.89793444183
 31
0.0
  0
LINE
  5
4034
330
1A
100
AcDbEntity
  8
寸法線
100
AcDbLine
 10
-5.901600162456
 20
217.89793444183
 30
0.0
 11
6.950389837544
 21
217.89793444183
 31
0.0
  0
LINE
  5
4035
330
1A
100
AcDbEntity
  8
寸法線
100
AcDbLine
 10
6.950389837544
 20
217.89793444183
 30
0.0
 11
6.950389837544
 21
198.19151444183
 31
0.0
  0
LINE
  5
4036
330
1A
100
AcDbEntity
  8
寸法線
100
AcDbLine
 10
22.658397837544
 20
217.89793444183
 30
0.0
 11
35.510387837544
 21
217.89793444183
 31
0.0
  0
LINE
  5
4037
330
1A
100
AcDbEntity
  8
寸法線
100
AcDbLine
 10
55.216745837544
 20
217.89793444183
 30
0.0
 11
75.208811837544
 21
217.89793444183
 31
0.0
  0
TEXT
  5
4038
330
1A
100
AcDbEntity
  8
寸法線
100
AcDbText
 10
9.608287837544
 20
150.10917844183
 30
0.0
 40
8.571428571429
  1
キ
  7
EXCADVERT
 72
     3
 11
9.608287837544
 21
142.10917844183
 31
0.0
100
AcDbText
  0
TEXT
  5
4039
330
1A
100
AcDbEntity
  8
寸法線
100
AcDbText
 10
69.207469837544
 20
181.26439044183
 30
0.0
 40
12.0
  1
Ｍ
 41
1.25
  7
EXCADSTD
 72
     5
 11
81.207469837544
 21
181.26439044183
 31
0.0
100
AcDbText
  0
LINE
  5
403A
330
1A
100
AcDbEntity
  8
寸法線
100
AcDbLine
 10
75.208811837544
 20
217.89793444183
 30
0.0
 11
75.208811837544
 21
196.66496444183
 31
0.0
  0
CIRCLE
  5
403B
330
1A
100
AcDbEntity
  8
寸法線
100
AcDbCircle
 10
14.804393837544
 20
180.37077444183
 30
0.0
 40
1.600006
  0
LINE
  5
403C
330
1A
100
AcDbEntity
  8
寸法線
100
AcDbLine
 10
14.804393837544
 20
178.77073844183
 30
0.0
 11
14.804393837544
 21
120.76597644183
 31
0.0
  0
LINE
  5
403D
330
1A
100
AcDbEntity
  8
寸法線
100
AcDbLine
 10
35.510387837544
 20
217.89793444183
 30
0.0
 11
35.510387837544
 21
120.76597644183
 31
0.0
  0
LINE
  5
403E
330
1A
100
AcDbEntity
  8
寸法線
100
AcDbLine
 10
75.208811837544
 20
178.28050244183
 30
0.0
 11
75.208811837544
 21
120.76597644183
 31
0.0
  0
CIRCLE
  5
403F
330
1A
100
AcDbEntity
  8
寸法線
100
AcDbCircle
 10
-5.901600162456
 20
117.76597644183
 30
0.0
 40
1.599998
  0
LINE
  5
4040
330
1A
100
AcDbEntity
  8
寸法線
100
AcDbLine
 10
55.216745837544
 20
178.77073844183
 30
0.0
 11
55.216745837544
 21
120.76597644183
 31
0.0
  0
CIRCLE
  5
4041
330
1A
100
AcDbEntity
  8
寸法線
100
AcDbCircle
 10
55.216745837544
 20
180.37077444183
 30
0.0
 40
1.600006
  0
CIRCLE
  5
4042
330
1A
100
AcDbEntity
  8
寸法線
100
AcDbCircle
 10
6.950389837544
 20
196.59153844183
 30
0.0
 40
1.600006
  0
LINE
  5
4043
330
1A
100
AcDbEntity
  8
寸法線
100
AcDbLine
 10
22.658397837544
 20
217.89793444183
 30
0.0
 11
22.658397837544
 21
198.19151444183
 31
0.0
  0
CIRCLE
  5
4044
330
1A
100
AcDbEntity
  8
寸法線
100
AcDbCircle
 10
22.658397837544
 20
196.59153844183
 30
0.0
 40
1.600006
  0
LINE
  5
4045
330
1A
100
AcDbEntity
  8
寸法線
100
AcDbLine
 10
55.216745837544
 20
217.89793444183
 30
0.0
 11
55.216745837544
 21
198.19151444183
 31
0.0
  0
CIRCLE
  5
4046
330
1A
100
AcDbEntity
  8
寸法線
100
AcDbCircle
 10
55.216745837544
 20
196.59153844183
 30
0.0
 40
1.600006
  0
LINE
  5
4047
330
1A
100
AcDbEntity
  8
寸法線
100
AcDbLine
 10
14.804393837544
 20
181.97075044183
 30
0.0
 11
8.550365837544
 21
196.59153844183
 31
0.0
  0
LINE
  5
4048
330
1A
100
AcDbEntity
  8
寸法線
100
AcDbLine
 10
55.216745837544
 20
181.97075044183
 30
0.0
 11
56.816783837544
 21
196.59153844183
 31
0.0
  0
CIRCLE
  5
4049
330
1A
100
AcDbEntity
  8
寸法線
100
AcDbCircle
 10
75.216379837544
 20
187.48716844183
 30
0.0
 40
9.177798
  0
TEXT
  5
404A
330
1A
100
AcDbEntity
  8
寸法線
100
AcDbText
 10
30.672191837544
 20
159.20939644183
 30
0.0
 40
8.041237113402
  1
ア　カ
  7
EXCADVERT
 72
     3
 11
30.672191837544
 21
133.20939644183
 31
0.0
100
AcDbText
  0
TEXT
  5
404B
330
1A
100
AcDbEntity
  8
寸法線
100
AcDbText
 10
-10.878102162456
 20
159.20939644183
 30
0.0
 40
7.515151518764
  1
ミドリ
  7
EXCADVERT
 72
     3
 11
-10.878102162456
 21
134.409396429909
 31
0.0
100
AcDbText
  0
CIRCLE
  5
404C
330
1A
100
AcDbEntity
  8
寸法線
100
AcDbCircle
 10
-5.901600162456
 20
117.76597644183
 30
0.0
 40
3.0
  0
CIRCLE
  5
404D
330
1A
100
AcDbEntity
  8
寸法線
100
AcDbCircle
 10
14.804393837544
 20
117.76597644183
 30
0.0
 40
1.599998
  0
CIRCLE
  5
404E
330
1A
100
AcDbEntity
  8
寸法線
100
AcDbCircle
 10
14.804393837544
 20
117.76597644183
 30
0.0
 40
3.0
  0
CIRCLE
  5
404F
330
1A
100
AcDbEntity
  8
寸法線
100
AcDbCircle
 10
55.216745837544
 20
117.76597644183
 30
0.0
 40
1.599998
  0
CIRCLE
  5
4050
330
1A
100
AcDbEntity
  8
寸法線
100
AcDbCircle
 10
55.216745837544
 20
117.76597644183
 30
0.0
 40
3.0
  0
CIRCLE
  5
4051
330
1A
100
AcDbEntity
  8
寸法線
100
AcDbCircle
 10
75.208811837544
 20
117.76597644183
 30
0.0
 40
1.599998
  0
CIRCLE
  5
4052
330
1A
100
AcDbEntity
  8
寸法線
100
AcDbCircle
 10
75.208811837544
 20
117.76597644183
 30
0.0
 40
3.0
  0
CIRCLE
  5
4053
330
1A
100
AcDbEntity
  8
寸法線
100
AcDbCircle
 10
35.510387837544
 20
117.76597644183
 30
0.0
 40
1.599998
  0
CIRCLE
  5
4054
330
1A
100
AcDbEntity
  8
寸法線
100
AcDbCircle
 10
35.510387837544
 20
117.76597644183
 30
0.0
 40
3.0
  0
MTEXT
  5
4055
102
{ACAD_XDICTIONARY
360
4056
102
}
330
1A
100
AcDbEntity
  8
寸法線
 62
     1
 48
10.0
100
AcDbMText
 10
45.800328714614
 20
165.250583203737
 30
0.0
 40
8.0
 41
75.886769199617
 71
     1
 72
     3
  1
シロ クロ
1001
ACADANNOTATIVE
1000
AnnotativeData
1002
{
1070
     1
1070
     0
1002
}
  0
MTEXT
  5
4059
330
1A
100
AcDbEntity
  8
寸法線
 62
     1
 48
10.0
100
AcDbMText
 10
44.591180928026
 20
123.50660758976
 30
0.0
 40
8.0
 41
113.327544635948
 71
     1
 72
     1
  1
(    )
 11
6.123233995736766E-17
 21
1.0
 31
0.0
  0
MTEXT
  5
405A
102
{ACAD_XDICTIONARY
360
405B
102
}
330
1A
100
AcDbEntity
  8
寸法線
 48
10.0
100
AcDbMText
 10
44.119494901441
 20
111.17821638513
 30
0.0
 40
6.0
 41
101.805806042976
 71
     1
 72
     5
  1
100/110 0
1001
ACADANNOTATIVE
1000
AnnotativeData
1002
{
1070
     1
1070
     0
1002
}
  0
MTEXT
  5
405E
102
{ACAD_XDICTIONARY
360
405F
102
}
330
1A
100
AcDbEntity
  8
寸法線
 62
     1
 48
10.0
100
AcDbMText
 10
66.241371248419
 20
164.64937607039
 30
0.0
 40
8.0
 41
75.886769199617
 71
     1
 72
     3
  1
シロ クロ
1001
ACADANNOTATIVE
1000
AnnotativeData
1002
{
1070
     1
1070
     0
1002
}
  0
MTEXT
  5
4062
330
1A
100
AcDbEntity
  8
寸法線
 62
     1
 48
10.0
100
AcDbMText
 10
65.032223461831
 20
122.905400456413
 30
0.0
 40
8.0
 41
113.327544635948
 71
     1
 72
     1
  1
(    )
 11
6.123233995736766E-17
 21
1.0
 31
0.0
  0
MTEXT
  5
4063
102
{ACAD_XDICTIONARY
360
4064
102
}
330
1A
100
AcDbEntity
  8
寸法線
 48
10.0
100
AcDbMText
 10
39.253474665912
 20
103.348432859429
 30
0.0
 40
6.0
 41
101.805806042976
 71
     1
 72
     5
  1
(200/220 0)
1001
ACADANNOTATIVE
1000
AnnotativeData
1002
{
1070
     1
1070
     0
1002
}
  0
MTEXT
  5
4067
102
{ACAD_XDICTIONARY
360
4068
102
}
330
1A
100
AcDbEntity
  8
寸法線
 48
10.0
100
AcDbMText
 10
105.863944153407
 20
140.685044939247
 30
0.0
 40
8.0
 41
251.713339384691
 71
     1
 72
     5
  1
塗　装　色：10YR7.5/14\P接点　容量：AC250V5A\P静止トルク：約10.0N・cm\P回　転　数：1RPM
1001
ACADANNOTATIVE
1000
AnnotativeData
1002
{
1070
     1
1070
     0
1002
}
  0
MTEXT
  5
406B
330
1A
100
AcDbEntity
  8
寸法線
 48
10.0
100
AcDbMText
 10
125.870228376709
 20
173.66852201108
 30
0.0
 40
8.0
 41
161.650793650794
 71
     1
 72
     5
  1
○印が今回の貴社の御仕様です。
  0
LINE
  5
406C
330
1A
100
AcDbEntity
  8
寸法線
 62
     1
 48
10.0
100
AcDbLine
 10
103.255834690483
 20
203.879969884955
 30
0.0
 11
265.47929543808
 21
203.879969884955
 31
0.0
  0
LINE
  5
406D
330
1A
100
AcDbEntity
  8
寸法線
 62
     1
 48
10.0
100
AcDbLine
 10
103.255834690483
 20
190.618421120708
 30
0.0
 11
265.47929543808
 21
190.618421120708
 31
0.0
  0
LINE
  5
406E
330
1A
100
AcDbEntity
  8
寸法線
 62
     1
 48
10.0
100
AcDbLine
 10
103.255834690483
 20
177.356872356461
 30
0.0
 11
265.47929543808
 21
177.356872356461
 31
0.0
  0
LINE
  5
406F
330
1A
100
AcDbEntity
  8
寸法線
 62
     1
 48
10.0
100
AcDbLine
 10
103.255834690483
 20
216.881488281275
 30
0.0
 11
265.47929543808
 21
216.881488281275
 31
0.0
  0
LINE
  5
4070
330
1A
100
AcDbEntity
  8
寸法線
 62
     1
 48
10.0
100
AcDbLine
 10
136.01966104921
 20
216.881488281275
 30
0.0
 11
136.01966104921
 21
177.356872356461
 31
0.0
  0
LINE
  5
4071
330
1A
100
AcDbEntity
  8
寸法線
 62
     1
 48
10.0
100
AcDbLine
 10
103.255834690483
 20
216.881488281275
 30
0.0
 11
103.255834690483
 21
177.356872356461
 31
0.0
  0
LINE
  5
4072
330
1A
100
AcDbEntity
  8
寸法線
 62
     1
 48
10.0
100
AcDbLine
 10
201.027253030811
 20
216.881488281275
 30
0.0
 11
201.027253030811
 21
177.356872356461
 31
0.0
  0
LINE
  5
4073
330
1A
100
AcDbEntity
  8
寸法線
 62
     1
 48
10.0
100
AcDbLine
 10
265.47929543808
 20
216.881488281275
 30
0.0
 11
265.47929543808
 21
177.356872356461
 31
0.0
  0
VIEWPORT
  5
2902
330
28FB
100
AcDbEntity
 67
     1
  8
0
 48
10.0
100
AcDbViewport
 10
0.0
 20
0.0
 30
0.0
 40
480.782694851248
 41
306.727187601303
 68
     1
 69
     1
1001
ACAD
1000
MVIEW
1002
{
1070
    16
1010
0.0
1020
0.0
1030
0.0
1010
0.0
1020
0.0
1030
1.0
1040
0.0
1040
306.727187601303
1040
221.573092399869
1040
144.572472655988
1040
50.0
1040
0.0
1040
0.0
1070
    16
1070
   100
1070
     0
1070
     1
1070
     0
1070
     0
1070
     0
1070
     0
1040
0.0
1040
0.0
1040
0.0
1040
10.0
1040
10.0
1040
10.0
1040
10.0
1070
     0
1002
{
1002
}
1002
}
  0
VIEWPORT
  5
2904
330
28FB
100
AcDbEntity
 67
     1
  8
図枠太線
 48
10.0
100
AcDbViewport
 10
204.746305129083
 20
162.690735462727
 30
0.0
 40
400.0
 41
240.0
 68
     2
 69
     2
1001
ACAD
1000
MVIEW
1002
{
1070
    16
1010
0.0
1020
0.0
1030
0.0
1010
0.0
1020
0.0
1030
1.0
1040
0.0
1040
480.00000035445
1040
249.857731549078
1040
302.922891944468
1040
50.0
1040
0.0
1040
0.0
1070
     0
1070
   100
1070
     0
1070
     0
1070
     0
1070
     0
1070
     0
1070
     0
1040
0.0
1040
0.0
1040
0.0
1040
1.0
1040
1.0
1040
0.0
1040
0.0
1070
     0
1002
{
1002
}
1002
}
  0
INSERT
  5
2A59
330
28FB
100
AcDbEntity
 67
     1
  8
図枠太線
100
AcDbBlockReference
  2
A3横用_タイトル
 10
-0.352109406709
 20
-0.8352242908
 30
0.0
  0
MTEXT
  5
3045
102
{ACAD_XDICTIONARY
360
3FAD
102
}
330
28FB
100
AcDbEntity
 67
     1
  8
寸法線
 48
10.0
100
AcDbMText
 10
369.479786503454
 20
53.175203487762
 30
0.0
 40
5.0
 41
36.0
 71
     1
 72
     5
  1
台数    台
1001
ACADANNOTATIVE
1000
AnnotativeData
1002
{
1070
     1
1070
     0
1002
}
  0
MTEXT
  5
3046
330
28FB
100
AcDbEntity
 67
     1
  8
寸法線
 48
10.0
100
AcDbMText
 10
313.4245427298
 20
35.715648142051
 30
0.0
 40
7.0
 41
41.045003631856
 71
     1
 72
     5
  1
PRL-500
  0
MTEXT
  5
3047
330
28FB
100
AcDbEntity
 67
     1
  8
寸法線
 48
10.0
100
AcDbMText
 10
364.095941486128
 20
39.227167861983
 30
0.0
 40
5.0
 41
43.047199206047
 71
     1
 72
     5
  1
パドル式\Pレベルスイッチ
  0
MTEXT
  5
3048
102
{ACAD_XDICTIONARY
360
3FA4
102
}
330
28FB
100
AcDbEntity
 67
     1
  8
寸法線
 48
10.0
100
AcDbMText
 10
338.932708025449
 20
16.54136258927
 30
0.0
 40
8.0
 41
38.04171107615
 71
     1
 72
     5
  1
HR-10012
1001
ACADANNOTATIVE
1000
AnnotativeData
1002
{
1070
     1
1070
     0
1002
}
  0
MTEXT
  5
304A
330
28FB
100
AcDbEntity
 67
     1
  8
寸法線
 48
10.0
100
AcDbMText
 10
150.380468880327
 20
15.017410076081
 30
0.0
 40
7.0
 41
15.363556412778
 71
     1
 72
     5
  1
1:2
  0
MTEXT
  5
3D1C
102
{ACAD_XDICTIONARY
360
3FAA
102
}
330
28FB
100
AcDbEntity
 67
     1
  8
寸法線
 48
10.0
100
AcDbMText
 10
181.051893992802
 20
33.311459324216
 30
0.0
 40
4.5
 41
21.375384236178
 71
     1
 72
     5
  1
ohno
1001
ACADANNOTATIVE
1000
AnnotativeData
1002
{
1070
     1
1070
     0
1002
}
  0
MTEXT
  5
3D1D
102
{ACAD_XDICTIONARY
360
3FA7
102
}
330
28FB
100
AcDbEntity
 67
     1
  8
寸法線
 48
10.0
100
AcDbMText
 10
174.965887824139
 20
13.5792849029
 30
0.0
 40
4.0
 41
23.156665718806
 71
     1
 72
     5
  1
\H1.25x;2015.6.11
1001
ACADANNOTATIVE
1000
AnnotativeData
1002
{
1070
     1
1070
     0
1002
}
  0
ENDSEC
  0
SECTION
  2
OBJECTS
  0
DICTIONARY
  5
C
330
0
100
AcDbDictionary
  3
ACAD_COLOR
350
2948
  3
ACAD_GROUP
350
D
  3
ACAD_LAYOUT
350
2816
  3
ACAD_MATERIAL
350
2947
  3
ACAD_MLEADERSTYLE
350
3FA0
  3
ACAD_MLINESTYLE
350
E
  3
ACAD_PLOTSETTINGS
350
2817
  3
ACAD_SCALELIST
350
3F79
  3
ACAD_VISUALSTYLE
350
3F60
  3
ACDBHEADERROUNDTRIPXREC
350
407C
  3
ACDBVARIABLEDICTIONARY
350
4074
  3
DWGPROPS
350
40A1
  0
DICTIONARY
  5
40A2
330
8
100
AcDbDictionary
280
     1
  3
ACAD_XREC_ROUNDTRIP
360
40A3
  0
DICTIONARY
  5
29EA
330
2
100
AcDbDictionary
280
     1
  3
ACAD_LAYERFILTERS
360
2B0C
  3
ACAD_LAYERSTATES
360
29EB
  0
DICTIONARY
  5
402B
330
402A
100
AcDbDictionary
280
     1
  3
ACDBCONTEXTDATAMANAGER
360
402C
  0
DICTIONARY
  5
402F
330
402E
100
AcDbDictionary
280
     1
  3
ACDBCONTEXTDATAMANAGER
360
4030
  0
DICTIONARY
  5
4056
330
4055
100
AcDbDictionary
280
     1
  3
ACDBCONTEXTDATAMANAGER
360
4057
  0
DICTIONARY
  5
405B
330
405A
100
AcDbDictionary
280
     1
  3
ACDBCONTEXTDATAMANAGER
360
405C
  0
DICTIONARY
  5
405F
330
405E
100
AcDbDictionary
280
     1
  3
ACDBCONTEXTDATAMANAGER
360
4060
  0
DICTIONARY
  5
4064
330
4063
100
AcDbDictionary
280
     1
  3
ACDBCONTEXTDATAMANAGER
360
4065
  0
DICTIONARY
  5
4068
330
4067
100
AcDbDictionary
280
     1
  3
ACDBCONTEXTDATAMANAGER
360
4069
  0
DICTIONARY
  5
3FAD
330
3045
100
AcDbDictionary
280
     1
  3
ACDBCONTEXTDATAMANAGER
360
3FAE
  0
DICTIONARY
  5
3FA4
330
3048
100
AcDbDictionary
280
     1
  3
ACDBCONTEXTDATAMANAGER
360
3FA5
  0
DICTIONARY
  5
3FAA
330
3D1C
100
AcDbDictionary
280
     1
  3
ACDBCONTEXTDATAMANAGER
360
3FAB
  0
DICTIONARY
  5
3FA7
330
3D1D
100
AcDbDictionary
280
     1
  3
ACDBCONTEXTDATAMANAGER
360
3FA8
  0
DICTIONARY
  5
2948
102
{ACAD_REACTORS
330
C
102
}
330
C
100
AcDbDictionary
  0
DICTIONARY
  5
D
102
{ACAD_REACTORS
330
C
102
}
330
C
100
AcDbDictionary
  0
DICTIONARY
  5
2816
102
{ACAD_REACTORS
330
C
102
}
330
C
100
AcDbDictionary
  0
DICTIONARY
  5
2947
102
{ACAD_REACTORS
330
C
102
}
330
C
100
AcDbDictionary
  3
BYBLOCK
350
3F9C
  3
BYLAYER
350
3F9B
  3
GLOBAL
350
3F9D
  0
DICTIONARY
  5
3FA0
102
{ACAD_REACTORS
330
C
102
}
330
C
100
AcDbDictionary
  3
STANDARD
350
3FA1
  0
DICTIONARY
  5
E
102
{ACAD_REACTORS
330
C
102
}
330
C
100
AcDbDictionary
  3
STANDARD
350
13
  0
DICTIONARY
  5
2817
102
{ACAD_REACTORS
330
C
102
}
330
C
100
AcDbDictionary
  0
DICTIONARY
  5
3F79
102
{ACAD_REACTORS
330
C
102
}
330
C
100
AcDbDictionary
  3
A0
350
3F7A
  3
A1
350
3F7B
  3
A2
350
3F7C
  3
A3
350
3F7D
  3
A4
350
3F7E
  3
A5
350
3F7F
  3
A6
350
3F80
  3
A7
350
3F81
  3
A8
350
3F82
  3
A9
350
3F83
  3
B0
350
3F84
  3
B1
350
3F85
  3
B2
350
3F86
  3
B3
350
3F87
  3
B4
350
3F88
  3
B5
350
3F89
  3
B6
350
3F8A
  3
B7
350
3F8B
  3
B8
350
3F8C
  3
B9
350
3F8D
  3
C0
350
3F8E
  3
C1
350
3F8F
  3
C2
350
3F90
  3
C3
350
3F91
  3
C4
350
3F92
  3
C5
350
3F93
  3
C6
350
3F94
  3
C7
350
3F95
  3
C8
350
3F96
  3
C9
350
3F97
  3
D0
350
3F98
  3
D1
350
3F99
  3
D2
350
3F9A
  0
DICTIONARY
  5
3F60
102
{ACAD_REACTORS
330
C
102
}
330
C
100
AcDbDictionary
  3
2DWIREFRAME
350
3F65
  3
BASIC
350
3F68
  3
BRIGHTEN
350
3F6C
  3
COLORCHANGE
350
3F70
  3
CONCEPTUAL
350
3F6A
  3
DIM
350
3F6B
  3
EDGECOLOROFF
350
3F73
  3
FACEPATTERN
350
3F6F
  3
FLAT
350
3F61
  3
FLATWITHEDGES
350
3F62
  3
GOURAUD
350
3F63
  3
GOURAUDWITHEDGES
350
3F64
  3
HIDDEN
350
3F67
  3
JITTEROFF
350
3F71
  3
LINEPATTERN
350
3F6E
  3
OVERHANGOFF
350
3F72
  3
REALISTIC
350
3F69
  3
SHADED
350
3F78
  3
SHADED_WITH_EDGES
350
3F77
  3
SHADES_OF_GRAY
350
3F74
  3
SKETCHY
350
3F75
  3
THICKEN
350
3F6D
  3
WIREFRAME
350
3F66
  3
X-RAY
350
3F76
  0
DICTIONARY
  5
407C
102
{ACAD_REACTORS
330
C
102
}
330
C
100
AcDbDictionary
  3
CEPSNID
350
4086
  3
CEPSNTYPE
350
4085
  3
COLORDICT
350
409F
  3
DIMSTYLEDATA
350
409C
  3
FINGERPRINTGUID
350
4087
  3
HYPERLINKBASE
350
407F
  3
INSUNITS
350
4084
  3
LAYOUTDICT
350
4081
  3
LWETCUNION
350
4083
  3
MATERIALDICT
350
40A0
  3
PLOTSETDICT
350
4082
  3
PSVPSCALE
350
4089
  3
PUCSBASE
350
408C
  3
PUCSORGBACK
350
4092
  3
PUCSORGBOTTOM
350
408E
  3
PUCSORGFRONT
350
4091
  3
PUCSORGLEFT
350
408F
  3
PUCSORGRIGHT
350
4090
  3
PUCSORGTOP
350
408D
  3
PUCSORTHOREF
350
408A
  3
PUCSORTHOVIEW
350
408B
  3
STYLESHEET
350
4080
  3
TSTACKALIGN
350
407D
  3
TSTACKSIZE
350
407E
  3
UCSBASE
350
4095
  3
UCSORGBACK
350
409B
  3
UCSORGBOTTOM
350
4097
  3
UCSORGFRONT
350
409A
  3
UCSORGLEFT
350
4098
  3
UCSORGRIGHT
350
4099
  3
UCSORGTOP
350
4096
  3
UCSORTHOREF
350
4093
  3
UCSORTHOVIEW
350
4094
  3
VERSIONGUID
350
4088
  0
DICTIONARY
  5
4074
102
{ACAD_REACTORS
330
C
102
}
330
C
100
AcDbDictionary
  3
CANNOSCALE
350
4075
  3
CMLEADERSTYLE
350
4077
  3
CTABLESTYLE
350
4076
  3
DIMASSOC
350
409D
  3
HIDETEXT
350
409E
  3
MSLTSCALE
350
4078
  3
XCLIPFRAME
350
4079
  0
XRECORD
  5
40A1
102
{ACAD_REACTORS
330
C
102
}
330
C
100
AcDbXrecord
  1
DWGPROPS COOKIE
  2

  3

  4

  6

  7

  8
y-ohno
  9

300
=
301
=
302
=
303
=
304
=
305
=
306
=
307
=
308
=
309
=
 40
0.0
 41
2450576.222302431
 42
2457191.279698021
  1

 90
        0
  0
XRECORD
  5
40A3
102
{ACAD_REACTORS
330
40A2
102
}
330
40A2
100
AcDbXrecord
102
VTR_0.000_0.000_1.000_1.000_VISUALSTYLE
340
3F65
102
VTR_0.000_0.000_1.000_1.000_GRIDDISPLAY
 70
     3
102
VTR_0.000_0.000_1.000_1.000_GRIDMAJOR
 70
     5
102
VTR_0.000_0.000_1.000_1.000_DEFAULTLIGHTING
280
     1
102
VTR_0.000_0.000_1.000_1.000_DEFAULTLIGHTINGTYPE
 70
     1
102
VTR_0.000_0.000_1.000_1.000_BRIGHTNESS
141
0.0
102
VTR_0.000_0.000_1.000_1.000_CONTRAST
142
0.0
  0
DICTIONARY
  5
2B0C
102
{ACAD_REACTORS
330
29EA
102
}
330
29EA
100
AcDbDictionary
  0
DICTIONARY
  5
29EB
102
{ACAD_REACTORS
330
29EA
102
}
330
29EA
100
AcDbDictionary
  0
DICTIONARY
  5
402C
102
{ACAD_REACTORS
330
402B
102
}
330
402B
100
AcDbDictionary
  3
ACDB_ANNOTATIONSCALES
350
402D
  0
DICTIONARY
  5
4030
102
{ACAD_REACTORS
330
402F
102
}
330
402F
100
AcDbDictionary
  3
ACDB_ANNOTATIONSCALES
350
4031
  0
DICTIONARY
  5
4057
102
{ACAD_REACTORS
330
4056
102
}
330
4056
100
AcDbDictionary
  3
ACDB_ANNOTATIONSCALES
350
4058
  0
DICTIONARY
  5
405C
102
{ACAD_REACTORS
330
405B
102
}
330
405B
100
AcDbDictionary
  3
ACDB_ANNOTATIONSCALES
350
405D
  0
DICTIONARY
  5
4060
102
{ACAD_REACTORS
330
405F
102
}
330
405F
100
AcDbDictionary
  3
ACDB_ANNOTATIONSCALES
350
4061
  0
DICTIONARY
  5
4065
102
{ACAD_REACTORS
330
4064
102
}
330
4064
100
AcDbDictionary
  3
ACDB_ANNOTATIONSCALES
350
4066
  0
DICTIONARY
  5
4069
102
{ACAD_REACTORS
330
4068
102
}
330
4068
100
AcDbDictionary
  3
ACDB_ANNOTATIONSCALES
350
406A
  0
DICTIONARY
  5
3FAE
102
{ACAD_REACTORS
330
3FAD
102
}
330
3FAD
100
AcDbDictionary
  3
ACDB_ANNOTATIONSCALES
350
3FAF
  0
DICTIONARY
  5
3FA5
102
{ACAD_REACTORS
330
3FA4
102
}
330
3FA4
100
AcDbDictionary
  3
ACDB_ANNOTATIONSCALES
350
3FA6
  0
DICTIONARY
  5
3FAB
102
{ACAD_REACTORS
330
3FAA
102
}
330
3FAA
100
AcDbDictionary
  3
ACDB_ANNOTATIONSCALES
350
3FAC
  0
DICTIONARY
  5
3FA8
102
{ACAD_REACTORS
330
3FA7
102
}
330
3FA7
100
AcDbDictionary
  3
ACDB_ANNOTATIONSCALES
350
3FA9
  0
MATERIAL
  5
3F9C
102
{ACAD_REACTORS
330
2947
102
}
102
{ACAD_XDICTIONARY
360
40A6
102
}
330
2947
100
AcDbMaterial
  1
BYBLOCK
  0
MATERIAL
  5
3F9B
102
{ACAD_REACTORS
330
2947
102
}
102
{ACAD_XDICTIONARY
360
40A4
102
}
330
2947
100
AcDbMaterial
  1
BYLAYER
  0
MATERIAL
  5
3F9D
102
{ACAD_REACTORS
330
2947
102
}
102
{ACAD_XDICTIONARY
360
40A8
102
}
330
2947
100
AcDbMaterial
  1
GLOBAL
  0
ACAD_PROXY_OBJECT
  5
3FA1
102
{ACAD_REACTORS
330
3FA0
102
}
330
3FA0
100
AcDbProxyObject
 90
      499
 91
      509
 93
      610
310
40901902A4063FBFFFFFE0000000000000020400000000000020404214DD185B99185C990000000000000104090141901A00000000000004100000000000000041025764000000000000039000
340
14
340
0
340
10
340
0
 94
        0
1001
ACAD_MLEADERVER
1070
     2
  0
MLINESTYLE
  5
13
102
{ACAD_REACTORS
330
E
102
}
330
E
100
AcDbMlineStyle
  2
STANDARD
 70
     0
  3

 62
     0
 51
90.0
 52
90.0
 71
     2
 49
0.5
 62
   256
  6
BYLAYER
 49
-0.5
 62
   256
  6
BYLAYER
  0
ACAD_PROXY_OBJECT
  5
3F7A
102
{ACAD_REACTORS
330
3F79
102
}
330
3F79
100
AcDbProxyObject
 90
      499
 91
      506
 93
       41
310
903313A31580
  0
ACAD_PROXY_OBJECT
  5
3F7B
102
{ACAD_REACTORS
330
3F79
102
}
330
3F79
100
AcDbProxyObject
 90
      499
 91
      506
 93
      105
310
903313A324000000000000004000
  0
ACAD_PROXY_OBJECT
  5
3F7C
102
{ACAD_REACTORS
330
3F79
102
}
330
3F79
100
AcDbProxyObject
 90
      499
 91
      506
 93
      105
310
903313A344000000000000104000
  0
ACAD_PROXY_OBJECT
  5
3F7D
102
{ACAD_REACTORS
330
3F79
102
}
330
3F79
100
AcDbProxyObject
 90
      499
 91
      506
 93
      105
310
903313A354000000000000144000
  0
ACAD_PROXY_OBJECT
  5
3F7E
102
{ACAD_REACTORS
330
3F79
102
}
330
3F79
100
AcDbProxyObject
 90
      499
 91
      506
 93
      105
310
903313A384000000000000204000
  0
ACAD_PROXY_OBJECT
  5
3F7F
102
{ACAD_REACTORS
330
3F79
102
}
330
3F79
100
AcDbProxyObject
 90
      499
 91
      506
 93
      113
310
904313A31304000000000000244000
  0
ACAD_PROXY_OBJECT
  5
3F80
102
{ACAD_REACTORS
330
3F79
102
}
330
3F79
100
AcDbProxyObject
 90
      499
 91
      506
 93
      113
310
904313A31364000000000000304000
  0
ACAD_PROXY_OBJECT
  5
3F81
102
{ACAD_REACTORS
330
3F79
102
}
330
3F79
100
AcDbProxyObject
 90
      499
 91
      506
 93
      113
310
904313A32304000000000000344000
  0
ACAD_PROXY_OBJECT
  5
3F82
102
{ACAD_REACTORS
330
3F79
102
}
330
3F79
100
AcDbProxyObject
 90
      499
 91
      506
 93
      113
310
904313A333040000000000003E4000
  0
ACAD_PROXY_OBJECT
  5
3F83
102
{ACAD_REACTORS
330
3F79
102
}
330
3F79
100
AcDbProxyObject
 90
      499
 91
      506
 93
      113
310
904313A34304000000000000444000
  0
ACAD_PROXY_OBJECT
  5
3F84
102
{ACAD_REACTORS
330
3F79
102
}
330
3F79
100
AcDbProxyObject
 90
      499
 91
      506
 93
      113
310
904313A35304000000000000494000
  0
ACAD_PROXY_OBJECT
  5
3F85
102
{ACAD_REACTORS
330
3F79
102
}
330
3F79
100
AcDbProxyObject
 90
      499
 91
      506
 93
      121
310
905313A3130304000000000000594000
  0
ACAD_PROXY_OBJECT
  5
3F86
102
{ACAD_REACTORS
330
3F79
102
}
330
3F79
100
AcDbProxyObject
 90
      499
 91
      506
 93
      105
310
903323A310000000000000010100
  0
ACAD_PROXY_OBJECT
  5
3F87
102
{ACAD_REACTORS
330
3F79
102
}
330
3F79
100
AcDbProxyObject
 90
      499
 91
      506
 93
      105
310
903343A310000000000000410100
  0
ACAD_PROXY_OBJECT
  5
3F88
102
{ACAD_REACTORS
330
3F79
102
}
330
3F79
100
AcDbProxyObject
 90
      499
 91
      506
 93
      105
310
903383A310000000000000810100
  0
ACAD_PROXY_OBJECT
  5
3F89
102
{ACAD_REACTORS
330
3F79
102
}
330
3F79
100
AcDbProxyObject
 90
      499
 91
      506
 93
      113
310
90431303A310000000000000910100
  0
ACAD_PROXY_OBJECT
  5
3F8A
102
{ACAD_REACTORS
330
3F79
102
}
330
3F79
100
AcDbProxyObject
 90
      499
 91
      506
 93
      121
310
9053130303A310000000000001650100
  0
ACAD_PROXY_OBJECT
  5
3F8B
102
{ACAD_REACTORS
330
3F79
102
}
330
3F79
100
AcDbProxyObject
 90
      499
 91
      506
 93
      257
310
90E312F31323822203D2031272D3022000000000000200FC000000000000284000
  0
ACAD_PROXY_OBJECT
  5
3F8C
102
{ACAD_REACTORS
330
3F79
102
}
330
3F79
100
AcDbProxyObject
 90
      499
 91
      506
 93
      249
310
90D312F363422203D2031272D3022000000000000240FC000000000000284000
  0
ACAD_PROXY_OBJECT
  5
3F8D
102
{ACAD_REACTORS
330
3F79
102
}
330
3F79
100
AcDbProxyObject
 90
      499
 91
      506
 93
      249
310
90D312F333222203D2031272D3022000000000000280FC000000000000284000
  0
ACAD_PROXY_OBJECT
  5
3F8E
102
{ACAD_REACTORS
330
3F79
102
}
330
3F79
100
AcDbProxyObject
 90
      499
 91
      506
 93
      249
310
90D312F313622203D2031272D30220000000000002C0FC000000000000284000
  0
ACAD_PROXY_OBJECT
  5
3F8F
102
{ACAD_REACTORS
330
3F79
102
}
330
3F79
100
AcDbProxyObject
 90
      499
 91
      506
 93
      249
310
90D332F333222203D2031272D30220000000000002E0FC000000000000284000
  0
ACAD_PROXY_OBJECT
  5
3F90
102
{ACAD_REACTORS
330
3F79
102
}
330
3F79
100
AcDbProxyObject
 90
      499
 91
      506
 93
      241
310
90C312F3822203D2031272D3022000000000000300FC000000000000284000
  0
ACAD_PROXY_OBJECT
  5
3F91
102
{ACAD_REACTORS
330
3F79
102
}
330
3F79
100
AcDbProxyObject
 90
      499
 91
      506
 93
      249
310
90D332F313622203D2031272D3022000000000000320FC000000000000284000
  0
ACAD_PROXY_OBJECT
  5
3F92
102
{ACAD_REACTORS
330
3F79
102
}
330
3F79
100
AcDbProxyObject
 90
      499
 91
      506
 93
      241
310
90C312F3422203D2031272D3022000000000000340FC000000000000284000
  0
ACAD_PROXY_OBJECT
  5
3F93
102
{ACAD_REACTORS
330
3F79
102
}
330
3F79
100
AcDbProxyObject
 90
      499
 91
      506
 93
      241
310
90C332F3822203D2031272D3022000000000000360FC000000000000284000
  0
ACAD_PROXY_OBJECT
  5
3F94
102
{ACAD_REACTORS
330
3F79
102
}
330
3F79
100
AcDbProxyObject
 90
      499
 91
      506
 93
      241
310
90C312F3222203D2031272D3022000000000000380FC000000000000284000
  0
ACAD_PROXY_OBJECT
  5
3F95
102
{ACAD_REACTORS
330
3F79
102
}
330
3F79
100
AcDbProxyObject
 90
      499
 91
      506
 93
      241
310
90C332F3422203D2031272D30220000000000003A0FC000000000000284000
  0
ACAD_PROXY_OBJECT
  5
3F96
102
{ACAD_REACTORS
330
3F79
102
}
330
3F79
100
AcDbProxyObject
 90
      499
 91
      506
 93
      161
310
90A3122203D2031272D30224000000000000284000
  0
ACAD_PROXY_OBJECT
  5
3F97
102
{ACAD_REACTORS
330
3F79
102
}
330
3F79
100
AcDbProxyObject
 90
      499
 91
      506
 93
      257
310
90E312D312F3222203D2031272D30220000000000003E0FC000000000000284000
  0
ACAD_PROXY_OBJECT
  5
3F98
102
{ACAD_REACTORS
330
3F79
102
}
330
3F79
100
AcDbProxyObject
 90
      499
 91
      506
 93
      225
310
90A3322203D2031272D302200000000000002100000000000000284000
  0
ACAD_PROXY_OBJECT
  5
3F99
102
{ACAD_REACTORS
330
3F79
102
}
330
3F79
100
AcDbProxyObject
 90
      499
 91
      506
 93
      225
310
90A3622203D2031272D302200000000000006100000000000000284000
  0
ACAD_PROXY_OBJECT
  5
3F9A
102
{ACAD_REACTORS
330
3F79
102
}
330
3F79
100
AcDbProxyObject
 90
      499
 91
      506
 93
      249
310
90D31272D3022203D2031272D30220000000000000A100000000000000284000
  0
ACAD_PROXY_OBJECT
  5
3F65
102
{ACAD_REACTORS
330
3F60
102
}
330
3F60
100
AcDbProxyObject
 90
      499
 91
      505
 93
      436
310
42CC9915DA5C99599C985B595049028333333333333E33F0000000000000F90107901411070040501600405405064090741402480A0340
1001
ACAD
1000
AcDbSavedByObjectVersion
1070
     0
  0
ACAD_PROXY_OBJECT
  5
3F68
102
{ACAD_REACTORS
330
3F60
102
}
330
3F60
100
AcDbProxyObject
 90
      499
 91
      505
 93
      388
310
4150985CDA58D07406404333333333333E33F0000000000000F90107A41107004050150841D405064090741402480A0350
1001
ACAD
1000
AcDbSavedByObjectVersion
1070
     0
  0
ACAD_PROXY_OBJECT
  5
3F6C
102
{ACAD_REACTORS
330
3F60
102
}
330
3F60
100
AcDbProxyObject
 90
      499
 91
      505
 93
      428
310
42109C9A59DA1D195B90C409028333333333333E33F0000000000000F9010790141107004050150841D405064090741402480A029950
1001
ACAD
1000
AcDbSavedByObjectVersion
1070
     0
  0
ACAD_PROXY_OBJECT
  5
3F70
102
{ACAD_REACTORS
330
3F60
102
}
330
3F60
100
AcDbProxyObject
 90
      499
 91
      505
 93
      452
310
42D0DBDB1BDC90DA185B99D95104090240C333333333333E33F0000000000000F90108901411070040501508421405064090741402480A0350
1001
ACAD
1000
AcDbSavedByObjectVersion
1070
     0
  0
ACAD_PROXY_OBJECT
  5
3F6A
102
{ACAD_REACTORS
330
3F60
102
}
330
3F60
100
AcDbProxyObject
 90
      499
 91
      505
 93
      500
310
4290DBDB98D95C1D1D585B10940D028333333333333E33F0000000000000F90107902409070040501000000000018199010841D405064090740C02480A0340
1001
ACAD
1000
AcDbSavedByObjectVersion
1070
     0
  0
ACAD_PROXY_OBJECT
  5
3F6B
102
{ACAD_REACTORS
330
3F60
102
}
330
3F60
100
AcDbProxyObject
 90
      499
 91
      505
 93
      412
310
40D11A5B50B409028333333333333E33F0000000000000F9010790141107004050150841D405064090741402480A02677FFFFFD0
1001
ACAD
1000
AcDbSavedByObjectVersion
1070
     0
  0
ACAD_PROXY_OBJECT
  5
3F73
102
{ACAD_REACTORS
330
3F60
102
}
330
3F60
100
AcDbProxyObject
 90
      499
 91
      505
 93
      452
310
43115919D950DBDB1BDC93D999916409028333333333333E33F0000000000000F9010790141107004050150841D405064090741402480A0350
1001
ACAD
1000
AcDbSavedByObjectVersion
1070
     0
  0
ACAD_PROXY_OBJECT
  5
3F6F
102
{ACAD_REACTORS
330
3F60
102
}
330
3F60
100
AcDbProxyObject
 90
      499
 91
      505
 93
      444
310
42D19858D95C185D1D195C9B90F409028333333333333E33F0000000000000F9010790141107004050150841D405064090741402480A0350
1001
ACAD
1000
AcDbSavedByObjectVersion
1070
     0
  0
ACAD_PROXY_OBJECT
  5
3F61
102
{ACAD_REACTORS
330
3F60
102
}
330
3F60
100
AcDbProxyObject
 90
      499
 91
      505
 93
      380
310
41119B185D240901404333333333333E33F0000000000000F9010740A907004050150841D405064090741402480A1B50
1001
ACAD
1000
AcDbSavedByObjectVersion
1070
     0
  0
ACAD_PROXY_OBJECT
  5
3F62
102
{ACAD_REACTORS
330
3F60
102
}
330
3F60
100
AcDbProxyObject
 90
      499
 91
      505
 93
      468
310
43519B185D15DA5D1A115919D95CD0140901404333333333333E33F0000000000000F90107409019070040501600405405064090741402480A1B50
1001
ACAD
1000
AcDbSavedByObjectVersion
1070
     0
  0
ACAD_PROXY_OBJECT
  5
3F63
102
{ACAD_REACTORS
330
3F60
102
}
330
3F60
100
AcDbProxyObject
 90
      499
 91
      505
 93
      404
310
41D1DBDD5C985D5910240902404333333333333E33F0000000000000F9010740A9070040501641D405064090741402480A1B50
1001
ACAD
1000
AcDbSavedByObjectVersion
1070
     0
  0
ACAD_PROXY_OBJECT
  5
3F64
102
{ACAD_REACTORS
330
3F60
102
}
330
3F60
100
AcDbProxyObject
 90
      499
 91
      505
 93
      492
310
4411DBDD5C985D5915DA5D1A115919D95CD0340902404333333333333E33F0000000000000F90107409019070040501600405405064090741402480A1B50
1001
ACAD
1000
AcDbSavedByObjectVersion
1070
     0
  0
ACAD_PROXY_OBJECT
  5
3F67
102
{ACAD_REACTORS
330
3F60
102
}
330
3F60
100
AcDbProxyObject
 90
      499
 91
      505
 93
      476
310
41921A5919195B90640502408333333333333E33F0000000000000F901079024090700405020000000000001110200405405064090740C02480A0340
1001
ACAD
1000
AcDbSavedByObjectVersion
1070
     0
  0
ACAD_PROXY_OBJECT
  5
3F71
102
{ACAD_REACTORS
330
3F60
102
}
330
3F60
100
AcDbProxyObject
 90
      499
 91
      505
 93
      428
310
42529A5D1D195C93D999914409028333333333333E33F0000000000000F9010790141107004050150A41D405064090741402480A0350
1001
ACAD
1000
AcDbSavedByObjectVersion
1070
     0
  0
ACAD_PROXY_OBJECT
  5
3F6E
102
{ACAD_REACTORS
330
3F60
102
}
330
3F60
100
AcDbProxyObject
 90
      499
 91
      505
 93
      444
310
42D31A5B995C185D1D195C9B90E409028333333333333E33F0000000000000F9010790141107004050750841D405064090741402483A0350
1001
ACAD
1000
AcDbSavedByObjectVersion
1070
     0
  0
ACAD_PROXY_OBJECT
  5
3F72
102
{ACAD_REACTORS
330
3F60
102
}
330
3F60
100
AcDbProxyObject
 90
      499
 91
      505
 93
      444
310
42D3DD995C9A185B99D3D999915409028333333333333E33F0000000000000F9010790141107004050150941D405064090741402480A0350
1001
ACAD
1000
AcDbSavedByObjectVersion
1070
     0
  0
ACAD_PROXY_OBJECT
  5
3F69
102
{ACAD_REACTORS
330
3F60
102
}
330
3F60
100
AcDbProxyObject
 90
      499
 91
      505
 93
      428
310
425499585B1A5CDD1A58D08409038333333333333E33F0000000000000F9010740A907004050150800405405064090740C02480A1B40
1001
ACAD
1000
AcDbSavedByObjectVersion
1070
     0
  0
ACAD_PROXY_OBJECT
  5
3F78
102
{ACAD_REACTORS
330
3F60
102
}
330
3F60
100
AcDbProxyObject
 90
      499
 91
      505
 93
      420
310
4194DA1859195911B40902404333333333333E33F0000000000000F9010740A41107004050150800405405064090840C02480A0B40
1001
ACAD
1000
AcDbSavedByObjectVersion
1070
     0
  0
ACAD_PROXY_OBJECT
  5
3F77
102
{ACAD_REACTORS
330
3F60
102
}
330
3F60
100
AcDbProxyObject
 90
      499
 91
      505
 93
      516
310
4454DA18591959081DDA5D1A08195919D95CD1A40902404333333333333E33F0000000000000F901074090142907004050250800405405064090740C02480A0B40
1001
ACAD
1000
AcDbSavedByObjectVersion
1070
     0
  0
ACAD_PROXY_OBJECT
  5
3F74
102
{ACAD_REACTORS
330
3F60
102
}
330
3F60
100
AcDbProxyObject
 90
      499
 91
      505
 93
      532
310
4394DA1859195CC81BD98811DC985E5174090240C333333333333E33F0000000000000F901079024090741D01000000000000111010841D405064090740C02480A0340
1001
ACAD
1000
AcDbSavedByObjectVersion
1070
     0
  0
ACAD_PROXY_OBJECT
  5
3F75
102
{ACAD_REACTORS
330
3F60
102
}
330
3F60
100
AcDbProxyObject
 90
      499
 91
      505
 93
      476
310
41D4DAD95D18DA1E51840502408333333333333E33F0000000000000F901079024090741D01000000000000111010B41D405064090741802480A0340
1001
ACAD
1000
AcDbSavedByObjectVersion
1070
     0
  0
ACAD_PROXY_OBJECT
  5
3F6D
102
{ACAD_REACTORS
330
3F60
102
}
330
3F60
100
AcDbProxyObject
 90
      499
 91
      505
 93
      412
310
41D51A1A58DAD95B90D409028333333333333E33F0000000000000F9010790141107004050150C41D405064090741402480A0350
1001
ACAD
1000
AcDbSavedByObjectVersion
1070
     0
  0
ACAD_PROXY_OBJECT
  5
3F66
102
{ACAD_REACTORS
330
3F60
102
}
330
3F60
100
AcDbProxyObject
 90
      499
 91
      505
 93
      420
310
4255DA5C99599C985B595059028333333333333E33F0000000000000F90107901411070040501600405405064090740C02480A0340
1001
ACAD
1000
AcDbSavedByObjectVersion
1070
     0
  0
ACAD_PROXY_OBJECT
  5
3F76
102
{ACAD_REACTORS
330
3F60
102
}
330
3F60
100
AcDbProxyObject
 90
      499
 91
      505
 93
      404
310
41560B54985E51940902404000000000000E03F0000000000000F9010740501907004050150841D405064090740C02480A1B40
1001
ACAD
1000
AcDbSavedByObjectVersion
1070
     0
  0
XRECORD
  5
4086
102
{ACAD_REACTORS
330
407C
102
}
330
407C
100
AcDbXrecord
340
0
  0
XRECORD
  5
4085
102
{ACAD_REACTORS
330
407C
102
}
330
407C
100
AcDbXrecord
 90
        0
  0
XRECORD
  5
409F
102
{ACAD_REACTORS
330
407C
102
}
330
407C
100
AcDbXrecord
340
2948
  0
XRECORD
  5
409C
102
{ACAD_REACTORS
330
407C
102
}
330
407C
100
AcDbXrecord
1000
DSTYLE
1002
{
1070
   171
 70
     2
1070
   143
 40
0.0394
1070
   274
 70
     2
1070
    41
 40
6.0
1070
   342
340
2AF4
1070
   271
 70
     1
1070
   278
 70
    46
1070
   341
340
2AF4
1070
   272
 70
     1
1070
    48
 40
0.1
1070
   283
 70
     1
1070
    47
 40
0.1
1070
   145
 40
1.0
1070
   340
340
10
1070
   140
 40
5.0
1070
   284
 70
     0
1002
}
  0
XRECORD
  5
4087
102
{ACAD_REACTORS
330
407C
102
}
330
407C
100
AcDbXrecord
  1
{23698909-1D67-4744-B0E2-8DE11E3ED422}
  0
XRECORD
  5
407F
102
{ACAD_REACTORS
330
407C
102
}
330
407C
100
AcDbXrecord
  1

  0
XRECORD
  5
4084
102
{ACAD_REACTORS
330
407C
102
}
330
407C
100
AcDbXrecord
 90
        0
  0
XRECORD
  5
4081
102
{ACAD_REACTORS
330
407C
102
}
330
407C
100
AcDbXrecord
340
2816
  0
XRECORD
  5
4083
102
{ACAD_REACTORS
330
407C
102
}
330
407C
100
AcDbXrecord
 90
    10781
  0
XRECORD
  5
40A0
102
{ACAD_REACTORS
330
407C
102
}
330
407C
100
AcDbXrecord
340
2947
  0
XRECORD
  5
4082
102
{ACAD_REACTORS
330
407C
102
}
330
407C
100
AcDbXrecord
340
2817
  0
XRECORD
  5
4089
102
{ACAD_REACTORS
330
407C
102
}
330
407C
100
AcDbXrecord
 40
0.25
  0
XRECORD
  5
408C
102
{ACAD_REACTORS
330
407C
102
}
330
407C
100
AcDbXrecord
340
0
  0
XRECORD
  5
4092
102
{ACAD_REACTORS
330
407C
102
}
330
407C
100
AcDbXrecord
 10
0.0
 20
0.0
 30
0.0
  0
XRECORD
  5
408E
102
{ACAD_REACTORS
330
407C
102
}
330
407C
100
AcDbXrecord
 10
0.0
 20
0.0
 30
0.0
  0
XRECORD
  5
4091
102
{ACAD_REACTORS
330
407C
102
}
330
407C
100
AcDbXrecord
 10
0.0
 20
0.0
 30
0.0
  0
XRECORD
  5
408F
102
{ACAD_REACTORS
330
407C
102
}
330
407C
100
AcDbXrecord
 10
0.0
 20
0.0
 30
0.0
  0
XRECORD
  5
4090
102
{ACAD_REACTORS
330
407C
102
}
330
407C
100
AcDbXrecord
 10
0.0
 20
0.0
 30
0.0
  0
XRECORD
  5
408D
102
{ACAD_REACTORS
330
407C
102
}
330
407C
100
AcDbXrecord
 10
0.0
 20
0.0
 30
0.0
  0
XRECORD
  5
408A
102
{ACAD_REACTORS
330
407C
102
}
330
407C
100
AcDbXrecord
340
0
  0
XRECORD
  5
408B
102
{ACAD_REACTORS
330
407C
102
}
330
407C
100
AcDbXrecord
 70
     0
  0
XRECORD
  5
4080
102
{ACAD_REACTORS
330
407C
102
}
330
407C
100
AcDbXrecord
  1

  0
XRECORD
  5
407D
102
{ACAD_REACTORS
330
407C
102
}
330
407C
100
AcDbXrecord
 90
        1
  0
XRECORD
  5
407E
102
{ACAD_REACTORS
330
407C
102
}
330
407C
100
AcDbXrecord
 90
       70
  0
XRECORD
  5
4095
102
{ACAD_REACTORS
330
407C
102
}
330
407C
100
AcDbXrecord
340
0
  0
XRECORD
  5
409B
102
{ACAD_REACTORS
330
407C
102
}
330
407C
100
AcDbXrecord
 10
0.0
 20
0.0
 30
0.0
  0
XRECORD
  5
4097
102
{ACAD_REACTORS
330
407C
102
}
330
407C
100
AcDbXrecord
 10
0.0
 20
0.0
 30
0.0
  0
XRECORD
  5
409A
102
{ACAD_REACTORS
330
407C
102
}
330
407C
100
AcDbXrecord
 10
0.0
 20
0.0
 30
0.0
  0
XRECORD
  5
4098
102
{ACAD_REACTORS
330
407C
102
}
330
407C
100
AcDbXrecord
 10
0.0
 20
0.0
 30
0.0
  0
XRECORD
  5
4099
102
{ACAD_REACTORS
330
407C
102
}
330
407C
100
AcDbXrecord
 10
0.0
 20
0.0
 30
0.0
  0
XRECORD
  5
4096
102
{ACAD_REACTORS
330
407C
102
}
330
407C
100
AcDbXrecord
 10
0.0
 20
0.0
 30
0.0
  0
XRECORD
  5
4093
102
{ACAD_REACTORS
330
407C
102
}
330
407C
100
AcDbXrecord
340
0
  0
XRECORD
  5
4094
102
{ACAD_REACTORS
330
407C
102
}
330
407C
100
AcDbXrecord
 70
     0
  0
XRECORD
  5
4088
102
{ACAD_REACTORS
330
407C
102
}
330
407C
100
AcDbXrecord
  1
{138A7911-D4A7-483C-BDA2-2D484CCEBD2D}
  0
DICTIONARYVAR
  5
4075
102
{ACAD_REACTORS
330
4074
102
}
330
4074
100
DictionaryVariables
280
     0
  1
1:1
  0
DICTIONARYVAR
  5
4077
102
{ACAD_REACTORS
330
4074
102
}
330
4074
100
DictionaryVariables
280
     0
  1
Standard
  0
DICTIONARYVAR
  5
4076
102
{ACAD_REACTORS
330
4074
102
}
330
4074
100
DictionaryVariables
280
     0
  1
Standard
  0
DICTIONARYVAR
  5
409D
102
{ACAD_REACTORS
330
4074
102
}
330
4074
100
DictionaryVariables
280
     0
  1
1
  0
DICTIONARYVAR
  5
409E
102
{ACAD_REACTORS
330
4074
102
}
330
4074
100
DictionaryVariables
280
     0
  1
0
  0
DICTIONARYVAR
  5
4078
102
{ACAD_REACTORS
330
4074
102
}
330
4074
100
DictionaryVariables
280
     0
  1
0
  0
DICTIONARYVAR
  5
4079
102
{ACAD_REACTORS
330
4074
102
}
330
4074
100
DictionaryVariables
280
     0
  1
0
  0
DICTIONARY
  5
402D
102
{ACAD_REACTORS
330
402C
102
}
330
402C
100
AcDbDictionary
  0
DICTIONARY
  5
4031
102
{ACAD_REACTORS
330
4030
102
}
330
4030
100
AcDbDictionary
  0
DICTIONARY
  5
4058
102
{ACAD_REACTORS
330
4057
102
}
330
4057
100
AcDbDictionary
  0
DICTIONARY
  5
405D
102
{ACAD_REACTORS
330
405C
102
}
330
405C
100
AcDbDictionary
  0
DICTIONARY
  5
4061
102
{ACAD_REACTORS
330
4060
102
}
330
4060
100
AcDbDictionary
  0
DICTIONARY
  5
4066
102
{ACAD_REACTORS
330
4065
102
}
330
4065
100
AcDbDictionary
  0
DICTIONARY
  5
406A
102
{ACAD_REACTORS
330
4069
102
}
330
4069
100
AcDbDictionary
  0
DICTIONARY
  5
3FAF
102
{ACAD_REACTORS
330
3FAE
102
}
330
3FAE
100
AcDbDictionary
  0
DICTIONARY
  5
3FA6
102
{ACAD_REACTORS
330
3FA5
102
}
330
3FA5
100
AcDbDictionary
  0
DICTIONARY
  5
3FAC
102
{ACAD_REACTORS
330
3FAB
102
}
330
3FAB
100
AcDbDictionary
  0
DICTIONARY
  5
3FA9
102
{ACAD_REACTORS
330
3FA8
102
}
330
3FA8
100
AcDbDictionary
  0
DICTIONARY
  5
40A6
330
3F9C
100
AcDbDictionary
280
     1
  3
ACAD_XREC_ROUNDTRIP
360
40A7
  0
DICTIONARY
  5
40A4
330
3F9B
100
AcDbDictionary
280
     1
  3
ACAD_XREC_ROUNDTRIP
360
40A5
  0
DICTIONARY
  5
40A8
330
3F9D
100
AcDbDictionary
280
     1
  3
ACAD_XREC_ROUNDTRIP
360
40A9
  0
XRECORD
  5
40A7
102
{ACAD_REACTORS
330
40A6
102
}
330
40A6
100
AcDbXrecord
102
MATERIAL
148
0.0
149
0.0
149
0.0
 93
        0
 94
      127
282
     0
 72
     1
 77
     1
171
     1
175
     1
179
     1
273
     0
  0
XRECORD
  5
40A5
102
{ACAD_REACTORS
330
40A4
102
}
330
40A4
100
AcDbXrecord
102
MATERIAL
148
0.0
149
0.0
149
0.0
 93
        0
 94
      127
282
     0
 72
     1
 77
     1
171
     1
175
     1
179
     1
273
     0
  0
XRECORD
  5
40A9
102
{ACAD_REACTORS
330
40A8
102
}
330
40A8
100
AcDbXrecord
102
MATERIAL
148
0.0
149
0.0
149
0.0
 93
        0
 94
      127
282
     0
 72
     1
 77
     1
171
     1
175
     1
179
     1
273
     0
  0
ENDSEC
  0
EOF
