  0
SECTION
  2
HEADER
  9
$ACADVER
  1
AC1014
  9
$ACADMAINTVER
 70
     9
  9
$DWGCODEPAGE
  3
ANSI_932
  9
$INSBASE
 10
0.0
 20
0.0
 30
0.0
  9
$EXTMIN
 10
-55.119694822859
 20
82.537263528401
 30
0.0
  9
$EXTMAX
 10
542.16315629384
 20
488.782317679394
 30
0.0
  9
$LIMMIN
 10
-360.747566795242
 20
4.457354754526
  9
$LIMMAX
 10
-162.153696144267
 20
287.675440264018
  9
$ORTHOMODE
 70
     1
  9
$REGENMODE
 70
     1
  9
$FILLMODE
 70
     1
  9
$QTEXTMODE
 70
     0
  9
$MIRRTEXT
 70
     1
  9
$DRAGMODE
 70
     2
  9
$LTSCALE
 40
1.0
  9
$OSMODE
 70
    32
  9
$ATTMODE
 70
     1
  9
$TEXTSIZE
 40
2.333873885063
  9
$TRACEWID
 40
1.0
  9
$TEXTSTYLE
  7
STANDARD
  9
$CLAYER
  8
寸法線
  9
$CELTYPE
  6
BYLAYER
  9
$CECOLOR
 62
     1
  9
$CELTSCALE
 40
10.0
  9
$DELOBJ
 70
     1
  9
$DISPSILH
 70
     0
  9
$DIMSCALE
 40
1.0
  9
$DIMASZ
 40
6.0
  9
$DIMEXO
 40
0.625
  9
$DIMDLI
 40
3.75
  9
$DIMRND
 40
0.0
  9
$DIMDLE
 40
0.0
  9
$DIMEXE
 40
1.25
  9
$DIMTP
 40
0.1
  9
$DIMTM
 40
0.1
  9
$DIMTXT
 40
8.0
  9
$DIMCEN
 40
2.5
  9
$DIMTSZ
 40
0.0
  9
$DIMTOL
 70
     0
  9
$DIMLIM
 70
     0
  9
$DIMTIH
 70
     0
  9
$DIMTOH
 70
     0
  9
$DIMSE1
 70
     0
  9
$DIMSE2
 70
     0
  9
$DIMTAD
 70
     1
  9
$DIMZIN
 70
     8
  9
$DIMBLK
  1
OPEN30
  9
$DIMASO
 70
     1
  9
$DIMSHO
 70
     1
  9
$DIMPOST
  1

  9
$DIMAPOST
  1

  9
$DIMALT
 70
     0
  9
$DIMALTD
 70
     2
  9
$DIMALTF
 40
0.0394
  9
$DIMLFAC
 40
1.0
  9
$DIMTOFL
 70
     1
  9
$DIMTVP
 40
1.0
  9
$DIMTIX
 70
     0
  9
$DIMSOXD
 70
     0
  9
$DIMSAH
 70
     0
  9
$DIMBLK1
  1

  9
$DIMBLK2
  1

  9
$DIMSTYLE
  2
ISO-25
  9
$DIMCLRD
 70
     0
  9
$DIMCLRE
 70
     0
  9
$DIMCLRT
 70
     0
  9
$DIMTFAC
 40
1.0
  9
$DIMGAP
 40
0.625
  9
$DIMJUST
 70
     0
  9
$DIMSD1
 70
     0
  9
$DIMSD2
 70
     0
  9
$DIMTOLJ
 70
     1
  9
$DIMTZIN
 70
     0
  9
$DIMALTZ
 70
     0
  9
$DIMALTTZ
 70
     0
  9
$DIMFIT
 70
     3
  9
$DIMUPT
 70
     0
  9
$DIMUNIT
 70
     2
  9
$DIMDEC
 70
     1
  9
$DIMTDEC
 70
     1
  9
$DIMALTU
 70
     2
  9
$DIMALTTD
 70
     2
  9
$DIMTXSTY
  7
STANDARD
  9
$DIMAUNIT
 70
     0
  9
$LUNITS
 70
     2
  9
$LUPREC
 70
     4
  9
$SKETCHINC
 40
1.0
  9
$FILLETRAD
 40
6.5
  9
$AUNITS
 70
     0
  9
$AUPREC
 70
     0
  9
$MENU
  1
.
  9
$ELEVATION
 40
0.0
  9
$PELEVATION
 40
0.0
  9
$THICKNESS
 40
0.0
  9
$LIMCHECK
 70
     0
  9
$CHAMFERA
 40
10.0
  9
$CHAMFERB
 40
10.0
  9
$CHAMFERC
 40
20.0
  9
$CHAMFERD
 40
0.0
  9
$SKPOLY
 70
     0
  9
$TDCREATE
 40
2450576.597302431
  9
$TDUPDATE
 40
2457191.65498257
  9
$TDINDWG
 40
1.1907333102
  9
$TDUSRTIMER
 40
1.1907333102
  9
$USRTIMER
 70
     1
  9
$ANGBASE
 50
0.0
  9
$ANGDIR
 70
     0
  9
$PDMODE
 70
     0
  9
$PDSIZE
 40
0.0
  9
$PLINEWID
 40
0.0
  9
$COORDS
 70
     1
  9
$SPLFRAME
 70
     0
  9
$SPLINETYPE
 70
     6
  9
$SPLINESEGS
 70
     8
  9
$ATTDIA
 70
     0
  9
$ATTREQ
 70
     1
  9
$HANDLING
 70
     1
  9
$HANDSEED
  5
484D
  9
$SURFTAB1
 70
     6
  9
$SURFTAB2
 70
     6
  9
$SURFTYPE
 70
     6
  9
$SURFU
 70
     6
  9
$SURFV
 70
     6
  9
$UCSNAME
  2

  9
$UCSORG
 10
0.0
 20
0.0
 30
0.0
  9
$UCSXDIR
 10
1.0
 20
0.0
 30
0.0
  9
$UCSYDIR
 10
0.0
 20
1.0
 30
0.0
  9
$PUCSNAME
  2

  9
$PUCSORG
 10
0.0
 20
0.0
 30
0.0
  9
$PUCSXDIR
 10
1.0
 20
0.0
 30
0.0
  9
$PUCSYDIR
 10
0.0
 20
1.0
 30
0.0
  9
$USERI1
 70
     0
  9
$USERI2
 70
     0
  9
$USERI3
 70
     0
  9
$USERI4
 70
     0
  9
$USERI5
 70
     0
  9
$USERR1
 40
0.0
  9
$USERR2
 40
0.0
  9
$USERR3
 40
0.0
  9
$USERR4
 40
0.0
  9
$USERR5
 40
0.0
  9
$WORLDVIEW
 70
     1
  9
$SHADEDGE
 70
     3
  9
$SHADEDIF
 70
    70
  9
$TILEMODE
 70
     0
  9
$MAXACTVP
 70
    16
  9
$PINSBASE
 10
0.0
 20
0.0
 30
0.0
  9
$PLIMCHECK
 70
     0
  9
$PEXTMIN
 10
4.746305129083
 20
3.137385422292
 30
0.0
  9
$PEXTMAX
 10
404.746305129083
 20
283.137385422292
 30
0.0
  9
$PLIMMIN
 10
-7.007122192383
 20
-7.007118782997
  9
$PLIMMAX
 10
417.718108215332
 20
293.315290427208
  9
$UNITMODE
 70
     0
  9
$VISRETAIN
 70
     0
  9
$PLINEGEN
 70
     0
  9
$PSLTSCALE
 70
     1
  9
$TREEDEPTH
 70
  3020
  9
$PICKSTYLE
 70
     1
  9
$CMLSTYLE
  2
STANDARD
  9
$CMLJUST
 70
     0
  9
$CMLSCALE
 40
1.0
  9
$PROXYGRAPHICS
 70
     1
  9
$MEASUREMENT
 70
     1
  0
ENDSEC
  0
SECTION
  2
CLASSES
  0
CLASS
  1
ACDBDICTIONARYWDFLT
  2
AcDbDictionaryWithDefault
  3
ObjectDBX Classes
 90
        0
280
     0
281
     0
  0
CLASS
  1
ACDBPLACEHOLDER
  2
AcDbPlaceHolder
  3
ObjectDBX Classes
 90
        0
280
     0
281
     0
  0
CLASS
  1
LAYOUT
  2
AcDbLayout
  3
ObjectDBX Classes
 90
        0
280
     0
281
     0
  0
CLASS
  1
DIMASSOC
  2
AcDbDimAssoc
  3
"AcDbDimAssoc|Product Desc:     AcDim ARX App For Dimension|Company:          Autodesk, Inc.|WEB Address:      www.autodesk.com"
 90
        0
280
     0
281
     0
  0
CLASS
  1
VISUALSTYLE
  2
AcDbVisualStyle
  3
ObjectDBX Classes
 90
     4095
280
     0
281
     0
  0
CLASS
  1
SCALE
  2
AcDbScale
  3
ObjectDBX Classes
 90
     1153
280
     0
281
     0
  0
CLASS
  1
MATERIAL
  2
AcDbMaterial
  3
ObjectDBX Classes
 90
     1153
280
     0
281
     0
  0
CLASS
  1
TABLESTYLE
  2
AcDbTableStyle
  3
ObjectDBX Classes
 90
     4095
280
     0
281
     0
  0
CLASS
  1
MLEADERSTYLE
  2
AcDbMLeaderStyle
  3
ACDB_MLEADERSTYLE_CLASS
 90
     4095
280
     0
281
     0
  0
CLASS
  1
SUN
  2
AcDbSun
  3
SCENEOE
 90
     1153
280
     0
281
     0
  0
CLASS
  1
DICTIONARYVAR
  2
AcDbDictionaryVar
  3
ObjectDBX Classes
 90
        0
280
     0
281
     0
  0
CLASS
  1
CELLSTYLEMAP
  2
AcDbCellStyleMap
  3
ObjectDBX Classes
 90
     1152
280
     0
281
     0
  0
CLASS
  1
XRECORD
  2
AcDbXrecord
  3
ObjectDBX Classes
 90
        0
280
     0
281
     0
  0
CLASS
  1
LWPOLYLINE
  2
AcDbPolyline
  3
ObjectDBX Classes
 90
        0
280
     0
281
     1
  0
CLASS
  1
HATCH
  2
AcDbHatch
  3
ObjectDBX Classes
 90
        0
280
     0
281
     1
  0
ENDSEC
  0
SECTION
  2
TABLES
  0
TABLE
  2
VPORT
  5
8
102
{ACAD_XDICTIONARY
360
4845
102
}
330
0
100
AcDbSymbolTable
 70
     1
  0
VPORT
  5
463A
330
8
100
AcDbSymbolTableRecord
100
AcDbViewportTableRecord
  2
*ACTIVE
 70
     0
 10
0.0
 20
0.0
 11
1.0
 21
1.0
 12
96.131552496128
 22
150.327414038568
 13
0.0
 23
0.0
 14
1.0
 24
1.0
 15
0.0
 25
0.0
 16
0.0
 26
0.0
 36
1.0
 17
0.0
 27
0.0
 37
0.0
 40
134.578955955299
 41
1.56746031746
 42
50.0
 43
0.0
 44
0.0
 50
0.0
 51
0.0
 71
    16
 72
   100
 73
     1
 74
     0
 75
     0
 76
     0
 77
     0
 78
     0
  0
ENDTAB
  0
TABLE
  2
LTYPE
  5
5
330
0
100
AcDbSymbolTable
 70
     4
  0
LTYPE
  5
14
330
5
100
AcDbSymbolTableRecord
100
AcDbLinetypeTableRecord
  2
BYBLOCK
 70
     0
  3

 72
    65
 73
     0
 40
0.0
  0
LTYPE
  5
15
330
5
100
AcDbSymbolTableRecord
100
AcDbLinetypeTableRecord
  2
BYLAYER
 70
     0
  3

 72
    65
 73
     0
 40
0.0
  0
LTYPE
  5
16
330
5
100
AcDbSymbolTableRecord
100
AcDbLinetypeTableRecord
  2
CONTINUOUS
 70
     0
  3
Solid line
 72
    65
 73
     0
 40
0.0
  0
LTYPE
  5
1EC
330
5
100
AcDbSymbolTableRecord
100
AcDbLinetypeTableRecord
  2
CENTER
 70
     0
  3
____ _ ____ _ ____ _ ____ _ ____ _ ____ _ ____ 
 72
    65
 73
     4
 40
2.0
 49
1.25
 74
     0
 49
-0.25
 74
     0
 49
0.25
 74
     0
 49
-0.25
 74
     0
  0
LTYPE
  5
1ED
330
5
100
AcDbSymbolTableRecord
100
AcDbLinetypeTableRecord
  2
DASHED
 70
     0
  3
__ __ __ __ __ __ __ __ __ __ __ __ __ __ __ __
 72
    65
 73
     2
 40
0.75
 49
0.5
 74
     0
 49
-0.25
 74
     0
  0
LTYPE
  5
3BD7
330
5
100
AcDbSymbolTableRecord
100
AcDbLinetypeTableRecord
  2
CENTER2
 70
     0
  3
Center (.5x) ___ _ ___ _ ___ _ ___ _ ___ _ ___
 72
    65
 73
     4
 40
28.575
 49
19.05
 74
     0
 49
-3.175
 74
     0
 49
3.175
 74
     0
 49
-3.175
 74
     0
  0
ENDTAB
  0
TABLE
  2
LAYER
  5
2
102
{ACAD_XDICTIONARY
360
29EA
102
}
330
0
100
AcDbSymbolTable
 70
    11
  0
LAYER
  5
F
330
2
100
AcDbSymbolTableRecord
100
AcDbLayerTableRecord
  2
0
 70
     0
 62
     7
  6
CONTINUOUS
  0
LAYER
  5
61
330
2
100
AcDbSymbolTableRecord
100
AcDbLayerTableRecord
  2
図枠太線
 70
     0
 62
   251
  6
CONTINUOUS
  0
LAYER
  5
62
330
2
100
AcDbSymbolTableRecord
100
AcDbLayerTableRecord
  2
図枠細線
 70
     0
 62
   252
  6
CONTINUOUS
  0
LAYER
  5
63
330
2
100
AcDbSymbolTableRecord
100
AcDbLayerTableRecord
  2
図枠ロゴマーク
 70
     0
 62
   253
  6
CONTINUOUS
  0
LAYER
  5
1EF
330
2
100
AcDbSymbolTableRecord
100
AcDbLayerTableRecord
  2
外形線
 70
     0
 62
     7
  6
CONTINUOUS
  0
LAYER
  5
1F0
330
2
100
AcDbSymbolTableRecord
100
AcDbLayerTableRecord
  2
寸法線
 70
     0
 62
     1
  6
CONTINUOUS
  0
LAYER
  5
1F1
330
2
100
AcDbSymbolTableRecord
100
AcDbLayerTableRecord
  2
中心線
 70
     0
 62
     4
  6
CENTER
  0
LAYER
  5
1F4
330
2
100
AcDbSymbolTableRecord
100
AcDbLayerTableRecord
  2
DEFPOINTS
 70
     0
 62
     7
  6
CONTINUOUS
  0
LAYER
  5
2AA2
330
2
100
AcDbSymbolTableRecord
100
AcDbLayerTableRecord
  2
下書線
 70
     0
 62
     2
  6
CONTINUOUS
  0
LAYER
  5
2AA4
330
2
100
AcDbSymbolTableRecord
100
AcDbLayerTableRecord
  2
細線
 70
     0
 62
     6
  6
CONTINUOUS
  0
LAYER
  5
3BD8
330
2
100
AcDbSymbolTableRecord
100
AcDbLayerTableRecord
  2
寸法線_文字
 70
     0
 62
     1
  6
CONTINUOUS
  0
ENDTAB
  0
TABLE
  2
STYLE
  5
3
330
0
100
AcDbSymbolTable
 70
     3
  0
STYLE
  5
10
330
3
100
AcDbSymbolTableRecord
100
AcDbTextStyleTableRecord
  2
STANDARD
 70
     0
 40
0.0
 41
1.0
 50
0.0
 71
     0
 42
2.333873885063
  3
ISOCP
  4
bigfont.shx
  0
STYLE
  5
64
330
3
100
AcDbSymbolTableRecord
100
AcDbTextStyleTableRecord
  2
EXCADSTD
 70
     0
 40
0.0
 41
1.0
 50
0.0
 71
     0
 42
0.2
  3
monotxt
  4
bigfont
  0
STYLE
  5
2B21
330
3
100
AcDbSymbolTableRecord
100
AcDbTextStyleTableRecord
  2
EXCADVERT
 70
     4
 40
0.0
 41
1.0
 50
0.0
 71
     0
 42
0.286885
  3
monotxt
  4
bigfont
  0
ENDTAB
  0
TABLE
  2
VIEW
  5
6
330
0
100
AcDbSymbolTable
 70
     0
  0
ENDTAB
  0
TABLE
  2
UCS
  5
7
330
0
100
AcDbSymbolTable
 70
     0
  0
ENDTAB
  0
TABLE
  2
APPID
  5
9
330
0
100
AcDbSymbolTable
 70
     3
  0
APPID
  5
11
330
9
100
AcDbSymbolTableRecord
100
AcDbRegAppTableRecord
  2
ACAD
 70
     0
  0
APPID
  5
4693
330
9
100
AcDbSymbolTableRecord
100
AcDbRegAppTableRecord
  2
ACADANNOTATIVE
 70
     0
  0
APPID
  5
46EE
330
9
100
AcDbSymbolTableRecord
100
AcDbRegAppTableRecord
  2
ACAD_MLEADERVER
 70
     0
  0
ENDTAB
  0
TABLE
  2
DIMSTYLE
  5
A
330
0
100
AcDbSymbolTable
 70
     2
  0
DIMSTYLE
105
1D
330
A
100
AcDbSymbolTableRecord
100
AcDbDimStyleTableRecord
  2
STANDARD
 70
     0
  3

  4

  5

  6

  7

 40
1.0
 41
0.18
 42
0.0625
 43
0.38
 44
0.18
 45
0.0
 46
0.0
 47
0.0
 48
0.0
140
0.18
141
0.09
142
0.0
143
25.4
144
1.0
145
0.0
146
1.0
147
0.09
 71
     0
 72
     0
 73
     1
 74
     1
 75
     0
 76
     0
 77
     0
 78
     0
170
     0
171
     2
172
     0
173
     0
174
     0
175
     0
176
     0
177
     0
178
     0
270
     2
271
     4
272
     4
273
     2
274
     2
340
10
275
     0
280
     0
281
     0
282
     0
283
     1
284
     0
285
     0
286
     0
287
     3
288
     0
  0
DIMSTYLE
105
24
102
{ACAD_REACTORS
330
372D
330
379C
330
379D
330
379E
330
379F
330
37A2
330
37A3
330
37A4
330
37B0
330
427A
330
45B9
330
45D3
102
}
330
A
100
AcDbSymbolTableRecord
100
AcDbDimStyleTableRecord
  2
ISO-25
 70
     0
  3

  4

  5

  6

  7

 40
1.0
 41
2.5
 42
0.625
 43
3.75
 44
1.25
 45
0.0
 46
0.0
 47
0.0
 48
0.0
140
2.5
141
2.5
142
0.0
143
0.0394
144
1.0
145
1.0
146
1.0
147
0.625
 71
     0
 72
     0
 73
     1
 74
     0
 75
     0
 76
     0
 77
     1
 78
     8
170
     0
171
     2
172
     1
173
     0
174
     0
175
     0
176
     0
177
     0
178
     0
270
     2
271
     4
272
     4
273
     2
274
     2
340
10
275
     0
280
     0
281
     0
282
     0
283
     1
284
     0
285
     0
286
     0
287
     3
288
     0
  0
ENDTAB
  0
TABLE
  2
BLOCK_RECORD
  5
1
330
0
100
AcDbSymbolTable
 70
    23
  0
BLOCK_RECORD
  5
1A
330
1
100
AcDbSymbolTableRecord
100
AcDbBlockTableRecord
  2
*MODEL_SPACE
  0
BLOCK_RECORD
  5
28FB
330
1
100
AcDbSymbolTableRecord
100
AcDbBlockTableRecord
  2
*PAPER_SPACE
  0
BLOCK_RECORD
  5
2A32
330
1
100
AcDbSymbolTableRecord
100
AcDbBlockTableRecord
  2
A3横用_タイトル
1001
ACAD
1000
DesignCenter Data
1002
{
1070
     1
1070
     4
1002
}
  0
BLOCK_RECORD
  5
2AF4
330
1
100
AcDbSymbolTableRecord
100
AcDbBlockTableRecord
  2
_OPEN30
  0
BLOCK_RECORD
  5
2E7A
330
1
100
AcDbSymbolTableRecord
100
AcDbBlockTableRecord
  2
*D2
  0
BLOCK_RECORD
  5
2E86
330
1
100
AcDbSymbolTableRecord
100
AcDbBlockTableRecord
  2
ケース外形図_PRL-500N
  0
BLOCK_RECORD
  5
2F2A
330
1
100
AcDbSymbolTableRecord
100
AcDbBlockTableRecord
  2
A$C5F435AFC
  0
BLOCK_RECORD
  5
2F6C
330
1
100
AcDbSymbolTableRecord
100
AcDbBlockTableRecord
  2
A$C2AA85C5D
  0
BLOCK_RECORD
  5
37C7
330
1
100
AcDbSymbolTableRecord
100
AcDbBlockTableRecord
  2
*D6
  0
BLOCK_RECORD
  5
37DD
330
1
100
AcDbSymbolTableRecord
100
AcDbBlockTableRecord
  2
*D7
  0
BLOCK_RECORD
  5
37EA
330
1
100
AcDbSymbolTableRecord
100
AcDbBlockTableRecord
  2
*D8
  0
BLOCK_RECORD
  5
37F6
330
1
100
AcDbSymbolTableRecord
100
AcDbBlockTableRecord
  2
*D9
  0
BLOCK_RECORD
  5
3802
330
1
100
AcDbSymbolTableRecord
100
AcDbBlockTableRecord
  2
*D10
  0
BLOCK_RECORD
  5
3826
330
1
100
AcDbSymbolTableRecord
100
AcDbBlockTableRecord
  2
*D11
  0
BLOCK_RECORD
  5
3834
330
1
100
AcDbSymbolTableRecord
100
AcDbBlockTableRecord
  2
*D12
  0
BLOCK_RECORD
  5
3840
330
1
100
AcDbSymbolTableRecord
100
AcDbBlockTableRecord
  2
*D13
  0
BLOCK_RECORD
  5
3864
330
1
100
AcDbSymbolTableRecord
100
AcDbBlockTableRecord
  2
*D14
  0
BLOCK_RECORD
  5
3A01
330
1
100
AcDbSymbolTableRecord
100
AcDbBlockTableRecord
  2
A$C025D1C44
  0
BLOCK_RECORD
  5
3A1E
330
1
100
AcDbSymbolTableRecord
100
AcDbBlockTableRecord
  2
_DOTSMALL
  0
BLOCK_RECORD
  5
40B4
330
1
100
AcDbSymbolTableRecord
100
AcDbBlockTableRecord
  2
パドル_W1
  0
BLOCK_RECORD
  5
413A
330
1
100
AcDbSymbolTableRecord
100
AcDbBlockTableRecord
  2
A$C480F1F2B
  0
BLOCK_RECORD
  5
42A7
330
1
100
AcDbSymbolTableRecord
100
AcDbBlockTableRecord
  2
*D19
  0
BLOCK_RECORD
  5
43DC
330
1
100
AcDbSymbolTableRecord
100
AcDbBlockTableRecord
  2
A$C2B5425E7
  0
BLOCK_RECORD
  5
45BA
330
1
100
AcDbSymbolTableRecord
100
AcDbBlockTableRecord
  2
*D21
  0
BLOCK_RECORD
  5
45D4
330
1
100
AcDbSymbolTableRecord
100
AcDbBlockTableRecord
  2
*D22
  0
ENDTAB
  0
ENDSEC
  0
SECTION
  2
BLOCKS
  0
BLOCK
  5
1B
330
1A
100
AcDbEntity
  8
0
100
AcDbBlockBegin
  2
*MODEL_SPACE
 70
     0
 10
0.0
 20
0.0
 30
0.0
  3
*MODEL_SPACE
  1

  0
ENDBLK
  5
1C
330
1A
100
AcDbEntity
  8
0
100
AcDbBlockEnd
  0
BLOCK
  5
28FD
330
28FB
100
AcDbEntity
 67
     1
  8
0
 48
10.0
100
AcDbBlockBegin
  2
*PAPER_SPACE
 70
     0
 10
0.0
 20
0.0
 30
0.0
  3
*PAPER_SPACE
  1

  0
ENDBLK
  5
28FE
330
28FB
100
AcDbEntity
 67
     1
  8
0
 48
10.0
100
AcDbBlockEnd
  0
BLOCK
  5
2A33
330
2A32
100
AcDbEntity
  8
0
100
AcDbBlockBegin
  2
A3横用_タイトル
 70
     0
 10
0.0
 20
0.0
 30
0.0
  3
A3横用_タイトル
  1
A3横用_タイトル
  0
LINE
  5
2A34
330
2A32
100
AcDbEntity
  8
図枠細線
  6
CONTINUOUS
 62
   252
100
AcDbLine
 10
205.098414535793
 20
33.525959753527
 30
0.0
 11
305.098414535793
 21
33.525959753527
 31
0.0
  0
LINE
  5
2A35
330
2A32
100
AcDbEntity
  8
図枠太線
  6
CONTINUOUS
 62
   251
100
AcDbLine
 10
205.098414535793
 20
23.525959753527
 30
0.0
 11
305.098414535793
 21
23.525959753527
 31
0.0
  0
LINE
  5
2A36
330
2A32
100
AcDbEntity
  8
図枠細線
  6
CONTINUOUS
100
AcDbLine
 10
5.098414535793
 20
23.525959753527
 30
0.0
 11
105.098414535793
 21
23.525959753527
 31
0.0
  0
LINE
  5
2A37
330
2A32
100
AcDbEntity
  8
図枠細線
  6
CONTINUOUS
 62
   252
100
AcDbLine
 10
5.098414535793
 20
36.725957753527
 30
0.0
 11
105.098414535793
 21
36.725957753527
 31
0.0
  0
LINE
  5
2A38
330
2A32
100
AcDbEntity
  8
図枠細線
  6
CONTINUOUS
 62
   252
100
AcDbLine
 10
5.098414535793
 20
30.125957753527
 30
0.0
 11
105.098414535793
 21
30.125957753527
 31
0.0
  0
LINE
  5
2A39
330
2A32
100
AcDbEntity
  8
図枠細線
  6
CONTINUOUS
 62
   252
100
AcDbLine
 10
5.098414535793
 20
16.725959753527
 30
0.0
 11
105.098414535793
 21
16.725959753527
 31
0.0
  0
LINE
  5
2A3A
330
2A32
100
AcDbEntity
  8
図枠細線
  6
CONTINUOUS
 62
   252
100
AcDbLine
 10
5.098414535793
 20
10.125959753527
 30
0.0
 11
105.098414535793
 21
10.125959753527
 31
0.0
  0
LINE
  5
2A3B
330
2A32
100
AcDbEntity
  8
図枠細線
  6
CONTINUOUS
100
AcDbLine
 10
105.098414535793
 20
23.525961753527
 30
0.0
 11
205.098414535793
 21
23.525959753527
 31
0.0
  0
LINE
  5
2A3C
330
2A32
100
AcDbEntity
  8
図枠細線
  6
CONTINUOUS
 62
   252
100
AcDbLine
 10
138.398414535793
 20
43.525959753527
 30
0.0
 11
138.398414535793
 21
18.525957753527
 31
0.0
  0
LINE
  5
2A3D
330
2A32
100
AcDbEntity
  8
図枠細線
  6
CONTINUOUS
 62
   252
100
AcDbLine
 10
171.698414535793
 20
43.525959753527
 30
0.0
 11
171.698414535793
 21
18.525957753527
 31
0.0
  0
LINE
  5
2A3E
330
2A32
100
AcDbEntity
  8
図枠細線
  6
CONTINUOUS
 62
   252
100
AcDbLine
 10
305.098414535793
 20
23.525959753527
 30
0.0
 11
405.098414535793
 21
23.525959753527
 31
0.0
  0
TEXT
  5
2A3F
330
2A32
100
AcDbEntity
  8
図枠ロゴマーク
  6
CONTINUOUS
 62
   253
100
AcDbText
 10
206.102509212755
 20
13.294257570546
 30
0.0
 40
7.0
  1
東和制電工業株式会社
 50
0.016555220185
 41
1.186384129432
  7
EXCADSTD
 72
     5
 11
303.544188309143
 21
13.322412672217
 31
0.0
100
AcDbText
  0
MTEXT
  5
2A40
330
2A32
100
AcDbEntity
  8
図枠細線
100
AcDbMText
 10
6.356764112375
 20
41.976594175478
 30
0.0
 40
2.5
 41
49.938282706292
 71
     1
 72
     5
  1
{\Fmonotxt.shx,bigfont.shx|c128;図暦　CHANGE　NOTICE}
  0
MTEXT
  5
2A41
330
2A32
100
AcDbEntity
  8
図枠細線
 48
10.0
100
AcDbMText
 10
306.544114926828
 20
41.701835800934
 30
0.0
 40
2.5
 41
28.002809618823
 71
     1
 72
     5
  1
{\Fmonotxt.shx,bigfont.shx|c128;名称　TITLE}
  0
MTEXT
  5
2A42
330
2A32
100
AcDbEntity
  8
図枠細線
 48
10.0
100
AcDbMText
 10
307.329617114284
 20
21.606206797226
 30
0.0
 40
2.5
 41
24.385612216707
 71
     1
 72
     5
  1
{\Fmonotxt.shx,bigfont.shx|c128;図面番号\PDRG.　No.}
  0
MTEXT
  5
2A43
330
2A32
100
AcDbEntity
  8
図枠細線
 48
10.0
100
AcDbMText
 10
173.726349404609
 20
21.73680662198
 30
0.0
 40
2.5
 41
25.735090160813
 71
     1
 72
     5
  1
{\Fmonotxt.shx,bigfont.shx|c128;日付 DATE}
  0
MTEXT
  5
2A44
330
2A32
100
AcDbEntity
  8
図枠細線
 48
10.0
100
AcDbMText
 10
173.48708833982
 20
41.621592044998
 30
0.0
 40
2.5
 41
24.983741184205
 71
     1
 72
     5
  1
{\Fmonotxt.shx,bigfont.shx|c128;製図　DRAWN}
  0
MTEXT
  5
2A45
330
2A32
100
AcDbEntity
  8
図枠細線
 48
10.0
100
AcDbMText
 10
139.28009927741
 20
21.866713069868
 30
0.0
 40
2.5
 41
22.629632913243
 71
     1
 72
     5
  1
{\Fmonotxt.shx,bigfont.shx|c128;尺度　SCALE}
  0
MTEXT
  5
2A46
330
2A32
100
AcDbEntity
  8
図枠細線
 48
10.0
100
AcDbMText
 10
139.910091179835
 20
41.311840415554
 30
0.0
 40
2.5
 41
28.998753428368
 71
     1
 72
     5
  1
{\Fmonotxt.shx,bigfont.shx|c128;検図  CHECKED}
  0
MTEXT
  5
2A47
330
2A32
100
AcDbEntity
  8
図枠細線
 48
10.0
100
AcDbMText
 10
114.253294667728
 20
21.916124850174
 30
0.0
 40
3.0
 41
19.692400475383
 71
     1
 72
     5
  1
{\Fmonotxt.shx,bigfont.shx|c128;第三角法}
  0
MTEXT
  5
2A48
330
2A32
100
AcDbEntity
  8
図枠細線
 48
10.0
100
AcDbMText
 10
108.986959929915
 20
15.282880185837
 30
0.0
 40
2.5
 41
27.954882823547
 71
     1
 72
     5
  1
{\Fmonotxt.shx,bigfont.shx|c128;THIRD ANGLE\PPROJECTION}
  0
MTEXT
  5
2A49
330
2A32
100
AcDbEntity
  8
図枠細線
 48
10.0
100
AcDbMText
 10
106.319432640184
 20
41.511437145487
 30
0.0
 40
2.5
 41
28.233595265074
 71
     1
 72
     5
  1
{\Fmonotxt.shx,bigfont.shx|c128;承認 APPROVED}
  0
LINE
  5
2A4A
330
2A32
100
AcDbEntity
  8
図枠太線
  6
CONTINUOUS
 62
   251
100
AcDbLine
 10
5.098414535793
 20
3.525959753527
 30
0.0
 11
405.098414535793
 21
3.525959753527
 31
0.0
  0
LINE
  5
2A4B
330
2A32
100
AcDbEntity
  8
図枠太線
 48
10.0
100
AcDbLine
 10
5.098414535793
 20
3.525959753527
 30
0.0
 11
5.098414535793
 21
43.525959753527
 31
0.0
  0
LINE
  5
2A4C
330
2A32
100
AcDbEntity
  8
図枠太線
  6
CONTINUOUS
 62
   251
100
AcDbLine
 10
105.098414535793
 20
3.525959753527
 30
0.0
 11
105.098414535793
 21
43.525959753527
 31
0.0
  0
LINE
  5
2A4D
330
2A32
100
AcDbEntity
  8
図枠細線
  6
CONTINUOUS
 62
   252
100
AcDbLine
 10
138.398414535793
 20
3.525959753527
 30
0.0
 11
138.398414535793
 21
18.525957753527
 31
0.0
  0
LINE
  5
2A4E
330
2A32
100
AcDbEntity
  8
図枠細線
  6
CONTINUOUS
 62
   252
100
AcDbLine
 10
171.698414535793
 20
3.525959753527
 30
0.0
 11
171.698414535793
 21
18.525957753527
 31
0.0
  0
LINE
  5
2A4F
330
2A32
100
AcDbEntity
  8
図枠太線
  6
CONTINUOUS
 62
   251
100
AcDbLine
 10
205.098414535793
 20
3.525959753527
 30
0.0
 11
205.098414535793
 21
43.525959753527
 31
0.0
  0
LINE
  5
2A50
330
2A32
100
AcDbEntity
  8
図枠太線
 48
10.0
100
AcDbLine
 10
405.098414535793
 20
43.525959753527
 30
0.0
 11
405.098414535793
 21
3.525959753527
 31
0.0
  0
TEXT
  5
2A51
330
2A32
100
AcDbEntity
  8
図枠細線
  6
CONTINUOUS
 62
   252
100
AcDbText
 10
208.519754474572
 20
6.482358407285
 30
0.0
 40
3.5
  1
ＴＯＷＡ　ＳＥＩＤＥＮ　ＩＮＤＵＳＴＲＩＡＬ　ＣＯ．，ＬＴＤ．
 41
0.746656297509
  7
EXCADSTD
 72
     5
 11
303.295327171727
 21
6.482358407285
 31
0.0
100
AcDbText
  0
LINE
  5
2A52
330
2A32
100
AcDbEntity
  8
図枠太線
  6
CONTINUOUS
 62
   251
100
AcDbLine
 10
305.098414535793
 20
3.525959753527
 30
0.0
 11
305.098414535793
 21
43.525959753527
 31
0.0
  0
ENDBLK
  5
2A53
330
2A32
100
AcDbEntity
  8
0
100
AcDbBlockEnd
  0
BLOCK
  5
2AF8
330
2AF4
100
AcDbEntity
  8
0
 48
10.0
100
AcDbBlockBegin
  2
_OPEN30
 70
     0
 10
0.0
 20
0.0
 30
0.0
  3
_OPEN30
  1
_OPEN30
  0
LINE
  5
2AF5
330
2AF4
100
AcDbEntity
  8
0
  6
BYBLOCK
 62
     0
100
AcDbLine
 10
-1.0
 20
0.26794919
 30
0.0
 11
0.0
 21
0.0
 31
0.0
  0
LINE
  5
2AF6
330
2AF4
100
AcDbEntity
  8
0
  6
BYBLOCK
 62
     0
100
AcDbLine
 10
0.0
 20
0.0
 30
0.0
 11
-1.0
 21
-0.26794919
 31
0.0
  0
LINE
  5
2AF7
330
2AF4
100
AcDbEntity
  8
0
  6
BYBLOCK
 62
     0
100
AcDbLine
 10
0.0
 20
0.0
 30
0.0
 11
-1.0
 21
0.0
 31
0.0
  0
ENDBLK
  5
2AF9
330
2AF4
100
AcDbEntity
  8
0
 48
10.0
100
AcDbBlockEnd
  0
BLOCK
  5
2E7B
330
2E7A
100
AcDbEntity
  8
0
 48
10.0
100
AcDbBlockBegin
  2
*D2
 70
     1
 10
0.0
 20
0.0
 30
0.0
  3
*D2
  1
*D2
  0
LINE
  5
2E7C
330
2E7A
100
AcDbEntity
  8
寸法線
 62
     0
 48
10.0
100
AcDbLine
 10
-2758.836345131417
 20
832.47277548805
 30
0.0
 11
-2759.461345131417
 21
832.47277548805
 31
0.0
  0
LINE
  5
2E7D
330
2E7A
100
AcDbEntity
  8
寸法線
 62
     0
 48
10.0
100
AcDbLine
 10
-2758.836345131417
 20
776.47277548805
 30
0.0
 11
-2759.461345131417
 21
776.47277548805
 31
0.0
  0
LINE
  5
2E7E
330
2E7A
100
AcDbEntity
  8
寸法線
 62
     0
 48
10.0
100
AcDbLine
 10
-2758.211345131417
 20
827.47277548805
 30
0.0
 11
-2758.211345131417
 21
781.47277548805
 31
0.0
  0
INSERT
  5
2E7F
330
2E7A
100
AcDbEntity
  8
寸法線
 62
     0
 48
10.0
100
AcDbBlockReference
  2
_OPEN30
 10
-2758.211345131417
 20
832.47277548805
 30
0.0
 41
5.0
 42
5.0
 43
5.0
 50
90.0
  0
INSERT
  5
2E80
330
2E7A
100
AcDbEntity
  8
寸法線
 62
     0
 48
10.0
100
AcDbBlockReference
  2
_OPEN30
 10
-2758.211345131417
 20
776.47277548805
 30
0.0
 41
5.0
 42
5.0
 43
5.0
 50
270.0
  0
MTEXT
  5
2E81
330
2E7A
100
AcDbEntity
  8
寸法線
 62
     0
 48
10.0
100
AcDbMText
 10
-2761.336345131417
 20
804.472775488049
 30
0.0
 40
5.0
 41
0.0
 71
     5
 72
     1
  1
\A1;56
 11
6.123031769111886E-17
 21
1.0
 31
0.0
  0
POINT
  5
2E82
330
2E7A
100
AcDbEntity
  8
DEFPOINTS
 62
     0
 48
10.0
100
AcDbPoint
 10
-2758.211345131417
 20
832.47277548805
 30
0.0
  0
POINT
  5
2E83
330
2E7A
100
AcDbEntity
  8
DEFPOINTS
 62
     0
 48
10.0
100
AcDbPoint
 10
-2758.211345131417
 20
776.47277548805
 30
0.0
  0
POINT
  5
2E84
330
2E7A
100
AcDbEntity
  8
DEFPOINTS
 62
     0
 48
10.0
100
AcDbPoint
 10
-2758.211345131417
 20
776.47277548805
 30
0.0
  0
ENDBLK
  5
2E85
330
2E7A
100
AcDbEntity
  8
0
 48
10.0
100
AcDbBlockEnd
  0
BLOCK
  5
2E87
330
2E86
100
AcDbEntity
  8
0
 48
10.0
100
AcDbBlockBegin
  2
ケース外形図_PRL-500N
 70
     0
 10
0.0
 20
0.0
 30
0.0
  3
ケース外形図_PRL-500N
  1
ケース外形図_PRL-500N
  0
ARC
  5
2E88
330
2E86
100
AcDbEntity
  8
外形線
100
AcDbCircle
 10
-2596.407869023793
 20
798.534998263293
 30
0.0
 40
2.15556
100
AcDbArc
 50
95.512637406103
 51
178.08903371374
  0
ARC
  5
2E89
330
2E86
100
AcDbEntity
  8
外形線
100
AcDbCircle
 10
-2590.851107023792
 20
802.679650263293
 30
0.0
 40
1.9992
100
AcDbArc
 50
270.0
 51
359.999982399908
  0
ARC
  5
2E8A
330
2E86
100
AcDbEntity
  8
外形線
100
AcDbCircle
 10
-2633.735079023793
 20
796.682154263293
 30
0.0
 40
4.32794
100
AcDbArc
 50
278.171639789583
 51
81.828325010231
  0
LINE
  5
2E8B
330
2E86
100
AcDbEntity
  8
外形線
100
AcDbLine
 10
-2598.562289023792
 20
796.682092263293
 30
0.0
 11
-2598.562289023792
 21
839.170496263293
 31
0.0
  0
LINE
  5
2E8C
330
2E86
100
AcDbEntity
  8
細線
100
AcDbLine
 10
-2709.567111023793
 20
819.473444263292
 30
0.0
 11
-2709.567111023793
 21
773.890742263293
 31
0.0
  0
LINE
  5
2E8D
330
2E86
100
AcDbEntity
  8
外形線
100
AcDbLine
 10
-2773.167087023793
 20
820.282098263293
 30
0.0
 11
-2773.167087023793
 21
773.082086263293
 31
0.0
  0
DIMENSION
  5
2E8E
330
2E86
100
AcDbEntity
  8
寸法線
 48
10.0
100
AcDbDimension
  2
*D2
 10
-2758.211345131417
 20
776.47277548805
 30
0.0
 11
-2761.336345131417
 21
804.472775488049
 31
0.0
  3
ISO-25
100
AcDbAlignedDimension
 13
-2758.211345131417
 23
832.47277548805
 33
0.0
 14
-2758.211345131417
 24
776.47277548805
 34
0.0
 50
90.0
100
AcDbRotatedDimension
  0
LINE
  5
2E8F
330
2E86
100
AcDbEntity
  8
細線
100
AcDbLine
 10
-2657.967073023793
 20
753.674402263293
 30
0.0
 11
-2657.967073023793
 21
842.378138263293
 31
0.0
  0
LINE
  5
2E90
330
2E86
100
AcDbEntity
  8
細線
100
AcDbLine
 10
-2655.111117023792
 20
848.090174263293
 30
0.0
 11
-2655.111117023792
 21
745.274134263292
 31
0.0
  0
LINE
  5
2E91
330
2E86
100
AcDbEntity
  8
細線
100
AcDbLine
 10
-2629.407137023793
 20
748.130090263293
 30
0.0
 11
-2629.407137023793
 21
845.234094263293
 31
0.0
  0
LINE
  5
2E92
330
2E86
100
AcDbEntity
  8
細線
100
AcDbLine
 10
-2698.767061023792
 20
835.809290263293
 30
0.0
 11
-2698.767061023792
 21
757.554896263293
 31
0.0
  0
LINE
  5
2E93
330
2E86
100
AcDbEntity
  8
外形線
100
AcDbLine
 10
-2648.827913023793
 20
745.274134263292
 30
0.0
 11
-2648.827913023793
 21
848.090174263293
 31
0.0
  0
LINE
  5
2E94
330
2E86
100
AcDbEntity
  8
外形線
100
AcDbLine
 10
-2650.827059023792
 20
848.090174263293
 30
0.0
 11
-2650.827059023792
 21
745.274134263292
 31
0.0
  0
LINE
  5
2E95
330
2E86
100
AcDbEntity
  8
外形線
100
AcDbLine
 10
-2727.167087023793
 20
874.182092263293
 30
0.0
 11
-2727.167087023793
 21
719.182092263293
 31
0.0
  0
LINE
  5
2E96
330
2E86
100
AcDbEntity
  8
外形線
100
AcDbLine
 10
-2739.167087023793
 20
719.182092263293
 30
0.0
 11
-2739.167087023793
 21
874.182092263293
 31
0.0
  0
ARC
  5
2E97
330
2E86
100
AcDbEntity
  8
細線
100
AcDbCircle
 10
-2652.981051023793
 20
758.555414263293
 30
0.0
 40
38.097766
100
AcDbArc
 50
252.34442125848
 51
262.046372899211
  0
ARC
  5
2E98
330
2E86
100
AcDbEntity
  8
細線
100
AcDbCircle
 10
-2670.203647023792
 20
719.481958263293
 30
0.0
 40
36.766532
100
AcDbArc
 50
72.054026400074
 51
115.211785839402
  0
LINE
  5
2E99
330
2E86
100
AcDbEntity
  8
外形線
100
AcDbLine
 10
-2684.813509023792
 20
725.964930263293
 30
0.0
 11
-2656.824617023793
 21
725.964930263293
 31
0.0
  0
LINE
  5
2E9A
330
2E86
100
AcDbEntity
  8
外形線
100
AcDbLine
 10
-2682.013949023793
 20
730.248956263293
 30
0.0
 11
-2659.611483023793
 21
730.248956263293
 31
0.0
  0
LINE
  5
2E9B
330
2E86
100
AcDbEntity
  8
外形線
100
AcDbLine
 10
-2683.385531023793
 20
720.824122263293
 30
0.0
 11
-2658.252719023793
 21
720.824122263293
 31
0.0
  0
LINE
  5
2E9C
330
2E86
100
AcDbEntity
  8
外形線
100
AcDbLine
 10
-2687.081943023793
 20
750.215296263293
 30
0.0
 11
-2684.846835023792
 21
732.742578263293
 31
0.0
  0
LINE
  5
2E9D
330
2E86
100
AcDbEntity
  8
中心線
 48
10.0
100
AcDbLine
 10
-2670.819125023793
 20
714.862202263292
 30
0.0
 11
-2670.819125023793
 21
767.062140263293
 31
0.0
  0
LINE
  5
2E9E
330
2E86
100
AcDbEntity
  8
中心線
 48
10.0
100
AcDbLine
 10
-2745.575967023793
 20
731.682092263293
 30
0.0
 11
-2722.775967023792
 21
731.682092263293
 31
0.0
  0
LINE
  5
2E9F
330
2E86
100
AcDbEntity
  8
外形線
100
AcDbLine
 10
-2727.167087023793
 20
719.182092263293
 30
0.0
 11
-2739.167087023793
 21
719.182092263293
 31
0.0
  0
LINE
  5
2EA0
330
2E86
100
AcDbEntity
  8
細線
100
AcDbLine
 10
-2664.535921023793
 20
722.252160263293
 30
0.0
 11
-2664.535921023793
 21
725.964930263293
 31
0.0
  0
LINE
  5
2EA1
330
2E86
100
AcDbEntity
  8
細線
100
AcDbLine
 10
-2677.102327023792
 20
722.252160263293
 30
0.0
 11
-2677.102327023792
 21
725.964930263293
 31
0.0
  0
LINE
  5
2EA2
330
2E86
100
AcDbEntity
  8
細線
100
AcDbLine
 10
-2677.959139023792
 20
730.248926263293
 30
0.0
 11
-2677.959139023792
 21
725.964930263293
 31
0.0
  0
LINE
  5
2EA3
330
2E86
100
AcDbEntity
  8
外形線
100
AcDbLine
 10
-2684.813509023792
 20
725.964930263293
 30
0.0
 11
-2684.813509023792
 21
722.252160263293
 31
0.0
  0
LINE
  5
2EA4
330
2E86
100
AcDbEntity
  8
外形線
100
AcDbLine
 10
-2680.243929023793
 20
725.964930263293
 30
0.0
 11
-2680.243929023793
 21
730.248926263293
 31
0.0
  0
ARC
  5
2EA5
330
2E86
100
AcDbEntity
  8
外形線
100
AcDbCircle
 10
-2682.013949023793
 20
733.104944263293
 30
0.0
 40
2.856
100
AcDbArc
 50
187.289418100615
 51
270.0
  0
ARC
  5
2EA6
330
2E86
100
AcDbEntity
  8
細線
100
AcDbCircle
 10
-2688.657199023792
 20
758.555414263293
 30
0.0
 40
38.097766
100
AcDbArc
 50
277.953629348533
 51
287.655580989282
  0
LINE
  5
2EA7
330
2E86
100
AcDbEntity
  8
外形線
100
AcDbLine
 10
-2684.813509023792
 20
722.252160263293
 30
0.0
 11
-2683.385531023793
 21
720.824122263293
 31
0.0
  0
ARC
  5
2EA8
330
2E86
100
AcDbEntity
  8
細線
100
AcDbCircle
 10
-2670.819125023793
 20
735.360804263293
 30
0.0
 40
14.53669
100
AcDbArc
 50
244.3907930338
 51
295.609209213942
  0
LINE
  5
2EA9
330
2E86
100
AcDbEntity
  8
外形線
100
AcDbLine
 10
-2725.167087023793
 20
771.182092263293
 30
0.0
 11
-2711.830259891121
 21
771.182092263293
 31
0.0
  0
LINE
  5
2EAA
330
2E86
100
AcDbEntity
  8
外形線
100
AcDbLine
 10
-2773.167087023793
 20
773.082086263293
 30
0.0
 11
-2740.910433023793
 21
768.907708263293
 31
0.0
  0
LINE
  5
2EAB
330
2E86
100
AcDbEntity
  8
寸法線
100
AcDbLine
 10
-2739.664827023792
 20
769.119592263293
 30
0.0
 11
-2763.743685023792
 21
778.603204263293
 31
0.0
  0
ARC
  5
2EAC
330
2E86
100
AcDbEntity
  8
外形線
100
AcDbCircle
 10
-2725.167087023793
 20
769.182092263293
 30
0.0
 40
2.0
100
AcDbArc
 50
90.0
 51
180.0
  0
ARC
  5
2EAD
330
2E86
100
AcDbEntity
  8
外形線
100
AcDbCircle
 10
-2741.167087023793
 20
766.924250263292
 30
0.0
 40
2.0
100
AcDbArc
 50
0.0
 51
82.626243635811
  0
ARC
  5
2EAE
330
2E86
100
AcDbEntity
  8
外形線
100
AcDbCircle
 10
-2711.830259891121
 20
767.182092263293
 30
0.0
 40
4.0
100
AcDbArc
 50
30.998746657089
 51
90.0
  0
LINE
  5
2EAF
330
2E86
100
AcDbEntity
  8
外形線
100
AcDbLine
 10
-2695.578128665481
 20
753.019135597582
 30
0.0
 11
-2689.760671330091
 21
752.704704868377
 31
0.0
  0
LINE
  5
2EB0
330
2E86
100
AcDbEntity
  8
外形線
100
AcDbLine
 10
-2700.397339100389
 20
755.920272782411
 30
0.0
 11
-2708.401545623382
 21
769.242169560437
 31
0.0
  0
ARC
  5
2EB1
330
2E86
100
AcDbEntity
  8
外形線
100
AcDbCircle
 10
-2695.254267698781
 20
759.010388728126
 30
0.0
 40
6.0
100
AcDbArc
 50
210.998746657089
 51
266.905851868664
  0
ARC
  5
2EB2
330
2E86
100
AcDbEntity
  8
外形線
100
AcDbCircle
 10
-2689.914827023792
 20
749.852868263293
 30
0.0
 40
2.856
100
AcDbArc
 50
7.289398252773
 51
86.905894590757
  0
LINE
  5
2EB3
330
2E86
100
AcDbEntity
  8
外形線
100
AcDbLine
 10
-2655.111117023792
 20
745.274134263292
 30
0.0
 11
-2656.780429023792
 21
732.728234263293
 31
0.0
  0
LINE
  5
2EB4
330
2E86
100
AcDbEntity
  8
細線
100
AcDbLine
 10
-2663.679111023792
 20
730.248926263293
 30
0.0
 11
-2663.679111023792
 21
725.964930263293
 31
0.0
  0
LINE
  5
2EB5
330
2E86
100
AcDbEntity
  8
外形線
100
AcDbLine
 10
-2656.824617023793
 20
725.964930263293
 30
0.0
 11
-2656.824617023793
 21
722.252160263293
 31
0.0
  0
LINE
  5
2EB6
330
2E86
100
AcDbEntity
  8
外形線
100
AcDbLine
 10
-2661.394321023793
 20
725.964930263293
 30
0.0
 11
-2661.394321023793
 21
730.248926263293
 31
0.0
  0
ARC
  5
2EB7
330
2E86
100
AcDbEntity
  8
外形線
100
AcDbCircle
 10
-2659.611483023793
 20
733.104944263293
 30
0.0
 40
2.856
100
AcDbArc
 50
270.0
 51
352.421011277475
  0
LINE
  5
2EB8
330
2E86
100
AcDbEntity
  8
外形線
100
AcDbLine
 10
-2656.824617023793
 20
722.252160263293
 30
0.0
 11
-2658.252719023793
 21
720.824122263293
 31
0.0
  0
LINE
  5
2EB9
330
2E86
100
AcDbEntity
  8
外形線
100
AcDbLine
 10
-2629.407137023793
 20
748.130090263293
 30
0.0
 11
-2603.192905023793
 21
749.343774263293
 31
0.0
  0
ARC
  5
2EBA
330
2E86
100
AcDbEntity
  8
外形線
100
AcDbCircle
 10
-2633.445955023793
 20
769.831628263293
 30
0.0
 40
4.015794000000001
100
AcDbArc
 50
275.934583374273
 51
85.343077308665
  0
LINE
  5
2EBB
330
2E86
100
AcDbEntity
  8
外形線
100
AcDbLine
 10
-2648.827913023793
 20
765.837366263293
 30
0.0
 11
-2633.030795023793
 21
765.837366263293
 31
0.0
  0
LINE
  5
2EBC
330
2E86
100
AcDbEntity
  8
外形線
100
AcDbLine
 10
-2631.079805023792
 20
754.413294263293
 30
0.0
 11
-2648.827913023793
 21
754.413294263293
 31
0.0
  0
LINE
  5
2EBD
330
2E86
100
AcDbEntity
  8
外形線
100
AcDbLine
 10
-2631.079805023792
 20
750.986170263293
 30
0.0
 11
-2648.827913023793
 21
750.986170263293
 31
0.0
  0
LINE
  5
2EBE
330
2E86
100
AcDbEntity
  8
外形線
100
AcDbLine
 10
-2655.111117023792
 20
745.274134263292
 30
0.0
 11
-2633.119905023792
 21
745.274134263292
 31
0.0
  0
LINE
  5
2EBF
330
2E86
100
AcDbEntity
  8
細線
100
AcDbLine
 10
-2657.967073023793
 20
753.674402263293
 30
0.0
 11
-2655.111117023792
 21
745.274134263292
 31
0.0
  0
LINE
  5
2EC0
330
2E86
100
AcDbEntity
  8
細線
100
AcDbLine
 10
-2633.119905023792
 20
765.837366263293
 30
0.0
 11
-2633.119905023792
 21
754.413294263293
 31
0.0
  0
ARC
  5
2EC1
330
2E86
100
AcDbEntity
  8
外形線
100
AcDbCircle
 10
-2631.133821023792
 20
752.699670263293
 30
0.0
 40
1.714446
100
AcDbArc
 50
271.804703586974
 51
88.195318508631
  0
LINE
  5
2EC2
330
2E86
100
AcDbEntity
  8
細線
100
AcDbLine
 10
-2633.119905023792
 20
750.986170263293
 30
0.0
 11
-2633.119905023792
 21
745.274134263292
 31
0.0
  0
LINE
  5
2EC3
330
2E86
100
AcDbEntity
  8
外形線
100
AcDbLine
 10
-2633.119905023792
 20
745.274134263292
 30
0.0
 11
-2629.407137023793
 21
748.130090263293
 31
0.0
  0
LINE
  5
2EC4
330
2E86
100
AcDbEntity
  8
外形線
100
AcDbLine
 10
-2648.827913023793
 20
792.398156263293
 30
0.0
 11
-2633.119905023792
 21
792.398156263293
 31
0.0
  0
LINE
  5
2EC5
330
2E86
100
AcDbEntity
  8
外形線
100
AcDbLine
 10
-2648.827913023793
 20
773.834070263293
 30
0.0
 11
-2633.119905023792
 21
773.834070263293
 31
0.0
  0
LINE
  5
2EC6
330
2E86
100
AcDbEntity
  8
細線
100
AcDbLine
 10
-2633.119905023792
 20
792.398156263293
 30
0.0
 11
-2633.119905023792
 21
773.834070263293
 31
0.0
  0
ARC
  5
2EC7
330
2E86
100
AcDbEntity
  8
外形線
100
AcDbCircle
 10
-2596.576083023793
 20
769.249476263293
 30
0.0
 40
1.986266
100
AcDbArc
 50
84.716336376667
 51
272.672276280362
  0
LINE
  5
2EC8
330
2E86
100
AcDbEntity
  8
外形線
100
AcDbLine
 10
-2598.562289023792
 20
796.682092263293
 30
0.0
 11
-2598.562289023792
 21
754.193812263293
 31
0.0
  0
LINE
  5
2EC9
330
2E86
100
AcDbEntity
  8
外形線
100
AcDbLine
 10
-2596.483553023793
 20
767.265344263293
 30
0.0
 11
-2590.763339023793
 21
767.265344263293
 31
0.0
  0
ARC
  5
2ECA
330
2E86
100
AcDbEntity
  8
外形線
100
AcDbCircle
 10
-2590.714023023792
 20
765.414026263293
 30
0.0
 40
1.86215
100
AcDbArc
 50
268.482178628784
 51
83.815801009983
  0
LINE
  5
2ECB
330
2E86
100
AcDbEntity
  8
外形線
100
AcDbLine
 10
-2598.562289023792
 20
763.552576263293
 30
0.0
 11
-2590.763339023793
 21
763.552576263293
 31
0.0
  0
ARC
  5
2ECC
330
2E86
100
AcDbEntity
  8
外形線
100
AcDbCircle
 10
-2603.417513023792
 20
754.193812263293
 30
0.0
 40
4.8552
100
AcDbArc
 50
272.650733067261
 51
359.999982399908
  0
LINE
  5
2ECD
330
2E86
100
AcDbEntity
  8
外形線
100
AcDbLine
 10
-2596.614901023793
 20
792.683802263293
 30
0.0
 11
-2590.851107023792
 21
792.683802263293
 31
0.0
  0
ARC
  5
2ECE
330
2E86
100
AcDbEntity
  8
外形線
100
AcDbCircle
 10
-2590.851107023792
 20
790.684534263293
 30
0.0
 40
1.9992
100
AcDbArc
 50
0.0
 51
89.999981276047
  0
LINE
  5
2ECF
330
2E86
100
AcDbEntity
  8
外形線
100
AcDbLine
 10
-2596.483493023793
 20
771.263758263293
 30
0.0
 11
-2590.851107023792
 21
771.263758263293
 31
0.0
  0
ARC
  5
2ED0
330
2E86
100
AcDbEntity
  8
外形線
100
AcDbCircle
 10
-2590.851107023792
 20
773.262902263293
 30
0.0
 40
1.9992
100
AcDbArc
 50
270.0
 51
359.999982399908
  0
LINE
  5
2ED1
330
2E86
100
AcDbEntity
  8
外形線
100
AcDbLine
 10
-2588.851839023793
 20
773.262902263293
 30
0.0
 11
-2588.851839023793
 21
790.684534263293
 31
0.0
  0
ARC
  5
2ED2
330
2E86
100
AcDbEntity
  8
外形線
100
AcDbCircle
 10
-2596.407869023793
 20
794.829310263293
 30
0.0
 40
2.15556
100
AcDbArc
 50
181.910948686163
 51
264.487402289583
  0
LINE
  5
2ED3
330
2E86
100
AcDbEntity
  8
外形線
100
AcDbLine
 10
-2695.578128665481
 20
840.345048929002
 30
0.0
 11
-2657.967073023793
 21
842.378138263293
 31
0.0
  0
LINE
  5
2ED4
330
2E86
100
AcDbEntity
  8
外形線
100
AcDbLine
 10
-2725.167087023793
 20
822.182092263293
 30
0.0
 11
-2711.830259891121
 21
822.182092263293
 31
0.0
  0
LINE
  5
2ED5
330
2E86
100
AcDbEntity
  8
寸法線
100
AcDbLine
 10
-2739.664827023792
 20
825.119592263293
 30
0.0
 11
-2763.743685023792
 21
834.603204263293
 31
0.0
  0
LINE
  5
2ED6
330
2E86
100
AcDbEntity
  8
外形線
100
AcDbLine
 10
-2773.167087023793
 20
820.282098263293
 30
0.0
 11
-2740.910433023793
 21
824.456476263293
 31
0.0
  0
ARC
  5
2ED7
330
2E86
100
AcDbEntity
  8
外形線
100
AcDbCircle
 10
-2741.167087023793
 20
826.439936263292
 30
0.0
 40
2.0
100
AcDbArc
 50
277.373738764089
 51
359.999982399908
  0
ARC
  5
2ED8
330
2E86
100
AcDbEntity
  8
外形線
100
AcDbCircle
 10
-2725.167087023793
 20
824.182092263293
 30
0.0
 40
2.0
100
AcDbArc
 50
180.0
 51
270.0
  0
LINE
  5
2ED9
330
2E86
100
AcDbEntity
  8
外形線
100
AcDbLine
 10
-2700.397339100389
 20
837.443911744175
 30
0.0
 11
-2708.401545623382
 21
824.122014966149
 31
0.0
  0
ARC
  5
2EDA
330
2E86
100
AcDbEntity
  8
外形線
100
AcDbCircle
 10
-2711.830259891121
 20
826.182092263293
 30
0.0
 40
4.0
100
AcDbArc
 50
270.0
 51
329.001253342911
  0
ARC
  5
2EDB
330
2E86
100
AcDbEntity
  8
外形線
100
AcDbCircle
 10
-2695.254267698781
 20
834.353795798458
 30
0.0
 40
6.0
100
AcDbArc
 50
93.094148131336
 51
149.001253342911
  0
LINE
  5
2EDC
330
2E86
100
AcDbEntity
  8
外形線
100
AcDbLine
 10
-2727.167087023793
 20
874.182092263293
 30
0.0
 11
-2739.167087023793
 21
874.182092263293
 31
0.0
  0
LINE
  5
2EDD
330
2E86
100
AcDbEntity
  8
中心線
 48
10.0
100
AcDbLine
 10
-2745.575967023793
 20
861.682092263293
 30
0.0
 11
-2722.775967023792
 21
861.682092263293
 31
0.0
  0
LINE
  5
2EDE
330
2E86
100
AcDbEntity
  8
外形線
100
AcDbLine
 10
-2629.407137023793
 20
845.234094263293
 30
0.0
 11
-2603.192905023793
 21
844.020472263293
 31
0.0
  0
LINE
  5
2EDF
330
2E86
100
AcDbEntity
  8
細線
100
AcDbLine
 10
-2633.119905023792
 20
827.526942263293
 30
0.0
 11
-2633.119905023792
 21
838.950892263293
 31
0.0
  0
LINE
  5
2EE0
330
2E86
100
AcDbEntity
  8
外形線
100
AcDbLine
 10
-2648.827913023793
 20
819.530114263293
 30
0.0
 11
-2633.119905023792
 21
819.530114263293
 31
0.0
  0
LINE
  5
2EE1
330
2E86
100
AcDbEntity
  8
外形線
100
AcDbLine
 10
-2648.827913023793
 20
827.526942263293
 30
0.0
 11
-2633.030795023793
 21
827.526942263293
 31
0.0
  0
LINE
  5
2EE2
330
2E86
100
AcDbEntity
  8
外形線
100
AcDbLine
 10
-2648.827913023793
 20
800.966150263293
 30
0.0
 11
-2633.119905023792
 21
800.966150263293
 31
0.0
  0
ARC
  5
2EE3
330
2E86
100
AcDbEntity
  8
外形線
100
AcDbCircle
 10
-2633.445955023793
 20
823.532678263292
 30
0.0
 40
4.015794000000001
100
AcDbArc
 50
274.656944786913
 51
84.065438721313
  0
LINE
  5
2EE4
330
2E86
100
AcDbEntity
  8
細線
100
AcDbLine
 10
-2633.119905023792
 20
800.966150263293
 30
0.0
 11
-2633.119905023792
 21
819.530114263293
 31
0.0
  0
LINE
  5
2EE5
330
2E86
100
AcDbEntity
  8
外形線
100
AcDbLine
 10
-2655.111117023792
 20
848.090174263293
 30
0.0
 11
-2633.119905023792
 21
848.090174263293
 31
0.0
  0
LINE
  5
2EE6
330
2E86
100
AcDbEntity
  8
外形線
100
AcDbLine
 10
-2631.079805023792
 20
838.950892263293
 30
0.0
 11
-2648.827913023793
 21
838.950892263293
 31
0.0
  0
LINE
  5
2EE7
330
2E86
100
AcDbEntity
  8
外形線
100
AcDbLine
 10
-2631.079805023792
 20
842.378138263293
 30
0.0
 11
-2648.827913023793
 21
842.378138263293
 31
0.0
  0
LINE
  5
2EE8
330
2E86
100
AcDbEntity
  8
外形線
100
AcDbLine
 10
-2657.967073023793
 20
842.378138263293
 30
0.0
 11
-2655.111117023792
 21
848.090174263293
 31
0.0
  0
LINE
  5
2EE9
330
2E86
100
AcDbEntity
  8
外形線
100
AcDbLine
 10
-2633.119905023792
 20
848.090174263293
 30
0.0
 11
-2629.407137023793
 21
845.234094263293
 31
0.0
  0
ARC
  5
2EEA
330
2E86
100
AcDbEntity
  8
外形線
100
AcDbCircle
 10
-2631.133821023792
 20
840.664514263293
 30
0.0
 40
1.714446
100
AcDbArc
 50
271.804703586974
 51
88.195318508631
  0
LINE
  5
2EEB
330
2E86
100
AcDbEntity
  8
細線
100
AcDbLine
 10
-2633.119905023792
 20
842.378138263293
 30
0.0
 11
-2633.119905023792
 21
848.090174263293
 31
0.0
  0
LINE
  5
2EEC
330
2E86
100
AcDbEntity
  8
外形線
100
AcDbLine
 10
-2596.483493023793
 20
826.098932263293
 30
0.0
 11
-2590.513461023792
 21
826.098932263293
 31
0.0
  0
ARC
  5
2EED
330
2E86
100
AcDbEntity
  8
外形線
100
AcDbCircle
 10
-2596.576083023793
 20
824.114832263292
 30
0.0
 40
1.986266
100
AcDbArc
 50
87.327706119557
 51
275.283646023236
  0
LINE
  5
2EEE
330
2E86
100
AcDbEntity
  8
外形線
100
AcDbLine
 10
-2596.389803023793
 20
822.100550263293
 30
0.0
 11
-2590.851107023792
 21
822.100550263293
 31
0.0
  0
ARC
  5
2EEF
330
2E86
100
AcDbEntity
  8
外形線
100
AcDbCircle
 10
-2590.714023023792
 20
827.950280263292
 30
0.0
 40
1.86215
100
AcDbArc
 50
276.18422108563
 51
91.517843466792
  0
LINE
  5
2EF0
330
2E86
100
AcDbEntity
  8
外形線
100
AcDbLine
 10
-2598.562289023792
 20
829.811732263293
 30
0.0
 11
-2590.763339023793
 21
829.811732263293
 31
0.0
  0
ARC
  5
2EF1
330
2E86
100
AcDbEntity
  8
外形線
100
AcDbCircle
 10
-2590.851107023792
 20
820.101282263293
 30
0.0
 40
1.9992
100
AcDbArc
 50
0.0
 51
89.999981276047
  0
LINE
  5
2EF2
330
2E86
100
AcDbEntity
  8
外形線
100
AcDbLine
 10
-2596.614901023793
 20
800.680506263293
 30
0.0
 11
-2590.851107023792
 21
800.680506263293
 31
0.0
  0
LINE
  5
2EF3
330
2E86
100
AcDbEntity
  8
外形線
100
AcDbLine
 10
-2588.851839023793
 20
820.101282263293
 30
0.0
 11
-2588.851839023793
 21
802.679650263293
 31
0.0
  0
ARC
  5
2EF4
330
2E86
100
AcDbEntity
  8
外形線
100
AcDbCircle
 10
-2603.417513023792
 20
839.170496263293
 30
0.0
 40
4.8552
100
AcDbArc
 50
0.0
 51
87.349306628423
  0
ENDBLK
  5
2EF5
330
2E86
100
AcDbEntity
  8
0
 48
10.0
100
AcDbBlockEnd
  0
BLOCK
  5
2F2B
330
2F2A
100
AcDbEntity
  8
0
 48
10.0
100
AcDbBlockBegin
  2
A$C5F435AFC
 70
     0
 10
0.0
 20
0.0
 30
0.0
  3
A$C5F435AFC
  1
A$C5F435AFC
  0
LINE
  5
2F2C
330
2F2A
100
AcDbEntity
  8
外形線
 48
10.0
100
AcDbLine
 10
48.799987606332
 20
59.999999460263
 30
0.0
 11
48.799987606332
 21
35.999999460263
 31
0.0
  0
LINE
  5
2F2D
330
2F2A
100
AcDbEntity
  8
中心線
 48
10.0
100
AcDbLine
 10
22.999999606332
 20
53.999999460263
 30
0.0
 11
22.999999606332
 21
41.999999460263
 31
0.0
  0
LINE
  5
2F2E
330
2F2A
100
AcDbEntity
  8
中心線
 48
10.0
100
AcDbLine
 10
10.999999606332
 20
53.999999460263
 30
0.0
 11
10.999999606332
 21
41.999999460263
 31
0.0
  0
CIRCLE
  5
2F2F
330
2F2A
100
AcDbEntity
  8
外形線
100
AcDbCircle
 10
22.999999606332
 20
47.999999460263
 30
0.0
 40
2.4
  0
CIRCLE
  5
2F30
330
2F2A
100
AcDbEntity
  8
外形線
100
AcDbCircle
 10
10.999999606332
 20
47.999999460263
 30
0.0
 40
2.4
  0
LINE
  5
2F31
330
2F2A
100
AcDbEntity
  8
外形線
100
AcDbLine
 10
3.999999606332
 20
57.399993460263
 30
0.0
 11
3.999999606332
 21
47.999999460263
 31
0.0
  0
LINE
  5
2F32
330
2F2A
100
AcDbEntity
  8
外形線
100
AcDbLine
 10
48.799987606332
 20
59.999999460263
 30
0.0
 11
7.399993606332
 21
59.999999460263
 31
0.0
  0
LINE
  5
2F33
330
2F2A
100
AcDbEntity
  8
細線
100
AcDbLine
 10
5.991119606332
 20
53.999999460263
 30
0.0
 11
48.799987606332
 21
53.999999460263
 31
0.0
  0
LINE
  5
2F34
330
2F2A
100
AcDbEntity
  8
外形線
100
AcDbLine
 10
3.999999606332
 20
57.399993460263
 30
0.0
 11
7.399993606332
 21
59.999999460263
 31
0.0
  0
LINE
  5
2F35
330
2F2A
100
AcDbEntity
  8
外形線
100
AcDbLine
 10
-0.000000393668
 20
59.999999460263
 30
0.0
 11
7.399993606332
 21
59.999999460263
 31
0.0
  0
ARC
  5
2F36
330
2F2A
100
AcDbEntity
  8
細線
100
AcDbCircle
 10
7.751899987068
 20
57.314177090845
 30
0.0
 40
3.75288168161888
100
AcDbArc
 50
178.689715050974
 51
242.018860308436
  0
LINE
  5
2F37
330
2F2A
100
AcDbEntity
  8
外形線
100
AcDbLine
 10
48.799987606332
 20
35.999999460263
 30
0.0
 11
7.399993606332
 21
35.999999460263
 31
0.0
  0
LINE
  5
2F38
330
2F2A
100
AcDbEntity
  8
外形線
100
AcDbLine
 10
3.999999606332
 20
38.600005460263
 30
0.0
 11
3.999999606332
 21
47.999999460263
 31
0.0
  0
LINE
  5
2F39
330
2F2A
100
AcDbEntity
  8
細線
100
AcDbLine
 10
5.991119606332
 20
41.999999460263
 30
0.0
 11
48.799987606332
 21
41.999999460263
 31
0.0
  0
LINE
  5
2F3A
330
2F2A
100
AcDbEntity
  8
外形線
100
AcDbLine
 10
3.999999606332
 20
38.600005460263
 30
0.0
 11
7.399993606332
 21
35.999999460263
 31
0.0
  0
ARC
  5
2F3B
330
2F2A
100
AcDbEntity
  8
細線
100
AcDbCircle
 10
14.035697820002
 20
47.999999460263
 30
0.0
 40
10.03569821366904
100
AcDbArc
 50
143.282806020859
 51
216.717193979141
  0
ARC
  5
2F3C
330
2F2A
100
AcDbEntity
  8
細線
100
AcDbCircle
 10
7.751899987068
 20
38.685821829683
 30
0.0
 40
3.75288168161888
100
AcDbArc
 50
117.981139691564
 51
181.310284949026
  0
LINE
  5
2F3D
330
2F2A
100
AcDbEntity
  8
外形線
100
AcDbLine
 10
-0.000000393668
 20
-0.000000539737
 30
0.0
 11
29.999999606332
 21
-0.000000539737
 31
0.0
  0
LINE
  5
2F3E
330
2F2A
100
AcDbEntity
  8
外形線
100
AcDbLine
 10
-0.000000393668
 20
59.999999460263
 30
0.0
 11
-0.000000393668
 21
-0.000000539737
 31
0.0
  0
LINE
  5
2F3F
330
2F2A
100
AcDbEntity
  8
外形線
100
AcDbLine
 10
29.999999606332
 20
-0.000000539737
 30
0.0
 11
29.999999606332
 21
35.999999460263
 31
0.0
  0
ENDBLK
  5
2F40
330
2F2A
100
AcDbEntity
  8
0
 48
10.0
100
AcDbBlockEnd
  0
BLOCK
  5
2F6D
330
2F6C
100
AcDbEntity
  8
0
 48
10.0
100
AcDbBlockBegin
  2
A$C2AA85C5D
 70
     0
 10
0.0
 20
0.0
 30
0.0
  3
A$C2AA85C5D
  1
A$C2AA85C5D
  0
LINE
  5
2F6E
330
2F6C
100
AcDbEntity
  8
外形線
100
AcDbLine
 10
10.570220168629
 20
59.914734238971
 30
0.0
 11
13.49823016863
 21
59.914734238971
 31
0.0
  0
LINE
  5
2F6F
330
2F6C
100
AcDbEntity
  8
外形線
100
AcDbLine
 10
13.49823016863
 20
59.133972238971
 30
0.0
 11
22.390532168629
 21
54.000000238971
 31
0.0
  0
LINE
  5
2F70
330
2F6C
100
AcDbEntity
  8
外形線
100
AcDbLine
 10
10.49823016863
 20
59.133972238971
 30
0.0
 11
1.60592616863
 21
54.000000238971
 31
0.0
  0
LINE
  5
2F71
330
2F6C
100
AcDbEntity
  8
外形線
100
AcDbLine
 10
1.60592616863
 20
42.000000238971
 30
0.0
 11
1.60592616863
 21
54.000000238971
 31
0.0
  0
LINE
  5
2F72
330
2F6C
100
AcDbEntity
  8
外形線
100
AcDbLine
 10
10.49823016863
 20
36.866028238971
 30
0.0
 11
1.60592616863
 21
42.000000238971
 31
0.0
  0
ARC
  5
2F73
330
2F6C
100
AcDbEntity
  8
細線
100
AcDbCircle
 10
11.99823016863
 20
48.000000238971
 30
0.0
 40
10.392304
100
AcDbArc
 50
98.298931163823
 51
261.701051236085
  0
LINE
  5
2F74
330
2F6C
100
AcDbEntity
  8
外形線
100
AcDbLine
 10
22.390532168629
 20
54.000000238971
 30
0.0
 11
22.390532168629
 21
42.000000238971
 31
0.0
  0
LINE
  5
2F75
330
2F6C
100
AcDbEntity
  8
外形線
100
AcDbLine
 10
13.49823016863
 20
36.866058238971
 30
0.0
 11
22.390532168629
 21
42.000000238971
 31
0.0
  0
ARC
  5
2F76
330
2F6C
100
AcDbEntity
  8
細線
100
AcDbCircle
 10
11.99823016863
 20
48.000000238971
 30
0.0
 40
12.0
100
AcDbArc
 50
277.180766578687
 51
261.701051236085
  0
ARC
  5
2F77
330
2F6C
100
AcDbEntity
  8
細線
100
AcDbCircle
 10
11.99823016863
 20
48.000000238971
 30
0.0
 40
10.392304
100
AcDbArc
 50
278.298951011672
 51
81.701088684012
  0
LINE
  5
2F78
330
2F6C
100
AcDbEntity
  8
外形線
100
AcDbLine
 10
10.49823016863
 20
0.000000238971
 30
0.0
 11
13.49823016863
 21
0.000000238971
 31
0.0
  0
LINE
  5
2F79
330
2F6C
100
AcDbEntity
  8
外形線
100
AcDbLine
 10
10.49823016863
 20
59.914734238971
 30
0.0
 11
10.49823016863
 21
0.000000238971
 31
0.0
  0
LINE
  5
2F7A
330
2F6C
100
AcDbEntity
  8
外形線
100
AcDbLine
 10
13.49823016863
 20
59.914734238971
 30
0.0
 11
13.49823016863
 21
0.000000238971
 31
0.0
  0
ENDBLK
  5
2F7B
330
2F6C
100
AcDbEntity
  8
0
 48
10.0
100
AcDbBlockEnd
  0
BLOCK
  5
37CF
330
37C7
100
AcDbEntity
  8
0
 48
10.0
100
AcDbBlockBegin
  2
*D6
 70
     1
 10
0.0
 20
0.0
 30
0.0
  3
*D6
  1
*D6
  0
LINE
  5
45FB
330
37C7
100
AcDbEntity
  8
寸法線
 62
     0
 48
10.0
100
AcDbLine
 10
316.186930842361
 20
389.819787266281
 30
0.0
 11
316.186930842361
 21
345.863674333474
 31
0.0
  0
MTEXT
  5
45FC
330
37C7
100
AcDbEntity
  8
寸法線
 62
     0
 48
10.0
100
AcDbMText
 10
310.741135071222
 20
372.455573730298
 30
0.0
 40
8.0
 41
0.0
 71
     5
 72
     1
  1
\A1;φ56
 11
6.123031769111886E-17
 21
1.0
 31
0.0
  0
INSERT
  5
45FD
330
37C7
100
AcDbEntity
  8
寸法線
 62
     0
 48
10.0
100
AcDbBlockReference
  2
_OPEN30
 10
316.186930842361
 20
395.819787266281
 30
0.0
 41
6.0
 42
6.0
 43
6.0
 50
90.0
  0
INSERT
  5
45FE
330
37C7
100
AcDbEntity
  8
寸法線
 62
     0
 48
10.0
100
AcDbBlockReference
  2
_OPEN30
 10
316.186930842361
 20
339.863674333474
 30
0.0
 41
6.0
 42
6.0
 43
6.0
 50
270.0
  0
POINT
  5
45FF
330
37C7
100
AcDbEntity
  8
DEFPOINTS
 62
     0
 48
10.0
100
AcDbPoint
 10
316.175171338256
 20
395.819787266281
 30
0.0
  0
POINT
  5
4600
330
37C7
100
AcDbEntity
  8
DEFPOINTS
 62
     0
 48
10.0
100
AcDbPoint
 10
316.186930842361
 20
339.863674333474
 30
0.0
  0
POINT
  5
4601
330
37C7
100
AcDbEntity
  8
DEFPOINTS
 62
     0
 48
10.0
100
AcDbPoint
 10
316.186930842361
 20
339.863674333474
 30
0.0
  0
ENDBLK
  5
37D0
330
37C7
100
AcDbEntity
  8
0
 48
10.0
100
AcDbBlockEnd
  0
BLOCK
  5
37E8
330
37DD
100
AcDbEntity
  8
0
 48
10.0
100
AcDbBlockBegin
  2
*D7
 70
     1
 10
0.0
 20
0.0
 30
0.0
  3
*D7
  1
*D7
  0
LINE
  5
457E
330
37DD
100
AcDbEntity
  8
寸法線
 62
     0
 48
10.0
100
AcDbLine
 10
290.056185949985
 20
367.572991108717
 30
0.0
 11
290.733848418702
 21
367.572991108717
 31
0.0
  0
LINE
  5
457F
330
37DD
100
AcDbEntity
  8
寸法線
 62
     0
 48
10.0
100
AcDbLine
 10
290.056185949985
 20
352.572991108717
 30
0.0
 11
290.733848418702
 21
352.572991108717
 31
0.0
  0
LINE
  5
4580
330
37DD
100
AcDbEntity
  8
寸法線
 62
     0
 48
10.0
100
AcDbLine
 10
289.483848418702
 20
358.572991108717
 30
0.0
 11
289.483848418702
 21
361.572991108717
 31
0.0
  0
LINE
  5
4581
330
37DD
100
AcDbEntity
  8
寸法線
 62
     0
 48
10.0
100
AcDbLine
 10
289.483848418702
 20
367.572991108717
 30
0.0
 11
289.483848418702
 21
391.554361958615
 31
0.0
  0
INSERT
  5
4582
330
37DD
100
AcDbEntity
  8
寸法線
 62
     0
 48
10.0
100
AcDbBlockReference
  2
_OPEN30
 10
289.483848418702
 20
352.572991108717
 30
0.0
 41
6.0
 42
6.0
 43
6.0
 50
270.0
  0
INSERT
  5
4583
330
37DD
100
AcDbEntity
  8
寸法線
 62
     0
 48
10.0
100
AcDbBlockReference
  2
_OPEN30
 10
289.483848418702
 20
367.572991108717
 30
0.0
 41
6.0
 42
6.0
 43
6.0
 50
90.0
  0
MTEXT
  5
4584
330
37DD
100
AcDbEntity
  8
寸法線
 62
     0
 48
10.0
100
AcDbMText
 10
284.858848418702
 20
382.563676533666
 30
0.0
 40
8.0
 41
0.0
 71
     5
 72
     1
  1
\A1;φ15
 11
6.123031769111886E-17
 21
1.0
 31
0.0
  0
POINT
  5
4585
330
37DD
100
AcDbEntity
  8
DEFPOINTS
 62
     0
 48
10.0
100
AcDbPoint
 10
289.431185949985
 20
367.572991108717
 30
0.0
  0
POINT
  5
4586
330
37DD
100
AcDbEntity
  8
DEFPOINTS
 62
     0
 48
10.0
100
AcDbPoint
 10
289.431185949985
 20
352.572991108717
 30
0.0
  0
POINT
  5
4587
330
37DD
100
AcDbEntity
  8
DEFPOINTS
 62
     0
 48
10.0
100
AcDbPoint
 10
289.483848418702
 20
352.572991108717
 30
0.0
  0
ENDBLK
  5
37E9
330
37DD
100
AcDbEntity
  8
0
 48
10.0
100
AcDbBlockEnd
  0
BLOCK
  5
37F4
330
37EA
100
AcDbEntity
  8
0
 48
10.0
100
AcDbBlockBegin
  2
*D8
 70
     1
 10
0.0
 20
0.0
 30
0.0
  3
*D8
  1
*D8
  0
LINE
  5
4575
330
37EA
100
AcDbEntity
  8
寸法線
 62
     0
 48
10.0
100
AcDbLine
 10
215.231188949985
 20
296.293645538221
 30
0.0
 11
215.231188949985
 21
236.27833675906
 31
0.0
  0
LINE
  5
4576
330
37EA
100
AcDbEntity
  8
寸法線
 62
     0
 48
10.0
100
AcDbLine
 10
335.231188949985
 20
255.702202407855
 30
0.0
 11
335.231188949985
 21
236.27833675906
 31
0.0
  0
LINE
  5
4577
330
37EA
100
AcDbEntity
  8
寸法線
 62
     0
 48
10.0
100
AcDbLine
 10
221.231188949985
 20
237.52833675906
 30
0.0
 11
329.231188949985
 21
237.52833675906
 31
0.0
  0
INSERT
  5
4578
330
37EA
100
AcDbEntity
  8
寸法線
 62
     0
 48
10.0
100
AcDbBlockReference
  2
_OPEN30
 10
215.231188949985
 20
237.52833675906
 30
0.0
 41
6.0
 42
6.0
 43
6.0
 50
180.0
  0
INSERT
  5
4579
330
37EA
100
AcDbEntity
  8
寸法線
 62
     0
 48
10.0
100
AcDbBlockReference
  2
_OPEN30
 10
335.231188949985
 20
237.52833675906
 30
0.0
 41
6.0
 42
6.0
 43
6.0
  0
MTEXT
  5
457A
330
37EA
100
AcDbEntity
  8
寸法線
 62
     0
 48
10.0
100
AcDbMText
 10
275.231188949985
 20
242.154124160634
 30
0.0
 40
8.0
 41
0.0
 71
     5
 72
     1
  1
\A1;120
  0
POINT
  5
457B
330
37EA
100
AcDbEntity
  8
DEFPOINTS
 62
     0
 48
10.0
100
AcDbPoint
 10
215.231188949985
 20
296.918645538221
 30
0.0
  0
POINT
  5
457C
330
37EA
100
AcDbEntity
  8
DEFPOINTS
 62
     0
 48
10.0
100
AcDbPoint
 10
335.231188949985
 20
256.327202407855
 30
0.0
  0
POINT
  5
457D
330
37EA
100
AcDbEntity
  8
DEFPOINTS
 62
     0
 48
10.0
100
AcDbPoint
 10
335.231188949985
 20
237.52833675906
 30
0.0
  0
ENDBLK
  5
37F5
330
37EA
100
AcDbEntity
  8
0
 48
10.0
100
AcDbBlockEnd
  0
BLOCK
  5
3800
330
37F6
100
AcDbEntity
  8
0
 48
10.0
100
AcDbBlockBegin
  2
*D9
 70
     1
 10
0.0
 20
0.0
 30
0.0
  3
*D9
  1
*D9
  0
LINE
  5
456C
330
37F6
100
AcDbEntity
  8
寸法線
 62
     0
 48
10.0
100
AcDbLine
 10
335.231188949985
 20
255.702202407855
 30
0.0
 11
335.231188949985
 21
236.27833675906
 31
0.0
  0
LINE
  5
456D
330
37F6
100
AcDbEntity
  8
寸法線
 62
     0
 48
10.0
100
AcDbLine
 10
485.247334251779
 20
256.952202407855
 30
0.0
 11
485.247334251779
 21
236.27833675906
 31
0.0
  0
LINE
  5
456E
330
37F6
100
AcDbEntity
  8
寸法線
 62
     0
 48
10.0
100
AcDbLine
 10
341.231188949985
 20
237.52833675906
 30
0.0
 11
479.247334251779
 21
237.52833675906
 31
0.0
  0
INSERT
  5
456F
330
37F6
100
AcDbEntity
  8
寸法線
 62
     0
 48
10.0
100
AcDbBlockReference
  2
_OPEN30
 10
335.231188949985
 20
237.52833675906
 30
0.0
 41
6.0
 42
6.0
 43
6.0
 50
180.0
  0
INSERT
  5
4570
330
37F6
100
AcDbEntity
  8
寸法線
 62
     0
 48
10.0
100
AcDbBlockReference
  2
_OPEN30
 10
485.247334251779
 20
237.52833675906
 30
0.0
 41
6.0
 42
6.0
 43
6.0
  0
MTEXT
  5
4571
330
37F6
100
AcDbEntity
  8
寸法線
 62
     0
 48
10.0
100
AcDbMText
 10
410.239261600882
 20
242.15333675906
 30
0.0
 40
8.0
 41
0.0
 71
     5
 72
     1
  1
\A1;150
  0
POINT
  5
4572
330
37F6
100
AcDbEntity
  8
DEFPOINTS
 62
     0
 48
10.0
100
AcDbPoint
 10
335.231188949985
 20
256.327202407855
 30
0.0
  0
POINT
  5
4573
330
37F6
100
AcDbEntity
  8
DEFPOINTS
 62
     0
 48
10.0
100
AcDbPoint
 10
485.247334251779
 20
257.577202407855
 30
0.0
  0
POINT
  5
4574
330
37F6
100
AcDbEntity
  8
DEFPOINTS
 62
     0
 48
10.0
100
AcDbPoint
 10
485.247334251779
 20
237.52833675906
 30
0.0
  0
ENDBLK
  5
3801
330
37F6
100
AcDbEntity
  8
0
 48
10.0
100
AcDbBlockEnd
  0
BLOCK
  5
380C
330
3802
100
AcDbEntity
  8
0
 48
10.0
100
AcDbBlockBegin
  2
*D10
 70
     1
 10
0.0
 20
0.0
 30
0.0
  3
*D10
  1
*D10
  0
LINE
  5
4563
330
3802
100
AcDbEntity
  8
寸法線
 62
     0
 48
10.0
100
AcDbLine
 10
485.247334251779
 20
327.396790235524
 30
0.0
 11
485.247334251779
 21
256.327202407855
 31
0.0
  0
LINE
  5
4564
330
3802
100
AcDbEntity
  8
寸法線
 62
     0
 48
10.0
100
AcDbLine
 10
402.247334251779
 20
280.571865571275
 30
0.0
 11
402.247334251779
 21
256.327202407855
 31
0.0
  0
LINE
  5
4565
330
3802
100
AcDbEntity
  8
寸法線
 62
     0
 48
10.0
100
AcDbLine
 10
479.247334251779
 20
257.577202407855
 30
0.0
 11
408.247334251779
 21
257.577202407855
 31
0.0
  0
INSERT
  5
4566
330
3802
100
AcDbEntity
  8
寸法線
 62
     0
 48
10.0
100
AcDbBlockReference
  2
_OPEN30
 10
485.247334251779
 20
257.577202407855
 30
0.0
 41
6.0
 42
6.0
 43
6.0
  0
INSERT
  5
4567
330
3802
100
AcDbEntity
  8
寸法線
 62
     0
 48
10.0
100
AcDbBlockReference
  2
_OPEN30
 10
402.247334251779
 20
257.577202407855
 30
0.0
 41
6.0
 42
6.0
 43
6.0
 50
180.0
  0
MTEXT
  5
4568
330
3802
100
AcDbEntity
  8
寸法線
 62
     0
 48
10.0
100
AcDbMText
 10
443.747334251779
 20
262.202202407855
 30
0.0
 40
8.0
 41
0.0
 71
     5
 72
     1
  1
\A1;83
  0
POINT
  5
4569
330
3802
100
AcDbEntity
  8
DEFPOINTS
 62
     0
 48
10.0
100
AcDbPoint
 10
485.247334251779
 20
328.021790235524
 30
0.0
  0
POINT
  5
456A
330
3802
100
AcDbEntity
  8
DEFPOINTS
 62
     0
 48
10.0
100
AcDbPoint
 10
402.247334251779
 20
281.196865571275
 30
0.0
  0
POINT
  5
456B
330
3802
100
AcDbEntity
  8
DEFPOINTS
 62
     0
 48
10.0
100
AcDbPoint
 10
402.247334251779
 20
257.577202407855
 30
0.0
  0
ENDBLK
  5
380D
330
3802
100
AcDbEntity
  8
0
 48
10.0
100
AcDbBlockEnd
  0
BLOCK
  5
3832
330
3826
100
AcDbEntity
  8
0
 48
10.0
100
AcDbBlockBegin
  2
*D11
 70
     1
 10
0.0
 20
0.0
 30
0.0
  3
*D11
  1
*D11
  0
LINE
  5
4558
330
3826
100
AcDbEntity
  8
寸法線
 62
     0
 48
10.0
100
AcDbLine
 10
335.231188949985
 20
281.947991108717
 30
0.0
 11
335.231188949985
 21
256.327202407855
 31
0.0
  0
LINE
  5
4559
330
3826
100
AcDbEntity
  8
寸法線
 62
     0
 48
10.0
100
AcDbLine
 10
347.231188949985
 20
281.947991108717
 30
0.0
 11
347.231188949985
 21
256.327202407855
 31
0.0
  0
LINE
  5
455A
330
3826
100
AcDbEntity
  8
寸法線
 62
     0
 48
10.0
100
AcDbLine
 10
329.231188949985
 20
257.577202407855
 30
0.0
 11
323.231188949985
 21
257.577202407855
 31
0.0
  0
LINE
  5
455B
330
3826
100
AcDbEntity
  8
寸法線
 62
     0
 48
10.0
100
AcDbLine
 10
353.231188949985
 20
257.577202407855
 30
0.0
 11
359.231188949985
 21
257.577202407855
 31
0.0
  0
LINE
  5
455C
330
3826
100
AcDbEntity
  8
寸法線
 62
     0
 48
10.0
100
AcDbLine
 10
335.231188949985
 20
257.577202407855
 30
0.0
 11
347.231188949985
 21
257.577202407855
 31
0.0
  0
INSERT
  5
455D
330
3826
100
AcDbEntity
  8
寸法線
 62
     0
 48
10.0
100
AcDbBlockReference
  2
_OPEN30
 10
335.231188949985
 20
257.577202407855
 30
0.0
 41
6.0
 42
6.0
 43
6.0
  0
INSERT
  5
455E
330
3826
100
AcDbEntity
  8
寸法線
 62
     0
 48
10.0
100
AcDbBlockReference
  2
_OPEN30
 10
347.231188949985
 20
257.577202407855
 30
0.0
 41
6.0
 42
6.0
 43
6.0
 50
180.0
  0
MTEXT
  5
455F
330
3826
100
AcDbEntity
  8
寸法線
 62
     0
 48
10.0
100
AcDbMText
 10
341.231188949985
 20
262.20298980943
 30
0.0
 40
8.0
 41
0.0
 71
     5
 72
     1
  1
\A1;12
  0
POINT
  5
4560
330
3826
100
AcDbEntity
  8
DEFPOINTS
 62
     0
 48
10.0
100
AcDbPoint
 10
335.231188949985
 20
282.572991108717
 30
0.0
  0
POINT
  5
4561
330
3826
100
AcDbEntity
  8
DEFPOINTS
 62
     0
 48
10.0
100
AcDbPoint
 10
347.231188949985
 20
282.572991108717
 30
0.0
  0
POINT
  5
4562
330
3826
100
AcDbEntity
  8
DEFPOINTS
 62
     0
 48
10.0
100
AcDbPoint
 10
347.231188949985
 20
257.577202407855
 30
0.0
  0
ENDBLK
  5
3833
330
3826
100
AcDbEntity
  8
0
 48
10.0
100
AcDbBlockEnd
  0
BLOCK
  5
383E
330
3834
100
AcDbEntity
  8
0
 48
10.0
100
AcDbBlockBegin
  2
*D12
 70
     1
 10
0.0
 20
0.0
 30
0.0
  3
*D12
  1
*D12
  0
LINE
  5
454F
330
3834
100
AcDbEntity
  8
寸法線
 62
     0
 48
10.0
100
AcDbLine
 10
215.231188949985
 20
311.447991108717
 30
0.0
 11
215.231188949985
 21
292.657884818729
 31
0.0
  0
LINE
  5
4550
330
3834
100
AcDbEntity
  8
寸法線
 62
     0
 48
10.0
100
AcDbLine
 10
245.231188949985
 20
311.447991108717
 30
0.0
 11
245.231188949985
 21
292.657884818729
 31
0.0
  0
LINE
  5
4551
330
3834
100
AcDbEntity
  8
寸法線
 62
     0
 48
10.0
100
AcDbLine
 10
221.231188949985
 20
293.907884818729
 30
0.0
 11
239.231188949985
 21
293.907884818729
 31
0.0
  0
INSERT
  5
4552
330
3834
100
AcDbEntity
  8
寸法線
 62
     0
 48
10.0
100
AcDbBlockReference
  2
_OPEN30
 10
215.231188949985
 20
293.907884818729
 30
0.0
 41
6.0
 42
6.0
 43
6.0
 50
180.0
  0
INSERT
  5
4553
330
3834
100
AcDbEntity
  8
寸法線
 62
     0
 48
10.0
100
AcDbBlockReference
  2
_OPEN30
 10
245.231188949985
 20
293.907884818729
 30
0.0
 41
6.0
 42
6.0
 43
6.0
  0
MTEXT
  5
4554
330
3834
100
AcDbEntity
  8
寸法線
 62
     0
 48
10.0
100
AcDbMText
 10
230.231188949985
 20
298.532884818729
 30
0.0
 40
8.0
 41
0.0
 71
     5
 72
     1
  1
\A1;30
  0
POINT
  5
4555
330
3834
100
AcDbEntity
  8
DEFPOINTS
 62
     0
 48
10.0
100
AcDbPoint
 10
215.231188949985
 20
312.072991108717
 30
0.0
  0
POINT
  5
4556
330
3834
100
AcDbEntity
  8
DEFPOINTS
 62
     0
 48
10.0
100
AcDbPoint
 10
245.231188949985
 20
312.072991108717
 30
0.0
  0
POINT
  5
4557
330
3834
100
AcDbEntity
  8
DEFPOINTS
 62
     0
 48
10.0
100
AcDbPoint
 10
245.231188949985
 20
293.907884818729
 30
0.0
  0
ENDBLK
  5
383F
330
3834
100
AcDbEntity
  8
0
 48
10.0
100
AcDbBlockEnd
  0
BLOCK
  5
384A
330
3840
100
AcDbEntity
  8
0
 48
10.0
100
AcDbBlockBegin
  2
*D13
 70
     1
 10
0.0
 20
0.0
 30
0.0
  3
*D13
  1
*D13
  0
LINE
  5
4546
330
3840
100
AcDbEntity
  8
寸法線
 62
     0
 48
10.0
100
AcDbLine
 10
214.606188949985
 20
372.072991108717
 30
0.0
 11
194.640956560493
 21
372.072991108717
 31
0.0
  0
LINE
  5
4547
330
3840
100
AcDbEntity
  8
寸法線
 62
     0
 48
10.0
100
AcDbLine
 10
214.606188949985
 20
312.072991108717
 30
0.0
 11
194.640956560493
 21
312.072991108717
 31
0.0
  0
LINE
  5
4548
330
3840
100
AcDbEntity
  8
寸法線
 62
     0
 48
10.0
100
AcDbLine
 10
195.890956560493
 20
366.072991108717
 30
0.0
 11
195.890956560493
 21
318.072991108717
 31
0.0
  0
INSERT
  5
4549
330
3840
100
AcDbEntity
  8
寸法線
 62
     0
 48
10.0
100
AcDbBlockReference
  2
_OPEN30
 10
195.890956560493
 20
372.072991108717
 30
0.0
 41
6.0
 42
6.0
 43
6.0
 50
90.0
  0
INSERT
  5
454A
330
3840
100
AcDbEntity
  8
寸法線
 62
     0
 48
10.0
100
AcDbBlockReference
  2
_OPEN30
 10
195.890956560493
 20
312.072991108717
 30
0.0
 41
6.0
 42
6.0
 43
6.0
 50
270.0
  0
MTEXT
  5
454B
330
3840
100
AcDbEntity
  8
寸法線
 62
     0
 48
10.0
100
AcDbMText
 10
191.265956560493
 20
342.072991108717
 30
0.0
 40
8.0
 41
0.0
 71
     5
 72
     1
  1
\A1;60
 11
6.123031769111886E-17
 21
1.0
 31
0.0
  0
POINT
  5
454C
330
3840
100
AcDbEntity
  8
DEFPOINTS
 62
     0
 48
10.0
100
AcDbPoint
 10
215.231188949985
 20
372.072991108717
 30
0.0
  0
POINT
  5
454D
330
3840
100
AcDbEntity
  8
DEFPOINTS
 62
     0
 48
10.0
100
AcDbPoint
 10
215.231188949985
 20
312.072991108717
 30
0.0
  0
POINT
  5
454E
330
3840
100
AcDbEntity
  8
DEFPOINTS
 62
     0
 48
10.0
100
AcDbPoint
 10
195.890956560493
 20
312.072991108717
 30
0.0
  0
ENDBLK
  5
384B
330
3840
100
AcDbEntity
  8
0
 48
10.0
100
AcDbBlockEnd
  0
BLOCK
  5
3870
330
3864
100
AcDbEntity
  8
0
 48
10.0
100
AcDbBlockBegin
  2
*D14
 70
     1
 10
0.0
 20
0.0
 30
0.0
  3
*D14
  1
*D14
  0
LINE
  5
4529
330
3864
100
AcDbEntity
  8
寸法線
 62
     0
 48
10.0
100
AcDbLine
 10
30.488292065877
 20
324.622033094659
 30
0.0
 11
30.488292065877
 21
325.247033094659
 31
0.0
  0
LINE
  5
452A
330
3864
100
AcDbEntity
  8
寸法線
 62
     0
 48
10.0
100
AcDbLine
 10
33.488292065877
 20
324.622033094659
 30
0.0
 11
33.488292065877
 21
325.247033094659
 31
0.0
  0
LINE
  5
452B
330
3864
100
AcDbEntity
  8
寸法線
 62
     0
 48
10.0
100
AcDbLine
 10
24.488292065877
 20
323.997033094659
 30
0.0
 11
18.488292065877
 21
323.997033094659
 31
0.0
  0
LINE
  5
452C
330
3864
100
AcDbEntity
  8
寸法線
 62
     0
 48
10.0
100
AcDbLine
 10
39.488292065877
 20
323.997033094659
 30
0.0
 11
50.269662915775
 21
323.997033094659
 31
0.0
  0
LINE
  5
452D
330
3864
100
AcDbEntity
  8
寸法線
 62
     0
 48
10.0
100
AcDbLine
 10
30.488292065877
 20
323.997033094659
 30
0.0
 11
33.488292065877
 21
323.997033094659
 31
0.0
  0
INSERT
  5
452E
330
3864
100
AcDbEntity
  8
寸法線
 62
     0
 48
10.0
100
AcDbBlockReference
  2
_OPEN30
 10
30.488292065877
 20
323.997033094659
 30
0.0
 41
6.0
 42
6.0
 43
6.0
  0
INSERT
  5
452F
330
3864
100
AcDbEntity
  8
寸法線
 62
     0
 48
10.0
100
AcDbBlockReference
  2
_OPEN30
 10
33.488292065877
 20
323.997033094659
 30
0.0
 41
6.0
 42
6.0
 43
6.0
 50
180.0
  0
MTEXT
  5
4530
330
3864
100
AcDbEntity
  8
寸法線
 62
     0
 48
10.0
100
AcDbMText
 10
47.878977490826
 20
328.622033094659
 30
0.0
 40
8.0
 41
0.0
 71
     5
 72
     1
  1
\A1;3
  0
POINT
  5
4531
330
3864
100
AcDbEntity
  8
DEFPOINTS
 62
     0
 48
10.0
100
AcDbPoint
 10
30.488292065877
 20
323.997033094659
 30
0.0
  0
POINT
  5
4532
330
3864
100
AcDbEntity
  8
DEFPOINTS
 62
     0
 48
10.0
100
AcDbPoint
 10
33.488292065877
 20
323.997033094659
 30
0.0
  0
POINT
  5
4533
330
3864
100
AcDbEntity
  8
DEFPOINTS
 62
     0
 48
10.0
100
AcDbPoint
 10
33.488292065877
 20
323.997033094659
 30
0.0
  0
ENDBLK
  5
3871
330
3864
100
AcDbEntity
  8
0
 48
10.0
100
AcDbBlockEnd
  0
BLOCK
  5
3A03
330
3A01
100
AcDbEntity
  8
0
 48
10.0
100
AcDbBlockBegin
  2
A$C025D1C44
 70
     0
 10
0.0
 20
0.0
 30
0.0
  3
A$C025D1C44
  1
A$C025D1C44
  0
MTEXT
  5
3A02
330
3A01
100
AcDbEntity
  8
寸法線
 48
10.0
100
AcDbMText
 10
34.400000678006
 20
-0.396850192054
 30
0.0
 40
8.0
 41
0.0
 71
     9
 72
     1
  1
\A1;SUS304
  0
ENDBLK
  5
3A04
330
3A01
100
AcDbEntity
  8
0
 48
10.0
100
AcDbBlockEnd
  0
BLOCK
  5
3A1F
330
3A1E
100
AcDbEntity
  8
0
100
AcDbBlockBegin
  2
_DOTSMALL
 70
     0
 10
0.0
 20
0.0
 30
0.0
  3
_DOTSMALL
  1
_DOTSMALL
  0
LWPOLYLINE
  5
3A20
330
3A1E
100
AcDbEntity
  8
0
  6
BYBLOCK
 62
     0
100
AcDbPolyline
 90
        2
 70
     1
 43
0.5
 10
-0.0625
 20
0.0
 42
1.0
 10
0.0625
 20
0.0
 42
1.0
  0
ENDBLK
  5
3A21
330
3A1E
100
AcDbEntity
  8
0
100
AcDbBlockEnd
  0
BLOCK
  5
40B5
330
40B4
100
AcDbEntity
  8
0
 48
10.0
100
AcDbBlockBegin
  2
パドル_W1
 70
     0
 10
0.0
 20
0.0
 30
0.0
  3
パドル_W1
  1
パドル_W1
  0
LINE
  5
40B6
330
40B4
100
AcDbEntity
  8
中心線
 48
10.0
100
AcDbLine
 10
124.6832879095
 20
220.674073777677
 30
0.0
 11
131.9189439095
 21
220.674073777677
 31
0.0
  0
LINE
  5
40B7
330
40B4
100
AcDbEntity
  8
外形線
 48
10.0
100
AcDbLine
 10
58.3011159095
 20
260.651761921811
 30
0.0
 11
58.3011159095
 21
180.651761921811
 31
0.0
  0
LINE
  5
40B8
330
40B4
100
AcDbEntity
  8
外形線
 48
10.0
100
AcDbLine
 10
58.3011159095
 20
180.651761921811
 30
0.0
 11
123.3011159095
 21
180.651761921811
 31
0.0
  0
LINE
  5
40B9
330
40B4
100
AcDbEntity
  8
外形線
 48
10.0
100
AcDbLine
 10
138.3011159095
 20
208.651761921811
 30
0.0
 11
138.3011159095
 21
212.376811207105
 31
0.0
  0
LINE
  5
40BA
330
40B4
100
AcDbEntity
  8
外形線
 48
10.0
100
AcDbLine
 10
123.3011159095
 20
260.651761921811
 30
0.0
 11
58.3011159095
 21
260.651761921811
 31
0.0
  0
LINE
  5
40BB
330
40B4
100
AcDbEntity
  8
外形線
 48
10.0
100
AcDbLine
 10
138.3011159095
 20
232.651761921811
 30
0.0
 11
123.3011159095
 21
260.651761921811
 31
0.0
  0
LINE
  5
40BC
330
40B4
100
AcDbEntity
  8
外形線
 48
10.0
100
AcDbLine
 10
138.3011159095
 20
208.651761921811
 30
0.0
 11
123.3011159095
 21
180.651761921811
 31
0.0
  0
LINE
  5
40BD
330
40B4
100
AcDbEntity
  8
外形線
 48
10.0
100
AcDbLine
 10
153.3011159095
 20
212.376811207105
 30
0.0
 11
153.3011159095
 21
228.941629207105
 31
0.0
  0
LINE
  5
40BE
330
40B4
100
AcDbEntity
  8
外形線
100
AcDbLine
 10
125.0147379095
 20
212.376811207105
 30
0.0
 11
153.3011159095
 21
212.376811207105
 31
0.0
  0
LINE
  5
40BF
330
40B4
100
AcDbEntity
  8
細線
100
AcDbLine
 10
153.2891519095
 20
216.518045207105
 30
0.0
 11
124.6692799095
 21
216.518045207105
 31
0.0
  0
LINE
  5
40C0
330
40B4
100
AcDbEntity
  8
外形線
100
AcDbLine
 10
125.0147379095
 20
228.941629207105
 30
0.0
 11
123.3011159095
 21
227.228007207105
 31
0.0
  0
ARC
  5
40C1
330
40B4
100
AcDbEntity
  8
細線
100
AcDbCircle
 10
126.4810479095
 20
227.420755207105
 30
0.0
 40
3.18575
100
AcDbArc
 50
183.469852255156
 51
235.339263082109
  0
LINE
  5
40C2
330
40B4
100
AcDbEntity
  8
細線
100
AcDbLine
 10
153.2891519095
 20
224.800395207105
 30
0.0
 11
124.6692799095
 21
224.800395207105
 31
0.0
  0
ARC
  5
40C3
330
40B4
100
AcDbEntity
  8
細線
100
AcDbCircle
 10
126.4810479095
 20
213.897685207105
 30
0.0
 40
3.18575
100
AcDbArc
 50
124.660776613574
 51
176.530130144749
  0
LINE
  5
40C4
330
40B4
100
AcDbEntity
  8
外形線
100
AcDbLine
 10
123.3011159095
 20
227.228007207105
 30
0.0
 11
123.3011159095
 21
214.090433207105
 31
0.0
  0
CIRCLE
  5
40C5
330
40B4
100
AcDbEntity
  8
外形線
100
AcDbCircle
 10
128.3011159095
 20
220.674073777677
 30
0.0
 40
2.28479
  0
ARC
  5
40C6
330
40B4
100
AcDbEntity
  8
細線
100
AcDbCircle
 10
130.2525019095
 20
220.659219207105
 30
0.0
 40
6.951389999999999
100
AcDbArc
 50
143.43540034864
 51
216.564582051267
  0
LINE
  5
40C7
330
40B4
100
AcDbEntity
  8
中心線
 48
10.0
100
AcDbLine
 10
128.3011159095
 20
224.291901777677
 30
0.0
 11
128.3011159095
 21
217.056245777676
 31
0.0
  0
LINE
  5
40C8
330
40B4
100
AcDbEntity
  8
外形線
100
AcDbLine
 10
125.0147379095
 20
212.376811207105
 30
0.0
 11
123.3011159095
 21
214.090433207105
 31
0.0
  0
LINE
  5
40C9
330
40B4
100
AcDbEntity
  8
外形線
100
AcDbLine
 10
125.0147379095
 20
228.941629207105
 30
0.0
 11
153.3011159095
 21
228.941629207105
 31
0.0
  0
LINE
  5
40CA
330
40B4
100
AcDbEntity
  8
外形線
 48
10.0
100
AcDbLine
 10
138.3011159095
 20
228.941629207105
 30
0.0
 11
138.3011159095
 21
232.651761921811
 31
0.0
  0
ENDBLK
  5
40CB
330
40B4
100
AcDbEntity
  8
0
 48
10.0
100
AcDbBlockEnd
  0
BLOCK
  5
413B
330
413A
100
AcDbEntity
  8
0
 48
10.0
100
AcDbBlockBegin
  2
A$C480F1F2B
 70
     0
 10
0.0
 20
0.0
 30
0.0
  3
A$C480F1F2B
  1
A$C480F1F2B
  0
LINE
  5
413C
330
413A
100
AcDbEntity
  8
外形線
100
AcDbLine
 10
8.500001501512
 20
2.385002184348
 30
0.0
 11
8.500001501512
 21
14.179664684348
 31
0.0
  0
ARC
  5
413D
330
413A
100
AcDbEntity
  8
細線
100
AcDbCircle
 10
1.216144001512
 20
8.282372184348
 30
0.0
 40
7.2838425
100
AcDbArc
 50
326.010120640452
 51
33.98932849733
  0
ARC
  5
413E
330
413A
100
AcDbEntity
  8
細線
100
AcDbCircle
 10
4.911364001511
 20
1.275229684348
 30
0.0
 40
3.7563025
100
AcDbArc
 50
17.184150191555
 51
51.38761061704
  0
LINE
  5
413F
330
413A
100
AcDbEntity
  8
細線
100
AcDbLine
 10
2.000001501511
 20
4.210487184348
 30
0.0
 11
7.255442473881
 21
4.210487184348
 31
0.0
  0
LINE
  5
4140
330
413A
100
AcDbEntity
  8
外形線
100
AcDbLine
 10
2.000001501511
 20
16.564818684348
 30
0.0
 11
2.000001501511
 21
0.000000684348
 31
0.0
  0
LINE
  5
4141
330
413A
100
AcDbEntity
  8
外形線
100
AcDbLine
 10
0.000001501512
 20
16.564818684348
 30
0.0
 11
0.000001501512
 21
0.000000684348
 31
0.0
  0
LINE
  5
4142
330
413A
100
AcDbEntity
  8
外形線
100
AcDbLine
 10
6.114929777464
 20
0.000000684348
 30
0.0
 11
8.499926501511
 21
2.385079684348
 31
0.0
  0
LINE
  5
4143
330
413A
100
AcDbEntity
  8
外形線
100
AcDbLine
 10
0.000001501512
 20
0.000000684348
 30
0.0
 11
6.114929777464
 21
0.000000684348
 31
0.0
  0
ARC
  5
4144
330
413A
100
AcDbEntity
  8
細線
100
AcDbCircle
 10
4.911364001511
 20
15.289437184348
 30
0.0
 40
3.7563025
100
AcDbArc
 50
308.612371782873
 51
342.81588950412
  0
LINE
  5
4145
330
413A
100
AcDbEntity
  8
細線
100
AcDbLine
 10
2.000001501511
 20
12.354369684348
 30
0.0
 11
7.25548242852
 21
12.354369684348
 31
0.0
  0
LINE
  5
4146
330
413A
100
AcDbEntity
  8
外形線
100
AcDbLine
 10
6.11493439904
 20
16.564818684348
 30
0.0
 11
8.499926501511
 21
14.179664684348
 31
0.0
  0
LINE
  5
4147
330
413A
100
AcDbEntity
  8
外形線
100
AcDbLine
 10
0.000001501512
 20
16.564818684348
 30
0.0
 11
6.11493439904
 21
16.564818684348
 31
0.0
  0
ENDBLK
  5
4148
330
413A
100
AcDbEntity
  8
0
 48
10.0
100
AcDbBlockEnd
  0
BLOCK
  5
42B1
330
42A7
100
AcDbEntity
  8
0
 48
10.0
100
AcDbBlockBegin
  2
*D19
 70
     1
 10
0.0
 20
0.0
 30
0.0
  3
*D19
  1
*D19
  0
LINE
  5
4520
330
42A7
100
AcDbEntity
  8
寸法線
 62
     0
 48
10.0
100
AcDbLine
 10
441.574194483696
 20
411.072991108717
 30
0.0
 11
508.837030913575
 21
411.072991108717
 31
0.0
  0
LINE
  5
4521
330
42A7
100
AcDbEntity
  8
寸法線
 62
     0
 48
10.0
100
AcDbLine
 10
441.574194483696
 20
309.072991108717
 30
0.0
 11
508.837030913575
 21
309.072991108717
 31
0.0
  0
LINE
  5
4522
330
42A7
100
AcDbEntity
  8
寸法線
 62
     0
 48
10.0
100
AcDbLine
 10
507.587030913575
 20
405.072991108717
 30
0.0
 11
507.587030913575
 21
315.072991108717
 31
0.0
  0
INSERT
  5
4523
330
42A7
100
AcDbEntity
  8
寸法線
 62
     0
 48
10.0
100
AcDbBlockReference
  2
_OPEN30
 10
507.587030913575
 20
411.072991108717
 30
0.0
 41
6.0
 42
6.0
 43
6.0
 50
90.0
  0
INSERT
  5
4524
330
42A7
100
AcDbEntity
  8
寸法線
 62
     0
 48
10.0
100
AcDbBlockReference
  2
_OPEN30
 10
507.587030913575
 20
309.072991108717
 30
0.0
 41
6.0
 42
6.0
 43
6.0
 50
270.0
  0
MTEXT
  5
4525
330
42A7
100
AcDbEntity
  8
寸法線
 62
     0
 48
10.0
100
AcDbMText
 10
502.961243512
 20
359.460991608717
 30
0.0
 40
8.0
 41
0.0
 71
     5
 72
     1
  1
\A1;φ102
 11
6.123031769111886E-17
 21
1.0
 31
0.0
  0
POINT
  5
4526
330
42A7
100
AcDbEntity
  8
DEFPOINTS
 62
     0
 48
10.0
100
AcDbPoint
 10
440.949194483696
 20
411.072991108717
 30
0.0
  0
POINT
  5
4527
330
42A7
100
AcDbEntity
  8
DEFPOINTS
 62
     0
 48
10.0
100
AcDbPoint
 10
440.949194483696
 20
309.072991108717
 30
0.0
  0
POINT
  5
4528
330
42A7
100
AcDbEntity
  8
DEFPOINTS
 62
     0
 48
10.0
100
AcDbPoint
 10
507.587030913575
 20
309.072991108717
 30
0.0
  0
ENDBLK
  5
42B2
330
42A7
100
AcDbEntity
  8
0
 48
10.0
100
AcDbBlockEnd
  0
BLOCK
  5
43DF
330
43DC
100
AcDbEntity
  8
0
 48
10.0
100
AcDbBlockBegin
  2
A$C2B5425E7
 70
     0
 10
0.0
 20
0.0
 30
0.0
  3
A$C2B5425E7
  1
A$C2B5425E7
  0
MTEXT
  5
43DD
330
43DC
100
AcDbEntity
  8
寸法線
 62
     1
 48
10.0
100
AcDbMText
 10
275.775795300829
 20
48.287740799355
 30
0.0
 40
5.0
 41
84.309437668294
 71
     1
 72
     5
  1
BT(W12×25)、W、P 付
  0
MTEXT
  5
43DE
330
43DC
100
AcDbEntity
  8
寸法線
 62
     1
 48
10.0
100
AcDbMText
 10
-0.088877577583
 20
3.500688659158
 30
0.0
 40
3.5
 41
104.780441503314
 71
     1
 72
     5
  1
2012.6.12  接点容量変更 6A→5A
  0
ENDBLK
  5
43E0
330
43DC
100
AcDbEntity
  8
0
 48
10.0
100
AcDbBlockEnd
  0
BLOCK
  5
45C3
330
45BA
100
AcDbEntity
  8
0
 62
     1
 48
10.0
100
AcDbBlockBegin
  2
*D21
 70
     1
 10
0.0
 20
0.0
 30
0.0
  3
*D21
  1
*D21
  0
LINE
  5
45CD
330
45BA
100
AcDbEntity
  8
寸法線
 62
     0
 48
10.0
100
AcDbLine
 10
-19.369364363424
 20
331.031822353919
 30
0.0
 11
83.345980495178
 21
389.114159863515
 31
0.0
  0
MTEXT
  5
45CE
330
45BA
100
AcDbEntity
  8
寸法線
 62
     0
 48
10.0
100
AcDbMText
 10
66.74013650911
 20
385.594390228211
 30
0.0
 40
8.0
 41
0.0
 71
     5
 72
     1
  1
\A1;\U+2205130
 11
0.8704690242254374
 21
0.4922231992338588
 31
0.0
  0
INSERT
  5
45CF
330
45BA
100
AcDbEntity
  8
寸法線
 62
     0
 48
10.0
100
AcDbBlockReference
  2
_OPEN30
 10
-24.592178508777
 20
328.078483158516
 30
0.0
 41
6.0
 42
6.0
 43
6.0
 50
209.486811041888
  0
INSERT
  5
45D0
330
45BA
100
AcDbEntity
  8
寸法線
 62
     0
 48
10.0
100
AcDbBlockReference
  2
_OPEN30
 10
88.56879464053
 20
392.067499058918
 30
0.0
 41
6.0
 42
6.0
 43
6.0
 50
29.486811041888
  0
POINT
  5
45D1
330
45BA
100
AcDbEntity
  8
DEFPOINTS
 62
     0
 48
10.0
100
AcDbPoint
 10
88.56879464053
 20
392.067499058918
 30
0.0
  0
POINT
  5
45D2
330
45BA
100
AcDbEntity
  8
DEFPOINTS
 62
     0
 48
10.0
100
AcDbPoint
 10
-24.592178508777
 20
328.078483158516
 30
0.0
  0
ENDBLK
  5
45C4
330
45BA
100
AcDbEntity
  8
0
 62
     1
 48
10.0
100
AcDbBlockEnd
  0
BLOCK
  5
45DD
330
45D4
100
AcDbEntity
  8
0
 62
     1
 48
10.0
100
AcDbBlockBegin
  2
*D22
 70
     1
 10
0.0
 20
0.0
 30
0.0
  3
*D22
  1
*D22
  0
LINE
  5
45E7
330
45D4
100
AcDbEntity
  8
寸法線
 62
     0
 48
10.0
100
AcDbLine
 10
-38.681142738258
 20
349.20658561584
 30
0.0
 11
102.657758229088
 21
370.939396601594
 31
0.0
  0
MTEXT
  5
45E8
330
45D4
100
AcDbEntity
  8
寸法線
 62
     0
 48
10.0
100
AcDbMText
 10
79.282402169584
 20
372.754388876165
 30
0.0
 40
8.0
 41
0.0
 71
     5
 72
     1
  1
\A1;\U+2205155
 11
0.9883839228485796
 21
0.1519776992010772
 31
0.0
  0
INSERT
  5
45E9
330
45D4
100
AcDbEntity
  8
寸法線
 62
     0
 48
10.0
100
AcDbBlockReference
  2
_OPEN30
 10
-44.61144627535
 20
348.294719420633
 30
0.0
 41
6.0
 42
6.0
 43
6.0
 50
188.741554552817
  0
INSERT
  5
45EA
330
45D4
100
AcDbEntity
  8
寸法線
 62
     0
 48
10.0
100
AcDbBlockReference
  2
_OPEN30
 10
108.58806176618
 20
371.851262796801
 30
0.0
 41
6.0
 42
6.0
 43
6.0
 50
8.741554552817
  0
POINT
  5
45EB
330
45D4
100
AcDbEntity
  8
DEFPOINTS
 62
     0
 48
10.0
100
AcDbPoint
 10
108.58806176618
 20
371.851262796801
 30
0.0
  0
POINT
  5
45EC
330
45D4
100
AcDbEntity
  8
DEFPOINTS
 62
     0
 48
10.0
100
AcDbPoint
 10
-44.61144627535
 20
348.294719420633
 30
0.0
  0
ENDBLK
  5
45DE
330
45D4
100
AcDbEntity
  8
0
 62
     1
 48
10.0
100
AcDbBlockEnd
  0
ENDSEC
  0
SECTION
  2
ENTITIES
  0
LEADER
  5
371D
330
1A
100
AcDbEntity
  8
寸法線
 62
     1
 48
10.0
100
AcDbLeader
  3
ISO-25
 76
     3
 10
-11.405416066676
 20
307.30460347089
 30
0.0
 10
-2.520398671926
 20
262.862044919449
 30
0.0
 10
-36.556414798614
 20
262.862044919449
 30
0.0
1001
ACAD
1000
DSTYLE
1002
{
1070
     5
1000
OPEN30
1070
   147
1040
0.625
1070
    77
1070
     0
1070
    41
1040
6.0
1070
    47
1040
0.1
1070
    48
1040
0.1
1070
    73
1070
     0
1070
   140
1040
8.0
1070
   271
1070
     1
1070
   272
1070
     1
1070
   341
1005
2AF4
1070
   342
1005
2AF4
1002
}
  0
MTEXT
  5
371E
330
1A
100
AcDbEntity
  8
寸法線
 48
10.0
100
AcDbMText
 10
188.295546877177
 20
467.384434297127
 30
0.0
 40
8.0
 41
0.0
 71
     9
 72
     1
  1
\A1;SUS304
  0
MTEXT
  5
3720
330
1A
100
AcDbEntity
  8
寸法線
 48
10.0
100
AcDbMText
 10
253.054621885763
 20
467.384434297127
 30
0.0
 40
8.0
 41
0.0
 71
     9
 72
     1
  1
\A1;SUS304
  0
MTEXT
  5
3723
330
1A
100
AcDbEntity
  8
寸法線
 48
10.0
100
AcDbMText
 10
331.185362147719
 20
467.715651012727
 30
0.0
 40
8.0
 41
0.0
 71
     9
 72
     1
  1
フランジ\Pアルミ鋳物
  0
MTEXT
  5
3724
330
1A
100
AcDbEntity
  8
寸法線
 48
10.0
100
AcDbMText
 10
415.806208729605
 20
467.815754725958
 30
0.0
 40
8.0
 41
0.0
 71
     9
 72
     1
  1
\A1;アルミ鋳物
  0
MTEXT
  5
3726
330
1A
100
AcDbEntity
  8
寸法線
 48
10.0
100
AcDbMText
 10
430.367253879609
 20
467.384434297127
 30
0.0
 40
8.0
 41
0.0
 71
     7
 72
     1
  1
\A1;Oリング
  0
MTEXT
  5
3728
330
1A
100
AcDbEntity
  8
寸法線
 48
10.0
100
AcDbMText
 10
476.865328360725
 20
467.384434297127
 30
0.0
 40
8.0
 41
0.0
 71
     7
 72
     1
  1
\A1;アルミ鋳物
  0
MTEXT
  5
372A
330
1A
100
AcDbEntity
  8
寸法線
 48
10.0
100
AcDbMText
 10
-7.74337897739
 20
264.52824949871
 30
0.0
 40
8.0
 41
0.0
 71
     9
 72
     1
  1
\A1;4-φ15
  0
MTEXT
  5
372B
330
1A
100
AcDbEntity
  8
寸法線
 48
10.0
100
AcDbMText
 10
431.155984071188
 20
276.12065464124
 30
0.0
 40
8.0
 41
0.0
 71
     7
 72
     1
  1
導線取出口\PG 1/2"
  0
DIMENSION
  5
372D
330
1A
100
AcDbEntity
  8
寸法線
 48
10.0
100
AcDbDimension
  2
*D6
 10
316.186930842361
 20
339.863674333474
 30
0.0
 11
310.741135071222
 21
372.455573730298
 31
0.0
 70
   160
  1
φ56
  3
ISO-25
100
AcDbAlignedDimension
 13
316.175171338256
 23
395.819787266281
 33
0.0
 14
316.186930842361
 24
339.863674333474
 34
0.0
 50
90.0
100
AcDbRotatedDimension
1001
ACAD
1000
DSTYLE
1002
{
1070
   287
1070
     5
1070
     5
1000
OPEN30
1070
    41
1040
6.0
1070
    47
1040
0.1
1070
    48
1040
0.1
1070
    73
1070
     0
1070
    75
1070
     1
1070
    76
1070
     1
1070
   140
1040
8.0
1070
   271
1070
     1
1070
   272
1070
     1
1070
   279
1070
     2
1070
   341
1005
2AF4
1002
}
  0
LINE
  5
374D
330
1A
100
AcDbEntity
  8
寸法線
100
AcDbLine
 10
334.733448949986
 20
388.510491108717
 30
0.0
 11
310.654590949986
 21
397.994103108717
 31
0.0
  0
LINE
  5
376A
330
1A
100
AcDbEntity
  8
外形線
100
AcDbLine
 10
416.241842251778
 20
286.076195108886
 30
0.0
 11
414.813740251778
 21
284.648157108886
 31
0.0
  0
LINE
  5
376C
330
1A
100
AcDbEntity
  8
外形線
100
AcDbLine
 10
411.672138251779
 20
289.788965108886
 30
0.0
 11
411.672138251779
 21
294.072961108886
 31
0.0
  0
LINE
  5
376D
330
1A
100
AcDbEntity
  8
外形線
100
AcDbLine
 10
416.241842251778
 20
289.788965108886
 30
0.0
 11
416.241842251778
 21
286.076195108886
 31
0.0
  0
LINE
  5
376E
330
1A
100
AcDbEntity
  8
細線
100
AcDbLine
 10
409.387348251779
 20
294.072961108886
 30
0.0
 11
409.387348251779
 21
289.788965108886
 31
0.0
  0
LINE
  5
3777
330
1A
100
AcDbEntity
  8
寸法線
100
AcDbLine
 10
334.733448949986
 20
332.510491108717
 30
0.0
 11
310.654590949986
 21
341.994103108717
 31
0.0
  0
ARC
  5
377A
330
1A
100
AcDbEntity
  8
細線
100
AcDbCircle
 10
402.247334251779
 20
299.184839108886
 30
0.0
 40
14.53669
100
AcDbArc
 50
244.3907930338
 51
295.609209213942
  0
LINE
  5
377B
330
1A
100
AcDbEntity
  8
外形線
100
AcDbLine
 10
388.252950251779
 20
286.076195108886
 30
0.0
 11
389.680928251779
 21
284.648157108886
 31
0.0
  0
ARC
  5
377C
330
1A
100
AcDbEntity
  8
細線
100
AcDbCircle
 10
384.409260251779
 20
322.379449108886
 30
0.0
 40
38.097766
100
AcDbArc
 50
277.953629348533
 51
287.655580989282
  0
LINE
  5
377E
330
1A
100
AcDbEntity
  8
外形線
100
AcDbLine
 10
392.822530251778
 20
289.788965108886
 30
0.0
 11
392.822530251778
 21
294.072961108886
 31
0.0
  0
LINE
  5
377F
330
1A
100
AcDbEntity
  8
外形線
100
AcDbLine
 10
388.252950251779
 20
289.788965108886
 30
0.0
 11
388.252950251779
 21
286.076195108886
 31
0.0
  0
LINE
  5
3780
330
1A
100
AcDbEntity
  8
細線
100
AcDbLine
 10
395.107320251779
 20
294.072961108886
 30
0.0
 11
395.107320251779
 21
289.788965108886
 31
0.0
  0
LINE
  5
3781
330
1A
100
AcDbEntity
  8
細線
100
AcDbLine
 10
395.964132251779
 20
286.076195108886
 30
0.0
 11
395.964132251779
 21
289.788965108886
 31
0.0
  0
LINE
  5
3782
330
1A
100
AcDbEntity
  8
細線
100
AcDbLine
 10
408.530538251779
 20
286.076195108886
 30
0.0
 11
408.530538251779
 21
289.788965108886
 31
0.0
  0
LINE
  5
3787
330
1A
100
AcDbEntity
  8
外形線
100
AcDbLine
 10
389.680928251779
 20
284.648157108886
 30
0.0
 11
414.813740251778
 21
284.648157108886
 31
0.0
  0
LINE
  5
3789
330
1A
100
AcDbEntity
  8
外形線
100
AcDbLine
 10
388.252950251779
 20
289.788965108886
 30
0.0
 11
416.241842251778
 21
289.788965108886
 31
0.0
  0
ARC
  5
378A
330
1A
100
AcDbEntity
  8
細線
100
AcDbCircle
 10
402.818588822427
 20
283.47795354018
 30
0.0
 40
36.59213005904878
100
AcDbArc
 50
70.152880697386
 51
115.263830550288
  0
ARC
  5
378B
330
1A
100
AcDbEntity
  8
細線
100
AcDbCircle
 10
420.085408251779
 20
322.379449108886
 30
0.0
 40
38.097766
100
AcDbArc
 50
252.344421258481
 51
262.046372899211
  0
LINE
  5
3790
330
1A
100
AcDbEntity
  8
細線
100
AcDbLine
 10
378.751527004136
 20
399.200189108717
 30
0.0
 11
378.751527004136
 21
320.945795108717
 31
0.0
  0
LINE
  5
3795
330
1A
100
AcDbEntity
  8
細線
100
AcDbLine
 10
364.831164949985
 20
382.864343108717
 30
0.0
 11
364.831164949985
 21
337.281641108717
 31
0.0
  0
LINE
  5
379B
330
1A
100
AcDbEntity
  8
下書線
 48
10.0
100
AcDbLine
 10
131.851459361203
 20
466.452967632961
 30
0.0
 11
542.16315629384
 21
466.452967632961
 31
0.0
  0
DIMENSION
  5
379C
330
1A
100
AcDbEntity
  8
寸法線
 48
10.0
100
AcDbDimension
  2
*D7
 10
289.483848418702
 20
352.572991108717
 30
0.0
 11
289.483848418702
 21
382.563676533666
 31
0.0
 70
   160
  1
φ<>
  3
ISO-25
100
AcDbAlignedDimension
 13
289.431185949985
 23
367.572991108717
 33
0.0
 14
289.431185949985
 24
352.572991108717
 34
0.0
 50
90.0
100
AcDbRotatedDimension
1001
ACAD
1000
DSTYLE
1002
{
1070
     5
1000
OPEN30
1070
    41
1040
6.0
1070
    47
1040
0.1
1070
    48
1040
0.1
1070
    73
1070
     0
1070
   140
1040
8.0
1070
   271
1070
     1
1070
   272
1070
     1
1070
   341
1005
2AF4
1002
}
  0
DIMENSION
  5
379D
330
1A
100
AcDbEntity
  8
寸法線
 48
10.0
100
AcDbDimension
  2
*D8
 10
335.231188949985
 20
237.52833675906
 30
0.0
 11
275.231188949985
 21
242.154124160634
 31
0.0
 70
    32
  3
ISO-25
100
AcDbAlignedDimension
 13
215.231188949985
 23
296.918645538221
 33
0.0
 14
335.231188949985
 24
256.327202407855
 34
0.0
100
AcDbRotatedDimension
1001
ACAD
1000
DSTYLE
1002
{
1070
     5
1000
OPEN30
1070
    41
1040
6.0
1070
    47
1040
0.1
1070
    48
1040
0.1
1070
    73
1070
     0
1070
   140
1040
8.0
1070
   271
1070
     1
1070
   272
1070
     1
1070
   341
1005
2AF4
1002
}
  0
DIMENSION
  5
379E
330
1A
100
AcDbEntity
  8
寸法線
 48
10.0
100
AcDbDimension
  2
*D9
 10
485.247334251779
 20
237.52833675906
 30
0.0
 11
410.239261600882
 21
242.15333675906
 31
0.0
 70
    32
  1
150
  3
ISO-25
100
AcDbAlignedDimension
 13
335.231188949985
 23
256.327202407855
 33
0.0
 14
485.247334251779
 24
257.577202407855
 34
0.0
100
AcDbRotatedDimension
1001
ACAD
1000
DSTYLE
1002
{
1070
     5
1000
OPEN30
1070
    41
1040
6.0
1070
    47
1040
0.1
1070
    48
1040
0.1
1070
    73
1070
     0
1070
   140
1040
8.0
1070
   271
1070
     1
1070
   272
1070
     1
1070
   341
1005
2AF4
1002
}
  0
DIMENSION
  5
379F
330
1A
100
AcDbEntity
  8
寸法線
 48
10.0
100
AcDbDimension
  2
*D10
 10
402.247334251779
 20
257.577202407855
 30
0.0
 11
443.747334251779
 21
262.202202407855
 31
0.0
 70
    32
  1
83
  3
ISO-25
100
AcDbAlignedDimension
 13
485.247334251779
 23
328.021790235524
 33
0.0
 14
402.247334251779
 24
281.196865571275
 34
0.0
100
AcDbRotatedDimension
1001
ACAD
1000
DSTYLE
1002
{
1070
     5
1000
OPEN30
1070
    41
1040
6.0
1070
    47
1040
0.1
1070
    48
1040
0.1
1070
    73
1070
     0
1070
   140
1040
8.0
1070
   271
1070
     1
1070
   272
1070
     1
1070
   341
1005
2AF4
1002
}
  0
DIMENSION
  5
37A2
330
1A
100
AcDbEntity
  8
寸法線
 48
10.0
100
AcDbDimension
  2
*D11
 10
347.231188949985
 20
257.577202407855
 30
0.0
 11
341.231188949985
 21
262.20298980943
 31
0.0
 70
    32
  3
ISO-25
100
AcDbAlignedDimension
 13
335.231188949985
 23
282.572991108717
 33
0.0
 14
347.231188949985
 24
282.572991108717
 34
0.0
100
AcDbRotatedDimension
1001
ACAD
1000
DSTYLE
1002
{
1070
     5
1000
OPEN30
1070
    41
1040
6.0
1070
    47
1040
0.1
1070
    48
1040
0.1
1070
    73
1070
     0
1070
   140
1040
8.0
1070
   271
1070
     1
1070
   272
1070
     1
1070
   341
1005
2AF4
1002
}
  0
DIMENSION
  5
37A3
330
1A
100
AcDbEntity
  8
寸法線
 48
10.0
100
AcDbDimension
  2
*D12
 10
245.231188949985
 20
293.907884818729
 30
0.0
 11
230.231188949985
 21
293.907884818729
 31
0.0
 70
   160
  3
ISO-25
100
AcDbAlignedDimension
 13
215.231188949985
 23
312.072991108717
 33
0.0
 14
245.231188949985
 24
312.072991108717
 34
0.0
100
AcDbRotatedDimension
1001
ACAD
1000
DSTYLE
1002
{
1070
     5
1000
OPEN30
1070
    41
1040
6.0
1070
    47
1040
0.1
1070
    48
1040
0.1
1070
    73
1070
     0
1070
   140
1040
8.0
1070
   271
1070
     1
1070
   272
1070
     1
1070
   341
1005
2AF4
1002
}
  0
DIMENSION
  5
37A4
330
1A
100
AcDbEntity
  8
寸法線
 48
10.0
100
AcDbDimension
  2
*D13
 10
195.890956560493
 20
312.072991108717
 30
0.0
 11
195.890956560493
 21
342.072991108717
 31
0.0
 70
   160
  3
ISO-25
100
AcDbAlignedDimension
 13
215.231188949985
 23
372.072991108717
 33
0.0
 14
215.231188949985
 24
312.072991108717
 34
0.0
 50
90.0
100
AcDbRotatedDimension
1001
ACAD
1000
DSTYLE
1002
{
1070
     5
1000
OPEN30
1070
    41
1040
6.0
1070
    47
1040
0.1
1070
    48
1040
0.1
1070
    73
1070
     0
1070
   140
1040
8.0
1070
   271
1070
     1
1070
   272
1070
     1
1070
   341
1005
2AF4
1002
}
  0
CIRCLE
  5
37A5
330
1A
100
AcDbEntity
  8
外形線
 48
10.0
100
AcDbCircle
 10
31.988307745415
 20
360.072991108717
 30
0.0
 40
77.5
  0
LINE
  5
37A9
330
1A
100
AcDbEntity
  8
中心線
 48
10.0
100
AcDbLine
 10
-22.658487482228
 20
305.426211560612
 30
0.0
 11
-5.28880994027
 21
322.79588910257
 31
0.0
  0
LINE
  5
37AA
330
1A
100
AcDbEntity
  8
中心線
 48
10.0
100
AcDbLine
 10
69.265394072024
 20
322.79588910257
 30
0.0
 11
86.635071613982
 21
305.426211560612
 31
0.0
  0
LINE
  5
37AB
330
1A
100
AcDbEntity
  8
中心線
 48
10.0
100
AcDbLine
 10
-22.658487482228
 20
414.719770656822
 30
0.0
 11
-5.28880994027
 21
397.350093114864
 31
0.0
  0
LINE
  5
37AC
330
1A
100
AcDbEntity
  8
中心線
 48
10.0
100
AcDbLine
 10
69.265394072024
 20
397.350093114864
 30
0.0
 11
86.635071613982
 21
414.719770656822
 31
0.0
  0
LINE
  5
37AD
330
1A
100
AcDbEntity
  8
中心線
 48
10.0
100
AcDbLine
 10
31.988307869321
 20
451.76843080614
 30
0.0
 11
31.988307621509
 21
268.377556669591
 31
0.0
  0
LINE
  5
37AE
330
1A
100
AcDbEntity
  8
中心線
 48
10.0
100
AcDbLine
 10
119.096310065877
 20
360.072991108717
 30
0.0
 11
-55.119694822859
 21
360.072991108717
 31
0.0
  0
CIRCLE
  5
37AF
330
1A
100
AcDbEntity
  8
中心線
 48
10.0
100
AcDbCircle
 10
31.988308065877
 20
360.072991108717
 30
0.0
 40
65.0
  0
DIMENSION
  5
37B0
330
1A
100
AcDbEntity
  8
寸法線
 48
10.0
100
AcDbDimension
  2
*D14
 10
33.488292065877
 20
323.997033094659
 30
0.0
 11
47.878977490826
 21
328.622033094659
 31
0.0
 70
    33
  3
ISO-25
100
AcDbAlignedDimension
 13
30.488292065877
 23
323.997033094659
 33
0.0
 14
33.488292065877
 24
323.997033094659
 34
0.0
1001
ACAD
1000
DSTYLE
1002
{
1070
     5
1000
OPEN30
1070
    41
1040
6.0
1070
    47
1040
0.1
1070
    48
1040
0.1
1070
    73
1070
     0
1070
   140
1040
8.0
1070
   271
1070
     1
1070
   272
1070
     1
1070
   341
1005
2AF4
1002
}
  0
ARC
  5
37B1
330
1A
100
AcDbEntity
  8
外形線
100
AcDbCircle
 10
31.988292065877
 20
360.072991108717
 30
0.0
 40
23.600006
100
AcDbArc
 50
273.644184588245
 51
266.355932251063
  0
ARC
  5
37B2
330
1A
100
AcDbEntity
  8
外形線
100
AcDbCircle
 10
31.988292065877
 20
360.072991108717
 30
0.0
 40
28.0
100
AcDbArc
 50
273.070883018437
 51
266.929176525092
  0
CIRCLE
  5
37B3
330
1A
100
AcDbEntity
  8
外形線
100
AcDbCircle
 10
77.950232843003
 20
406.034931885843
 30
0.0
 40
7.5
  0
CIRCLE
  5
37B4
330
1A
100
AcDbEntity
  8
外形線
100
AcDbCircle
 10
-13.973648711249
 20
406.034931885843
 30
0.0
 40
7.5
  0
CIRCLE
  5
37B5
330
1A
100
AcDbEntity
  8
外形線
100
AcDbCircle
 10
-13.973648711249
 20
314.111050331591
 30
0.0
 40
7.5
  0
CIRCLE
  5
37B6
330
1A
100
AcDbEntity
  8
外形線
100
AcDbCircle
 10
77.950232843003
 20
314.111050331591
 30
0.0
 40
7.5
  0
INSERT
  5
37B7
330
1A
100
AcDbEntity
  8
寸法線
 48
10.0
100
AcDbBlockReference
  2
A$C2AA85C5D
 10
19.990061897247
 20
312.072990869746
 30
0.0
  0
LINE
  5
37B8
330
1A
100
AcDbEntity
  8
中心線
 48
10.0
100
AcDbLine
 10
485.414866028786
 20
360.072991108717
 30
0.0
 11
210.980343294126
 21
360.072991108717
 31
0.0
  0
ARC
  5
37B9
330
1A
100
AcDbEntity
  8
細線
100
AcDbCircle
 10
273.879282569249
 20
350.758813478137
 30
0.0
 40
3.75288168161888
100
AcDbArc
 50
358.689715050974
 51
62.018860308432
  0
ARC
  5
37BA
330
1A
100
AcDbEntity
  8
細線
100
AcDbCircle
 10
267.595484736318
 20
360.072991108717
 30
0.0
 40
10.03569821366904
100
AcDbArc
 50
323.282806020859
 51
36.717193979141
  0
LINE
  5
37BB
330
1A
100
AcDbEntity
  8
外形線
100
AcDbLine
 10
277.631182949985
 20
369.472985108717
 30
0.0
 11
277.631182949985
 21
350.672997108717
 31
0.0
  0
LINE
  5
37BC
330
1A
100
AcDbEntity
  8
外形線
100
AcDbLine
 10
274.231188949985
 20
348.072991108717
 30
0.0
 11
277.631182949985
 21
350.672997108717
 31
0.0
  0
LINE
  5
37BD
330
1A
100
AcDbEntity
  8
細線
100
AcDbLine
 10
275.640062949985
 20
354.072991108717
 30
0.0
 11
267.031176949985
 21
354.072991108717
 31
0.0
  0
LINE
  5
37BE
330
1A
100
AcDbEntity
  8
外形線
100
AcDbLine
 10
267.031176949985
 20
372.072991108717
 30
0.0
 11
267.031176949985
 21
348.072991108717
 31
0.0
  0
LINE
  5
37BF
330
1A
100
AcDbEntity
  8
外形線
100
AcDbLine
 10
274.231188949985
 20
348.072991108717
 30
0.0
 11
264.031176949985
 21
348.072991108717
 31
0.0
  0
LINE
  5
37C0
330
1A
100
AcDbEntity
  8
外形線
100
AcDbLine
 10
301.231188949985
 20
352.572991108717
 30
0.0
 11
277.631182949985
 21
352.572991108717
 31
0.0
  0
ARC
  5
37C1
330
1A
100
AcDbEntity
  8
細線
100
AcDbCircle
 10
273.879282569249
 20
369.387168739299
 30
0.0
 40
3.75288168161888
100
AcDbArc
 50
297.981139691568
 51
1.310284949026
  0
LINE
  5
37C2
330
1A
100
AcDbEntity
  8
外形線
100
AcDbLine
 10
274.231188949985
 20
372.072991108717
 30
0.0
 11
277.631182949985
 21
369.472985108717
 31
0.0
  0
LINE
  5
37C3
330
1A
100
AcDbEntity
  8
細線
100
AcDbLine
 10
275.640062949985
 20
366.072991108717
 30
0.0
 11
267.031176949985
 21
366.072991108717
 31
0.0
  0
LINE
  5
37C4
330
1A
100
AcDbEntity
  8
外形線
100
AcDbLine
 10
274.231188949985
 20
372.072991108717
 30
0.0
 11
264.031176949985
 21
372.072991108717
 31
0.0
  0
LINE
  5
37C5
330
1A
100
AcDbEntity
  8
外形線
100
AcDbLine
 10
301.231188949985
 20
367.572991108717
 30
0.0
 11
277.631182949985
 21
367.572991108717
 31
0.0
  0
INSERT
  5
37C6
330
1A
100
AcDbEntity
  8
外形線
 48
10.0
100
AcDbBlockReference
  2
A$C5F435AFC
 10
215.231189343654
 20
312.072991648454
 30
0.0
  0
MTEXT
  5
3CCD
330
1A
100
AcDbEntity
  8
細線
100
AcDbMText
 10
269.609298700395
 20
589.648777635584
 30
0.0
 40
5.0
 41
0.0
 71
     7
 72
     1
  1
 
  0
ARC
  5
3CF0
330
1A
100
AcDbEntity
  8
外形線
100
AcDbCircle
 10
332.23542123268
 20
330.041681599083
 30
0.0
 40
3.0
100
AcDbArc
 50
0.0
 51
85.235374310871
  0
ARC
  5
3CF1
330
1A
100
AcDbEntity
  8
外形線
100
AcDbCircle
 10
332.242040483695
 20
390.111471101059
 30
0.0
 40
3.0
100
AcDbArc
 50
274.391874408394
 51
0.0
  0
LINE
  5
3CF2
330
1A
100
AcDbEntity
  8
外形線
100
AcDbLine
 10
332.484609016271
 20
333.031314594705
 30
0.0
 11
304.022046154587
 21
334.675197199727
 31
0.0
  0
LINE
  5
3CF3
330
1A
100
AcDbEntity
  8
外形線
100
AcDbLine
 10
332.471773364702
 20
387.120280233965
 30
0.0
 11
304.022046154587
 21
385.675197199727
 31
0.0
  0
ARC
  5
3CF4
330
1A
100
AcDbEntity
  8
外形線
100
AcDbCircle
 10
304.242040483695
 20
337.667120075598
 30
0.0
 40
3.0
100
AcDbArc
 50
180.0
 51
265.794642998291
  0
ARC
  5
3CF5
330
1A
100
AcDbEntity
  8
外形線
100
AcDbCircle
 10
304.242040483695
 20
382.683274323856
 30
0.0
 40
3.0
100
AcDbArc
 50
94.205357001709
 51
180.0
  0
LINE
  5
3CF6
330
1A
100
AcDbEntity
  8
外形線
100
AcDbLine
 10
301.242040483695
 20
382.683274323856
 30
0.0
 11
301.242040483695
 21
337.462707893915
 31
0.0
  0
LINE
  5
3CFA
330
1A
100
AcDbEntity
  8
中心線
100
AcDbLine
 10
330.239553041442
 20
425.072991108886
 30
0.0
 11
352.242040483695
 21
425.072991108886
 31
0.0
  0
LINE
  5
3D06
330
1A
100
AcDbEntity
  8
外形線
100
AcDbLine
 10
365.588534422499
 20
335.072991108886
 30
0.0
 11
350.242040483696
 21
335.072991108886
 31
0.0
  0
ARC
  5
3D07
330
1A
100
AcDbEntity
  8
外形線
100
AcDbCircle
 10
350.242040483696
 20
332.072991108886
 30
0.0
 40
3.0
100
AcDbArc
 50
90.0
 51
180.0
  0
LINE
  5
3D08
330
1A
100
AcDbEntity
  8
外形線
100
AcDbLine
 10
347.242040483696
 20
436.572991108885
 30
0.0
 11
347.242040483695
 21
283.572991108886
 31
0.0
  0
LINE
  5
3D09
330
1A
100
AcDbEntity
  8
外形線
100
AcDbLine
 10
346.242040483695
 20
282.572991108886
 30
0.0
 11
335.742040483695
 21
282.572991108886
 31
0.0
  0
LINE
  5
3D0A
330
1A
100
AcDbEntity
  8
外形線
100
AcDbLine
 10
346.242040483695
 20
282.572991108886
 30
0.0
 11
347.242040483695
 21
283.572991108886
 31
0.0
  0
LINE
  5
3D0B
330
1A
100
AcDbEntity
  8
外形線
100
AcDbLine
 10
335.742040483695
 20
282.572991108886
 30
0.0
 11
335.242040483695
 21
283.072991108886
 31
0.0
  0
LINE
  5
3D0C
330
1A
100
AcDbEntity
  8
外形線
100
AcDbLine
 10
335.742040483695
 20
437.572991108885
 30
0.0
 11
335.242040483695
 21
437.072991108885
 31
0.0
  0
LINE
  5
3D0E
330
1A
100
AcDbEntity
  8
外形線
100
AcDbLine
 10
346.242040483695
 20
437.572991108885
 30
0.0
 11
347.242040483695
 21
436.572991108885
 31
0.0
  0
LINE
  5
3D0F
330
1A
100
AcDbEntity
  8
外形線
100
AcDbLine
 10
346.242040483695
 20
437.572991108885
 30
0.0
 11
335.742040483695
 21
437.572991108885
 31
0.0
  0
ARC
  5
3D10
330
1A
100
AcDbEntity
  8
外形線
100
AcDbCircle
 10
350.242040483696
 20
388.072991108886
 30
0.0
 40
3.0
100
AcDbArc
 50
180.0
 51
270.0
  0
LINE
  5
3D1E
330
1A
100
AcDbEntity
  8
外形線
100
AcDbLine
 10
423.242040483695
 20
309.072991108717
 30
0.0
 11
423.242040483695
 21
411.072991108717
 31
0.0
  0
LINE
  5
3D20
330
1A
100
AcDbEntity
  8
外形線
100
AcDbLine
 10
422.742040483695
 20
411.072991108886
 30
0.0
 11
418.242040483695
 21
411.072991108886
 31
0.0
  0
LINE
  5
3D21
330
1A
100
AcDbEntity
  8
外形線
100
AcDbLine
 10
418.242040483695
 20
411.072991108886
 30
0.0
 11
415.242040483695
 21
406.072991108886
 31
0.0
  0
LINE
  5
3D22
330
1A
100
AcDbEntity
  8
外形線
100
AcDbLine
 10
415.242040483695
 20
406.072991108886
 30
0.0
 11
380.786236010724
 21
404.158779749276
 31
0.0
  0
LINE
  5
3D23
330
1A
100
AcDbEntity
  8
外形線
100
AcDbLine
 10
422.742040483695
 20
309.072991108886
 30
0.0
 11
417.242040483696
 21
309.072991108886
 31
0.0
  0
LINE
  5
3D24
330
1A
100
AcDbEntity
  8
外形線
100
AcDbLine
 10
390.123734203645
 20
294.072991108886
 30
0.0
 11
414.370934299913
 21
294.072991108886
 31
0.0
  0
LINE
  5
3D25
330
1A
100
AcDbEntity
  8
外形線
100
AcDbLine
 10
417.242040483696
 20
309.072991108886
 30
0.0
 11
416.366504615626
 21
295.939953087838
 31
0.0
  0
LINE
  5
3D26
330
1A
100
AcDbEntity
  8
外形線
100
AcDbLine
 10
386.979997772964
 20
314.757914450798
 30
0.0
 11
388.127446390482
 21
295.951192229505
 31
0.0
  0
LINE
  5
3D27
330
1A
100
AcDbEntity
  8
外形線
100
AcDbLine
 10
386.037323886006
 20
315.695475364313
 30
0.0
 11
380.786236010724
 21
315.987202468495
 31
0.0
  0
LINE
  5
3D2D
330
1A
100
AcDbEntity
  8
外形線
100
AcDbLine
 10
378.416179360499
 20
402.765377663824
 30
0.0
 11
368.125001131592
 21
386.471012134722
 31
0.0
  0
LINE
  5
3D2E
330
1A
100
AcDbEntity
  8
外形線
100
AcDbLine
 10
365.588534422499
 20
385.072991108886
 30
0.0
 11
350.242040483696
 21
385.072991108886
 31
0.0
  0
LINE
  5
3D2F
330
1A
100
AcDbEntity
  8
外形線
100
AcDbLine
 10
378.416179360499
 20
317.380604553947
 30
0.0
 11
368.125001131592
 21
333.67497008305
 31
0.0
  0
ARC
  5
3D30
330
1A
100
AcDbEntity
  8
外形線
100
AcDbCircle
 10
365.588534422499
 20
388.072991108886
 30
0.0
 40
3.0
100
AcDbArc
 50
270.0
 51
327.724355685421
  0
ARC
  5
3D31
330
1A
100
AcDbEntity
  8
外形線
100
AcDbCircle
 10
365.588534422499
 20
332.072991108886
 30
0.0
 40
3.0
100
AcDbArc
 50
32.275644314579
 51
90.0
  0
ARC
  5
3D32
330
1A
100
AcDbEntity
  8
外形線
100
AcDbCircle
 10
380.952646069591
 20
401.16339868966
 30
0.0
 40
3.0
100
AcDbArc
 50
93.179830119865
 51
147.724355685421
  0
ARC
  5
3D33
330
1A
100
AcDbEntity
  8
外形線
100
AcDbCircle
 10
380.952646069591
 20
318.982583528111
 30
0.0
 40
3.0
100
AcDbArc
 50
212.275644314579
 51
266.820169880135
  0
ARC
  5
3D34
330
1A
100
AcDbEntity
  8
外形線
100
AcDbCircle
 10
385.981853866383
 20
314.697015011107
 30
0.0
 40
1.0
100
AcDbArc
 50
3.491441283447
 51
86.820169880137
  0
ARC
  5
3D35
330
1A
100
AcDbEntity
  8
外形線
100
AcDbCircle
 10
414.370934299913
 20
296.072991108886
 30
0.0
 40
2.0
100
AcDbArc
 50
270.0
 51
356.185925165712
  0
ARC
  5
3D36
330
1A
100
AcDbEntity
  8
外形線
100
AcDbCircle
 10
390.123734203645
 20
296.072991108886
 30
0.0
 40
2.0
100
AcDbArc
 50
183.491441283447
 51
270.0
  0
LINE
  5
3D50
330
1A
100
AcDbEntity
  8
外形線
100
AcDbLine
 10
422.742040483695
 20
411.072991108886
 30
0.0
 11
423.242040483695
 21
410.572991108886
 31
0.0
  0
LINE
  5
3D51
330
1A
100
AcDbEntity
  8
外形線
100
AcDbLine
 10
422.742040483695
 20
309.072991108886
 30
0.0
 11
423.242040483695
 21
309.572991108886
 31
0.0
  0
LINE
  5
4073
330
1A
100
AcDbEntity
  8
中心線
 48
10.0
100
AcDbLine
 10
402.247334251779
 20
323.582337812197
 30
0.0
 11
402.247334251779
 21
281.196865571275
 31
0.0
  0
LINE
  5
407C
330
1A
100
AcDbEntity
  8
細線
 48
10.0
100
AcDbLine
 10
418.242040483695
 20
411.072991108886
 30
0.0
 11
418.242040483695
 21
309.072991108886
 31
0.0
  0
LINE
  5
407D
330
1A
100
AcDbEntity
  8
細線
 48
10.0
100
AcDbLine
 10
415.242040483695
 20
406.072991108886
 30
0.0
 11
415.242040483695
 21
317.896579763179
 31
0.0
  0
LINE
  5
407F
330
1A
100
AcDbEntity
  8
細線
 48
10.0
100
AcDbLine
 10
415.242040483696
 20
317.896579763179
 30
0.0
 11
418.242040483695
 21
309.072991108886
 31
0.0
  0
LINE
  5
4205
330
1A
100
AcDbEntity
  8
外形線
100
AcDbLine
 10
423.242040483695
 20
411.072991108717
 30
0.0
 11
440.949194483696
 21
411.072991108717
 31
0.0
  0
ARC
  5
4206
330
1A
100
AcDbEntity
  8
外形線
100
AcDbCircle
 10
470.681660251778
 20
402.561395108717
 30
0.0
 40
4.8552
100
AcDbArc
 50
0.0
 51
87.349306628423
  0
LINE
  5
4207
330
1A
100
AcDbEntity
  8
外形線
100
AcDbLine
 10
475.536884251779
 20
393.202631108717
 30
0.0
 11
483.335834251778
 21
393.202631108717
 31
0.0
  0
ARC
  5
4208
330
1A
100
AcDbEntity
  8
外形線
100
AcDbCircle
 10
483.248066251778
 20
383.492181108717
 30
0.0
 40
1.9992
100
AcDbArc
 50
0.0
 51
89.999981276021
  0
ARC
  5
4209
330
1A
100
AcDbEntity
  8
外形線
100
AcDbCircle
 10
477.536092251778
 20
387.490595108717
 30
0.0
 40
2.000726
100
AcDbArc
 50
87.722187561485
 51
272.27785213419
  0
LINE
  5
420A
330
1A
100
AcDbEntity
  8
外形線
100
AcDbLine
 10
477.615620251778
 20
385.491449108717
 30
0.0
 11
483.248066251778
 21
385.491449108717
 31
0.0
  0
LINE
  5
420B
330
1A
100
AcDbEntity
  8
外形線
100
AcDbLine
 10
477.615620251778
 20
389.489739108717
 30
0.0
 11
483.585712251778
 21
389.489739108717
 31
0.0
  0
ARC
  5
420C
330
1A
100
AcDbEntity
  8
外形線
100
AcDbCircle
 10
483.385152251779
 20
391.341181108717
 30
0.0
 40
1.86215
100
AcDbArc
 50
276.18422108563
 51
91.517843466792
  0
LINE
  5
420D
330
1A
100
AcDbEntity
  8
外形線
100
AcDbLine
 10
442.989294483695
 20
402.341791108717
 30
0.0
 11
425.241186483696
 21
402.341791108717
 31
0.0
  0
LINE
  5
420E
330
1A
100
AcDbEntity
  8
外形線
100
AcDbLine
 10
442.989294483695
 20
405.769037108717
 30
0.0
 11
425.241186483696
 21
405.769037108717
 31
0.0
  0
ARC
  5
420F
330
1A
100
AcDbEntity
  8
外形線
100
AcDbCircle
 10
442.935278483696
 20
404.055413108717
 30
0.0
 40
1.714446
100
AcDbArc
 50
271.804703586974
 51
88.195318508605
  0
ARC
  5
4210
330
1A
100
AcDbEntity
  8
外形線
100
AcDbCircle
 10
440.623144483696
 20
386.923577108717
 30
0.0
 40
4.015794000000001
100
AcDbArc
 50
274.656944786913
 51
84.065438721313
  0
LINE
  5
4211
330
1A
100
AcDbEntity
  8
外形線
100
AcDbLine
 10
425.241186483696
 20
382.921015108717
 30
0.0
 11
440.949194483696
 21
382.921015108717
 31
0.0
  0
LINE
  5
4212
330
1A
100
AcDbEntity
  8
外形線
100
AcDbLine
 10
425.241186483696
 20
390.917841108717
 30
0.0
 11
441.038304483696
 21
390.917841108717
 31
0.0
  0
LINE
  5
4213
330
1A
100
AcDbEntity
  8
細線
100
AcDbLine
 10
440.949194483696
 20
390.917841108717
 30
0.0
 11
440.949194483696
 21
402.341791108717
 31
0.0
  0
LINE
  5
4214
330
1A
100
AcDbEntity
  8
外形線
100
AcDbLine
 10
444.661962483696
 20
408.624993108717
 30
0.0
 11
470.876196483696
 21
407.411371108717
 31
0.0
  0
ARC
  5
4215
330
1A
100
AcDbEntity
  8
外形線
100
AcDbCircle
 10
483.248066251778
 20
366.070551108717
 30
0.0
 40
1.9992
100
AcDbArc
 50
270.0
 51
359.999982399908
  0
ARC
  5
4216
330
1A
100
AcDbEntity
  8
外形線
100
AcDbCircle
 10
477.691304251779
 20
361.925897108717
 30
0.0
 40
2.15556
100
AcDbArc
 50
95.512637406103
 51
178.08903371374
  0
LINE
  5
4217
330
1A
100
AcDbEntity
  8
外形線
100
AcDbLine
 10
477.484272251779
 20
364.071405108717
 30
0.0
 11
483.248066251778
 21
364.071405108717
 31
0.0
  0
LINE
  5
4218
330
1A
100
AcDbEntity
  8
外形線
100
AcDbLine
 10
477.484272251779
 20
356.074701108717
 30
0.0
 11
483.248066251778
 21
356.074701108717
 31
0.0
  0
ARC
  5
4219
330
1A
100
AcDbEntity
  8
外形線
100
AcDbCircle
 10
483.248066251778
 20
354.075433108717
 30
0.0
 40
1.9992
100
AcDbArc
 50
0.0
 51
89.999981276021
  0
ARC
  5
421A
330
1A
100
AcDbEntity
  8
外形線
100
AcDbCircle
 10
477.691304251779
 20
358.220209108717
 30
0.0
 40
2.15556
100
AcDbArc
 50
181.910948686163
 51
264.487402289583
  0
LINE
  5
421B
330
1A
100
AcDbEntity
  8
外形線
100
AcDbLine
 10
425.241186483696
 20
364.357049108717
 30
0.0
 11
440.949194483696
 21
364.357049108717
 31
0.0
  0
ARC
  5
421C
330
1A
100
AcDbEntity
  8
外形線
100
AcDbCircle
 10
439.662084483696
 20
359.490595108717
 30
0.0
 40
5.033766
100
AcDbArc
 50
6.644133183896
 51
75.184725088441
  0
LINE
  5
421D
330
1A
100
AcDbEntity
  8
外形線
100
AcDbLine
 10
425.241186483696
 20
355.789057108717
 30
0.0
 11
440.949194483696
 21
355.789057108717
 31
0.0
  0
ARC
  5
421E
330
1A
100
AcDbEntity
  8
外形線
100
AcDbCircle
 10
439.662084483696
 20
360.655511108717
 30
0.0
 40
5.033766
100
AcDbArc
 50
284.815257311476
 51
353.355849216013
  0
LINE
  5
421F
330
1A
100
AcDbEntity
  8
外形線
100
AcDbLine
 10
475.536884251779
 20
360.072991108717
 30
0.0
 11
475.536884251779
 21
402.561395108717
 31
0.0
  0
LINE
  5
4220
330
1A
100
AcDbEntity
  8
細線
100
AcDbLine
 10
440.949194483696
 20
364.357049108717
 30
0.0
 11
440.949194483696
 21
382.921015108717
 31
0.0
  0
LINE
  5
4221
330
1A
100
AcDbEntity
  8
外形線
100
AcDbLine
 10
485.247334251779
 20
383.492181108717
 30
0.0
 11
485.247334251779
 21
366.070551108717
 31
0.0
  0
ARC
  5
4222
330
1A
100
AcDbEntity
  8
外形線
100
AcDbCircle
 10
483.385152251779
 20
328.804925108717
 30
0.0
 40
1.86215
100
AcDbArc
 50
268.482178628784
 51
83.815801009983
  0
ARC
  5
4223
330
1A
100
AcDbEntity
  8
外形線
100
AcDbCircle
 10
483.248066251778
 20
336.653803108717
 30
0.0
 40
1.9992
100
AcDbArc
 50
270.0
 51
359.999982399901
  0
ARC
  5
4224
330
1A
100
AcDbEntity
  8
外形線
100
AcDbCircle
 10
477.537374251778
 20
332.655481108717
 30
0.0
 40
2.000724
100
AcDbArc
 50
87.757023395436
 51
272.242959004484
  0
LINE
  5
4225
330
1A
100
AcDbEntity
  8
外形線
100
AcDbLine
 10
477.615620251778
 20
330.656243108717
 30
0.0
 11
483.585712251778
 21
330.656243108717
 31
0.0
  0
LINE
  5
4226
330
1A
100
AcDbEntity
  8
外形線
100
AcDbLine
 10
475.536884251779
 20
326.943475108717
 30
0.0
 11
483.335834251778
 21
326.943475108717
 31
0.0
  0
LINE
  5
4227
330
1A
100
AcDbEntity
  8
外形線
100
AcDbLine
 10
477.615682251779
 20
334.654657108717
 30
0.0
 11
483.248066251778
 21
334.654657108717
 31
0.0
  0
ARC
  5
4228
330
1A
100
AcDbEntity
  8
外形線
100
AcDbCircle
 10
470.681660251778
 20
317.584711108717
 30
0.0
 40
4.8552
100
AcDbArc
 50
272.650733067261
 51
359.999982399901
  0
ARC
  5
4229
330
1A
100
AcDbEntity
  8
外形線
100
AcDbCircle
 10
440.623144483696
 20
333.222529108717
 30
0.0
 40
4.015794000000001
100
AcDbArc
 50
275.934583374273
 51
85.343077308665
  0
LINE
  5
422A
330
1A
100
AcDbEntity
  8
外形線
100
AcDbLine
 10
425.241186483696
 20
329.228265108717
 30
0.0
 11
441.038304483696
 21
329.228265108717
 31
0.0
  0
LINE
  5
422B
330
1A
100
AcDbEntity
  8
外形線
100
AcDbLine
 10
425.241186483696
 20
337.224969108717
 30
0.0
 11
440.949194483696
 21
337.224969108717
 31
0.0
  0
LINE
  5
422C
330
1A
100
AcDbEntity
  8
細線
100
AcDbLine
 10
440.949194483696
 20
314.377069108717
 30
0.0
 11
440.949194483696
 21
309.072991108717
 31
0.0
  0
LINE
  5
422D
330
1A
100
AcDbEntity
  8
外形線
100
AcDbLine
 10
444.661962483696
 20
311.520989108717
 30
0.0
 11
440.949194483696
 21
309.072991108717
 31
0.0
  0
LINE
  5
422E
330
1A
100
AcDbEntity
  8
外形線
100
AcDbLine
 10
442.989294483695
 20
317.804193108717
 30
0.0
 11
425.241186483696
 21
317.804193108717
 31
0.0
  0
LINE
  5
422F
330
1A
100
AcDbEntity
  8
外形線
100
AcDbLine
 10
442.989294483695
 20
314.377069108717
 30
0.0
 11
425.241186483696
 21
314.377069108717
 31
0.0
  0
ARC
  5
4230
330
1A
100
AcDbEntity
  8
外形線
100
AcDbCircle
 10
442.935278483696
 20
316.090571108717
 30
0.0
 40
1.714446
100
AcDbArc
 50
271.804703586974
 51
88.195318508605
  0
LINE
  5
4231
330
1A
100
AcDbEntity
  8
外形線
100
AcDbLine
 10
423.242040483695
 20
309.072991108717
 30
0.0
 11
440.949194483696
 21
309.072991108717
 31
0.0
  0
LINE
  5
4232
330
1A
100
AcDbEntity
  8
細線
100
AcDbLine
 10
440.949194483696
 20
329.228265108717
 30
0.0
 11
440.949194483696
 21
317.804193108717
 31
0.0
  0
LINE
  5
4233
330
1A
100
AcDbEntity
  8
外形線
100
AcDbLine
 10
444.661962483696
 20
311.520989108717
 30
0.0
 11
470.876196483696
 21
312.734675108717
 31
0.0
  0
LINE
  5
423A
330
1A
100
AcDbEntity
  8
細線
100
AcDbLine
 10
444.661962483696
 20
408.624993108717
 30
0.0
 11
444.661962483696
 21
311.520989108717
 31
0.0
  0
LINE
  5
423B
330
1A
100
AcDbEntity
  8
細線
100
AcDbLine
 10
440.949194483696
 20
355.789057108717
 30
0.0
 11
440.949194483696
 21
337.224969108717
 31
0.0
  0
LINE
  5
423C
330
1A
100
AcDbEntity
  8
外形線
100
AcDbLine
 10
485.247334251779
 20
336.653803108717
 30
0.0
 11
485.247334251779
 21
354.075433108717
 31
0.0
  0
LINE
  5
423D
330
1A
100
AcDbEntity
  8
外形線
100
AcDbLine
 10
475.536884251779
 20
360.072991108717
 30
0.0
 11
475.536884251779
 21
317.584711108717
 31
0.0
  0
LINE
  5
423E
330
1A
100
AcDbEntity
  8
外形線
100
AcDbLine
 10
425.241186483696
 20
309.072991108717
 30
0.0
 11
425.241186483696
 21
411.072991108717
 31
0.0
  0
LINE
  5
4240
330
1A
100
AcDbEntity
  8
細線
100
AcDbLine
 10
440.949194483696
 20
405.769037108717
 30
0.0
 11
440.949194483696
 21
411.072991108717
 31
0.0
  0
LINE
  5
4241
330
1A
100
AcDbEntity
  8
外形線
100
AcDbLine
 10
440.949194483696
 20
411.072991108717
 30
0.0
 11
444.661962483696
 21
408.624993108717
 31
0.0
  0
DIMENSION
  5
427A
330
1A
100
AcDbEntity
  8
寸法線
 48
10.0
100
AcDbDimension
  2
*D19
 10
507.587030913575
 20
309.072991108717
 30
0.0
 11
507.587030913575
 21
359.460991608717
 31
0.0
 70
   160
  1
φ102
  3
ISO-25
100
AcDbAlignedDimension
 13
440.949194483696
 23
411.072991108717
 33
0.0
 14
440.949194483696
 24
309.072991108717
 34
0.0
 50
90.0
100
AcDbRotatedDimension
1001
ACAD
1000
DSTYLE
1002
{
1070
     5
1000
OPEN30
1070
    41
1040
6.0
1070
    47
1040
0.1
1070
    48
1040
0.1
1070
    73
1070
     0
1070
   140
1040
8.0
1070
   271
1070
     1
1070
   272
1070
     1
1070
   341
1005
2AF4
1002
}
  0
LINE
  5
4364
330
1A
100
AcDbEntity
  8
中心線
100
AcDbLine
 10
330.239553042689
 20
295.072991108222
 30
0.0
 11
352.242040484942
 21
295.072991108644
 31
0.0
  0
LINE
  5
4365
330
1A
100
AcDbEntity
  8
外形線
 48
10.0
100
AcDbLine
 10
335.242040483695
 20
437.072991108885
 30
0.0
 11
335.242040483695
 21
283.072991108886
 31
0.0
  0
LEADER
  5
4367
330
1A
100
AcDbEntity
  8
寸法線
 48
10.0
100
AcDbLeader
  3
ISO-25
 76
     3
 10
411.658596210034
 20
292.990326012129
 30
0.0
 10
431.165685382733
 20
275.12537315776
 30
0.0
 10
439.658542843668
 20
275.12537315776
 30
0.0
213
-30.8575892536129
223
0.0
233
0.0
1001
ACAD
1000
DSTYLE
1002
{
1070
     5
1000
OPEN30
1070
   147
1040
0.625
1070
    77
1070
     1
1070
    41
1040
6.0
1070
    47
1040
0.1
1070
    48
1040
0.1
1070
    73
1070
     0
1070
   140
1040
8.0
1070
   271
1070
     1
1070
   272
1070
     1
1070
   341
1005
2AF4
1070
   342
1005
2AF4
1002
}
  0
LEADER
  5
450D
330
1A
100
AcDbEntity
  8
寸法線
 62
     1
 48
10.0
100
AcDbLeader
  3
ISO-25
 76
     3
 10
380.786236010724
 20
404.158779749276
 30
0.0
 10
370.168658471675
 20
466.452967632961
 30
0.0
 10
380.461942637412
 20
466.452967632961
 30
0.0
1001
ACAD
1000
DSTYLE
1002
{
1070
     5
1000
OPEN30
1070
   147
1040
0.625
1070
    77
1070
     1
1070
    41
1040
6.0
1070
    47
1040
0.1
1070
    48
1040
0.1
1070
    73
1070
     0
1070
   140
1040
8.0
1070
   271
1070
     1
1070
   272
1070
     1
1070
   341
1005
2AF4
1070
   342
1005
2AF4
1002
}
  0
LEADER
  5
4510
330
1A
100
AcDbEntity
  8
寸法線
 62
     1
 48
10.0
100
AcDbLeader
  3
ISO-25
 76
     3
 10
218.671247155198
 20
372.072991108717
 30
0.0
 10
188.722175381894
 20
466.452967632961
 30
0.0
 10
178.988377090702
 20
466.452967632961
 30
0.0
1001
ACAD
1000
DSTYLE
1002
{
1070
     5
1000
OPEN30
1070
   147
1040
0.625
1070
    77
1070
     1
1070
    41
1040
6.0
1070
    47
1040
0.1
1070
    48
1040
0.1
1070
    73
1070
     0
1070
   140
1040
8.0
1070
   271
1070
     1
1070
   272
1070
     1
1070
   341
1005
2AF4
1070
   342
1005
2AF4
1002
}
  0
LEADER
  5
4511
330
1A
100
AcDbEntity
  8
寸法線
 62
     1
 48
10.0
100
AcDbLeader
  3
ISO-25
 76
     3
 10
282.384565342081
 20
367.572991108717
 30
0.0
 10
253.108908181485
 20
466.452967632961
 30
0.0
 10
239.929072404737
 20
466.452967632961
 30
0.0
1001
ACAD
1000
DSTYLE
1002
{
1070
     5
1000
OPEN30
1070
   147
1040
0.625
1070
    77
1070
     1
1070
    41
1040
6.0
1070
    47
1040
0.1
1070
    48
1040
0.1
1070
    73
1070
     0
1070
   140
1040
8.0
1070
   271
1070
     1
1070
   272
1070
     1
1070
   341
1005
2AF4
1070
   342
1005
2AF4
1002
}
  0
LEADER
  5
4512
330
1A
100
AcDbEntity
  8
寸法線
 62
     1
 48
10.0
100
AcDbLeader
  3
ISO-25
 76
     3
 10
341.231188949999
 20
437.572991108885
 30
0.0
 10
331.378909541039
 20
466.452967632961
 30
0.0
 10
323.490426587918
 20
466.452967632961
 30
0.0
1001
ACAD
1000
DSTYLE
1002
{
1070
     5
1000
OPEN30
1070
   147
1040
0.625
1070
    77
1070
     1
1070
    41
1040
6.0
1070
    47
1040
0.1
1070
    48
1040
0.1
1070
    73
1070
     0
1070
   140
1040
8.0
1070
   271
1070
     1
1070
   272
1070
     1
1070
   341
1005
2AF4
1070
   342
1005
2AF4
1002
}
  0
LEADER
  5
4513
330
1A
100
AcDbEntity
  8
寸法線
 62
     1
 48
10.0
100
AcDbLeader
  3
ISO-25
 76
     3
 10
423.242040483695
 20
411.072991108717
 30
0.0
 10
429.576798042408
 20
466.452967632961
 30
0.0
 10
441.69292708329
 20
466.452967632961
 30
0.0
1001
ACAD
1000
DSTYLE
1002
{
1070
     5
1000
OPEN30
1070
   147
1040
0.625
1070
    77
1070
     1
1070
    41
1040
6.0
1070
    47
1040
0.1
1070
    48
1040
0.1
1070
    73
1070
     0
1070
   140
1040
8.0
1070
   271
1070
     1
1070
   272
1070
     1
1070
   341
1005
2AF4
1070
   342
1005
2AF4
1002
}
  0
LEADER
  5
4514
330
1A
100
AcDbEntity
  8
寸法線
 62
     1
 48
10.0
100
AcDbLeader
  3
ISO-25
 76
     3
 10
470.876196483696
 20
407.411371108717
 30
0.0
 10
477.482102798391
 20
466.452967632961
 30
0.0
 10
487.734210688779
 20
466.452967632961
 30
0.0
1001
ACAD
1000
DSTYLE
1002
{
1070
     5
1000
OPEN30
1070
   147
1040
0.625
1070
    77
1070
     1
1070
    41
1040
6.0
1070
    47
1040
0.1
1070
    48
1040
0.1
1070
    73
1070
     0
1070
   140
1040
8.0
1070
   271
1070
     1
1070
   272
1070
     1
1070
   341
1005
2AF4
1070
   342
1005
2AF4
1002
}
  0
DIMENSION
  5
45B9
330
1A
100
AcDbEntity
  8
寸法線
 62
     1
 48
10.0
100
AcDbDimension
  2
*D21
 10
-24.592178508777
 20
328.078483158516
 30
0.0
 11
66.74013650911
 21
385.594390228211
 31
0.0
 70
   163
  3
ISO-25
100
AcDbDiametricDimension
 15
88.56879464053
 25
392.067499058918
 35
0.0
 40
0.0
1001
ACAD
1000
DSTYLE
1002
{
1070
   287
1070
     5
1070
     5
1000
OPEN30
1070
    41
1040
6.0
1070
    47
1040
0.1
1070
    48
1040
0.1
1070
    73
1070
     0
1070
   140
1040
8.0
1070
   271
1070
     1
1070
   272
1070
     1
1070
   279
1070
     2
1070
   288
1070
     1
1070
   341
1005
2AF4
1002
}
  0
DIMENSION
  5
45D3
330
1A
100
AcDbEntity
  8
寸法線
 62
     1
 48
10.0
100
AcDbDimension
  2
*D22
 10
-44.61144627535
 20
348.294719420633
 30
0.0
 11
79.282402169584
 21
372.754388876165
 31
0.0
 70
   163
  3
ISO-25
100
AcDbDiametricDimension
 15
108.58806176618
 25
371.851262796801
 35
0.0
 40
0.0
1001
ACAD
1000
DSTYLE
1002
{
1070
   287
1070
     5
1070
     5
1000
OPEN30
1070
    41
1040
6.0
1070
    47
1040
0.1
1070
    48
1040
0.1
1070
    73
1070
     0
1070
   140
1040
8.0
1070
   271
1070
     1
1070
   272
1070
     1
1070
   279
1070
     2
1070
   288
1070
     1
1070
   341
1005
2AF4
1002
}
  0
MTEXT
  5
47D5
102
{ACAD_XDICTIONARY
360
47D6
102
}
330
1A
100
AcDbEntity
  8
寸法線
 48
10.0
100
AcDbMText
 10
78.75537242362
 20
212.136131322916
 30
0.0
 40
8.0
 41
168.503621648242
 71
     1
 72
     5
  1
御仕様   電源電圧    リード線色\P       AC100/110V　 シロ・シロ\P       AC200/220V　クロ・クロ
1001
ACADANNOTATIVE
1000
AnnotativeData
1002
{
1070
     1
1070
     0
1002
}
  0
MTEXT
  5
47D9
102
{ACAD_XDICTIONARY
360
47DA
102
}
330
1A
100
AcDbEntity
  8
寸法線
 48
10.0
100
AcDbMText
 10
-32.830074265202
 20
109.119864765609
 30
0.0
 40
6.0
 41
49.50078544177
 71
     1
 72
     5
  1
L　　C　　 H
1001
ACADANNOTATIVE
1000
AnnotativeData
1002
{
1070
     1
1070
     0
1002
}
  0
MTEXT
  5
47DD
330
1A
100
AcDbEntity
  8
寸法線
 48
10.0
100
AcDbMText
 10
26.574816422597
 20
88.337263528401
 30
0.0
 40
6.0
 41
22.662715674224
 71
     1
 72
     5
  1
電　源
  0
LINE
  5
47DE
330
1A
100
AcDbEntity
  8
寸法線
100
AcDbLine
 10
-32.833553993049
 20
118.176871649901
 30
0.0
 11
-32.833553993049
 21
215.308829649901
 31
0.0
  0
LINE
  5
47DF
330
1A
100
AcDbEntity
  8
寸法線
100
AcDbLine
 10
-32.833553993049
 20
215.308829649901
 30
0.0
 11
-19.981563993049
 21
215.308829649901
 31
0.0
  0
LINE
  5
47E0
330
1A
100
AcDbEntity
  8
寸法線
100
AcDbLine
 10
-19.981563993049
 20
215.308829649901
 30
0.0
 11
-19.981563993049
 21
195.602409649901
 31
0.0
  0
LINE
  5
47E1
330
1A
100
AcDbEntity
  8
寸法線
100
AcDbLine
 10
-4.273555993049
 20
215.308829649901
 30
0.0
 11
8.57843400695
 21
215.308829649901
 31
0.0
  0
LINE
  5
47E2
330
1A
100
AcDbEntity
  8
寸法線
100
AcDbLine
 10
28.284792006951
 20
215.308829649901
 30
0.0
 11
48.276858006951
 21
215.308829649901
 31
0.0
  0
TEXT
  5
47E3
330
1A
100
AcDbEntity
  8
寸法線
100
AcDbText
 10
-17.323665993049
 20
147.520073649901
 30
0.0
 40
8.571428571429
  1
キ
  7
EXCADVERT
 72
     3
 11
-17.323665993049
 21
139.520073649901
 31
0.0
100
AcDbText
  0
TEXT
  5
47E4
330
1A
100
AcDbEntity
  8
寸法線
100
AcDbText
 10
42.275516006951
 20
178.675285649901
 30
0.0
 40
12.0
  1
Ｍ
 41
1.25
  7
EXCADSTD
 72
     5
 11
54.275516006951
 21
178.675285649901
 31
0.0
100
AcDbText
  0
LINE
  5
47E5
330
1A
100
AcDbEntity
  8
寸法線
100
AcDbLine
 10
48.276858006951
 20
215.308829649901
 30
0.0
 11
48.276858006951
 21
194.075859649901
 31
0.0
  0
CIRCLE
  5
47E6
330
1A
100
AcDbEntity
  8
寸法線
100
AcDbCircle
 10
-12.127559993049
 20
177.781669649901
 30
0.0
 40
1.600006
  0
LINE
  5
47E7
330
1A
100
AcDbEntity
  8
寸法線
100
AcDbLine
 10
-12.127559993049
 20
176.181633649901
 30
0.0
 11
-12.127559993049
 21
118.176871649901
 31
0.0
  0
LINE
  5
47E8
330
1A
100
AcDbEntity
  8
寸法線
100
AcDbLine
 10
8.57843400695
 20
215.308829649901
 30
0.0
 11
8.57843400695
 21
118.176871649901
 31
0.0
  0
LINE
  5
47E9
330
1A
100
AcDbEntity
  8
寸法線
100
AcDbLine
 10
48.276858006951
 20
175.691397649901
 30
0.0
 11
48.276858006951
 21
118.176871649901
 31
0.0
  0
CIRCLE
  5
47EA
330
1A
100
AcDbEntity
  8
寸法線
100
AcDbCircle
 10
-32.833553993049
 20
115.176871649901
 30
0.0
 40
1.599998
  0
LINE
  5
47EB
330
1A
100
AcDbEntity
  8
寸法線
100
AcDbLine
 10
28.284792006951
 20
176.181633649901
 30
0.0
 11
28.284792006951
 21
118.176871649901
 31
0.0
  0
CIRCLE
  5
47EC
330
1A
100
AcDbEntity
  8
寸法線
100
AcDbCircle
 10
28.284792006951
 20
177.781669649901
 30
0.0
 40
1.600006
  0
CIRCLE
  5
47ED
330
1A
100
AcDbEntity
  8
寸法線
100
AcDbCircle
 10
-19.981563993049
 20
194.002433649901
 30
0.0
 40
1.600006
  0
LINE
  5
47EE
330
1A
100
AcDbEntity
  8
寸法線
100
AcDbLine
 10
-4.273555993049
 20
215.308829649901
 30
0.0
 11
-4.273555993049
 21
195.602409649901
 31
0.0
  0
CIRCLE
  5
47EF
330
1A
100
AcDbEntity
  8
寸法線
100
AcDbCircle
 10
-4.273555993049
 20
194.002433649901
 30
0.0
 40
1.600006
  0
LINE
  5
47F0
330
1A
100
AcDbEntity
  8
寸法線
100
AcDbLine
 10
28.284792006951
 20
215.308829649901
 30
0.0
 11
28.284792006951
 21
195.602409649901
 31
0.0
  0
CIRCLE
  5
47F1
330
1A
100
AcDbEntity
  8
寸法線
100
AcDbCircle
 10
28.284792006951
 20
194.002433649901
 30
0.0
 40
1.600006
  0
LINE
  5
47F2
330
1A
100
AcDbEntity
  8
寸法線
100
AcDbLine
 10
-12.127559993049
 20
179.381645649901
 30
0.0
 11
-18.381587993049
 21
194.002433649901
 31
0.0
  0
LINE
  5
47F3
330
1A
100
AcDbEntity
  8
寸法線
100
AcDbLine
 10
28.284792006951
 20
179.381645649901
 30
0.0
 11
29.88483000695
 21
194.002433649901
 31
0.0
  0
CIRCLE
  5
47F4
330
1A
100
AcDbEntity
  8
寸法線
100
AcDbCircle
 10
48.284426006951
 20
184.898063649901
 30
0.0
 40
9.177798
  0
TEXT
  5
47F5
330
1A
100
AcDbEntity
  8
寸法線
100
AcDbText
 10
3.740238006951
 20
156.620291649901
 30
0.0
 40
8.041237113402
  1
ア　カ
  7
EXCADVERT
 72
     3
 11
3.740238006951
 21
130.620291649901
 31
0.0
100
AcDbText
  0
TEXT
  5
47F6
330
1A
100
AcDbEntity
  8
寸法線
100
AcDbText
 10
-37.810055993049
 20
156.620291649901
 30
0.0
 40
7.515151518764
  1
ミドリ
  7
EXCADVERT
 72
     3
 11
-37.810055993049
 21
131.82029163798
 31
0.0
100
AcDbText
  0
CIRCLE
  5
47F7
330
1A
100
AcDbEntity
  8
寸法線
100
AcDbCircle
 10
-32.833553993049
 20
115.176871649901
 30
0.0
 40
3.0
  0
CIRCLE
  5
47F8
330
1A
100
AcDbEntity
  8
寸法線
100
AcDbCircle
 10
-12.127559993049
 20
115.176871649901
 30
0.0
 40
1.599998
  0
CIRCLE
  5
47F9
330
1A
100
AcDbEntity
  8
寸法線
100
AcDbCircle
 10
-12.127559993049
 20
115.176871649901
 30
0.0
 40
3.0
  0
CIRCLE
  5
47FA
330
1A
100
AcDbEntity
  8
寸法線
100
AcDbCircle
 10
28.284792006951
 20
115.176871649901
 30
0.0
 40
1.599998
  0
CIRCLE
  5
47FB
330
1A
100
AcDbEntity
  8
寸法線
100
AcDbCircle
 10
28.284792006951
 20
115.176871649901
 30
0.0
 40
3.0
  0
CIRCLE
  5
47FC
330
1A
100
AcDbEntity
  8
寸法線
100
AcDbCircle
 10
48.276858006951
 20
115.176871649901
 30
0.0
 40
1.599998
  0
CIRCLE
  5
47FD
330
1A
100
AcDbEntity
  8
寸法線
100
AcDbCircle
 10
48.276858006951
 20
115.176871649901
 30
0.0
 40
3.0
  0
CIRCLE
  5
47FE
330
1A
100
AcDbEntity
  8
寸法線
100
AcDbCircle
 10
8.57843400695
 20
115.176871649901
 30
0.0
 40
1.599998
  0
CIRCLE
  5
47FF
330
1A
100
AcDbEntity
  8
寸法線
100
AcDbCircle
 10
8.57843400695
 20
115.176871649901
 30
0.0
 40
3.0
  0
MTEXT
  5
4800
102
{ACAD_XDICTIONARY
360
4801
102
}
330
1A
100
AcDbEntity
  8
寸法線
 62
     1
 48
10.0
100
AcDbMText
 10
18.86837488402
 20
162.661478411808
 30
0.0
 40
8.0
 41
75.886769199617
 71
     1
 72
     3
  1
シロ クロ
1001
ACADANNOTATIVE
1000
AnnotativeData
1002
{
1070
     1
1070
     0
1002
}
  0
MTEXT
  5
4804
330
1A
100
AcDbEntity
  8
寸法線
 62
     1
 48
10.0
100
AcDbMText
 10
17.659227097432
 20
120.917502797831
 30
0.0
 40
8.0
 41
113.327544635948
 71
     1
 72
     1
  1
(    )
 11
6.123233995736766E-17
 21
1.0
 31
0.0
  0
MTEXT
  5
4805
102
{ACAD_XDICTIONARY
360
4806
102
}
330
1A
100
AcDbEntity
  8
寸法線
 48
10.0
100
AcDbMText
 10
17.187541070847
 20
108.589111593201
 30
0.0
 40
6.0
 41
101.805806042976
 71
     1
 72
     5
  1
100/110 0
1001
ACADANNOTATIVE
1000
AnnotativeData
1002
{
1070
     1
1070
     0
1002
}
  0
MTEXT
  5
4809
102
{ACAD_XDICTIONARY
360
480A
102
}
330
1A
100
AcDbEntity
  8
寸法線
 62
     1
 48
10.0
100
AcDbMText
 10
39.309417417825
 20
162.060271278461
 30
0.0
 40
8.0
 41
75.886769199617
 71
     1
 72
     3
  1
シロ クロ
1001
ACADANNOTATIVE
1000
AnnotativeData
1002
{
1070
     1
1070
     0
1002
}
  0
MTEXT
  5
480D
330
1A
100
AcDbEntity
  8
寸法線
 62
     1
 48
10.0
100
AcDbMText
 10
38.100269631237
 20
120.316295664484
 30
0.0
 40
8.0
 41
113.327544635948
 71
     1
 72
     1
  1
(    )
 11
6.123233995736766E-17
 21
1.0
 31
0.0
  0
MTEXT
  5
480E
102
{ACAD_XDICTIONARY
360
480F
102
}
330
1A
100
AcDbEntity
  8
寸法線
 48
10.0
100
AcDbMText
 10
12.321520835318
 20
100.759328067499
 30
0.0
 40
6.0
 41
101.805806042976
 71
     1
 72
     5
  1
(200/220 0)
1001
ACADANNOTATIVE
1000
AnnotativeData
1002
{
1070
     1
1070
     0
1002
}
  0
MTEXT
  5
4812
102
{ACAD_XDICTIONARY
360
4813
102
}
330
1A
100
AcDbEntity
  8
寸法線
 48
10.0
100
AcDbMText
 10
78.931990322814
 20
138.095940147318
 30
0.0
 40
8.0
 41
251.713339384691
 71
     1
 72
     5
  1
塗　装　色：10YR7.5/14\P接点　容量：AC250V5A\P静止トルク：約10.0N・cm\P回　転　数：1RPM
1001
ACADANNOTATIVE
1000
AnnotativeData
1002
{
1070
     1
1070
     0
1002
}
  0
MTEXT
  5
4816
330
1A
100
AcDbEntity
  8
寸法線
 48
10.0
100
AcDbMText
 10
98.938274546115
 20
171.079417219151
 30
0.0
 40
8.0
 41
161.650793650794
 71
     1
 72
     5
  1
○印が今回の貴社の御仕様です。
  0
LINE
  5
4817
330
1A
100
AcDbEntity
  8
寸法線
 62
     1
 48
10.0
100
AcDbLine
 10
76.32388085989
 20
201.290865093026
 30
0.0
 11
238.547341607486
 21
201.290865093026
 31
0.0
  0
LINE
  5
4818
330
1A
100
AcDbEntity
  8
寸法線
 62
     1
 48
10.0
100
AcDbLine
 10
76.32388085989
 20
188.029316328779
 30
0.0
 11
238.547341607486
 21
188.029316328779
 31
0.0
  0
LINE
  5
4819
330
1A
100
AcDbEntity
  8
寸法線
 62
     1
 48
10.0
100
AcDbLine
 10
76.32388085989
 20
174.767767564532
 30
0.0
 11
238.547341607486
 21
174.767767564532
 31
0.0
  0
LINE
  5
481A
330
1A
100
AcDbEntity
  8
寸法線
 62
     1
 48
10.0
100
AcDbLine
 10
76.32388085989
 20
214.292383489346
 30
0.0
 11
238.547341607486
 21
214.292383489346
 31
0.0
  0
LINE
  5
481B
330
1A
100
AcDbEntity
  8
寸法線
 62
     1
 48
10.0
100
AcDbLine
 10
109.087707218617
 20
214.292383489346
 30
0.0
 11
109.087707218617
 21
174.767767564532
 31
0.0
  0
LINE
  5
481C
330
1A
100
AcDbEntity
  8
寸法線
 62
     1
 48
10.0
100
AcDbLine
 10
76.32388085989
 20
214.292383489346
 30
0.0
 11
76.32388085989
 21
174.767767564532
 31
0.0
  0
LINE
  5
481D
330
1A
100
AcDbEntity
  8
寸法線
 62
     1
 48
10.0
100
AcDbLine
 10
174.095299200218
 20
214.292383489346
 30
0.0
 11
174.095299200218
 21
174.767767564532
 31
0.0
  0
LINE
  5
481E
330
1A
100
AcDbEntity
  8
寸法線
 62
     1
 48
10.0
100
AcDbLine
 10
238.547341607486
 20
214.292383489346
 30
0.0
 11
238.547341607486
 21
174.767767564532
 31
0.0
  0
VIEWPORT
  5
2902
330
28FB
100
AcDbEntity
 67
     1
  8
0
 48
10.0
100
AcDbViewport
 10
0.0
 20
0.0
 30
0.0
 40
581.095242421096
 41
349.773869322788
 68
     1
 69
     1
1001
ACAD
1000
MVIEW
1002
{
1070
    16
1010
0.0
1020
0.0
1030
0.0
1010
0.0
1020
0.0
1030
1.0
1040
0.0
1040
349.773869322788
1040
182.648843631645
1040
129.25409302625
1040
50.0
1040
0.0
1040
0.0
1070
    16
1070
   100
1070
     0
1070
     1
1070
     0
1070
     0
1070
     0
1070
     0
1040
0.0
1040
0.0
1040
0.0
1040
10.0
1040
10.0
1040
10.0
1040
10.0
1070
     0
1002
{
1002
}
1002
}
  0
VIEWPORT
  5
2904
330
28FB
100
AcDbEntity
 67
     1
  8
図枠太線
 48
10.0
100
AcDbViewport
 10
204.746305129083
 20
163.137385422292
 30
0.0
 40
400.0
 41
240.0
 68
     2
 69
     2
1001
ACAD
1000
MVIEW
1002
{
1070
    16
1010
0.0
1020
0.0
1030
0.0
1010
0.0
1020
0.0
1030
1.0
1040
0.0
1040
480.000002005536
1040
243.21176478119
1040
295.601706462902
1040
50.0
1040
0.0
1040
0.0
1070
     0
1070
   100
1070
     0
1070
     0
1070
     0
1070
     0
1070
     0
1070
     0
1040
0.0
1040
0.0
1040
0.0
1040
1.0
1040
1.0
1040
0.0
1040
0.0
1070
     0
1002
{
1002
}
1002
}
  0
INSERT
  5
2A59
330
28FB
100
AcDbEntity
 67
     1
  8
図枠太線
100
AcDbBlockReference
  2
A3横用_タイトル
 10
-0.352109406709
 20
-0.388574331235
 30
0.0
  0
MTEXT
  5
3045
102
{ACAD_XDICTIONARY
360
4694
102
}
330
28FB
100
AcDbEntity
 67
     1
  8
寸法線
 48
10.0
100
AcDbMText
 10
370.519376287989
 20
52.517430764763
 30
0.0
 40
5.0
 41
33.833566292678
 71
     1
 72
     5
  1
台数    台
1001
ACADANNOTATIVE
1000
AnnotativeData
1002
{
1070
     1
1070
     0
1002
}
  0
MTEXT
  5
3046
330
28FB
100
AcDbEntity
 67
     1
  8
寸法線
 48
10.0
100
AcDbMText
 10
314.291332821371
 20
35.172214093478
 30
0.0
 40
7.0
 41
41.045003631856
 71
     1
 72
     5
  1
PRL-500N
  0
MTEXT
  5
3047
330
28FB
100
AcDbEntity
 67
     1
  8
寸法線
 48
10.0
100
AcDbMText
 10
363.117665988452
 20
39.673817821548
 30
0.0
 40
5.0
 41
43.047199206047
 71
     1
 72
     5
  1
パドル式\Pレベルスイッチ
  0
MTEXT
  5
3048
102
{ACAD_XDICTIONARY
360
4753
102
}
330
28FB
100
AcDbEntity
 67
     1
  8
寸法線
 48
10.0
100
AcDbMText
 10
342.572341883104
 20
17.415889421137
 30
0.0
 40
8.0
 41
38.04171107615
 71
     1
 72
     5
  1
HR-10013
1001
ACADANNOTATIVE
1000
AnnotativeData
1002
{
1070
     1
1070
     0
1002
}
  0
MTEXT
  5
304A
330
28FB
100
AcDbEntity
 67
     1
  8
寸法線
 48
10.0
100
AcDbMText
 10
150.380468880327
 20
15.464060035646
 30
0.0
 40
7.0
 41
15.363556412778
 71
     1
 72
     5
  1
1:2
  0
MTEXT
  5
44D1
102
{ACAD_XDICTIONARY
360
4759
102
}
330
28FB
100
AcDbEntity
 67
     1
  8
寸法線
 48
10.0
100
AcDbMText
 10
180.85087130254
 20
32.508493497811
 30
0.0
 40
4.5
 41
21.375384236178
 71
     1
 72
     5
  1
ohno
1001
ACADANNOTATIVE
1000
AnnotativeData
1002
{
1070
     1
1070
     0
1002
}
  0
MTEXT
  5
44D2
102
{ACAD_XDICTIONARY
360
4756
102
}
330
28FB
100
AcDbEntity
 67
     1
  8
寸法線
 48
10.0
100
AcDbMText
 10
174.764865133876
 20
13.837612201351
 30
0.0
 40
4.0
 41
23.156665718806
 71
     1
 72
     5
  1
\H1.25x;2015.6.11
1001
ACADANNOTATIVE
1000
AnnotativeData
1002
{
1070
     1
1070
     0
1002
}
  0
ENDSEC
  0
SECTION
  2
OBJECTS
  0
DICTIONARY
  5
C
330
0
100
AcDbDictionary
  3
ACAD_COLOR
350
2948
  3
ACAD_GROUP
350
D
  3
ACAD_LAYOUT
350
2816
  3
ACAD_MATERIAL
350
2947
  3
ACAD_MLEADERSTYLE
350
4690
  3
ACAD_MLINESTYLE
350
E
  3
ACAD_PLOTSETTINGS
350
2817
  3
ACAD_SCALELIST
350
4669
  3
ACAD_VISUALSTYLE
350
4650
  3
ACADDIM
350
34C3
  3
ACDBHEADERROUNDTRIPXREC
350
481F
  3
ACDBVARIABLEDICTIONARY
350
46B3
  3
DWGPROPS
350
4844
  0
DICTIONARY
  5
4845
330
8
100
AcDbDictionary
280
     1
  3
ACAD_XREC_ROUNDTRIP
360
4846
  0
DICTIONARY
  5
29EA
330
2
100
AcDbDictionary
280
     1
  3
ACAD_LAYERFILTERS
360
2B0C
  3
ACAD_LAYERSTATES
360
29EB
  0
DICTIONARY
  5
47D6
330
47D5
100
AcDbDictionary
280
     1
  3
ACDBCONTEXTDATAMANAGER
360
47D7
  0
DICTIONARY
  5
47DA
330
47D9
100
AcDbDictionary
280
     1
  3
ACDBCONTEXTDATAMANAGER
360
47DB
  0
DICTIONARY
  5
4801
330
4800
100
AcDbDictionary
280
     1
  3
ACDBCONTEXTDATAMANAGER
360
4802
  0
DICTIONARY
  5
4806
330
4805
100
AcDbDictionary
280
     1
  3
ACDBCONTEXTDATAMANAGER
360
4807
  0
DICTIONARY
  5
480A
330
4809
100
AcDbDictionary
280
     1
  3
ACDBCONTEXTDATAMANAGER
360
480B
  0
DICTIONARY
  5
480F
330
480E
100
AcDbDictionary
280
     1
  3
ACDBCONTEXTDATAMANAGER
360
4810
  0
DICTIONARY
  5
4813
330
4812
100
AcDbDictionary
280
     1
  3
ACDBCONTEXTDATAMANAGER
360
4814
  0
DICTIONARY
  5
4694
330
3045
100
AcDbDictionary
280
     1
  3
ACDBCONTEXTDATAMANAGER
360
4695
  0
DICTIONARY
  5
4753
330
3048
100
AcDbDictionary
280
     1
  3
ACDBCONTEXTDATAMANAGER
360
4754
  0
DICTIONARY
  5
4759
330
44D1
100
AcDbDictionary
280
     1
  3
ACDBCONTEXTDATAMANAGER
360
475A
  0
DICTIONARY
  5
4756
330
44D2
100
AcDbDictionary
280
     1
  3
ACDBCONTEXTDATAMANAGER
360
4757
  0
DICTIONARY
  5
2948
102
{ACAD_REACTORS
330
C
102
}
330
C
100
AcDbDictionary
  0
DICTIONARY
  5
D
102
{ACAD_REACTORS
330
C
102
}
330
C
100
AcDbDictionary
  0
DICTIONARY
  5
2816
102
{ACAD_REACTORS
330
C
102
}
330
C
100
AcDbDictionary
  0
DICTIONARY
  5
2947
102
{ACAD_REACTORS
330
C
102
}
330
C
100
AcDbDictionary
  3
BYBLOCK
350
468C
  3
BYLAYER
350
468B
  3
GLOBAL
350
468D
  0
DICTIONARY
  5
4690
102
{ACAD_REACTORS
330
C
102
}
330
C
100
AcDbDictionary
  3
STANDARD
350
4691
  0
DICTIONARY
  5
E
102
{ACAD_REACTORS
330
C
102
}
330
C
100
AcDbDictionary
  3
STANDARD
350
13
  0
DICTIONARY
  5
2817
102
{ACAD_REACTORS
330
C
102
}
330
C
100
AcDbDictionary
  0
DICTIONARY
  5
4669
102
{ACAD_REACTORS
330
C
102
}
330
C
100
AcDbDictionary
  3
A0
350
466A
  3
A1
350
466B
  3
A2
350
466C
  3
A3
350
466D
  3
A4
350
466E
  3
A5
350
466F
  3
A6
350
4670
  3
A7
350
4671
  3
A8
350
4672
  3
A9
350
4673
  3
B0
350
4674
  3
B1
350
4675
  3
B2
350
4676
  3
B3
350
4677
  3
B4
350
4678
  3
B5
350
4679
  3
B6
350
467A
  3
B7
350
467B
  3
B8
350
467C
  3
B9
350
467D
  3
C0
350
467E
  3
C1
350
467F
  3
C2
350
4680
  3
C3
350
4681
  3
C4
350
4682
  3
C5
350
4683
  3
C6
350
4684
  3
C7
350
4685
  3
C8
350
4686
  3
C9
350
4687
  3
D0
350
4688
  3
D1
350
4689
  3
D2
350
468A
  0
DICTIONARY
  5
4650
102
{ACAD_REACTORS
330
C
102
}
330
C
100
AcDbDictionary
  3
2DWIREFRAME
350
4655
  3
BASIC
350
4658
  3
BRIGHTEN
350
465C
  3
COLORCHANGE
350
4660
  3
CONCEPTUAL
350
465A
  3
DIM
350
465B
  3
EDGECOLOROFF
350
4663
  3
FACEPATTERN
350
465F
  3
FLAT
350
4651
  3
FLATWITHEDGES
350
4652
  3
GOURAUD
350
4653
  3
GOURAUDWITHEDGES
350
4654
  3
HIDDEN
350
4657
  3
JITTEROFF
350
4661
  3
LINEPATTERN
350
465E
  3
MODELING
350
46F8
  3
OVERHANGOFF
350
4662
  3
REALISTIC
350
4659
  3
SHADED
350
4668
  3
SHADED_WITH_EDGES
350
4667
  3
SHADES_OF_GRAY
350
4664
  3
SKETCHY
350
4665
  3
THICKEN
350
465D
  3
WIREFRAME
350
4656
  3
X-RAY
350
4666
  0
XRECORD
  5
34C3
102
{ACAD_REACTORS
330
C
102
}
330
C
100
AcDbXrecord
 90
   990106
  3

 60
     0
 61
     0
 62
     4
 63
     4
 64
     1
 65
     0
 66
     0
 67
     3
 68
     1
 69
     0
 70
     0
 71
     0
 72
     0
 40
0.0
170
     2
  0
DICTIONARY
  5
481F
102
{ACAD_REACTORS
330
C
102
}
330
C
100
AcDbDictionary
  3
CEPSNID
350
4829
  3
CEPSNTYPE
350
4828
  3
COLORDICT
350
4842
  3
DIMSTYLEDATA
350
483F
  3
FINGERPRINTGUID
350
482A
  3
HYPERLINKBASE
350
4822
  3
INSUNITS
350
4827
  3
LAYOUTDICT
350
4824
  3
LWETCUNION
350
4826
  3
MATERIALDICT
350
4843
  3
PLOTSETDICT
350
4825
  3
PSVPSCALE
350
482C
  3
PUCSBASE
350
482F
  3
PUCSORGBACK
350
4835
  3
PUCSORGBOTTOM
350
4831
  3
PUCSORGFRONT
350
4834
  3
PUCSORGLEFT
350
4832
  3
PUCSORGRIGHT
350
4833
  3
PUCSORGTOP
350
4830
  3
PUCSORTHOREF
350
482D
  3
PUCSORTHOVIEW
350
482E
  3
STYLESHEET
350
4823
  3
TSTACKALIGN
350
4820
  3
TSTACKSIZE
350
4821
  3
UCSBASE
350
4838
  3
UCSORGBACK
350
483E
  3
UCSORGBOTTOM
350
483A
  3
UCSORGFRONT
350
483D
  3
UCSORGLEFT
350
483B
  3
UCSORGRIGHT
350
483C
  3
UCSORGTOP
350
4839
  3
UCSORTHOREF
350
4836
  3
UCSORTHOVIEW
350
4837
  3
VERSIONGUID
350
482B
  0
DICTIONARY
  5
46B3
102
{ACAD_REACTORS
330
C
102
}
330
C
100
AcDbDictionary
  3
CANNOSCALE
350
46B4
  3
CMLEADERSTYLE
350
46F3
  3
CTABLESTYLE
350
46F2
  3
DIMASSOC
350
4840
  3
HIDETEXT
350
4841
  3
MSLTSCALE
350
46F4
  3
XCLIPFRAME
350
46F5
  0
XRECORD
  5
4844
102
{ACAD_REACTORS
330
C
102
}
330
C
100
AcDbXrecord
  1
DWGPROPS COOKIE
  2

  3

  4

  6

  7

  8
y-ohno
  9

300
=
301
=
302
=
303
=
304
=
305
=
306
=
307
=
308
=
309
=
 40
0.0
 41
2450576.222302431
 42
2457191.27998257
  1

 90
        0
  0
XRECORD
  5
4846
102
{ACAD_REACTORS
330
4845
102
}
330
4845
100
AcDbXrecord
102
VTR_0.000_0.000_1.000_1.000_VISUALSTYLE
340
4655
102
VTR_0.000_0.000_1.000_1.000_GRIDDISPLAY
 70
     3
102
VTR_0.000_0.000_1.000_1.000_GRIDMAJOR
 70
     5
102
VTR_0.000_0.000_1.000_1.000_DEFAULTLIGHTING
280
     1
102
VTR_0.000_0.000_1.000_1.000_DEFAULTLIGHTINGTYPE
 70
     1
102
VTR_0.000_0.000_1.000_1.000_BRIGHTNESS
141
0.0
102
VTR_0.000_0.000_1.000_1.000_CONTRAST
142
0.0
  0
DICTIONARY
  5
2B0C
102
{ACAD_REACTORS
330
29EA
102
}
330
29EA
100
AcDbDictionary
  0
DICTIONARY
  5
29EB
102
{ACAD_REACTORS
330
29EA
102
}
330
29EA
100
AcDbDictionary
  0
DICTIONARY
  5
47D7
102
{ACAD_REACTORS
330
47D6
102
}
330
47D6
100
AcDbDictionary
  3
ACDB_ANNOTATIONSCALES
350
47D8
  0
DICTIONARY
  5
47DB
102
{ACAD_REACTORS
330
47DA
102
}
330
47DA
100
AcDbDictionary
  3
ACDB_ANNOTATIONSCALES
350
47DC
  0
DICTIONARY
  5
4802
102
{ACAD_REACTORS
330
4801
102
}
330
4801
100
AcDbDictionary
  3
ACDB_ANNOTATIONSCALES
350
4803
  0
DICTIONARY
  5
4807
102
{ACAD_REACTORS
330
4806
102
}
330
4806
100
AcDbDictionary
  3
ACDB_ANNOTATIONSCALES
350
4808
  0
DICTIONARY
  5
480B
102
{ACAD_REACTORS
330
480A
102
}
330
480A
100
AcDbDictionary
  3
ACDB_ANNOTATIONSCALES
350
480C
  0
DICTIONARY
  5
4810
102
{ACAD_REACTORS
330
480F
102
}
330
480F
100
AcDbDictionary
  3
ACDB_ANNOTATIONSCALES
350
4811
  0
DICTIONARY
  5
4814
102
{ACAD_REACTORS
330
4813
102
}
330
4813
100
AcDbDictionary
  3
ACDB_ANNOTATIONSCALES
350
4815
  0
DICTIONARY
  5
4695
102
{ACAD_REACTORS
330
4694
102
}
330
4694
100
AcDbDictionary
  3
ACDB_ANNOTATIONSCALES
350
4696
  0
DICTIONARY
  5
4754
102
{ACAD_REACTORS
330
4753
102
}
330
4753
100
AcDbDictionary
  3
ACDB_ANNOTATIONSCALES
350
4755
  0
DICTIONARY
  5
475A
102
{ACAD_REACTORS
330
4759
102
}
330
4759
100
AcDbDictionary
  3
ACDB_ANNOTATIONSCALES
350
475B
  0
DICTIONARY
  5
4757
102
{ACAD_REACTORS
330
4756
102
}
330
4756
100
AcDbDictionary
  3
ACDB_ANNOTATIONSCALES
350
4758
  0
MATERIAL
  5
468C
102
{ACAD_REACTORS
330
2947
102
}
102
{ACAD_XDICTIONARY
360
4849
102
}
330
2947
100
AcDbMaterial
  1
BYBLOCK
  0
MATERIAL
  5
468B
102
{ACAD_REACTORS
330
2947
102
}
102
{ACAD_XDICTIONARY
360
4847
102
}
330
2947
100
AcDbMaterial
  1
BYLAYER
  0
MATERIAL
  5
468D
102
{ACAD_REACTORS
330
2947
102
}
102
{ACAD_XDICTIONARY
360
484B
102
}
330
2947
100
AcDbMaterial
  1
GLOBAL
  0
ACAD_PROXY_OBJECT
  5
4691
102
{ACAD_REACTORS
330
4690
102
}
330
4690
100
AcDbProxyObject
 90
      499
 91
      508
 93
      610
310
40901902A4063FBFFFFFE0000000000000020400000000000020404214DD185B99185C990000000000000104090141901A00000000000004100000000000000041025764000000000000039000
340
14
340
0
340
10
340
0
 94
        0
1001
ACAD_MLEADERVER
1070
     2
  0
MLINESTYLE
  5
13
102
{ACAD_REACTORS
330
E
102
}
330
E
100
AcDbMlineStyle
  2
STANDARD
 70
     0
  3

 62
     0
 51
90.0
 52
90.0
 71
     2
 49
0.5
 62
   256
  6
BYLAYER
 49
-0.5
 62
   256
  6
BYLAYER
  0
ACAD_PROXY_OBJECT
  5
466A
102
{ACAD_REACTORS
330
4669
102
}
330
4669
100
AcDbProxyObject
 90
      499
 91
      505
 93
       41
310
903313A31580
  0
ACAD_PROXY_OBJECT
  5
466B
102
{ACAD_REACTORS
330
4669
102
}
330
4669
100
AcDbProxyObject
 90
      499
 91
      505
 93
      105
310
903313A324000000000000004000
  0
ACAD_PROXY_OBJECT
  5
466C
102
{ACAD_REACTORS
330
4669
102
}
330
4669
100
AcDbProxyObject
 90
      499
 91
      505
 93
      105
310
903313A344000000000000104000
  0
ACAD_PROXY_OBJECT
  5
466D
102
{ACAD_REACTORS
330
4669
102
}
330
4669
100
AcDbProxyObject
 90
      499
 91
      505
 93
      105
310
903313A354000000000000144000
  0
ACAD_PROXY_OBJECT
  5
466E
102
{ACAD_REACTORS
330
4669
102
}
330
4669
100
AcDbProxyObject
 90
      499
 91
      505
 93
      105
310
903313A384000000000000204000
  0
ACAD_PROXY_OBJECT
  5
466F
102
{ACAD_REACTORS
330
4669
102
}
330
4669
100
AcDbProxyObject
 90
      499
 91
      505
 93
      113
310
904313A31304000000000000244000
  0
ACAD_PROXY_OBJECT
  5
4670
102
{ACAD_REACTORS
330
4669
102
}
330
4669
100
AcDbProxyObject
 90
      499
 91
      505
 93
      113
310
904313A31364000000000000304000
  0
ACAD_PROXY_OBJECT
  5
4671
102
{ACAD_REACTORS
330
4669
102
}
330
4669
100
AcDbProxyObject
 90
      499
 91
      505
 93
      113
310
904313A32304000000000000344000
  0
ACAD_PROXY_OBJECT
  5
4672
102
{ACAD_REACTORS
330
4669
102
}
330
4669
100
AcDbProxyObject
 90
      499
 91
      505
 93
      113
310
904313A333040000000000003E4000
  0
ACAD_PROXY_OBJECT
  5
4673
102
{ACAD_REACTORS
330
4669
102
}
330
4669
100
AcDbProxyObject
 90
      499
 91
      505
 93
      113
310
904313A34304000000000000444000
  0
ACAD_PROXY_OBJECT
  5
4674
102
{ACAD_REACTORS
330
4669
102
}
330
4669
100
AcDbProxyObject
 90
      499
 91
      505
 93
      113
310
904313A35304000000000000494000
  0
ACAD_PROXY_OBJECT
  5
4675
102
{ACAD_REACTORS
330
4669
102
}
330
4669
100
AcDbProxyObject
 90
      499
 91
      505
 93
      121
310
905313A3130304000000000000594000
  0
ACAD_PROXY_OBJECT
  5
4676
102
{ACAD_REACTORS
330
4669
102
}
330
4669
100
AcDbProxyObject
 90
      499
 91
      505
 93
      105
310
903323A310000000000000010100
  0
ACAD_PROXY_OBJECT
  5
4677
102
{ACAD_REACTORS
330
4669
102
}
330
4669
100
AcDbProxyObject
 90
      499
 91
      505
 93
      105
310
903343A310000000000000410100
  0
ACAD_PROXY_OBJECT
  5
4678
102
{ACAD_REACTORS
330
4669
102
}
330
4669
100
AcDbProxyObject
 90
      499
 91
      505
 93
      105
310
903383A310000000000000810100
  0
ACAD_PROXY_OBJECT
  5
4679
102
{ACAD_REACTORS
330
4669
102
}
330
4669
100
AcDbProxyObject
 90
      499
 91
      505
 93
      113
310
90431303A310000000000000910100
  0
ACAD_PROXY_OBJECT
  5
467A
102
{ACAD_REACTORS
330
4669
102
}
330
4669
100
AcDbProxyObject
 90
      499
 91
      505
 93
      121
310
9053130303A310000000000001650100
  0
ACAD_PROXY_OBJECT
  5
467B
102
{ACAD_REACTORS
330
4669
102
}
330
4669
100
AcDbProxyObject
 90
      499
 91
      505
 93
      257
310
90E312F31323822203D2031272D3022000000000000200FC000000000000284000
  0
ACAD_PROXY_OBJECT
  5
467C
102
{ACAD_REACTORS
330
4669
102
}
330
4669
100
AcDbProxyObject
 90
      499
 91
      505
 93
      249
310
90D312F363422203D2031272D3022000000000000240FC000000000000284000
  0
ACAD_PROXY_OBJECT
  5
467D
102
{ACAD_REACTORS
330
4669
102
}
330
4669
100
AcDbProxyObject
 90
      499
 91
      505
 93
      249
310
90D312F333222203D2031272D3022000000000000280FC000000000000284000
  0
ACAD_PROXY_OBJECT
  5
467E
102
{ACAD_REACTORS
330
4669
102
}
330
4669
100
AcDbProxyObject
 90
      499
 91
      505
 93
      249
310
90D312F313622203D2031272D30220000000000002C0FC000000000000284000
  0
ACAD_PROXY_OBJECT
  5
467F
102
{ACAD_REACTORS
330
4669
102
}
330
4669
100
AcDbProxyObject
 90
      499
 91
      505
 93
      249
310
90D332F333222203D2031272D30220000000000002E0FC000000000000284000
  0
ACAD_PROXY_OBJECT
  5
4680
102
{ACAD_REACTORS
330
4669
102
}
330
4669
100
AcDbProxyObject
 90
      499
 91
      505
 93
      241
310
90C312F3822203D2031272D3022000000000000300FC000000000000284000
  0
ACAD_PROXY_OBJECT
  5
4681
102
{ACAD_REACTORS
330
4669
102
}
330
4669
100
AcDbProxyObject
 90
      499
 91
      505
 93
      249
310
90D332F313622203D2031272D3022000000000000320FC000000000000284000
  0
ACAD_PROXY_OBJECT
  5
4682
102
{ACAD_REACTORS
330
4669
102
}
330
4669
100
AcDbProxyObject
 90
      499
 91
      505
 93
      241
310
90C312F3422203D2031272D3022000000000000340FC000000000000284000
  0
ACAD_PROXY_OBJECT
  5
4683
102
{ACAD_REACTORS
330
4669
102
}
330
4669
100
AcDbProxyObject
 90
      499
 91
      505
 93
      241
310
90C332F3822203D2031272D3022000000000000360FC000000000000284000
  0
ACAD_PROXY_OBJECT
  5
4684
102
{ACAD_REACTORS
330
4669
102
}
330
4669
100
AcDbProxyObject
 90
      499
 91
      505
 93
      241
310
90C312F3222203D2031272D3022000000000000380FC000000000000284000
  0
ACAD_PROXY_OBJECT
  5
4685
102
{ACAD_REACTORS
330
4669
102
}
330
4669
100
AcDbProxyObject
 90
      499
 91
      505
 93
      241
310
90C332F3422203D2031272D30220000000000003A0FC000000000000284000
  0
ACAD_PROXY_OBJECT
  5
4686
102
{ACAD_REACTORS
330
4669
102
}
330
4669
100
AcDbProxyObject
 90
      499
 91
      505
 93
      161
310
90A3122203D2031272D30224000000000000284000
  0
ACAD_PROXY_OBJECT
  5
4687
102
{ACAD_REACTORS
330
4669
102
}
330
4669
100
AcDbProxyObject
 90
      499
 91
      505
 93
      257
310
90E312D312F3222203D2031272D30220000000000003E0FC000000000000284000
  0
ACAD_PROXY_OBJECT
  5
4688
102
{ACAD_REACTORS
330
4669
102
}
330
4669
100
AcDbProxyObject
 90
      499
 91
      505
 93
      225
310
90A3322203D2031272D302200000000000002100000000000000284000
  0
ACAD_PROXY_OBJECT
  5
4689
102
{ACAD_REACTORS
330
4669
102
}
330
4669
100
AcDbProxyObject
 90
      499
 91
      505
 93
      225
310
90A3622203D2031272D302200000000000006100000000000000284000
  0
ACAD_PROXY_OBJECT
  5
468A
102
{ACAD_REACTORS
330
4669
102
}
330
4669
100
AcDbProxyObject
 90
      499
 91
      505
 93
      249
310
90D31272D3022203D2031272D30220000000000000A100000000000000284000
  0
ACAD_PROXY_OBJECT
  5
4655
102
{ACAD_REACTORS
330
4650
102
}
330
4650
100
AcDbProxyObject
 90
      499
 91
      504
 93
      436
310
42CC9915DA5C99599C985B595049028333333333333E33F0000000000000F90107901411070040501600405405064090741402480A0340
1001
ACAD
1000
AcDbSavedByObjectVersion
1070
     0
  0
ACAD_PROXY_OBJECT
  5
4658
102
{ACAD_REACTORS
330
4650
102
}
330
4650
100
AcDbProxyObject
 90
      499
 91
      504
 93
      388
310
4150985CDA58D07406404333333333333E33F0000000000000F90107A41107004050150841D405064090741402480A0350
1001
ACAD
1000
AcDbSavedByObjectVersion
1070
     0
  0
ACAD_PROXY_OBJECT
  5
465C
102
{ACAD_REACTORS
330
4650
102
}
330
4650
100
AcDbProxyObject
 90
      499
 91
      504
 93
      428
310
42109C9A59DA1D195B90C409028333333333333E33F0000000000000F9010790141107004050150841D405064090741402480A029950
1001
ACAD
1000
AcDbSavedByObjectVersion
1070
     0
  0
ACAD_PROXY_OBJECT
  5
4660
102
{ACAD_REACTORS
330
4650
102
}
330
4650
100
AcDbProxyObject
 90
      499
 91
      504
 93
      452
310
42D0DBDB1BDC90DA185B99D95104090240C333333333333E33F0000000000000F90108901411070040501508421405064090741402480A0350
1001
ACAD
1000
AcDbSavedByObjectVersion
1070
     0
  0
ACAD_PROXY_OBJECT
  5
465A
102
{ACAD_REACTORS
330
4650
102
}
330
4650
100
AcDbProxyObject
 90
      499
 91
      504
 93
      500
310
4290DBDB98D95C1D1D585B10940D028333333333333E33F0000000000000F90107902409070040501000000000018199010841D405064090740C02480A0340
1001
ACAD
1000
AcDbSavedByObjectVersion
1070
     0
  0
ACAD_PROXY_OBJECT
  5
465B
102
{ACAD_REACTORS
330
4650
102
}
330
4650
100
AcDbProxyObject
 90
      499
 91
      504
 93
      412
310
40D11A5B50B409028333333333333E33F0000000000000F9010790141107004050150841D405064090741402480A02677FFFFFD0
1001
ACAD
1000
AcDbSavedByObjectVersion
1070
     0
  0
ACAD_PROXY_OBJECT
  5
4663
102
{ACAD_REACTORS
330
4650
102
}
330
4650
100
AcDbProxyObject
 90
      499
 91
      504
 93
      452
310
43115919D950DBDB1BDC93D999916409028333333333333E33F0000000000000F9010790141107004050150841D405064090741402480A0350
1001
ACAD
1000
AcDbSavedByObjectVersion
1070
     0
  0
ACAD_PROXY_OBJECT
  5
465F
102
{ACAD_REACTORS
330
4650
102
}
330
4650
100
AcDbProxyObject
 90
      499
 91
      504
 93
      444
310
42D19858D95C185D1D195C9B90F409028333333333333E33F0000000000000F9010790141107004050150841D405064090741402480A0350
1001
ACAD
1000
AcDbSavedByObjectVersion
1070
     0
  0
ACAD_PROXY_OBJECT
  5
4651
102
{ACAD_REACTORS
330
4650
102
}
330
4650
100
AcDbProxyObject
 90
      499
 91
      504
 93
      380
310
41119B185D240901404333333333333E33F0000000000000F9010740A907004050150841D405064090741402480A1B50
1001
ACAD
1000
AcDbSavedByObjectVersion
1070
     0
  0
ACAD_PROXY_OBJECT
  5
4652
102
{ACAD_REACTORS
330
4650
102
}
330
4650
100
AcDbProxyObject
 90
      499
 91
      504
 93
      468
310
43519B185D15DA5D1A115919D95CD0140901404333333333333E33F0000000000000F90107409019070040501600405405064090741402480A1B50
1001
ACAD
1000
AcDbSavedByObjectVersion
1070
     0
  0
ACAD_PROXY_OBJECT
  5
4653
102
{ACAD_REACTORS
330
4650
102
}
330
4650
100
AcDbProxyObject
 90
      499
 91
      504
 93
      404
310
41D1DBDD5C985D5910240902404333333333333E33F0000000000000F9010740A9070040501641D405064090741402480A1B50
1001
ACAD
1000
AcDbSavedByObjectVersion
1070
     0
  0
ACAD_PROXY_OBJECT
  5
4654
102
{ACAD_REACTORS
330
4650
102
}
330
4650
100
AcDbProxyObject
 90
      499
 91
      504
 93
      492
310
4411DBDD5C985D5915DA5D1A115919D95CD0340902404333333333333E33F0000000000000F90107409019070040501600405405064090741402480A1B50
1001
ACAD
1000
AcDbSavedByObjectVersion
1070
     0
  0
ACAD_PROXY_OBJECT
  5
4657
102
{ACAD_REACTORS
330
4650
102
}
330
4650
100
AcDbProxyObject
 90
      499
 91
      504
 93
      476
310
41921A5919195B90640502408333333333333E33F0000000000000F901079024090700405020000000000001110200405405064090740C02480A0340
1001
ACAD
1000
AcDbSavedByObjectVersion
1070
     0
  0
ACAD_PROXY_OBJECT
  5
4661
102
{ACAD_REACTORS
330
4650
102
}
330
4650
100
AcDbProxyObject
 90
      499
 91
      504
 93
      428
310
42529A5D1D195C93D999914409028333333333333E33F0000000000000F9010790141107004050150A41D405064090741402480A0350
1001
ACAD
1000
AcDbSavedByObjectVersion
1070
     0
  0
ACAD_PROXY_OBJECT
  5
465E
102
{ACAD_REACTORS
330
4650
102
}
330
4650
100
AcDbProxyObject
 90
      499
 91
      504
 93
      444
310
42D31A5B995C185D1D195C9B90E409028333333333333E33F0000000000000F9010790141107004050750841D405064090741402483A0350
1001
ACAD
1000
AcDbSavedByObjectVersion
1070
     0
  0
ACAD_PROXY_OBJECT
  5
46F8
102
{ACAD_REACTORS
330
4650
102
}
330
4650
100
AcDbProxyObject
 90
      499
 91
      504
 93
      412
310
90A409038333333333333E33F0000000000000F901074090290700405010000000000201990108421405064090741402480A1B40
1001
ACAD
1000
AcDbSavedByObjectVersion
1070
     0
  0
ACAD_PROXY_OBJECT
  5
4662
102
{ACAD_REACTORS
330
4650
102
}
330
4650
100
AcDbProxyObject
 90
      499
 91
      504
 93
      444
310
42D3DD995C9A185B99D3D999915409028333333333333E33F0000000000000F9010790141107004050150941D405064090741402480A0350
1001
ACAD
1000
AcDbSavedByObjectVersion
1070
     0
  0
ACAD_PROXY_OBJECT
  5
4659
102
{ACAD_REACTORS
330
4650
102
}
330
4650
100
AcDbProxyObject
 90
      499
 91
      504
 93
      428
310
425499585B1A5CDD1A58D08409038333333333333E33F0000000000000F9010740A907004050150800405405064090740C02480A1B40
1001
ACAD
1000
AcDbSavedByObjectVersion
1070
     0
  0
ACAD_PROXY_OBJECT
  5
4668
102
{ACAD_REACTORS
330
4650
102
}
330
4650
100
AcDbProxyObject
 90
      499
 91
      504
 93
      420
310
4194DA1859195911B40902404333333333333E33F0000000000000F9010740A41107004050150800405405064090840C02480A0B40
1001
ACAD
1000
AcDbSavedByObjectVersion
1070
     0
  0
ACAD_PROXY_OBJECT
  5
4667
102
{ACAD_REACTORS
330
4650
102
}
330
4650
100
AcDbProxyObject
 90
      499
 91
      504
 93
      516
310
4454DA18591959081DDA5D1A08195919D95CD1A40902404333333333333E33F0000000000000F901074090142907004050250800405405064090740C02480A0B40
1001
ACAD
1000
AcDbSavedByObjectVersion
1070
     0
  0
ACAD_PROXY_OBJECT
  5
4664
102
{ACAD_REACTORS
330
4650
102
}
330
4650
100
AcDbProxyObject
 90
      499
 91
      504
 93
      532
310
4394DA1859195CC81BD98811DC985E5174090240C333333333333E33F0000000000000F901079024090741D01000000000000111010841D405064090740C02480A0340
1001
ACAD
1000
AcDbSavedByObjectVersion
1070
     0
  0
ACAD_PROXY_OBJECT
  5
4665
102
{ACAD_REACTORS
330
4650
102
}
330
4650
100
AcDbProxyObject
 90
      499
 91
      504
 93
      476
310
41D4DAD95D18DA1E51840502408333333333333E33F0000000000000F901079024090741D01000000000000111010B41D405064090741802480A0340
1001
ACAD
1000
AcDbSavedByObjectVersion
1070
     0
  0
ACAD_PROXY_OBJECT
  5
465D
102
{ACAD_REACTORS
330
4650
102
}
330
4650
100
AcDbProxyObject
 90
      499
 91
      504
 93
      412
310
41D51A1A58DAD95B90D409028333333333333E33F0000000000000F9010790141107004050150C41D405064090741402480A0350
1001
ACAD
1000
AcDbSavedByObjectVersion
1070
     0
  0
ACAD_PROXY_OBJECT
  5
4656
102
{ACAD_REACTORS
330
4650
102
}
330
4650
100
AcDbProxyObject
 90
      499
 91
      504
 93
      420
310
4255DA5C99599C985B595059028333333333333E33F0000000000000F90107901411070040501600405405064090740C02480A0340
1001
ACAD
1000
AcDbSavedByObjectVersion
1070
     0
  0
ACAD_PROXY_OBJECT
  5
4666
102
{ACAD_REACTORS
330
4650
102
}
330
4650
100
AcDbProxyObject
 90
      499
 91
      504
 93
      404
310
41560B54985E51940902404000000000000E03F0000000000000F9010740501907004050150841D405064090740C02480A1B40
1001
ACAD
1000
AcDbSavedByObjectVersion
1070
     0
  0
XRECORD
  5
4829
102
{ACAD_REACTORS
330
481F
102
}
330
481F
100
AcDbXrecord
340
0
  0
XRECORD
  5
4828
102
{ACAD_REACTORS
330
481F
102
}
330
481F
100
AcDbXrecord
 90
        0
  0
XRECORD
  5
4842
102
{ACAD_REACTORS
330
481F
102
}
330
481F
100
AcDbXrecord
340
2948
  0
XRECORD
  5
483F
102
{ACAD_REACTORS
330
481F
102
}
330
481F
100
AcDbXrecord
1000
DSTYLE
1002
{
1070
   171
 70
     2
1070
   143
 40
0.0394
1070
   274
 70
     2
1070
    41
 40
6.0
1070
   342
340
2AF4
1070
   271
 70
     1
1070
   278
 70
    46
1070
   341
340
2AF4
1070
   272
 70
     1
1070
    48
 40
0.1
1070
   283
 70
     1
1070
    47
 40
0.1
1070
   145
 40
1.0
1070
   340
340
10
1070
   140
 40
8.0
1070
   284
 70
     0
1002
}
  0
XRECORD
  5
482A
102
{ACAD_REACTORS
330
481F
102
}
330
481F
100
AcDbXrecord
  1
{23698909-1D67-4744-B0E2-8DE11E3ED422}
  0
XRECORD
  5
4822
102
{ACAD_REACTORS
330
481F
102
}
330
481F
100
AcDbXrecord
  1

  0
XRECORD
  5
4827
102
{ACAD_REACTORS
330
481F
102
}
330
481F
100
AcDbXrecord
 90
        0
  0
XRECORD
  5
4824
102
{ACAD_REACTORS
330
481F
102
}
330
481F
100
AcDbXrecord
340
2816
  0
XRECORD
  5
4826
102
{ACAD_REACTORS
330
481F
102
}
330
481F
100
AcDbXrecord
 90
    10781
  0
XRECORD
  5
4843
102
{ACAD_REACTORS
330
481F
102
}
330
481F
100
AcDbXrecord
340
2947
  0
XRECORD
  5
4825
102
{ACAD_REACTORS
330
481F
102
}
330
481F
100
AcDbXrecord
340
2817
  0
XRECORD
  5
482C
102
{ACAD_REACTORS
330
481F
102
}
330
481F
100
AcDbXrecord
 40
0.25
  0
XRECORD
  5
482F
102
{ACAD_REACTORS
330
481F
102
}
330
481F
100
AcDbXrecord
340
0
  0
XRECORD
  5
4835
102
{ACAD_REACTORS
330
481F
102
}
330
481F
100
AcDbXrecord
 10
0.0
 20
0.0
 30
0.0
  0
XRECORD
  5
4831
102
{ACAD_REACTORS
330
481F
102
}
330
481F
100
AcDbXrecord
 10
0.0
 20
0.0
 30
0.0
  0
XRECORD
  5
4834
102
{ACAD_REACTORS
330
481F
102
}
330
481F
100
AcDbXrecord
 10
0.0
 20
0.0
 30
0.0
  0
XRECORD
  5
4832
102
{ACAD_REACTORS
330
481F
102
}
330
481F
100
AcDbXrecord
 10
0.0
 20
0.0
 30
0.0
  0
XRECORD
  5
4833
102
{ACAD_REACTORS
330
481F
102
}
330
481F
100
AcDbXrecord
 10
0.0
 20
0.0
 30
0.0
  0
XRECORD
  5
4830
102
{ACAD_REACTORS
330
481F
102
}
330
481F
100
AcDbXrecord
 10
0.0
 20
0.0
 30
0.0
  0
XRECORD
  5
482D
102
{ACAD_REACTORS
330
481F
102
}
330
481F
100
AcDbXrecord
340
0
  0
XRECORD
  5
482E
102
{ACAD_REACTORS
330
481F
102
}
330
481F
100
AcDbXrecord
 70
     0
  0
XRECORD
  5
4823
102
{ACAD_REACTORS
330
481F
102
}
330
481F
100
AcDbXrecord
  1

  0
XRECORD
  5
4820
102
{ACAD_REACTORS
330
481F
102
}
330
481F
100
AcDbXrecord
 90
        1
  0
XRECORD
  5
4821
102
{ACAD_REACTORS
330
481F
102
}
330
481F
100
AcDbXrecord
 90
       70
  0
XRECORD
  5
4838
102
{ACAD_REACTORS
330
481F
102
}
330
481F
100
AcDbXrecord
340
0
  0
XRECORD
  5
483E
102
{ACAD_REACTORS
330
481F
102
}
330
481F
100
AcDbXrecord
 10
0.0
 20
0.0
 30
0.0
  0
XRECORD
  5
483A
102
{ACAD_REACTORS
330
481F
102
}
330
481F
100
AcDbXrecord
 10
0.0
 20
0.0
 30
0.0
  0
XRECORD
  5
483D
102
{ACAD_REACTORS
330
481F
102
}
330
481F
100
AcDbXrecord
 10
0.0
 20
0.0
 30
0.0
  0
XRECORD
  5
483B
102
{ACAD_REACTORS
330
481F
102
}
330
481F
100
AcDbXrecord
 10
0.0
 20
0.0
 30
0.0
  0
XRECORD
  5
483C
102
{ACAD_REACTORS
330
481F
102
}
330
481F
100
AcDbXrecord
 10
0.0
 20
0.0
 30
0.0
  0
XRECORD
  5
4839
102
{ACAD_REACTORS
330
481F
102
}
330
481F
100
AcDbXrecord
 10
0.0
 20
0.0
 30
0.0
  0
XRECORD
  5
4836
102
{ACAD_REACTORS
330
481F
102
}
330
481F
100
AcDbXrecord
340
0
  0
XRECORD
  5
4837
102
{ACAD_REACTORS
330
481F
102
}
330
481F
100
AcDbXrecord
 70
     0
  0
XRECORD
  5
482B
102
{ACAD_REACTORS
330
481F
102
}
330
481F
100
AcDbXrecord
  1
{5B9D289E-86F5-4984-8864-977A2F81B4D2}
  0
DICTIONARYVAR
  5
46B4
102
{ACAD_REACTORS
330
46B3
102
}
330
46B3
100
DictionaryVariables
280
     0
  1
1:1
  0
DICTIONARYVAR
  5
46F3
102
{ACAD_REACTORS
330
46B3
102
}
330
46B3
100
DictionaryVariables
280
     0
  1
Standard
  0
DICTIONARYVAR
  5
46F2
102
{ACAD_REACTORS
330
46B3
102
}
330
46B3
100
DictionaryVariables
280
     0
  1
Standard
  0
DICTIONARYVAR
  5
4840
102
{ACAD_REACTORS
330
46B3
102
}
330
46B3
100
DictionaryVariables
280
     0
  1
1
  0
DICTIONARYVAR
  5
4841
102
{ACAD_REACTORS
330
46B3
102
}
330
46B3
100
DictionaryVariables
280
     0
  1
0
  0
DICTIONARYVAR
  5
46F4
102
{ACAD_REACTORS
330
46B3
102
}
330
46B3
100
DictionaryVariables
280
     0
  1
0
  0
DICTIONARYVAR
  5
46F5
102
{ACAD_REACTORS
330
46B3
102
}
330
46B3
100
DictionaryVariables
280
     0
  1
0
  0
DICTIONARY
  5
47D8
102
{ACAD_REACTORS
330
47D7
102
}
330
47D7
100
AcDbDictionary
  0
DICTIONARY
  5
47DC
102
{ACAD_REACTORS
330
47DB
102
}
330
47DB
100
AcDbDictionary
  0
DICTIONARY
  5
4803
102
{ACAD_REACTORS
330
4802
102
}
330
4802
100
AcDbDictionary
  0
DICTIONARY
  5
4808
102
{ACAD_REACTORS
330
4807
102
}
330
4807
100
AcDbDictionary
  0
DICTIONARY
  5
480C
102
{ACAD_REACTORS
330
480B
102
}
330
480B
100
AcDbDictionary
  0
DICTIONARY
  5
4811
102
{ACAD_REACTORS
330
4810
102
}
330
4810
100
AcDbDictionary
  0
DICTIONARY
  5
4815
102
{ACAD_REACTORS
330
4814
102
}
330
4814
100
AcDbDictionary
  0
DICTIONARY
  5
4696
102
{ACAD_REACTORS
330
4695
102
}
330
4695
100
AcDbDictionary
  0
DICTIONARY
  5
4755
102
{ACAD_REACTORS
330
4754
102
}
330
4754
100
AcDbDictionary
  0
DICTIONARY
  5
475B
102
{ACAD_REACTORS
330
475A
102
}
330
475A
100
AcDbDictionary
  0
DICTIONARY
  5
4758
102
{ACAD_REACTORS
330
4757
102
}
330
4757
100
AcDbDictionary
  0
DICTIONARY
  5
4849
330
468C
100
AcDbDictionary
280
     1
  3
ACAD_XREC_ROUNDTRIP
360
484A
  0
DICTIONARY
  5
4847
330
468B
100
AcDbDictionary
280
     1
  3
ACAD_XREC_ROUNDTRIP
360
4848
  0
DICTIONARY
  5
484B
330
468D
100
AcDbDictionary
280
     1
  3
ACAD_XREC_ROUNDTRIP
360
484C
  0
XRECORD
  5
484A
102
{ACAD_REACTORS
330
4849
102
}
330
4849
100
AcDbXrecord
102
MATERIAL
148
0.0
149
0.0
149
0.0
 93
        0
 94
      127
282
     0
 72
     1
 77
     1
171
     1
175
     1
179
     1
273
     0
  0
XRECORD
  5
4848
102
{ACAD_REACTORS
330
4847
102
}
330
4847
100
AcDbXrecord
102
MATERIAL
148
0.0
149
0.0
149
0.0
 93
        0
 94
      127
282
     0
 72
     1
 77
     1
171
     1
175
     1
179
     1
273
     0
  0
XRECORD
  5
484C
102
{ACAD_REACTORS
330
484B
102
}
330
484B
100
AcDbXrecord
102
MATERIAL
148
0.0
149
0.0
149
0.0
 93
        0
 94
      127
282
     0
 72
     1
 77
     1
171
     1
175
     1
179
     1
273
     0
  0
ENDSEC
  0
EOF
