  0
SECTION
  2
HEADER
  9
$ACADVER
  1
AC1014
  9
$ACADMAINTVER
 70
     9
  9
$DWGCODEPAGE
  3
ANSI_932
  9
$INSBASE
 10
0.0
 20
0.0
 30
0.0
  9
$EXTMIN
 10
-29.761671126999
 20
190.722881154799
 30
0.0
  9
$EXTMAX
 10
917.002660945831
 20
745.010920554041
 30
0.0
  9
$LIMMIN
 10
-360.747566795242
 20
4.457354754526
  9
$LIMMAX
 10
-162.153696144267
 20
287.675440264018
  9
$ORTHOMODE
 70
     0
  9
$REGENMODE
 70
     1
  9
$FILLMODE
 70
     1
  9
$QTEXTMODE
 70
     0
  9
$MIRRTEXT
 70
     1
  9
$DRAGMODE
 70
     2
  9
$LTSCALE
 40
1.0
  9
$OSMODE
 70
    32
  9
$ATTMODE
 70
     1
  9
$TEXTSIZE
 40
2.333873885063
  9
$TRACEWID
 40
1.0
  9
$TEXTSTYLE
  7
STANDARD
  9
$CLAYER
  8
外形線
  9
$CELTYPE
  6
BYLAYER
  9
$CECOLOR
 62
   256
  9
$CELTSCALE
 40
10.0
  9
$DELOBJ
 70
     1
  9
$DISPSILH
 70
     0
  9
$DIMSCALE
 40
1.0
  9
$DIMASZ
 40
6.0
  9
$DIMEXO
 40
0.625
  9
$DIMDLI
 40
3.75
  9
$DIMRND
 40
0.0
  9
$DIMDLE
 40
0.0
  9
$DIMEXE
 40
1.25
  9
$DIMTP
 40
0.1
  9
$DIMTM
 40
0.1
  9
$DIMTXT
 40
8.0
  9
$DIMCEN
 40
2.5
  9
$DIMTSZ
 40
0.0
  9
$DIMTOL
 70
     0
  9
$DIMLIM
 70
     0
  9
$DIMTIH
 70
     0
  9
$DIMTOH
 70
     0
  9
$DIMSE1
 70
     0
  9
$DIMSE2
 70
     0
  9
$DIMTAD
 70
     1
  9
$DIMZIN
 70
     8
  9
$DIMBLK
  1
OPEN30
  9
$DIMASO
 70
     1
  9
$DIMSHO
 70
     1
  9
$DIMPOST
  1

  9
$DIMAPOST
  1

  9
$DIMALT
 70
     0
  9
$DIMALTD
 70
     2
  9
$DIMALTF
 40
0.0394
  9
$DIMLFAC
 40
1.0
  9
$DIMTOFL
 70
     1
  9
$DIMTVP
 40
1.0
  9
$DIMTIX
 70
     0
  9
$DIMSOXD
 70
     0
  9
$DIMSAH
 70
     0
  9
$DIMBLK1
  1

  9
$DIMBLK2
  1

  9
$DIMSTYLE
  2
ISO-25
  9
$DIMCLRD
 70
     0
  9
$DIMCLRE
 70
     0
  9
$DIMCLRT
 70
     0
  9
$DIMTFAC
 40
1.0
  9
$DIMGAP
 40
0.625
  9
$DIMJUST
 70
     0
  9
$DIMSD1
 70
     0
  9
$DIMSD2
 70
     0
  9
$DIMTOLJ
 70
     1
  9
$DIMTZIN
 70
     0
  9
$DIMALTZ
 70
     0
  9
$DIMALTTZ
 70
     0
  9
$DIMFIT
 70
     3
  9
$DIMUPT
 70
     0
  9
$DIMUNIT
 70
     2
  9
$DIMDEC
 70
     1
  9
$DIMTDEC
 70
     1
  9
$DIMALTU
 70
     2
  9
$DIMALTTD
 70
     2
  9
$DIMTXSTY
  7
STANDARD
  9
$DIMAUNIT
 70
     0
  9
$LUNITS
 70
     2
  9
$LUPREC
 70
     4
  9
$SKETCHINC
 40
1.0
  9
$FILLETRAD
 40
5.0
  9
$AUNITS
 70
     0
  9
$AUPREC
 70
     0
  9
$MENU
  1
.
  9
$ELEVATION
 40
0.0
  9
$PELEVATION
 40
0.0
  9
$THICKNESS
 40
0.0
  9
$LIMCHECK
 70
     0
  9
$CHAMFERA
 40
10.0
  9
$CHAMFERB
 40
10.0
  9
$CHAMFERC
 40
20.0
  9
$CHAMFERD
 40
0.0
  9
$SKPOLY
 70
     0
  9
$TDCREATE
 40
2450576.597302431
  9
$TDUPDATE
 40
2457193.659572141
  9
$TDINDWG
 40
1.3464892477
  9
$TDUSRTIMER
 40
1.3464892477
  9
$USRTIMER
 70
     1
  9
$ANGBASE
 50
0.0
  9
$ANGDIR
 70
     0
  9
$PDMODE
 70
     0
  9
$PDSIZE
 40
0.0
  9
$PLINEWID
 40
0.0
  9
$COORDS
 70
     1
  9
$SPLFRAME
 70
     0
  9
$SPLINETYPE
 70
     6
  9
$SPLINESEGS
 70
     8
  9
$ATTDIA
 70
     0
  9
$ATTREQ
 70
     1
  9
$HANDLING
 70
     1
  9
$HANDSEED
  5
7E45
  9
$SURFTAB1
 70
     6
  9
$SURFTAB2
 70
     6
  9
$SURFTYPE
 70
     6
  9
$SURFU
 70
     6
  9
$SURFV
 70
     6
  9
$UCSNAME
  2

  9
$UCSORG
 10
0.0
 20
0.0
 30
0.0
  9
$UCSXDIR
 10
1.0
 20
0.0
 30
0.0
  9
$UCSYDIR
 10
0.0
 20
1.0
 30
0.0
  9
$PUCSNAME
  2

  9
$PUCSORG
 10
0.0
 20
0.0
 30
0.0
  9
$PUCSXDIR
 10
1.0
 20
0.0
 30
0.0
  9
$PUCSYDIR
 10
0.0
 20
1.0
 30
0.0
  9
$USERI1
 70
     0
  9
$USERI2
 70
     0
  9
$USERI3
 70
     0
  9
$USERI4
 70
     0
  9
$USERI5
 70
     0
  9
$USERR1
 40
0.0
  9
$USERR2
 40
0.0
  9
$USERR3
 40
0.0
  9
$USERR4
 40
0.0
  9
$USERR5
 40
0.0
  9
$WORLDVIEW
 70
     1
  9
$SHADEDGE
 70
     3
  9
$SHADEDIF
 70
    70
  9
$TILEMODE
 70
     0
  9
$MAXACTVP
 70
    16
  9
$PINSBASE
 10
0.0
 20
0.0
 30
0.0
  9
$PLIMCHECK
 70
     0
  9
$PEXTMIN
 10
4.746305129083
 20
1.396645458131
 30
0.0
  9
$PEXTMAX
 10
404.746305129083
 20
281.396645458131
 30
0.0
  9
$PLIMMIN
 10
-6.946593322754
 20
-6.94658241272
  9
$PLIMMAX
 10
417.718108215332
 20
293.315276107788
  9
$UNITMODE
 70
     0
  9
$VISRETAIN
 70
     0
  9
$PLINEGEN
 70
     0
  9
$PSLTSCALE
 70
     1
  9
$TREEDEPTH
 70
  3020
  9
$PICKSTYLE
 70
     1
  9
$CMLSTYLE
  2
STANDARD
  9
$CMLJUST
 70
     0
  9
$CMLSCALE
 40
1.0
  9
$PROXYGRAPHICS
 70
     1
  9
$MEASUREMENT
 70
     1
  0
ENDSEC
  0
SECTION
  2
CLASSES
  0
CLASS
  1
ACDBDICTIONARYWDFLT
  2
AcDbDictionaryWithDefault
  3
ObjectDBX Classes
 90
        0
280
     0
281
     0
  0
CLASS
  1
ACDBPLACEHOLDER
  2
AcDbPlaceHolder
  3
ObjectDBX Classes
 90
        0
280
     0
281
     0
  0
CLASS
  1
LAYOUT
  2
AcDbLayout
  3
ObjectDBX Classes
 90
        0
280
     0
281
     0
  0
CLASS
  1
MATERIAL
  2
AcDbMaterial
  3
ObjectDBX Classes
 90
     1153
280
     0
281
     0
  0
CLASS
  1
SORTENTSTABLE
  2
AcDbSortentsTable
  3
ObjectDBX Classes
 90
        0
280
     0
281
     0
  0
CLASS
  1
VISUALSTYLE
  2
AcDbVisualStyle
  3
ObjectDBX Classes
 90
     4095
280
     0
281
     0
  0
CLASS
  1
SCALE
  2
AcDbScale
  3
ObjectDBX Classes
 90
     1153
280
     0
281
     0
  0
CLASS
  1
TABLESTYLE
  2
AcDbTableStyle
  3
ObjectDBX Classes
 90
     4095
280
     0
281
     0
  0
CLASS
  1
MLEADERSTYLE
  2
AcDbMLeaderStyle
  3
ACDB_MLEADERSTYLE_CLASS
 90
     4095
280
     0
281
     0
  0
CLASS
  1
SUN
  2
AcDbSun
  3
SCENEOE
 90
     1153
280
     0
281
     0
  0
CLASS
  1
DICTIONARYVAR
  2
AcDbDictionaryVar
  3
ObjectDBX Classes
 90
        0
280
     0
281
     0
  0
CLASS
  1
XRECORD
  2
AcDbXrecord
  3
ObjectDBX Classes
 90
        0
280
     0
281
     0
  0
CLASS
  1
LWPOLYLINE
  2
AcDbPolyline
  3
ObjectDBX Classes
 90
        0
280
     0
281
     1
  0
CLASS
  1
HATCH
  2
AcDbHatch
  3
ObjectDBX Classes
 90
        0
280
     0
281
     1
  0
ENDSEC
  0
SECTION
  2
TABLES
  0
TABLE
  2
VPORT
  5
8
102
{ACAD_XDICTIONARY
360
7E3C
102
}
330
0
100
AcDbSymbolTable
 70
     3
  0
VPORT
  5
7394
330
8
100
AcDbSymbolTableRecord
100
AcDbViewportTableRecord
  2
*ACTIVE
 70
     0
 10
0.0
 20
0.0
 11
1.0
 21
1.0
 12
758.290719290398
 22
446.677917141718
 13
0.0
 23
0.0
 14
1.0
 24
1.0
 15
0.0
 25
0.0
 16
0.0
 26
0.0
 36
1.0
 17
0.0
 27
0.0
 37
0.0
 40
214.967466490107
 41
1.56746031746
 42
50.0
 43
0.0
 44
0.0
 50
0.0
 51
0.0
 71
    16
 72
   100
 73
     1
 74
     0
 75
     0
 76
     0
 77
     0
 78
     0
  0
ENDTAB
  0
TABLE
  2
LTYPE
  5
5
330
0
100
AcDbSymbolTable
 70
     5
  0
LTYPE
  5
14
330
5
100
AcDbSymbolTableRecord
100
AcDbLinetypeTableRecord
  2
BYBLOCK
 70
     0
  3

 72
    65
 73
     0
 40
0.0
  0
LTYPE
  5
15
330
5
100
AcDbSymbolTableRecord
100
AcDbLinetypeTableRecord
  2
BYLAYER
 70
     0
  3

 72
    65
 73
     0
 40
0.0
  0
LTYPE
  5
16
330
5
100
AcDbSymbolTableRecord
100
AcDbLinetypeTableRecord
  2
CONTINUOUS
 70
     0
  3
Solid line
 72
    65
 73
     0
 40
0.0
  0
LTYPE
  5
1EC
330
5
100
AcDbSymbolTableRecord
100
AcDbLinetypeTableRecord
  2
CENTER
 70
     0
  3
____ _ ____ _ ____ _ ____ _ ____ _ ____ _ ____ 
 72
    65
 73
     4
 40
2.0
 49
1.25
 74
     0
 49
-0.25
 74
     0
 49
0.25
 74
     0
 49
-0.25
 74
     0
  0
LTYPE
  5
1ED
330
5
100
AcDbSymbolTableRecord
100
AcDbLinetypeTableRecord
  2
DASHED
 70
     0
  3
__ __ __ __ __ __ __ __ __ __ __ __ __ __ __ __
 72
    65
 73
     2
 40
0.75
 49
0.5
 74
     0
 49
-0.25
 74
     0
  0
LTYPE
  5
2B1F
330
5
100
AcDbSymbolTableRecord
100
AcDbLinetypeTableRecord
  2
DASHDOT
 70
     0
  3
一点鎖線
 72
    65
 73
     4
 40
25.6
 49
20.0
 74
     0
 49
-2.0
 74
     0
 49
1.6
 74
     0
 49
-2.0
 74
     0
  0
LTYPE
  5
34F8
330
5
100
AcDbSymbolTableRecord
100
AcDbLinetypeTableRecord
  2
DIVIDE
 70
     0
  3
二点鎖線
 72
    65
 73
     6
 40
31.2
 49
20.0
 74
     0
 49
-2.4
 74
     0
 49
2.0
 74
     0
 49
-2.4
 74
     0
 49
2.0
 74
     0
 49
-2.4
 74
     0
  0
ENDTAB
  0
TABLE
  2
LAYER
  5
2
102
{ACAD_XDICTIONARY
360
29EA
102
}
330
0
100
AcDbSymbolTable
 70
    14
  0
LAYER
  5
F
330
2
100
AcDbSymbolTableRecord
100
AcDbLayerTableRecord
  2
0
 70
     0
 62
     7
  6
CONTINUOUS
  0
LAYER
  5
61
330
2
100
AcDbSymbolTableRecord
100
AcDbLayerTableRecord
  2
図枠太線
 70
     0
 62
   251
  6
CONTINUOUS
  0
LAYER
  5
62
330
2
100
AcDbSymbolTableRecord
100
AcDbLayerTableRecord
  2
図枠細線
 70
     0
 62
   252
  6
CONTINUOUS
  0
LAYER
  5
63
330
2
100
AcDbSymbolTableRecord
100
AcDbLayerTableRecord
  2
図枠ロゴマーク
 70
     0
 62
   253
  6
CONTINUOUS
  0
LAYER
  5
1EF
330
2
100
AcDbSymbolTableRecord
100
AcDbLayerTableRecord
  2
外形線
 70
     0
 62
     7
  6
CONTINUOUS
  0
LAYER
  5
1F0
330
2
100
AcDbSymbolTableRecord
100
AcDbLayerTableRecord
  2
寸法線
 70
     0
 62
     1
  6
CONTINUOUS
  0
LAYER
  5
1F1
330
2
100
AcDbSymbolTableRecord
100
AcDbLayerTableRecord
  2
中心線
 70
     0
 62
     4
  6
CENTER
  0
LAYER
  5
1F4
330
2
100
AcDbSymbolTableRecord
100
AcDbLayerTableRecord
  2
DEFPOINTS
 70
     0
 62
     7
  6
CONTINUOUS
  0
LAYER
  5
2AA2
330
2
100
AcDbSymbolTableRecord
100
AcDbLayerTableRecord
  2
下書線
 70
     0
 62
     2
  6
CONTINUOUS
  0
LAYER
  5
2AA3
330
2
100
AcDbSymbolTableRecord
100
AcDbLayerTableRecord
  2
隠れ線
 70
     0
 62
     3
  6
DASHED
  0
LAYER
  5
2AA4
330
2
100
AcDbSymbolTableRecord
100
AcDbLayerTableRecord
  2
細線
 70
     0
 62
     6
  6
CONTINUOUS
  0
LAYER
  5
2AA5
330
2
100
AcDbSymbolTableRecord
100
AcDbLayerTableRecord
  2
太線
 70
     0
 62
   190
  6
CONTINUOUS
  0
LAYER
  5
2B20
330
2
100
AcDbSymbolTableRecord
100
AcDbLayerTableRecord
  2
LAY-1
 70
     0
 62
     7
  6
CONTINUOUS
  0
LAYER
  5
5483
330
2
100
AcDbSymbolTableRecord
100
AcDbLayerTableRecord
  2
寸法線_文字
 70
     0
 62
     1
  6
CONTINUOUS
  0
ENDTAB
  0
TABLE
  2
STYLE
  5
3
330
0
100
AcDbSymbolTable
 70
     3
  0
STYLE
  5
10
330
3
100
AcDbSymbolTableRecord
100
AcDbTextStyleTableRecord
  2
STANDARD
 70
     0
 40
0.0
 41
1.0
 50
0.0
 71
     0
 42
2.333873885063
  3
ISOCP
  4
bigfont.shx
  0
STYLE
  5
64
330
3
100
AcDbSymbolTableRecord
100
AcDbTextStyleTableRecord
  2
EXCADSTD
 70
     0
 40
0.0
 41
1.0
 50
0.0
 71
     0
 42
0.2
  3
monotxt
  4
bigfont
  0
STYLE
  5
2B21
330
3
100
AcDbSymbolTableRecord
100
AcDbTextStyleTableRecord
  2
EXCADVERT
 70
     4
 40
0.0
 41
1.0
 50
0.0
 71
     0
 42
0.286885
  3
monotxt
  4
bigfont
  0
ENDTAB
  0
TABLE
  2
VIEW
  5
6
330
0
100
AcDbSymbolTable
 70
     0
  0
ENDTAB
  0
TABLE
  2
UCS
  5
7
330
0
100
AcDbSymbolTable
 70
     0
  0
ENDTAB
  0
TABLE
  2
APPID
  5
9
330
0
100
AcDbSymbolTable
 70
     3
  0
APPID
  5
11
330
9
100
AcDbSymbolTableRecord
100
AcDbRegAppTableRecord
  2
ACAD
 70
     0
  0
APPID
  5
73D7
330
9
100
AcDbSymbolTableRecord
100
AcDbRegAppTableRecord
  2
ACADANNOTATIVE
 70
     0
  0
APPID
  5
7E44
330
9
100
AcDbSymbolTableRecord
100
AcDbRegAppTableRecord
  2
ACAD_MLEADERVER
 70
     0
  0
ENDTAB
  0
TABLE
  2
DIMSTYLE
  5
A
330
0
100
AcDbSymbolTable
 70
     2
  0
DIMSTYLE
105
1D
330
A
100
AcDbSymbolTableRecord
100
AcDbDimStyleTableRecord
  2
STANDARD
 70
     0
  3

  4

  5

  6

  7

 40
1.0
 41
0.18
 42
0.0625
 43
0.38
 44
0.18
 45
0.0
 46
0.0
 47
0.0
 48
0.0
140
0.18
141
0.09
142
0.0
143
25.4
144
1.0
145
0.0
146
1.0
147
0.09
 71
     0
 72
     0
 73
     1
 74
     1
 75
     0
 76
     0
 77
     0
 78
     0
170
     0
171
     2
172
     0
173
     0
174
     0
175
     0
176
     0
177
     0
178
     0
270
     2
271
     4
272
     4
273
     2
274
     2
340
10
275
     0
280
     0
281
     0
282
     0
283
     1
284
     0
285
     0
286
     0
287
     3
288
     0
  0
DIMSTYLE
105
24
102
{ACAD_REACTORS
330
577F
330
655C
330
655D
330
655F
330
656C
330
6570
330
65DD
330
65DE
330
660C
330
660D
330
6611
330
6F45
330
70E9
330
7124
330
715A
330
719C
330
7270
330
72C5
102
}
330
A
100
AcDbSymbolTableRecord
100
AcDbDimStyleTableRecord
  2
ISO-25
 70
     0
  3

  4

  5

  6

  7

 40
1.0
 41
2.5
 42
0.625
 43
3.75
 44
1.25
 45
0.0
 46
0.0
 47
0.0
 48
0.0
140
2.5
141
2.5
142
0.0
143
0.0394
144
1.0
145
1.0
146
1.0
147
0.625
 71
     0
 72
     0
 73
     1
 74
     0
 75
     0
 76
     0
 77
     1
 78
     8
170
     0
171
     2
172
     1
173
     0
174
     0
175
     0
176
     0
177
     0
178
     0
270
     2
271
     4
272
     4
273
     2
274
     2
340
10
275
     0
280
     0
281
     0
282
     0
283
     1
284
     0
285
     0
286
     0
287
     3
288
     0
  0
ENDTAB
  0
TABLE
  2
BLOCK_RECORD
  5
1
330
0
100
AcDbSymbolTable
 70
    31
  0
BLOCK_RECORD
  5
1A
330
1
100
AcDbSymbolTableRecord
100
AcDbBlockTableRecord
  2
*MODEL_SPACE
  0
BLOCK_RECORD
  5
28FB
330
1
100
AcDbSymbolTableRecord
100
AcDbBlockTableRecord
  2
*PAPER_SPACE
  0
BLOCK_RECORD
  5
65
330
1
100
AcDbSymbolTableRecord
100
AcDbBlockTableRecord
  2
A$C3392
  0
BLOCK_RECORD
  5
29BF
330
1
100
AcDbSymbolTableRecord
100
AcDbBlockTableRecord
  2
A4横用_タイトル
1001
ACAD
1000
DesignCenter Data
1002
{
1070
     1
1070
     4
1002
}
  0
BLOCK_RECORD
  5
29F4
330
1
100
AcDbSymbolTableRecord
100
AcDbBlockTableRecord
  2
A4縦用_タイトル
1001
ACAD
1000
DesignCenter Data
1002
{
1070
     1
1070
     4
1002
}
  0
BLOCK_RECORD
  5
2A32
330
1
100
AcDbSymbolTableRecord
100
AcDbBlockTableRecord
  2
A3横用_タイトル
1001
ACAD
1000
DesignCenter Data
1002
{
1070
     1
1070
     4
1002
}
  0
BLOCK_RECORD
  5
2A6C
330
1
100
AcDbSymbolTableRecord
100
AcDbBlockTableRecord
  2
A3縦用_タイトル
1001
ACAD
1000
DesignCenter Data
1002
{
1070
     1
1070
     4
1002
}
  0
BLOCK_RECORD
  5
2AF4
330
1
100
AcDbSymbolTableRecord
100
AcDbBlockTableRecord
  2
_OPEN30
  0
BLOCK_RECORD
  5
3024
330
1
100
AcDbSymbolTableRecord
100
AcDbBlockTableRecord
  2
パドル_W1
  0
BLOCK_RECORD
  5
3054
330
1
100
AcDbSymbolTableRecord
100
AcDbBlockTableRecord
  2
パドル_W1立面図
  0
BLOCK_RECORD
  5
3136
330
1
100
AcDbSymbolTableRecord
100
AcDbBlockTableRecord
  2
*D8
  0
BLOCK_RECORD
  5
3142
330
1
100
AcDbSymbolTableRecord
100
AcDbBlockTableRecord
  2
*D9
  0
BLOCK_RECORD
  5
314E
330
1
100
AcDbSymbolTableRecord
100
AcDbBlockTableRecord
  2
*D10
  0
BLOCK_RECORD
  5
315C
330
1
100
AcDbSymbolTableRecord
100
AcDbBlockTableRecord
  2
A$C384A4FFB
  0
BLOCK_RECORD
  5
34BA
330
1
100
AcDbSymbolTableRecord
100
AcDbBlockTableRecord
  2
A$C77C530E9
  0
BLOCK_RECORD
  5
58CB
330
1
100
AcDbSymbolTableRecord
100
AcDbBlockTableRecord
  2
*D13
  0
BLOCK_RECORD
  5
66A7
330
1
100
AcDbSymbolTableRecord
100
AcDbBlockTableRecord
  2
*D14
  0
BLOCK_RECORD
  5
66B3
330
1
100
AcDbSymbolTableRecord
100
AcDbBlockTableRecord
  2
*D15
  0
BLOCK_RECORD
  5
66CB
330
1
100
AcDbSymbolTableRecord
100
AcDbBlockTableRecord
  2
*D16
  0
BLOCK_RECORD
  5
66D7
330
1
100
AcDbSymbolTableRecord
100
AcDbBlockTableRecord
  2
*D17
  0
BLOCK_RECORD
  5
66E3
330
1
100
AcDbSymbolTableRecord
100
AcDbBlockTableRecord
  2
*D18
  0
BLOCK_RECORD
  5
6721
330
1
100
AcDbSymbolTableRecord
100
AcDbBlockTableRecord
  2
*D19
  0
BLOCK_RECORD
  5
672E
330
1
100
AcDbSymbolTableRecord
100
AcDbBlockTableRecord
  2
*D20
  0
BLOCK_RECORD
  5
673C
330
1
100
AcDbSymbolTableRecord
100
AcDbBlockTableRecord
  2
*D21
  0
BLOCK_RECORD
  5
6748
330
1
100
AcDbSymbolTableRecord
100
AcDbBlockTableRecord
  2
*D22
  0
BLOCK_RECORD
  5
6762
330
1
100
AcDbSymbolTableRecord
100
AcDbBlockTableRecord
  2
*D23
  0
BLOCK_RECORD
  5
6F46
330
1
100
AcDbSymbolTableRecord
100
AcDbBlockTableRecord
  2
*D24
  0
BLOCK_RECORD
  5
70EA
330
1
100
AcDbSymbolTableRecord
100
AcDbBlockTableRecord
  2
*D25
  0
BLOCK_RECORD
  5
7125
330
1
100
AcDbSymbolTableRecord
100
AcDbBlockTableRecord
  2
*D26
  0
BLOCK_RECORD
  5
715B
330
1
100
AcDbSymbolTableRecord
100
AcDbBlockTableRecord
  2
*D27
  0
BLOCK_RECORD
  5
719D
330
1
100
AcDbSymbolTableRecord
100
AcDbBlockTableRecord
  2
*D28
  0
BLOCK_RECORD
  5
7271
330
1
100
AcDbSymbolTableRecord
100
AcDbBlockTableRecord
  2
*D29
  0
BLOCK_RECORD
  5
72C6
330
1
100
AcDbSymbolTableRecord
100
AcDbBlockTableRecord
  2
*D30
  0
ENDTAB
  0
ENDSEC
  0
SECTION
  2
BLOCKS
  0
BLOCK
  5
1B
330
1A
100
AcDbEntity
  8
0
100
AcDbBlockBegin
  2
*MODEL_SPACE
 70
     0
 10
0.0
 20
0.0
 30
0.0
  3
*MODEL_SPACE
  1

  0
ENDBLK
  5
1C
330
1A
100
AcDbEntity
  8
0
100
AcDbBlockEnd
  0
BLOCK
  5
28FD
330
28FB
100
AcDbEntity
 67
     1
  8
0
 48
10.0
100
AcDbBlockBegin
  2
*PAPER_SPACE
 70
     0
 10
0.0
 20
0.0
 30
0.0
  3
*PAPER_SPACE
  1

  0
ENDBLK
  5
28FE
330
28FB
100
AcDbEntity
 67
     1
  8
0
 48
10.0
100
AcDbBlockEnd
  0
BLOCK
  5
93
330
65
100
AcDbEntity
  8
0
100
AcDbBlockBegin
  2
A$C3392
 70
     0
 10
0.0
 20
0.0
 30
0.0
  3
A$C3392
  1
A$C3392
  0
LINE
  5
66
330
65
100
AcDbEntity
  8
図枠太線
  6
CONTINUOUS
100
AcDbLine
 10
211.858584505185
 20
30.927375675439
 30
0.0
 11
211.858584505185
 21
0.927375675439
 31
0.0
  0
LINE
  5
67
330
65
100
AcDbEntity
  8
図枠細線
  6
CONTINUOUS
100
AcDbLine
 10
231.858592505185
 20
15.927377675439
 30
0.0
 11
287.858592505185
 21
15.927375675439
 31
0.0
  0
LINE
  5
68
330
65
100
AcDbEntity
  8
図枠細線
  6
CONTINUOUS
100
AcDbLine
 10
211.858592505185
 20
15.927377675439
 30
0.0
 11
231.858592505185
 21
15.927377675439
 31
0.0
  0
LINE
  5
69
330
65
100
AcDbEntity
  8
図枠太線
  6
CONTINUOUS
 62
   251
100
AcDbLine
 10
1.858584505185
 20
0.927375675439
 30
0.0
 11
1.858584505185
 21
275.927375675439
 31
0.0
  0
TEXT
  5
6A
330
65
100
AcDbEntity
  8
図枠細線
  6
CONTINUOUS
 62
   252
100
AcDbText
 10
351.358592505185
 20
28.427377675439
 30
0.0
 40
2.0
  1
ＴＩＴＬＥ
 41
0.903614457831
  7
EXCADSTD
 72
     5
 11
361.358592505185
 21
28.427377675439
 31
0.0
100
AcDbText
  0
TEXT
  5
6B
330
65
100
AcDbEntity
  8
図枠細線
  6
CONTINUOUS
 62
   252
100
AcDbText
 10
345.358592505185
 20
28.427377675439
 30
0.0
 40
2.0
  1
名称
 41
1.171875
  7
EXCADSTD
 72
     5
 11
350.358592505185
 21
28.427377675439
 31
0.0
100
AcDbText
  0
TEXT
  5
6C
330
65
100
AcDbEntity
  8
図枠細線
  6
CONTINUOUS
 62
   252
100
AcDbText
 10
274.358592505185
 20
25.927377675439
 30
0.0
 40
2.0
  1
ＤＲＡＷＮ
 41
0.882352941176
  7
EXCADSTD
 72
     5
 11
284.358592505185
 21
25.927377675439
 31
0.0
100
AcDbText
  0
TEXT
  5
6D
330
65
100
AcDbEntity
  8
図枠細線
  6
CONTINUOUS
 62
   252
100
AcDbText
 10
260.358592505185
 20
25.927377675439
 30
0.0
 40
2.0
  1
ＤＥＳＩＧＮＥＤ
 41
0.713043472041
  7
EXCADSTD
 72
     5
 11
273.478592390744
 21
25.927377675439
 31
0.0
100
AcDbText
  0
TEXT
  5
6E
330
65
100
AcDbEntity
  8
図枠細線
  6
CONTINUOUS
 62
   252
100
AcDbText
 10
246.358592505185
 20
25.927377675439
 30
0.0
 40
2.0
  1
ＣＨＥＣＫＥＤ
 41
0.831249989569
  7
EXCADSTD
 72
     5
 11
259.658592338292
 21
25.927377675439
 31
0.0
100
AcDbText
  0
TEXT
  5
6F
330
65
100
AcDbEntity
  8
図枠細線
  6
CONTINUOUS
 62
   252
100
AcDbText
 10
274.358592505185
 20
28.427377675439
 30
0.0
 40
2.0
  1
製図
 41
1.209677419355
  7
EXCADSTD
 72
     5
 11
279.358592505185
 21
28.427377675439
 31
0.0
100
AcDbText
  0
TEXT
  5
70
330
65
100
AcDbEntity
  8
図枠細線
  6
CONTINUOUS
 62
   252
100
AcDbText
 10
260.358592505185
 20
28.427377675439
 30
0.0
 40
2.0
  1
設計
 41
1.171875
  7
EXCADSTD
 72
     5
 11
265.358592505185
 21
28.427377675439
 31
0.0
100
AcDbText
  0
TEXT
  5
71
330
65
100
AcDbEntity
  8
図枠細線
  6
CONTINUOUS
 62
   252
100
AcDbText
 10
246.358592505185
 20
28.427377675439
 30
0.0
 40
2.0
  1
検図
 41
1.209677419355
  7
EXCADSTD
 72
     5
 11
251.358592505185
 21
28.427377675439
 31
0.0
100
AcDbText
  0
TEXT
  5
72
330
65
100
AcDbEntity
  8
図枠細線
  6
CONTINUOUS
 62
   252
100
AcDbText
 10
232.358592505185
 20
25.927377675439
 30
0.0
 40
2.0
  1
ＡＰＰＲＯＶＥＤ
 41
0.695652184279
  7
EXCADSTD
 72
     5
 11
245.15859269592
 21
25.927377675439
 31
0.0
100
AcDbText
  0
TEXT
  5
73
330
65
100
AcDbEntity
  8
図枠細線
  6
CONTINUOUS
 62
   252
100
AcDbText
 10
232.358592505185
 20
28.427377675439
 30
0.0
 40
2.0
  1
承認
 41
1.171875
  7
EXCADSTD
 72
     5
 11
237.358592505185
 21
28.427377675439
 31
0.0
100
AcDbText
  0
TEXT
  5
74
330
65
100
AcDbEntity
  8
図枠細線
  6
CONTINUOUS
 62
   252
100
AcDbText
 10
290.069888505185
 20
2.574868675439
 30
0.0
 40
3.5
  1
ＴＯＷＡ　ＳＥＩＤＥＮ　ＩＮＤＵＳＴＲＩＡＬ　ＣＯ．，ＬＴＤ．
 41
0.414568012377
  7
EXCADSTD
 72
     5
 11
342.692388209546
 21
2.574868675439
 31
0.0
100
AcDbText
  0
TEXT
  5
75
330
65
100
AcDbEntity
  8
図枠ロゴマーク
  6
CONTINUOUS
 62
   253
100
AcDbText
 10
290.107348505185
 20
7.519769675439
 30
0.0
 40
7.0
  1
東和制電工業株式会社
 41
0.639204545455
  7
EXCADSTD
 72
     5
 11
342.607348505185
 21
7.519769675439
 31
0.0
100
AcDbText
  0
TEXT
  5
76
330
65
100
AcDbEntity
  8
図枠細線
  6
CONTINUOUS
 62
   252
100
AcDbText
 10
232.499705505185
 20
5.759088675439
 30
0.0
 40
2.0
  1
ＰＲＯＪＥＣＴＩＯＮ
 41
0.754285710199
  7
EXCADSTD
 72
     5
 11
250.099705409817
 21
5.759088675439
 31
0.0
100
AcDbText
  0
TEXT
  5
77
330
65
100
AcDbEntity
  8
図枠細線
  6
CONTINUOUS
 62
   252
100
AcDbText
 10
232.574629505185
 20
8.681077675439
 30
0.0
 40
2.0
  1
ＴＨＩＲＤ　ＡＮＧＬＥ
 41
0.691099486738
  7
EXCADSTD
 72
     5
 11
250.174629767445
 21
8.681077675439
 31
0.0
100
AcDbText
  0
TEXT
  5
78
330
65
100
AcDbEntity
  8
図枠細線
  6
CONTINUOUS
 62
   252
100
AcDbText
 10
256.823999505185
 20
13.427377675439
 30
0.0
 40
2.0
  1
ＳＣＡＬＥ
 41
0.903614457831
  7
EXCADSTD
 72
     5
 11
266.823999505185
 21
13.427377675439
 31
0.0
100
AcDbText
  0
TEXT
  5
79
330
65
100
AcDbEntity
  8
図枠細線
  6
CONTINUOUS
 62
   252
100
AcDbText
 10
274.858592505185
 20
13.427377675439
 30
0.0
 40
2.0
  1
ＤＡＴＥ
 41
0.923076923077
  7
EXCADSTD
 72
     5
 11
282.858592505185
 21
13.427377675439
 31
0.0
100
AcDbText
  0
TEXT
  5
7A
330
65
100
AcDbEntity
  8
図枠細線
  6
CONTINUOUS
 62
   252
100
AcDbText
 10
356.358592505185
 20
13.427377675439
 30
0.0
 40
2.0
  1
ＤＲＧ．ＮＯ．
 41
0.9375
  7
EXCADSTD
 72
     5
 11
370.358592505185
 21
13.427377675439
 31
0.0
100
AcDbText
  0
TEXT
  5
7B
330
65
100
AcDbEntity
  8
図枠細線
  6
CONTINUOUS
 62
   252
100
AcDbText
 10
345.358592505185
 20
13.427377675439
 30
0.0
 40
2.0
  1
図面番号
 41
1.102941176471
  7
EXCADSTD
 72
     5
 11
355.358592505185
 21
13.427377675439
 31
0.0
100
AcDbText
  0
TEXT
  5
7C
330
65
100
AcDbEntity
  8
図枠細線
  6
CONTINUOUS
 62
   252
100
AcDbText
 10
269.358592505185
 20
13.427377675439
 30
0.0
 40
2.0
  1
日付
 41
1.171875
  7
EXCADSTD
 72
     5
 11
274.358592505185
 21
13.427377675439
 31
0.0
100
AcDbText
  0
TEXT
  5
7D
330
65
100
AcDbEntity
  8
図枠細線
  6
CONTINUOUS
 62
   252
100
AcDbText
 10
251.451512505185
 20
13.427377675439
 30
0.0
 40
2.0
  1
尺度
 41
1.171875
  7
EXCADSTD
 72
     5
 11
256.451512505185
 21
13.427377675439
 31
0.0
100
AcDbText
  0
TEXT
  5
7E
330
65
100
AcDbEntity
  8
図枠細線
  6
CONTINUOUS
 62
   252
100
AcDbText
 10
232.358592505185
 20
13.427377675439
 30
0.0
 40
2.0
  1
第三角法
 41
1.102941176471
  7
EXCADSTD
 72
     5
 11
242.358592505185
 21
13.427377675439
 31
0.0
100
AcDbText
  0
TEXT
  5
7F
330
65
100
AcDbEntity
  8
図枠細線
  6
CONTINUOUS
 62
   252
100
AcDbText
 10
212.358592505185
 20
28.427377675439
 30
0.0
 40
2.0
  1
ＮＯＴＥ
 41
0.923076923077
  7
EXCADSTD
 72
     5
 11
220.358592505185
 21
28.427377675439
 31
0.0
100
AcDbText
  0
LINE
  5
80
330
65
100
AcDbEntity
  8
図枠細線
  6
CONTINUOUS
 62
   252
100
AcDbLine
 10
287.858592505185
 20
23.427375675439
 30
0.0
 11
344.858592505185
 21
23.427375675439
 31
0.0
  0
LINE
  5
81
330
65
100
AcDbEntity
  8
図枠太線
  6
CONTINUOUS
 62
   251
100
AcDbLine
 10
287.858584505185
 20
15.927375675439
 30
0.0
 11
344.858592505185
 21
15.927375675439
 31
0.0
  0
LINE
  5
82
330
65
100
AcDbEntity
  8
図枠細線
  6
CONTINUOUS
 62
   252
100
AcDbLine
 10
344.858592505185
 20
15.927375675439
 30
0.0
 11
401.858584505185
 21
15.927375675439
 31
0.0
  0
LINE
  5
83
330
65
100
AcDbEntity
  8
図枠太線
  6
CONTINUOUS
 62
   251
100
AcDbLine
 10
344.858592505185
 20
0.927377675439
 30
0.0
 11
344.858592505185
 21
30.927375675439
 31
0.0
  0
LINE
  5
84
330
65
100
AcDbEntity
  8
図枠太線
  6
CONTINUOUS
 62
   251
100
AcDbLine
 10
287.858592505185
 20
0.927377675439
 30
0.0
 11
287.858592505185
 21
30.927375675439
 31
0.0
  0
LINE
  5
85
330
65
100
AcDbEntity
  8
図枠細線
  6
CONTINUOUS
 62
   252
100
AcDbLine
 10
268.858592505185
 20
0.927377675439
 30
0.0
 11
268.858592505185
 21
15.927375675439
 31
0.0
  0
LINE
  5
86
330
65
100
AcDbEntity
  8
図枠細線
  6
CONTINUOUS
 62
   252
100
AcDbLine
 10
250.858592505185
 20
0.927377675439
 30
0.0
 11
250.858592505185
 21
15.927375675439
 31
0.0
  0
LINE
  5
87
330
65
100
AcDbEntity
  8
図枠細線
  6
CONTINUOUS
 62
   252
100
AcDbLine
 10
273.858592505185
 20
30.927375675439
 30
0.0
 11
273.858592505185
 21
15.927375675439
 31
0.0
  0
LINE
  5
88
330
65
100
AcDbEntity
  8
図枠細線
  6
CONTINUOUS
 62
   252
100
AcDbLine
 10
259.858592505185
 20
30.927375675439
 30
0.0
 11
259.858592505185
 21
15.927375675439
 31
0.0
  0
LINE
  5
89
330
65
100
AcDbEntity
  8
図枠細線
  6
CONTINUOUS
 62
   252
100
AcDbLine
 10
245.858592505185
 20
30.927375675439
 30
0.0
 11
245.858592505185
 21
15.927375675439
 31
0.0
  0
LINE
  5
8A
330
65
100
AcDbEntity
  8
図枠太線
  6
CONTINUOUS
 62
   251
100
AcDbLine
 10
231.858592505185
 20
0.927377675439
 30
0.0
 11
231.858592505185
 21
30.927375675439
 31
0.0
  0
LINE
  5
8B
330
65
100
AcDbEntity
  8
図枠細線
  6
CONTINUOUS
 62
   252
100
AcDbLine
 10
211.858592505185
 20
25.927375675439
 30
0.0
 11
231.858592505185
 21
25.927375675439
 31
0.0
  0
LINE
  5
8C
330
65
100
AcDbEntity
  8
図枠細線
  6
CONTINUOUS
 62
   252
100
AcDbLine
 10
211.858592505185
 20
20.927375675439
 30
0.0
 11
231.858592505185
 21
20.927375675439
 31
0.0
  0
LINE
  5
8D
330
65
100
AcDbEntity
  8
図枠細線
  6
CONTINUOUS
 62
   252
100
AcDbLine
 10
211.858592505185
 20
10.927375675439
 30
0.0
 11
231.858592505185
 21
10.927375675439
 31
0.0
  0
LINE
  5
8E
330
65
100
AcDbEntity
  8
図枠細線
  6
CONTINUOUS
 62
   252
100
AcDbLine
 10
211.858592505185
 20
5.927377675439
 30
0.0
 11
231.858592505185
 21
5.927377675439
 31
0.0
  0
LINE
  5
8F
330
65
100
AcDbEntity
  8
図枠太線
  6
CONTINUOUS
 62
   251
100
AcDbLine
 10
211.858592505185
 20
30.927375675439
 30
0.0
 11
401.858584505185
 21
30.927375675439
 31
0.0
  0
LINE
  5
90
330
65
100
AcDbEntity
  8
図枠太線
  6
CONTINUOUS
 62
   251
100
AcDbLine
 10
1.858584505185
 20
275.927375675439
 30
0.0
 11
401.858584505185
 21
275.927375675439
 31
0.0
  0
LINE
  5
91
330
65
100
AcDbEntity
  8
図枠太線
  6
CONTINUOUS
 62
   251
100
AcDbLine
 10
401.858584505185
 20
0.927375675439
 30
0.0
 11
401.858584505185
 21
275.927375675439
 31
0.0
  0
LINE
  5
92
330
65
100
AcDbEntity
  8
図枠太線
  6
CONTINUOUS
 62
   251
100
AcDbLine
 10
1.858584505185
 20
0.927375675439
 30
0.0
 11
401.858584505185
 21
0.927375675439
 31
0.0
  0
ENDBLK
  5
94
330
65
100
AcDbEntity
  8
0
100
AcDbBlockEnd
  0
BLOCK
  5
29C0
330
29BF
100
AcDbEntity
  8
0
100
AcDbBlockBegin
  2
A4横用_タイトル
 70
     0
 10
0.0
 20
0.0
 30
0.0
  3
A4横用_タイトル
  1
A4横用_タイトル
  0
LINE
  5
29C1
330
29BF
100
AcDbEntity
  8
図枠細線
  6
CONTINUOUS
100
AcDbLine
 10
75.061011071051
 20
16.806607253358
 30
0.0
 11
144.061011071051
 21
16.806604789072
 31
0.0
  0
LINE
  5
29C2
330
29BF
100
AcDbEntity
  8
図枠細線
  6
CONTINUOUS
 62
   252
100
AcDbLine
 10
4.061011071051
 20
11.806606253358
 30
0.0
 11
75.061011071051
 21
11.806606253358
 31
0.0
  0
LINE
  5
29C3
330
29BF
100
AcDbEntity
  8
図枠細線
  6
CONTINUOUS
 62
   252
100
AcDbLine
 10
4.061011071051
 20
21.806606253358
 30
0.0
 11
75.061011071051
 21
21.806606253358
 31
0.0
  0
LINE
  5
29C4
330
29BF
100
AcDbEntity
  8
図枠細線
  6
CONTINUOUS
 62
   252
100
AcDbLine
 10
4.061011071051
 20
26.806606253358
 30
0.0
 11
75.061011071051
 21
26.806606253358
 31
0.0
  0
LINE
  5
29C5
330
29BF
100
AcDbEntity
  8
図枠細線
  6
CONTINUOUS
100
AcDbLine
 10
4.061011071051
 20
16.806608253358
 30
0.0
 11
75.061011071051
 21
16.806608253358
 31
0.0
  0
TEXT
  5
29C6
330
29BF
100
AcDbEntity
  8
図枠細線
  6
CONTINUOUS
 62
   252
100
AcDbText
 10
76.405475827713
 20
9.560308253358
 30
0.0
 40
2.0
  1
ＴＨＩＲＤ　ＡＮＧＬＥ
 41
0.691099486738
  7
EXCADSTD
 72
     5
 11
94.005476089973
 21
9.560308253358
 31
0.0
100
AcDbText
  0
TEXT
  5
29C7
330
29BF
100
AcDbEntity
  8
図枠細線
  6
CONTINUOUS
 62
   252
100
AcDbText
 10
76.705775880921
 20
14.306608253358
 30
0.0
 40
2.0
  1
第三角法
 41
1.102941176471
  7
EXCADSTD
 72
     5
 11
86.705775880921
 21
14.306608253358
 31
0.0
100
AcDbText
  0
TEXT
  5
29C8
330
29BF
100
AcDbEntity
  8
図枠細線
  6
CONTINUOUS
 62
   252
100
AcDbText
 10
76.705775880921
 20
26.806608253358
 30
0.0
 40
2.0
  1
ＡＰＰＲＯＶＥＤ
 41
0.695652184279
  7
EXCADSTD
 72
     5
 11
89.505776071656
 21
26.806608253358
 31
0.0
100
AcDbText
  0
TEXT
  5
29C9
330
29BF
100
AcDbEntity
  8
図枠細線
  6
CONTINUOUS
 62
   252
100
AcDbText
 10
76.705775880921
 20
29.306608253358
 30
0.0
 40
2.0
  1
承認
 41
1.171875
  7
EXCADSTD
 72
     5
 11
81.705775880921
 21
29.306608253358
 31
0.0
100
AcDbText
  0
LINE
  5
29CA
330
29BF
100
AcDbEntity
  8
図枠細線
  6
CONTINUOUS
 62
   252
100
AcDbLine
 10
98.061011071051
 20
31.806606253358
 30
0.0
 11
98.061011071051
 21
16.806606253358
 31
0.0
  0
TEXT
  5
29CB
330
29BF
100
AcDbEntity
  8
図枠細線
  6
CONTINUOUS
 62
   252
100
AcDbText
 10
104.216531119804
 20
14.306608253358
 30
0.0
 40
2.0
  1
ＳＣＡＬＥ
 41
0.903614457831
  7
EXCADSTD
 72
     5
 11
114.216531119804
 21
14.306608253358
 31
0.0
100
AcDbText
  0
TEXT
  5
29CC
330
29BF
100
AcDbEntity
  8
図枠細線
  6
CONTINUOUS
 62
   252
100
AcDbText
 10
98.844044119804
 20
14.306608253358
 30
0.0
 40
2.0
  1
尺度
 41
1.171875
  7
EXCADSTD
 72
     5
 11
103.844044119804
 21
14.306608253358
 31
0.0
100
AcDbText
  0
TEXT
  5
29CD
330
29BF
100
AcDbEntity
  8
図枠細線
  6
CONTINUOUS
 62
   252
100
AcDbText
 10
98.968727707497
 20
26.806608253358
 30
0.0
 40
2.0
  1
ＣＨＥＣＫＥＤ
 41
0.831249989569
  7
EXCADSTD
 72
     5
 11
112.268727540604
 21
26.806608253358
 31
0.0
100
AcDbText
  0
TEXT
  5
29CE
330
29BF
100
AcDbEntity
  8
図枠細線
  6
CONTINUOUS
 62
   252
100
AcDbText
 10
98.968727707497
 20
29.306608253358
 30
0.0
 40
2.0
  1
検図
 41
1.209677419355
  7
EXCADSTD
 72
     5
 11
103.968727707497
 21
29.306608253358
 31
0.0
100
AcDbText
  0
LINE
  5
29CF
330
29BF
100
AcDbEntity
  8
図枠細線
  6
CONTINUOUS
 62
   252
100
AcDbLine
 10
121.061011071051
 20
31.806606253358
 30
0.0
 11
121.061011071051
 21
16.806606253358
 31
0.0
  0
TEXT
  5
29D0
330
29BF
100
AcDbEntity
  8
図枠細線
  6
CONTINUOUS
 62
   252
100
AcDbText
 10
128.001465247253
 20
14.306608253358
 30
0.0
 40
2.0
  1
ＤＡＴＥ
 41
0.923076923077
  7
EXCADSTD
 72
     5
 11
136.001465247253
 21
14.306608253358
 31
0.0
100
AcDbText
  0
TEXT
  5
29D1
330
29BF
100
AcDbEntity
  8
図枠細線
  6
CONTINUOUS
 62
   252
100
AcDbText
 10
122.066415498841
 20
14.306608253358
 30
0.0
 40
2.0
  1
日付
 41
1.171875
  7
EXCADSTD
 72
     5
 11
127.066415498841
 21
14.306608253358
 31
0.0
100
AcDbText
  0
TEXT
  5
29D2
330
29BF
100
AcDbEntity
  8
図枠細線
  6
CONTINUOUS
 62
   252
100
AcDbText
 10
121.59429406571
 20
29.306608253358
 30
0.0
 40
2.0
  1
製図
 41
1.209677419355
  7
EXCADSTD
 72
     5
 11
126.59429406571
 21
29.306608253358
 31
0.0
100
AcDbText
  0
TEXT
  5
29D3
330
29BF
100
AcDbEntity
  8
図枠細線
  6
CONTINUOUS
 62
   252
100
AcDbText
 10
121.59429406571
 20
26.806608253358
 30
0.0
 40
2.0
  1
ＤＲＡＷＮ
 41
0.882352941176
  7
EXCADSTD
 72
     5
 11
131.59429406571
 21
26.806608253358
 31
0.0
100
AcDbText
  0
TEXT
  5
29D4
330
29BF
100
AcDbEntity
  8
図枠細線
  6
CONTINUOUS
 62
   252
100
AcDbText
 10
226.591229661348
 20
14.306608253358
 30
0.0
 40
2.0
  1
ＤＲＧ．ＮＯ．
 41
0.9375
  7
EXCADSTD
 72
     5
 11
240.591229661348
 21
14.306608253358
 31
0.0
100
AcDbText
  0
LINE
  5
29D5
330
29BF
100
AcDbEntity
  8
図枠太線
  6
CONTINUOUS
 62
   251
100
AcDbLine
 10
144.061003071051
 20
16.806606253358
 30
0.0
 11
214.061011071051
 21
16.806606253358
 31
0.0
  0
LINE
  5
29D6
330
29BF
100
AcDbEntity
  8
図枠細線
  6
CONTINUOUS
 62
   252
100
AcDbLine
 10
144.061011071051
 20
24.306606253358
 30
0.0
 11
214.061011071051
 21
24.306606253358
 31
0.0
  0
TEXT
  5
29D7
330
29BF
100
AcDbEntity
  8
図枠ロゴマーク
  6
CONTINUOUS
 62
   253
100
AcDbText
 10
146.433776781596
 20
8.399000253358
 30
0.0
 40
7.0
  1
東和制電工業株式会社
 41
0.80361088462
  7
EXCADSTD
 72
     5
 11
212.437017438349
 21
8.399000253358
 31
0.0
100
AcDbText
  0
TEXT
  5
29D8
330
29BF
100
AcDbEntity
  8
図枠細線
  6
CONTINUOUS
 62
   252
100
AcDbText
 10
215.156179912936
 20
14.306608253358
 30
0.0
 40
2.0
  1
図面番号
 41
1.102941176471
  7
EXCADSTD
 72
     5
 11
225.156179912936
 21
14.306608253358
 31
0.0
100
AcDbText
  0
TEXT
  5
29D9
330
29BF
100
AcDbEntity
  8
図枠細線
  6
CONTINUOUS
 62
   252
100
AcDbText
 10
221.591229661348
 20
29.306608253358
 30
0.0
 40
2.0
  1
ＴＩＴＬＥ
 41
0.903614457831
  7
EXCADSTD
 72
     5
 11
231.591229661348
 21
29.306608253358
 31
0.0
100
AcDbText
  0
TEXT
  5
29DA
330
29BF
100
AcDbEntity
  8
図枠細線
  6
CONTINUOUS
 62
   252
100
AcDbText
 10
215.156179912936
 20
29.306608253358
 30
0.0
 40
2.0
  1
名称
 41
1.171875
  7
EXCADSTD
 72
     5
 11
220.156179912936
 21
29.306608253358
 31
0.0
100
AcDbText
  0
LINE
  5
29DB
330
29BF
100
AcDbEntity
  8
図枠太線
  6
CONTINUOUS
 62
   251
100
AcDbLine
 10
4.061011071051
 20
1.806608253358
 30
0.0
 11
284.061011071051
 21
1.806608253358
 31
0.0
  0
LINE
  5
29DC
330
29BF
100
AcDbEntity
  8
図枠細線
  6
CONTINUOUS
 62
   252
100
AcDbLine
 10
4.061011071051
 20
6.806608253358
 30
0.0
 11
75.061011071051
 21
6.806608253358
 31
0.0
  0
LINE
  5
29DD
330
29BF
100
AcDbEntity
  8
図枠太線
  6
CONTINUOUS
 62
   251
100
AcDbLine
 10
75.061011071051
 20
1.806608253358
 30
0.0
 11
75.061011071051
 21
31.806606253358
 31
0.0
  0
TEXT
  5
29DE
330
29BF
100
AcDbEntity
  8
図枠細線
  6
CONTINUOUS
 62
   252
100
AcDbText
 10
76.330551827713
 20
6.638319253358
 30
0.0
 40
2.0
  1
ＰＲＯＪＥＣＴＩＯＮ
 41
0.754285710199
  7
EXCADSTD
 72
     5
 11
93.930551732346
 21
6.638319253358
 31
0.0
100
AcDbText
  0
LINE
  5
29DF
330
29BF
100
AcDbEntity
  8
図枠細線
  6
CONTINUOUS
 62
   252
100
AcDbLine
 10
98.061011071051
 20
1.806606931929
 30
0.0
 11
98.061011071051
 21
16.806604931929
 31
0.0
  0
LINE
  5
29E0
330
29BF
100
AcDbEntity
  8
図枠細線
  6
CONTINUOUS
 62
   252
100
AcDbLine
 10
121.061011071051
 20
1.806607574787
 30
0.0
 11
121.061011071051
 21
16.806605574787
 31
0.0
  0
LINE
  5
29E1
330
29BF
100
AcDbEntity
  8
図枠太線
  6
CONTINUOUS
 62
   251
100
AcDbLine
 10
284.061011071051
 20
1.806608253358
 30
0.0
 11
284.061011071051
 21
31.806606253358
 31
0.0
  0
LINE
  5
29E2
330
29BF
100
AcDbEntity
  8
図枠細線
  6
CONTINUOUS
 62
   252
100
AcDbLine
 10
214.061011071051
 20
16.806606253358
 30
0.0
 11
284.061011071051
 21
16.806606253358
 31
0.0
  0
TEXT
  5
29E3
330
29BF
100
AcDbEntity
  8
図枠細線
  6
CONTINUOUS
 62
   252
100
AcDbText
 10
146.199593676182
 20
3.454099253358
 30
0.0
 40
3.5
  1
ＴＯＷＡ　ＳＥＩＤＥＮ　ＩＮＤＵＳＴＲＩＡＬ　ＣＯ．，ＬＴＤ．
 41
0.528937826907
  7
EXCADSTD
 72
     5
 11
213.339435171588
 21
3.454099253358
 31
0.0
100
AcDbText
  0
LINE
  5
29E4
330
29BF
100
AcDbEntity
  8
図枠太線
  6
CONTINUOUS
 62
   251
100
AcDbLine
 10
144.061011071051
 20
1.806608253358
 30
0.0
 11
144.061011071051
 21
31.806606253358
 31
0.0
  0
LINE
  5
29E5
330
29BF
100
AcDbEntity
  8
図枠太線
  6
CONTINUOUS
 62
   251
100
AcDbLine
 10
214.061011071051
 20
1.806608253358
 30
0.0
 11
214.061011071051
 21
31.806606253358
 31
0.0
  0
MTEXT
  5
29E6
330
29BF
100
AcDbEntity
  8
図枠太線
100
AcDbMText
 10
5.064337346478
 20
31.010982137407
 30
0.0
 40
2.5
 41
8.67856098472
 71
     1
 72
     5
  1
{\Fmonotxt.shx,bigfont.shx|c128;図暦}
  0
LINE
  5
29E7
330
29BF
100
AcDbEntity
  8
図枠太線
  6
CONTINUOUS
 62
   251
100
AcDbLine
 10
4.061011071051
 20
1.806608253358
 30
0.0
 11
4.061011071051
 21
31.806606253358
 31
0.0
  0
TEXT
  5
29E8
330
29BF
100
AcDbEntity
  8
図枠細線
 48
10.0
100
AcDbText
 10
12.260817420402
 20
28.625419626495
 30
0.0
 40
2.0
  1
CHANGE NOTICE
100
AcDbText
  0
ENDBLK
  5
29E9
330
29BF
100
AcDbEntity
  8
0
100
AcDbBlockEnd
  0
BLOCK
  5
29F5
330
29F4
100
AcDbEntity
  8
0
100
AcDbBlockBegin
  2
A4縦用_タイトル
 70
     0
 10
0.0
 20
0.0
 30
0.0
  3
A4縦用_タイトル
  1
A4縦用_タイトル
  0
LINE
  5
29F6
330
29F4
100
AcDbEntity
  8
図枠太線
  6
CONTINUOUS
 62
   251
100
AcDbLine
 10
2.368253864267
 20
4.525433224584
 30
0.0
 11
192.368245864267
 21
4.525433224584
 31
0.0
  0
LINE
  5
29F7
330
29F4
100
AcDbEntity
  8
図枠太線
  6
CONTINUOUS
 62
   251
100
AcDbLine
 10
78.368245864267
 20
19.525431224584
 30
0.0
 11
135.368253864267
 21
19.525431224584
 31
0.0
  0
LINE
  5
29F8
330
29F4
100
AcDbEntity
  8
図枠細線
  6
CONTINUOUS
 62
   252
100
AcDbLine
 10
78.368253864267
 20
27.025431224584
 30
0.0
 11
135.368253864267
 21
27.025431224584
 31
0.0
  0
TEXT
  5
29F9
330
29F4
100
AcDbEntity
  8
図枠ロゴマーク
  6
CONTINUOUS
 62
   253
100
AcDbText
 10
80.617009864267
 20
11.117825224584
 30
0.0
 40
7.0
  1
東和制電工業株式会社
 41
0.639204545455
  7
EXCADSTD
 72
     5
 11
133.117009864267
 21
11.117825224584
 31
0.0
100
AcDbText
  0
TEXT
  5
29FA
330
29F4
100
AcDbEntity
  8
図枠細線
  6
CONTINUOUS
 62
   252
100
AcDbText
 10
80.579549864267
 20
6.172924224584
 30
0.0
 40
3.5
  1
ＴＯＷＡ　ＳＥＩＤＥＮ　ＩＮＤＵＳＴＲＩＡＬ　ＣＯ．，ＬＴＤ．
 41
0.414568012377
  7
EXCADSTD
 72
     5
 11
133.202049568628
 21
6.172924224584
 31
0.0
100
AcDbText
  0
LINE
  5
29FB
330
29F4
100
AcDbEntity
  8
図枠太線
  6
CONTINUOUS
 62
   251
100
AcDbLine
 10
2.368253864267
 20
4.525433224584
 30
0.0
 11
2.368253864267
 21
34.525431224584
 31
0.0
  0
TEXT
  5
29FC
330
29F4
100
AcDbEntity
  8
図枠細線
  6
CONTINUOUS
 62
   252
100
AcDbText
 10
22.504308136501
 20
12.279133224584
 30
0.0
 40
2.0
  1
ＴＨＩＲＤ　ＡＮＧＬＥ
 41
0.691099486738
  7
EXCADSTD
 72
     5
 11
40.104308398762
 21
12.279133224584
 31
0.0
100
AcDbText
  0
TEXT
  5
29FD
330
29F4
100
AcDbEntity
  8
図枠細線
  6
CONTINUOUS
 62
   252
100
AcDbText
 10
22.429384136501
 20
9.357144224584
 30
0.0
 40
2.0
  1
ＰＲＯＪＥＣＴＩＯＮ
 41
0.754285710199
  7
EXCADSTD
 72
     5
 11
40.029384041134
 21
9.357144224584
 31
0.0
100
AcDbText
  0
LINE
  5
29FE
330
29F4
100
AcDbEntity
  8
図枠細線
  6
CONTINUOUS
100
AcDbLine
 10
22.368253864267
 20
19.525433224584
 30
0.0
 11
78.368253864267
 21
19.525431224584
 31
0.0
  0
TEXT
  5
29FF
330
29F4
100
AcDbEntity
  8
図枠細線
  6
CONTINUOUS
 62
   252
100
AcDbText
 10
22.868253864267
 20
17.025433224584
 30
0.0
 40
2.0
  1
第三角法
 41
1.102941176471
  7
EXCADSTD
 72
     5
 11
32.868253864267
 21
17.025433224584
 31
0.0
100
AcDbText
  0
TEXT
  5
2A00
330
29F4
100
AcDbEntity
  8
図枠細線
  6
CONTINUOUS
 62
   252
100
AcDbText
 10
22.868253864267
 20
29.525433224584
 30
0.0
 40
2.0
  1
ＡＰＰＲＯＶＥＤ
 41
0.695652184279
  7
EXCADSTD
 72
     5
 11
35.668254055002
 21
29.525433224584
 31
0.0
100
AcDbText
  0
LINE
  5
2A01
330
29F4
100
AcDbEntity
  8
図枠細線
  6
CONTINUOUS
 62
   252
100
AcDbLine
 10
2.368253864267
 20
9.525433224584
 30
0.0
 11
22.368253864267
 21
9.525433224584
 31
0.0
  0
LINE
  5
2A02
330
29F4
100
AcDbEntity
  8
図枠細線
  6
CONTINUOUS
 62
   252
100
AcDbLine
 10
2.368253864267
 20
14.525431224584
 30
0.0
 11
22.368253864267
 21
14.525431224584
 31
0.0
  0
LINE
  5
2A03
330
29F4
100
AcDbEntity
  8
図枠細線
  6
CONTINUOUS
 62
   252
100
AcDbLine
 10
2.368253864267
 20
24.525431224584
 30
0.0
 11
22.368253864267
 21
24.525431224584
 31
0.0
  0
LINE
  5
2A04
330
29F4
100
AcDbEntity
  8
図枠細線
  6
CONTINUOUS
 62
   252
100
AcDbLine
 10
2.368253864267
 20
29.525431224584
 30
0.0
 11
22.368253864267
 21
29.525431224584
 31
0.0
  0
LINE
  5
2A05
330
29F4
100
AcDbEntity
  8
図枠細線
  6
CONTINUOUS
100
AcDbLine
 10
2.368253864267
 20
19.525433224584
 30
0.0
 11
22.368253864267
 21
19.525433224584
 31
0.0
  0
TEXT
  5
2A06
330
29F4
100
AcDbEntity
  8
図枠細線
  6
CONTINUOUS
 62
   252
100
AcDbText
 10
2.868253864267
 20
32.025433224584
 30
0.0
 40
2.0
  1
ＮＯＴＥ
 41
0.923076923077
  7
EXCADSTD
 72
     5
 11
10.868253864267
 21
32.025433224584
 31
0.0
100
AcDbText
  0
LINE
  5
2A07
330
29F4
100
AcDbEntity
  8
図枠太線
  6
CONTINUOUS
 62
   251
100
AcDbLine
 10
22.368253864267
 20
4.525433224584
 30
0.0
 11
22.368253864267
 21
34.525431224584
 31
0.0
  0
TEXT
  5
2A08
330
29F4
100
AcDbEntity
  8
図枠細線
  6
CONTINUOUS
 62
   252
100
AcDbText
 10
22.868253864267
 20
32.025433224584
 30
0.0
 40
2.0
  1
承認
 41
1.171875
  7
EXCADSTD
 72
     5
 11
27.868253864267
 21
32.025433224584
 31
0.0
100
AcDbText
  0
TEXT
  5
2A09
330
29F4
100
AcDbEntity
  8
図枠細線
  6
CONTINUOUS
 62
   252
100
AcDbText
 10
60.711709035982
 20
32.025433224584
 30
0.0
 40
2.0
  1
製図
 41
1.209677419355
  7
EXCADSTD
 72
     5
 11
65.711709035982
 21
32.025433224584
 31
0.0
100
AcDbText
  0
TEXT
  5
2A0A
330
29F4
100
AcDbEntity
  8
図枠細線
  6
CONTINUOUS
 62
   252
100
AcDbText
 10
60.711709035982
 20
29.525433224584
 30
0.0
 40
2.0
  1
ＤＲＡＷＮ
 41
0.882352941176
  7
EXCADSTD
 72
     5
 11
70.711709035982
 21
29.525433224584
 31
0.0
100
AcDbText
  0
TEXT
  5
2A0B
330
29F4
100
AcDbEntity
  8
図枠細線
  6
CONTINUOUS
 62
   252
100
AcDbText
 10
60.834891743877
 20
17.025433224584
 30
0.0
 40
2.0
  1
日付
 41
1.171875
  7
EXCADSTD
 72
     5
 11
65.834891743877
 21
17.025433224584
 31
0.0
100
AcDbText
  0
TEXT
  5
2A0C
330
29F4
100
AcDbEntity
  8
図枠細線
  6
CONTINUOUS
 62
   252
100
AcDbText
 10
47.333660864267
 20
17.025433224584
 30
0.0
 40
2.0
  1
ＳＣＡＬＥ
 41
0.903614457831
  7
EXCADSTD
 72
     5
 11
57.333660864267
 21
17.025433224584
 31
0.0
100
AcDbText
  0
TEXT
  5
2A0D
330
29F4
100
AcDbEntity
  8
図枠細線
  6
CONTINUOUS
 62
   252
100
AcDbText
 10
42.281425990082
 20
29.525433224584
 30
0.0
 40
2.0
  1
ＣＨＥＣＫＥＤ
 41
0.831249989569
  7
EXCADSTD
 72
     5
 11
55.581425823189
 21
29.525433224584
 31
0.0
100
AcDbText
  0
LINE
  5
2A0E
330
29F4
100
AcDbEntity
  8
図枠細線
  6
CONTINUOUS
 62
   252
100
AcDbLine
 10
40.968253864267
 20
34.525431224584
 30
0.0
 11
40.968253864267
 21
19.525431224584
 31
0.0
  0
LINE
  5
2A0F
330
29F4
100
AcDbEntity
  8
図枠細線
  6
CONTINUOUS
 62
   252
100
AcDbLine
 10
40.968253864267
 20
4.525433224584
 30
0.0
 11
40.968253864267
 21
19.525431224584
 31
0.0
  0
TEXT
  5
2A10
330
29F4
100
AcDbEntity
  8
図枠細線
  6
CONTINUOUS
 62
   252
100
AcDbText
 10
41.961173864267
 20
17.025433224584
 30
0.0
 40
2.0
  1
尺度
 41
1.171875
  7
EXCADSTD
 72
     5
 11
46.961173864267
 21
17.025433224584
 31
0.0
100
AcDbText
  0
TEXT
  5
2A11
330
29F4
100
AcDbEntity
  8
図枠細線
  6
CONTINUOUS
 62
   252
100
AcDbText
 10
42.281425990082
 20
32.025433224584
 30
0.0
 40
2.0
  1
検図
 41
1.209677419355
  7
EXCADSTD
 72
     5
 11
47.281425990082
 21
32.025433224584
 31
0.0
100
AcDbText
  0
LINE
  5
2A12
330
29F4
100
AcDbEntity
  8
図枠細線
  6
CONTINUOUS
 62
   252
100
AcDbLine
 10
59.768253864267
 20
34.525431224584
 30
0.0
 11
59.768253864267
 21
19.525431224584
 31
0.0
  0
LINE
  5
2A13
330
29F4
100
AcDbEntity
  8
図枠細線
  6
CONTINUOUS
 62
   252
100
AcDbLine
 10
59.768253864267
 20
4.525433224584
 30
0.0
 11
59.768253864267
 21
19.525431224584
 31
0.0
  0
LINE
  5
2A14
330
29F4
100
AcDbEntity
  8
図枠太線
  6
CONTINUOUS
 62
   251
100
AcDbLine
 10
78.368253864267
 20
4.525433224584
 30
0.0
 11
78.368253864267
 21
34.525431224584
 31
0.0
  0
TEXT
  5
2A15
330
29F4
100
AcDbEntity
  8
図枠細線
  6
CONTINUOUS
 62
   252
100
AcDbText
 10
66.334891743877
 20
17.025433224584
 30
0.0
 40
2.0
  1
ＤＡＴＥ
 41
0.923076923077
  7
EXCADSTD
 72
     5
 11
74.334891743877
 21
17.025433224584
 31
0.0
100
AcDbText
  0
LINE
  5
2A16
330
29F4
100
AcDbEntity
  8
図枠細線
  6
CONTINUOUS
 62
   252
100
AcDbLine
 10
135.368253864267
 20
19.525431224584
 30
0.0
 11
192.368245864267
 21
19.525431224584
 31
0.0
  0
TEXT
  5
2A17
330
29F4
100
AcDbEntity
  8
図枠細線
  6
CONTINUOUS
 62
   252
100
AcDbText
 10
141.868253864267
 20
32.025433224584
 30
0.0
 40
2.0
  1
ＴＩＴＬＥ
 41
0.903614457831
  7
EXCADSTD
 72
     5
 11
151.868253864267
 21
32.025433224584
 31
0.0
100
AcDbText
  0
LINE
  5
2A18
330
29F4
100
AcDbEntity
  8
図枠太線
  6
CONTINUOUS
 62
   251
100
AcDbLine
 10
135.368253864267
 20
4.525433224584
 30
0.0
 11
135.368253864267
 21
34.525431224584
 31
0.0
  0
TEXT
  5
2A19
330
29F4
100
AcDbEntity
  8
図枠細線
  6
CONTINUOUS
 62
   252
100
AcDbText
 10
135.868253864267
 20
17.025433224584
 30
0.0
 40
2.0
  1
図面番号
 41
1.102941176471
  7
EXCADSTD
 72
     5
 11
145.868253864267
 21
17.025433224584
 31
0.0
100
AcDbText
  0
TEXT
  5
2A1A
330
29F4
100
AcDbEntity
  8
図枠細線
  6
CONTINUOUS
 62
   252
100
AcDbText
 10
135.868253864267
 20
32.025433224584
 30
0.0
 40
2.0
  1
名称
 41
1.171875
  7
EXCADSTD
 72
     5
 11
140.868253864267
 21
32.025433224584
 31
0.0
100
AcDbText
  0
TEXT
  5
2A1B
330
29F4
100
AcDbEntity
  8
図枠細線
  6
CONTINUOUS
 62
   252
100
AcDbText
 10
146.868253864267
 20
17.025433224584
 30
0.0
 40
2.0
  1
ＤＲＧ．ＮＯ．
 41
0.9375
  7
EXCADSTD
 72
     5
 11
160.868253864267
 21
17.025433224584
 31
0.0
100
AcDbText
  0
LINE
  5
2A1C
330
29F4
100
AcDbEntity
  8
図枠太線
  6
CONTINUOUS
 62
   251
100
AcDbLine
 10
192.368245864267
 20
4.525433224584
 30
0.0
 11
192.368245864267
 21
34.525431224584
 31
0.0
  0
ENDBLK
  5
2A1D
330
29F4
100
AcDbEntity
  8
0
100
AcDbBlockEnd
  0
BLOCK
  5
2A33
330
2A32
100
AcDbEntity
  8
0
100
AcDbBlockBegin
  2
A3横用_タイトル
 70
     0
 10
0.0
 20
0.0
 30
0.0
  3
A3横用_タイトル
  1
A3横用_タイトル
  0
LINE
  5
2A34
330
2A32
100
AcDbEntity
  8
図枠細線
  6
CONTINUOUS
 62
   252
100
AcDbLine
 10
205.098414535793
 20
33.525959753527
 30
0.0
 11
305.098414535793
 21
33.525959753527
 31
0.0
  0
LINE
  5
2A35
330
2A32
100
AcDbEntity
  8
図枠太線
  6
CONTINUOUS
 62
   251
100
AcDbLine
 10
205.098414535793
 20
23.525959753527
 30
0.0
 11
305.098414535793
 21
23.525959753527
 31
0.0
  0
LINE
  5
2A36
330
2A32
100
AcDbEntity
  8
図枠細線
  6
CONTINUOUS
100
AcDbLine
 10
5.098414535793
 20
23.525959753527
 30
0.0
 11
105.098414535793
 21
23.525959753527
 31
0.0
  0
LINE
  5
2A37
330
2A32
100
AcDbEntity
  8
図枠細線
  6
CONTINUOUS
 62
   252
100
AcDbLine
 10
5.098414535793
 20
36.725957753527
 30
0.0
 11
105.098414535793
 21
36.725957753527
 31
0.0
  0
LINE
  5
2A38
330
2A32
100
AcDbEntity
  8
図枠細線
  6
CONTINUOUS
 62
   252
100
AcDbLine
 10
5.098414535793
 20
30.125957753527
 30
0.0
 11
105.098414535793
 21
30.125957753527
 31
0.0
  0
LINE
  5
2A39
330
2A32
100
AcDbEntity
  8
図枠細線
  6
CONTINUOUS
 62
   252
100
AcDbLine
 10
5.098414535793
 20
16.725959753527
 30
0.0
 11
105.098414535793
 21
16.725959753527
 31
0.0
  0
LINE
  5
2A3A
330
2A32
100
AcDbEntity
  8
図枠細線
  6
CONTINUOUS
 62
   252
100
AcDbLine
 10
5.098414535793
 20
10.125959753527
 30
0.0
 11
105.098414535793
 21
10.125959753527
 31
0.0
  0
LINE
  5
2A3B
330
2A32
100
AcDbEntity
  8
図枠細線
  6
CONTINUOUS
100
AcDbLine
 10
105.098414535793
 20
23.525961753527
 30
0.0
 11
205.098414535793
 21
23.525959753527
 31
0.0
  0
LINE
  5
2A3C
330
2A32
100
AcDbEntity
  8
図枠細線
  6
CONTINUOUS
 62
   252
100
AcDbLine
 10
138.398414535793
 20
43.525959753527
 30
0.0
 11
138.398414535793
 21
18.525957753527
 31
0.0
  0
LINE
  5
2A3D
330
2A32
100
AcDbEntity
  8
図枠細線
  6
CONTINUOUS
 62
   252
100
AcDbLine
 10
171.698414535793
 20
43.525959753527
 30
0.0
 11
171.698414535793
 21
18.525957753527
 31
0.0
  0
LINE
  5
2A3E
330
2A32
100
AcDbEntity
  8
図枠細線
  6
CONTINUOUS
 62
   252
100
AcDbLine
 10
305.098414535793
 20
23.525959753527
 30
0.0
 11
405.098414535793
 21
23.525959753527
 31
0.0
  0
TEXT
  5
2A3F
330
2A32
100
AcDbEntity
  8
図枠ロゴマーク
  6
CONTINUOUS
 62
   253
100
AcDbText
 10
206.102509212755
 20
13.294257570546
 30
0.0
 40
7.0
  1
東和制電工業株式会社
 50
0.016555220185
 41
1.186384129432
  7
EXCADSTD
 72
     5
 11
303.544188309143
 21
13.322412672217
 31
0.0
100
AcDbText
  0
MTEXT
  5
2A40
330
2A32
100
AcDbEntity
  8
図枠細線
100
AcDbMText
 10
6.356764112375
 20
41.976594175478
 30
0.0
 40
2.5
 41
49.938282706292
 71
     1
 72
     5
  1
{\Fmonotxt.shx,bigfont.shx|c128;図暦　CHANGE　NOTICE}
  0
MTEXT
  5
2A41
330
2A32
100
AcDbEntity
  8
図枠細線
 48
10.0
100
AcDbMText
 10
306.544114926828
 20
41.701835800934
 30
0.0
 40
2.5
 41
28.002809618823
 71
     1
 72
     5
  1
{\Fmonotxt.shx,bigfont.shx|c128;名称　TITLE}
  0
MTEXT
  5
2A42
330
2A32
100
AcDbEntity
  8
図枠細線
 48
10.0
100
AcDbMText
 10
307.329617114284
 20
21.606206797226
 30
0.0
 40
2.5
 41
24.385612216707
 71
     1
 72
     5
  1
{\Fmonotxt.shx,bigfont.shx|c128;図面番号\PDRG.　No.}
  0
MTEXT
  5
2A43
330
2A32
100
AcDbEntity
  8
図枠細線
 48
10.0
100
AcDbMText
 10
173.726349404609
 20
21.73680662198
 30
0.0
 40
2.5
 41
25.735090160813
 71
     1
 72
     5
  1
{\Fmonotxt.shx,bigfont.shx|c128;日付 DATE}
  0
MTEXT
  5
2A44
330
2A32
100
AcDbEntity
  8
図枠細線
 48
10.0
100
AcDbMText
 10
173.48708833982
 20
41.621592044998
 30
0.0
 40
2.5
 41
24.983741184205
 71
     1
 72
     5
  1
{\Fmonotxt.shx,bigfont.shx|c128;製図　DRAWN}
  0
MTEXT
  5
2A45
330
2A32
100
AcDbEntity
  8
図枠細線
 48
10.0
100
AcDbMText
 10
139.28009927741
 20
21.866713069868
 30
0.0
 40
2.5
 41
22.629632913243
 71
     1
 72
     5
  1
{\Fmonotxt.shx,bigfont.shx|c128;尺度　SCALE}
  0
MTEXT
  5
2A46
330
2A32
100
AcDbEntity
  8
図枠細線
 48
10.0
100
AcDbMText
 10
139.910091179835
 20
41.311840415554
 30
0.0
 40
2.5
 41
28.998753428368
 71
     1
 72
     5
  1
{\Fmonotxt.shx,bigfont.shx|c128;検図  CHECKED}
  0
MTEXT
  5
2A47
330
2A32
100
AcDbEntity
  8
図枠細線
 48
10.0
100
AcDbMText
 10
114.253294667728
 20
21.916124850174
 30
0.0
 40
3.0
 41
19.692400475383
 71
     1
 72
     5
  1
{\Fmonotxt.shx,bigfont.shx|c128;第三角法}
  0
MTEXT
  5
2A48
330
2A32
100
AcDbEntity
  8
図枠細線
 48
10.0
100
AcDbMText
 10
108.986959929915
 20
15.282880185837
 30
0.0
 40
2.5
 41
27.954882823547
 71
     1
 72
     5
  1
{\Fmonotxt.shx,bigfont.shx|c128;THIRD ANGLE\PPROJECTION}
  0
MTEXT
  5
2A49
330
2A32
100
AcDbEntity
  8
図枠細線
 48
10.0
100
AcDbMText
 10
106.319432640184
 20
41.511437145487
 30
0.0
 40
2.5
 41
28.233595265074
 71
     1
 72
     5
  1
{\Fmonotxt.shx,bigfont.shx|c128;承認 APPROVED}
  0
LINE
  5
2A4A
330
2A32
100
AcDbEntity
  8
図枠太線
  6
CONTINUOUS
 62
   251
100
AcDbLine
 10
5.098414535793
 20
3.525959753527
 30
0.0
 11
405.098414535793
 21
3.525959753527
 31
0.0
  0
LINE
  5
2A4B
330
2A32
100
AcDbEntity
  8
図枠太線
 48
10.0
100
AcDbLine
 10
5.098414535793
 20
3.525959753527
 30
0.0
 11
5.098414535793
 21
43.525959753527
 31
0.0
  0
LINE
  5
2A4C
330
2A32
100
AcDbEntity
  8
図枠太線
  6
CONTINUOUS
 62
   251
100
AcDbLine
 10
105.098414535793
 20
3.525959753527
 30
0.0
 11
105.098414535793
 21
43.525959753527
 31
0.0
  0
LINE
  5
2A4D
330
2A32
100
AcDbEntity
  8
図枠細線
  6
CONTINUOUS
 62
   252
100
AcDbLine
 10
138.398414535793
 20
3.525959753527
 30
0.0
 11
138.398414535793
 21
18.525957753527
 31
0.0
  0
LINE
  5
2A4E
330
2A32
100
AcDbEntity
  8
図枠細線
  6
CONTINUOUS
 62
   252
100
AcDbLine
 10
171.698414535793
 20
3.525959753527
 30
0.0
 11
171.698414535793
 21
18.525957753527
 31
0.0
  0
LINE
  5
2A4F
330
2A32
100
AcDbEntity
  8
図枠太線
  6
CONTINUOUS
 62
   251
100
AcDbLine
 10
205.098414535793
 20
3.525959753527
 30
0.0
 11
205.098414535793
 21
43.525959753527
 31
0.0
  0
LINE
  5
2A50
330
2A32
100
AcDbEntity
  8
図枠太線
 48
10.0
100
AcDbLine
 10
405.098414535793
 20
43.525959753527
 30
0.0
 11
405.098414535793
 21
3.525959753527
 31
0.0
  0
TEXT
  5
2A51
330
2A32
100
AcDbEntity
  8
図枠細線
  6
CONTINUOUS
 62
   252
100
AcDbText
 10
208.519754474572
 20
6.482358407285
 30
0.0
 40
3.5
  1
ＴＯＷＡ　ＳＥＩＤＥＮ　ＩＮＤＵＳＴＲＩＡＬ　ＣＯ．，ＬＴＤ．
 41
0.746656297509
  7
EXCADSTD
 72
     5
 11
303.295327171727
 21
6.482358407285
 31
0.0
100
AcDbText
  0
LINE
  5
2A52
330
2A32
100
AcDbEntity
  8
図枠太線
  6
CONTINUOUS
 62
   251
100
AcDbLine
 10
305.098414535793
 20
3.525959753527
 30
0.0
 11
305.098414535793
 21
43.525959753527
 31
0.0
  0
ENDBLK
  5
2A53
330
2A32
100
AcDbEntity
  8
0
100
AcDbBlockEnd
  0
BLOCK
  5
2A6D
330
2A6C
100
AcDbEntity
  8
0
100
AcDbBlockBegin
  2
A3縦用_タイトル
 70
     0
 10
0.0
 20
0.0
 30
0.0
  3
A3縦用_タイトル
  1
A3縦用_タイトル
  0
MTEXT
  5
2A6E
330
2A6C
100
AcDbEntity
  8
図枠細線
100
AcDbMText
 10
5.040804501593
 20
31.626098649005
 30
0.0
 40
2.5
 41
49.938282706292
 71
     1
 72
     5
  1
{\Fmonotxt.shx,bigfont.shx|c128;図暦　CHANGE　NOTICE}
  0
LINE
  5
2A6F
330
2A6C
100
AcDbEntity
  8
図枠太線
  6
CONTINUOUS
 62
   251
100
AcDbLine
 10
283.577871882961
 20
2.820844689254
 30
0.0
 11
283.577871882961
 21
32.820842689254
 31
0.0
  0
MTEXT
  5
2A70
330
2A6C
100
AcDbEntity
  8
図枠細線
 48
10.0
100
AcDbMText
 10
214.912458947454
 20
31.621488632308
 30
0.0
 40
2.5
 41
28.002809618823
 71
     1
 72
     5
  1
{\Fmonotxt.shx,bigfont.shx|c128;名称　TITLE}
  0
MTEXT
  5
2A71
330
2A6C
100
AcDbEntity
  8
図枠細線
 48
10.0
100
AcDbMText
 10
214.740030458938
 20
16.310225796722
 30
0.0
 40
2.5
 41
24.385612216707
 71
     1
 72
     5
  1
{\Fmonotxt.shx,bigfont.shx|c128;図面番号\PDRG.　No.}
  0
LINE
  5
2A72
330
2A6C
100
AcDbEntity
  8
図枠太線
  6
CONTINUOUS
 62
   251
100
AcDbLine
 10
213.577871882961
 20
2.820844689254
 30
0.0
 11
213.577871882961
 21
32.820842689254
 31
0.0
  0
LINE
  5
2A73
330
2A6C
100
AcDbEntity
  8
図枠太線
  6
CONTINUOUS
 62
   251
100
AcDbLine
 10
143.577871882961
 20
2.820844689254
 30
0.0
 11
143.577871882961
 21
32.820842689254
 31
0.0
  0
TEXT
  5
2A74
330
2A6C
100
AcDbEntity
  8
図枠細線
  6
CONTINUOUS
 62
   252
100
AcDbText
 10
145.716454488093
 20
4.468335689254
 30
0.0
 40
3.5
  1
ＴＯＷＡ　ＳＥＩＤＥＮ　ＩＮＤＵＳＴＲＩＡＬ　ＣＯ．，ＬＴＤ．
 41
0.528937826907
  7
EXCADSTD
 72
     5
 11
212.856295983498
 21
4.468335689254
 31
0.0
100
AcDbText
  0
TEXT
  5
2A75
330
2A6C
100
AcDbEntity
  8
図枠ロゴマーク
  6
CONTINUOUS
 62
   253
100
AcDbText
 10
145.950637593507
 20
9.413236689254
 30
0.0
 40
7.0
  1
東和制電工業株式会社
 41
0.80361088462
  7
EXCADSTD
 72
     5
 11
211.953878250259
 21
9.413236689254
 31
0.0
100
AcDbText
  0
LINE
  5
2A76
330
2A6C
100
AcDbEntity
  8
図枠細線
  6
CONTINUOUS
 62
   252
100
AcDbLine
 10
143.577871882961
 20
25.320842689254
 30
0.0
 11
213.577871882961
 21
25.320842689254
 31
0.0
  0
LINE
  5
2A77
330
2A6C
100
AcDbEntity
  8
図枠太線
  6
CONTINUOUS
 62
   251
100
AcDbLine
 10
143.577863882961
 20
17.820842689254
 30
0.0
 11
213.577871882961
 21
17.820842689254
 31
0.0
  0
LINE
  5
2A78
330
2A6C
100
AcDbEntity
  8
図枠細線
  6
CONTINUOUS
 62
   252
100
AcDbLine
 10
213.577871882961
 20
17.820842689254
 30
0.0
 11
283.577871882961
 21
17.820842689254
 31
0.0
  0
LINE
  5
2A79
330
2A6C
100
AcDbEntity
  8
図枠細線
  6
CONTINUOUS
 62
   252
100
AcDbLine
 10
120.577871882961
 20
32.820842689254
 30
0.0
 11
120.577871882961
 21
17.820842689254
 31
0.0
  0
MTEXT
  5
2A7A
330
2A6C
100
AcDbEntity
  8
図枠細線
 48
10.0
100
AcDbMText
 10
121.100885670352
 20
16.33785922638
 30
0.0
 40
2.0
 41
17.705978285068
 71
     1
 72
     5
  1
{\Fmonotxt.shx,bigfont.shx|c128;日付 DATE}
  0
MTEXT
  5
2A7B
330
2A6C
100
AcDbEntity
  8
図枠細線
 48
10.0
100
AcDbMText
 10
121.254842273491
 20
31.208993514037
 30
0.0
 40
2.0
 41
18.363799568758
 71
     1
 72
     5
  1
{\Fmonotxt.shx,bigfont.shx|c128;製図　DRAWN}
  0
LINE
  5
2A7C
330
2A6C
100
AcDbEntity
  8
図枠細線
  6
CONTINUOUS
 62
   252
100
AcDbLine
 10
97.577871882961
 20
32.820842689254
 30
0.0
 11
97.577871882961
 21
17.820842689254
 31
0.0
  0
MTEXT
  5
2A7D
330
2A6C
100
AcDbEntity
  8
図枠細線
 48
10.0
100
AcDbMText
 10
98.239734796872
 20
16.467764839281
 30
0.0
 40
2.0
 41
17.757791689903
 71
     1
 72
     5
  1
{\Fmonotxt.shx,bigfont.shx|c128;尺度　SCALE}
  0
MTEXT
  5
2A7E
330
2A6C
100
AcDbEntity
  8
図枠細線
 48
10.0
100
AcDbMText
 10
97.864744625154
 20
31.298433377664
 30
0.0
 40
2.0
 41
23.162655920976
 71
     1
 72
     5
  1
{\Fmonotxt.shx,bigfont.shx|c128;検図  CHECKED}
  0
LINE
  5
2A7F
330
2A6C
100
AcDbEntity
  8
図枠細線
  6
CONTINUOUS
 62
   252
100
AcDbLine
 10
97.577871882961
 20
2.820843367826
 30
0.0
 11
97.577871882961
 21
17.820841367826
 31
0.0
  0
LINE
  5
2A80
330
2A6C
100
AcDbEntity
  8
図枠細線
  6
CONTINUOUS
 62
   252
100
AcDbLine
 10
120.577871882961
 20
2.820844010683
 30
0.0
 11
120.577871882961
 21
17.820842010683
 31
0.0
  0
MTEXT
  5
2A81
330
2A6C
100
AcDbEntity
  8
図枠細線
 48
10.0
100
AcDbMText
 10
81.402399084102
 20
16.316484117426
 30
0.0
 40
2.0
 41
12.920322819369
 71
     1
 72
     5
  1
{\Fmonotxt.shx,bigfont.shx|c128;第三角法}
  0
MTEXT
  5
2A82
330
2A6C
100
AcDbEntity
  8
図枠細線
 48
10.0
100
AcDbMText
 10
75.736576535096
 20
11.080410931319
 30
0.0
 40
2.0
 41
21.072870671471
 71
     1
 72
     5
  1
{\Fmonotxt.shx,bigfont.shx|c128;THIRD ANGLE\PPROJECTION}
  0
LINE
  5
2A83
330
2A6C
100
AcDbEntity
  8
図枠太線
  6
CONTINUOUS
 62
   251
100
AcDbLine
 10
74.577871882961
 20
2.820844689254
 30
0.0
 11
74.577871882961
 21
32.820842689254
 31
0.0
  0
MTEXT
  5
2A84
330
2A6C
100
AcDbEntity
  8
図枠細線
 48
10.0
100
AcDbMText
 10
75.060214781573
 20
31.298434778555
 30
0.0
 40
2.0
 41
22.240928805967
 71
     1
 72
     5
  1
{\Fmonotxt.shx,bigfont.shx|c128;承認 APPROVED}
  0
LINE
  5
2A85
330
2A6C
100
AcDbEntity
  8
図枠細線
  6
CONTINUOUS
100
AcDbLine
 10
3.577871882961
 20
17.820844689254
 30
0.0
 11
74.577871882961
 21
17.820844689254
 31
0.0
  0
LINE
  5
2A86
330
2A6C
100
AcDbEntity
  8
図枠細線
  6
CONTINUOUS
 62
   252
100
AcDbLine
 10
3.577871882961
 20
27.820842689254
 30
0.0
 11
74.577871882961
 21
27.820842689254
 31
0.0
  0
LINE
  5
2A87
330
2A6C
100
AcDbEntity
  8
図枠細線
  6
CONTINUOUS
 62
   252
100
AcDbLine
 10
3.577871882961
 20
22.820842689254
 30
0.0
 11
74.577871882961
 21
22.820842689254
 31
0.0
  0
LINE
  5
2A88
330
2A6C
100
AcDbEntity
  8
図枠細線
  6
CONTINUOUS
 62
   252
100
AcDbLine
 10
3.577871882961
 20
12.820842689254
 30
0.0
 11
74.577871882961
 21
12.820842689254
 31
0.0
  0
LINE
  5
2A89
330
2A6C
100
AcDbEntity
  8
図枠細線
  6
CONTINUOUS
 62
   252
100
AcDbLine
 10
3.577871882961
 20
7.820844689254
 30
0.0
 11
74.577871882961
 21
7.820844689254
 31
0.0
  0
LINE
  5
2A8A
330
2A6C
100
AcDbEntity
  8
図枠細線
  6
CONTINUOUS
100
AcDbLine
 10
74.577871882961
 20
17.820843689254
 30
0.0
 11
143.577871882961
 21
17.820841224969
 31
0.0
  0
LINE
  5
2A8B
330
2A6C
100
AcDbEntity
  8
図枠太線
  6
CONTINUOUS
 62
   251
100
AcDbLine
 10
3.577871882961
 20
2.820844689254
 30
0.0
 11
283.577871882961
 21
2.820844689254
 31
0.0
  0
LINE
  5
2A8C
330
2A6C
100
AcDbEntity
  8
図枠太線
  6
CONTINUOUS
 62
   251
100
AcDbLine
 10
3.577871882961
 20
2.820844689254
 30
0.0
 11
3.577871882961
 21
32.820842689254
 31
0.0
  0
ENDBLK
  5
2A8D
330
2A6C
100
AcDbEntity
  8
0
100
AcDbBlockEnd
  0
BLOCK
  5
2AF8
330
2AF4
100
AcDbEntity
  8
0
 48
10.0
100
AcDbBlockBegin
  2
_OPEN30
 70
     0
 10
0.0
 20
0.0
 30
0.0
  3
_OPEN30
  1
_OPEN30
  0
LINE
  5
2AF5
330
2AF4
100
AcDbEntity
  8
0
  6
BYBLOCK
 62
     0
100
AcDbLine
 10
-1.0
 20
0.26794919
 30
0.0
 11
0.0
 21
0.0
 31
0.0
  0
LINE
  5
2AF6
330
2AF4
100
AcDbEntity
  8
0
  6
BYBLOCK
 62
     0
100
AcDbLine
 10
0.0
 20
0.0
 30
0.0
 11
-1.0
 21
-0.26794919
 31
0.0
  0
LINE
  5
2AF7
330
2AF4
100
AcDbEntity
  8
0
  6
BYBLOCK
 62
     0
100
AcDbLine
 10
0.0
 20
0.0
 30
0.0
 11
-1.0
 21
0.0
 31
0.0
  0
ENDBLK
  5
2AF9
330
2AF4
100
AcDbEntity
  8
0
 48
10.0
100
AcDbBlockEnd
  0
BLOCK
  5
3025
330
3024
100
AcDbEntity
  8
0
 48
10.0
100
AcDbBlockBegin
  2
パドル_W1
 70
     0
 10
0.0
 20
0.0
 30
0.0
  3
パドル_W1
  1
パドル_W1
  0
LINE
  5
3026
330
3024
100
AcDbEntity
  8
中心線
 48
10.0
100
AcDbLine
 10
124.6832879095
 20
220.674073777677
 30
0.0
 11
131.9189439095
 21
220.674073777677
 31
0.0
  0
LINE
  5
3027
330
3024
100
AcDbEntity
  8
外形線
 48
10.0
100
AcDbLine
 10
58.3011159095
 20
260.651761921811
 30
0.0
 11
58.3011159095
 21
180.651761921811
 31
0.0
  0
LINE
  5
3028
330
3024
100
AcDbEntity
  8
外形線
 48
10.0
100
AcDbLine
 10
58.3011159095
 20
180.651761921811
 30
0.0
 11
123.3011159095
 21
180.651761921811
 31
0.0
  0
LINE
  5
3029
330
3024
100
AcDbEntity
  8
外形線
 48
10.0
100
AcDbLine
 10
138.3011159095
 20
208.651761921811
 30
0.0
 11
138.3011159095
 21
212.376811207105
 31
0.0
  0
LINE
  5
302A
330
3024
100
AcDbEntity
  8
外形線
 48
10.0
100
AcDbLine
 10
123.3011159095
 20
260.651761921811
 30
0.0
 11
58.3011159095
 21
260.651761921811
 31
0.0
  0
LINE
  5
302B
330
3024
100
AcDbEntity
  8
外形線
 48
10.0
100
AcDbLine
 10
138.3011159095
 20
232.651761921811
 30
0.0
 11
123.3011159095
 21
260.651761921811
 31
0.0
  0
LINE
  5
302C
330
3024
100
AcDbEntity
  8
外形線
 48
10.0
100
AcDbLine
 10
138.3011159095
 20
208.651761921811
 30
0.0
 11
123.3011159095
 21
180.651761921811
 31
0.0
  0
LINE
  5
302D
330
3024
100
AcDbEntity
  8
外形線
 48
10.0
100
AcDbLine
 10
153.3011159095
 20
212.376811207105
 30
0.0
 11
153.3011159095
 21
228.941629207105
 31
0.0
  0
LINE
  5
302E
330
3024
100
AcDbEntity
  8
外形線
100
AcDbLine
 10
125.0147379095
 20
212.376811207105
 30
0.0
 11
153.3011159095
 21
212.376811207105
 31
0.0
  0
LINE
  5
302F
330
3024
100
AcDbEntity
  8
細線
100
AcDbLine
 10
153.2891519095
 20
216.518045207105
 30
0.0
 11
124.6692799095
 21
216.518045207105
 31
0.0
  0
LINE
  5
3030
330
3024
100
AcDbEntity
  8
外形線
100
AcDbLine
 10
125.0147379095
 20
228.941629207105
 30
0.0
 11
123.3011159095
 21
227.228007207105
 31
0.0
  0
ARC
  5
3031
330
3024
100
AcDbEntity
  8
細線
100
AcDbCircle
 10
126.4810479095
 20
227.420755207105
 30
0.0
 40
3.18575
100
AcDbArc
 50
183.469852255156
 51
235.339263082109
  0
LINE
  5
3032
330
3024
100
AcDbEntity
  8
細線
100
AcDbLine
 10
153.2891519095
 20
224.800395207105
 30
0.0
 11
124.6692799095
 21
224.800395207105
 31
0.0
  0
ARC
  5
3033
330
3024
100
AcDbEntity
  8
細線
100
AcDbCircle
 10
126.4810479095
 20
213.897685207105
 30
0.0
 40
3.18575
100
AcDbArc
 50
124.660776613574
 51
176.530130144749
  0
LINE
  5
3034
330
3024
100
AcDbEntity
  8
外形線
100
AcDbLine
 10
123.3011159095
 20
227.228007207105
 30
0.0
 11
123.3011159095
 21
214.090433207105
 31
0.0
  0
CIRCLE
  5
3035
330
3024
100
AcDbEntity
  8
外形線
100
AcDbCircle
 10
128.3011159095
 20
220.674073777677
 30
0.0
 40
2.28479
  0
ARC
  5
3036
330
3024
100
AcDbEntity
  8
細線
100
AcDbCircle
 10
130.2525019095
 20
220.659219207105
 30
0.0
 40
6.951389999999999
100
AcDbArc
 50
143.43540034864
 51
216.564582051267
  0
LINE
  5
3037
330
3024
100
AcDbEntity
  8
中心線
 48
10.0
100
AcDbLine
 10
128.3011159095
 20
224.291901777677
 30
0.0
 11
128.3011159095
 21
217.056245777676
 31
0.0
  0
LINE
  5
3038
330
3024
100
AcDbEntity
  8
外形線
100
AcDbLine
 10
125.0147379095
 20
212.376811207105
 30
0.0
 11
123.3011159095
 21
214.090433207105
 31
0.0
  0
LINE
  5
3039
330
3024
100
AcDbEntity
  8
外形線
100
AcDbLine
 10
125.0147379095
 20
228.941629207105
 30
0.0
 11
153.3011159095
 21
228.941629207105
 31
0.0
  0
LINE
  5
303A
330
3024
100
AcDbEntity
  8
外形線
 48
10.0
100
AcDbLine
 10
138.3011159095
 20
228.941629207105
 30
0.0
 11
138.3011159095
 21
232.651761921811
 31
0.0
  0
ENDBLK
  5
303B
330
3024
100
AcDbEntity
  8
0
 48
10.0
100
AcDbBlockEnd
  0
BLOCK
  5
3055
330
3054
100
AcDbEntity
  8
0
 48
10.0
100
AcDbBlockBegin
  2
パドル_W1立面図
 70
     0
 10
0.0
 20
0.0
 30
0.0
  3
パドル_W1立面図
  1
パドル_W1立面図
  0
LINE
  5
3056
330
3054
100
AcDbEntity
  8
外形線
 48
10.0
100
AcDbLine
 10
-4.385455455444
 20
189.61846140322
 30
0.0
 11
-7.241459969979
 21
189.61846140322
 31
0.0
  0
LINE
  5
3057
330
3054
100
AcDbEntity
  8
外形線
 48
10.0
100
AcDbLine
 10
-4.385455455444
 20
269.61846140322
 30
0.0
 11
-7.241459969979
 21
269.61846140322
 31
0.0
  0
LINE
  5
3058
330
3054
100
AcDbEntity
  8
外形線
 48
10.0
100
AcDbLine
 10
-4.385455455444
 20
189.61846140322
 30
0.0
 11
-4.385455455444
 21
269.61846140322
 31
0.0
  0
LINE
  5
3059
330
3054
100
AcDbEntity
  8
外形線
 48
10.0
100
AcDbLine
 10
-7.241459969979
 20
269.61846140322
 30
0.0
 11
-7.241459969979
 21
189.61846140322
 31
0.0
  0
LINE
  5
305A
330
3054
100
AcDbEntity
  8
外形線
100
AcDbLine
 10
-4.385468503734
 20
237.376935973808
 30
0.0
 11
1.606659496266
 21
233.917433973808
 31
0.0
  0
ARC
  5
305B
330
3054
100
AcDbEntity
  8
細線
100
AcDbCircle
 10
-5.813446503734
 20
229.633375973808
 30
0.0
 40
8.568
100
AcDbArc
 50
279.594007516002
 51
80.406014579591
  0
LINE
  5
305C
330
3054
100
AcDbEntity
  8
外形線
100
AcDbLine
 10
1.606659496266
 20
233.917433973808
 30
0.0
 11
1.606659496266
 21
225.349439973808
 31
0.0
  0
LINE
  5
305D
330
3054
100
AcDbEntity
  8
外形線
100
AcDbLine
 10
-4.385468503734
 20
221.889815973808
 30
0.0
 11
1.606659496266
 21
225.349439973808
 31
0.0
  0
ARC
  5
305E
330
3054
100
AcDbEntity
  8
細線
100
AcDbCircle
 10
-5.813446503734
 20
229.633375973808
 30
0.0
 40
7.458525999999999
100
AcDbArc
 50
281.037746568172
 51
78.962275527419
  0
LINE
  5
305F
330
3054
100
AcDbEntity
  8
外形線
100
AcDbLine
 10
-7.241454503734
 20
221.889845973808
 30
0.0
 11
-13.233550503734
 21
225.349439973808
 31
0.0
  0
LINE
  5
3060
330
3054
100
AcDbEntity
  8
外形線
100
AcDbLine
 10
-13.233550503734
 20
225.349439973808
 30
0.0
 11
-13.233550503734
 21
233.917433973808
 31
0.0
  0
LINE
  5
3061
330
3054
100
AcDbEntity
  8
外形線
100
AcDbLine
 10
-7.241454503734
 20
237.376905973808
 30
0.0
 11
-13.233550503734
 21
233.917433973808
 31
0.0
  0
ARC
  5
3062
330
3054
100
AcDbEntity
  8
細線
100
AcDbCircle
 10
-5.813446503734
 20
229.633375973808
 30
0.0
 40
7.458525999999999
100
AcDbArc
 50
101.038013199227
 51
258.962026496458
  0
ARC
  5
3063
330
3054
100
AcDbEntity
  8
細線
100
AcDbCircle
 10
-5.813446503734
 20
229.633375973808
 30
0.0
 40
8.568
100
AcDbArc
 50
99.594159555498
 51
260.405880140189
  0
ENDBLK
  5
3064
330
3054
100
AcDbEntity
  8
0
 48
10.0
100
AcDbBlockEnd
  0
BLOCK
  5
3137
330
3136
100
AcDbEntity
  8
0
 48
10.0
100
AcDbBlockBegin
  2
*D8
 70
     1
 10
0.0
 20
0.0
 30
0.0
  3
*D8
  1
*D8
  0
LINE
  5
3138
330
3136
100
AcDbEntity
  8
寸法線
 62
     0
 48
10.0
100
AcDbLine
 10
-49.24303505395
 20
269.61846140322
 30
0.0
 11
-71.827276343155
 21
269.61846140322
 31
0.0
  0
LINE
  5
3139
330
3136
100
AcDbEntity
  8
寸法線
 62
     0
 48
10.0
100
AcDbLine
 10
-49.24303505395
 20
189.61846140322
 30
0.0
 11
-71.827276343155
 21
189.61846140322
 31
0.0
  0
LINE
  5
313A
330
3136
100
AcDbEntity
  8
寸法線
 62
     0
 48
10.0
100
AcDbLine
 10
-70.577276343155
 20
263.61846140322
 30
0.0
 11
-70.577276343155
 21
195.61846140322
 31
0.0
  0
INSERT
  5
313B
330
3136
100
AcDbEntity
  8
寸法線
 62
     0
 48
10.0
100
AcDbBlockReference
  2
_OPEN30
 10
-70.577276343155
 20
269.61846140322
 30
0.0
 41
6.0
 42
6.0
 43
6.0
 50
90.0
  0
INSERT
  5
313C
330
3136
100
AcDbEntity
  8
寸法線
 62
     0
 48
10.0
100
AcDbBlockReference
  2
_OPEN30
 10
-70.577276343155
 20
189.61846140322
 30
0.0
 41
6.0
 42
6.0
 43
6.0
 50
270.0
  0
MTEXT
  5
313D
330
3136
100
AcDbEntity
  8
寸法線
 62
     0
 48
10.0
100
AcDbMText
 10
-73.702276343155
 20
229.61846140322
 30
0.0
 40
5.0
 41
0.0
 71
     5
 72
     1
  1
\A1;80
 11
6.123031769111886E-17
 21
1.0
 31
0.0
  0
POINT
  5
313E
330
3136
100
AcDbEntity
  8
DEFPOINTS
 62
     0
 48
10.0
100
AcDbPoint
 10
-48.61803505395
 20
269.61846140322
 30
0.0
  0
POINT
  5
313F
330
3136
100
AcDbEntity
  8
DEFPOINTS
 62
     0
 48
10.0
100
AcDbPoint
 10
-48.61803505395
 20
189.61846140322
 30
0.0
  0
POINT
  5
3140
330
3136
100
AcDbEntity
  8
DEFPOINTS
 62
     0
 48
10.0
100
AcDbPoint
 10
-70.577276343155
 20
189.61846140322
 30
0.0
  0
ENDBLK
  5
3141
330
3136
100
AcDbEntity
  8
0
 48
10.0
100
AcDbBlockEnd
  0
BLOCK
  5
3143
330
3142
100
AcDbEntity
  8
0
 48
10.0
100
AcDbBlockBegin
  2
*D9
 70
     1
 10
0.0
 20
0.0
 30
0.0
  3
*D9
  1
*D9
  0
LINE
  5
3144
330
3142
100
AcDbEntity
  8
寸法線
 62
     0
 48
10.0
100
AcDbLine
 10
-48.61803505395
 20
188.99346140322
 30
0.0
 11
-48.61803505395
 21
169.842404217648
 31
0.0
  0
LINE
  5
3145
330
3142
100
AcDbEntity
  8
寸法線
 62
     0
 48
10.0
100
AcDbLine
 10
31.38196494605
 20
216.99346140322
 30
0.0
 11
31.38196494605
 21
169.842404217648
 31
0.0
  0
LINE
  5
3146
330
3142
100
AcDbEntity
  8
寸法線
 62
     0
 48
10.0
100
AcDbLine
 10
-42.61803505395
 20
171.092404217648
 30
0.0
 11
25.38196494605
 21
171.092404217648
 31
0.0
  0
INSERT
  5
3147
330
3142
100
AcDbEntity
  8
寸法線
 62
     0
 48
10.0
100
AcDbBlockReference
  2
_OPEN30
 10
-48.61803505395
 20
171.092404217648
 30
0.0
 41
6.0
 42
6.0
 43
6.0
 50
180.0
  0
INSERT
  5
3148
330
3142
100
AcDbEntity
  8
寸法線
 62
     0
 48
10.0
100
AcDbBlockReference
  2
_OPEN30
 10
31.38196494605
 20
171.092404217648
 30
0.0
 41
6.0
 42
6.0
 43
6.0
  0
MTEXT
  5
3149
330
3142
100
AcDbEntity
  8
寸法線
 62
     0
 48
10.0
100
AcDbMText
 10
-8.61803505395
 20
174.217404217648
 30
0.0
 40
5.0
 41
0.0
 71
     5
 72
     1
  1
\A1;80
  0
POINT
  5
314A
330
3142
100
AcDbEntity
  8
DEFPOINTS
 62
     0
 48
10.0
100
AcDbPoint
 10
-48.61803505395
 20
189.61846140322
 30
0.0
  0
POINT
  5
314B
330
3142
100
AcDbEntity
  8
DEFPOINTS
 62
     0
 48
10.0
100
AcDbPoint
 10
31.38196494605
 20
217.61846140322
 30
0.0
  0
POINT
  5
314C
330
3142
100
AcDbEntity
  8
DEFPOINTS
 62
     0
 48
10.0
100
AcDbPoint
 10
31.38196494605
 20
171.092404217648
 30
0.0
  0
ENDBLK
  5
314D
330
3142
100
AcDbEntity
  8
0
 48
10.0
100
AcDbBlockEnd
  0
BLOCK
  5
314F
330
314E
100
AcDbEntity
  8
0
 48
10.0
100
AcDbBlockBegin
  2
*D10
 70
     1
 10
0.0
 20
0.0
 30
0.0
  3
*D10
  1
*D10
  0
LINE
  5
3150
330
314E
100
AcDbEntity
  8
寸法線
 62
     0
 48
10.0
100
AcDbLine
 10
-142.545856406188
 20
188.99346140322
 30
0.0
 11
-142.545856406188
 21
171.16763126853
 31
0.0
  0
LINE
  5
3151
330
314E
100
AcDbEntity
  8
寸法線
 62
     0
 48
10.0
100
AcDbLine
 10
-139.689851891653
 20
188.99346140322
 30
0.0
 11
-139.689851891653
 21
171.16763126853
 31
0.0
  0
LINE
  5
3152
330
314E
100
AcDbEntity
  8
寸法線
 62
     0
 48
10.0
100
AcDbLine
 10
-148.545856406188
 20
172.41763126853
 30
0.0
 11
-154.545856406188
 21
172.41763126853
 31
0.0
  0
LINE
  5
3153
330
314E
100
AcDbEntity
  8
寸法線
 62
     0
 48
10.0
100
AcDbLine
 10
-133.689851891653
 20
172.41763126853
 30
0.0
 11
-120.232745110466
 21
172.41763126853
 31
0.0
  0
LINE
  5
3154
330
314E
100
AcDbEntity
  8
寸法線
 62
     0
 48
10.0
100
AcDbLine
 10
-142.545856406188
 20
172.41763126853
 30
0.0
 11
-139.689851891653
 21
172.41763126853
 31
0.0
  0
INSERT
  5
3155
330
314E
100
AcDbEntity
  8
寸法線
 62
     0
 48
10.0
100
AcDbBlockReference
  2
_OPEN30
 10
-142.545856406188
 20
172.41763126853
 30
0.0
 41
6.0
 42
6.0
 43
6.0
  0
INSERT
  5
3156
330
314E
100
AcDbEntity
  8
寸法線
 62
     0
 48
10.0
100
AcDbBlockReference
  2
_OPEN30
 10
-139.689851891653
 20
172.41763126853
 30
0.0
 41
6.0
 42
6.0
 43
6.0
 50
180.0
  0
MTEXT
  5
3157
330
314E
100
AcDbEntity
  8
寸法線
 62
     0
 48
10.0
100
AcDbMText
 10
-123.961298501059
 20
175.54263126853
 30
0.0
 40
5.0
 41
0.0
 71
     5
 72
     1
  1
\A1;1.5
  0
POINT
  5
3158
330
314E
100
AcDbEntity
  8
DEFPOINTS
 62
     0
 48
10.0
100
AcDbPoint
 10
-142.545856406188
 20
189.61846140322
 30
0.0
  0
POINT
  5
3159
330
314E
100
AcDbEntity
  8
DEFPOINTS
 62
     0
 48
10.0
100
AcDbPoint
 10
-139.689851891653
 20
189.61846140322
 30
0.0
  0
POINT
  5
315A
330
314E
100
AcDbEntity
  8
DEFPOINTS
 62
     0
 48
10.0
100
AcDbPoint
 10
-139.689851891653
 20
172.41763126853
 30
0.0
  0
ENDBLK
  5
315B
330
314E
100
AcDbEntity
  8
0
 48
10.0
100
AcDbBlockEnd
  0
BLOCK
  5
3170
330
315C
100
AcDbEntity
  8
0
 48
10.0
100
AcDbBlockBegin
  2
A$C384A4FFB
 70
     0
 10
0.0
 20
0.0
 30
0.0
  3
A$C384A4FFB
  1
A$C384A4FFB
  0
LINE
  5
315D
330
315C
100
AcDbEntity
  8
外形線
100
AcDbLine
 10
312.227694679646
 20
154.159896392983
 30
0.0
 11
519.638224678776
 21
154.159896392983
 31
0.0
  0
LINE
  5
315E
330
315C
100
AcDbEntity
  8
外形線
100
AcDbLine
 10
312.227694679646
 20
144.159973892983
 30
0.0
 11
519.638224678776
 21
144.159973892983
 31
0.0
  0
LINE
  5
315F
330
315C
100
AcDbEntity
  8
外形線
100
AcDbLine
 10
303.727694679646
 20
157.303858892983
 30
0.0
 11
309.981067179646
 21
157.303858892983
 31
0.0
  0
LINE
  5
3160
330
315C
100
AcDbEntity
  8
外形線
100
AcDbLine
 10
309.981067179646
 20
157.303858892983
 30
0.0
 11
312.227619679646
 21
155.057153892983
 31
0.0
  0
LINE
  5
3161
330
315C
100
AcDbEntity
  8
細線
100
AcDbLine
 10
305.727694679646
 20
153.231858892983
 30
0.0
 11
310.983175606654
 21
153.231858892983
 31
0.0
  0
ARC
  5
3162
330
315C
100
AcDbEntity
  8
細線
100
AcDbCircle
 10
308.639057179646
 20
156.166926392983
 30
0.0
 40
3.7563025
100
AcDbArc
 50
308.612371782873
 51
342.81588950412
  0
LINE
  5
3163
330
315C
100
AcDbEntity
  8
外形線
100
AcDbLine
 10
303.727694679646
 20
141.015938892983
 30
0.0
 11
309.981067179646
 21
141.015938892983
 31
0.0
  0
LINE
  5
3164
330
315C
100
AcDbEntity
  8
外形線
100
AcDbLine
 10
309.981067179646
 20
141.015938892983
 30
0.0
 11
312.227619679646
 21
143.262568892983
 31
0.0
  0
LINE
  5
3165
330
315C
100
AcDbEntity
  8
外形線
100
AcDbLine
 10
303.727694679646
 20
157.303858892983
 30
0.0
 11
303.727694679646
 21
141.015938892983
 31
0.0
  0
LINE
  5
3166
330
315C
100
AcDbEntity
  8
外形線
100
AcDbLine
 10
305.727694679646
 20
157.303858892983
 30
0.0
 11
305.727694679646
 21
141.015938892983
 31
0.0
  0
LINE
  5
3167
330
315C
100
AcDbEntity
  8
細線
100
AcDbLine
 10
305.727694679646
 20
145.087976392983
 30
0.0
 11
310.983135652015
 21
145.087976392983
 31
0.0
  0
ARC
  5
3168
330
315C
100
AcDbEntity
  8
細線
100
AcDbCircle
 10
308.639057179646
 20
142.152718892983
 30
0.0
 40
3.7563025
100
AcDbArc
 50
17.184150191555
 51
51.38761061704
  0
LINE
  5
3169
330
315C
100
AcDbEntity
  8
外形線
100
AcDbLine
 10
312.227694679646
 20
143.262491392983
 30
0.0
 11
312.227694679646
 21
155.057153892983
 31
0.0
  0
ARC
  5
316A
330
315C
100
AcDbEntity
  8
細線
100
AcDbCircle
 10
304.943837179646
 20
149.159861392983
 30
0.0
 40
7.2838425
100
AcDbArc
 50
326.010120640452
 51
33.98932849733
  0
DIMENSION
  5
316B
330
315C
100
AcDbEntity
  8
寸法線
 48
10.0
100
AcDbDimension
  2
*D10
 10
14.856002832544
 20
2.932922293165
 30
0.0
 11
30.584556223137
 21
6.057922293165
 31
0.0
 12
154.545854724197
 22
-169.484708975365
 32
0.0
  1
1.5
  3
ISO-25
100
AcDbAlignedDimension
 13
11.999998318009
 23
20.133752427855
 33
0.0
 14
14.856002832544
 24
20.133752427855
 34
0.0
100
AcDbRotatedDimension
1001
ACAD
1000
DSTYLE
1002
{
1070
     5
1000
OPEN30
1070
    41
1040
6.0
1070
    47
1040
0.1
1070
    48
1040
0.1
1070
    73
1070
     0
1070
   140
1040
5.0
1070
   271
1070
     1
1070
   272
1070
     1
1070
   341
1005
2AF4
1002
}
  0
INSERT
  5
316C
330
315C
100
AcDbEntity
  8
外形線
100
AcDbBlockReference
  2
パドル_W1立面図
 10
19.241458287988
 20
-169.484708975365
 30
0.0
  0
DIMENSION
  5
316D
330
315C
100
AcDbEntity
  8
寸法線
 48
10.0
100
AcDbDimension
  2
*D9
 10
185.927819670247
 20
1.607695242283
 30
0.0
 11
145.927819670247
 21
4.732695242283
 31
0.0
 12
154.545854724197
 22
-169.484708975365
 32
0.0
  3
ISO-25
100
AcDbAlignedDimension
 13
105.927819670247
 23
20.133752427855
 33
0.0
 14
185.927819670247
 24
48.133752427855
 34
0.0
100
AcDbRotatedDimension
1001
ACAD
1000
DSTYLE
1002
{
1070
     5
1000
OPEN30
1070
    41
1040
6.0
1070
    47
1040
0.1
1070
    48
1040
0.1
1070
    73
1070
     0
1070
   140
1040
5.0
1070
   271
1070
     1
1070
   272
1070
     1
1070
   341
1005
2AF4
1002
}
  0
DIMENSION
  5
316E
330
315C
100
AcDbEntity
  8
寸法線
 48
10.0
100
AcDbDimension
  2
*D8
 10
83.968578381042
 20
20.133752427855
 30
0.0
 11
80.843578381042
 21
60.133752427855
 31
0.0
 12
154.545854724197
 22
-169.484708975365
 32
0.0
  3
ISO-25
100
AcDbAlignedDimension
 13
105.927819670247
 23
100.133752427855
 33
0.0
 14
105.927819670247
 24
20.133752427855
 34
0.0
 50
90.0
100
AcDbRotatedDimension
1001
ACAD
1000
DSTYLE
1002
{
1070
     5
1000
OPEN30
1070
    41
1040
6.0
1070
    47
1040
0.1
1070
    48
1040
0.1
1070
    73
1070
     0
1070
   140
1040
5.0
1070
   271
1070
     1
1070
   272
1070
     1
1070
   341
1005
2AF4
1002
}
  0
INSERT
  5
316F
330
315C
100
AcDbEntity
  8
外形線
 48
10.0
100
AcDbBlockReference
  2
パドル_W1
 10
47.626703760747
 20
-160.518009493956
 30
0.0
  0
ENDBLK
  5
3171
330
315C
100
AcDbEntity
  8
0
 48
10.0
100
AcDbBlockEnd
  0
BLOCK
  5
34BD
330
34BA
100
AcDbEntity
  8
0
 48
10.0
100
AcDbBlockBegin
  2
A$C77C530E9
 70
     0
 10
0.0
 20
0.0
 30
0.0
  3
A$C77C530E9
  1
A$C77C530E9
  0
LINE
  5
34BB
330
34BA
100
AcDbEntity
  8
中心線
 48
10.0
100
AcDbLine
 10
0.000000851412
 20
22.054596647591
 30
0.0
 11
22.054597830693
 21
-0.000000331691
 31
0.0
  0
LINE
  5
34BC
330
34BA
100
AcDbEntity
  8
中心線
 48
10.0
100
AcDbLine
 10
47.201721658668
 20
-0.000000331691
 30
0.0
 11
69.256318637949
 21
22.054596647591
 31
0.0
  0
ENDBLK
  5
34BE
330
34BA
100
AcDbEntity
  8
0
 48
10.0
100
AcDbBlockEnd
  0
BLOCK
  5
58D7
330
58CB
100
AcDbEntity
  8
0
 48
10.0
100
AcDbBlockBegin
  2
*D13
 70
     1
 10
0.0
 20
0.0
 30
0.0
  3
*D13
  1
*D13
  0
LINE
  5
724E
330
58CB
100
AcDbEntity
  8
寸法線
 62
     0
 48
10.0
100
AcDbLine
 10
83.437509114551
 20
584.016782331669
 30
0.0
 11
83.437509114551
 21
584.641782331669
 31
0.0
  0
LINE
  5
724F
330
58CB
100
AcDbEntity
  8
寸法線
 62
     0
 48
10.0
100
AcDbLine
 10
86.293513629086
 20
584.016782331669
 30
0.0
 11
86.293513629086
 21
584.641782331669
 31
0.0
  0
LINE
  5
7250
330
58CB
100
AcDbEntity
  8
寸法線
 62
     0
 48
10.0
100
AcDbLine
 10
77.437509114551
 20
583.391782331669
 30
0.0
 11
71.437509114551
 21
583.391782331669
 31
0.0
  0
LINE
  5
7251
330
58CB
100
AcDbEntity
  8
寸法線
 62
     0
 48
10.0
100
AcDbLine
 10
92.293513629086
 20
583.391782331669
 30
0.0
 11
111.957727191459
 21
583.391782331669
 31
0.0
  0
LINE
  5
7252
330
58CB
100
AcDbEntity
  8
寸法線
 62
     0
 48
10.0
100
AcDbLine
 10
83.437509114551
 20
583.391782331669
 30
0.0
 11
86.293513629086
 21
583.391782331669
 31
0.0
  0
INSERT
  5
7253
330
58CB
100
AcDbEntity
  8
寸法線
 62
     0
 48
10.0
100
AcDbBlockReference
  2
_OPEN30
 10
83.437509114551
 20
583.391782331669
 30
0.0
 41
6.0
 42
6.0
 43
6.0
  0
INSERT
  5
7254
330
58CB
100
AcDbEntity
  8
寸法線
 62
     0
 48
10.0
100
AcDbBlockReference
  2
_OPEN30
 10
86.293513629086
 20
583.391782331669
 30
0.0
 41
6.0
 42
6.0
 43
6.0
 50
180.0
  0
MTEXT
  5
7255
330
58CB
100
AcDbEntity
  8
寸法線
 62
     0
 48
10.0
100
AcDbMText
 10
105.125620410272
 20
589.016782331669
 30
0.0
 40
10.0
 41
0.0
 71
     5
 72
     1
  1
\A1;1.5
  0
POINT
  5
7256
330
58CB
100
AcDbEntity
  8
DEFPOINTS
 62
     0
 48
10.0
100
AcDbPoint
 10
83.437509114551
 20
583.391782331669
 30
0.0
  0
POINT
  5
7257
330
58CB
100
AcDbEntity
  8
DEFPOINTS
 62
     0
 48
10.0
100
AcDbPoint
 10
86.293513629086
 20
583.391782331669
 30
0.0
  0
POINT
  5
7258
330
58CB
100
AcDbEntity
  8
DEFPOINTS
 62
     0
 48
10.0
100
AcDbPoint
 10
86.293513629086
 20
583.391782331669
 30
0.0
  0
ENDBLK
  5
58D8
330
58CB
100
AcDbEntity
  8
0
 48
10.0
100
AcDbBlockEnd
  0
BLOCK
  5
66B1
330
66A7
100
AcDbEntity
  8
0
 48
10.0
100
AcDbBlockBegin
  2
*D14
 70
     1
 10
0.0
 20
0.0
 30
0.0
  3
*D14
  1
*D14
  0
LINE
  5
7025
330
66A7
100
AcDbEntity
  8
寸法線
 62
     0
 48
10.0
100
AcDbLine
 10
742.624393285179
 20
684.674534245649
 30
0.0
 11
769.249393285179
 21
684.674534245649
 31
0.0
  0
LINE
  5
7026
330
66A7
100
AcDbEntity
  8
寸法線
 62
     0
 48
10.0
100
AcDbLine
 10
742.624393285179
 20
538.674534245649
 30
0.0
 11
769.249393285179
 21
538.674534245649
 31
0.0
  0
LINE
  5
7027
330
66A7
100
AcDbEntity
  8
寸法線
 62
     0
 48
10.0
100
AcDbLine
 10
767.999393285179
 20
678.674534245649
 30
0.0
 11
767.999393285179
 21
544.674534245649
 31
0.0
  0
INSERT
  5
7028
330
66A7
100
AcDbEntity
  8
寸法線
 62
     0
 48
10.0
100
AcDbBlockReference
  2
_OPEN30
 10
767.999393285179
 20
684.674534245649
 30
0.0
 41
6.0
 42
6.0
 43
6.0
 50
90.0
  0
INSERT
  5
7029
330
66A7
100
AcDbEntity
  8
寸法線
 62
     0
 48
10.0
100
AcDbBlockReference
  2
_OPEN30
 10
767.999393285179
 20
538.674534245649
 30
0.0
 41
6.0
 42
6.0
 43
6.0
 50
270.0
  0
MTEXT
  5
702A
330
66A7
100
AcDbEntity
  8
寸法線
 62
     0
 48
10.0
100
AcDbMText
 10
762.374393285179
 20
609.583111918124
 30
0.0
 40
10.0
 41
0.0
 71
     5
 72
     1
  1
\A1;%%c146
 11
6.123031769111886E-17
 21
1.0
 31
0.0
  0
POINT
  5
702B
330
66A7
100
AcDbEntity
  8
DEFPOINTS
 62
     0
 48
10.0
100
AcDbPoint
 10
741.999393285179
 20
684.674534245649
 30
0.0
  0
POINT
  5
702C
330
66A7
100
AcDbEntity
  8
DEFPOINTS
 62
     0
 48
10.0
100
AcDbPoint
 10
741.999393285179
 20
538.674534245649
 30
0.0
  0
POINT
  5
702D
330
66A7
100
AcDbEntity
  8
DEFPOINTS
 62
     0
 48
10.0
100
AcDbPoint
 10
767.999393285179
 20
538.674534245649
 30
0.0
  0
ENDBLK
  5
66B2
330
66A7
100
AcDbEntity
  8
0
 48
10.0
100
AcDbBlockEnd
  0
BLOCK
  5
66BD
330
66B3
100
AcDbEntity
  8
0
 48
10.0
100
AcDbBlockBegin
  2
*D15
 70
     1
 10
0.0
 20
0.0
 30
0.0
  3
*D15
  1
*D15
  0
LINE
  5
711B
330
66B3
100
AcDbEntity
  8
寸法線
 62
     0
 48
10.0
100
AcDbLine
 10
670.999393285179
 20
538.549534245649
 30
0.0
 11
670.999393285179
 21
434.814177750876
 31
0.0
  0
LINE
  5
711C
330
66B3
100
AcDbEntity
  8
寸法線
 62
     0
 48
10.0
100
AcDbLine
 10
552.999393285179
 20
534.549534245649
 30
0.0
 11
552.999393285179
 21
434.814177750876
 31
0.0
  0
LINE
  5
711D
330
66B3
100
AcDbEntity
  8
寸法線
 62
     0
 48
10.0
100
AcDbLine
 10
664.999393285179
 20
436.064177750876
 30
0.0
 11
558.999393285179
 21
436.064177750876
 31
0.0
  0
INSERT
  5
711E
330
66B3
100
AcDbEntity
  8
寸法線
 62
     0
100
AcDbBlockReference
  2
_OPEN30
 10
670.999393285179
 20
436.064177750876
 30
0.0
 41
6.0
 42
6.0
 43
6.0
  0
INSERT
  5
711F
330
66B3
100
AcDbEntity
  8
寸法線
 62
     0
100
AcDbBlockReference
  2
_OPEN30
 10
552.999393285179
 20
436.064177750876
 30
0.0
 41
6.0
 42
6.0
 43
6.0
 50
180.0
  0
MTEXT
  5
7120
330
66B3
100
AcDbEntity
  8
寸法線
 62
     0
 48
10.0
100
AcDbMText
 10
611.999393285179
 20
441.699594417543
 30
0.0
 40
10.0
 41
0.0
 71
     5
 72
     1
  1
\A1;118
  0
POINT
  5
7121
330
66B3
100
AcDbEntity
  8
DEFPOINTS
 62
     0
100
AcDbPoint
 10
670.999393285179
 20
539.174534245649
 30
0.0
  0
POINT
  5
7122
330
66B3
100
AcDbEntity
  8
DEFPOINTS
 62
     0
100
AcDbPoint
 10
552.999393285179
 20
535.174534245649
 30
0.0
  0
POINT
  5
7123
330
66B3
100
AcDbEntity
  8
DEFPOINTS
 62
     0
100
AcDbPoint
 10
552.999393285179
 20
436.064177750876
 30
0.0
  0
ENDBLK
  5
66BE
330
66B3
100
AcDbEntity
  8
0
 48
10.0
100
AcDbBlockEnd
  0
BLOCK
  5
66D5
330
66CB
100
AcDbEntity
  8
0
 48
10.0
100
AcDbBlockBegin
  2
*D16
 70
     1
 10
0.0
 20
0.0
 30
0.0
  3
*D16
  1
*D16
  0
LINE
  5
7042
330
66CB
100
AcDbEntity
  8
寸法線_文字
 62
     0
 48
10.0
100
AcDbLine
 10
726.999393285179
 20
538.54953424565
 30
0.0
 11
726.999393285179
 21
434.814177750876
 31
0.0
  0
LINE
  5
7043
330
66CB
100
AcDbEntity
  8
寸法線_文字
 62
     0
 48
10.0
100
AcDbLine
 10
742.999393285179
 20
539.049534245649
 30
0.0
 11
742.999393285179
 21
434.814177750876
 31
0.0
  0
LINE
  5
7044
330
66CB
100
AcDbEntity
  8
寸法線_文字
 62
     0
 48
10.0
100
AcDbLine
 10
732.999393285179
 20
436.064177750876
 30
0.0
 11
736.999393285179
 21
436.064177750876
 31
0.0
  0
INSERT
  5
7045
330
66CB
100
AcDbEntity
  8
寸法線_文字
 62
     0
 48
10.0
100
AcDbBlockReference
  2
_OPEN30
 10
726.999393285179
 20
436.064177750876
 30
0.0
 41
6.0
 42
6.0
 43
6.0
 50
180.0
  0
INSERT
  5
7046
330
66CB
100
AcDbEntity
  8
寸法線_文字
 62
     0
 48
10.0
100
AcDbBlockReference
  2
_OPEN30
 10
742.999393285179
 20
436.064177750876
 30
0.0
 41
6.0
 42
6.0
 43
6.0
  0
MTEXT
  5
7047
330
66CB
100
AcDbEntity
  8
寸法線_文字
 62
     0
 48
10.0
100
AcDbMText
 10
734.999393285179
 20
441.689177750876
 30
0.0
 40
10.0
 41
0.0
 71
     5
 72
     1
  1
\A1;16
  0
POINT
  5
7048
330
66CB
100
AcDbEntity
  8
DEFPOINTS
 62
     0
 48
10.0
100
AcDbPoint
 10
726.999393285179
 20
539.17453424565
 30
0.0
  0
POINT
  5
7049
330
66CB
100
AcDbEntity
  8
DEFPOINTS
 62
     0
 48
10.0
100
AcDbPoint
 10
742.999393285179
 20
539.674534245649
 30
0.0
  0
POINT
  5
704A
330
66CB
100
AcDbEntity
  8
DEFPOINTS
 62
     0
 48
10.0
100
AcDbPoint
 10
742.999393285179
 20
436.064177750876
 30
0.0
  0
ENDBLK
  5
66D6
330
66CB
100
AcDbEntity
  8
0
 48
10.0
100
AcDbBlockEnd
  0
BLOCK
  5
66E1
330
66D7
100
AcDbEntity
  8
0
 48
10.0
100
AcDbBlockBegin
  2
*D17
 70
     1
 10
0.0
 20
0.0
 30
0.0
  3
*D17
  1
*D17
  0
LINE
  5
71E8
330
66D7
100
AcDbEntity
  8
寸法線_文字
 62
     0
 48
10.0
100
AcDbLine
 10
742.624393285179
 20
684.674534245649
 30
0.0
 11
791.24939328518
 21
684.674534245649
 31
0.0
  0
LINE
  5
71E9
330
66D7
100
AcDbEntity
  8
寸法線_文字
 62
     0
 48
10.0
100
AcDbLine
 10
712.224393285179
 20
461.064177750876
 30
0.0
 11
791.24939328518
 21
461.064177750876
 31
0.0
  0
LINE
  5
71EA
330
66D7
100
AcDbEntity
  8
寸法線_文字
 62
     0
 48
10.0
100
AcDbLine
 10
789.99939328518
 20
678.674534245649
 30
0.0
 11
789.99939328518
 21
467.064177750876
 31
0.0
  0
INSERT
  5
71EB
330
66D7
100
AcDbEntity
  8
寸法線_文字
 62
     0
 48
10.0
100
AcDbBlockReference
  2
_OPEN30
 10
789.99939328518
 20
684.674534245649
 30
0.0
 41
6.0
 42
6.0
 43
6.0
 50
90.0
  0
INSERT
  5
71EC
330
66D7
100
AcDbEntity
  8
寸法線_文字
 62
     0
 48
10.0
100
AcDbBlockReference
  2
_OPEN30
 10
789.99939328518
 20
461.064177750876
 30
0.0
 41
6.0
 42
6.0
 43
6.0
 50
270.0
  0
MTEXT
  5
71ED
330
66D7
100
AcDbEntity
  8
寸法線_文字
 62
     0
 48
10.0
100
AcDbMText
 10
784.373409033211
 20
572.869355998263
 30
0.0
 40
10.0
 41
0.0
 71
     5
 72
     1
  1
\A1;（224）
 11
6.123031769111886E-17
 21
1.0
 31
0.0
  0
POINT
  5
71EE
330
66D7
100
AcDbEntity
  8
DEFPOINTS
 62
     0
 48
10.0
100
AcDbPoint
 10
741.999393285179
 20
684.674534245649
 30
0.0
  0
POINT
  5
71EF
330
66D7
100
AcDbEntity
  8
DEFPOINTS
 62
     0
 48
10.0
100
AcDbPoint
 10
711.599393285179
 20
461.064177750876
 30
0.0
  0
POINT
  5
71F0
330
66D7
100
AcDbEntity
  8
DEFPOINTS
 62
     0
 48
10.0
100
AcDbPoint
 10
789.99939328518
 20
461.064177750876
 30
0.0
  0
ENDBLK
  5
66E2
330
66D7
100
AcDbEntity
  8
0
 48
10.0
100
AcDbBlockEnd
  0
BLOCK
  5
66ED
330
66E3
100
AcDbEntity
  8
0
 48
10.0
100
AcDbBlockBegin
  2
*D18
 70
     1
 10
0.0
 20
0.0
 30
0.0
  3
*D18
  1
*D18
  0
LINE
  5
70BB
330
66E3
100
AcDbEntity
  8
寸法線
 62
     0
 48
10.0
100
AcDbLine
 10
742.999393285179
 20
539.049534245649
 30
0.0
 11
742.999393285179
 21
412.814177750876
 31
0.0
  0
LINE
  5
70BC
330
66E3
100
AcDbEntity
  8
寸法線
 62
     0
 48
10.0
100
AcDbLine
 10
419.028273325325
 20
533.549534245649
 30
0.0
 11
419.028273325325
 21
412.814177750876
 31
0.0
  0
LINE
  5
70BD
330
66E3
100
AcDbEntity
  8
寸法線
 62
     0
 48
10.0
100
AcDbLine
 10
736.999393285179
 20
414.064177750876
 30
0.0
 11
425.028273325325
 21
414.064177750876
 31
0.0
  0
INSERT
  5
70BE
330
66E3
100
AcDbEntity
  8
寸法線
 62
     0
 48
10.0
100
AcDbBlockReference
  2
_OPEN30
 10
742.999393285179
 20
414.064177750876
 30
0.0
 41
6.0
 42
6.0
 43
6.0
  0
INSERT
  5
70BF
330
66E3
100
AcDbEntity
  8
寸法線
 62
     0
 48
10.0
100
AcDbBlockReference
  2
_OPEN30
 10
419.028273325325
 20
414.064177750876
 30
0.0
 41
6.0
 42
6.0
 43
6.0
 50
180.0
  0
MTEXT
  5
70C0
330
66E3
100
AcDbEntity
  8
寸法線
 62
     0
 48
10.0
100
AcDbMText
 10
581.013833305252
 20
419.690162002845
 30
0.0
 40
10.0
 41
0.0
 71
     5
 72
     1
  1
\A1;（324）
  0
POINT
  5
70C1
330
66E3
100
AcDbEntity
  8
DEFPOINTS
 62
     0
 48
10.0
100
AcDbPoint
 10
742.999393285179
 20
539.674534245649
 30
0.0
  0
POINT
  5
70C2
330
66E3
100
AcDbEntity
  8
DEFPOINTS
 62
     0
 48
10.0
100
AcDbPoint
 10
419.028273325325
 20
534.174534245649
 30
0.0
  0
POINT
  5
70C3
330
66E3
100
AcDbEntity
  8
DEFPOINTS
 62
     0
 48
10.0
100
AcDbPoint
 10
419.028273325325
 20
414.064177750876
 30
0.0
  0
ENDBLK
  5
66EE
330
66E3
100
AcDbEntity
  8
0
 48
10.0
100
AcDbBlockEnd
  0
BLOCK
  5
672C
330
6721
100
AcDbEntity
  8
0
 48
10.0
100
AcDbBlockBegin
  2
*D19
 70
     1
 10
0.0
 20
0.0
 30
0.0
  3
*D19
  1
*D19
  0
LINE
  5
7212
330
6721
100
AcDbEntity
  8
寸法線
 62
     0
 48
10.0
100
AcDbLine
 10
397.729088136065
 20
628.674534245649
 30
0.0
 11
398.488062731065
 21
628.674534245649
 31
0.0
  0
LINE
  5
7213
330
6721
100
AcDbEntity
  8
寸法線
 62
     0
 48
10.0
100
AcDbLine
 10
396.613062731065
 20
594.674534245649
 30
0.0
 11
395.988062731065
 21
594.674534245649
 31
0.0
  0
LINE
  5
7214
330
6721
100
AcDbEntity
  8
寸法線
 62
     0
 48
10.0
100
AcDbLine
 10
397.238062731065
 20
600.674534245649
 30
0.0
 11
397.238062731065
 21
622.674534245649
 31
0.0
  0
LINE
  5
7215
330
6721
100
AcDbEntity
  8
寸法線
 62
     0
 48
10.0
100
AcDbLine
 10
397.238062731065
 20
628.674534245649
 30
0.0
 11
397.238062731065
 21
660.58582456823
 31
0.0
  0
INSERT
  5
7216
330
6721
100
AcDbEntity
  8
寸法線
 62
     0
 48
10.0
100
AcDbBlockReference
  2
_OPEN30
 10
397.238062731065
 20
594.674534245649
 30
0.0
 41
6.0
 42
6.0
 43
6.0
 50
270.0
  0
INSERT
  5
7217
330
6721
100
AcDbEntity
  8
寸法線
 62
     0
 48
10.0
100
AcDbBlockReference
  2
_OPEN30
 10
397.238062731065
 20
628.674534245649
 30
0.0
 41
6.0
 42
6.0
 43
6.0
 50
90.0
  0
MTEXT
  5
7218
330
6721
100
AcDbEntity
  8
寸法線
 62
     0
 48
10.0
100
AcDbMText
 10
391.613062731065
 20
648.21082456823
 30
0.0
 40
10.0
 41
0.0
 71
     5
 72
     1
  1
\A1;φ34
 11
6.123031769111886E-17
 21
1.0
 31
0.0
  0
POINT
  5
7219
330
6721
100
AcDbEntity
  8
DEFPOINTS
 62
     0
 48
10.0
100
AcDbPoint
 10
397.104088136065
 20
628.674534245649
 30
0.0
  0
POINT
  5
721A
330
6721
100
AcDbEntity
  8
DEFPOINTS
 62
     0
 48
10.0
100
AcDbPoint
 10
397.238062731065
 20
594.674534245649
 30
0.0
  0
POINT
  5
721B
330
6721
100
AcDbEntity
  8
DEFPOINTS
 62
     0
 48
10.0
100
AcDbPoint
 10
397.238062731065
 20
594.674534245649
 30
0.0
  0
ENDBLK
  5
672D
330
6721
100
AcDbEntity
  8
0
 48
10.0
100
AcDbBlockEnd
  0
BLOCK
  5
673A
330
672E
100
AcDbEntity
  8
0
 48
10.0
100
AcDbBlockBegin
  2
*D20
 70
     1
 10
0.0
 20
0.0
 30
0.0
  3
*D20
  1
*D20
  0
LINE
  5
722F
330
672E
100
AcDbEntity
  8
寸法線
 62
     0
 48
10.0
100
AcDbLine
 10
364.654230168041
 20
606.681993530943
 30
0.0
 11
364.029230168041
 21
606.681993530943
 31
0.0
  0
LINE
  5
7230
330
672E
100
AcDbEntity
  8
寸法線
 62
     0
 48
10.0
100
AcDbLine
 10
364.654230168041
 20
616.681993530943
 30
0.0
 11
364.029230168041
 21
616.681993530943
 31
0.0
  0
LINE
  5
7231
330
672E
100
AcDbEntity
  8
寸法線
 62
     0
 48
10.0
100
AcDbLine
 10
365.279230168041
 20
600.681993530943
 30
0.0
 11
365.279230168041
 21
594.681993530943
 31
0.0
  0
LINE
  5
7232
330
672E
100
AcDbEntity
  8
寸法線
 62
     0
 48
10.0
100
AcDbLine
 10
365.279230168041
 20
622.681993530943
 30
0.0
 11
365.279230168041
 21
650.439867546691
 31
0.0
  0
LINE
  5
7233
330
672E
100
AcDbEntity
  8
寸法線
 62
     0
 48
10.0
100
AcDbLine
 10
365.279230168041
 20
606.681993530943
 30
0.0
 11
365.279230168041
 21
616.681993530943
 31
0.0
  0
INSERT
  5
7234
330
672E
100
AcDbEntity
  8
寸法線
 62
     0
 48
10.0
100
AcDbBlockReference
  2
_OPEN30
 10
365.279230168041
 20
606.681993530943
 30
0.0
 41
6.0
 42
6.0
 43
6.0
 50
90.0
  0
INSERT
  5
7235
330
672E
100
AcDbEntity
  8
寸法線
 62
     0
 48
10.0
100
AcDbBlockReference
  2
_OPEN30
 10
365.279230168041
 20
616.681993530943
 30
0.0
 41
6.0
 42
6.0
 43
6.0
 50
270.0
  0
MTEXT
  5
7236
330
672E
100
AcDbEntity
  8
寸法線
 62
     0
 48
10.0
100
AcDbMText
 10
359.654230168041
 20
639.560930538817
 30
0.0
 40
10.0
 41
0.0
 71
     5
 72
     1
  1
\A1;φ10
 11
6.123031769111886E-17
 21
1.0
 31
0.0
  0
POINT
  5
7237
330
672E
100
AcDbEntity
  8
DEFPOINTS
 62
     0
 48
10.0
100
AcDbPoint
 10
365.279230168041
 20
606.681993530943
 30
0.0
  0
POINT
  5
7238
330
672E
100
AcDbEntity
  8
DEFPOINTS
 62
     0
 48
10.0
100
AcDbPoint
 10
365.279230168041
 20
616.681993530943
 30
0.0
  0
POINT
  5
7239
330
672E
100
AcDbEntity
  8
DEFPOINTS
 62
     0
 48
10.0
100
AcDbPoint
 10
365.279230168041
 20
616.681993530943
 30
0.0
  0
ENDBLK
  5
673B
330
672E
100
AcDbEntity
  8
0
 48
10.0
100
AcDbBlockEnd
  0
BLOCK
  5
6746
330
673C
100
AcDbEntity
  8
0
 48
10.0
100
AcDbBlockBegin
  2
*D21
 70
     1
 10
0.0
 20
0.0
 30
0.0
  3
*D21
  1
*D21
  0
LINE
  5
7226
330
673C
100
AcDbEntity
  8
寸法線
 62
     0
 48
10.0
100
AcDbLine
 10
249.028273325325
 20
571.049534245649
 30
0.0
 11
249.028273325325
 21
547.242952448044
 31
0.0
  0
LINE
  5
7227
330
673C
100
AcDbEntity
  8
寸法線
 62
     0
 48
10.0
100
AcDbLine
 10
329.028273325325
 20
599.049534245649
 30
0.0
 11
329.028273325325
 21
547.242952448044
 31
0.0
  0
LINE
  5
7228
330
673C
100
AcDbEntity
  8
寸法線
 62
     0
 48
10.0
100
AcDbLine
 10
255.028273325325
 20
548.492952448044
 30
0.0
 11
323.028273325325
 21
548.492952448044
 31
0.0
  0
INSERT
  5
7229
330
673C
100
AcDbEntity
  8
寸法線
 62
     0
100
AcDbBlockReference
  2
_OPEN30
 10
249.028273325325
 20
548.492952448044
 30
0.0
 41
6.0
 42
6.0
 43
6.0
 50
180.0
  0
INSERT
  5
722A
330
673C
100
AcDbEntity
  8
寸法線
 62
     0
100
AcDbBlockReference
  2
_OPEN30
 10
329.028273325325
 20
548.492952448044
 30
0.0
 41
6.0
 42
6.0
 43
6.0
  0
MTEXT
  5
722B
330
673C
100
AcDbEntity
  8
寸法線
 62
     0
 48
10.0
100
AcDbMText
 10
289.028273325325
 20
554.128369114711
 30
0.0
 40
10.0
 41
0.0
 71
     5
 72
     1
  1
\A1;80
  0
POINT
  5
722C
330
673C
100
AcDbEntity
  8
DEFPOINTS
 62
     0
100
AcDbPoint
 10
249.028273325325
 20
571.674534245649
 30
0.0
  0
POINT
  5
722D
330
673C
100
AcDbEntity
  8
DEFPOINTS
 62
     0
100
AcDbPoint
 10
329.028273325325
 20
599.674534245649
 30
0.0
  0
POINT
  5
722E
330
673C
100
AcDbEntity
  8
DEFPOINTS
 62
     0
100
AcDbPoint
 10
329.028273325325
 20
548.492952448044
 30
0.0
  0
ENDBLK
  5
6747
330
673C
100
AcDbEntity
  8
0
 48
10.0
100
AcDbBlockEnd
  0
BLOCK
  5
6752
330
6748
100
AcDbEntity
  8
0
 48
10.0
100
AcDbBlockBegin
  2
*D22
 70
     1
 10
0.0
 20
0.0
 30
0.0
  3
*D22
  1
*D22
  0
LINE
  5
721D
330
6748
100
AcDbEntity
  8
寸法線
 62
     0
 48
10.0
100
AcDbLine
 10
248.403273325325
 20
651.674534245649
 30
0.0
 11
229.795660200623
 21
651.674534245649
 31
0.0
  0
LINE
  5
721E
330
6748
100
AcDbEntity
  8
寸法線
 62
     0
 48
10.0
100
AcDbLine
 10
248.403273325325
 20
571.674534245649
 30
0.0
 11
229.795660200623
 21
571.674534245649
 31
0.0
  0
LINE
  5
721F
330
6748
100
AcDbEntity
  8
寸法線
 62
     0
 48
10.0
100
AcDbLine
 10
231.045660200623
 20
645.674534245649
 30
0.0
 11
231.045660200623
 21
577.674534245649
 31
0.0
  0
INSERT
  5
7220
330
6748
100
AcDbEntity
  8
寸法線
 62
     0
 48
10.0
100
AcDbBlockReference
  2
_OPEN30
 10
231.045660200623
 20
651.674534245649
 30
0.0
 41
6.0
 42
6.0
 43
6.0
 50
90.0
  0
INSERT
  5
7221
330
6748
100
AcDbEntity
  8
寸法線
 62
     0
 48
10.0
100
AcDbBlockReference
  2
_OPEN30
 10
231.045660200623
 20
571.674534245649
 30
0.0
 41
6.0
 42
6.0
 43
6.0
 50
270.0
  0
MTEXT
  5
7222
330
6748
100
AcDbEntity
  8
寸法線
 62
     0
 48
10.0
100
AcDbMText
 10
225.420660200623
 20
611.674534245649
 30
0.0
 40
10.0
 41
0.0
 71
     5
 72
     1
  1
\A1;80
 11
6.123031769111886E-17
 21
1.0
 31
0.0
  0
POINT
  5
7223
330
6748
100
AcDbEntity
  8
DEFPOINTS
 62
     0
 48
10.0
100
AcDbPoint
 10
249.028273325325
 20
651.674534245649
 30
0.0
  0
POINT
  5
7224
330
6748
100
AcDbEntity
  8
DEFPOINTS
 62
     0
 48
10.0
100
AcDbPoint
 10
249.028273325325
 20
571.674534245649
 30
0.0
  0
POINT
  5
7225
330
6748
100
AcDbEntity
  8
DEFPOINTS
 62
     0
 48
10.0
100
AcDbPoint
 10
231.045660200623
 20
571.674534245649
 30
0.0
  0
ENDBLK
  5
6753
330
6748
100
AcDbEntity
  8
0
 48
10.0
100
AcDbBlockEnd
  0
BLOCK
  5
676C
330
6762
100
AcDbEntity
  8
0
 48
10.0
100
AcDbBlockBegin
  2
*D23
 70
     1
 10
0.0
 20
0.0
 30
0.0
  3
*D23
  1
*D23
  0
LINE
  5
7244
330
6762
100
AcDbEntity
  8
寸法線
 62
     0
 48
10.0
100
AcDbLine
 10
249.028273325325
 20
571.049534245649
 30
0.0
 11
249.028273325325
 21
412.814177750876
 31
0.0
  0
LINE
  5
7245
330
6762
100
AcDbEntity
  8
寸法線
 62
     0
 48
10.0
100
AcDbLine
 10
419.028273325325
 20
533.549534245649
 30
0.0
 11
419.028273325325
 21
412.814177750876
 31
0.0
  0
LINE
  5
7246
330
6762
100
AcDbEntity
  8
寸法線
 62
     0
 48
10.0
100
AcDbLine
 10
255.028273325325
 20
414.064177750876
 30
0.0
 11
413.028273325325
 21
414.064177750876
 31
0.0
  0
INSERT
  5
7247
330
6762
100
AcDbEntity
  8
寸法線
 62
     0
 48
10.0
100
AcDbBlockReference
  2
_OPEN30
 10
249.028273325325
 20
414.064177750876
 30
0.0
 41
6.0
 42
6.0
 43
6.0
 50
180.0
  0
INSERT
  5
7248
330
6762
100
AcDbEntity
  8
寸法線
 62
     0
 48
10.0
100
AcDbBlockReference
  2
_OPEN30
 10
419.028273325325
 20
414.064177750876
 30
0.0
 41
6.0
 42
6.0
 43
6.0
  0
MTEXT
  5
7249
330
6762
100
AcDbEntity
  8
寸法線
 62
     0
 48
10.0
100
AcDbMText
 10
334.028273325325
 20
419.689177750876
 30
0.0
 40
10.0
 41
0.0
 71
     5
 72
     1
  1
\A1;170
  0
POINT
  5
724A
330
6762
100
AcDbEntity
  8
DEFPOINTS
 62
     0
 48
10.0
100
AcDbPoint
 10
249.028273325325
 20
571.674534245649
 30
0.0
  0
POINT
  5
724B
330
6762
100
AcDbEntity
  8
DEFPOINTS
 62
     0
 48
10.0
100
AcDbPoint
 10
419.028273325325
 20
534.174534245649
 30
0.0
  0
POINT
  5
724C
330
6762
100
AcDbEntity
  8
DEFPOINTS
 62
     0
 48
10.0
100
AcDbPoint
 10
419.028273325325
 20
414.064177750876
 30
0.0
  0
ENDBLK
  5
676D
330
6762
100
AcDbEntity
  8
0
 48
10.0
100
AcDbBlockEnd
  0
BLOCK
  5
6F52
330
6F46
100
AcDbEntity
  8
0
 48
10.0
100
AcDbBlockBegin
  2
*D24
 70
     1
 10
0.0
 20
0.0
 30
0.0
  3
*D24
  1
*D24
  0
LINE
  5
7388
330
6F46
100
AcDbEntity
  8
寸法線
 62
     0
 48
10.0
100
AcDbLine
 10
506.28581189114
 20
616.704301000853
 30
0.0
 11
506.91081189114
 21
616.704301000853
 31
0.0
  0
LINE
  5
7389
330
6F46
100
AcDbEntity
  8
寸法線
 62
     0
 48
10.0
100
AcDbLine
 10
506.28581189114
 20
606.704378500853
 30
0.0
 11
506.91081189114
 21
606.704378500853
 31
0.0
  0
LINE
  5
738A
330
6F46
100
AcDbEntity
  8
寸法線
 62
     0
 48
10.0
100
AcDbLine
 10
505.66081189114
 20
600.704378500853
 30
0.0
 11
505.66081189114
 21
594.704378500853
 31
0.0
  0
LINE
  5
738B
330
6F46
100
AcDbEntity
  8
寸法線
 62
     0
 48
10.0
100
AcDbLine
 10
505.66081189114
 20
622.704301000853
 30
0.0
 11
505.66081189114
 21
650.462175016601
 31
0.0
  0
LINE
  5
738C
330
6F46
100
AcDbEntity
  8
寸法線
 62
     0
 48
10.0
100
AcDbLine
 10
505.66081189114
 20
606.704378500853
 30
0.0
 11
505.66081189114
 21
616.704301000853
 31
0.0
  0
INSERT
  5
738D
330
6F46
100
AcDbEntity
  8
寸法線
 62
     0
 48
10.0
100
AcDbBlockReference
  2
_OPEN30
 10
505.66081189114
 20
606.704378500853
 30
0.0
 41
6.0
 42
6.0
 43
6.0
 50
90.0
  0
INSERT
  5
738E
330
6F46
100
AcDbEntity
  8
寸法線
 62
     0
 48
10.0
100
AcDbBlockReference
  2
_OPEN30
 10
505.66081189114
 20
616.704301000853
 30
0.0
 41
6.0
 42
6.0
 43
6.0
 50
270.0
  0
MTEXT
  5
738F
330
6F46
100
AcDbEntity
  8
寸法線
 62
     0
 48
10.0
100
AcDbMText
 10
500.03581189114
 20
639.583238008727
 30
0.0
 40
10.0
 41
0.0
 71
     5
 72
     1
  1
\A1;φ10
 11
6.123031769111886E-17
 21
1.0
 31
0.0
  0
POINT
  5
7390
330
6F46
100
AcDbEntity
  8
DEFPOINTS
 62
     0
 48
10.0
100
AcDbPoint
 10
505.66081189114
 20
616.704301000853
 30
0.0
  0
POINT
  5
7391
330
6F46
100
AcDbEntity
  8
DEFPOINTS
 62
     0
 48
10.0
100
AcDbPoint
 10
505.66081189114
 20
606.704378500853
 30
0.0
  0
POINT
  5
7392
330
6F46
100
AcDbEntity
  8
DEFPOINTS
 62
     0
 48
10.0
100
AcDbPoint
 10
505.66081189114
 20
606.704378500853
 30
0.0
  0
ENDBLK
  5
6F53
330
6F46
100
AcDbEntity
  8
0
 48
10.0
100
AcDbBlockEnd
  0
BLOCK
  5
70F4
330
70EA
100
AcDbEntity
  8
0
 48
10.0
100
AcDbBlockBegin
  2
*D25
 70
     1
 10
0.0
 20
0.0
 30
0.0
  3
*D25
  1
*D25
  0
LINE
  5
7109
330
70EA
100
AcDbEntity
  8
寸法線_文字
 62
     0
 48
10.0
100
AcDbLine
 10
670.999393285179
 20
538.549534245649
 30
0.0
 11
670.999393285179
 21
434.814177750876
 31
0.0
  0
LINE
  5
710A
330
70EA
100
AcDbEntity
  8
寸法線_文字
 62
     0
 48
10.0
100
AcDbLine
 10
726.999393285179
 20
538.549534245649
 30
0.0
 11
726.999393285179
 21
434.814177750876
 31
0.0
  0
LINE
  5
710B
330
70EA
100
AcDbEntity
  8
寸法線_文字
 62
     0
 48
10.0
100
AcDbLine
 10
676.999393285179
 20
436.064177750876
 30
0.0
 11
720.999393285179
 21
436.064177750876
 31
0.0
  0
INSERT
  5
710C
330
70EA
100
AcDbEntity
  8
寸法線_文字
 62
     0
 48
10.0
100
AcDbBlockReference
  2
_OPEN30
 10
670.999393285179
 20
436.064177750876
 30
0.0
 41
6.0
 42
6.0
 43
6.0
 50
180.0
  0
INSERT
  5
710D
330
70EA
100
AcDbEntity
  8
寸法線_文字
 62
     0
 48
10.0
100
AcDbBlockReference
  2
_OPEN30
 10
726.999393285179
 20
436.064177750876
 30
0.0
 41
6.0
 42
6.0
 43
6.0
  0
MTEXT
  5
710E
330
70EA
100
AcDbEntity
  8
寸法線_文字
 62
     0
 48
10.0
100
AcDbMText
 10
698.999393285179
 20
441.689177750876
 30
0.0
 40
10.0
 41
0.0
 71
     5
 72
     1
  1
\A1;56
  0
POINT
  5
710F
330
70EA
100
AcDbEntity
  8
DEFPOINTS
 62
     0
 48
10.0
100
AcDbPoint
 10
670.999393285179
 20
539.174534245649
 30
0.0
  0
POINT
  5
7110
330
70EA
100
AcDbEntity
  8
DEFPOINTS
 62
     0
 48
10.0
100
AcDbPoint
 10
726.999393285179
 20
539.174534245649
 30
0.0
  0
POINT
  5
7111
330
70EA
100
AcDbEntity
  8
DEFPOINTS
 62
     0
 48
10.0
100
AcDbPoint
 10
726.999393285179
 20
436.064177750876
 30
0.0
  0
ENDBLK
  5
70F5
330
70EA
100
AcDbEntity
  8
0
 48
10.0
100
AcDbBlockEnd
  0
BLOCK
  5
712F
330
7125
100
AcDbEntity
  8
0
 48
10.0
100
AcDbBlockBegin
  2
*D26
 70
     1
 10
0.0
 20
0.0
 30
0.0
  3
*D26
  1
*D26
  0
LINE
  5
714F
330
7125
100
AcDbEntity
  8
寸法線
 62
     0
 48
10.0
100
AcDbLine
 10
552.999393285179
 20
534.549534245649
 30
0.0
 11
552.999393285179
 21
434.814177750876
 31
0.0
  0
LINE
  5
7150
330
7125
100
AcDbEntity
  8
寸法線
 62
     0
 48
10.0
100
AcDbLine
 10
541.028273325325
 20
533.54953424565
 30
0.0
 11
541.028273325325
 21
434.814177750876
 31
0.0
  0
LINE
  5
7151
330
7125
100
AcDbEntity
  8
寸法線
 62
     0
 48
10.0
100
AcDbLine
 10
552.999393285179
 20
436.064177750876
 30
0.0
 11
541.028273325325
 21
436.064177750876
 31
0.0
  0
LINE
  5
7152
330
7125
100
AcDbEntity
  8
寸法線
 62
     0
 48
10.0
100
AcDbLine
 10
558.999393285179
 20
436.064177750876
 30
0.0
 11
564.999393285179
 21
436.064177750876
 31
0.0
  0
LINE
  5
7153
330
7125
100
AcDbEntity
  8
寸法線
 62
     0
 48
10.0
100
AcDbLine
 10
535.028273325325
 20
436.064177750876
 30
0.0
 11
529.028273325325
 21
436.064177750876
 31
0.0
  0
INSERT
  5
7154
330
7125
100
AcDbEntity
  8
寸法線
 62
     0
100
AcDbBlockReference
  2
_OPEN30
 10
552.999393285179
 20
436.064177750876
 30
0.0
 41
6.0
 42
6.0
 43
6.0
 50
180.0
  0
INSERT
  5
7155
330
7125
100
AcDbEntity
  8
寸法線
 62
     0
100
AcDbBlockReference
  2
_OPEN30
 10
541.028273325325
 20
436.064177750876
 30
0.0
 41
6.0
 42
6.0
 43
6.0
  0
MTEXT
  5
7156
330
7125
100
AcDbEntity
  8
寸法線
 62
     0
 48
10.0
100
AcDbMText
 10
546.028273325325
 20
441.69438608421
 30
0.0
 40
10.0
 41
0.0
 71
     5
 72
     1
  1
\A1;12
  0
POINT
  5
7157
330
7125
100
AcDbEntity
  8
DEFPOINTS
 62
     0
100
AcDbPoint
 10
552.999393285179
 20
535.174534245649
 30
0.0
  0
POINT
  5
7158
330
7125
100
AcDbEntity
  8
DEFPOINTS
 62
     0
100
AcDbPoint
 10
541.028273325325
 20
534.17453424565
 30
0.0
  0
POINT
  5
7159
330
7125
100
AcDbEntity
  8
DEFPOINTS
 62
     0
100
AcDbPoint
 10
541.028273325325
 20
436.064177750876
 30
0.0
  0
ENDBLK
  5
7130
330
7125
100
AcDbEntity
  8
0
 48
10.0
100
AcDbBlockEnd
  0
BLOCK
  5
7167
330
715B
100
AcDbEntity
  8
0
 48
10.0
100
AcDbBlockBegin
  2
*D27
 70
     1
 10
0.0
 20
0.0
 30
0.0
  3
*D27
  1
*D27
  0
LINE
  5
7191
330
715B
100
AcDbEntity
  8
寸法線
 62
     0
 48
10.0
100
AcDbLine
 10
431.028273325325
 20
533.549534245649
 30
0.0
 11
431.028273325325
 21
434.814177750876
 31
0.0
  0
LINE
  5
7192
330
715B
100
AcDbEntity
  8
寸法線
 62
     0
 48
10.0
100
AcDbLine
 10
419.028273325325
 20
533.549534245649
 30
0.0
 11
419.028273325325
 21
434.814177750876
 31
0.0
  0
LINE
  5
7193
330
715B
100
AcDbEntity
  8
寸法線
 62
     0
 48
10.0
100
AcDbLine
 10
437.028273325325
 20
436.064177750876
 30
0.0
 11
443.028273325325
 21
436.064177750876
 31
0.0
  0
LINE
  5
7194
330
715B
100
AcDbEntity
  8
寸法線
 62
     0
 48
10.0
100
AcDbLine
 10
413.028273325325
 20
436.064177750876
 30
0.0
 11
407.028273325325
 21
436.064177750876
 31
0.0
  0
LINE
  5
7195
330
715B
100
AcDbEntity
  8
寸法線
 62
     0
 48
10.0
100
AcDbLine
 10
431.028273325325
 20
436.064177750876
 30
0.0
 11
419.028273325325
 21
436.064177750876
 31
0.0
  0
INSERT
  5
7196
330
715B
100
AcDbEntity
  8
寸法線
 62
     0
 48
10.0
100
AcDbBlockReference
  2
_OPEN30
 10
431.028273325325
 20
436.064177750876
 30
0.0
 41
6.0
 42
6.0
 43
6.0
 50
180.0
  0
INSERT
  5
7197
330
715B
100
AcDbEntity
  8
寸法線
 62
     0
 48
10.0
100
AcDbBlockReference
  2
_OPEN30
 10
419.028273325325
 20
436.064177750876
 30
0.0
 41
6.0
 42
6.0
 43
6.0
  0
MTEXT
  5
7198
330
715B
100
AcDbEntity
  8
寸法線
 62
     0
 48
10.0
100
AcDbMText
 10
425.028273325325
 20
441.690162002845
 30
0.0
 40
10.0
 41
0.0
 71
     5
 72
     1
  1
\A1;12
  0
POINT
  5
7199
330
715B
100
AcDbEntity
  8
DEFPOINTS
 62
     0
 48
10.0
100
AcDbPoint
 10
431.028273325325
 20
534.174534245649
 30
0.0
  0
POINT
  5
719A
330
715B
100
AcDbEntity
  8
DEFPOINTS
 62
     0
 48
10.0
100
AcDbPoint
 10
419.028273325325
 20
534.174534245649
 30
0.0
  0
POINT
  5
719B
330
715B
100
AcDbEntity
  8
DEFPOINTS
 62
     0
 48
10.0
100
AcDbPoint
 10
419.028273325325
 20
436.064177750876
 30
0.0
  0
ENDBLK
  5
7168
330
715B
100
AcDbEntity
  8
0
 48
10.0
100
AcDbBlockEnd
  0
BLOCK
  5
71A7
330
719D
100
AcDbEntity
  8
0
 48
10.0
100
AcDbBlockBegin
  2
*D28
 70
     1
 10
0.0
 20
0.0
 30
0.0
  3
*D28
  1
*D28
  0
LINE
  5
71BB
330
719D
100
AcDbEntity
  8
寸法線
 62
     0
 48
10.0
100
AcDbLine
 10
541.028273325325
 20
533.54953424565
 30
0.0
 11
541.028273325325
 21
434.814177750876
 31
0.0
  0
LINE
  5
71BC
330
719D
100
AcDbEntity
  8
寸法線
 62
     0
 48
10.0
100
AcDbLine
 10
431.028273325325
 20
533.549534245649
 30
0.0
 11
431.028273325325
 21
434.814177750876
 31
0.0
  0
LINE
  5
71BD
330
719D
100
AcDbEntity
  8
寸法線
 62
     0
 48
10.0
100
AcDbLine
 10
535.028273325325
 20
436.064177750876
 30
0.0
 11
437.028273325325
 21
436.064177750876
 31
0.0
  0
INSERT
  5
71BE
330
719D
100
AcDbEntity
  8
寸法線
 62
     0
 48
10.0
100
AcDbBlockReference
  2
_OPEN30
 10
541.028273325325
 20
436.064177750876
 30
0.0
 41
6.0
 42
6.0
 43
6.0
  0
INSERT
  5
71BF
330
719D
100
AcDbEntity
  8
寸法線
 62
     0
 48
10.0
100
AcDbBlockReference
  2
_OPEN30
 10
431.028273325325
 20
436.064177750876
 30
0.0
 41
6.0
 42
6.0
 43
6.0
 50
180.0
  0
MTEXT
  5
71C0
330
719D
100
AcDbEntity
  8
寸法線
 62
     0
 48
10.0
100
AcDbMText
 10
486.028273325325
 20
441.689177750876
 30
0.0
 40
10.0
 41
0.0
 71
     5
 72
     1
  1
\A1;110
  0
POINT
  5
71C1
330
719D
100
AcDbEntity
  8
DEFPOINTS
 62
     0
 48
10.0
100
AcDbPoint
 10
541.028273325325
 20
534.17453424565
 30
0.0
  0
POINT
  5
71C2
330
719D
100
AcDbEntity
  8
DEFPOINTS
 62
     0
 48
10.0
100
AcDbPoint
 10
431.028273325325
 20
534.174534245649
 30
0.0
  0
POINT
  5
71C3
330
719D
100
AcDbEntity
  8
DEFPOINTS
 62
     0
 48
10.0
100
AcDbPoint
 10
431.028273325325
 20
436.064177750876
 30
0.0
  0
ENDBLK
  5
71A8
330
719D
100
AcDbEntity
  8
0
 48
10.0
100
AcDbBlockEnd
  0
BLOCK
  5
727B
330
7271
100
AcDbEntity
  8
0
 48
10.0
100
AcDbBlockBegin
  2
*D29
 70
     1
 10
0.0
 20
0.0
 30
0.0
  3
*D29
  1
*D29
  0
LINE
  5
72BC
330
7271
100
AcDbEntity
  8
寸法線
 62
     0
 48
10.0
100
AcDbLine
 10
7.97457873037
 20
601.873745832223
 30
0.0
 11
7.890545762384
 21
602.49307083599
 31
0.0
  0
LINE
  5
72BD
330
7271
100
AcDbEntity
  8
寸法線
 62
     0
 48
10.0
100
AcDbLine
 10
161.567179638387
 20
622.713921889098
 30
0.0
 11
161.483146670401
 21
623.333246892865
 31
0.0
  0
LINE
  5
72BE
330
7271
100
AcDbEntity
  8
寸法線
 62
     0
 48
10.0
100
AcDbLine
 10
14.004131734522
 20
602.061137321118
 30
0.0
 11
155.705692570205
 21
621.287880392668
 31
0.0
  0
INSERT
  5
72BF
330
7271
100
AcDbEntity
  8
寸法線
 62
     0
100
AcDbBlockReference
  2
_OPEN30
 10
8.058611698355
 20
601.254420828455
 30
0.0
 41
6.0
 42
6.0
 43
6.0
 50
187.72697620223
  0
INSERT
  5
72C0
330
7271
100
AcDbEntity
  8
寸法線
 62
     0
100
AcDbBlockReference
  2
_OPEN30
 10
161.651212606373
 20
622.094596885331
 30
0.0
 41
6.0
 42
6.0
 43
6.0
 50
7.72697620223
  0
MTEXT
  5
72C1
330
7271
100
AcDbEntity
  8
寸法線
 62
     0
 48
10.0
100
AcDbMText
 10
130.118578223586
 20
623.492641755376
 30
0.0
 40
10.0
 41
0.0
 71
     5
 72
     1
  1
\A1;φ155
 11
0.9909200060278794
 21
0.1344527487770603
 31
0.0
  0
POINT
  5
72C2
330
7271
100
AcDbEntity
  8
DEFPOINTS
 62
     0
100
AcDbPoint
 10
8.058611698355
 20
601.254420828455
 30
0.0
  0
POINT
  5
72C3
330
7271
100
AcDbEntity
  8
DEFPOINTS
 62
     0
100
AcDbPoint
 10
161.651212606373
 20
622.094596885331
 30
0.0
  0
POINT
  5
72C4
330
7271
100
AcDbEntity
  8
DEFPOINTS
 62
     0
100
AcDbPoint
 10
161.651212606373
 20
622.094596885331
 30
0.0
  0
ENDBLK
  5
727C
330
7271
100
AcDbEntity
  8
0
 48
10.0
100
AcDbBlockEnd
  0
BLOCK
  5
72D0
330
72C6
100
AcDbEntity
  8
0
 48
10.0
100
AcDbBlockBegin
  2
*D30
 70
     1
 10
0.0
 20
0.0
 30
0.0
  3
*D30
  1
*D30
  0
LINE
  5
72FF
330
72C6
100
AcDbEntity
  8
寸法線
 62
     0
 48
10.0
100
AcDbLine
 10
26.89498425313
 20
582.247581895911
 30
0.0
 11
26.606698895628
 21
582.802123646052
 31
0.0
  0
LINE
  5
7300
330
72C6
100
AcDbEntity
  8
寸法線
 62
     0
 48
10.0
100
AcDbLine
 10
142.239667286405
 20
642.210935738538
 30
0.0
 11
141.951381928903
 21
642.765477488679
 31
0.0
  0
LINE
  5
7301
330
72C6
100
AcDbEntity
  8
寸法線
 62
     0
 48
10.0
100
AcDbLine
 10
32.506870411989
 20
584.460579577791
 30
0.0
 11
137.204351842551
 21
638.888854556375
 31
0.0
  0
INSERT
  5
7302
330
72C6
100
AcDbEntity
  8
寸法線
 62
     0
100
AcDbBlockReference
  2
_OPEN30
 10
27.183269610633
 20
581.693040145769
 30
0.0
 41
6.0
 42
6.0
 43
6.0
 50
207.46822156279
  0
INSERT
  5
7303
330
72C6
100
AcDbEntity
  8
寸法線
 62
     0
100
AcDbBlockReference
  2
_OPEN30
 10
142.527952643907
 20
641.656393988397
 30
0.0
 41
6.0
 42
6.0
 43
6.0
 50
27.46822156279
  0
MTEXT
  5
7304
330
72C6
100
AcDbEntity
  8
寸法線
 62
     0
 48
10.0
100
AcDbMText
 10
122.842169268459
 20
637.768061163645
 30
0.0
 40
10.0
 41
0.0
 71
     5
 72
     1
  1
\A1;φ130
 11
0.8872668002260985
 21
0.4612565720036308
 31
0.0
  0
POINT
  5
7305
330
72C6
100
AcDbEntity
  8
DEFPOINTS
 62
     0
100
AcDbPoint
 10
27.183269610632
 20
581.693040145769
 30
0.0
  0
POINT
  5
7306
330
72C6
100
AcDbEntity
  8
DEFPOINTS
 62
     0
100
AcDbPoint
 10
142.527952643907
 20
641.656393988397
 30
0.0
  0
POINT
  5
7307
330
72C6
100
AcDbEntity
  8
DEFPOINTS
 62
     0
100
AcDbPoint
 10
142.527952643907
 20
641.656393988397
 30
0.0
  0
ENDBLK
  5
72D1
330
72C6
100
AcDbEntity
  8
0
 48
10.0
100
AcDbBlockEnd
  0
ENDSEC
  0
SECTION
  2
ENTITIES
  0
LINE
  5
5735
330
1A
100
AcDbEntity
  8
外形線
 62
     0
100
AcDbLine
 10
68.855258098435
 20
532.074534245648
 30
0.0
 11
65.355258098435
 21
533.012356419158
 31
0.0
  0
LINE
  5
5736
330
1A
100
AcDbEntity
  8
外形線
 62
     0
100
AcDbLine
 10
68.855258098434
 20
523.074534245648
 30
0.0
 11
67.355258098434
 21
523.074534245648
 31
0.0
  0
LINE
  5
5737
330
1A
100
AcDbEntity
  8
外形線
100
AcDbLine
 10
65.355258098434
 20
521.919833707269
 30
0.0
 11
65.355258098434
 21
496.229234784028
 31
0.0
  0
LINE
  5
5738
330
1A
100
AcDbEntity
  8
外形線
100
AcDbLine
 10
67.355258098434
 20
495.074534245648
 30
0.0
 11
102.355258098435
 21
495.074534245648
 31
0.0
  0
LINE
  5
5739
330
1A
100
AcDbEntity
  8
外形線
100
AcDbLine
 10
67.355258098434
 20
495.074534245648
 30
0.0
 11
65.355258098434
 21
496.229234784028
 31
0.0
  0
LINE
  5
573A
330
1A
100
AcDbEntity
  8
外形線
 62
     0
100
AcDbLine
 10
67.355258098434
 20
523.074534245648
 30
0.0
 11
65.355258098434
 21
521.919833707269
 31
0.0
  0
ARC
  5
573B
330
1A
100
AcDbEntity
  8
外形線
100
AcDbCircle
 10
69.605258098434
 20
475.074534245648
 30
0.0
 40
2.0
100
AcDbArc
 50
180.0
 51
270.0
  0
LINE
  5
573C
330
1A
100
AcDbEntity
  8
外形線
100
AcDbLine
 10
67.605258098434
 20
475.074534245648
 30
0.0
 11
67.605258098434
 21
495.074534245648
 31
0.0
  0
LINE
  5
573D
330
1A
100
AcDbEntity
  8
外形線
100
AcDbLine
 10
72.255258098435
 20
461.074534245648
 30
0.0
 11
97.455258098435
 21
461.074534245648
 31
0.0
  0
LINE
  5
573E
330
1A
100
AcDbEntity
  8
外形線
100
AcDbLine
 10
72.255258098435
 20
461.074534245648
 30
0.0
 11
71.755258098435
 21
461.940559649433
 31
0.0
  0
LINE
  5
573F
330
1A
100
AcDbEntity
  8
外形線
100
AcDbLine
 10
71.755258098435
 20
473.074534245649
 30
0.0
 11
71.755258098435
 21
461.940559649433
 31
0.0
  0
LINE
  5
5740
330
1A
100
AcDbEntity
  8
外形線
 62
     0
100
AcDbLine
 10
68.855258098435
 20
532.074534245648
 30
0.0
 11
68.855258098435
 21
523.074534245648
 31
0.0
  0
LINE
  5
5741
330
1A
100
AcDbEntity
  8
外形線
 62
     0
100
AcDbLine
 10
65.355258098435
 20
536.669309983279
 30
0.0
 11
65.355258098435
 21
533.012356419158
 31
0.0
  0
LINE
  5
5742
330
1A
100
AcDbEntity
  8
外形線
 48
10.0
100
AcDbLine
 10
68.855258098435
 20
532.074534245648
 30
0.0
 11
100.855258098435
 21
532.074534245648
 31
0.0
  0
LINE
  5
5743
330
1A
100
AcDbEntity
  8
外形線
 48
10.0
100
AcDbLine
 10
69.605258098434
 20
473.074534245648
 30
0.0
 11
100.105258098435
 21
473.074534245648
 31
0.0
  0
LINE
  5
5744
330
1A
100
AcDbEntity
  8
外形線
 48
10.0
100
AcDbLine
 10
68.855258098434
 20
523.074534245648
 30
0.0
 11
100.855258098435
 21
523.074534245648
 31
0.0
  0
LINE
  5
5745
330
1A
100
AcDbEntity
  8
外形線
 48
10.0
100
AcDbLine
 10
83.512406835907
 20
496.229234784028
 30
0.0
 11
83.512406835907
 21
521.919833707269
 31
0.0
  0
LINE
  5
5746
330
1A
100
AcDbEntity
  8
外形線
 48
10.0
100
AcDbLine
 10
83.512406835907
 20
532.074534245649
 30
0.0
 11
83.512406835907
 21
534.187603815425
 31
0.0
  0
LINE
  5
5747
330
1A
100
AcDbEntity
  8
外形線
 48
10.0
100
AcDbLine
 10
76.895726448472
 20
532.074534245648
 30
0.0
 11
76.895726448472
 21
534.585791629281
 31
0.0
  0
LINE
  5
5748
330
1A
100
AcDbEntity
  8
外形線
 48
10.0
100
AcDbLine
 10
74.210023923416
 20
532.074534245648
 30
0.0
 11
74.210023923416
 21
534.91055739384
 31
0.0
  0
LINE
  5
5749
330
1A
100
AcDbEntity
  8
外形線
 48
10.0
100
AcDbLine
 10
83.512406835907
 20
496.229234784028
 30
0.0
 11
84.855258098434
 21
496.229234784028
 31
0.0
  0
ARC
  5
574A
330
1A
100
AcDbEntity
  8
外形線
 48
10.0
100
AcDbCircle
 10
75.552875185944
 20
523.085033621918
 30
0.0
 40
28.01049937626924
100
AcDbArc
 50
270.0
 51
286.508789686951
  0
ARC
  5
574B
330
1A
100
AcDbEntity
  8
外形線
 48
10.0
100
AcDbCircle
 10
75.552875185944
 20
495.06403486938
 30
0.0
 40
28.01049937626924
100
AcDbArc
 50
73.491210313049
 51
90.0
  0
LINE
  5
574C
330
1A
100
AcDbEntity
  8
外形線
 48
10.0
100
AcDbLine
 10
83.512406835907
 20
521.919833707269
 30
0.0
 11
84.855258098434
 21
521.919833707269
 31
0.0
  0
LINE
  5
574D
330
1A
100
AcDbEntity
  8
中心線
 48
10.0
100
AcDbLine
 10
84.855258098435
 20
451.074534245648
 30
0.0
 11
84.855258098435
 21
699.175968554357
 31
0.0
  0
LINE
  5
574E
330
1A
100
AcDbEntity
  8
中心線
 48
10.0
100
AcDbLine
 10
-2.644711888293
 20
611.674534245649
 30
0.0
 11
172.355288085162
 21
611.674534245649
 31
0.0
  0
LINE
  5
574F
330
1A
100
AcDbEntity
  8
外形線
 48
10.0
100
AcDbLine
 10
86.283279146725
 20
571.661053983775
 30
0.0
 11
83.42727463219
 21
571.661053983775
 31
0.0
  0
LINE
  5
5750
330
1A
100
AcDbEntity
  8
外形線
 48
10.0
100
AcDbLine
 10
86.283279146725
 20
651.661053983775
 30
0.0
 11
83.42727463219
 21
651.661053983775
 31
0.0
  0
LINE
  5
5751
330
1A
100
AcDbEntity
  8
外形線
 48
10.0
100
AcDbLine
 10
86.283279146725
 20
571.661053983775
 30
0.0
 11
86.283279146725
 21
651.661053983775
 31
0.0
  0
LINE
  5
5752
330
1A
100
AcDbEntity
  8
外形線
 48
10.0
100
AcDbLine
 10
83.42727463219
 20
651.661053983775
 30
0.0
 11
83.42727463219
 21
571.661053983775
 31
0.0
  0
ARC
  5
5753
330
1A
100
AcDbEntity
  8
外形線
 48
10.0
100
AcDbCircle
 10
84.855258098435
 20
611.674534245649
 30
0.0
 40
21.5
100
AcDbArc
 50
270.0
 51
270.000001804094
  0
LINE
  5
5754
330
1A
100
AcDbEntity
  8
外形線
100
AcDbLine
 10
86.345895863137
 20
619.42835872801
 30
0.0
 11
92.338023863137
 21
615.96885672801
 31
0.0
  0
LINE
  5
5755
330
1A
100
AcDbEntity
  8
外形線
100
AcDbLine
 10
92.338023863137
 20
615.96885672801
 30
0.0
 11
92.338023863137
 21
607.40086272801
 31
0.0
  0
LINE
  5
5756
330
1A
100
AcDbEntity
  8
外形線
100
AcDbLine
 10
86.345895863137
 20
603.94123872801
 30
0.0
 11
92.338023863137
 21
607.40086272801
 31
0.0
  0
ARC
  5
5757
330
1A
100
AcDbEntity
  8
細線
100
AcDbCircle
 10
84.917917863137
 20
611.68479872801
 30
0.0
 40
7.458525999999999
100
AcDbArc
 50
281.037746568168
 51
78.962275527422
  0
LINE
  5
5758
330
1A
100
AcDbEntity
  8
外形線
100
AcDbLine
 10
83.489909863137
 20
603.94126872801
 30
0.0
 11
77.497813863137
 21
607.40086272801
 31
0.0
  0
LINE
  5
5759
330
1A
100
AcDbEntity
  8
外形線
100
AcDbLine
 10
77.497813863137
 20
607.40086272801
 30
0.0
 11
77.497813863137
 21
615.96885672801
 31
0.0
  0
LINE
  5
575A
330
1A
100
AcDbEntity
  8
外形線
100
AcDbLine
 10
83.489909863137
 20
619.42832872801
 30
0.0
 11
77.497813863137
 21
615.96885672801
 31
0.0
  0
ARC
  5
575B
330
1A
100
AcDbEntity
  8
細線
100
AcDbCircle
 10
84.917917863137
 20
611.68479872801
 30
0.0
 40
7.458525999999999
100
AcDbArc
 50
101.038013199222
 51
258.962026496463
  0
CIRCLE
  5
575C
330
1A
100
AcDbEntity
  8
外形線
100
AcDbCircle
 10
130.817228270573
 20
565.713968000559
 30
0.0
 40
7.711199999999998
  0
CIRCLE
  5
575D
330
1A
100
AcDbEntity
  8
外形線
100
AcDbCircle
 10
38.893347926297
 20
565.713968000559
 30
0.0
 40
7.711199999999998
  0
CIRCLE
  5
575E
330
1A
100
AcDbEntity
  8
外形線
100
AcDbCircle
 10
130.817228270573
 20
657.637969108167
 30
0.0
 40
7.711199999999998
  0
CIRCLE
  5
575F
330
1A
100
AcDbEntity
  8
外形線
100
AcDbCircle
 10
84.855288098435
 20
611.675968554363
 30
0.0
 40
77.5
  0
CIRCLE
  5
5760
330
1A
100
AcDbEntity
  8
外形線
100
AcDbCircle
 10
38.893347926297
 20
657.637969108167
 30
0.0
 40
7.711199999999998
  0
LINE
  5
5761
330
1A
100
AcDbEntity
  8
中心線
 48
10.0
100
AcDbLine
 10
123.667292637912
 20
572.953350682747
 30
0.0
 11
137.967291806248
 21
558.65335151441
 31
0.0
  0
LINE
  5
5762
330
1A
100
AcDbEntity
  8
中心線
 48
10.0
100
AcDbLine
 10
31.743348342129
 20
558.56396841639
 30
0.0
 11
46.043347510465
 21
572.863967584727
 31
0.0
  0
LINE
  5
5763
330
1A
100
AcDbEntity
  8
中心線
 48
10.0
100
AcDbLine
 10
31.743348342129
 20
664.787968692335
 30
0.0
 11
46.043347510465
 21
650.487969523999
 31
0.0
  0
LINE
  5
5764
330
1A
100
AcDbEntity
  8
中心線
 48
10.0
100
AcDbLine
 10
123.667228686404
 20
650.487969523999
 30
0.0
 11
137.967227854741
 21
664.787968692335
 31
0.0
  0
CIRCLE
  5
5765
330
1A
100
AcDbEntity
  8
中心線
 48
10.0
100
AcDbCircle
 10
84.855258098435
 20
611.675955783985
 30
0.0
 40
65.0
  0
LEADER
  5
5766
330
1A
100
AcDbEntity
  8
寸法線
 48
10.0
100
AcDbLeader
  3
ISO-25
 76
     3
 10
36.519084879038
 20
558.37738293512
 30
0.0
 10
24.296210415449
 20
520.60812297473
 30
0.0
 10
12.296210415449
 20
520.60812297473
 30
0.0
213
-5.76379680120499
223
0.0
233
0.0
1001
ACAD
1000
DSTYLE
1002
{
1070
     5
1000
OPEN30
1070
   147
1040
0.625
1070
    77
1070
     0
1070
    41
1040
6.0
1070
    47
1040
0.1
1070
    48
1040
0.1
1070
    73
1070
     0
1070
   140
1040
5.0
1070
   271
1070
     1
1070
   272
1070
     1
1070
   341
1005
2AF4
1070
   342
1005
2AF4
1002
}
  0
MTEXT
  5
5767
330
1A
100
AcDbEntity
  8
寸法線
 48
10.0
100
AcDbMText
 10
-14.564648833521
 20
531.981876440484
 30
0.0
 40
10.0
 41
50.185274551883
 71
     1
 72
     5
  1
4-φ15
  0
LINE
  5
5768
330
1A
100
AcDbEntity
  8
外形線
 62
     0
100
AcDbLine
 10
100.855258098435
 20
532.074534245648
 30
0.0
 11
104.355258098435
 21
533.012356419158
 31
0.0
  0
LINE
  5
5769
330
1A
100
AcDbEntity
  8
外形線
 62
     0
100
AcDbLine
 10
100.855258098435
 20
523.074534245648
 30
0.0
 11
102.355258098435
 21
523.074534245648
 31
0.0
  0
LINE
  5
576A
330
1A
100
AcDbEntity
  8
外形線
100
AcDbLine
 10
104.355258098435
 20
521.919833707269
 30
0.0
 11
104.355258098435
 21
496.229234784028
 31
0.0
  0
LINE
  5
576B
330
1A
100
AcDbEntity
  8
外形線
100
AcDbLine
 10
102.355258098435
 20
495.074534245648
 30
0.0
 11
104.355258098435
 21
496.229234784028
 31
0.0
  0
LINE
  5
576C
330
1A
100
AcDbEntity
  8
外形線
 62
     0
100
AcDbLine
 10
102.355258098435
 20
523.074534245648
 30
0.0
 11
104.355258098435
 21
521.919833707269
 31
0.0
  0
ARC
  5
576D
330
1A
100
AcDbEntity
  8
外形線
100
AcDbCircle
 10
100.105258098435
 20
475.074534245648
 30
0.0
 40
1.999999999999999
100
AcDbArc
 50
270.0
 51
0.0
  0
LINE
  5
576E
330
1A
100
AcDbEntity
  8
外形線
100
AcDbLine
 10
102.105258098435
 20
475.074534245648
 30
0.0
 11
102.105258098435
 21
495.074534245648
 31
0.0
  0
LINE
  5
576F
330
1A
100
AcDbEntity
  8
外形線
100
AcDbLine
 10
97.455258098435
 20
461.074534245648
 30
0.0
 11
97.955258098435
 21
461.940559649433
 31
0.0
  0
LINE
  5
5770
330
1A
100
AcDbEntity
  8
外形線
100
AcDbLine
 10
97.955258098435
 20
473.074534245649
 30
0.0
 11
97.955258098435
 21
461.940559649433
 31
0.0
  0
LINE
  5
5771
330
1A
100
AcDbEntity
  8
外形線
 62
     0
100
AcDbLine
 10
100.855258098435
 20
532.074534245648
 30
0.0
 11
100.855258098435
 21
523.074534245648
 31
0.0
  0
LINE
  5
5772
330
1A
100
AcDbEntity
  8
外形線
 48
10.0
100
AcDbLine
 10
86.198109360962
 20
496.229234784028
 30
0.0
 11
86.198109360962
 21
521.919833707269
 31
0.0
  0
LINE
  5
5773
330
1A
100
AcDbEntity
  8
外形線
 48
10.0
100
AcDbLine
 10
86.198109360962
 20
496.229234784028
 30
0.0
 11
84.855258098435
 21
496.229234784028
 31
0.0
  0
ARC
  5
5774
330
1A
100
AcDbEntity
  8
外形線
 48
10.0
100
AcDbCircle
 10
94.157641010925
 20
523.085033621918
 30
0.0
 40
28.01049937626922
100
AcDbArc
 50
253.491210313049
 51
270.0
  0
ARC
  5
5775
330
1A
100
AcDbEntity
  8
外形線
 48
10.0
100
AcDbCircle
 10
94.157641010925
 20
495.06403486938
 30
0.0
 40
28.01049937626922
100
AcDbArc
 50
90.0
 51
106.508789686951
  0
LINE
  5
5776
330
1A
100
AcDbEntity
  8
外形線
 48
10.0
100
AcDbLine
 10
86.198109360962
 20
521.919833707269
 30
0.0
 11
84.855258098435
 21
521.919833707269
 31
0.0
  0
LINE
  5
5777
330
1A
100
AcDbEntity
  8
外形線
 62
     0
100
AcDbLine
 10
104.355258098435
 20
536.669309983279
 30
0.0
 11
104.355258098435
 21
533.012356419158
 31
0.0
  0
LINE
  5
5778
330
1A
100
AcDbEntity
  8
外形線
 48
10.0
100
AcDbLine
 10
95.500492273453
 20
532.074534245648
 30
0.0
 11
95.500492273453
 21
534.91055739384
 31
0.0
  0
LINE
  5
5779
330
1A
100
AcDbEntity
  8
外形線
 48
10.0
100
AcDbLine
 10
92.814789748398
 20
532.074534245648
 30
0.0
 11
92.814789748398
 21
534.585791629281
 31
0.0
  0
LINE
  5
577A
330
1A
100
AcDbEntity
  8
外形線
 48
10.0
100
AcDbLine
 10
86.198109360962
 20
532.074534245649
 30
0.0
 11
86.198109360962
 21
534.187603815425
 31
0.0
  0
ARC
  5
577D
330
1A
100
AcDbEntity
  8
外形線
100
AcDbCircle
 10
84.855240598435
 20
611.655799763288
 30
0.0
 40
17.5
100
AcDbArc
 50
274.680567798311
 51
85.319432201689
  0
ARC
  5
577E
330
1A
100
AcDbEntity
  8
外形線
100
AcDbCircle
 10
84.855240598435
 20
611.655799763288
 30
0.0
 40
17.5
100
AcDbArc
 50
94.6805264663
 51
265.3194735337
  0
DIMENSION
  5
577F
330
1A
100
AcDbEntity
  8
寸法線
 48
10.0
100
AcDbDimension
  2
*D13
 10
86.293513629086
 20
583.391782331669
 30
0.0
 11
105.125620410272
 21
589.016782331669
 31
0.0
 70
    32
  1
1.5
  3
ISO-25
100
AcDbAlignedDimension
 13
83.437509114551
 23
583.391782331669
 33
0.0
 14
86.293513629086
 24
583.391782331669
 34
0.0
100
AcDbRotatedDimension
1001
ACAD
1000
DSTYLE
1002
{
1070
     5
1000
OPEN30
1070
    41
1040
6.0
1070
    47
1040
0.1
1070
    48
1040
0.1
1070
    73
1070
     0
1070
   140
1040
10.0
1070
   271
1070
     1
1070
   272
1070
     1
1070
   341
1005
2AF4
1002
}
  0
MTEXT
  5
585A
330
1A
100
AcDbEntity
  8
細線
 48
10.0
100
AcDbMText
 10
2388.730547772073
 20
872.93633111709
 30
0.0
 40
6.0
 41
0.0
 71
     7
 72
     1
  1

  0
HATCH
  5
5869
330
1A
100
AcDbEntity
  8
細線
 48
10.0
100
AcDbHatch
 10
0.0
 20
0.0
 30
0.0
210
0.0
220
0.0
230
1.0
  2
ANSI31
 70
     0
 71
     0
 91
       19
 92
        7
 72
     1
 73
     1
 93
        5
 10
65.35525809843489
 20
533.0123564191574
 42
0.0
 10
68.85525809843489
 20
532.0745342456485
 42
0.0
 10
74.21002392341666
 20
532.0745342456485
 42
0.0
 10
74.21002392341666
 20
534.9105573938401
 42
-0.0291464811783065
 10
65.35525809843489
 20
536.6693099832792
 42
0.0
 97
        0
 92
        7
 72
     1
 73
     1
 93
       10
 10
68.85525809843466
 20
523.0745342456485
 42
0.0
 10
67.35525809843466
 20
523.0745342456485
 42
0.0
 10
65.35525809843466
 20
521.9198337072692
 42
0.0
 10
65.35525809843466
 20
496.2292347840278
 42
0.0
 10
67.35525809843466
 20
495.0745342456485
 42
0.0
 10
67.60525809843466
 20
495.0745342456485
 42
0.0
 10
75.55287518594423
 20
495.0745342456485
 42
0.0721580311220404
 10
83.51240683590981
 20
496.2292347840284
 42
0.0
 10
83.51240683590731
 20
521.9198337072692
 42
0.0721580311220404
 10
75.55287518594423
 20
523.0745342456485
 42
0.0
 97
        0
 92
        7
 72
     1
 73
     1
 93
        7
 10
67.60525809843466
 20
475.0745342456485
 42
0.414213562373095
 10
69.60525809843466
 20
473.0745342456485
 42
0.0
 10
71.75525809843475
 20
473.0745342456485
 42
0.0
 10
84.85525809843489
 20
473.0745342456485
 42
0.0
 10
84.85525809843489
 20
495.0745342456485
 42
0.0
 10
75.55287518594423
 20
495.0745342456485
 42
0.0
 10
67.60525809843466
 20
495.0745342456485
 42
0.0
 97
        0
 92
        7
 72
     0
 73
     1
 93
        8
 10
68.85525809843489
 20
532.0745342456485
 10
68.85525809843489
 20
523.0745342456485
 10
75.55287518594423
 20
523.0745342456485
 10
84.85525809843489
 20
523.0745342456485
 10
84.85525809843489
 20
532.0745342456485
 10
83.51240683590754
 20
532.0745342456485
 10
76.8957264484718
 20
532.0745342456485
 10
74.21002392341666
 20
532.0745342456485
 97
        0
 92
        7
 72
     0
 73
     1
 93
        4
 10
83.51240683590731
 20
521.9198337072692
 10
83.51240683590731
 20
496.2292347840278
 10
84.85525809843466
 20
496.2292347840278
 10
84.85525809843489
 20
521.9198337072692
 97
        0
 92
        7
 72
     1
 73
     1
 93
        4
 10
83.51240683590754
 20
532.0745342456485
 42
0.0
 10
83.51240683590754
 20
534.1876038154242
 42
-0.0213925304775309
 10
76.8957264484718
 20
534.5857916292807
 42
0.0
 10
76.8957264484718
 20
532.0745342456485
 42
0.0
 97
        0
 92
        7
 72
     1
 73
     1
 93
        4
 10
83.51240683590754
 20
534.1876038154242
 42
0.0
 10
83.51240683590754
 20
532.0745342456485
 42
0.0
 10
84.85525809843489
 20
532.0745342456485
 42
0.0
 10
84.85525809843489
 20
534.1759685543684
 42
-0.0043320221627083
 97
        0
 92
        7
 72
     1
 73
     1
 93
        4
 10
76.8957264484718
 20
532.0745342456485
 42
0.0
 10
76.8957264484718
 20
534.5857916292807
 42
-0.008727333203576
 10
74.21002392341666
 20
534.9105573938401
 42
0.0
 10
74.21002392341666
 20
532.0745342456485
 42
0.0
 97
        0
 92
        7
 72
     1
 73
     1
 93
        4
 10
84.85525809843466
 20
496.2292347840278
 42
0.0
 10
83.51240683590731
 20
496.2292347840278
 42
-0.0721580311220404
 10
75.55287518594423
 20
495.0745342456485
 42
0.0
 10
84.85525809843489
 20
495.0745342456485
 42
0.0
 97
        0
 92
        7
 72
     1
 73
     1
 93
        4
 10
75.55287518594423
 20
523.0745342456485
 42
-0.0721580311220404
 10
83.51240683590981
 20
521.9198337072685
 42
0.0
 10
84.85525809843466
 20
521.9198337072692
 42
0.0
 10
84.85525809843489
 20
523.0745342456485
 42
0.0
 97
        0
 92
        7
 72
     1
 73
     1
 93
        7
 10
100.8552580984347
 20
532.0745342456485
 42
0.0
 10
104.3552580984347
 20
533.0123564191574
 42
0.0
 10
104.3552580984347
 20
536.6693099832792
 42
0.0
 10
104.3552580984347
 20
536.6692943846656
 42
-0.0291464765926826
 10
95.50049227345289
 20
534.9105490735042
 42
0.0
 10
95.50049227345289
 20
534.9105573938401
 42
0.0
 10
95.50049227345289
 20
532.0745342456485
 42
0.0
 97
        0
 92
        7
 72
     1
 73
     1
 93
       10
 10
102.3552580984349
 20
523.0745342456485
 42
0.0
 10
100.8552580984349
 20
523.0745342456485
 42
0.0
 10
94.15764101092532
 20
523.0745342456485
 42
0.0721580311220404
 10
86.19810936095973
 20
521.9198337072685
 42
0.0
 10
86.19810936096223
 20
496.2292347840278
 42
0.0721580311220404
 10
94.15764101092532
 20
495.0745342456485
 42
0.0
 10
102.1052580984349
 20
495.0745342456485
 42
0.0
 10
102.3552580984349
 20
495.0745342456485
 42
0.0
 10
104.3552580984349
 20
496.2292347840278
 42
0.0
 10
104.3552580984349
 20
521.9198337072692
 42
0.0
 97
        0
 92
        7
 72
     1
 73
     1
 93
        7
 10
100.1052580984349
 20
473.0745342456485
 42
0.414213562373095
 10
102.1052580984349
 20
475.0745342456485
 42
0.0
 10
102.1052580984349
 20
495.0745342456485
 42
0.0
 10
94.15764101092532
 20
495.0745342456485
 42
0.0
 10
84.85525809843489
 20
495.0745342456485
 42
0.0
 10
84.85525809843489
 20
473.0745342456485
 42
0.0
 10
97.9552580984348
 20
473.0745342456485
 42
0.0
 97
        0
 92
        7
 72
     0
 73
     1
 93
        8
 10
100.8552580984347
 20
523.0745342456485
 10
100.8552580984347
 20
532.0745342456485
 10
95.50049227345289
 20
532.0745342456485
 10
92.81478974839774
 20
532.0745342456485
 10
86.19810936096201
 20
532.0745342456485
 10
84.85525809843489
 20
532.0745342456485
 10
84.85525809843489
 20
523.0745342456485
 10
94.15764101092532
 20
523.0745342456485
 97
        0
 92
        7
 72
     0
 73
     1
 93
        4
 10
86.19810936096223
 20
496.2292347840278
 10
86.19810936096223
 20
521.9198337072692
 10
84.85525809843489
 20
521.9198337072692
 10
84.85525809843489
 20
496.2292347840278
 97
        0
 92
        7
 72
     1
 73
     1
 93
        4
 10
86.19810936096223
 20
496.2292347840278
 42
0.0
 10
84.85525809843489
 20
496.2292347840278
 42
0.0
 10
84.85525809843489
 20
495.0745342456485
 42
0.0
 10
94.15764101092532
 20
495.0745342456485
 42
-0.0721580311220404
 97
        0
 92
        7
 72
     1
 73
     1
 93
        4
 10
86.19810936095973
 20
521.9198337072685
 42
-0.0721580311220404
 10
94.15764101092532
 20
523.0745342456485
 42
0.0
 10
84.85525809843489
 20
523.0745342456485
 42
0.0
 10
84.85525809843489
 20
521.9198337072692
 42
0.0
 97
        0
 92
        7
 72
     1
 73
     1
 93
        6
 10
95.50049227345289
 20
532.0745342456485
 42
0.0
 10
95.50049227345289
 20
534.9105573938401
 42
0.0
 10
95.50049227345289
 20
534.9105490735042
 42
-0.0087273323803324
 10
92.81478974839774
 20
534.5857854343035
 42
0.0
 10
92.81478974839774
 20
534.5857916292807
 42
0.0
 10
92.81478974839774
 20
532.0745342456485
 42
0.0
 97
        0
 92
        7
 72
     1
 73
     1
 93
        6
 10
92.81478974839774
 20
532.0745342456485
 42
0.0
 10
92.81478974839774
 20
534.5857916292807
 42
0.0
 10
92.81478974839774
 20
534.5857854343035
 42
-0.0213925294772096
 10
86.19810936096201
 20
534.1876027756414
 42
0.0
 10
86.19810936096201
 20
534.1876038154242
 42
0.0
 10
86.19810936096201
 20
532.0745342456485
 42
0.0
 97
        0
 75
     0
 76
     1
 52
0.0
 41
1.25
 77
     0
 78
     1
 53
45.0
 43
0.0
 44
0.0
 45
-2.80633003783411
 46
2.806330037834111
 79
     0
 47
0.0
 98
       19
 10
70.73656386152243
 20
532.6510335977082
 10
71.74239402455464
 20
513.6659892704724
 10
81.72021338193986
 20
490.5976654568583
 10
78.28029008426506
 20
527.8733403233045
 10
84.33712625887279
 20
520.9670982566245
 10
78.90893393616034
 20
532.9024911384663
 10
84.31527106245926
 20
532.9024911384663
 10
75.89144344706324
 20
532.9024911384663
 10
83.91754331210586
 20
495.5416577997319
 10
83.75391174783704
 20
522.5632642868272
 10
98.1454358041542
 20
533.0282199088454
 10
88.69588734134936
 20
521.0898802589477
 10
87.66299205670725
 20
491.9959663215093
 10
93.7449288408875
 20
526.9932389306514
 10
85.96398778965636
 20
519.7699737339724
 10
86.41450914183997
 20
495.3419005333531
 10
86.36302929720705
 20
522.6553507885696
 10
94.24784392240372
 20
533.0282199088454
 10
87.08130401079825
 20
533.0282199088454
1001
ACAD
1010
0.0
1020
0.0
1030
0.0
  0
HATCH
  5
586A
330
1A
100
AcDbEntity
  8
細線
 48
10.0
100
AcDbHatch
 10
0.0
 20
0.0
 30
0.0
210
0.0
220
0.0
230
1.0
  2
ANSI31
 70
     0
 71
     0
 91
        2
 92
        7
 72
     0
 73
     1
 93
        5
 10
72.25525809843475
 20
461.0745342456485
 10
84.85525809843489
 20
461.0745342456485
 10
84.85525809843489
 20
473.0745342456485
 10
71.75525809843475
 20
473.0745342456485
 10
71.75525809843475
 20
461.940559649433
 97
        0
 92
        7
 72
     0
 73
     1
 93
        5
 10
97.4552580984348
 20
461.0745342456485
 10
97.9552580984348
 20
461.940559649433
 10
97.9552580984348
 20
473.0745342456485
 10
84.85525809843489
 20
473.0745342456485
 10
84.85525809843489
 20
461.0745342456485
 97
        0
 75
     0
 76
     1
 52
0.0
 41
1.25
 77
     0
 78
     1
 53
45.0
 43
0.0
 44
0.0
 45
-2.80633003783411
 46
2.806330037834111
 79
     0
 47
0.0
 98
        2
 10
79.39490485327019
 20
468.1494330626849
 10
90.75136751911646
 20
468.7318157634977
1001
ACAD
1010
0.0
1020
0.0
1030
0.0
  0
TEXT
  5
5DEE
330
1A
100
AcDbEntity
  8
寸法線
 48
10.0
100
AcDbText
 10
789.323993820923
 20
429.61017782793
 30
0.0
 40
8.4
  1
ケーブルグランド型式
 41
0.600158661747
 72
     5
 11
848.811720373279
 21
429.61017782793
 31
0.0
100
AcDbText
  0
TEXT
  5
5DEF
330
1A
100
AcDbEntity
  8
寸法線
 48
10.0
100
AcDbText
 10
854.891090648068
 20
429.61017782793
 30
0.0
 40
8.4
  1
適合ケーブル範囲
 41
0.711985775428
 72
     5
 11
910.710775441643
 21
429.61017782793
 31
0.0
100
AcDbText
  0
LINE
  5
5DF0
330
1A
100
AcDbEntity
  8
寸法線
 48
10.0
100
AcDbLine
 10
752.681851478688
 20
399.704864691383
 30
0.0
 11
913.495921971394
 21
399.704864691383
 31
0.0
  0
LINE
  5
5DF1
330
1A
100
AcDbEntity
  8
寸法線
 48
10.0
100
AcDbLine
 10
752.681851478688
 20
413.45244647177
 30
0.0
 11
913.495921971394
 21
413.45244647177
 31
0.0
  0
LINE
  5
5DF2
330
1A
100
AcDbEntity
  8
寸法線
 48
10.0
100
AcDbLine
 10
752.681851478688
 20
427.200028252158
 30
0.0
 11
913.495921971394
 21
427.200028252158
 31
0.0
  0
LINE
  5
5DF3
330
1A
100
AcDbEntity
  8
寸法線
 48
10.0
100
AcDbLine
 10
752.681851478688
 20
440.388687471546
 30
0.0
 11
913.495921971394
 21
440.388687471546
 31
0.0
  0
LINE
  5
5DF4
330
1A
100
AcDbEntity
  8
寸法線
 48
10.0
100
AcDbLine
 10
913.495921971394
 20
440.388687471546
 30
0.0
 11
913.495921971394
 21
399.704864691383
 31
0.0
  0
LINE
  5
5DF5
330
1A
100
AcDbEntity
  8
寸法線
 48
10.0
100
AcDbLine
 10
851.713276697179
 20
440.388687471546
 30
0.0
 11
851.713276697178
 21
399.704864691383
 31
0.0
  0
LINE
  5
5DF6
330
1A
100
AcDbEntity
  8
寸法線
 48
10.0
100
AcDbLine
 10
787.252116806796
 20
440.388687471546
 30
0.0
 11
787.252116806796
 21
399.704864691383
 31
0.0
  0
TEXT
  5
5DF7
330
1A
100
AcDbEntity
  8
寸法線
 48
10.0
100
AcDbText
 10
755.175231158782
 20
387.918137487691
 30
0.0
 40
8.4
  1
○印が今回の貴社の御仕様です。
100
AcDbText
  0
MTEXT
  5
5DF8
330
1A
100
AcDbEntity
  8
寸法線
 48
10.0
100
AcDbMText
 10
881.232242501568
 20
413.855928320335
 30
0.0
 40
8.4
 41
103.552
 71
     5
 72
     5
  1
φ10～φ12\Pφ8～φ10
  0
MTEXT
  5
5DF9
330
1A
100
AcDbEntity
  8
寸法線
 48
10.0
100
AcDbMText
 10
755.564093379121
 20
438.019347128877
 30
0.0
 40
8.4
 41
39.04500251385
 71
     1
 72
     5
  1
御仕様
  0
MTEXT
  5
5DFA
330
1A
100
AcDbEntity
  8
寸法線
 48
10.0
100
AcDbMText
 10
793.34211609028
 20
424.02263567361
 30
0.0
 40
8.4
 41
178.158537710773
 71
     1
 72
     5
  1
SXC-16B-1\PSXC-16B-2
  0
LINE
  5
5DFB
330
1A
100
AcDbEntity
  8
寸法線_文字
 48
10.0
100
AcDbLine
 10
752.681851478688
 20
440.388687471546
 30
0.0
 11
752.681851478688
 21
399.704864691383
 31
0.0
  0
MTEXT
  5
5DFD
330
1A
100
AcDbEntity
  8
細線
 48
10.0
100
AcDbMText
 10
3365.875517977815
 20
358.633693314642
 30
0.0
 40
6.0
 41
0.0
 71
     7
 72
     1
  1

  0
ARC
  5
60AB
330
1A
100
AcDbEntity
  8
細線
 48
10.0
100
AcDbCircle
 10
84.855258098434
 20
611.674534245649
 30
0.0
 40
8.518990037441352
100
AcDbArc
 50
99.649676653114
 51
260.350323346886
  0
ARC
  5
60AC
330
1A
100
AcDbEntity
  8
細線
 48
10.0
100
AcDbCircle
 10
84.855258098434
 20
611.674534245648
 30
0.0
 40
8.518990037441235
100
AcDbArc
 50
279.649933044729
 51
80.350066955271
  0
LEADER
  5
61A4
330
1A
100
AcDbEntity
  8
寸法線
 48
10.0
100
AcDbLeader
  3
ISO-25
 76
     2
 10
716.712680505754
 20
483.10173174208
 30
0.0
 10
752.681851478688
 20
440.388687471546
 30
0.0
1001
ACAD
1000
DSTYLE
1002
{
1070
     5
1000
OPEN30
1070
   147
1040
0.625
1070
    77
1070
     0
1070
    41
1040
6.0
1070
    47
1040
0.1
1070
    48
1040
0.1
1070
    73
1070
     0
1070
   140
1040
8.0
1070
   271
1070
     1
1070
   272
1070
     1
1070
   341
1005
2AF4
1070
   342
1005
2AF4
1002
}
  0
HATCH
  5
64D2
330
1A
100
AcDbEntity
  8
細線
 48
10.0
100
AcDbHatch
 10
0.0
 20
0.0
 30
0.0
210
0.0
220
0.0
230
1.0
  2
ANSI31
 70
     0
 71
     0
 91
        6
 92
        7
 72
     0
 73
     1
 93
        8
 10
654.9993932851789
 20
668.6632560102364
 10
654.9993932851789
 20
611.6745342456493
 10
670.9993932851792
 20
611.6745342456493
 10
670.9993932851789
 20
657.174534245649
 10
670.9993932851794
 20
684.174534245649
 10
670.4993932851789
 20
684.674534245649
 10
655.9993932851789
 20
684.674534245649
 10
654.9993932851789
 20
683.674534245649
 97
        0
 92
        7
 72
     0
 73
     1
 93
        5
 10
540.9993932851794
 20
633.174534245649
 10
540.9993932851794
 20
628.6745342456495
 10
540.9993932851794
 20
611.6745342456493
 10
570.9993932851794
 20
611.6745342456493
 10
570.9993932851794
 20
633.174534245649
 97
        0
 92
        7
 72
     0
 73
     1
 93
        7
 10
670.9993932851789
 20
657.174534245649
 10
670.9993932851792
 20
611.6745342456493
 10
682.9993932851792
 20
611.6745342456493
 10
682.9993932851789
 20
683.674534245649
 10
681.9993932851789
 20
684.674534245649
 10
671.4993932851794
 20
684.674534245649
 10
670.9993932851794
 20
684.174534245649
 97
        0
 92
        7
 72
     0
 73
     1
 93
        8
 10
670.4993932851789
 20
538.674534245649
 10
670.9993932851789
 20
539.174534245649
 10
670.9993932851789
 20
566.174534245649
 10
670.9993932851792
 20
611.6745342456493
 10
654.9993932851789
 20
611.6745342456493
 10
654.9993932851789
 20
554.6858124810622
 10
654.9993932851789
 20
539.674534245649
 10
655.9993932851789
 20
538.674534245649
 97
        0
 92
        7
 72
     0
 73
     1
 93
        5
 10
540.9993932851794
 20
590.1745342456493
 10
570.9993932851794
 20
590.1745342456493
 10
570.9993932851794
 20
611.6745342456493
 10
540.9993932851794
 20
611.6745342456493
 10
540.9993932851794
 20
594.674534245649
 97
        0
 92
        7
 72
     1
 73
     1
 93
        8
 10
670.9993932851789
 20
539.174534245649
 42
0.0
 10
671.4993932851789
 20
538.674534245649
 42
0.0
 10
679.0356914321878
 20
538.674534245649
 42
-0.0140441217489112
 10
682.9993932851794
 20
539.6848907404221
 42
0.0
 10
682.9993932851794
 20
539.6745342456495
 42
0.0
 10
682.9993932851792
 20
611.6745342456493
 42
0.0
 10
670.9993932851792
 20
611.6745342456493
 42
0.0
 10
670.9993932851794
 20
566.174534245649
 42
0.0
 97
        0
 75
     0
 76
     1
 52
0.0
 41
1.25
 77
     0
 78
     1
 53
45.0
 43
0.0
 44
0.0
 45
-2.80633003783411
 46
2.806330037834111
 79
     0
 47
0.0
 98
       10
 10
643.3723762483178
 20
623.2006054552749
 10
635.5675195390927
 20
595.2332022472178
 10
547.1124768345405
 20
602.7128565935589
 10
547.7628815603091
 20
621.574593640853
 10
664.5105298358026
 20
599.4608329647149
 10
678.1690290769466
 20
601.0868447791368
 10
665.1609345615716
 20
630.0298550758469
 10
676.2178148996404
 20
631.981069253153
 10
562.0717855272221
 20
624.8266172696967
 10
561.7465831643376
 20
604.0136660450962
1001
ACAD
1010
0.0
1020
0.0
1030
0.0
  0
HATCH
  5
64D3
330
1A
100
AcDbEntity
  8
細線
 48
10.0
100
AcDbHatch
 10
0.0
 20
0.0
 30
0.0
210
0.0
220
0.0
230
1.0
  2
ANSI31
 70
     0
 71
     0
 91
        2
 92
        7
 72
     1
 73
     1
 93
       13
 10
590.4459915409789
 20
560.674534245649
 42
0.0
 10
652.2592821342737
 20
557.674534245649
 42
-0.3890307372446858
 10
654.9993932851789
 20
554.6858124810622
 42
0.0
 10
654.9993932851789
 20
611.6745342456493
 42
0.0
 10
570.9994034381034
 20
611.6745342456493
 42
0.0
 10
570.9994034381034
 20
590.1745342456493
 42
0.0
 10
570.9994034381034
 20
589.7179289552935
 42
0.0
 10
570.9994034381034
 20
587.3745319773436
 42
0.0
 10
570.9993932851794
 20
587.3745319773436
 42
0.0
 10
570.9993932851794
 20
579.1745342456495
 42
0.414213562373095
 10
573.4993932851794
 20
576.6745342456495
 42
0.0
 10
573.5629219823622
 20
576.674534245649
 42
-0.3894638293893796
 10
576.0538464541933
 20
574.3873611133924
 42
0.3788767757664114
 97
        0
 92
        7
 72
     1
 73
     1
 93
       13
 10
654.9993932851789
 20
611.6745342456493
 42
0.0
 10
654.9993932851789
 20
668.6632560102364
 42
-0.389030737244686
 10
652.2592821342737
 20
665.6745342456495
 42
0.0
 10
590.4459915409789
 20
662.674534245649
 42
0.3788767757664114
 10
576.0538464541933
 20
648.9617073779061
 42
-0.3894638293893795
 10
573.5629219823622
 20
646.674534245649
 42
0.0
 10
573.4993932851794
 20
646.674534245649
 42
0.414213562373095
 10
570.9993932851794
 20
644.174534245649
 42
0.0
 10
570.9994034381034
 20
644.174534245649
 42
0.0
 10
570.9994034381034
 20
635.9745394773433
 42
0.0
 10
570.9994034381034
 20
633.6311449993934
 42
0.0
 10
570.9994034381034
 20
633.174534245649
 42
0.0
 10
570.9994034381034
 20
611.6745342456493
 42
0.0
 97
        0
 75
     0
 76
     1
 52
0.0
 41
1.25
 77
     0
 78
     1
 53
45.0
 43
0.0
 44
0.0
 45
-2.80633003783411
 46
2.806330037834111
 79
     0
 47
0.0
 98
        2
 10
612.3247847850384
 20
593.4211206217158
 10
603.3032395056898
 20
637.1756152265559
1001
ACAD
1010
0.0
1020
0.0
1030
0.0
  0
ARC
  5
64D4
330
1A
100
AcDbEntity
  8
外形線
100
AcDbCircle
 10
651.999393285179
 20
668.663256010236
 30
0.0
 40
2.999999999999992
100
AcDbArc
 50
274.969740728115
 51
0.0
  0
HATCH
  5
64D5
330
1A
100
AcDbEntity
  8
細線
 48
10.0
100
AcDbHatch
 10
0.0
 20
0.0
 30
0.0
210
0.0
220
0.0
230
1.0
  2
ANSI31
 70
     0
 71
     0
 91
        7
 92
        7
 72
     0
 73
     1
 93
        7
 10
726.9993932851794
 20
561.674534245649
 10
726.9993932851794
 20
539.174534245649
 10
727.4993932851794
 20
538.674534245649
 10
741.9993932851794
 20
538.674534245649
 10
742.9993932851794
 20
539.674534245649
 10
742.9993932851794
 20
611.6745342456493
 10
726.9993932851794
 20
611.6745342456493
 97
        0
 92
        7
 72
     1
 73
     1
 93
        9
 10
726.9993932851794
 20
539.174534245649
 42
0.0
 10
726.9993932851794
 20
561.674534245649
 42
0.0
 10
726.9993932851794
 20
611.6745342456493
 42
0.0
 10
714.9993932851794
 20
611.6745342456493
 42
0.0
 10
714.9993932851794
 20
549.674534245649
 42
0.0
 10
714.9993932851794
 20
539.674534245649
 42
0.0
 10
715.0016132578319
 20
539.6843907754771
 42
-0.0140363087987104
 10
718.9630951381699
 20
538.674534245649
 42
0.0
 10
726.4993932851794
 20
538.674534245649
 42
0.0
 97
        0
 92
        7
 72
     0
 73
     1
 93
        7
 10
742.9993932851794
 20
683.674534245649
 10
741.9993932851794
 20
684.674534245649
 10
727.4993932851794
 20
684.674534245649
 10
726.9993932851794
 20
684.174534245649
 10
726.9993932851794
 20
661.674534245649
 10
726.9993932851794
 20
611.6745342456493
 10
742.9993932851794
 20
611.6745342456493
 97
        0
 92
        7
 72
     0
 73
     1
 93
        8
 10
726.9993932851794
 20
661.674534245649
 10
726.9993932851794
 20
684.174534245649
 10
726.4993932851794
 20
684.674534245649
 10
715.9993932851794
 20
684.674534245649
 10
714.9993932851794
 20
683.674534245649
 10
714.9993932851794
 20
673.674534245649
 10
714.9993932851794
 20
611.6745342456493
 10
726.9993932851794
 20
611.6745342456493
 97
        0
 92
        7
 72
     1
 73
     1
 93
        6
 10
684.9993932851794
 20
551.674534245649
 42
0.0
 10
712.9993932851794
 20
551.674534245649
 42
-0.414213562373095
 10
714.9993932851794
 20
549.674534245649
 42
0.0
 10
714.9993932851794
 20
611.6745342456493
 42
0.0
 10
682.9993932851792
 20
611.6745342456493
 42
0.0
 10
682.9993932851794
 20
549.674534245649
 42
-0.414213562373095
 97
        0
 92
        7
 72
     1
 73
     1
 93
        8
 10
712.9993932851794
 20
551.674534245649
 42
0.0
 10
684.9993932851794
 20
551.674534245649
 42
0.414213562373095
 10
682.9993932851794
 20
549.674534245649
 42
0.0
 10
682.9993932851794
 20
539.6745342456495
 42
0.0
 10
682.9993932851794
 20
539.6848907404221
 42
-0.1112133461715754
 10
715.0016132578319
 20
539.6843907754771
 42
0.0
 10
714.9993932851794
 20
539.674534245649
 42
0.0
 10
714.9993932851794
 20
549.674534245649
 42
0.414213562373095
 97
        0
 92
        7
 72
     1
 73
     1
 93
        6
 10
714.9993932851794
 20
673.674534245649
 42
-0.414213562373095
 10
712.9993932851794
 20
671.674534245649
 42
0.0
 10
684.9993932851794
 20
671.674534245649
 42
-0.414213562373095
 10
682.9993932851794
 20
673.674534245649
 42
0.0
 10
682.9993932851792
 20
611.6745342456493
 42
0.0
 10
714.9993932851794
 20
611.6745342456493
 42
0.0
 97
        0
 75
     0
 76
     1
 52
0.0
 41
1.25
 77
     0
 78
     1
 53
45.0
 43
0.0
 44
0.0
 45
-2.80633003783411
 46
2.806330037834111
 79
     0
 47
0.0
 98
        7
 10
702.5592062932756
 20
594.582797521449
 10
705.8112299221193
 20
547.1032525403293
 10
708.0876464623097
 20
627.1030338098874
 10
722.3965504292228
 20
603.3632613193274
 10
718.1689197117257
 20
630.6802598016156
 10
739.3070732992105
 20
594.9079998843335
 10
738.656668573442
 20
627.1030338098874
1001
ACAD
1010
0.0
1020
0.0
1030
0.0
  0
HATCH
  5
64D6
330
1A
100
AcDbEntity
  8
細線
 48
10.0
100
AcDbHatch
 10
0.0
 20
0.0
 30
0.0
210
0.0
220
0.0
230
1.0
  2
ANSI31
 70
     0
 71
     0
 91
        8
 92
        7
 72
     1
 73
     1
 93
        5
 10
516.7815286441521
 20
597.4137926705923
 42
0.0171452713841633
 10
515.9993932851788
 20
593.6745342456481
 42
0.0
 10
516.8654186889635
 20
592.174534245649
 42
0.0
 10
539.4993932851794
 20
592.174534245649
 42
0.0
 10
539.4993932851794
 20
597.4137926705928
 42
0.0
 97
        0
 92
        7
 72
     1
 73
     1
 93
        4
 10
515.9993932851788
 20
593.6745342456481
 42
-0.0171452713841633
 10
516.7815286441521
 20
597.4137926705923
 42
0.0
 10
516.7815286441523
 20
607.287052051953
 42
-0.088435504736872
 10
515.9993932851794
 20
611.674534245649
 42
0.0
 97
        0
 92
        7
 72
     0
 73
     1
 93
        4
 10
516.7815286441523
 20
597.4137926705928
 10
539.4993932851794
 20
597.4137926705928
 10
539.4993932851794
 20
607.287052051953
 10
516.7815286441523
 20
607.287052051953
 97
        0
 92
        7
 72
     1
 73
     1
 93
        4
 10
516.7815286441527
 20
616.0620164393458
 42
0.088435504736872
 10
515.9993932851794
 20
611.674534245649
 42
0.0
 10
539.4993932851794
 20
611.6745342456493
 42
0.0
 10
539.4993932851794
 20
616.0620164393451
 42
0.0
 97
        0
 92
        7
 72
     1
 73
     1
 93
        4
 10
515.9993932851794
 20
611.674534245649
 42
-0.088435504736872
 10
516.7815286441527
 20
616.0620164393458
 42
0.0
 10
516.7815286441523
 20
625.9352758207058
 42
-0.0171452713841626
 10
515.9993932851788
 20
629.6745342456504
 42
0.0
 97
        0
 92
        7
 72
     1
 73
     1
 93
        5
 10
539.4993932851794
 20
631.174534245649
 42
0.0
 10
516.8654186889635
 20
631.174534245649
 42
0.0
 10
515.9993932851794
 20
629.674534245649
 42
0.0171452713841626
 10
516.781528644152
 20
625.9352758207062
 42
0.0
 10
539.4993932851794
 20
625.9352758207058
 42
0.0
 97
        0
 92
        7
 72
     1
 73
     1
 93
        4
 10
516.7815286441523
 20
607.287052051953
 42
0.0
 10
539.4993932851794
 20
607.287052051953
 42
0.0
 10
539.4993932851794
 20
611.6745342456493
 42
0.0
 10
515.9993932851794
 20
611.6745342456493
 42
0.088435504736872
 97
        0
 92
        7
 72
     0
 73
     1
 93
        4
 10
539.4993932851794
 20
625.9352758207058
 10
516.7815286441523
 20
625.9352758207058
 10
516.7815286441523
 20
616.0620164393456
 10
539.4993932851794
 20
616.0620164393451
 97
        0
 75
     0
 76
     1
 52
0.0
 41
1.25
 77
     0
 78
     1
 53
45.0
 43
0.0
 44
0.0
 45
-2.80633003783411
 46
2.806330037834111
 79
     0
 47
0.0
 98
        8
 10
524.3744868827498
 20
594.4729799727647
 10
533.1157198276226
 20
628.7330991728036
 10
516.1169494106889
 20
624.5738255601498
 10
516.4455255675889
 20
603.6273262184504
 10
531.3977589876133
 20
614.2660605200942
 10
522.2654408380904
 20
623.5792166527758
 10
520.7704135576766
 20
603.6994076849519
 10
523.4374278182308
 20
610.1146582035822
1001
ACAD
1010
0.0
1020
0.0
1030
0.0
  0
HATCH
  5
64D7
330
1A
100
AcDbEntity
  8
細線
 48
10.0
100
AcDbHatch
 10
0.0
 20
0.0
 30
0.0
210
0.0
220
0.0
230
1.0
  2
ANSI31
 70
     0
 71
     0
 91
        4
 92
        7
 72
     0
 73
     1
 93
        4
 10
539.4993932851794
 20
594.674534245649
 10
539.9993932851794
 20
594.674534245649
 10
539.9993932851794
 20
596.1745342456495
 10
539.4993932851794
 20
596.1745342456495
 97
        0
 92
        7
 72
     0
 73
     1
 93
        6
 10
539.4993932851794
 20
596.1745342456495
 10
539.9993932851794
 20
596.1745342456495
 10
539.9993932851794
 20
594.6745342456495
 10
540.9993932851794
 20
594.674534245649
 10
540.9993932851794
 20
611.6745342456493
 10
539.4993932851794
 20
611.6745342456493
 97
        0
 92
        7
 72
     0
 73
     1
 93
        4
 10
539.4993932851794
 20
627.174534245649
 10
539.9993932851794
 20
627.174534245649
 10
539.9993932851794
 20
628.674534245649
 10
539.4993932851794
 20
628.674534245649
 97
        0
 92
        7
 72
     0
 73
     1
 93
        6
 10
539.9993932851794
 20
627.174534245649
 10
539.4993932851794
 20
627.174534245649
 10
539.4993932851794
 20
611.6745342456493
 10
540.9993932851794
 20
611.6745342456493
 10
540.9993932851794
 20
628.674534245649
 10
539.9993932851794
 20
628.674534245649
 97
        0
 75
     0
 76
     1
 52
0.0
 41
1.0
 77
     0
 78
     1
 53
45.0
 43
-431.5978969937105
 44
117.4852868404897
 45
-2.245064030267288
 46
2.245064030267288
 79
     0
 47
0.0
 98
        4
 10
539.65575778106
 20
627.702536029939
 10
539.7278392475614
 20
595.4821205037852
 10
540.7369797785818
 20
627.0538028314259
 10
540.0882465800687
 20
610.1867396700836
1001
ACAD
1010
0.0
1020
0.0
1030
0.0
  0
LINE
  5
64D9
102
{ACAD_REACTORS
330
6F78
330
6F84
102
}
330
1A
100
AcDbEntity
  8
中心線
 48
10.0
100
AcDbLine
 10
752.999393285179
 20
611.674534245649
 30
0.0
 11
239.028273325325
 21
611.674534245649
 31
0.0
  0
ARC
  5
64DA
330
1A
100
AcDbEntity
  8
外形線
100
AcDbCircle
 10
651.999393285179
 20
554.685812481062
 30
0.0
 40
2.999999999999992
100
AcDbArc
 50
0.0
 51
85.030259271885
  0
LINE
  5
64DB
330
1A
100
AcDbEntity
  8
外形線
100
AcDbLine
 10
590.445991540979
 20
662.674534245649
 30
0.0
 11
652.259282134274
 21
665.674534245649
 31
0.0
  0
LINE
  5
64DC
330
1A
100
AcDbEntity
  8
外形線
100
AcDbLine
 10
590.445991540979
 20
560.674534245649
 30
0.0
 11
652.259282134274
 21
557.674534245649
 31
0.0
  0
ARC
  5
64DD
330
1A
100
AcDbEntity
  8
外形線
100
AcDbCircle
 10
590.999393285179
 20
647.684746171446
 30
0.0
 40
15.0
100
AcDbArc
 50
92.114318782231
 51
175.116456621726
  0
ARC
  5
64DE
330
1A
100
AcDbEntity
  8
外形線
100
AcDbCircle
 10
590.999393285179
 20
575.664322319852
 30
0.0
 40
15.0
100
AcDbArc
 50
184.883543378274
 51
267.885681217769
  0
LINE
  5
64DF
330
1A
100
AcDbEntity
  8
外形線
100
AcDbLine
 10
573.499393285179
 20
646.674534245649
 30
0.0
 11
573.562921982362
 21
646.674534245649
 31
0.0
  0
LINE
  5
64E0
330
1A
100
AcDbEntity
  8
外形線
100
AcDbLine
 10
573.562921982362
 20
576.674534245649
 30
0.0
 11
573.499393285179
 21
576.67453424565
 31
0.0
  0
ARC
  5
64E1
330
1A
100
AcDbEntity
  8
外形線
100
AcDbCircle
 10
573.562921982362
 20
649.174534245649
 30
0.0
 40
2.5
100
AcDbArc
 50
270.0
 51
355.116456621726
  0
ARC
  5
64E2
330
1A
100
AcDbEntity
  8
外形線
100
AcDbCircle
 10
573.562921982362
 20
574.174534245649
 30
0.0
 40
2.5
100
AcDbArc
 50
4.883543378274
 51
90.0
  0
ARC
  5
64E3
330
1A
100
AcDbEntity
  8
外形線
100
AcDbCircle
 10
573.499393285179
 20
644.174534245649
 30
0.0
 40
2.5
100
AcDbArc
 50
90.0
 51
180.0
  0
ARC
  5
64E4
330
1A
100
AcDbEntity
  8
外形線
100
AcDbCircle
 10
573.499393285179
 20
579.17453424565
 30
0.0
 40
2.5
100
AcDbArc
 50
180.0
 51
270.0
  0
LINE
  5
64E5
330
1A
100
AcDbEntity
  8
外形線
100
AcDbLine
 10
540.999393285179
 20
590.174534245649
 30
0.0
 11
540.999393285179
 21
594.674534245649
 31
0.0
  0
LINE
  5
64E6
330
1A
100
AcDbEntity
  8
外形線
100
AcDbLine
 10
539.499393285179
 20
628.674534245649
 30
0.0
 11
540.999393285179
 21
628.674534245649
 31
0.0
  0
LINE
  5
64E7
330
1A
100
AcDbEntity
  8
外形線
100
AcDbLine
 10
539.499393285179
 20
594.674534245649
 30
0.0
 11
540.999393285179
 21
594.674534245649
 31
0.0
  0
LINE
  5
64E8
330
1A
100
AcDbEntity
  8
外形線
100
AcDbLine
 10
540.999393285179
 20
628.67453424565
 30
0.0
 11
540.999393285179
 21
633.174534245649
 31
0.0
  0
LINE
  5
64E9
330
1A
100
AcDbEntity
  8
細線
100
AcDbLine
 10
539.999393285179
 20
628.674534245649
 30
0.0
 11
539.999393285179
 21
627.174534245649
 31
0.0
  0
LINE
  5
64EA
330
1A
100
AcDbEntity
  8
細線
100
AcDbLine
 10
539.499393285179
 20
627.174534245649
 30
0.0
 11
539.999393285179
 21
627.174534245649
 31
0.0
  0
LINE
  5
64EB
330
1A
100
AcDbEntity
  8
細線
100
AcDbLine
 10
539.999393285179
 20
594.67453424565
 30
0.0
 11
539.999393285179
 21
596.17453424565
 31
0.0
  0
LINE
  5
64EC
330
1A
100
AcDbEntity
  8
細線
100
AcDbLine
 10
539.499393285179
 20
596.17453424565
 30
0.0
 11
539.999393285179
 21
596.17453424565
 31
0.0
  0
LINE
  5
64ED
330
1A
100
AcDbEntity
  8
外形線
100
AcDbLine
 10
654.999393285179
 20
554.685812481062
 30
0.0
 11
654.999393285179
 21
539.674534245649
 31
0.0
  0
LINE
  5
64EE
330
1A
100
AcDbEntity
  8
外形線
100
AcDbLine
 10
654.999393285179
 20
539.674534245649
 30
0.0
 11
655.999393285179
 21
538.674534245649
 31
0.0
  0
LINE
  5
64EF
330
1A
100
AcDbEntity
  8
外形線
100
AcDbLine
 10
655.999393285179
 20
538.674534245649
 30
0.0
 11
670.499393285179
 21
538.674534245649
 31
0.0
  0
LINE
  5
64F0
330
1A
100
AcDbEntity
  8
外形線
100
AcDbLine
 10
670.499393285179
 20
538.674534245649
 30
0.0
 11
670.999393285179
 21
539.174534245649
 31
0.0
  0
LINE
  5
64F1
330
1A
100
AcDbEntity
  8
外形線
100
AcDbLine
 10
670.999393285179
 20
539.174534245649
 30
0.0
 11
670.999393285179
 21
684.174534245649
 31
0.0
  0
LINE
  5
64F2
330
1A
100
AcDbEntity
  8
外形線
100
AcDbLine
 10
670.999393285179
 20
684.174534245649
 30
0.0
 11
670.499393285179
 21
684.674534245649
 31
0.0
  0
LINE
  5
64F3
330
1A
100
AcDbEntity
  8
外形線
100
AcDbLine
 10
670.499393285179
 20
684.674534245649
 30
0.0
 11
655.999393285179
 21
684.674534245649
 31
0.0
  0
LINE
  5
64F4
330
1A
100
AcDbEntity
  8
外形線
100
AcDbLine
 10
655.999393285179
 20
684.674534245649
 30
0.0
 11
654.999393285179
 21
683.674534245649
 31
0.0
  0
LINE
  5
64F5
330
1A
100
AcDbEntity
  8
外形線
100
AcDbLine
 10
654.999393285179
 20
683.674534245649
 30
0.0
 11
654.999393285179
 21
668.663256010236
 31
0.0
  0
LINE
  5
64F6
330
1A
100
AcDbEntity
  8
外形線
100
AcDbLine
 10
539.499393285179
 20
592.174534245649
 30
0.0
 11
516.865418688963
 21
592.174534245649
 31
0.0
  0
LINE
  5
64F7
330
1A
100
AcDbEntity
  8
外形線
100
AcDbLine
 10
516.865418688963
 20
631.174534245649
 30
0.0
 11
539.499393285179
 21
631.174534245649
 31
0.0
  0
LINE
  5
64F8
330
1A
100
AcDbEntity
  8
外形線
100
AcDbLine
 10
539.499393285179
 20
631.174534245649
 30
0.0
 11
539.499393285179
 21
592.174534245649
 31
0.0
  0
ARC
  5
64F9
330
1A
100
AcDbEntity
  8
細線
100
AcDbCircle
 10
570.89760680596
 20
639.206087095052
 30
0.0
 40
55.71951496104566
100
AcDbArc
 50
189.849635564497
 51
193.778657358166
  0
LINE
  5
64FA
102
{ACAD_REACTORS
330
6F78
330
6F84
102
}
330
1A
100
AcDbEntity
  8
外形線
100
AcDbLine
 10
515.999393285179
 20
593.674534245649
 30
0.0
 11
515.999393285179
 21
629.674534245649
 31
0.0
  0
LINE
  5
64FB
330
1A
100
AcDbEntity
  8
外形線
100
AcDbLine
 10
515.999393285179
 20
593.674534245649
 30
0.0
 11
516.865418688963
 21
592.174534245649
 31
0.0
  0
LINE
  5
64FC
330
1A
100
AcDbEntity
  8
外形線
100
AcDbLine
 10
515.999393285179
 20
629.674534245649
 30
0.0
 11
516.865418688963
 21
631.174534245649
 31
0.0
  0
LINE
  5
64FD
330
1A
100
AcDbEntity
  8
細線
100
AcDbLine
 10
539.499393285179
 20
616.062016439345
 30
0.0
 11
516.781528644152
 21
616.062016439345
 31
0.0
  0
LINE
  5
64FE
330
1A
100
AcDbEntity
  8
細線
100
AcDbLine
 10
539.499393285179
 20
625.935275820706
 30
0.0
 11
516.781528644152
 21
625.935275820706
 31
0.0
  0
LINE
  5
64FF
330
1A
100
AcDbEntity
  8
細線
100
AcDbLine
 10
516.781528644152
 20
625.935275820706
 30
0.0
 11
516.781528644152
 21
616.062016439346
 31
0.0
  0
ARC
  5
6500
330
1A
100
AcDbEntity
  8
細線
100
AcDbCircle
 10
528.696515012186
 20
611.674534245649
 30
0.0
 40
12.69712172700661
100
AcDbArc
 50
159.784666103607
 51
180.0
  0
ARC
  5
6501
330
1A
100
AcDbEntity
  8
細線
100
AcDbCircle
 10
570.89760680596
 20
584.142981396246
 30
0.0
 40
55.71951496104566
100
AcDbArc
 50
166.221342641834
 51
170.150364435503
  0
LINE
  5
6502
330
1A
100
AcDbEntity
  8
細線
100
AcDbLine
 10
539.499393285179
 20
607.287052051953
 30
0.0
 11
516.781528644152
 21
607.287052051953
 31
0.0
  0
LINE
  5
6503
330
1A
100
AcDbEntity
  8
細線
100
AcDbLine
 10
539.499393285179
 20
597.413792670593
 30
0.0
 11
516.781528644152
 21
597.413792670593
 31
0.0
  0
LINE
  5
6504
330
1A
100
AcDbEntity
  8
細線
100
AcDbLine
 10
516.781528644152
 20
597.413792670593
 30
0.0
 11
516.781528644152
 21
607.287052051953
 31
0.0
  0
ARC
  5
6505
330
1A
100
AcDbEntity
  8
細線
100
AcDbCircle
 10
528.696515012186
 20
611.674534245649
 30
0.0
 40
12.69712172700661
100
AcDbArc
 50
180.0
 51
200.215333896393
  0
ELLIPSE
  5
6506
330
1A
100
AcDbEntity
  8
外形線
 48
10.0
100
AcDbEllipse
 10
540.249393285179
 20
629.674534245649
 30
0.0
 11
5.684341886080801E-14
 21
1.000000000000028
 31
0.0
210
0.0
220
0.0
230
1.0
 40
0.75
 41
0.0
 42
6.283185307179586
  0
ELLIPSE
  5
6507
330
1A
100
AcDbEntity
  8
外形線
 48
10.0
100
AcDbEllipse
 10
540.249393285179
 20
593.674534245649
 30
0.0
 11
5.684341886080801E-14
 21
1.000000000000028
 31
0.0
210
0.0
220
0.0
230
1.0
 40
0.75
 41
0.0
 42
6.283185307179586
  0
LINE
  5
6508
330
1A
100
AcDbEntity
  8
外形線
 48
10.0
100
AcDbLine
 10
540.999393285179
 20
628.674534245649
 30
0.0
 11
540.999393285179
 21
594.674534245649
 31
0.0
  0
LINE
  5
6509
330
1A
100
AcDbEntity
  8
外形線
100
AcDbLine
 10
670.999393285179
 20
657.174534245649
 30
0.0
 11
670.999393285179
 21
684.174534245649
 31
0.0
  0
LINE
  5
650A
330
1A
100
AcDbEntity
  8
外形線
100
AcDbLine
 10
684.999393285179
 20
551.674534245649
 30
0.0
 11
712.999393285179
 21
551.674534245649
 31
0.0
  0
ARC
  5
650B
330
1A
100
AcDbEntity
  8
外形線
100
AcDbCircle
 10
684.999393285179
 20
549.674534245649
 30
0.0
 40
2.0
100
AcDbArc
 50
90.0
 51
180.0
  0
LINE
  5
650C
330
1A
100
AcDbEntity
  8
外形線
100
AcDbLine
 10
684.999393285179
 20
671.674534245649
 30
0.0
 11
712.999393285179
 21
671.674534245649
 31
0.0
  0
ARC
  5
650D
330
1A
100
AcDbEntity
  8
外形線
100
AcDbCircle
 10
684.999393285179
 20
673.674534245649
 30
0.0
 40
2.0
100
AcDbArc
 50
180.0
 51
270.0
  0
LINE
  5
650E
330
1A
100
AcDbEntity
  8
外形線
100
AcDbLine
 10
682.999393285179
 20
683.674534245649
 30
0.0
 11
682.999393285179
 21
539.67453424565
 31
0.0
  0
LINE
  5
650F
330
1A
100
AcDbEntity
  8
外形線
100
AcDbLine
 10
681.999393285179
 20
684.674534245649
 30
0.0
 11
682.999393285179
 21
683.674534245649
 31
0.0
  0
LINE
  5
6510
330
1A
100
AcDbEntity
  8
外形線
100
AcDbLine
 10
671.499393285179
 20
684.674534245649
 30
0.0
 11
681.999393285179
 21
684.674534245649
 31
0.0
  0
LINE
  5
6511
330
1A
100
AcDbEntity
  8
外形線
100
AcDbLine
 10
670.999393285179
 20
684.174534245649
 30
0.0
 11
671.499393285179
 21
684.674534245649
 31
0.0
  0
LINE
  5
6512
330
1A
100
AcDbEntity
  8
外形線
100
AcDbLine
 10
670.999393285179
 20
539.174534245649
 30
0.0
 11
670.999393285179
 21
566.174534245649
 31
0.0
  0
LINE
  5
6513
330
1A
100
AcDbEntity
  8
外形線
100
AcDbLine
 10
671.499393285179
 20
538.674534245649
 30
0.0
 11
670.999393285179
 21
539.174534245649
 31
0.0
  0
LINE
  5
6514
330
1A
100
AcDbEntity
  8
外形線
100
AcDbLine
 10
679.035691432188
 20
538.674534245649
 30
0.0
 11
671.499393285179
 21
538.674534245649
 31
0.0
  0
LINE
  5
6515
330
1A
100
AcDbEntity
  8
外形線
100
AcDbLine
 10
714.999393285179
 20
539.674534245649
 30
0.0
 11
714.999393285179
 21
549.674534245649
 31
0.0
  0
ARC
  5
6516
330
1A
100
AcDbEntity
  8
外形線
100
AcDbCircle
 10
712.999393285179
 20
549.674534245649
 30
0.0
 40
2.0
100
AcDbArc
 50
0.0
 51
90.0
  0
ARC
  5
6517
330
1A
100
AcDbEntity
  8
外形線
100
AcDbCircle
 10
712.999393285179
 20
673.674534245649
 30
0.0
 40
2.0
100
AcDbArc
 50
270.0
 51
0.0
  0
LINE
  5
6518
330
1A
100
AcDbEntity
  8
外形線
100
AcDbLine
 10
714.999393285179
 20
683.674534245649
 30
0.0
 11
714.999393285179
 21
673.674534245649
 31
0.0
  0
LINE
  5
6519
330
1A
100
AcDbEntity
  8
外形線
100
AcDbLine
 10
715.999393285179
 20
684.674534245649
 30
0.0
 11
714.999393285179
 21
683.674534245649
 31
0.0
  0
LINE
  5
651A
330
1A
100
AcDbEntity
  8
外形線
100
AcDbLine
 10
726.499393285179
 20
684.674534245649
 30
0.0
 11
715.999393285179
 21
684.674534245649
 31
0.0
  0
LINE
  5
651B
330
1A
100
AcDbEntity
  8
外形線
100
AcDbLine
 10
726.999393285179
 20
684.174534245649
 30
0.0
 11
726.499393285179
 21
684.674534245649
 31
0.0
  0
LINE
  5
651C
330
1A
100
AcDbEntity
  8
外形線
100
AcDbLine
 10
726.999393285179
 20
539.174534245649
 30
0.0
 11
726.999393285179
 21
684.174534245649
 31
0.0
  0
LINE
  5
651D
330
1A
100
AcDbEntity
  8
外形線
100
AcDbLine
 10
726.499393285179
 20
538.674534245649
 30
0.0
 11
726.999393285179
 21
539.174534245649
 31
0.0
  0
LINE
  5
651E
330
1A
100
AcDbEntity
  8
外形線
 48
10.0
100
AcDbLine
 10
670.999393285179
 20
657.174534245649
 30
0.0
 11
670.999393285179
 21
566.174534245649
 31
0.0
  0
LWPOLYLINE
  5
651F
330
1A
100
AcDbEntity
  8
外形線
100
AcDbPolyline
 90
       10
 70
     0
 43
0.0
 10
726.999393285179
 20
561.674534245649
 10
726.999393285179
 20
539.174534245649
 10
727.499393285179
 20
538.674534245649
 10
741.999393285179
 20
538.674534245649
 10
742.999393285179
 20
539.674534245649
 10
742.999393285179
 20
683.674534245649
 10
741.999393285179
 20
684.674534245649
 10
727.499393285179
 20
684.674534245649
 10
726.999393285179
 20
684.174534245649
 10
726.999393285179
 20
661.674534245649
  0
LINE
  5
6520
330
1A
100
AcDbEntity
  8
外形線
 48
10.0
100
AcDbLine
 10
726.999393285179
 20
661.674534245649
 30
0.0
 11
726.999393285179
 21
561.674534245649
 31
0.0
  0
LINE
  5
6521
330
1A
100
AcDbEntity
  8
外形線
 48
10.0
100
AcDbLine
 10
714.999393285179
 20
673.674534245649
 30
0.0
 11
714.999393285179
 21
549.674534245649
 31
0.0
  0
LINE
  5
6522
330
1A
100
AcDbEntity
  8
外形線
 48
10.0
100
AcDbLine
 10
654.999393285179
 20
668.663256010236
 30
0.0
 11
654.999393285179
 21
554.685812481062
 31
0.0
  0
ARC
  5
6523
330
1A
100
AcDbEntity
  8
外形線
 48
10.0
100
AcDbCircle
 10
698.999393285179
 20
468.635606322304
 30
0.0
 40
72.82857142857176
100
AcDbArc
 50
74.060779211365
 51
105.939220788635
  0
HATCH
  5
6524
330
1A
100
AcDbEntity
  8
細線
 48
10.0
100
AcDbHatch
 10
0.0
 20
0.0
 30
0.0
210
0.0
220
0.0
230
1.0
  2
ANSI31
 70
     0
 71
     0
 91
       18
 92
        7
 72
     1
 73
     1
 93
        7
 10
709.6168215388097
 20
539.1391205731868
 42
-0.0890553773191663
 10
709.1993932851788
 20
539.0641777508765
 42
0.0
 10
708.1993932851788
 20
539.0641777508765
 42
0.0
 10
706.958924935142
 20
539.0641777508765
 42
0.0
 10
706.9589249351425
 20
532.0641777508765
 42
0.0
 10
709.6446274601972
 20
532.0641777508765
 42
0.0
 10
709.6446274601972
 20
539.0641777508765
 42
0.0
 97
        0
 92
        7
 72
     0
 73
     1
 93
        7
 10
679.4993932851789
 20
533.0019999243852
 10
682.9993932851789
 20
532.0641777508765
 10
688.3541591101603
 20
532.0641777508765
 10
688.3541591101607
 20
539.0641777508765
 10
688.3819650315481
 20
539.0641777508765
 10
681.4993932851789
 20
539.0641777508765
 10
679.4993932851789
 20
538.5282793660142
 97
        0
 92
        7
 72
     0
 73
     1
 93
        7
 10
714.9993932851789
 20
532.0641777508765
 10
718.4993932851789
 20
533.0019999243852
 10
718.4993932851789
 20
538.5282793660142
 10
716.4993932851789
 20
539.0641777508765
 10
709.6168215388097
 20
539.0641777508765
 10
709.6446274601972
 20
539.0641777508765
 10
709.6446274601972
 20
532.0641777508765
 97
        0
 92
        7
 72
     1
 73
     1
 93
       11
 10
712.2493932851789
 20
473.0641777508764
 42
0.0
 10
714.2493932851789
 20
473.0641777508764
 42
0.414213562373095
 10
716.2493932851789
 20
475.0641777508764
 42
0.0
 10
716.2493932851789
 20
495.0641777508764
 42
0.0
 10
698.9993932851789
 20
495.0641777508764
 42
0.0
 10
681.7493932851789
 20
495.0641777508764
 42
0.0
 10
681.7493932851789
 20
475.0641777508764
 42
0.414213562373095
 10
683.7493932851789
 20
473.0641777508764
 42
0.0
 10
685.8993932851786
 20
473.0641777508764
 42
0.0
 10
698.9993932851789
 20
473.0641777508764
 42
0.0
 10
712.0993932851788
 20
473.0641777508764
 42
0.0
 97
        0
 92
        7
 72
     1
 73
     1
 93
       10
 10
682.9993932851789
 20
523.0641777508765
 42
0.0
 10
681.4993932851789
 20
523.0641777508765
 42
0.0
 10
679.4993932851789
 20
521.909477212497
 42
0.0
 10
679.4993932851789
 20
496.2188782892555
 42
0.0
 10
681.4993932851789
 20
495.0641777508764
 42
0.0
 10
681.7493932851789
 20
495.0641777508764
 42
0.0
 10
681.7493674496127
 20
495.0660852486964
 42
0.0797961404903644
 10
688.3541591101612
 20
496.2188782892559
 42
0.0
 10
688.3541591101603
 20
521.909477212497
 42
0.064967344209285
 10
682.995354301554
 20
523.0086024930104
 42
0.0
 97
        0
 92
        7
 72
     1
 73
     1
 93
       10
 10
716.4993932851789
 20
523.0641777508765
 42
0.0
 10
714.9993932851789
 20
523.0641777508765
 42
0.0
 10
715.0034322688043
 20
523.0086024930104
 42
0.0649673442092901
 10
709.6446274601963
 20
521.909477212497
 42
0.0
 10
709.6446274601972
 20
496.2188782892555
 42
0.0797961404903702
 10
716.2494191207452
 20
495.0660852486964
 42
0.0
 10
716.2493932851789
 20
495.0641777508764
 42
0.0
 10
716.4993932851789
 20
495.0641777508764
 42
0.0
 10
718.4993932851789
 20
496.2188782892555
 42
0.0
 10
718.4993932851789
 20
521.909477212497
 42
0.0
 97
        0
 92
        7
 72
     0
 73
     1
 93
        5
 10
686.3993932851786
 20
461.0641777508764
 10
698.9993932851789
 20
461.0641777508764
 10
698.9993932851789
 20
473.0641777508764
 10
685.8993932851786
 20
473.0641777508764
 10
685.8993932851786
 20
461.9302031546609
 97
        0
 92
        7
 72
     0
 73
     1
 93
        5
 10
711.5993932851788
 20
461.0641777508764
 10
712.0993932851788
 20
461.9302031546609
 10
712.0993932851788
 20
473.0641777508764
 10
698.9993932851789
 20
473.0641777508764
 10
698.9993932851789
 20
461.0641777508764
 97
        0
 92
        7
 72
     0
 73
     1
 93
        9
 10
682.9993932851789
 20
532.0641777508765
 10
682.9993932851789
 20
523.0641777508765
 10
698.9993932851789
 20
523.0641777508765
 10
714.9993932851789
 20
523.0641777508765
 10
714.9993932851789
 20
532.0641777508765
 10
709.6446274601972
 20
532.0641777508765
 10
706.9589249351425
 20
532.0641777508765
 10
691.0398616352154
 20
532.0641777508765
 10
688.3541591101603
 20
532.0641777508765
 97
        0
 92
        7
 72
     1
 73
     1
 93
        5
 10
698.9993932851789
 20
523.0641777508765
 42
0.0
 10
682.9993932851789
 20
523.0641777508765
 42
0.0
 10
682.995354301554
 20
523.0086024930104
 42
-0.064967344209285
 10
688.3541591101612
 20
521.909477212497
 42
0.0
 10
691.0398616352154
 20
521.909477212497
 42
-0.0721580311220423
 97
        0
 92
        7
 72
     1
 73
     1
 93
        6
 10
706.958924935142
 20
496.2188782892555
 42
0.0
 10
706.958924935142
 20
521.909477212497
 42
0.0721580311220383
 10
698.9993932851789
 20
523.0641777508765
 42
0.0721580311220423
 10
691.0398616352131
 20
521.9094772124965
 42
0.0
 10
691.0398616352154
 20
496.2188782892555
 42
0.0721580311220422
 10
698.9993932851789
 20
495.0641777508764
 42
0.0721580311220384
 97
        0
 92
        7
 72
     0
 73
     1
 93
        4
 10
706.958924935142
 20
521.909477212497
 10
706.958924935142
 20
496.2188782892555
 10
709.6446274601972
 20
496.2188782892555
 10
709.6446274601972
 20
521.909477212497
 97
        0
 92
        7
 72
     0
 73
     1
 93
        4
 10
691.0398616352154
 20
496.2188782892555
 10
691.0398616352154
 20
521.909477212497
 10
688.3541591101603
 20
521.909477212497
 10
688.3541591101603
 20
496.2188782892555
 97
        0
 92
        7
 72
     0
 73
     1
 93
        4
 10
706.9589249351425
 20
532.0641777508765
 10
706.958924935142
 20
539.0641777508765
 10
691.0398616352154
 20
539.0641777508765
 10
691.0398616352154
 20
532.0641777508765
 97
        0
 92
        7
 72
     1
 73
     1
 93
        7
 10
691.0398616352154
 20
532.0641777508765
 42
0.0
 10
691.0398616352154
 20
539.0641777508765
 42
0.0
 10
689.7993932851787
 20
539.0641777508765
 42
0.0
 10
688.7993932851787
 20
539.0641777508765
 42
-0.0890553773190824
 10
688.3819650315481
 20
539.1391205731868
 42
0.0
 10
688.3541591101607
 20
539.0641777508765
 42
0.0
 10
688.3541591101603
 20
532.0641777508765
 42
0.0
 97
        0
 92
        7
 72
     1
 73
     1
 93
        5
 10
691.0398616352154
 20
496.2188782892555
 42
0.0
 10
688.3541591101603
 20
496.2188782892555
 42
-0.0797961404903644
 10
681.7493674496127
 20
495.0660852486964
 42
0.0
 10
681.7493932851789
 20
495.0641777508764
 42
0.0
 10
698.9993932851789
 20
495.0641777508764
 42
-0.0721580311220422
 97
        0
 92
        7
 72
     1
 73
     1
 93
        5
 10
716.2494191207452
 20
495.0660852486964
 42
-0.0797961404903702
 10
709.6446274601963
 20
496.2188782892559
 42
0.0
 10
706.958924935142
 20
496.2188782892555
 42
-0.0721580311220384
 10
698.9993932851789
 20
495.0641777508764
 42
0.0
 10
716.2493932851789
 20
495.0641777508764
 42
0.0
 97
        0
 92
        7
 72
     1
 73
     1
 93
        5
 10
698.9993932851789
 20
523.0641777508765
 42
-0.0721580311220383
 10
706.9589249351443
 20
521.9094772124965
 42
0.0
 10
709.6446274601972
 20
521.909477212497
 42
-0.0649673442092901
 10
715.0034322688043
 20
523.0086024930104
 42
0.0
 10
714.9993932851789
 20
523.0641777508765
 42
0.0
 97
        0
 75
     0
 76
     1
 52
0.0
 41
1.25
 77
     0
 78
     1
 53
45.0
 43
0.0
 44
0.0
 45
-2.80633003783411
 46
2.806330037834111
 79
     0
 47
0.0
 98
       18
 10
707.9780532660184
 20
536.1566158032781
 10
683.88446060464
 20
535.3758049299929
 10
711.5474744010371
 20
535.3758049299929
 10
692.2199139103809
 20
483.8254249880539
 10
685.1745095011056
 20
509.1888808614465
 10
714.0606675791355
 20
511.6547724046929
 10
695.3903458945551
 20
468.3255352876473
 10
704.1971014061496
 20
467.2687246262559
 10
693.0286482860961
 20
525.5987142635338
 10
690.4269864563089
 20
522.8057537697921
 10
697.503967217338
 20
502.4957466726344
 10
708.0720738312516
 20
510.5979617433015
 10
689.4017521466708
 20
509.5411510819101
 10
703.4047324367752
 20
535.2642605195235
 10
689.6847699490459
 20
535.3758049299929
 10
691.0703915063968
 20
495.3892797983855
 10
707.0885381278276
 20
495.2817754586446
 10
707.4143078155062
 20
522.5379356402552
1001
ACAD
1010
0.0
1020
0.0
1030
0.0
  0
ARC
  5
6525
330
1A
100
AcDbEntity
  8
外形線
100
AcDbCircle
 10
688.799393285179
 20
540.264177750876
 30
0.0
 40
1.2
100
AcDbArc
 50
165.097005345965
 51
270.0
  0
ARC
  5
6526
330
1A
100
AcDbEntity
  8
外形線
100
AcDbCircle
 10
709.199393285179
 20
540.264177750876
 30
0.0
 40
1.2
100
AcDbArc
 50
270.0
 51
14.902994654036
  0
LINE
  5
6527
330
1A
100
AcDbEntity
  8
外形線
 62
     0
100
AcDbLine
 10
682.999393285179
 20
532.064177750877
 30
0.0
 11
679.499393285179
 21
533.001999924385
 31
0.0
  0
LINE
  5
6528
330
1A
100
AcDbEntity
  8
外形線
100
AcDbLine
 10
714.999393285179
 20
532.064177750877
 30
0.0
 11
718.499393285179
 21
533.001999924385
 31
0.0
  0
LINE
  5
6529
330
1A
100
AcDbEntity
  8
外形線
100
AcDbLine
 10
714.249393285179
 20
473.064177750876
 30
0.0
 11
712.099393285179
 21
473.064177750876
 31
0.0
  0
LINE
  5
652A
330
1A
100
AcDbEntity
  8
外形線
 62
     0
100
AcDbLine
 10
682.999393285179
 20
523.064177750877
 30
0.0
 11
681.499393285179
 21
523.064177750877
 31
0.0
  0
LINE
  5
652B
330
1A
100
AcDbEntity
  8
外形線
 62
     0
100
AcDbLine
 10
716.499393285179
 20
523.064177750877
 30
0.0
 11
714.999393285179
 21
523.064177750877
 31
0.0
  0
LINE
  5
652C
330
1A
100
AcDbEntity
  8
外形線
100
AcDbLine
 10
679.499393285179
 20
521.909477212497
 30
0.0
 11
679.499393285179
 21
496.218878289255
 31
0.0
  0
LINE
  5
652D
330
1A
100
AcDbEntity
  8
外形線
100
AcDbLine
 10
718.499393285179
 20
521.909477212497
 30
0.0
 11
718.499393285179
 21
496.218878289255
 31
0.0
  0
LINE
  5
652E
330
1A
100
AcDbEntity
  8
外形線
100
AcDbLine
 10
681.499393285179
 20
495.064177750876
 30
0.0
 11
716.499393285179
 21
495.064177750876
 31
0.0
  0
LINE
  5
652F
330
1A
100
AcDbEntity
  8
外形線
100
AcDbLine
 10
681.499393285179
 20
495.064177750876
 30
0.0
 11
679.499393285179
 21
496.218878289255
 31
0.0
  0
LINE
  5
6530
330
1A
100
AcDbEntity
  8
外形線
 62
     0
100
AcDbLine
 10
681.499393285179
 20
523.064177750877
 30
0.0
 11
679.499393285179
 21
521.909477212497
 31
0.0
  0
LINE
  5
6531
330
1A
100
AcDbEntity
  8
外形線
 62
     0
100
AcDbLine
 10
716.499393285179
 20
523.064177750877
 30
0.0
 11
718.499393285179
 21
521.909477212497
 31
0.0
  0
LINE
  5
6532
330
1A
100
AcDbEntity
  8
外形線
100
AcDbLine
 10
716.499393285179
 20
495.064177750876
 30
0.0
 11
718.499393285179
 21
496.218878289255
 31
0.0
  0
ARC
  5
6533
330
1A
100
AcDbEntity
  8
外形線
100
AcDbCircle
 10
683.749393285179
 20
475.064177750876
 30
0.0
 40
2.0
100
AcDbArc
 50
180.0
 51
270.0
  0
ARC
  5
6534
330
1A
100
AcDbEntity
  8
外形線
100
AcDbCircle
 10
714.249393285179
 20
475.064177750876
 30
0.0
 40
2.0
100
AcDbArc
 50
270.0
 51
0.0
  0
LINE
  5
6535
330
1A
100
AcDbEntity
  8
外形線
100
AcDbLine
 10
716.249393285179
 20
475.064177750876
 30
0.0
 11
716.249393285179
 21
495.064177750876
 31
0.0
  0
LINE
  5
6536
330
1A
100
AcDbEntity
  8
外形線
100
AcDbLine
 10
681.749393285179
 20
475.064177750876
 30
0.0
 11
681.749393285179
 21
495.064177750876
 31
0.0
  0
LINE
  5
6537
330
1A
100
AcDbEntity
  8
外形線
100
AcDbLine
 10
686.399393285179
 20
461.064177750876
 30
0.0
 11
711.599393285179
 21
461.064177750876
 31
0.0
  0
LINE
  5
6538
330
1A
100
AcDbEntity
  8
外形線
100
AcDbLine
 10
686.399393285179
 20
461.064177750876
 30
0.0
 11
685.899393285179
 21
461.930203154661
 31
0.0
  0
LINE
  5
6539
330
1A
100
AcDbEntity
  8
外形線
100
AcDbLine
 10
711.599393285179
 20
461.064177750876
 30
0.0
 11
712.099393285179
 21
461.930203154661
 31
0.0
  0
LINE
  5
653A
330
1A
100
AcDbEntity
  8
外形線
100
AcDbLine
 10
685.899393285179
 20
473.064177750876
 30
0.0
 11
685.899393285179
 21
461.930203154661
 31
0.0
  0
LINE
  5
653B
330
1A
100
AcDbEntity
  8
外形線
 62
     0
100
AcDbLine
 10
682.999393285179
 20
532.064177750877
 30
0.0
 11
682.999393285179
 21
523.064177750877
 31
0.0
  0
LINE
  5
653C
330
1A
100
AcDbEntity
  8
外形線
 62
     0
100
AcDbLine
 10
679.499393285179
 20
538.528279366014
 30
0.0
 11
679.499393285179
 21
533.001999924385
 31
0.0
  0
LINE
  5
653D
330
1A
100
AcDbEntity
  8
外形線
100
AcDbLine
 10
681.499393285179
 20
539.064177750877
 30
0.0
 11
679.499393285179
 21
538.528279366014
 31
0.0
  0
LINE
  5
653E
330
1A
100
AcDbEntity
  8
外形線
100
AcDbLine
 10
681.499393285179
 20
539.064177750877
 30
0.0
 11
689.799393285179
 21
539.064177750877
 31
0.0
  0
LINE
  5
653F
330
1A
100
AcDbEntity
  8
外形線
 62
     0
100
AcDbLine
 10
718.499393285179
 20
538.528279366014
 30
0.0
 11
718.499393285179
 21
533.001999924385
 31
0.0
  0
LINE
  5
6540
330
1A
100
AcDbEntity
  8
外形線
100
AcDbLine
 10
716.499393285179
 20
539.064177750877
 30
0.0
 11
718.499393285179
 21
538.528279366014
 31
0.0
  0
LINE
  5
6541
330
1A
100
AcDbEntity
  8
外形線
100
AcDbLine
 10
716.499393285179
 20
539.064177750877
 30
0.0
 11
708.199393285179
 21
539.064177750877
 31
0.0
  0
LINE
  5
6542
330
1A
100
AcDbEntity
  8
外形線
 48
10.0
100
AcDbLine
 10
708.199393285179
 20
539.064177750877
 30
0.0
 11
689.799393285179
 21
539.064177750877
 31
0.0
  0
LINE
  5
6543
330
1A
100
AcDbEntity
  8
外形線
 48
10.0
100
AcDbLine
 10
682.999393285179
 20
532.064177750877
 30
0.0
 11
714.999393285179
 21
532.064177750877
 31
0.0
  0
LINE
  5
6544
330
1A
100
AcDbEntity
  8
外形線
 48
10.0
100
AcDbLine
 10
683.749393285179
 20
473.064177750876
 30
0.0
 11
712.249393285179
 21
473.064177750876
 31
0.0
  0
LINE
  5
6545
330
1A
100
AcDbEntity
  8
外形線
 48
10.0
100
AcDbLine
 10
712.099393285179
 20
461.930203154661
 30
0.0
 11
712.099393285179
 21
473.064177750876
 31
0.0
  0
LINE
  5
6546
330
1A
100
AcDbEntity
  8
外形線
 62
     0
100
AcDbLine
 10
714.999393285179
 20
532.064177750877
 30
0.0
 11
714.999393285179
 21
523.064177750877
 31
0.0
  0
LINE
  5
6547
330
1A
100
AcDbEntity
  8
外形線
 48
10.0
100
AcDbLine
 10
682.999393285179
 20
523.064177750877
 30
0.0
 11
714.999393285179
 21
523.064177750877
 31
0.0
  0
LINE
  5
6548
330
1A
100
AcDbEntity
  8
外形線
 48
10.0
100
AcDbLine
 10
706.958924935142
 20
496.218878289255
 30
0.0
 11
706.958924935142
 21
521.909477212497
 31
0.0
  0
LINE
  5
6549
330
1A
100
AcDbEntity
  8
外形線
 48
10.0
100
AcDbLine
 10
709.644627460197
 20
496.218878289255
 30
0.0
 11
709.644627460197
 21
521.909477212497
 31
0.0
  0
LINE
  5
654A
330
1A
100
AcDbEntity
  8
外形線
 48
10.0
100
AcDbLine
 10
691.039861635215
 20
496.218878289255
 30
0.0
 11
691.039861635215
 21
521.909477212497
 31
0.0
  0
LINE
  5
654B
330
1A
100
AcDbEntity
  8
外形線
 48
10.0
100
AcDbLine
 10
688.35415911016
 20
496.218878289255
 30
0.0
 11
688.35415911016
 21
521.909477212497
 31
0.0
  0
LINE
  5
654C
330
1A
100
AcDbEntity
  8
外形線
 48
10.0
100
AcDbLine
 10
706.958924935142
 20
532.064177750877
 30
0.0
 11
706.958924935142
 21
539.064177750877
 31
0.0
  0
LINE
  5
654D
330
1A
100
AcDbEntity
  8
外形線
 48
10.0
100
AcDbLine
 10
709.644627460197
 20
532.064177750877
 30
0.0
 11
709.644627460197
 21
539.064177750877
 31
0.0
  0
LINE
  5
654E
330
1A
100
AcDbEntity
  8
外形線
 48
10.0
100
AcDbLine
 10
691.039861635215
 20
532.064177750877
 30
0.0
 11
691.039861635215
 21
539.064177750877
 31
0.0
  0
LINE
  5
654F
330
1A
100
AcDbEntity
  8
外形線
 48
10.0
100
AcDbLine
 10
688.35415911016
 20
532.064177750877
 30
0.0
 11
688.354159110161
 21
539.064177750877
 31
0.0
  0
LINE
  5
6550
330
1A
100
AcDbEntity
  8
外形線
 48
10.0
100
AcDbLine
 10
688.35415911016
 20
496.218878289255
 30
0.0
 11
691.039861635215
 21
496.218878289255
 31
0.0
  0
ARC
  5
6551
330
1A
100
AcDbEntity
  8
外形線
 48
10.0
100
AcDbCircle
 10
698.999393285179
 20
523.074677127146
 30
0.0
 40
28.01049937626924
100
AcDbArc
 50
253.491210313049
 51
286.508789686951
  0
ARC
  5
6552
330
1A
100
AcDbEntity
  8
外形線
 48
10.0
100
AcDbCircle
 10
716.535707879111
 20
516.203426543496
 30
0.0
 40
21.13927998456884
100
AcDbArc
 50
250.974760675967
 51
269.901573090846
  0
ARC
  5
6553
330
1A
100
AcDbEntity
  8
外形線
 48
10.0
100
AcDbCircle
 10
681.463078691247
 20
516.203426543496
 30
0.0
 40
21.13927998456884
100
AcDbArc
 50
270.098426909141
 51
289.025239324033
  0
LINE
  5
6554
330
1A
100
AcDbEntity
  8
外形線
 48
10.0
100
AcDbLine
 10
706.958924935142
 20
496.218878289255
 30
0.0
 11
709.644627460197
 21
496.218878289255
 31
0.0
  0
LINE
  5
6555
330
1A
100
AcDbEntity
  8
外形線
 48
10.0
100
AcDbLine
 10
688.35415911016
 20
521.909477212497
 30
0.0
 11
691.039861635215
 21
521.909477212497
 31
0.0
  0
ARC
  5
6556
330
1A
100
AcDbEntity
  8
外形線
 48
10.0
100
AcDbCircle
 10
698.999393285179
 20
495.053678374607
 30
0.0
 40
28.01049937626924
100
AcDbArc
 50
73.491210313049
 51
106.508789686951
  0
ARC
  5
6557
330
1A
100
AcDbEntity
  8
外形線
 48
10.0
100
AcDbCircle
 10
716.535707879111
 20
501.924928958257
 30
0.0
 40
21.13927998456884
100
AcDbArc
 50
90.098426909141
 51
109.025239324033
  0
ARC
  5
6558
330
1A
100
AcDbEntity
  8
外形線
 48
10.0
100
AcDbCircle
 10
681.463078691247
 20
501.924928958257
 30
0.0
 40
21.13927998456884
100
AcDbArc
 50
70.974760675967
 51
89.901573090859
  0
LINE
  5
6559
330
1A
100
AcDbEntity
  8
外形線
 48
10.0
100
AcDbLine
 10
706.958924935142
 20
521.909477212497
 30
0.0
 11
709.644627460197
 21
521.909477212497
 31
0.0
  0
LINE
  5
655A
330
1A
100
AcDbEntity
  8
外形線
100
AcDbLine
 10
718.96309513817
 20
538.67453424565
 30
0.0
 11
726.499393285179
 21
538.674534245649
 31
0.0
  0
LINE
  5
655B
102
{ACAD_REACTORS
330
6F78
330
6F84
102
}
330
1A
100
AcDbEntity
  8
外形線
100
AcDbLine
 10
515.999393285179
 20
616.674534245649
 30
0.0
 11
495.333340825325
 21
616.674534245649
 31
0.0
  0
DIMENSION
  5
655C
330
1A
100
AcDbEntity
  8
寸法線
 48
10.0
100
AcDbDimension
  2
*D14
 10
767.999393285179
 20
538.674534245649
 30
0.0
 11
767.999393285179
 21
609.583111918124
 31
0.0
 70
   160
  3
ISO-25
100
AcDbAlignedDimension
 13
741.999393285179
 23
684.674534245649
 33
0.0
 14
741.999393285179
 24
538.674534245649
 34
0.0
 50
90.0
100
AcDbRotatedDimension
1001
ACAD
1000
DSTYLE
1002
{
1070
     5
1000
OPEN30
1070
     3
1000
%%c<>
1070
    41
1040
6.0
1070
    47
1040
0.1
1070
    48
1040
0.1
1070
    73
1070
     0
1070
   140
1040
10.0
1070
   271
1070
     1
1070
   272
1070
     1
1070
   341
1005
2AF4
1002
}
  0
DIMENSION
  5
655D
330
1A
100
AcDbEntity
  8
寸法線
 48
10.0
100
AcDbDimension
  2
*D15
 10
552.999393285179
 20
436.064177750876
 30
0.0
 11
611.999393285179
 21
441.699594417543
 31
0.0
 70
    32
  3
ISO-25
100
AcDbAlignedDimension
 13
670.999393285179
 23
539.174534245649
 33
0.0
 14
552.999393285179
 24
535.174534245649
 34
0.0
100
AcDbRotatedDimension
1001
ACAD
1000
DSTYLE
1002
{
1070
     5
1000
OPEN30
1070
    41
1040
6.0
1070
    47
1040
0.1
1070
    48
1040
0.1
1070
    73
1070
     0
1070
   140
1040
10.0
1070
   271
1070
     1
1070
   272
1070
     1
1070
   341
1005
2AF4
1002
}
  0
DIMENSION
  5
655F
330
1A
100
AcDbEntity
  8
寸法線_文字
 48
10.0
100
AcDbDimension
  2
*D16
 10
742.999393285179
 20
436.064177750876
 30
0.0
 11
734.999393285179
 21
441.689177750876
 31
0.0
 70
    32
  3
ISO-25
100
AcDbAlignedDimension
 13
726.999393285179
 23
539.17453424565
 33
0.0
 14
742.999393285179
 24
539.674534245649
 34
0.0
100
AcDbRotatedDimension
1001
ACAD
1000
DSTYLE
1002
{
1070
     5
1000
OPEN30
1070
    41
1040
6.0
1070
    47
1040
0.1
1070
    48
1040
0.1
1070
    73
1070
     0
1070
   140
1040
10.0
1070
   271
1070
     1
1070
   272
1070
     1
1070
   341
1005
2AF4
1002
}
  0
LINE
  5
6560
330
1A
100
AcDbEntity
  8
外形線
 48
10.0
100
AcDbLine
 10
570.999393285179
 20
579.17453424565
 30
0.0
 11
570.999393285179
 21
644.174534245649
 31
0.0
  0
LINE
  5
6561
330
1A
100
AcDbEntity
  8
下書線
100
AcDbLine
 10
61.620877769296
 20
717.414711228493
 30
0.0
 11
776.847443601028
 21
717.414711228493
 31
0.0
  0
MTEXT
  5
6562
330
1A
100
AcDbEntity
  8
寸法線
 48
10.0
100
AcDbMText
 10
580.107471223654
 20
705.86617582704
 30
0.0
 40
10.0
 41
74.696477522242
 71
     1
 72
     5
  1
固着剤使用
  0
MTEXT
  5
6563
330
1A
100
AcDbEntity
  8
寸法線
 48
10.0
100
AcDbMText
 10
655.591539296179
 20
728.150976392273
 30
0.0
 40
10.0
 41
26.553641107301
 71
     1
 72
     5
  1
AC7A
  0
MTEXT
  5
6564
330
1A
100
AcDbEntity
  8
寸法線
 48
10.0
100
AcDbMText
 10
701.029121718387
 20
727.709918942569
 30
0.0
 40
10.0
 41
26.553641107301
 71
     1
 72
     5
  1
AC7A
  0
MTEXT
  5
6565
330
1A
100
AcDbEntity
  8
寸法線
 48
10.0
100
AcDbMText
 10
747.477049593519
 20
727.792713420799
 30
0.0
 40
10.0
 41
26.553641107301
 71
     1
 72
     5
  1
AC7A
  0
LEADER
  5
6566
330
1A
100
AcDbEntity
  8
寸法線
 48
10.0
100
AcDbLeader
  3
ISO-25
 76
     3
 10
738.828056486611
 20
684.768734549684
 30
0.0
 10
745.901057781129
 20
717.414711228492
 30
0.0
 10
757.901057781129
 20
717.414711228493
 30
0.0
1001
ACAD
1000
DSTYLE
1002
{
1070
     5
1000
OPEN30
1070
   147
1040
0.625
1070
    77
1070
     0
1070
    41
1040
6.0
1070
    47
1040
0.1
1070
    48
1040
0.1
1070
    73
1070
     0
1070
   140
1040
5.0
1070
   271
1070
     1
1070
   272
1070
     1
1070
   341
1005
2AF4
1070
   342
1005
2AF4
1002
}
  0
LEADER
  5
6567
330
1A
100
AcDbEntity
  8
寸法線
 48
10.0
100
AcDbLeader
  3
ISO-25
 76
     3
 10
699.078535272318
 20
672.125396071422
 30
0.0
 10
699.699420340271
 20
717.414711228492
 30
0.0
 10
711.699420340271
 20
717.414711228493
 30
0.0
1001
ACAD
1000
DSTYLE
1002
{
1070
     5
1000
OPEN30
1070
   147
1040
0.625
1070
    77
1070
     0
1070
    41
1040
6.0
1070
    47
1040
0.1
1070
    48
1040
0.1
1070
    73
1070
     0
1070
   140
1040
5.0
1070
   271
1070
     1
1070
   272
1070
     1
1070
   341
1005
2AF4
1070
   342
1005
2AF4
1002
}
  0
LEADER
  5
6568
330
1A
100
AcDbEntity
  8
寸法線
 48
10.0
100
AcDbLeader
  3
ISO-25
 76
     3
 10
659.9860309376
 20
685.162519768283
 30
0.0
 10
653.274481690482
 20
717.414711228493
 30
0.0
 10
665.274481690482
 20
717.414711228493
 30
0.0
1001
ACAD
1000
DSTYLE
1002
{
1070
     5
1000
OPEN30
1070
   147
1040
0.625
1070
    77
1070
     0
1070
    41
1040
6.0
1070
    47
1040
0.1
1070
    48
1040
0.1
1070
    73
1070
     0
1070
   140
1040
5.0
1070
   271
1070
     1
1070
   272
1070
     1
1070
   341
1005
2AF4
1070
   342
1005
2AF4
1002
}
  0
LEADER
  5
6569
330
1A
100
AcDbEntity
  8
寸法線
 48
10.0
100
AcDbLeader
  3
ISO-25
 76
     3
 10
555.520347085161
 20
634.211006629166
 30
0.0
 10
579.39054935708
 20
694.419120443365
 30
0.0
 10
591.39054935708
 20
694.419120443365
 30
0.0
1001
ACAD
1000
DSTYLE
1002
{
1070
     5
1000
OPEN30
1070
   147
1040
0.625
1070
    77
1070
     0
1070
    41
1040
6.0
1070
    47
1040
0.1
1070
    48
1040
0.1
1070
    73
1070
     0
1070
   140
1040
5.0
1070
   271
1070
     1
1070
   272
1070
     1
1070
   341
1005
2AF4
1070
   342
1005
2AF4
1002
}
  0
LINE
  5
656A
330
1A
100
AcDbEntity
  8
隠れ線
 48
10.0
100
AcDbLine
 10
570.999393285179
 20
633.174534245649
 30
0.0
 11
540.999393285179
 21
633.174534245649
 31
0.0
  0
LINE
  5
656B
330
1A
100
AcDbEntity
  8
隠れ線
 48
10.0
100
AcDbLine
 10
570.999393285179
 20
590.174534245649
 30
0.0
 11
540.999393285179
 21
590.174534245649
 31
0.0
  0
DIMENSION
  5
656C
330
1A
100
AcDbEntity
  8
寸法線_文字
 48
10.0
100
AcDbDimension
  2
*D17
 10
789.99939328518
 20
461.064177750876
 30
0.0
 11
789.99939328518
 21
572.869355998263
 31
0.0
 70
   160
  3
ISO-25
100
AcDbAlignedDimension
 13
741.999393285179
 23
684.674534245649
 33
0.0
 14
711.599393285179
 24
461.064177750876
 34
0.0
 50
90.0
100
AcDbRotatedDimension
1001
ACAD
1000
DSTYLE
1002
{
1070
     5
1000
OPEN30
1070
     3
1000
（<>）
1070
    41
1040
6.0
1070
   271
1070
     0
1070
   341
1005
2AF4
1070
   272
1070
     1
1070
    73
1070
     0
1070
    48
1040
0.1
1070
    47
1040
0.1
1070
   140
1040
10.0
1002
}
  0
LEADER
  5
656D
330
1A
100
AcDbEntity
  8
寸法線
 48
10.0
100
AcDbLeader
  3
ISO-25
 76
     3
 10
690.785413578079
 20
461.064177750876
 30
0.0
 10
678.558952291965
 20
394.484675467194
 30
0.0
 10
666.558952291965
 20
394.484675467194
 30
0.0
213
-27.21281245643422
223
0.0
233
0.0
1001
ACAD
1000
DSTYLE
1002
{
1070
     5
1000
OPEN30
1070
   147
1040
0.625
1070
    77
1070
     0
1070
    41
1040
6.0
1070
    47
1040
0.1
1070
    48
1040
0.1
1070
    73
1070
     0
1070
   140
1040
5.0
1070
   271
1070
     1
1070
   272
1070
     1
1070
   341
1005
2AF4
1070
   342
1005
2AF4
1002
}
  0
MTEXT
  5
656E
330
1A
100
AcDbEntity
  8
寸法線
 48
10.0
100
AcDbMText
 10
641.109356564513
 20
405.016733371615
 30
0.0
 40
10.0
 41
57.713255088558
 71
     1
 72
     5
  1
G 1/2"
  0
LINE
  5
656F
330
1A
100
AcDbEntity
  8
中心線
 48
10.0
100
AcDbLine
 10
698.999393285179
 20
553.704128263965
 30
0.0
 11
698.999393285179
 21
451.064177750876
 31
0.0
  0
DIMENSION
  5
6570
330
1A
100
AcDbEntity
  8
寸法線
 48
10.0
100
AcDbDimension
  2
*D18
 10
419.028273325325
 20
414.064177750876
 30
0.0
 11
581.013833305252
 21
419.690162002845
 31
0.0
 70
    32
  3
ISO-25
100
AcDbAlignedDimension
 13
742.999393285179
 23
539.674534245649
 33
0.0
 14
419.028273325325
 24
534.174534245649
 34
0.0
100
AcDbRotatedDimension
1001
ACAD
1000
DSTYLE
1002
{
1070
     5
1000
OPEN30
1070
     3
1000
（<>）
1070
    41
1040
6.0
1070
   271
1070
     1
1070
   341
1005
2AF4
1070
   272
1070
     1
1070
    73
1070
     0
1070
    48
1040
0.1
1070
    47
1040
0.1
1070
   140
1040
10.0
1002
}
  0
LINE
  5
6571
102
{ACAD_REACTORS
330
6F78
102
}
330
1A
100
AcDbEntity
  8
外形線
100
AcDbLine
 10
495.333340825325
 20
606.674534245649
 30
0.0
 11
515.999393285179
 21
606.674534245649
 31
0.0
  0
MTEXT
  5
65C2
330
1A
100
AcDbEntity
  8
寸法線
 48
10.0
100
AcDbMText
 10
448.362550418237
 20
728.747318667074
 30
0.0
 40
10.0
 41
89.2
 71
     1
 72
     5
  1
SUS304
  0
MTEXT
  5
65C3
330
1A
100
AcDbEntity
  8
寸法線
 48
10.0
100
AcDbMText
 10
514.878166245725
 20
728.744095645645
 30
0.0
 40
10.0
 41
43.610722308331
 71
     1
 72
     5
  1
Oリング
  0
MTEXT
  5
65C4
330
1A
100
AcDbEntity
  8
寸法線
 48
10.0
100
AcDbMText
 10
564.787323296253
 20
744.713333027298
 30
0.0
 40
10.0
 41
63.767340536466
 71
     1
 72
     5
  1
フランジ\Pアルミ鋳物
  0
LEADER
  5
65C5
330
1A
100
AcDbEntity
  8
寸法線
 48
10.0
100
AcDbLeader
  3
ISO-25
 76
     3
 10
549.283819673569
 20
689.548117145183
 30
0.0
 10
564.592618367237
 20
717.414711228493
 30
0.0
 10
576.592618367237
 20
717.414711228493
 30
0.0
1001
ACAD
1000
DSTYLE
1002
{
1070
     5
1000
OPEN30
1070
   147
1040
0.625
1070
    77
1070
     0
1070
    41
1040
6.0
1070
    47
1040
0.1
1070
    48
1040
0.1
1070
    73
1070
     0
1070
   140
1040
5.0
1070
   271
1070
     1
1070
   272
1070
     1
1070
   341
1005
2AF4
1070
   342
1005
2AF4
1002
}
  0
LEADER
  5
65C6
330
1A
100
AcDbEntity
  8
寸法線
 48
10.0
100
AcDbLeader
  3
ISO-25
 76
     3
 10
540.172843413837
 20
630.56562883634
 30
0.0
 10
514.291778145152
 20
717.414711228493
 30
0.0
 10
526.291778145152
 20
717.414711228493
 30
0.0
1001
ACAD
1000
DSTYLE
1002
{
1070
     5
1000
OPEN30
1070
   147
1040
0.625
1070
    77
1070
     0
1070
    41
1040
6.0
1070
    47
1040
0.1
1070
    48
1040
0.1
1070
    73
1070
     0
1070
   140
1040
5.0
1070
   271
1070
     1
1070
   272
1070
     1
1070
   341
1005
2AF4
1070
   342
1005
2AF4
1002
}
  0
LEADER
  5
65C7
330
1A
100
AcDbEntity
  8
寸法線
 48
10.0
100
AcDbLeader
  3
ISO-25
 76
     3
 10
522.407906614568
 20
631.174534245649
 30
0.0
 10
491.310004701722
 20
717.414711228493
 30
0.0
 10
479.310004701722
 20
717.414711228493
 30
0.0
1001
ACAD
1000
DSTYLE
1002
{
1070
     5
1000
OPEN30
1070
   147
1040
0.625
1070
    77
1070
     0
1070
    41
1040
6.0
1070
    47
1040
0.1
1070
    48
1040
0.1
1070
    73
1070
     0
1070
   140
1040
5.0
1070
   271
1070
     1
1070
   272
1070
     1
1070
   341
1005
2AF4
1070
   342
1005
2AF4
1002
}
  0
DIMENSION
  5
65DD
330
1A
100
AcDbEntity
  8
寸法線
 48
10.0
100
AcDbDimension
  2
*D19
 10
397.238062731065
 20
594.674534245649
 30
0.0
 11
397.238062731065
 21
648.21082456823
 31
0.0
 70
   160
  3
ISO-25
100
AcDbAlignedDimension
 13
397.104088136065
 23
628.674534245649
 33
0.0
 14
397.238062731065
 24
594.674534245649
 34
0.0
 50
90.0
100
AcDbRotatedDimension
1001
ACAD
1000
DSTYLE
1002
{
1070
     5
1000
OPEN30
1070
     3
1000
φ<>
1070
    41
1040
6.0
1070
    47
1040
0.1
1070
    48
1040
0.1
1070
    73
1070
     0
1070
   140
1040
10.0
1070
   271
1070
     1
1070
   272
1070
     1
1070
   341
1005
2AF4
1002
}
  0
DIMENSION
  5
65DE
330
1A
100
AcDbEntity
  8
寸法線
 48
10.0
100
AcDbDimension
  2
*D20
 10
365.279230168041
 20
616.681993530943
 30
0.0
 11
359.654230168041
 21
639.560930538817
 31
0.0
 70
    32
  1
φ10
  3
ISO-25
100
AcDbAlignedDimension
 13
365.279230168041
 23
606.681993530943
 33
0.0
 14
365.279230168041
 24
616.681993530943
 34
0.0
 50
90.0
100
AcDbRotatedDimension
1001
ACAD
1000
DSTYLE
1002
{
1070
     5
1000
OPEN30
1070
    41
1040
6.0
1070
    47
1040
0.1
1070
    48
1040
0.1
1070
    73
1070
     0
1070
   140
1040
10.0
1070
   271
1070
     1
1070
   272
1070
     1
1070
   341
1005
2AF4
1002
}
  0
LEADER
  5
65EC
330
1A
100
AcDbEntity
  8
寸法線
 48
10.0
100
AcDbLeader
  3
ISO-25
 76
     3
 10
380.505555019001
 20
628.691847667132
 30
0.0
 10
380.403690740423
 20
694.449675465203
 30
0.0
 10
368.403690740423
 20
694.449675465203
 30
0.0
1001
ACAD
1000
DSTYLE
1002
{
1070
     5
1000
OPEN30
1070
   147
1040
0.625
1070
    77
1070
     0
1070
    41
1040
6.0
1070
    47
1040
0.1
1070
    48
1040
0.1
1070
    73
1070
     0
1070
   140
1040
8.0
1070
   271
1070
     1
1070
   272
1070
     1
1070
   341
1005
2AF4
1070
   342
1005
2AF4
1002
}
  0
MTEXT
  5
65ED
330
1A
100
AcDbEntity
  8
寸法線
 48
10.0
100
AcDbMText
 10
336.182662402814
 20
705.384326333768
 30
0.0
 40
2.333873885063
 41
47.634784273192
 71
     1
 72
     5
  1
{\H4.285x;SUS304}
  0
MTEXT
  5
65EE
330
1A
100
AcDbEntity
  8
寸法線
 48
10.0
100
AcDbMText
 10
211.030855580511
 20
728.370482287341
 30
0.0
 40
2.333873885063
 41
47.634784273192
 71
     1
 72
     5
  1
{\H4.285x;SUS304}
  0
LEADER
  5
65EF
330
1A
100
AcDbEntity
  8
寸法線
 48
10.0
100
AcDbLeader
  3
ISO-25
 76
     3
 10
356.049283167186
 20
616.681993530943
 30
0.0
 10
318.700755476906
 20
717.414711228493
 30
0.0
 10
306.700755476906
 20
717.414711228493
 30
0.0
1001
ACAD
1000
DSTYLE
1002
{
1070
     5
1000
OPEN30
1070
   147
1040
0.625
1070
    77
1070
     0
1070
    41
1040
6.0
1070
    47
1040
0.1
1070
    48
1040
0.1
1070
    73
1070
     0
1070
   140
1040
8.0
1070
   271
1070
     1
1070
   272
1070
     1
1070
   341
1005
2AF4
1070
   342
1005
2AF4
1002
}
  0
LINE
  5
65F4
330
1A
100
AcDbEntity
  8
中心線
  6
DASHDOT
100
AcDbLine
 10
568.028278413977
 20
676.674534245649
 30
0.0
 11
413.028273325325
 21
676.674534245649
 31
0.0
  0
LINE
  5
65F5
330
1A
100
AcDbEntity
  8
外形線
100
AcDbLine
 10
431.028273325325
 20
670.424534245649
 30
0.0
 11
541.028273325325
 21
670.424534245649
 31
0.0
  0
LINE
  5
65F6
330
1A
100
AcDbEntity
  8
外形線
100
AcDbLine
 10
431.028273325325
 20
682.924534245649
 30
0.0
 11
541.028273325325
 21
682.924534245649
 31
0.0
  0
LINE
  5
65F8
330
1A
100
AcDbEntity
  8
外形線
100
AcDbLine
 10
431.028273325325
 20
540.42453424565
 30
0.0
 11
541.028273325325
 21
540.42453424565
 31
0.0
  0
LINE
  5
65F9
330
1A
100
AcDbEntity
  8
中心線
  6
DASHDOT
100
AcDbLine
 10
568.028278413977
 20
546.674534245649
 30
0.0
 11
413.028273325325
 21
546.674534245649
 31
0.0
  0
LINE
  5
65FA
330
1A
100
AcDbEntity
  8
外形線
100
AcDbLine
 10
431.028273325325
 20
552.924534245649
 30
0.0
 11
541.028273325325
 21
552.924534245649
 31
0.0
  0
MTEXT
  5
65FB
330
1A
100
AcDbEntity
  8
寸法線
 48
10.0
100
AcDbMText
 10
365.824723962688
 20
745.344253887374
 30
0.0
 40
10.0
 41
61.304386020114
 71
     1
 72
     5
  1
フランジ\Pアルミ鋳物
  0
LEADER
  5
65FC
330
1A
100
AcDbEntity
  8
寸法線
 48
10.0
100
AcDbLeader
  3
ISO-25
 76
     3
 10
425.38252310095
 20
689.174534245649
 30
0.0
 10
425.290811995584
 20
717.414711228493
 30
0.0
 10
413.290811995584
 20
717.414711228493
 30
0.0
1001
ACAD
1000
DSTYLE
1002
{
1070
     5
1000
OPEN30
1070
   147
1040
0.625
1070
    77
1070
     0
1070
    41
1040
6.0
1070
    47
1040
0.1
1070
    48
1040
0.1
1070
    73
1070
     0
1070
   140
1040
8.0
1070
   271
1070
     1
1070
   272
1070
     1
1070
   341
1005
2AF4
1070
   342
1005
2AF4
1002
}
  0
ARC
  5
65FD
330
1A
100
AcDbEntity
  8
細線
100
AcDbCircle
 10
345.168790825325
 20
611.682030030943
 30
0.0
 40
7.284212499999999
100
AcDbArc
 50
326.012068696966
 51
33.987437736621
  0
LINE
  5
65FE
330
1A
100
AcDbEntity
  8
外形線
100
AcDbLine
 10
352.452993325325
 20
605.784660030943
 30
0.0
 11
352.452993325325
 21
617.579322530944
 31
0.0
  0
LINE
  5
65FF
330
1A
100
AcDbEntity
  8
外形線
100
AcDbLine
 10
346.274825825325
 20
603.399583530943
 30
0.0
 11
346.274825825325
 21
619.964401530943
 31
0.0
  0
LINE
  5
6600
330
1A
100
AcDbEntity
  8
外形線
100
AcDbLine
 10
344.028273325325
 20
603.538107530943
 30
0.0
 11
344.028273325325
 21
619.826027530944
 31
0.0
  0
ARC
  5
6601
330
1A
100
AcDbEntity
  8
細線
100
AcDbCircle
 10
348.864433325325
 20
604.674887530943
 30
0.0
 40
3.7563025
100
AcDbArc
 50
17.184150191565
 51
51.387610617018
  0
LINE
  5
6602
330
1A
100
AcDbEntity
  8
細線
100
AcDbLine
 10
346.274825825325
 20
607.610145030943
 30
0.0
 11
351.208563325325
 21
607.610145030943
 31
0.0
  0
LINE
  5
6603
330
1A
100
AcDbEntity
  8
外形線
100
AcDbLine
 10
350.06792425801
 20
603.399583530943
 30
0.0
 11
352.452993325325
 21
605.784737530943
 31
0.0
  0
LINE
  5
6604
330
1A
100
AcDbEntity
  8
外形線
 48
10.0
100
AcDbLine
 10
344.028273325325
 20
603.399583530943
 30
0.0
 11
350.06792425801
 21
603.399583530943
 31
0.0
  0
LINE
  5
6606
330
1A
100
AcDbEntity
  8
外形線
100
AcDbLine
 10
352.452993325325
 20
606.681993530943
 30
0.0
 11
369.028273325325
 21
606.681993530943
 31
0.0
  0
ARC
  5
6607
330
1A
100
AcDbEntity
  8
細線
100
AcDbCircle
 10
348.864433325325
 20
618.689095030943
 30
0.0
 40
3.7563025
100
AcDbArc
 50
308.61237178287
 51
342.815889504127
  0
LINE
  5
6608
330
1A
100
AcDbEntity
  8
細線
100
AcDbLine
 10
346.274825825325
 20
615.754027530943
 30
0.0
 11
351.208563325325
 21
615.754027530943
 31
0.0
  0
LINE
  5
6609
330
1A
100
AcDbEntity
  8
外形線
100
AcDbLine
 10
350.068078871737
 20
619.964401530943
 30
0.0
 11
352.452993325325
 21
617.579322530944
 31
0.0
  0
LINE
  5
660A
330
1A
100
AcDbEntity
  8
外形線
 48
10.0
100
AcDbLine
 10
344.028273325325
 20
619.964401530943
 30
0.0
 11
350.068078871737
 21
619.964401530943
 31
0.0
  0
LINE
  5
660B
330
1A
100
AcDbEntity
  8
外形線
100
AcDbLine
 10
352.452993325325
 20
616.681993530943
 30
0.0
 11
369.028273325325
 21
616.681993530943
 31
0.0
  0
DIMENSION
  5
660C
330
1A
100
AcDbEntity
  8
寸法線
 48
10.0
100
AcDbDimension
  2
*D21
 10
329.028273325325
 20
548.492952448044
 30
0.0
 11
289.028273325325
 21
548.492952448044
 31
0.0
 70
   160
  3
ISO-25
100
AcDbAlignedDimension
 13
249.028273325325
 23
571.674534245649
 33
0.0
 14
329.028273325325
 24
599.674534245649
 34
0.0
100
AcDbRotatedDimension
1001
ACAD
1000
DSTYLE
1002
{
1070
     5
1000
OPEN30
1070
    41
1040
6.0
1070
    47
1040
0.1
1070
    48
1040
0.1
1070
    73
1070
     0
1070
   140
1040
10.0
1070
   271
1070
     1
1070
   272
1070
     1
1070
   341
1005
2AF4
1002
}
  0
DIMENSION
  5
660D
330
1A
100
AcDbEntity
  8
寸法線
 48
10.0
100
AcDbDimension
  2
*D22
 10
231.045660200623
 20
571.674534245649
 30
0.0
 11
231.045660200623
 21
611.674534245649
 31
0.0
 70
   160
  3
ISO-25
100
AcDbAlignedDimension
 13
249.028273325325
 23
651.674534245649
 33
0.0
 14
249.028273325325
 24
571.674534245649
 34
0.0
 50
90.0
100
AcDbRotatedDimension
1001
ACAD
1000
DSTYLE
1002
{
1070
     5
1000
OPEN30
1070
    41
1040
6.0
1070
    47
1040
0.1
1070
    48
1040
0.1
1070
    73
1070
     0
1070
   140
1040
10.0
1070
   271
1070
     1
1070
   272
1070
     1
1070
   341
1005
2AF4
1002
}
  0
MTEXT
  5
660E
330
1A
100
AcDbEntity
  8
寸法線
 48
10.0
100
AcDbMText
 10
274.604388902891
 20
728.150557540559
 30
0.0
 40
2.333873885063
 41
47.634784273192
 71
     1
 72
     5
  1
{\H4.285x;SUS304}
  0
LEADER
  5
660F
330
1A
100
AcDbEntity
  8
寸法線
 48
10.0
100
AcDbLeader
  3
ISO-25
 76
     3
 10
262.399656807793
 20
651.667074960355
 30
0.0
 10
255.436118652387
 20
717.414711228493
 30
0.0
 10
243.436118652387
 20
717.414711228493
 30
0.0
1001
ACAD
1000
DSTYLE
1002
{
1070
     5
1000
OPEN30
1070
   147
1040
0.625
1070
    77
1070
     0
1070
    41
1040
6.0
1070
    47
1040
0.1
1070
    48
1040
0.1
1070
    73
1070
     0
1070
   140
1040
8.0
1070
   271
1070
     1
1070
   272
1070
     1
1070
   341
1005
2AF4
1070
   342
1005
2AF4
1002
}
  0
DIMENSION
  5
6611
330
1A
100
AcDbEntity
  8
寸法線
 48
10.0
100
AcDbDimension
  2
*D23
 10
419.028273325325
 20
414.064177750876
 30
0.0
 11
334.028273325325
 21
419.689177750876
 31
0.0
 70
    32
  3
ISO-25
100
AcDbAlignedDimension
 13
249.028273325325
 23
571.674534245649
 33
0.0
 14
419.028273325325
 24
534.174534245649
 34
0.0
100
AcDbRotatedDimension
1001
ACAD
1000
DSTYLE
1002
{
1070
     5
1000
OPEN30
1070
    41
1040
6.0
1070
    47
1040
0.1
1070
    48
1040
0.1
1070
    73
1070
     0
1070
   140
1040
10.0
1070
   271
1070
     1
1070
   272
1070
     1
1070
   341
1005
2AF4
1002
}
  0
MTEXT
  5
6697
330
1A
100
AcDbEntity
  8
細線
 48
10.0
100
AcDbMText
 10
2386.842198953746
 20
912.80153897725
 30
0.0
 40
6.0
 41
0.0
 71
     7
 72
     1
  1

  0
LINE
  5
6D2C
330
1A
100
AcDbEntity
  8
細線
100
AcDbLine
 10
475.583310825324
 20
614.174534245649
 30
0.0
 11
475.583310825324
 21
609.174534245649
 31
0.0
  0
LINE
  5
6D2D
330
1A
100
AcDbEntity
  8
外形線
100
AcDbLine
 10
465.36742796545
 20
621.674496745649
 30
0.0
 11
465.36742796545
 21
601.674496745649
 31
0.0
  0
LINE
  5
6D2E
330
1A
100
AcDbEntity
  8
外形線
100
AcDbLine
 10
488.583310825324
 20
621.674496745649
 30
0.0
 11
488.583310825324
 21
601.674496745649
 31
0.0
  0
LINE
  5
6D2F
330
1A
100
AcDbEntity
  8
外形線
100
AcDbLine
 10
482.583310825324
 20
596.707904698553
 30
0.0
 11
482.583310825324
 21
626.641163792745
 31
0.0
  0
LINE
  5
6D30
330
1A
100
AcDbEntity
  8
外形線
100
AcDbLine
 10
471.36742796545
 20
626.641163792745
 30
0.0
 11
471.36742796545
 21
596.707904698553
 31
0.0
  0
LINE
  5
6D31
330
1A
100
AcDbEntity
  8
外形線
100
AcDbLine
 10
471.36742796545
 20
601.674496745649
 30
0.0
 11
465.36742796545
 21
601.674496745649
 31
0.0
  0
LINE
  5
6D34
330
1A
100
AcDbEntity
  8
外形線
100
AcDbLine
 10
488.583310825324
 20
601.674496745649
 30
0.0
 11
482.583310825324
 21
601.674496745649
 31
0.0
  0
LINE
  5
6D35
330
1A
100
AcDbEntity
  8
外形線
100
AcDbLine
 10
482.583310825324
 20
596.707904698553
 30
0.0
 11
480.083310825324
 21
596.707904698553
 31
0.0
  0
LINE
  5
6D38
330
1A
100
AcDbEntity
  8
細線
100
AcDbLine
 10
480.083310825324
 20
614.174534245649
 30
0.0
 11
475.583310825324
 21
614.174534245649
 31
0.0
  0
LINE
  5
6D39
330
1A
100
AcDbEntity
  8
外形線
100
AcDbLine
 10
471.36742796545
 20
621.674496745649
 30
0.0
 11
465.36742796545
 21
621.674496745649
 31
0.0
  0
LINE
  5
6D3C
330
1A
100
AcDbEntity
  8
外形線
100
AcDbLine
 10
488.583310825324
 20
621.674496745649
 30
0.0
 11
482.583310825324
 21
621.674496745649
 31
0.0
  0
LINE
  5
6D3D
330
1A
100
AcDbEntity
  8
外形線
100
AcDbLine
 10
482.583310825324
 20
626.641163792745
 30
0.0
 11
480.083310825324
 21
626.641163792745
 31
0.0
  0
LINE
  5
6D3E
330
1A
100
AcDbEntity
  8
細線
100
AcDbLine
 10
480.083310825324
 20
626.641163792745
 30
0.0
 11
480.083310825324
 21
614.174534245649
 31
0.0
  0
LINE
  5
6D41
330
1A
100
AcDbEntity
  8
細線
100
AcDbLine
 10
480.083310825324
 20
609.174534245649
 30
0.0
 11
475.583310825324
 21
609.174534245649
 31
0.0
  0
LINE
  5
6D42
330
1A
100
AcDbEntity
  8
細線
100
AcDbLine
 10
480.083310825324
 20
596.707904698553
 30
0.0
 11
480.083310825324
 21
609.174534245649
 31
0.0
  0
LINE
  5
6D43
330
1A
100
AcDbEntity
  8
外形線
 48
10.0
100
AcDbLine
 10
471.36742796545
 20
626.641163792745
 30
0.0
 11
478.36742796545
 21
626.641163792745
 31
0.0
  0
LINE
  5
6D44
330
1A
100
AcDbEntity
  8
外形線
 48
10.0
100
AcDbLine
 10
471.36742796545
 20
596.707904698553
 30
0.0
 11
478.36742796545
 21
596.707904698553
 31
0.0
  0
LINE
  5
6D45
330
1A
100
AcDbEntity
  8
細線
 48
10.0
100
AcDbLine
 10
478.36742796545
 20
614.674534245649
 30
0.0
 11
473.86742796545
 21
614.674534245649
 31
0.0
  0
LINE
  5
6D46
330
1A
100
AcDbEntity
  8
細線
 48
10.0
100
AcDbLine
 10
473.86742796545
 20
614.674534245649
 30
0.0
 11
473.86742796545
 21
608.674534245649
 31
0.0
  0
LINE
  5
6D47
330
1A
100
AcDbEntity
  8
細線
 48
10.0
100
AcDbLine
 10
478.36742796545
 20
608.674534245649
 30
0.0
 11
473.86742796545
 21
608.674534245649
 31
0.0
  0
LINE
  5
6D48
330
1A
100
AcDbEntity
  8
細線
 48
10.0
100
AcDbLine
 10
478.36742796545
 20
626.641163792745
 30
0.0
 11
478.36742796545
 21
614.674534245649
 31
0.0
  0
LINE
  5
6D49
330
1A
100
AcDbEntity
  8
細線
 48
10.0
100
AcDbLine
 10
478.36742796545
 20
596.707904698553
 30
0.0
 11
478.36742796545
 21
608.674534245649
 31
0.0
  0
LINE
  5
6F36
330
1A
100
AcDbEntity
  8
細線
100
AcDbLine
 10
488.583310825324
 20
615.424496745649
 30
0.0
 11
493.899243325325
 21
615.424496745649
 31
0.0
  0
LINE
  5
6F37
330
1A
100
AcDbEntity
  8
外形線
100
AcDbLine
 10
488.583310825324
 20
619.174496745649
 30
0.0
 11
494.056180825324
 21
619.174496745649
 31
0.0
  0
LINE
  5
6F38
330
1A
100
AcDbEntity
  8
外形線
100
AcDbLine
 10
494.056180825324
 20
619.174496745649
 30
0.0
 11
495.333340825325
 21
617.462384245649
 31
0.0
  0
ARC
  5
6F39
330
1A
100
AcDbEntity
  8
細線
100
AcDbCircle
 10
489.802563325324
 20
619.83096674565
 30
0.0
 40
6.016645
100
AcDbArc
 50
312.913737838255
 51
336.816849501773
  0
LINE
  5
6F3A
330
1A
100
AcDbEntity
  8
細線
100
AcDbLine
 10
488.583310825324
 20
607.924496745649
 30
0.0
 11
493.899243325325
 21
607.924496745649
 31
0.0
  0
LINE
  5
6F3B
330
1A
100
AcDbEntity
  8
外形線
100
AcDbLine
 10
488.583310825324
 20
604.174496745649
 30
0.0
 11
494.056180825324
 21
604.174496745649
 31
0.0
  0
ARC
  5
6F3C
330
1A
100
AcDbEntity
  8
細線
100
AcDbCircle
 10
489.802563325324
 20
603.518024245649
 30
0.0
 40
6.016645
100
AcDbArc
 50
23.183190193917
 51
47.086301857426
  0
LINE
  5
6F3D
330
1A
100
AcDbEntity
  8
外形線
100
AcDbLine
 10
494.056180825324
 20
604.174496745649
 30
0.0
 11
495.333340825325
 21
605.88660674565
 31
0.0
  0
ARC
  5
6F3E
330
1A
100
AcDbEntity
  8
細線
100
AcDbCircle
 10
489.713333306412
 20
611.674515656224
 30
0.0
 40
5.62000751922095
100
AcDbArc
 50
318.143885364235
 51
41.855618507182
  0
LINE
  5
6F3F
102
{ACAD_REACTORS
330
6F78
330
6F84
102
}
330
1A
100
AcDbEntity
  8
外形線
100
AcDbLine
 10
495.333340825325
 20
617.462384245649
 30
0.0
 11
495.333340825325
 21
605.88660674565
 31
0.0
  0
LINE
  5
6F40
330
1A
100
AcDbEntity
  8
外形線
100
AcDbLine
 10
453.028273325325
 20
631.674534245649
 30
0.0
 11
453.028273325325
 21
591.674534245649
 31
0.0
  0
LINE
  5
6F41
330
1A
100
AcDbEntity
  8
外形線
100
AcDbLine
 10
465.36742796545
 20
616.696886101515
 30
0.0
 11
453.028273325325
 21
616.696886101515
 31
0.0
  0
LINE
  5
6F42
330
1A
100
AcDbEntity
  8
外形線
100
AcDbLine
 10
465.36742796545
 20
606.696886101515
 30
0.0
 11
453.028273325325
 21
606.696886101515
 31
0.0
  0
DIMENSION
  5
6F45
330
1A
100
AcDbEntity
  8
寸法線
 48
10.0
100
AcDbDimension
  2
*D24
 10
505.66081189114
 20
606.704378500853
 30
0.0
 11
505.66081189114
 21
639.583238008727
 31
0.0
 70
   160
  1
φ<>
  3
ISO-25
100
AcDbAlignedDimension
 13
505.66081189114
 23
616.704301000853
 33
0.0
 14
505.66081189114
 24
606.704378500853
 34
0.0
 50
90.0
100
AcDbRotatedDimension
1001
ACAD
1000
DSTYLE
1002
{
1070
     5
1000
OPEN30
1070
    41
1040
6.0
1070
    47
1040
0.1
1070
    48
1040
0.1
1070
    73
1070
     0
1070
   140
1040
10.0
1070
   271
1070
     1
1070
   272
1070
     1
1070
   341
1005
2AF4
1002
}
  0
CIRCLE
  5
6F5F
330
1A
100
AcDbEntity
  8
細線
100
AcDbCircle
 10
84.864812552638
 20
676.683076043356
 30
0.0
 40
4.0
  0
CIRCLE
  5
6F60
330
1A
100
AcDbEntity
  8
外形線
100
AcDbCircle
 10
84.864812552638
 20
676.683076043356
 30
0.0
 40
3.0
  0
CIRCLE
  5
6F61
330
1A
100
AcDbEntity
  8
細線
100
AcDbCircle
 10
149.855256991297
 20
611.674534245649
 30
0.0
 40
4.0
  0
CIRCLE
  5
6F62
330
1A
100
AcDbEntity
  8
外形線
100
AcDbCircle
 10
149.855256991297
 20
611.674534245649
 30
0.0
 40
3.0
  0
CIRCLE
  5
6F63
330
1A
100
AcDbEntity
  8
外形線
100
AcDbCircle
 10
84.855257552638
 20
546.683076745649
 30
0.0
 40
3.0
  0
CIRCLE
  5
6F64
330
1A
100
AcDbEntity
  8
細線
100
AcDbCircle
 10
84.855257552638
 20
546.683076745649
 30
0.0
 40
4.0
  0
CIRCLE
  5
6F65
330
1A
100
AcDbEntity
  8
細線
100
AcDbCircle
 10
19.855258113979
 20
611.674534245649
 30
0.0
 40
4.0
  0
CIRCLE
  5
6F66
330
1A
100
AcDbEntity
  8
外形線
100
AcDbCircle
 10
19.855258113979
 20
611.674534245649
 30
0.0
 40
3.0
  0
MTEXT
  5
6F67
330
1A
100
AcDbEntity
  8
寸法線
 48
10.0
100
AcDbMText
 10
438.497019914802
 20
704.850263441638
 30
0.0
 40
10.0
 41
17.617431142437
 71
     1
 72
     5
  1
BsBM
  0
LEADER
  5
6F68
330
1A
100
AcDbEntity
  8
寸法線
 48
10.0
100
AcDbLeader
  3
ISO-25
 76
     3
 10
475.181592021524
 20
626.665437153952
 30
0.0
 10
468.674675334724
 20
694.351908201235
 30
0.0
 10
456.674675334724
 20
694.351908201235
 30
0.0
1001
ACAD
1000
DSTYLE
1002
{
1070
     5
1000
OPEN30
1070
   147
1040
0.625
1070
    77
1070
     0
1070
    41
1040
6.0
1070
    47
1040
0.1
1070
    48
1040
0.1
1070
    73
1070
     0
1070
   140
1040
5.0
1070
   271
1070
     1
1070
   272
1070
     1
1070
   341
1005
2AF4
1070
   342
1005
2AF4
1002
}
  0
HATCH
  5
6F78
330
1A
100
AcDbEntity
  8
細線
 48
10.0
100
AcDbHatch
 10
0.0
 20
0.0
 30
0.0
210
0.0
220
0.0
230
1.0
  2
LINE
 70
     0
 71
     1
 91
        2
 92
       23
 72
     0
 73
     1
 93
        4
 10
515.9993932851794
 20
611.6745342456492
 10
515.9993932851795
 20
616.674534245649
 10
495.3333408253255
 20
616.674534245649
 10
495.3333408253254
 20
611.674534245649
 97
        4
330
655B
330
6F3F
330
64D9
330
64FA
 92
        7
 72
     0
 73
     1
 93
        4
 10
515.9993932851794
 20
606.674534245649
 10
515.9993932851795
 20
616.674534245649
 10
495.3333408253255
 20
616.674534245649
 10
495.3333408253254
 20
606.6745342456488
 97
        4
330
655B
330
6F3F
330
6571
330
64FA
 75
     0
 76
     1
 52
45.0
 41
1.0
 77
     0
 78
     1
 53
45.0
 43
0.0
 44
0.0
 45
-2.245064030267288
 46
2.245064030267288
 79
     0
 47
0.058980973623
 98
        2
 10
500.4841963016488
 20
613.273982989348
 10
499.8939902297871
 20
609.6171634432776
  0
HATCH
  5
6F84
330
1A
100
AcDbEntity
  8
細線
 48
10.0
100
AcDbHatch
 10
0.0
 20
0.0
 30
0.0
210
0.0
220
0.0
230
1.0
  2
LINE
 70
     0
 71
     1
 91
        1
 92
        7
 72
     0
 73
     1
 93
        4
 10
515.9993932851794
 20
611.6745342456489
 10
515.9993932851794
 20
616.674534245649
 10
495.3333408253254
 20
616.6745342456489
 10
495.3333408253255
 20
611.6745342456492
 97
        4
330
655B
330
6F3F
330
64D9
330
64FA
 75
     0
 76
     1
 52
45.0
 41
1.0
 77
     0
 78
     1
 53
45.0
 43
0.0
 44
0.0
 45
-2.245064030267288
 46
2.245064030267288
 79
     0
 47
0.058980973623
 98
        1
 10
497.297088407915
 20
613.5688880948396
  0
LINE
  5
6FFE
330
1A
100
AcDbEntity
  8
外形線
 48
10.0
100
AcDbLine
 10
431.028273325325
 20
631.674534245649
 30
0.0
 11
453.028273325325
 21
631.674534245649
 31
0.0
  0
LINE
  5
6FFF
330
1A
100
AcDbEntity
  8
外形線
 48
10.0
100
AcDbLine
 10
431.028273325325
 20
591.674534245649
 30
0.0
 11
453.028273325325
 21
591.674534245649
 31
0.0
  0
LWPOLYLINE
  5
7015
330
1A
100
AcDbEntity
  8
外形線
 48
10.0
100
AcDbPolyline
 90
        4
 70
     1
 43
0.0
 10
419.028273325325
 20
534.174534245649
 10
431.028273325325
 20
534.174534245649
 10
431.028273325325
 20
689.174534245649
 10
419.028273325325
 20
689.174534245649
  0
DIMENSION
  5
70E9
330
1A
100
AcDbEntity
  8
寸法線_文字
 48
10.0
100
AcDbDimension
  2
*D25
 10
726.999393285179
 20
436.064177750876
 30
0.0
 11
698.999393285179
 21
441.689177750876
 31
0.0
 70
    32
  3
ISO-25
100
AcDbAlignedDimension
 13
670.999393285179
 23
539.174534245649
 33
0.0
 14
726.999393285179
 24
539.174534245649
 34
0.0
100
AcDbRotatedDimension
1001
ACAD
1000
DSTYLE
1002
{
1070
     5
1000
OPEN30
1070
    41
1040
6.0
1070
    47
1040
0.1
1070
    48
1040
0.1
1070
    73
1070
     0
1070
   140
1040
10.0
1070
   271
1070
     1
1070
   272
1070
     1
1070
   341
1005
2AF4
1002
}
  0
DIMENSION
  5
7124
330
1A
100
AcDbEntity
  8
寸法線
 48
10.0
100
AcDbDimension
  2
*D26
 10
541.028273325325
 20
436.064177750876
 30
0.0
 11
546.028273325325
 21
436.064177750876
 31
0.0
 70
   160
  3
ISO-25
100
AcDbAlignedDimension
 13
552.999393285179
 23
535.174534245649
 33
0.0
 14
541.028273325325
 24
534.17453424565
 34
0.0
100
AcDbRotatedDimension
1001
ACAD
1000
DSTYLE
1002
{
1070
     5
1000
OPEN30
1070
    41
1040
6.0
1070
    47
1040
0.1
1070
    48
1040
0.1
1070
    73
1070
     0
1070
   140
1040
10.0
1070
   271
1070
     1
1070
   272
1070
     1
1070
   341
1005
2AF4
1002
}
  0
DIMENSION
  5
715A
330
1A
100
AcDbEntity
  8
寸法線
 48
10.0
100
AcDbDimension
  2
*D27
 10
419.028273325325
 20
436.064177750876
 30
0.0
 11
425.028273325325
 21
436.064177750876
 31
0.0
 70
   160
  3
ISO-25
100
AcDbAlignedDimension
 13
431.028273325325
 23
534.174534245649
 33
0.0
 14
419.028273325325
 24
534.174534245649
 34
0.0
100
AcDbRotatedDimension
1001
ACAD
1000
DSTYLE
1002
{
1070
     5
1000
OPEN30
1070
    41
1040
6.0
1070
    47
1040
0.1
1070
    48
1040
0.1
1070
    73
1070
     0
1070
   140
1040
10.0
1070
   271
1070
     1
1070
   272
1070
     1
1070
   341
1005
2AF4
1002
}
  0
DIMENSION
  5
719C
330
1A
100
AcDbEntity
  8
寸法線
 48
10.0
100
AcDbDimension
  2
*D28
 10
431.028273325325
 20
436.064177750876
 30
0.0
 11
486.028273325325
 21
441.689177750876
 31
0.0
 70
    32
  3
ISO-25
100
AcDbAlignedDimension
 13
541.028273325325
 23
534.17453424565
 33
0.0
 14
431.028273325325
 24
534.174534245649
 34
0.0
100
AcDbRotatedDimension
1001
ACAD
1000
DSTYLE
1002
{
1070
     5
1000
OPEN30
1070
    41
1040
6.0
1070
    47
1040
0.1
1070
    48
1040
0.1
1070
    73
1070
     0
1070
   140
1040
10.0
1070
   271
1070
     1
1070
   272
1070
     1
1070
   341
1005
2AF4
1002
}
  0
LWPOLYLINE
  5
71F1
330
1A
100
AcDbEntity
  8
外形線
 48
10.0
100
AcDbPolyline
 90
        4
 70
     0
 43
0.0
 10
419.028273325325
 20
628.674534245649
 10
369.028273325325
 20
628.674534245649
 10
369.028273325325
 20
594.674534245649
 10
419.028273325325
 20
594.674534245649
  0
DIMENSION
  5
7270
330
1A
100
AcDbEntity
  8
寸法線
 48
10.0
100
AcDbDimension
  2
*D29
 10
161.651212606373
 20
622.094596885331
 30
0.0
 11
130.874874935457
 21
617.918716721469
 31
0.0
 70
   160
  3
ISO-25
100
AcDbAlignedDimension
 13
8.058611698355
 23
601.254420828455
 33
0.0
 14
161.651212606373
 24
622.094596885331
 34
0.0
 50
7.72697620223
100
AcDbRotatedDimension
1001
ACAD
1000
DSTYLE
1002
{
1070
     5
1000
OPEN30
1070
     3
1000
φ<>
1070
    41
1040
6.0
1070
    47
1040
0.1
1070
    48
1040
0.1
1070
    73
1070
     0
1070
   140
1040
10.0
1070
   271
1070
     1
1070
   272
1070
     1
1070
   341
1005
2AF4
1002
}
  0
DIMENSION
  5
72C5
330
1A
100
AcDbEntity
  8
寸法線
 48
10.0
100
AcDbDimension
  2
*D30
 10
142.527952643907
 20
641.656393988397
 30
0.0
 11
125.439139863959
 21
632.772564231122
 31
0.0
 70
   160
  3
ISO-25
100
AcDbAlignedDimension
 13
27.183269610632
 23
581.693040145769
 33
0.0
 14
142.527952643907
 24
641.656393988397
 34
0.0
 50
27.46822156279
100
AcDbRotatedDimension
1001
ACAD
1000
DSTYLE
1002
{
1070
     5
1000
OPEN30
1070
     3
1000
φ<>
1070
    41
1040
6.0
1070
    47
1040
0.1
1070
    48
1040
0.1
1070
    73
1070
     0
1070
   140
1040
10.0
1070
   271
1070
     1
1070
   272
1070
     1
1070
   341
1005
2AF4
1002
}
  0
TEXT
  5
7678
330
1A
100
AcDbEntity
  8
寸法線
100
AcDbText
 10
83.772515839918
 20
217.342696026783
 30
0.0
 40
10.0
  1
１００   ０
 41
0.593716175771
  7
EXCADSTD
 72
     5
 11
120.38501334579
 21
217.342696026783
 31
0.0
100
AcDbText
  0
CIRCLE
  5
7679
330
1A
100
AcDbEntity
  8
寸法線
100
AcDbCircle
 10
118.566561300538
 20
232.870263526783
 30
0.0
 40
3.75
  0
CIRCLE
  5
767A
330
1A
100
AcDbEntity
  8
寸法線
100
AcDbCircle
 10
118.566561300538
 20
232.870263526783
 30
0.0
 40
1.9999975
  0
CIRCLE
  5
767B
330
1A
100
AcDbEntity
  8
寸法線
100
AcDbCircle
 10
93.576553800538
 20
232.870263526783
 30
0.0
 40
3.75
  0
CIRCLE
  5
767C
330
1A
100
AcDbEntity
  8
寸法線
100
AcDbCircle
 10
93.576553800538
 20
232.870263526783
 30
0.0
 40
1.9999975
  0
CIRCLE
  5
767D
330
1A
100
AcDbEntity
  8
寸法線
100
AcDbCircle
 10
68.943528800538
 20
232.870263526783
 30
0.0
 40
3.75
  0
CIRCLE
  5
767E
330
1A
100
AcDbEntity
  8
寸法線
100
AcDbCircle
 10
68.943528800538
 20
232.870263526783
 30
0.0
 40
1.9999975
  0
CIRCLE
  5
767F
330
1A
100
AcDbEntity
  8
寸法線
100
AcDbCircle
 10
43.061036300538
 20
232.870263526783
 30
0.0
 40
3.75
  0
CIRCLE
  5
7680
330
1A
100
AcDbEntity
  8
寸法線
100
AcDbCircle
 10
43.061036300538
 20
232.870263526783
 30
0.0
 40
1.9999975
  0
CIRCLE
  5
7681
330
1A
100
AcDbEntity
  8
寸法線
100
AcDbCircle
 10
17.178543800538
 20
232.870263526783
 30
0.0
 40
3.75
  0
TEXT
  5
7682
330
1A
100
AcDbEntity
  8
寸法線
100
AcDbText
 10
87.208833800538
 20
284.674576026783
 30
0.0
 40
11.206896551724
  1
シ　ロ
  7
EXCADVERT
 72
     3
 11
87.208833800538
 21
252.174576026783
 31
0.0
100
AcDbText
  0
TEXT
  5
7683
330
1A
100
AcDbEntity
  8
寸法線
100
AcDbText
 10
-30.051526199462
 20
204.160718526783
 30
0.0
 40
10.0
  1
接地端子
 41
0.869565217391
  7
EXCADSTD
 72
     5
 11
9.948473800538
 21
204.160718526783
 31
0.0
100
AcDbText
  0
TEXT
  5
7684
330
1A
100
AcDbEntity
  8
寸法線
100
AcDbText
 10
-11.644105275749
 20
217.410993526783
 30
0.0
 40
10.0
  1
E
100
AcDbText
  0
CIRCLE
  5
7685
330
1A
100
AcDbEntity
  8
寸法線
100
AcDbCircle
 10
-8.703946199462
 20
232.870263526783
 30
0.0
 40
1.9999975
  0
TEXT
  5
7686
330
1A
100
AcDbEntity
  8
寸法線
100
AcDbText
 10
112.067461300538
 20
284.674576026783
 30
0.0
 40
10.955056179775
  1
ク　ロ
  7
EXCADVERT
 72
     3
 11
112.067461300538
 21
252.174576026783
 31
0.0
100
AcDbText
  0
TEXT
  5
7687
330
1A
100
AcDbEntity
  8
寸法線
100
AcDbText
 10
10.957918800538
 20
284.674576026783
 30
0.0
 40
9.393939398455
  1
ミドリ
  7
EXCADVERT
 72
     3
 11
10.957918800538
 21
253.674576011881
 31
0.0
100
AcDbText
  0
TEXT
  5
7688
330
1A
100
AcDbEntity
  8
寸法線
100
AcDbText
 10
62.895861300538
 20
284.674576026783
 30
0.0
 40
10.051546391753
  1
ア　カ
  7
EXCADVERT
 72
     3
 11
62.895861300538
 21
252.174576026783
 31
0.0
100
AcDbText
  0
CIRCLE
  5
7689
330
1A
100
AcDbEntity
  8
寸法線
100
AcDbCircle
 10
118.576021300538
 20
320.021791026783
 30
0.0
 40
11.4722475
  0
LINE
  5
768A
330
1A
100
AcDbEntity
  8
寸法線
100
AcDbLine
 10
93.576553800538
 20
313.126248526783
 30
0.0
 11
95.576523800538
 21
331.402216026783
 31
0.0
  0
LINE
  5
768B
330
1A
100
AcDbEntity
  8
寸法線
100
AcDbLine
 10
43.061036300538
 20
313.126248526783
 30
0.0
 11
35.243578800538
 21
331.402216026783
 31
0.0
  0
CIRCLE
  5
768C
330
1A
100
AcDbEntity
  8
寸法線
100
AcDbCircle
 10
93.576553800538
 20
331.402216026783
 30
0.0
 40
2.0000075
  0
LINE
  5
768D
330
1A
100
AcDbEntity
  8
寸法線
100
AcDbLine
 10
93.576553800538
 20
358.035248526783
 30
0.0
 11
93.576553800538
 21
333.402223526783
 31
0.0
  0
CIRCLE
  5
768E
330
1A
100
AcDbEntity
  8
寸法線
100
AcDbCircle
 10
52.878541300538
 20
331.402216026783
 30
0.0
 40
2.0000075
  0
LINE
  5
768F
330
1A
100
AcDbEntity
  8
寸法線
100
AcDbLine
 10
52.878541300538
 20
358.035248526783
 30
0.0
 11
52.878541300538
 21
333.402223526783
 31
0.0
  0
CIRCLE
  5
7690
330
1A
100
AcDbEntity
  8
寸法線
100
AcDbCircle
 10
33.243531300538
 20
331.402216026783
 30
0.0
 40
2.0000075
  0
TEXT
  5
7691
330
1A
100
AcDbEntity
  8
寸法線
100
AcDbText
 10
39.326136695189
 20
217.656817274998
 30
0.0
 40
10.0
  1
C
100
AcDbText
  0
TEXT
  5
7692
330
1A
100
AcDbEntity
  8
寸法線
100
AcDbText
 10
64.748127343346
 20
217.906832274998
 30
0.0
 40
10.0
  1
H
100
AcDbText
  0
TEXT
  5
7693
330
1A
100
AcDbEntity
  8
寸法線
100
AcDbText
 10
13.763089195189
 20
217.719322274998
 30
0.0
 40
10.0
  1
L
100
AcDbText
  0
CIRCLE
  5
7694
330
1A
100
AcDbEntity
  8
寸法線
100
AcDbCircle
 10
93.576553800538
 20
311.126261026783
 30
0.0
 40
2.0000075
  0
LINE
  5
7695
330
1A
100
AcDbEntity
  8
寸法線
100
AcDbLine
 10
93.576553800538
 20
309.126253526783
 30
0.0
 11
93.576553800538
 21
236.620263526783
 31
0.0
  0
CIRCLE
  5
7696
330
1A
100
AcDbEntity
  8
寸法線
100
AcDbCircle
 10
17.178543800538
 20
232.870263526783
 30
0.0
 40
1.9999975
  0
LINE
  5
7697
330
1A
100
AcDbEntity
  8
寸法線
100
AcDbLine
 10
118.566561300538
 20
308.513421026783
 30
0.0
 11
118.566561300538
 21
236.620263526783
 31
0.0
  0
LINE
  5
7698
330
1A
100
AcDbEntity
  8
寸法線
100
AcDbLine
 10
68.943528800538
 20
358.035248526783
 30
0.0
 11
68.943528800538
 21
236.620263526783
 31
0.0
  0
LINE
  5
7699
330
1A
100
AcDbEntity
  8
寸法線
100
AcDbLine
 10
43.061036300538
 20
309.126253526783
 30
0.0
 11
43.061036300538
 21
236.620263526783
 31
0.0
  0
CIRCLE
  5
769A
330
1A
100
AcDbEntity
  8
寸法線
100
AcDbCircle
 10
43.061036300538
 20
311.126261026783
 30
0.0
 40
2.0000075
  0
LINE
  5
769B
330
1A
100
AcDbEntity
  8
寸法線
100
AcDbLine
 10
118.566561300538
 20
358.035248526783
 30
0.0
 11
118.566561300538
 21
331.494036026783
 31
0.0
  0
TEXT
  5
769C
330
1A
100
AcDbEntity
  8
寸法線
100
AcDbText
 10
111.064958800538
 20
312.243318526783
 30
0.0
 40
15.0
  1
Ｍ
 41
1.25
  7
EXCADSTD
 72
     5
 11
126.064958800538
 21
312.243318526783
 31
0.0
100
AcDbText
  0
TEXT
  5
769D
330
1A
100
AcDbEntity
  8
寸法線
100
AcDbText
 10
36.565903800538
 20
273.299301026783
 30
0.0
 40
10.714285714286
  1
キ
  7
EXCADVERT
 72
     3
 11
36.565903800538
 21
263.299301026783
 31
0.0
100
AcDbText
  0
TEXT
  5
769E
330
1A
100
AcDbEntity
  8
寸法線
100
AcDbText
 10
92.896293420942
 20
190.347881154799
 30
0.0
 40
11.25
  1
電源
100
AcDbText
  0
LINE
  5
769F
330
1A
100
AcDbEntity
  8
寸法線
100
AcDbLine
 10
93.576553800538
 20
358.035248526783
 30
0.0
 11
118.566561300538
 21
358.035248526783
 31
0.0
  0
LINE
  5
76A0
330
1A
100
AcDbEntity
  8
寸法線
100
AcDbLine
 10
52.878541300538
 20
358.035248526783
 30
0.0
 11
68.943528800538
 21
358.035248526783
 31
0.0
  0
LINE
  5
76A1
330
1A
100
AcDbEntity
  8
寸法線
100
AcDbLine
 10
33.243531300538
 20
358.035248526783
 30
0.0
 11
33.243531300538
 21
333.402223526783
 31
0.0
  0
LINE
  5
76A2
330
1A
100
AcDbEntity
  8
寸法線
100
AcDbLine
 10
17.178543800538
 20
358.035248526783
 30
0.0
 11
33.243531300538
 21
358.035248526783
 31
0.0
  0
LINE
  5
76A3
330
1A
100
AcDbEntity
  8
寸法線
100
AcDbLine
 10
17.178543800538
 20
236.620263526783
 30
0.0
 11
17.178543800538
 21
358.035248526783
 31
0.0
  0
MTEXT
  5
77DF
330
1A
100
AcDbEntity
  8
寸法線
 48
10.0
100
AcDbMText
 10
148.750331126252
 20
351.090779998524
 30
0.0
 40
10.0
 41
414.880882725883
 71
     1
 72
     5
  1
内蔵マイクロスイッチ\PAC250V 6A  抵抗負荷\PDC125V 0.5A 抵抗負荷
  0
LINE
  5
77E0
330
1A
100
AcDbEntity
  8
外形線
100
AcDbLine
 10
917.002660945831
 20
324.240162712569
 30
0.0
 11
917.002660945831
 21
222.894552051284
 31
0.0
  0
LINE
  5
77E1
330
1A
100
AcDbEntity
  8
外形線
100
AcDbLine
 10
709.897731464462
 20
324.240162712569
 30
0.0
 11
917.002660945831
 21
324.240162712569
 31
0.0
  0
MTEXT
  5
77E2
102
{ACAD_XDICTIONARY
360
7E13
102
}
330
1A
100
AcDbEntity
  8
寸法線
 48
10.0
100
AcDbMText
 10
788.271003532628
 20
290.569878885464
 30
0.0
 40
11.25
 41
147.712275705142
 71
     1
 72
     5
  1
労検第T66814号
1001
ACADANNOTATIVE
1000
AnnotativeData
1002
{
1070
     1
1070
     0
1002
}
  0
LINE
  5
77E3
102
{ACAD_REACTORS
330
77E8
102
}
330
1A
100
AcDbEntity
  8
外形線
100
AcDbLine
 10
770.768156304717
 20
308.920169508496
 30
0.0
 11
770.768156304717
 21
278.920169508496
 31
0.0
  0
LINE
  5
77E4
102
{ACAD_REACTORS
330
77E8
102
}
330
1A
100
AcDbEntity
  8
外形線
100
AcDbLine
 10
720.768156304717
 20
278.920169508496
 30
0.0
 11
770.768156304717
 21
278.920169508496
 31
0.0
  0
LINE
  5
77E5
102
{ACAD_REACTORS
330
77E8
102
}
330
1A
100
AcDbEntity
  8
外形線
100
AcDbLine
 10
720.768156304717
 20
308.920169508496
 30
0.0
 11
770.768156304717
 21
308.920169508496
 31
0.0
  0
LINE
  5
77E6
102
{ACAD_REACTORS
330
77E8
102
}
330
1A
100
AcDbEntity
  8
外形線
100
AcDbLine
 10
720.768156304717
 20
308.920169508496
 30
0.0
 11
720.768156304717
 21
278.920169508496
 31
0.0
  0
MTEXT
  5
77E7
330
1A
100
AcDbEntity
  8
寸法線
 48
10.0
100
AcDbMText
 10
791.523479540838
 20
317.502168697021
 30
0.0
 40
15.0
 41
88.948093776244
 71
     1
 72
     5
  1
{\H1.25x;d2G4}
  0
HATCH
  5
77E8
330
1A
100
AcDbEntity
  8
細線
 48
10.0
100
AcDbHatch
 10
0.0
 20
0.0
 30
0.0
210
0.0
220
0.0
230
1.0
  2
ANSI31
 70
     0
 71
     1
 91
        1
 92
        7
 72
     0
 73
     1
 93
        4
 10
770.7681563047172
 20
278.9201695084959
 10
770.7681563047172
 20
308.9201695084959
 10
720.7681563047172
 20
308.9201695084959
 10
720.7681563047172
 20
278.9201695084959
 97
        4
330
77E3
330
77E5
330
77E6
330
77E4
 75
     0
 76
     1
 52
0.0
 41
1.0
 77
     0
 78
     1
 53
45.0
 43
-143.2493711348216
 44
-167.1995702928788
 45
-2.245064030267288
 46
2.245064030267288
 79
     0
 47
0.627807578291
 98
        1
 10
735.1393100644888
 20
297.6425340481595
  0
LINE
  5
77E9
330
1A
100
AcDbEntity
  8
外形線
100
AcDbLine
 10
917.002660945831
 20
222.894552051284
 30
0.0
 11
709.897731464462
 21
222.894552051284
 31
0.0
  0
LINE
  5
77EA
330
1A
100
AcDbEntity
  8
外形線
100
AcDbLine
 10
709.897731464462
 20
222.894552051284
 30
0.0
 11
709.897731464462
 21
324.240162712569
 31
0.0
  0
MTEXT
  5
77EB
102
{ACAD_XDICTIONARY
360
77EC
102
}
330
1A
100
AcDbEntity
  8
寸法線
 48
10.0
100
AcDbMText
 10
720.567257484527
 20
267.669202332663
 30
0.0
 40
8.75
 41
266.161527505396
 71
     1
 72
     5
  1
防爆構造：耐圧防爆構造\P爆発等級及び発火度：2G4\P導線引込方式：耐圧パッキン式引込方式
1001
ACADANNOTATIVE
1000
AnnotativeData
1002
{
1070
     1
1070
     0
1002
}
  0
MTEXT
  5
77F1
102
{ACAD_XDICTIONARY
360
77F2
102
}
330
1A
100
AcDbEntity
  8
寸法線
 62
     1
 48
10.0
100
AcDbMText
 10
146.364434327242
 20
287.349521898765
 30
0.0
 40
10.0
 41
189.697553026647
 71
     1
 72
     5
  1
\C256;塗　装　色：10YR7.5/14\P静止トルク：約10.0N・cm\P回　転　数：1RPM\P使用周囲温度：-10～+40℃
1001
ACADANNOTATIVE
1000
AnnotativeData
1002
{
1070
     1
1070
     0
1002
}
  0
TEXT
  5
7802
330
1A
100
AcDbEntity
  8
寸法線
100
AcDbText
 10
78.887825776837
 20
205.037384698976
 30
0.0
 40
10.0
  1
(２００   ０)
 41
0.566629621207
  7
EXCADSTD
 72
     5
 11
125.493112121147
 21
205.037384698976
 31
0.0
100
AcDbText
  0
MTEXT
  5
7803
102
{ACAD_XDICTIONARY
360
7804
102
}
330
1A
100
AcDbEntity
  8
寸法線
 48
10.0
100
AcDbMText
 10
314.81543301606
 20
346.328186533399
 30
0.0
 40
10.0
 41
210.629527060302
 71
     1
 72
     5
  1
御仕様  電源電圧  \P      　AC100V\P        AC200V
1001
ACADANNOTATIVE
1000
AnnotativeData
1002
{
1070
     1
1070
     0
1002
}
  0
MTEXT
  5
7807
330
1A
100
AcDbEntity
  8
寸法線
 48
10.0
100
AcDbMText
 10
340.044060669178
 20
295.007293903693
 30
0.0
 40
10.0
 41
202.063492063492
 71
     1
 72
     5
  1
○印が今回の貴社の御仕様です。
  0
LINE
  5
7808
330
1A
100
AcDbEntity
  8
寸法線
 62
     1
 48
10.0
100
AcDbLine
 10
311.776068561397
 20
332.771603746036
 30
0.0
 11
503.510573904848
 21
332.771603746036
 31
0.0
  0
LINE
  5
7809
330
1A
100
AcDbEntity
  8
寸法線
 62
     1
 48
10.0
100
AcDbLine
 10
311.776068561397
 20
316.194667790728
 30
0.0
 11
503.510573904848
 21
316.194667790728
 31
0.0
  0
LINE
  5
780A
330
1A
100
AcDbEntity
  8
寸法線
 62
     1
 48
10.0
100
AcDbLine
 10
311.776068561397
 20
299.61773183542
 30
0.0
 11
503.510573904848
 21
299.61773183542
 31
0.0
  0
LINE
  5
780B
330
1A
100
AcDbEntity
  8
寸法線
 62
     1
 48
10.0
100
AcDbLine
 10
311.776068561397
 20
349.023501741436
 30
0.0
 11
503.510573904848
 21
349.023501741436
 31
0.0
  0
LINE
  5
780C
330
1A
100
AcDbEntity
  8
寸法線
 62
     1
 48
10.0
100
AcDbLine
 10
352.730851509805
 20
349.023501741436
 30
0.0
 11
352.730851509805
 21
299.61773183542
 31
0.0
  0
LINE
  5
780D
330
1A
100
AcDbEntity
  8
寸法線
 62
     1
 48
10.0
100
AcDbLine
 10
311.776068561397
 20
349.023501741436
 30
0.0
 11
311.776068561397
 21
299.61773183542
 31
0.0
  0
LINE
  5
780E
330
1A
100
AcDbEntity
  8
寸法線
 62
     1
 48
10.0
100
AcDbLine
 10
419.53021778723
 20
349.023501741436
 30
0.0
 11
419.53021778723
 21
299.61773183542
 31
0.0
  0
LINE
  5
780F
330
1A
100
AcDbEntity
  8
寸法線
 62
     1
 48
10.0
100
AcDbLine
 10
503.510573904848
 20
349.023501741436
 30
0.0
 11
503.510573904848
 21
299.61773183542
 31
0.0
  0
MTEXT
  5
7810
102
{ACAD_XDICTIONARY
360
7811
102
}
330
1A
100
AcDbEntity
  8
寸法線
 48
10.0
100
AcDbMText
 10
462.289084899832
 20
346.328186533399
 30
0.0
 40
10.0
 41
71.895805002061
 71
     2
 72
     5
  1
申請型式名称   \PPRL-5-WP\PPRL-5-VP
1001
ACADANNOTATIVE
1000
AnnotativeData
1002
{
1070
     1
1070
     0
1002
}
  0
MTEXT
  5
78F4
330
1A
100
AcDbEntity
  8
寸法線
 62
     1
 48
10.0
100
AcDbMText
 10
761.093848407532
 20
451.01394809162
 30
0.0
 40
8.0
 41
152.261044059946
 71
     1
 72
     1
  1
※ケーブルグランドをご指定下さい
  0
LINE
  5
7C5B
330
1A
100
AcDbEntity
  8
外形線
 48
10.0
100
AcDbLine
 10
570.999393285179
 20
579.17453424565
 30
0.0
 11
570.999393285179
 21
644.174534245649
 31
0.0
  0
LWPOLYLINE
  5
7D0E
330
1A
100
AcDbEntity
  8
外形線
100
AcDbPolyline
 90
       10
 70
     0
 43
0.0
 10
552.999393285179
 20
648.674534245649
 10
552.999393285179
 20
648.674534245649
 42
0.414213562373
 10
554.999393285179
 20
646.674534245649
 10
568.999393285179
 20
646.674534245649
 10
570.999393285179
 20
644.674534245649
 10
570.999393285179
 20
578.674534245649
 10
568.999393285179
 20
576.674534245649
 10
554.999393285179
 20
576.674534245649
 42
0.414213562373
 10
552.999393285179
 20
574.674534245649
 10
552.999393285179
 20
574.674534245649
  0
LINE
  5
7D11
330
1A
100
AcDbEntity
  8
外形線
100
AcDbLine
 10
552.999393285179
 20
688.174534245649
 30
0.0
 11
551.999393285179
 21
689.174534245649
 31
0.0
  0
LINE
  5
7D12
330
1A
100
AcDbEntity
  8
外形線
100
AcDbLine
 10
551.999393285179
 20
689.174534245649
 30
0.0
 11
541.499393285179
 21
689.174534245649
 31
0.0
  0
LINE
  5
7D13
330
1A
100
AcDbEntity
  8
外形線
100
AcDbLine
 10
541.499393285179
 20
689.174534245649
 30
0.0
 11
540.999393285179
 21
688.674534245649
 31
0.0
  0
LINE
  5
7D14
330
1A
100
AcDbEntity
  8
外形線
100
AcDbLine
 10
540.999393285179
 20
688.674534245649
 30
0.0
 11
540.999393285179
 21
534.674534245649
 31
0.0
  0
LINE
  5
7D15
330
1A
100
AcDbEntity
  8
外形線
100
AcDbLine
 10
540.999393285179
 20
534.674534245649
 30
0.0
 11
541.499393285179
 21
534.174534245649
 31
0.0
  0
LINE
  5
7D16
330
1A
100
AcDbEntity
  8
外形線
100
AcDbLine
 10
541.499393285179
 20
534.174534245649
 30
0.0
 11
551.999393285179
 21
534.174534245649
 31
0.0
  0
LINE
  5
7D17
330
1A
100
AcDbEntity
  8
外形線
100
AcDbLine
 10
551.999393285179
 20
534.174534245649
 30
0.0
 11
552.999393285179
 21
535.174534245649
 31
0.0
  0
LINE
  5
7D18
330
1A
100
AcDbEntity
  8
外形線
100
AcDbLine
 10
552.999393285179
 20
535.174534245649
 30
0.0
 11
552.999393285179
 21
688.174534245649
 31
0.0
  0
LINE
  5
7DD7
330
1A
100
AcDbEntity
  8
外形線
 48
10.0
100
AcDbLine
 10
552.999393285179
 20
537.824534245649
 30
0.0
 11
554.579393285179
 21
537.824534245649
 31
0.0
  0
LINE
  5
7DD8
330
1A
100
AcDbEntity
  8
外形線
 48
10.0
100
AcDbLine
 10
552.999393285179
 20
555.524534245649
 30
0.0
 11
554.579393285179
 21
555.524534245649
 31
0.0
  0
LINE
  5
7DD9
330
1A
100
AcDbEntity
  8
外形線
 48
10.0
100
AcDbLine
 10
554.579393285179
 20
537.824534245649
 30
0.0
 11
554.579393285179
 21
555.524534245649
 31
0.0
  0
LINE
  5
7DDA
330
1A
100
AcDbEntity
  8
外形線
 48
10.0
100
AcDbLine
 10
559.76436289933
 20
539.284450800022
 30
0.0
 11
554.579393285179
 21
539.284450800022
 31
0.0
  0
LINE
  5
7DDB
330
1A
100
AcDbEntity
  8
外形線
 48
10.0
100
AcDbLine
 10
559.76436289933
 20
554.064617691276
 30
0.0
 11
554.579393285179
 21
554.064617691276
 31
0.0
  0
LINE
  5
7DDC
330
1A
100
AcDbEntity
  8
外形線
100
AcDbLine
 10
559.76436289933
 20
539.284450800022
 30
0.0
 11
560.89939328518
 21
540.424421745649
 31
0.0
  0
ARC
  5
7DDD
330
1A
100
AcDbEntity
  8
細線
100
AcDbCircle
 10
557.968877109969
 20
540.369561020224
 30
0.0
 40
2.93102964030951
100
AcDbArc
 50
1.07248031449
 51
62.929683273473
  0
LINE
  5
7DDE
330
1A
100
AcDbEntity
  8
細線
100
AcDbLine
 10
554.579393285179
 20
542.979492522835
 30
0.0
 11
559.302740785181
 21
542.979492522835
 31
0.0
  0
ARC
  5
7DDF
330
1A
100
AcDbEntity
  8
細線
100
AcDbCircle
 10
555.826040876598
 20
546.674534245649
 30
0.0
 40
5.073536792778295
100
AcDbArc
 50
313.256183488111
 51
46.743816511899
  0
ARC
  5
7DE0
330
1A
100
AcDbEntity
  8
細線
100
AcDbCircle
 10
557.96887710997
 20
552.979507471074
 30
0.0
 40
2.931029640308923
100
AcDbArc
 50
297.070316726528
 51
358.92751968551
  0
LINE
  5
7DE1
330
1A
100
AcDbEntity
  8
外形線
100
AcDbLine
 10
559.76436289933
 20
554.064617691276
 30
0.0
 11
560.89939328518
 21
552.924646745649
 31
0.0
  0
LINE
  5
7DE2
330
1A
100
AcDbEntity
  8
細線
100
AcDbLine
 10
554.579393285179
 20
550.369575968463
 30
0.0
 11
559.302740785181
 21
550.369575968463
 31
0.0
  0
LINE
  5
7DE3
330
1A
100
AcDbEntity
  8
外形線
100
AcDbLine
 10
560.89939328518
 20
552.924646745649
 30
0.0
 11
560.89939328518
 21
540.424419245649
 31
0.0
  0
LINE
  5
7DE4
330
1A
100
AcDbEntity
  8
細線
 48
10.0
100
AcDbLine
 10
561.999398373831
 20
543.674534245649
 30
0.0
 11
560.89939328518
 21
543.674534245649
 31
0.0
  0
LINE
  5
7DE5
330
1A
100
AcDbEntity
  8
細線
 48
10.0
100
AcDbLine
 10
561.999398373831
 20
549.674534245649
 30
0.0
 11
560.89939328518
 21
549.674534245649
 31
0.0
  0
LINE
  5
7DE6
330
1A
100
AcDbEntity
  8
外形線
100
AcDbLine
 10
560.89939328518
 20
550.594534245649
 30
0.0
 11
561.999398373831
 21
550.594534245649
 31
0.0
  0
LINE
  5
7DE7
330
1A
100
AcDbEntity
  8
外形線
100
AcDbLine
 10
560.89939328518
 20
542.754534245649
 30
0.0
 11
561.999398373831
 21
542.754534245649
 31
0.0
  0
LINE
  5
7DE9
330
1A
100
AcDbEntity
  8
外形線
 48
10.0
100
AcDbLine
 10
552.999393285179
 20
667.824534245649
 30
0.0
 11
554.579393285179
 21
667.824534245649
 31
0.0
  0
LINE
  5
7DEA
330
1A
100
AcDbEntity
  8
外形線
 48
10.0
100
AcDbLine
 10
552.999393285179
 20
685.524534245649
 30
0.0
 11
554.579393285179
 21
685.524534245649
 31
0.0
  0
LINE
  5
7DEB
330
1A
100
AcDbEntity
  8
外形線
 48
10.0
100
AcDbLine
 10
554.579393285179
 20
667.824534245649
 30
0.0
 11
554.579393285179
 21
685.524534245649
 31
0.0
  0
LINE
  5
7DEC
330
1A
100
AcDbEntity
  8
外形線
 48
10.0
100
AcDbLine
 10
559.76436289933
 20
669.284450800022
 30
0.0
 11
554.579393285179
 21
669.284450800022
 31
0.0
  0
LINE
  5
7DED
330
1A
100
AcDbEntity
  8
外形線
 48
10.0
100
AcDbLine
 10
559.76436289933
 20
684.064617691276
 30
0.0
 11
554.579393285179
 21
684.064617691276
 31
0.0
  0
LINE
  5
7DEE
330
1A
100
AcDbEntity
  8
外形線
100
AcDbLine
 10
559.76436289933
 20
669.284450800022
 30
0.0
 11
560.89939328518
 21
670.424421745649
 31
0.0
  0
ARC
  5
7DEF
330
1A
100
AcDbEntity
  8
細線
100
AcDbCircle
 10
557.968877109969
 20
670.369561020224
 30
0.0
 40
2.93102964030951
100
AcDbArc
 50
1.07248031449
 51
62.929683273473
  0
LINE
  5
7DF0
330
1A
100
AcDbEntity
  8
細線
100
AcDbLine
 10
554.579393285179
 20
672.979492522835
 30
0.0
 11
559.302740785181
 21
672.979492522835
 31
0.0
  0
ARC
  5
7DF1
330
1A
100
AcDbEntity
  8
細線
100
AcDbCircle
 10
555.826040876598
 20
676.674534245649
 30
0.0
 40
5.073536792778295
100
AcDbArc
 50
313.256183488111
 51
46.743816511899
  0
ARC
  5
7DF2
330
1A
100
AcDbEntity
  8
細線
100
AcDbCircle
 10
557.96887710997
 20
682.979507471074
 30
0.0
 40
2.931029640308923
100
AcDbArc
 50
297.070316726528
 51
358.92751968551
  0
LINE
  5
7DF3
330
1A
100
AcDbEntity
  8
外形線
100
AcDbLine
 10
559.76436289933
 20
684.064617691276
 30
0.0
 11
560.89939328518
 21
682.924646745649
 31
0.0
  0
LINE
  5
7DF4
330
1A
100
AcDbEntity
  8
細線
100
AcDbLine
 10
554.579393285179
 20
680.369575968463
 30
0.0
 11
559.302740785181
 21
680.369575968463
 31
0.0
  0
LINE
  5
7DF5
330
1A
100
AcDbEntity
  8
外形線
100
AcDbLine
 10
560.89939328518
 20
682.924646745649
 30
0.0
 11
560.89939328518
 21
670.424419245649
 31
0.0
  0
LINE
  5
7DF6
330
1A
100
AcDbEntity
  8
細線
 48
10.0
100
AcDbLine
 10
561.999398373831
 20
673.674534245649
 30
0.0
 11
560.89939328518
 21
673.674534245649
 31
0.0
  0
LINE
  5
7DF7
330
1A
100
AcDbEntity
  8
細線
 48
10.0
100
AcDbLine
 10
561.999398373831
 20
679.674534245649
 30
0.0
 11
560.89939328518
 21
679.674534245649
 31
0.0
  0
LINE
  5
7DF8
330
1A
100
AcDbEntity
  8
外形線
100
AcDbLine
 10
560.89939328518
 20
680.594534245649
 30
0.0
 11
561.999398373831
 21
680.594534245649
 31
0.0
  0
LINE
  5
7DF9
330
1A
100
AcDbEntity
  8
外形線
100
AcDbLine
 10
560.89939328518
 20
672.754534245649
 30
0.0
 11
561.999398373831
 21
672.754534245649
 31
0.0
  0
LINE
  5
7DFC
330
1A
100
AcDbEntity
  8
外形線
 48
10.0
100
AcDbLine
 10
561.999398373831
 20
542.754534245649
 30
0.0
 11
561.999398373831
 21
550.594534245649
 31
0.0
  0
LINE
  5
7DFD
330
1A
100
AcDbEntity
  8
外形線
 48
10.0
100
AcDbLine
 10
561.999398373831
 20
680.594534245649
 30
0.0
 11
561.999398373831
 21
672.754534245649
 31
0.0
  0
LINE
  5
7DFF
330
1A
100
AcDbEntity
  8
外形線
 48
10.0
100
AcDbLine
 10
249.028273325325
 20
651.674534245649
 30
0.0
 11
249.028273325325
 21
571.674534245649
 31
0.0
  0
LINE
  5
7E00
330
1A
100
AcDbEntity
  8
外形線
 48
10.0
100
AcDbLine
 10
249.028273325325
 20
571.674534245649
 30
0.0
 11
314.028273325325
 21
571.674534245649
 31
0.0
  0
LINE
  5
7E01
330
1A
100
AcDbEntity
  8
外形線
 48
10.0
100
AcDbLine
 10
329.028273325325
 20
599.674534245649
 30
0.0
 11
329.028273325325
 21
603.399583530943
 31
0.0
  0
LINE
  5
7E02
330
1A
100
AcDbEntity
  8
外形線
 48
10.0
100
AcDbLine
 10
314.028273325325
 20
651.674534245649
 30
0.0
 11
249.028273325325
 21
651.674534245649
 31
0.0
  0
LINE
  5
7E03
330
1A
100
AcDbEntity
  8
外形線
 48
10.0
100
AcDbLine
 10
329.028273325325
 20
623.674534245649
 30
0.0
 11
314.028273325325
 21
651.674534245649
 31
0.0
  0
LINE
  5
7E04
330
1A
100
AcDbEntity
  8
外形線
 48
10.0
100
AcDbLine
 10
329.028273325325
 20
599.674534245649
 30
0.0
 11
314.028273325325
 21
571.674534245649
 31
0.0
  0
LINE
  5
7E05
330
1A
100
AcDbEntity
  8
外形線
 48
10.0
100
AcDbLine
 10
344.028273325325
 20
603.399583530943
 30
0.0
 11
344.028273325325
 21
619.964401530943
 31
0.0
  0
LINE
  5
7E06
330
1A
100
AcDbEntity
  8
外形線
100
AcDbLine
 10
315.741895325325
 20
603.399583530943
 30
0.0
 11
344.028273325325
 21
603.399583530943
 31
0.0
  0
LINE
  5
7E07
330
1A
100
AcDbEntity
  8
細線
100
AcDbLine
 10
344.016309325325
 20
607.540817530943
 30
0.0
 11
315.396437325325
 21
607.540817530943
 31
0.0
  0
LINE
  5
7E08
330
1A
100
AcDbEntity
  8
外形線
100
AcDbLine
 10
315.741895325325
 20
619.964401530943
 30
0.0
 11
314.028273325325
 21
618.250779530943
 31
0.0
  0
ARC
  5
7E09
330
1A
100
AcDbEntity
  8
細線
100
AcDbCircle
 10
317.208205325325
 20
618.443527530943
 30
0.0
 40
3.18575
100
AcDbArc
 50
183.469852255157
 51
235.339263082109
  0
LINE
  5
7E0A
330
1A
100
AcDbEntity
  8
細線
100
AcDbLine
 10
344.016309325325
 20
615.823167530943
 30
0.0
 11
315.396437325325
 21
615.823167530943
 31
0.0
  0
ARC
  5
7E0B
330
1A
100
AcDbEntity
  8
細線
100
AcDbCircle
 10
317.208205325325
 20
604.920457530943
 30
0.0
 40
3.18575
100
AcDbArc
 50
124.660776613574
 51
176.53013014475
  0
LINE
  5
7E0C
330
1A
100
AcDbEntity
  8
外形線
100
AcDbLine
 10
314.028273325325
 20
618.250779530943
 30
0.0
 11
314.028273325325
 21
605.113205530943
 31
0.0
  0
CIRCLE
  5
7E0D
330
1A
100
AcDbEntity
  8
外形線
100
AcDbCircle
 10
319.028273325325
 20
611.696846101514
 30
0.0
 40
2.28479
  0
ARC
  5
7E0E
330
1A
100
AcDbEntity
  8
細線
100
AcDbCircle
 10
320.979659325325
 20
611.681991530943
 30
0.0
 40
6.951389999999999
100
AcDbArc
 50
143.43540034864
 51
216.564582051267
  0
LINE
  5
7E0F
330
1A
100
AcDbEntity
  8
中心線
 48
10.0
100
AcDbLine
 10
319.028273325325
 20
615.314674101514
 30
0.0
 11
319.028273325325
 21
608.079018101514
 31
0.0
  0
LINE
  5
7E10
330
1A
100
AcDbEntity
  8
外形線
100
AcDbLine
 10
315.741895325325
 20
603.399583530943
 30
0.0
 11
314.028273325325
 21
605.113205530943
 31
0.0
  0
LINE
  5
7E11
330
1A
100
AcDbEntity
  8
外形線
100
AcDbLine
 10
315.741895325325
 20
619.964401530943
 30
0.0
 11
344.028273325325
 21
619.964401530943
 31
0.0
  0
LINE
  5
7E12
330
1A
100
AcDbEntity
  8
外形線
 48
10.0
100
AcDbLine
 10
329.028273325325
 20
619.964401530943
 30
0.0
 11
329.028273325325
 21
623.674534245649
 31
0.0
  0
VIEWPORT
  5
2902
330
28FB
100
AcDbEntity
 67
     1
  8
0
 48
10.0
100
AcDbViewport
 10
0.0
 20
0.0
 30
0.0
 40
470.708333333333
 41
300.3
 68
     1
 69
     1
1001
ACAD
1000
MVIEW
1002
{
1070
    16
1010
0.0
1020
0.0
1030
0.0
1010
0.0
1020
0.0
1030
1.0
1040
0.0
1040
300.3
1040
206.482943333333
1040
144.277943333333
1040
50.0
1040
0.0
1040
0.0
1070
    16
1070
   100
1070
     0
1070
     1
1070
     0
1070
     0
1070
     0
1070
     0
1040
0.0
1040
0.0
1040
0.0
1040
10.0
1040
10.0
1040
10.0
1040
10.0
1070
     0
1002
{
1002
}
1002
}
  0
VIEWPORT
  5
2904
330
28FB
100
AcDbEntity
 67
     1
  8
図枠太線
 48
10.0
100
AcDbViewport
 10
204.746305129083
 20
161.396645458131
 30
0.0
 40
400.0
 41
240.0
 68
     2
 69
     2
1001
ACAD
1000
MVIEW
1002
{
1070
    16
1010
0.0
1020
0.0
1030
0.0
1010
0.0
1020
0.0
1030
1.0
1040
0.0
1040
599.999998534488
1040
428.507786938727
1040
467.660869078415
1040
50.0
1040
0.0
1040
0.0
1070
     0
1070
   100
1070
     0
1070
     0
1070
     0
1070
     0
1070
     0
1070
     0
1040
0.0
1040
0.0
1040
0.0
1040
1.0
1040
1.0
1040
0.0
1040
0.0
1070
     0
1002
{
1002
}
1002
}
  0
INSERT
  5
2A59
330
28FB
100
AcDbEntity
 67
     1
  8
図枠太線
100
AcDbBlockReference
  2
A3横用_タイトル
 10
-0.352109406709
 20
-2.129314295396
 30
0.0
  0
MTEXT
  5
2FE5
330
28FB
100
AcDbEntity
 67
     1
  8
寸法線
 48
10.0
100
AcDbMText
 10
363.177813562453
 20
37.101021772108
 30
0.0
 40
5.0
 41
45.27425591701
 71
     1
 72
     5
  1
パドル式\Pレベルスイッチ
  0
MTEXT
  5
2FE6
330
28FB
100
AcDbEntity
 67
     1
  8
寸法線
 48
10.0
100
AcDbMText
 10
312.858533615354
 20
33.854739812749
 30
0.0
 40
7.0
 41
35.987227926891
 71
     1
 72
     5
  1
PRL-F7
  0
MTEXT
  5
2FE7
330
28FB
100
AcDbEntity
 67
     1
  8
寸法線
 48
10.0
100
AcDbMText
 10
146.077332112683
 20
14.022357319784
 30
0.0
 40
7.0
 41
12.5019545219
 71
     1
 72
     5
  1
1:2.5
  0
MTEXT
  5
2FEB
102
{ACAD_XDICTIONARY
360
73D8
102
}
330
28FB
100
AcDbEntity
 67
     1
  8
寸法線
 48
10.0
100
AcDbMText
 10
341.544198781952
 20
14.917354273555
 30
0.0
 40
8.0
 41
36.402559001308
 71
     1
 72
     5
  1
HR-90002
1001
ACADANNOTATIVE
1000
AnnotativeData
1002
{
1070
     1
1070
     0
1002
}
  0
MTEXT
  5
2FEC
330
28FB
100
AcDbEntity
 67
     1
  8
寸法線
 48
10.0
100
AcDbMText
 10
373.949051752515
 20
48.742699288767
 30
0.0
 40
5.0
 41
33.206838365079
 71
     1
 72
     5
  1
台数   台
  0
MTEXT
  5
4936
102
{ACAD_XDICTIONARY
360
73DB
102
}
330
28FB
100
AcDbEntity
 67
     1
  8
寸法線
 48
10.0
100
AcDbMText
 10
174.423592077792
 20
12.151996916646
 30
0.0
 40
5.0
 41
63.606060606061
 71
     1
 72
     5
  1
2015.6.16
1001
ACADANNOTATIVE
1000
AnnotativeData
1002
{
1070
     1
1070
     0
1002
}
  0
MTEXT
  5
4937
330
28FB
100
AcDbEntity
 67
     1
  8
寸法線
 48
10.0
100
AcDbMText
 10
180.969782321733
 20
32.229377230579
 30
0.0
 40
5.0
 41
23.879746689072
 71
     1
 72
     5
  1
ohno
  0
ENDSEC
  0
SECTION
  2
OBJECTS
  0
DICTIONARY
  5
C
330
0
100
AcDbDictionary
  3
ACAD_COLOR
350
2948
  3
ACAD_GROUP
350
D
  3
ACAD_LAYOUT
350
2816
  3
ACAD_MATERIAL
350
2947
  3
ACAD_MLEADERSTYLE
350
73D4
  3
ACAD_MLINESTYLE
350
E
  3
ACAD_PLOTSETTINGS
350
2817
  3
ACAD_SCALELIST
350
73AE
  3
ACAD_VISUALSTYLE
350
7395
  3
ACADDIM
350
3450
  3
ACDBHEADERROUNDTRIPXREC
350
7E16
  3
ACDBVARIABLEDICTIONARY
350
78C0
  3
DWGPROPS
350
7E3B
  0
DICTIONARY
  5
7E3C
330
8
100
AcDbDictionary
280
     1
  3
ACAD_XREC_ROUNDTRIP
360
7E3D
  0
DICTIONARY
  5
29EA
330
2
100
AcDbDictionary
280
     1
  3
ACAD_LAYERFILTERS
360
2B0C
  3
ACAD_LAYERSTATES
360
29EB
  0
DICTIONARY
  5
7E13
330
77E2
100
AcDbDictionary
280
     1
  3
ACDBCONTEXTDATAMANAGER
360
7E14
  0
DICTIONARY
  5
77EC
330
77EB
100
AcDbDictionary
280
     1
  3
ACDBCONTEXTDATAMANAGER
360
77ED
  0
DICTIONARY
  5
77F2
330
77F1
100
AcDbDictionary
280
     1
  3
ACDBCONTEXTDATAMANAGER
360
77F3
  0
DICTIONARY
  5
7804
330
7803
100
AcDbDictionary
280
     1
  3
ACDBCONTEXTDATAMANAGER
360
7805
  0
DICTIONARY
  5
7811
330
7810
100
AcDbDictionary
280
     1
  3
ACDBCONTEXTDATAMANAGER
360
7812
  0
DICTIONARY
  5
73D8
330
2FEB
100
AcDbDictionary
280
     1
  3
ACDBCONTEXTDATAMANAGER
360
73D9
  0
DICTIONARY
  5
73DB
330
4936
100
AcDbDictionary
280
     1
  3
ACDBCONTEXTDATAMANAGER
360
73DC
  0
DICTIONARY
  5
2948
102
{ACAD_REACTORS
330
C
102
}
330
C
100
AcDbDictionary
  0
DICTIONARY
  5
D
102
{ACAD_REACTORS
330
C
102
}
330
C
100
AcDbDictionary
  0
DICTIONARY
  5
2816
102
{ACAD_REACTORS
330
C
102
}
330
C
100
AcDbDictionary
  0
DICTIONARY
  5
2947
102
{ACAD_REACTORS
330
C
102
}
330
C
100
AcDbDictionary
  3
BYBLOCK
350
73D1
  3
BYLAYER
350
73D0
  3
GLOBAL
350
5486
  0
DICTIONARY
  5
73D4
102
{ACAD_REACTORS
330
C
102
}
330
C
100
AcDbDictionary
  3
STANDARD
350
73D5
  0
DICTIONARY
  5
E
102
{ACAD_REACTORS
330
C
102
}
330
C
100
AcDbDictionary
  3
STANDARD
350
13
  0
DICTIONARY
  5
2817
102
{ACAD_REACTORS
330
C
102
}
330
C
100
AcDbDictionary
  0
DICTIONARY
  5
73AE
102
{ACAD_REACTORS
330
C
102
}
330
C
100
AcDbDictionary
  3
A0
350
73AF
  3
A1
350
73B0
  3
A2
350
73B1
  3
A3
350
73B2
  3
A4
350
73B3
  3
A5
350
73B4
  3
A6
350
73B5
  3
A7
350
73B6
  3
A8
350
73B7
  3
A9
350
73B8
  3
B0
350
73B9
  3
B1
350
73BA
  3
B2
350
73BB
  3
B3
350
73BC
  3
B4
350
73BD
  3
B5
350
73BE
  3
B6
350
73BF
  3
B7
350
73C0
  3
B8
350
73C1
  3
B9
350
73C2
  3
C0
350
73C3
  3
C1
350
73C4
  3
C2
350
73C5
  3
C3
350
73C6
  3
C4
350
73C7
  3
C5
350
73C8
  3
C6
350
73C9
  3
C7
350
73CA
  3
C8
350
73CB
  3
C9
350
73CC
  3
D0
350
73CD
  3
D1
350
73CE
  3
D2
350
73CF
  0
DICTIONARY
  5
7395
102
{ACAD_REACTORS
330
C
102
}
330
C
100
AcDbDictionary
  3
2DWIREFRAME
350
739A
  3
BASIC
350
739D
  3
BRIGHTEN
350
73A1
  3
COLORCHANGE
350
73A5
  3
CONCEPTUAL
350
739F
  3
DIM
350
73A0
  3
EDGECOLOROFF
350
73A8
  3
FACEPATTERN
350
73A4
  3
FLAT
350
7396
  3
FLATWITHEDGES
350
7397
  3
GOURAUD
350
7398
  3
GOURAUDWITHEDGES
350
7399
  3
HIDDEN
350
739C
  3
JITTEROFF
350
73A6
  3
LINEPATTERN
350
73A3
  3
OVERHANGOFF
350
73A7
  3
REALISTIC
350
739E
  3
SHADED
350
73AD
  3
SHADED_WITH_EDGES
350
73AC
  3
SHADES_OF_GRAY
350
73A9
  3
SKETCHY
350
73AA
  3
THICKEN
350
73A2
  3
WIREFRAME
350
739B
  3
X-RAY
350
73AB
  0
XRECORD
  5
3450
102
{ACAD_REACTORS
330
C
102
}
330
C
100
AcDbXrecord
 90
   990106
  3

 60
     0
 61
     0
 62
     1
 63
     3
 64
     0
 65
     0
 66
     0
 67
     3
 68
     1
 69
     0
 70
     0
 71
     0
 72
     0
 40
88.016021699386
170
     0
  0
DICTIONARY
  5
7E16
102
{ACAD_REACTORS
330
C
102
}
330
C
100
AcDbDictionary
  3
CEPSNID
350
7E20
  3
CEPSNTYPE
350
7E1F
  3
COLORDICT
350
7E39
  3
DIMSTYLEDATA
350
7E36
  3
FINGERPRINTGUID
350
7E21
  3
HYPERLINKBASE
350
7E19
  3
INSUNITS
350
7E1E
  3
LAYOUTDICT
350
7E1B
  3
LWETCUNION
350
7E1D
  3
MATERIALDICT
350
7E3A
  3
PLOTSETDICT
350
7E1C
  3
PSVPSCALE
350
7E23
  3
PUCSBASE
350
7E26
  3
PUCSORGBACK
350
7E2C
  3
PUCSORGBOTTOM
350
7E28
  3
PUCSORGFRONT
350
7E2B
  3
PUCSORGLEFT
350
7E29
  3
PUCSORGRIGHT
350
7E2A
  3
PUCSORGTOP
350
7E27
  3
PUCSORTHOREF
350
7E24
  3
PUCSORTHOVIEW
350
7E25
  3
STYLESHEET
350
7E1A
  3
TSTACKALIGN
350
7E17
  3
TSTACKSIZE
350
7E18
  3
UCSBASE
350
7E2F
  3
UCSORGBACK
350
7E35
  3
UCSORGBOTTOM
350
7E31
  3
UCSORGFRONT
350
7E34
  3
UCSORGLEFT
350
7E32
  3
UCSORGRIGHT
350
7E33
  3
UCSORGTOP
350
7E30
  3
UCSORTHOREF
350
7E2D
  3
UCSORTHOVIEW
350
7E2E
  3
VERSIONGUID
350
7E22
  0
DICTIONARY
  5
78C0
102
{ACAD_REACTORS
330
C
102
}
330
C
100
AcDbDictionary
  3
CANNOSCALE
350
78C1
  3
CMLEADERSTYLE
350
78C3
  3
CTABLESTYLE
350
78C2
  3
DIMASSOC
350
7E37
  3
HIDETEXT
350
7E38
  3
MSLTSCALE
350
78C4
  3
XCLIPFRAME
350
78C5
  0
XRECORD
  5
7E3B
102
{ACAD_REACTORS
330
C
102
}
330
C
100
AcDbXrecord
  1
DWGPROPS COOKIE
  2

  3

  4

  6

  7

  8
y-ohno
  9

300
=
301
=
302
=
303
=
304
=
305
=
306
=
307
=
308
=
309
=
 40
0.0
 41
2450576.222302431
 42
2457193.284572141
  1

 90
        0
  0
XRECORD
  5
7E3D
102
{ACAD_REACTORS
330
7E3C
102
}
330
7E3C
100
AcDbXrecord
102
VTR_0.000_0.000_1.000_1.000_VISUALSTYLE
340
739A
102
VTR_0.000_0.000_1.000_1.000_GRIDDISPLAY
 70
     3
102
VTR_0.000_0.000_1.000_1.000_GRIDMAJOR
 70
     5
102
VTR_0.000_0.000_1.000_1.000_DEFAULTLIGHTING
280
     1
102
VTR_0.000_0.000_1.000_1.000_DEFAULTLIGHTINGTYPE
 70
     1
102
VTR_0.000_0.000_1.000_1.000_BRIGHTNESS
141
0.0
102
VTR_0.000_0.000_1.000_1.000_CONTRAST
142
0.0
  0
DICTIONARY
  5
2B0C
102
{ACAD_REACTORS
330
29EA
102
}
330
29EA
100
AcDbDictionary
  0
DICTIONARY
  5
29EB
102
{ACAD_REACTORS
330
29EA
102
}
330
29EA
100
AcDbDictionary
  0
DICTIONARY
  5
7E14
102
{ACAD_REACTORS
330
7E13
102
}
330
7E13
100
AcDbDictionary
  3
ACDB_ANNOTATIONSCALES
350
7E15
  0
DICTIONARY
  5
77ED
102
{ACAD_REACTORS
330
77EC
102
}
330
77EC
100
AcDbDictionary
  3
ACDB_ANNOTATIONSCALES
350
77EE
  0
DICTIONARY
  5
77F3
102
{ACAD_REACTORS
330
77F2
102
}
330
77F2
100
AcDbDictionary
  3
ACDB_ANNOTATIONSCALES
350
77F4
  0
DICTIONARY
  5
7805
102
{ACAD_REACTORS
330
7804
102
}
330
7804
100
AcDbDictionary
  3
ACDB_ANNOTATIONSCALES
350
7806
  0
DICTIONARY
  5
7812
102
{ACAD_REACTORS
330
7811
102
}
330
7811
100
AcDbDictionary
  3
ACDB_ANNOTATIONSCALES
350
7813
  0
DICTIONARY
  5
73D9
102
{ACAD_REACTORS
330
73D8
102
}
330
73D8
100
AcDbDictionary
  3
ACDB_ANNOTATIONSCALES
350
73DA
  0
DICTIONARY
  5
73DC
102
{ACAD_REACTORS
330
73DB
102
}
330
73DB
100
AcDbDictionary
  3
ACDB_ANNOTATIONSCALES
350
73DD
  0
MATERIAL
  5
73D1
102
{ACAD_REACTORS
330
2947
102
}
102
{ACAD_XDICTIONARY
360
7E42
102
}
330
2947
100
AcDbMaterial
  1
BYBLOCK
  0
MATERIAL
  5
73D0
102
{ACAD_REACTORS
330
2947
102
}
102
{ACAD_XDICTIONARY
360
7E40
102
}
330
2947
100
AcDbMaterial
  1
BYLAYER
  0
MATERIAL
  5
5486
102
{ACAD_REACTORS
330
2947
102
}
102
{ACAD_XDICTIONARY
360
7E3E
102
}
330
2947
100
AcDbMaterial
  1
GLOBAL
  0
ACAD_PROXY_OBJECT
  5
73D5
102
{ACAD_REACTORS
330
73D4
102
}
330
73D4
100
AcDbProxyObject
 90
      499
 91
      508
 93
      610
310
40901902A4063FBFFFFFE0000000000000020400000000000020404214DD185B99185C990000000000000104090141901A00000000000004100000000000000041025764000000000000039000
340
14
340
0
340
10
340
0
 94
        0
1001
ACAD_MLEADERVER
1070
     2
  0
MLINESTYLE
  5
13
102
{ACAD_REACTORS
330
E
102
}
330
E
100
AcDbMlineStyle
  2
STANDARD
 70
     0
  3

 62
     0
 51
90.0
 52
90.0
 71
     2
 49
0.5
 62
   256
  6
BYLAYER
 49
-0.5
 62
   256
  6
BYLAYER
  0
ACAD_PROXY_OBJECT
  5
73AF
102
{ACAD_REACTORS
330
73AE
102
}
330
73AE
100
AcDbProxyObject
 90
      499
 91
      506
 93
       41
310
903313A31580
  0
ACAD_PROXY_OBJECT
  5
73B0
102
{ACAD_REACTORS
330
73AE
102
}
330
73AE
100
AcDbProxyObject
 90
      499
 91
      506
 93
      105
310
903313A324000000000000004000
  0
ACAD_PROXY_OBJECT
  5
73B1
102
{ACAD_REACTORS
330
73AE
102
}
330
73AE
100
AcDbProxyObject
 90
      499
 91
      506
 93
      105
310
903313A344000000000000104000
  0
ACAD_PROXY_OBJECT
  5
73B2
102
{ACAD_REACTORS
330
73AE
102
}
330
73AE
100
AcDbProxyObject
 90
      499
 91
      506
 93
      105
310
903313A354000000000000144000
  0
ACAD_PROXY_OBJECT
  5
73B3
102
{ACAD_REACTORS
330
73AE
102
}
330
73AE
100
AcDbProxyObject
 90
      499
 91
      506
 93
      105
310
903313A384000000000000204000
  0
ACAD_PROXY_OBJECT
  5
73B4
102
{ACAD_REACTORS
330
73AE
102
}
330
73AE
100
AcDbProxyObject
 90
      499
 91
      506
 93
      113
310
904313A31304000000000000244000
  0
ACAD_PROXY_OBJECT
  5
73B5
102
{ACAD_REACTORS
330
73AE
102
}
330
73AE
100
AcDbProxyObject
 90
      499
 91
      506
 93
      113
310
904313A31364000000000000304000
  0
ACAD_PROXY_OBJECT
  5
73B6
102
{ACAD_REACTORS
330
73AE
102
}
330
73AE
100
AcDbProxyObject
 90
      499
 91
      506
 93
      113
310
904313A32304000000000000344000
  0
ACAD_PROXY_OBJECT
  5
73B7
102
{ACAD_REACTORS
330
73AE
102
}
330
73AE
100
AcDbProxyObject
 90
      499
 91
      506
 93
      113
310
904313A333040000000000003E4000
  0
ACAD_PROXY_OBJECT
  5
73B8
102
{ACAD_REACTORS
330
73AE
102
}
330
73AE
100
AcDbProxyObject
 90
      499
 91
      506
 93
      113
310
904313A34304000000000000444000
  0
ACAD_PROXY_OBJECT
  5
73B9
102
{ACAD_REACTORS
330
73AE
102
}
330
73AE
100
AcDbProxyObject
 90
      499
 91
      506
 93
      113
310
904313A35304000000000000494000
  0
ACAD_PROXY_OBJECT
  5
73BA
102
{ACAD_REACTORS
330
73AE
102
}
330
73AE
100
AcDbProxyObject
 90
      499
 91
      506
 93
      121
310
905313A3130304000000000000594000
  0
ACAD_PROXY_OBJECT
  5
73BB
102
{ACAD_REACTORS
330
73AE
102
}
330
73AE
100
AcDbProxyObject
 90
      499
 91
      506
 93
      105
310
903323A310000000000000010100
  0
ACAD_PROXY_OBJECT
  5
73BC
102
{ACAD_REACTORS
330
73AE
102
}
330
73AE
100
AcDbProxyObject
 90
      499
 91
      506
 93
      105
310
903343A310000000000000410100
  0
ACAD_PROXY_OBJECT
  5
73BD
102
{ACAD_REACTORS
330
73AE
102
}
330
73AE
100
AcDbProxyObject
 90
      499
 91
      506
 93
      105
310
903383A310000000000000810100
  0
ACAD_PROXY_OBJECT
  5
73BE
102
{ACAD_REACTORS
330
73AE
102
}
330
73AE
100
AcDbProxyObject
 90
      499
 91
      506
 93
      113
310
90431303A310000000000000910100
  0
ACAD_PROXY_OBJECT
  5
73BF
102
{ACAD_REACTORS
330
73AE
102
}
330
73AE
100
AcDbProxyObject
 90
      499
 91
      506
 93
      121
310
9053130303A310000000000001650100
  0
ACAD_PROXY_OBJECT
  5
73C0
102
{ACAD_REACTORS
330
73AE
102
}
330
73AE
100
AcDbProxyObject
 90
      499
 91
      506
 93
      257
310
90E312F31323822203D2031272D3022000000000000200FC000000000000284000
  0
ACAD_PROXY_OBJECT
  5
73C1
102
{ACAD_REACTORS
330
73AE
102
}
330
73AE
100
AcDbProxyObject
 90
      499
 91
      506
 93
      249
310
90D312F363422203D2031272D3022000000000000240FC000000000000284000
  0
ACAD_PROXY_OBJECT
  5
73C2
102
{ACAD_REACTORS
330
73AE
102
}
330
73AE
100
AcDbProxyObject
 90
      499
 91
      506
 93
      249
310
90D312F333222203D2031272D3022000000000000280FC000000000000284000
  0
ACAD_PROXY_OBJECT
  5
73C3
102
{ACAD_REACTORS
330
73AE
102
}
330
73AE
100
AcDbProxyObject
 90
      499
 91
      506
 93
      249
310
90D312F313622203D2031272D30220000000000002C0FC000000000000284000
  0
ACAD_PROXY_OBJECT
  5
73C4
102
{ACAD_REACTORS
330
73AE
102
}
330
73AE
100
AcDbProxyObject
 90
      499
 91
      506
 93
      249
310
90D332F333222203D2031272D30220000000000002E0FC000000000000284000
  0
ACAD_PROXY_OBJECT
  5
73C5
102
{ACAD_REACTORS
330
73AE
102
}
330
73AE
100
AcDbProxyObject
 90
      499
 91
      506
 93
      241
310
90C312F3822203D2031272D3022000000000000300FC000000000000284000
  0
ACAD_PROXY_OBJECT
  5
73C6
102
{ACAD_REACTORS
330
73AE
102
}
330
73AE
100
AcDbProxyObject
 90
      499
 91
      506
 93
      249
310
90D332F313622203D2031272D3022000000000000320FC000000000000284000
  0
ACAD_PROXY_OBJECT
  5
73C7
102
{ACAD_REACTORS
330
73AE
102
}
330
73AE
100
AcDbProxyObject
 90
      499
 91
      506
 93
      241
310
90C312F3422203D2031272D3022000000000000340FC000000000000284000
  0
ACAD_PROXY_OBJECT
  5
73C8
102
{ACAD_REACTORS
330
73AE
102
}
330
73AE
100
AcDbProxyObject
 90
      499
 91
      506
 93
      241
310
90C332F3822203D2031272D3022000000000000360FC000000000000284000
  0
ACAD_PROXY_OBJECT
  5
73C9
102
{ACAD_REACTORS
330
73AE
102
}
330
73AE
100
AcDbProxyObject
 90
      499
 91
      506
 93
      241
310
90C312F3222203D2031272D3022000000000000380FC000000000000284000
  0
ACAD_PROXY_OBJECT
  5
73CA
102
{ACAD_REACTORS
330
73AE
102
}
330
73AE
100
AcDbProxyObject
 90
      499
 91
      506
 93
      241
310
90C332F3422203D2031272D30220000000000003A0FC000000000000284000
  0
ACAD_PROXY_OBJECT
  5
73CB
102
{ACAD_REACTORS
330
73AE
102
}
330
73AE
100
AcDbProxyObject
 90
      499
 91
      506
 93
      161
310
90A3122203D2031272D30224000000000000284000
  0
ACAD_PROXY_OBJECT
  5
73CC
102
{ACAD_REACTORS
330
73AE
102
}
330
73AE
100
AcDbProxyObject
 90
      499
 91
      506
 93
      257
310
90E312D312F3222203D2031272D30220000000000003E0FC000000000000284000
  0
ACAD_PROXY_OBJECT
  5
73CD
102
{ACAD_REACTORS
330
73AE
102
}
330
73AE
100
AcDbProxyObject
 90
      499
 91
      506
 93
      225
310
90A3322203D2031272D302200000000000002100000000000000284000
  0
ACAD_PROXY_OBJECT
  5
73CE
102
{ACAD_REACTORS
330
73AE
102
}
330
73AE
100
AcDbProxyObject
 90
      499
 91
      506
 93
      225
310
90A3622203D2031272D302200000000000006100000000000000284000
  0
ACAD_PROXY_OBJECT
  5
73CF
102
{ACAD_REACTORS
330
73AE
102
}
330
73AE
100
AcDbProxyObject
 90
      499
 91
      506
 93
      249
310
90D31272D3022203D2031272D30220000000000000A100000000000000284000
  0
ACAD_PROXY_OBJECT
  5
739A
102
{ACAD_REACTORS
330
7395
102
}
330
7395
100
AcDbProxyObject
 90
      499
 91
      505
 93
      436
310
42CC9915DA5C99599C985B595049028333333333333E33F0000000000000F90107901411070040501600405405064090741402480A0340
1001
ACAD
1000
AcDbSavedByObjectVersion
1070
     0
  0
ACAD_PROXY_OBJECT
  5
739D
102
{ACAD_REACTORS
330
7395
102
}
330
7395
100
AcDbProxyObject
 90
      499
 91
      505
 93
      388
310
4150985CDA58D07406404333333333333E33F0000000000000F90107A41107004050150841D405064090741402480A0350
1001
ACAD
1000
AcDbSavedByObjectVersion
1070
     0
  0
ACAD_PROXY_OBJECT
  5
73A1
102
{ACAD_REACTORS
330
7395
102
}
330
7395
100
AcDbProxyObject
 90
      499
 91
      505
 93
      428
310
42109C9A59DA1D195B90C409028333333333333E33F0000000000000F9010790141107004050150841D405064090741402480A029950
1001
ACAD
1000
AcDbSavedByObjectVersion
1070
     0
  0
ACAD_PROXY_OBJECT
  5
73A5
102
{ACAD_REACTORS
330
7395
102
}
330
7395
100
AcDbProxyObject
 90
      499
 91
      505
 93
      452
310
42D0DBDB1BDC90DA185B99D95104090240C333333333333E33F0000000000000F90108901411070040501508421405064090741402480A0350
1001
ACAD
1000
AcDbSavedByObjectVersion
1070
     0
  0
ACAD_PROXY_OBJECT
  5
739F
102
{ACAD_REACTORS
330
7395
102
}
330
7395
100
AcDbProxyObject
 90
      499
 91
      505
 93
      500
310
4290DBDB98D95C1D1D585B10940D028333333333333E33F0000000000000F90107902409070040501000000000018199010841D405064090740C02480A0340
1001
ACAD
1000
AcDbSavedByObjectVersion
1070
     0
  0
ACAD_PROXY_OBJECT
  5
73A0
102
{ACAD_REACTORS
330
7395
102
}
330
7395
100
AcDbProxyObject
 90
      499
 91
      505
 93
      412
310
40D11A5B50B409028333333333333E33F0000000000000F9010790141107004050150841D405064090741402480A02677FFFFFD0
1001
ACAD
1000
AcDbSavedByObjectVersion
1070
     0
  0
ACAD_PROXY_OBJECT
  5
73A8
102
{ACAD_REACTORS
330
7395
102
}
330
7395
100
AcDbProxyObject
 90
      499
 91
      505
 93
      452
310
43115919D950DBDB1BDC93D999916409028333333333333E33F0000000000000F9010790141107004050150841D405064090741402480A0350
1001
ACAD
1000
AcDbSavedByObjectVersion
1070
     0
  0
ACAD_PROXY_OBJECT
  5
73A4
102
{ACAD_REACTORS
330
7395
102
}
330
7395
100
AcDbProxyObject
 90
      499
 91
      505
 93
      444
310
42D19858D95C185D1D195C9B90F409028333333333333E33F0000000000000F9010790141107004050150841D405064090741402480A0350
1001
ACAD
1000
AcDbSavedByObjectVersion
1070
     0
  0
ACAD_PROXY_OBJECT
  5
7396
102
{ACAD_REACTORS
330
7395
102
}
330
7395
100
AcDbProxyObject
 90
      499
 91
      505
 93
      380
310
41119B185D240901404333333333333E33F0000000000000F9010740A907004050150841D405064090741402480A1B50
1001
ACAD
1000
AcDbSavedByObjectVersion
1070
     0
  0
ACAD_PROXY_OBJECT
  5
7397
102
{ACAD_REACTORS
330
7395
102
}
330
7395
100
AcDbProxyObject
 90
      499
 91
      505
 93
      468
310
43519B185D15DA5D1A115919D95CD0140901404333333333333E33F0000000000000F90107409019070040501600405405064090741402480A1B50
1001
ACAD
1000
AcDbSavedByObjectVersion
1070
     0
  0
ACAD_PROXY_OBJECT
  5
7398
102
{ACAD_REACTORS
330
7395
102
}
330
7395
100
AcDbProxyObject
 90
      499
 91
      505
 93
      404
310
41D1DBDD5C985D5910240902404333333333333E33F0000000000000F9010740A9070040501641D405064090741402480A1B50
1001
ACAD
1000
AcDbSavedByObjectVersion
1070
     0
  0
ACAD_PROXY_OBJECT
  5
7399
102
{ACAD_REACTORS
330
7395
102
}
330
7395
100
AcDbProxyObject
 90
      499
 91
      505
 93
      492
310
4411DBDD5C985D5915DA5D1A115919D95CD0340902404333333333333E33F0000000000000F90107409019070040501600405405064090741402480A1B50
1001
ACAD
1000
AcDbSavedByObjectVersion
1070
     0
  0
ACAD_PROXY_OBJECT
  5
739C
102
{ACAD_REACTORS
330
7395
102
}
330
7395
100
AcDbProxyObject
 90
      499
 91
      505
 93
      476
310
41921A5919195B90640502408333333333333E33F0000000000000F901079024090700405020000000000001110200405405064090740C02480A0340
1001
ACAD
1000
AcDbSavedByObjectVersion
1070
     0
  0
ACAD_PROXY_OBJECT
  5
73A6
102
{ACAD_REACTORS
330
7395
102
}
330
7395
100
AcDbProxyObject
 90
      499
 91
      505
 93
      428
310
42529A5D1D195C93D999914409028333333333333E33F0000000000000F9010790141107004050150A41D405064090741402480A0350
1001
ACAD
1000
AcDbSavedByObjectVersion
1070
     0
  0
ACAD_PROXY_OBJECT
  5
73A3
102
{ACAD_REACTORS
330
7395
102
}
330
7395
100
AcDbProxyObject
 90
      499
 91
      505
 93
      444
310
42D31A5B995C185D1D195C9B90E409028333333333333E33F0000000000000F9010790141107004050750841D405064090741402483A0350
1001
ACAD
1000
AcDbSavedByObjectVersion
1070
     0
  0
ACAD_PROXY_OBJECT
  5
73A7
102
{ACAD_REACTORS
330
7395
102
}
330
7395
100
AcDbProxyObject
 90
      499
 91
      505
 93
      444
310
42D3DD995C9A185B99D3D999915409028333333333333E33F0000000000000F9010790141107004050150941D405064090741402480A0350
1001
ACAD
1000
AcDbSavedByObjectVersion
1070
     0
  0
ACAD_PROXY_OBJECT
  5
739E
102
{ACAD_REACTORS
330
7395
102
}
330
7395
100
AcDbProxyObject
 90
      499
 91
      505
 93
      428
310
425499585B1A5CDD1A58D08409038333333333333E33F0000000000000F9010740A907004050150800405405064090740C02480A1B40
1001
ACAD
1000
AcDbSavedByObjectVersion
1070
     0
  0
ACAD_PROXY_OBJECT
  5
73AD
102
{ACAD_REACTORS
330
7395
102
}
330
7395
100
AcDbProxyObject
 90
      499
 91
      505
 93
      420
310
4194DA1859195911B40902404333333333333E33F0000000000000F9010740A41107004050150800405405064090840C02480A0B40
1001
ACAD
1000
AcDbSavedByObjectVersion
1070
     0
  0
ACAD_PROXY_OBJECT
  5
73AC
102
{ACAD_REACTORS
330
7395
102
}
330
7395
100
AcDbProxyObject
 90
      499
 91
      505
 93
      516
310
4454DA18591959081DDA5D1A08195919D95CD1A40902404333333333333E33F0000000000000F901074090142907004050250800405405064090740C02480A0B40
1001
ACAD
1000
AcDbSavedByObjectVersion
1070
     0
  0
ACAD_PROXY_OBJECT
  5
73A9
102
{ACAD_REACTORS
330
7395
102
}
330
7395
100
AcDbProxyObject
 90
      499
 91
      505
 93
      532
310
4394DA1859195CC81BD98811DC985E5174090240C333333333333E33F0000000000000F901079024090741D01000000000000111010841D405064090740C02480A0340
1001
ACAD
1000
AcDbSavedByObjectVersion
1070
     0
  0
ACAD_PROXY_OBJECT
  5
73AA
102
{ACAD_REACTORS
330
7395
102
}
330
7395
100
AcDbProxyObject
 90
      499
 91
      505
 93
      476
310
41D4DAD95D18DA1E51840502408333333333333E33F0000000000000F901079024090741D01000000000000111010B41D405064090741802480A0340
1001
ACAD
1000
AcDbSavedByObjectVersion
1070
     0
  0
ACAD_PROXY_OBJECT
  5
73A2
102
{ACAD_REACTORS
330
7395
102
}
330
7395
100
AcDbProxyObject
 90
      499
 91
      505
 93
      412
310
41D51A1A58DAD95B90D409028333333333333E33F0000000000000F9010790141107004050150C41D405064090741402480A0350
1001
ACAD
1000
AcDbSavedByObjectVersion
1070
     0
  0
ACAD_PROXY_OBJECT
  5
739B
102
{ACAD_REACTORS
330
7395
102
}
330
7395
100
AcDbProxyObject
 90
      499
 91
      505
 93
      420
310
4255DA5C99599C985B595059028333333333333E33F0000000000000F90107901411070040501600405405064090740C02480A0340
1001
ACAD
1000
AcDbSavedByObjectVersion
1070
     0
  0
ACAD_PROXY_OBJECT
  5
73AB
102
{ACAD_REACTORS
330
7395
102
}
330
7395
100
AcDbProxyObject
 90
      499
 91
      505
 93
      404
310
41560B54985E51940902404000000000000E03F0000000000000F9010740501907004050150841D405064090740C02480A1B40
1001
ACAD
1000
AcDbSavedByObjectVersion
1070
     0
  0
XRECORD
  5
7E20
102
{ACAD_REACTORS
330
7E16
102
}
330
7E16
100
AcDbXrecord
340
0
  0
XRECORD
  5
7E1F
102
{ACAD_REACTORS
330
7E16
102
}
330
7E16
100
AcDbXrecord
 90
        0
  0
XRECORD
  5
7E39
102
{ACAD_REACTORS
330
7E16
102
}
330
7E16
100
AcDbXrecord
340
2948
  0
XRECORD
  5
7E36
102
{ACAD_REACTORS
330
7E16
102
}
330
7E16
100
AcDbXrecord
1000
DSTYLE
1002
{
1070
   171
 70
     2
1070
   143
 40
0.0394
1070
   274
 70
     2
1070
    41
 40
6.0
1070
   342
340
2AF4
1070
   271
 70
     1
1070
   278
 70
    46
1070
   341
340
2AF4
1070
   272
 70
     1
1070
    48
 40
0.1
1070
   283
 70
     1
1070
    47
 40
0.1
1070
   145
 40
1.0
1070
   340
340
10
1070
   140
 40
8.0
1070
   284
 70
     0
1002
}
  0
XRECORD
  5
7E21
102
{ACAD_REACTORS
330
7E16
102
}
330
7E16
100
AcDbXrecord
  1
{23698909-1D67-4744-B0E2-8DE11E3ED422}
  0
XRECORD
  5
7E19
102
{ACAD_REACTORS
330
7E16
102
}
330
7E16
100
AcDbXrecord
  1

  0
XRECORD
  5
7E1E
102
{ACAD_REACTORS
330
7E16
102
}
330
7E16
100
AcDbXrecord
 90
        0
  0
XRECORD
  5
7E1B
102
{ACAD_REACTORS
330
7E16
102
}
330
7E16
100
AcDbXrecord
340
2816
  0
XRECORD
  5
7E1D
102
{ACAD_REACTORS
330
7E16
102
}
330
7E16
100
AcDbXrecord
 90
    10781
  0
XRECORD
  5
7E3A
102
{ACAD_REACTORS
330
7E16
102
}
330
7E16
100
AcDbXrecord
340
2947
  0
XRECORD
  5
7E1C
102
{ACAD_REACTORS
330
7E16
102
}
330
7E16
100
AcDbXrecord
340
2817
  0
XRECORD
  5
7E23
102
{ACAD_REACTORS
330
7E16
102
}
330
7E16
100
AcDbXrecord
 40
0.25
  0
XRECORD
  5
7E26
102
{ACAD_REACTORS
330
7E16
102
}
330
7E16
100
AcDbXrecord
340
0
  0
XRECORD
  5
7E2C
102
{ACAD_REACTORS
330
7E16
102
}
330
7E16
100
AcDbXrecord
 10
0.0
 20
0.0
 30
0.0
  0
XRECORD
  5
7E28
102
{ACAD_REACTORS
330
7E16
102
}
330
7E16
100
AcDbXrecord
 10
0.0
 20
0.0
 30
0.0
  0
XRECORD
  5
7E2B
102
{ACAD_REACTORS
330
7E16
102
}
330
7E16
100
AcDbXrecord
 10
0.0
 20
0.0
 30
0.0
  0
XRECORD
  5
7E29
102
{ACAD_REACTORS
330
7E16
102
}
330
7E16
100
AcDbXrecord
 10
0.0
 20
0.0
 30
0.0
  0
XRECORD
  5
7E2A
102
{ACAD_REACTORS
330
7E16
102
}
330
7E16
100
AcDbXrecord
 10
0.0
 20
0.0
 30
0.0
  0
XRECORD
  5
7E27
102
{ACAD_REACTORS
330
7E16
102
}
330
7E16
100
AcDbXrecord
 10
0.0
 20
0.0
 30
0.0
  0
XRECORD
  5
7E24
102
{ACAD_REACTORS
330
7E16
102
}
330
7E16
100
AcDbXrecord
340
0
  0
XRECORD
  5
7E25
102
{ACAD_REACTORS
330
7E16
102
}
330
7E16
100
AcDbXrecord
 70
     0
  0
XRECORD
  5
7E1A
102
{ACAD_REACTORS
330
7E16
102
}
330
7E16
100
AcDbXrecord
  1

  0
XRECORD
  5
7E17
102
{ACAD_REACTORS
330
7E16
102
}
330
7E16
100
AcDbXrecord
 90
        1
  0
XRECORD
  5
7E18
102
{ACAD_REACTORS
330
7E16
102
}
330
7E16
100
AcDbXrecord
 90
       70
  0
XRECORD
  5
7E2F
102
{ACAD_REACTORS
330
7E16
102
}
330
7E16
100
AcDbXrecord
340
0
  0
XRECORD
  5
7E35
102
{ACAD_REACTORS
330
7E16
102
}
330
7E16
100
AcDbXrecord
 10
0.0
 20
0.0
 30
0.0
  0
XRECORD
  5
7E31
102
{ACAD_REACTORS
330
7E16
102
}
330
7E16
100
AcDbXrecord
 10
0.0
 20
0.0
 30
0.0
  0
XRECORD
  5
7E34
102
{ACAD_REACTORS
330
7E16
102
}
330
7E16
100
AcDbXrecord
 10
0.0
 20
0.0
 30
0.0
  0
XRECORD
  5
7E32
102
{ACAD_REACTORS
330
7E16
102
}
330
7E16
100
AcDbXrecord
 10
0.0
 20
0.0
 30
0.0
  0
XRECORD
  5
7E33
102
{ACAD_REACTORS
330
7E16
102
}
330
7E16
100
AcDbXrecord
 10
0.0
 20
0.0
 30
0.0
  0
XRECORD
  5
7E30
102
{ACAD_REACTORS
330
7E16
102
}
330
7E16
100
AcDbXrecord
 10
0.0
 20
0.0
 30
0.0
  0
XRECORD
  5
7E2D
102
{ACAD_REACTORS
330
7E16
102
}
330
7E16
100
AcDbXrecord
340
0
  0
XRECORD
  5
7E2E
102
{ACAD_REACTORS
330
7E16
102
}
330
7E16
100
AcDbXrecord
 70
     0
  0
XRECORD
  5
7E22
102
{ACAD_REACTORS
330
7E16
102
}
330
7E16
100
AcDbXrecord
  1
{F348A531-B8D2-4EDF-B6C7-C92C67A78485}
  0
DICTIONARYVAR
  5
78C1
102
{ACAD_REACTORS
330
78C0
102
}
330
78C0
100
DictionaryVariables
280
     0
  1
1:1
  0
DICTIONARYVAR
  5
78C3
102
{ACAD_REACTORS
330
78C0
102
}
330
78C0
100
DictionaryVariables
280
     0
  1
Standard
  0
DICTIONARYVAR
  5
78C2
102
{ACAD_REACTORS
330
78C0
102
}
330
78C0
100
DictionaryVariables
280
     0
  1
Standard
  0
DICTIONARYVAR
  5
7E37
102
{ACAD_REACTORS
330
78C0
102
}
330
78C0
100
DictionaryVariables
280
     0
  1
1
  0
DICTIONARYVAR
  5
7E38
102
{ACAD_REACTORS
330
78C0
102
}
330
78C0
100
DictionaryVariables
280
     0
  1
0
  0
DICTIONARYVAR
  5
78C4
102
{ACAD_REACTORS
330
78C0
102
}
330
78C0
100
DictionaryVariables
280
     0
  1
0
  0
DICTIONARYVAR
  5
78C5
102
{ACAD_REACTORS
330
78C0
102
}
330
78C0
100
DictionaryVariables
280
     0
  1
0
  0
DICTIONARY
  5
7E15
102
{ACAD_REACTORS
330
7E14
102
}
330
7E14
100
AcDbDictionary
  0
DICTIONARY
  5
77EE
102
{ACAD_REACTORS
330
77ED
102
}
330
77ED
100
AcDbDictionary
  0
DICTIONARY
  5
77F4
102
{ACAD_REACTORS
330
77F3
102
}
330
77F3
100
AcDbDictionary
  0
DICTIONARY
  5
7806
102
{ACAD_REACTORS
330
7805
102
}
330
7805
100
AcDbDictionary
  0
DICTIONARY
  5
7813
102
{ACAD_REACTORS
330
7812
102
}
330
7812
100
AcDbDictionary
  0
DICTIONARY
  5
73DA
102
{ACAD_REACTORS
330
73D9
102
}
330
73D9
100
AcDbDictionary
  0
DICTIONARY
  5
73DD
102
{ACAD_REACTORS
330
73DC
102
}
330
73DC
100
AcDbDictionary
  0
DICTIONARY
  5
7E42
330
73D1
100
AcDbDictionary
280
     1
  3
ACAD_XREC_ROUNDTRIP
360
7E43
  0
DICTIONARY
  5
7E40
330
73D0
100
AcDbDictionary
280
     1
  3
ACAD_XREC_ROUNDTRIP
360
7E41
  0
DICTIONARY
  5
7E3E
330
5486
100
AcDbDictionary
280
     1
  3
ACAD_XREC_ROUNDTRIP
360
7E3F
  0
XRECORD
  5
7E43
102
{ACAD_REACTORS
330
7E42
102
}
330
7E42
100
AcDbXrecord
102
MATERIAL
148
0.0
149
0.0
149
0.0
 93
        0
 94
      127
282
     0
 72
     1
 77
     1
171
     1
175
     1
179
     1
273
     0
  0
XRECORD
  5
7E41
102
{ACAD_REACTORS
330
7E40
102
}
330
7E40
100
AcDbXrecord
102
MATERIAL
148
0.0
149
0.0
149
0.0
 93
        0
 94
      127
282
     0
 72
     1
 77
     1
171
     1
175
     1
179
     1
273
     0
  0
XRECORD
  5
7E3F
102
{ACAD_REACTORS
330
7E3E
102
}
330
7E3E
100
AcDbXrecord
102
MATERIAL
148
0.0
149
0.0
149
0.0
 93
        0
 94
      127
282
     0
 72
     1
 77
     1
171
     1
175
     1
179
     1
273
     0
  0
ENDSEC
  0
EOF
