  0
SECTION
  2
HEADER
  9
$ACADVER
  1
AC1014
  9
$ACADMAINTVER
 70
     9
  9
$DWGCODEPAGE
  3
ANSI_932
  9
$INSBASE
 10
0.0
 20
0.0
 30
0.0
  9
$EXTMIN
 10
-64.649414730735
 20
190.562237322053
 30
0.0
  9
$EXTMAX
 10
914.708889280789
 20
741.58573293451
 30
0.0
  9
$LIMMIN
 10
-360.747566795242
 20
4.457354754526
  9
$LIMMAX
 10
-162.153696144267
 20
287.675440264018
  9
$ORTHOMODE
 70
     0
  9
$REGENMODE
 70
     1
  9
$FILLMODE
 70
     1
  9
$QTEXTMODE
 70
     0
  9
$MIRRTEXT
 70
     1
  9
$DRAGMODE
 70
     2
  9
$LTSCALE
 40
1.0
  9
$OSMODE
 70
    32
  9
$ATTMODE
 70
     1
  9
$TEXTSIZE
 40
2.333873885063
  9
$TRACEWID
 40
1.0
  9
$TEXTSTYLE
  7
STANDARD
  9
$CLAYER
  8
細線
  9
$CELTYPE
  6
BYLAYER
  9
$CECOLOR
 62
   256
  9
$CELTSCALE
 40
10.0
  9
$DELOBJ
 70
     1
  9
$DISPSILH
 70
     0
  9
$DIMSCALE
 40
1.0
  9
$DIMASZ
 40
6.0
  9
$DIMEXO
 40
0.625
  9
$DIMDLI
 40
3.75
  9
$DIMRND
 40
0.0
  9
$DIMDLE
 40
0.0
  9
$DIMEXE
 40
1.25
  9
$DIMTP
 40
0.1
  9
$DIMTM
 40
0.1
  9
$DIMTXT
 40
8.0
  9
$DIMCEN
 40
2.5
  9
$DIMTSZ
 40
0.0
  9
$DIMTOL
 70
     0
  9
$DIMLIM
 70
     0
  9
$DIMTIH
 70
     0
  9
$DIMTOH
 70
     0
  9
$DIMSE1
 70
     0
  9
$DIMSE2
 70
     0
  9
$DIMTAD
 70
     1
  9
$DIMZIN
 70
     8
  9
$DIMBLK
  1
OPEN30
  9
$DIMASO
 70
     1
  9
$DIMSHO
 70
     1
  9
$DIMPOST
  1

  9
$DIMAPOST
  1

  9
$DIMALT
 70
     0
  9
$DIMALTD
 70
     2
  9
$DIMALTF
 40
0.0394
  9
$DIMLFAC
 40
1.0
  9
$DIMTOFL
 70
     1
  9
$DIMTVP
 40
1.0
  9
$DIMTIX
 70
     0
  9
$DIMSOXD
 70
     0
  9
$DIMSAH
 70
     0
  9
$DIMBLK1
  1

  9
$DIMBLK2
  1

  9
$DIMSTYLE
  2
ISO-25
  9
$DIMCLRD
 70
     0
  9
$DIMCLRE
 70
     0
  9
$DIMCLRT
 70
     0
  9
$DIMTFAC
 40
1.0
  9
$DIMGAP
 40
0.625
  9
$DIMJUST
 70
     0
  9
$DIMSD1
 70
     0
  9
$DIMSD2
 70
     0
  9
$DIMTOLJ
 70
     1
  9
$DIMTZIN
 70
     0
  9
$DIMALTZ
 70
     0
  9
$DIMALTTZ
 70
     0
  9
$DIMFIT
 70
     3
  9
$DIMUPT
 70
     0
  9
$DIMUNIT
 70
     2
  9
$DIMDEC
 70
     1
  9
$DIMTDEC
 70
     1
  9
$DIMALTU
 70
     2
  9
$DIMALTTD
 70
     2
  9
$DIMTXSTY
  7
STANDARD
  9
$DIMAUNIT
 70
     0
  9
$LUNITS
 70
     2
  9
$LUPREC
 70
     4
  9
$SKETCHINC
 40
1.0
  9
$FILLETRAD
 40
5.0
  9
$AUNITS
 70
     0
  9
$AUPREC
 70
     0
  9
$MENU
  1
.
  9
$ELEVATION
 40
0.0
  9
$PELEVATION
 40
0.0
  9
$THICKNESS
 40
0.0
  9
$LIMCHECK
 70
     0
  9
$CHAMFERA
 40
10.0
  9
$CHAMFERB
 40
10.0
  9
$CHAMFERC
 40
20.0
  9
$CHAMFERD
 40
0.0
  9
$SKPOLY
 70
     0
  9
$TDCREATE
 40
2450576.597302431
  9
$TDUPDATE
 40
2457193.659956296
  9
$TDINDWG
 40
1.3943890972
  9
$TDUSRTIMER
 40
1.3943890972
  9
$USRTIMER
 70
     1
  9
$ANGBASE
 50
0.0
  9
$ANGDIR
 70
     0
  9
$PDMODE
 70
     0
  9
$PDSIZE
 40
0.0
  9
$PLINEWID
 40
0.0
  9
$COORDS
 70
     1
  9
$SPLFRAME
 70
     0
  9
$SPLINETYPE
 70
     6
  9
$SPLINESEGS
 70
     8
  9
$ATTDIA
 70
     0
  9
$ATTREQ
 70
     1
  9
$HANDLING
 70
     1
  9
$HANDSEED
  5
8D48
  9
$SURFTAB1
 70
     6
  9
$SURFTAB2
 70
     6
  9
$SURFTYPE
 70
     6
  9
$SURFU
 70
     6
  9
$SURFV
 70
     6
  9
$UCSNAME
  2

  9
$UCSORG
 10
0.0
 20
0.0
 30
0.0
  9
$UCSXDIR
 10
1.0
 20
0.0
 30
0.0
  9
$UCSYDIR
 10
0.0
 20
1.0
 30
0.0
  9
$PUCSNAME
  2

  9
$PUCSORG
 10
0.0
 20
0.0
 30
0.0
  9
$PUCSXDIR
 10
1.0
 20
0.0
 30
0.0
  9
$PUCSYDIR
 10
0.0
 20
1.0
 30
0.0
  9
$USERI1
 70
     0
  9
$USERI2
 70
     0
  9
$USERI3
 70
     0
  9
$USERI4
 70
     0
  9
$USERI5
 70
     0
  9
$USERR1
 40
0.0
  9
$USERR2
 40
0.0
  9
$USERR3
 40
0.0
  9
$USERR4
 40
0.0
  9
$USERR5
 40
0.0
  9
$WORLDVIEW
 70
     1
  9
$SHADEDGE
 70
     3
  9
$SHADEDIF
 70
    70
  9
$TILEMODE
 70
     0
  9
$MAXACTVP
 70
    16
  9
$PINSBASE
 10
0.0
 20
0.0
 30
0.0
  9
$PLIMCHECK
 70
     0
  9
$PEXTMIN
 10
4.746305129083
 20
1.396645458131
 30
0.0
  9
$PEXTMAX
 10
404.746305129083
 20
281.396645458131
 30
0.0
  9
$PLIMMIN
 10
-6.946593322754
 20
-6.94658241272
  9
$PLIMMAX
 10
417.718108215332
 20
293.315276107788
  9
$UNITMODE
 70
     0
  9
$VISRETAIN
 70
     0
  9
$PLINEGEN
 70
     0
  9
$PSLTSCALE
 70
     1
  9
$TREEDEPTH
 70
  3020
  9
$PICKSTYLE
 70
     1
  9
$CMLSTYLE
  2
STANDARD
  9
$CMLJUST
 70
     0
  9
$CMLSCALE
 40
1.0
  9
$PROXYGRAPHICS
 70
     1
  9
$MEASUREMENT
 70
     1
  0
ENDSEC
  0
SECTION
  2
CLASSES
  0
CLASS
  1
ACDBDICTIONARYWDFLT
  2
AcDbDictionaryWithDefault
  3
ObjectDBX Classes
 90
        0
280
     0
281
     0
  0
CLASS
  1
ACDBPLACEHOLDER
  2
AcDbPlaceHolder
  3
ObjectDBX Classes
 90
        0
280
     0
281
     0
  0
CLASS
  1
LAYOUT
  2
AcDbLayout
  3
ObjectDBX Classes
 90
        0
280
     0
281
     0
  0
CLASS
  1
MATERIAL
  2
AcDbMaterial
  3
ObjectDBX Classes
 90
     1153
280
     0
281
     0
  0
CLASS
  1
SORTENTSTABLE
  2
AcDbSortentsTable
  3
ObjectDBX Classes
 90
        0
280
     0
281
     0
  0
CLASS
  1
VISUALSTYLE
  2
AcDbVisualStyle
  3
ObjectDBX Classes
 90
     4095
280
     0
281
     0
  0
CLASS
  1
SCALE
  2
AcDbScale
  3
ObjectDBX Classes
 90
     1153
280
     0
281
     0
  0
CLASS
  1
TABLESTYLE
  2
AcDbTableStyle
  3
ObjectDBX Classes
 90
     4095
280
     0
281
     0
  0
CLASS
  1
MLEADERSTYLE
  2
AcDbMLeaderStyle
  3
ACDB_MLEADERSTYLE_CLASS
 90
     4095
280
     0
281
     0
  0
CLASS
  1
SUN
  2
AcDbSun
  3
SCENEOE
 90
     1153
280
     0
281
     0
  0
CLASS
  1
DICTIONARYVAR
  2
AcDbDictionaryVar
  3
ObjectDBX Classes
 90
        0
280
     0
281
     0
  0
CLASS
  1
XRECORD
  2
AcDbXrecord
  3
ObjectDBX Classes
 90
        0
280
     0
281
     0
  0
CLASS
  1
LWPOLYLINE
  2
AcDbPolyline
  3
ObjectDBX Classes
 90
        0
280
     0
281
     1
  0
CLASS
  1
HATCH
  2
AcDbHatch
  3
ObjectDBX Classes
 90
        0
280
     0
281
     1
  0
ENDSEC
  0
SECTION
  2
TABLES
  0
TABLE
  2
VPORT
  5
8
102
{ACAD_XDICTIONARY
360
8D3F
102
}
330
0
100
AcDbSymbolTable
 70
     2
  0
VPORT
  5
7DE3
330
8
100
AcDbSymbolTableRecord
100
AcDbViewportTableRecord
  2
*ACTIVE
 70
     0
 10
0.0
 20
0.0
 11
1.0
 21
1.0
 12
703.73608975379
 22
388.610941935822
 13
0.0
 23
0.0
 14
1.0
 24
1.0
 15
0.0
 25
0.0
 16
0.0
 26
0.0
 36
1.0
 17
0.0
 27
0.0
 37
0.0
 40
547.133395740674
 41
1.56746031746
 42
50.0
 43
0.0
 44
0.0
 50
0.0
 51
0.0
 71
    16
 72
   100
 73
     1
 74
     0
 75
     0
 76
     0
 77
     0
 78
     0
  0
ENDTAB
  0
TABLE
  2
LTYPE
  5
5
330
0
100
AcDbSymbolTable
 70
     5
  0
LTYPE
  5
14
330
5
100
AcDbSymbolTableRecord
100
AcDbLinetypeTableRecord
  2
BYBLOCK
 70
     0
  3

 72
    65
 73
     0
 40
0.0
  0
LTYPE
  5
15
330
5
100
AcDbSymbolTableRecord
100
AcDbLinetypeTableRecord
  2
BYLAYER
 70
     0
  3

 72
    65
 73
     0
 40
0.0
  0
LTYPE
  5
16
330
5
100
AcDbSymbolTableRecord
100
AcDbLinetypeTableRecord
  2
CONTINUOUS
 70
     0
  3
Solid line
 72
    65
 73
     0
 40
0.0
  0
LTYPE
  5
1EC
330
5
100
AcDbSymbolTableRecord
100
AcDbLinetypeTableRecord
  2
CENTER
 70
     0
  3
____ _ ____ _ ____ _ ____ _ ____ _ ____ _ ____ 
 72
    65
 73
     4
 40
2.0
 49
1.25
 74
     0
 49
-0.25
 74
     0
 49
0.25
 74
     0
 49
-0.25
 74
     0
  0
LTYPE
  5
1ED
330
5
100
AcDbSymbolTableRecord
100
AcDbLinetypeTableRecord
  2
DASHED
 70
     0
  3
__ __ __ __ __ __ __ __ __ __ __ __ __ __ __ __
 72
    65
 73
     2
 40
0.75
 49
0.5
 74
     0
 49
-0.25
 74
     0
  0
LTYPE
  5
2B1F
330
5
100
AcDbSymbolTableRecord
100
AcDbLinetypeTableRecord
  2
DASHDOT
 70
     0
  3
一点鎖線
 72
    65
 73
     4
 40
25.6
 49
20.0
 74
     0
 49
-2.0
 74
     0
 49
1.6
 74
     0
 49
-2.0
 74
     0
  0
LTYPE
  5
34F8
330
5
100
AcDbSymbolTableRecord
100
AcDbLinetypeTableRecord
  2
DIVIDE
 70
     0
  3
二点鎖線
 72
    65
 73
     6
 40
31.2
 49
20.0
 74
     0
 49
-2.4
 74
     0
 49
2.0
 74
     0
 49
-2.4
 74
     0
 49
2.0
 74
     0
 49
-2.4
 74
     0
  0
ENDTAB
  0
TABLE
  2
LAYER
  5
2
102
{ACAD_XDICTIONARY
360
29EA
102
}
330
0
100
AcDbSymbolTable
 70
    14
  0
LAYER
  5
F
330
2
100
AcDbSymbolTableRecord
100
AcDbLayerTableRecord
  2
0
 70
     0
 62
     7
  6
CONTINUOUS
  0
LAYER
  5
61
330
2
100
AcDbSymbolTableRecord
100
AcDbLayerTableRecord
  2
図枠太線
 70
     0
 62
   251
  6
CONTINUOUS
  0
LAYER
  5
62
330
2
100
AcDbSymbolTableRecord
100
AcDbLayerTableRecord
  2
図枠細線
 70
     0
 62
   252
  6
CONTINUOUS
  0
LAYER
  5
63
330
2
100
AcDbSymbolTableRecord
100
AcDbLayerTableRecord
  2
図枠ロゴマーク
 70
     0
 62
   253
  6
CONTINUOUS
  0
LAYER
  5
1EF
330
2
100
AcDbSymbolTableRecord
100
AcDbLayerTableRecord
  2
外形線
 70
     0
 62
     7
  6
CONTINUOUS
  0
LAYER
  5
1F0
330
2
100
AcDbSymbolTableRecord
100
AcDbLayerTableRecord
  2
寸法線
 70
     0
 62
     1
  6
CONTINUOUS
  0
LAYER
  5
1F1
330
2
100
AcDbSymbolTableRecord
100
AcDbLayerTableRecord
  2
中心線
 70
     0
 62
     4
  6
CENTER
  0
LAYER
  5
1F4
330
2
100
AcDbSymbolTableRecord
100
AcDbLayerTableRecord
  2
DEFPOINTS
 70
     0
 62
     7
  6
CONTINUOUS
  0
LAYER
  5
2AA2
330
2
100
AcDbSymbolTableRecord
100
AcDbLayerTableRecord
  2
下書線
 70
     0
 62
     2
  6
CONTINUOUS
  0
LAYER
  5
2AA3
330
2
100
AcDbSymbolTableRecord
100
AcDbLayerTableRecord
  2
隠れ線
 70
     0
 62
     3
  6
DASHED
  0
LAYER
  5
2AA4
330
2
100
AcDbSymbolTableRecord
100
AcDbLayerTableRecord
  2
細線
 70
     0
 62
     6
  6
CONTINUOUS
  0
LAYER
  5
2AA5
330
2
100
AcDbSymbolTableRecord
100
AcDbLayerTableRecord
  2
太線
 70
     0
 62
   190
  6
CONTINUOUS
  0
LAYER
  5
2B20
330
2
100
AcDbSymbolTableRecord
100
AcDbLayerTableRecord
  2
LAY-1
 70
     0
 62
     7
  6
CONTINUOUS
  0
LAYER
  5
5483
330
2
100
AcDbSymbolTableRecord
100
AcDbLayerTableRecord
  2
寸法線_文字
 70
     0
 62
     1
  6
CONTINUOUS
  0
ENDTAB
  0
TABLE
  2
STYLE
  5
3
330
0
100
AcDbSymbolTable
 70
     3
  0
STYLE
  5
10
330
3
100
AcDbSymbolTableRecord
100
AcDbTextStyleTableRecord
  2
STANDARD
 70
     0
 40
0.0
 41
1.0
 50
0.0
 71
     0
 42
2.333873885063
  3
ISOCP
  4
bigfont.shx
  0
STYLE
  5
64
330
3
100
AcDbSymbolTableRecord
100
AcDbTextStyleTableRecord
  2
EXCADSTD
 70
     0
 40
0.0
 41
1.0
 50
0.0
 71
     0
 42
0.2
  3
monotxt
  4
bigfont
  0
STYLE
  5
2B21
330
3
100
AcDbSymbolTableRecord
100
AcDbTextStyleTableRecord
  2
EXCADVERT
 70
     4
 40
0.0
 41
1.0
 50
0.0
 71
     0
 42
0.286885
  3
monotxt
  4
bigfont
  0
ENDTAB
  0
TABLE
  2
VIEW
  5
6
330
0
100
AcDbSymbolTable
 70
     0
  0
ENDTAB
  0
TABLE
  2
UCS
  5
7
330
0
100
AcDbSymbolTable
 70
     0
  0
ENDTAB
  0
TABLE
  2
APPID
  5
9
330
0
100
AcDbSymbolTable
 70
     3
  0
APPID
  5
11
330
9
100
AcDbSymbolTableRecord
100
AcDbRegAppTableRecord
  2
ACAD
 70
     0
  0
APPID
  5
7E35
330
9
100
AcDbSymbolTableRecord
100
AcDbRegAppTableRecord
  2
ACADANNOTATIVE
 70
     0
  0
APPID
  5
8D47
330
9
100
AcDbSymbolTableRecord
100
AcDbRegAppTableRecord
  2
ACAD_MLEADERVER
 70
     0
  0
ENDTAB
  0
TABLE
  2
DIMSTYLE
  5
A
330
0
100
AcDbSymbolTable
 70
     2
  0
DIMSTYLE
105
1D
330
A
100
AcDbSymbolTableRecord
100
AcDbDimStyleTableRecord
  2
STANDARD
 70
     0
  3

  4

  5

  6

  7

 40
1.0
 41
0.18
 42
0.0625
 43
0.38
 44
0.18
 45
0.0
 46
0.0
 47
0.0
 48
0.0
140
0.18
141
0.09
142
0.0
143
25.4
144
1.0
145
0.0
146
1.0
147
0.09
 71
     0
 72
     0
 73
     1
 74
     1
 75
     0
 76
     0
 77
     0
 78
     0
170
     0
171
     2
172
     0
173
     0
174
     0
175
     0
176
     0
177
     0
178
     0
270
     2
271
     4
272
     4
273
     2
274
     2
340
10
275
     0
280
     0
281
     0
282
     0
283
     1
284
     0
285
     0
286
     0
287
     3
288
     0
  0
DIMSTYLE
105
24
102
{ACAD_REACTORS
330
65DE
330
6611
330
7464
330
747E
330
7489
330
7509
330
750A
330
7B01
330
7B05
330
7B06
330
7B07
330
7B08
330
7B09
330
7B11
330
7B74
330
7B80
330
7B81
330
7B82
330
840A
330
8420
330
8421
102
}
330
A
100
AcDbSymbolTableRecord
100
AcDbDimStyleTableRecord
  2
ISO-25
 70
     0
  3

  4

  5

  6

  7

 40
1.0
 41
2.5
 42
0.625
 43
3.75
 44
1.25
 45
0.0
 46
0.0
 47
0.0
 48
0.0
140
2.5
141
2.5
142
0.0
143
0.0394
144
1.0
145
1.0
146
1.0
147
0.625
 71
     0
 72
     0
 73
     1
 74
     0
 75
     0
 76
     0
 77
     1
 78
     8
170
     0
171
     2
172
     1
173
     0
174
     0
175
     0
176
     0
177
     0
178
     0
270
     2
271
     4
272
     4
273
     2
274
     2
340
10
275
     0
280
     0
281
     0
282
     0
283
     1
284
     0
285
     0
286
     0
287
     3
288
     0
  0
ENDTAB
  0
TABLE
  2
BLOCK_RECORD
  5
1
330
0
100
AcDbSymbolTable
 70
   100
  0
BLOCK_RECORD
  5
1A
330
1
100
AcDbSymbolTableRecord
100
AcDbBlockTableRecord
  2
*MODEL_SPACE
  0
BLOCK_RECORD
  5
28FB
330
1
100
AcDbSymbolTableRecord
100
AcDbBlockTableRecord
  2
*PAPER_SPACE
  0
BLOCK_RECORD
  5
65
330
1
100
AcDbSymbolTableRecord
100
AcDbBlockTableRecord
  2
A$C3392
  0
BLOCK_RECORD
  5
29BF
330
1
100
AcDbSymbolTableRecord
100
AcDbBlockTableRecord
  2
A4横用_タイトル
1001
ACAD
1000
DesignCenter Data
1002
{
1070
     1
1070
     4
1002
}
  0
BLOCK_RECORD
  5
29F4
330
1
100
AcDbSymbolTableRecord
100
AcDbBlockTableRecord
  2
A4縦用_タイトル
1001
ACAD
1000
DesignCenter Data
1002
{
1070
     1
1070
     4
1002
}
  0
BLOCK_RECORD
  5
2A32
330
1
100
AcDbSymbolTableRecord
100
AcDbBlockTableRecord
  2
A3横用_タイトル
1001
ACAD
1000
DesignCenter Data
1002
{
1070
     1
1070
     4
1002
}
  0
BLOCK_RECORD
  5
2A6C
330
1
100
AcDbSymbolTableRecord
100
AcDbBlockTableRecord
  2
A3縦用_タイトル
1001
ACAD
1000
DesignCenter Data
1002
{
1070
     1
1070
     4
1002
}
  0
BLOCK_RECORD
  5
2AF4
330
1
100
AcDbSymbolTableRecord
100
AcDbBlockTableRecord
  2
_OPEN30
  0
BLOCK_RECORD
  5
3024
330
1
100
AcDbSymbolTableRecord
100
AcDbBlockTableRecord
  2
パドル_W1
  0
BLOCK_RECORD
  5
3054
330
1
100
AcDbSymbolTableRecord
100
AcDbBlockTableRecord
  2
パドル_W1立面図
  0
BLOCK_RECORD
  5
3136
330
1
100
AcDbSymbolTableRecord
100
AcDbBlockTableRecord
  2
*D8
  0
BLOCK_RECORD
  5
3142
330
1
100
AcDbSymbolTableRecord
100
AcDbBlockTableRecord
  2
*D9
  0
BLOCK_RECORD
  5
314E
330
1
100
AcDbSymbolTableRecord
100
AcDbBlockTableRecord
  2
*D10
  0
BLOCK_RECORD
  5
315C
330
1
100
AcDbSymbolTableRecord
100
AcDbBlockTableRecord
  2
A$C384A4FFB
  0
BLOCK_RECORD
  5
34BA
330
1
100
AcDbSymbolTableRecord
100
AcDbBlockTableRecord
  2
A$C77C530E9
  0
BLOCK_RECORD
  5
672E
330
1
100
AcDbSymbolTableRecord
100
AcDbBlockTableRecord
  2
*D19
  0
BLOCK_RECORD
  5
6762
330
1
100
AcDbSymbolTableRecord
100
AcDbBlockTableRecord
  2
*D20
  0
BLOCK_RECORD
  5
7391
330
1
100
AcDbSymbolTableRecord
100
AcDbBlockTableRecord
  2
A$C135842B4
  0
BLOCK_RECORD
  5
73AE
330
1
100
AcDbSymbolTableRecord
100
AcDbBlockTableRecord
  2
A$C76E55026
  0
BLOCK_RECORD
  5
7499
330
1
100
AcDbSymbolTableRecord
100
AcDbBlockTableRecord
  2
*D28
  0
BLOCK_RECORD
  5
74BF
330
1
100
AcDbSymbolTableRecord
100
AcDbBlockTableRecord
  2
*D29
  0
BLOCK_RECORD
  5
74CB
330
1
100
AcDbSymbolTableRecord
100
AcDbBlockTableRecord
  2
*D30
  0
BLOCK_RECORD
  5
750B
330
1
100
AcDbSymbolTableRecord
100
AcDbBlockTableRecord
  2
*D31
  0
BLOCK_RECORD
  5
7517
330
1
100
AcDbSymbolTableRecord
100
AcDbBlockTableRecord
  2
*D32
  0
BLOCK_RECORD
  5
76A3
330
1
100
AcDbSymbolTableRecord
100
AcDbBlockTableRecord
  2
A$C511028D3
  0
BLOCK_RECORD
  5
7C1A
330
1
100
AcDbSymbolTableRecord
100
AcDbBlockTableRecord
  2
*D46
  0
BLOCK_RECORD
  5
7C27
330
1
100
AcDbSymbolTableRecord
100
AcDbBlockTableRecord
  2
*D47
  0
BLOCK_RECORD
  5
7C35
330
1
100
AcDbSymbolTableRecord
100
AcDbBlockTableRecord
  2
*D48
  0
BLOCK_RECORD
  5
7C41
330
1
100
AcDbSymbolTableRecord
100
AcDbBlockTableRecord
  2
*D49
  0
BLOCK_RECORD
  5
7C4D
330
1
100
AcDbSymbolTableRecord
100
AcDbBlockTableRecord
  2
*D50
  0
BLOCK_RECORD
  5
7C5B
330
1
100
AcDbSymbolTableRecord
100
AcDbBlockTableRecord
  2
*D51
  0
BLOCK_RECORD
  5
7C67
330
1
100
AcDbSymbolTableRecord
100
AcDbBlockTableRecord
  2
*D52
  0
BLOCK_RECORD
  5
7C75
330
1
100
AcDbSymbolTableRecord
100
AcDbBlockTableRecord
  2
*D53
  0
BLOCK_RECORD
  5
7C81
330
1
100
AcDbSymbolTableRecord
100
AcDbBlockTableRecord
  2
*D54
  0
BLOCK_RECORD
  5
7C8D
330
1
100
AcDbSymbolTableRecord
100
AcDbBlockTableRecord
  2
*D55
  0
BLOCK_RECORD
  5
7C99
330
1
100
AcDbSymbolTableRecord
100
AcDbBlockTableRecord
  2
*D56
  0
BLOCK_RECORD
  5
851F
330
1
100
AcDbSymbolTableRecord
100
AcDbBlockTableRecord
  2
*D97
  0
BLOCK_RECORD
  5
852D
330
1
100
AcDbSymbolTableRecord
100
AcDbBlockTableRecord
  2
*D98
  0
BLOCK_RECORD
  5
8537
330
1
100
AcDbSymbolTableRecord
100
AcDbBlockTableRecord
  2
*D99
  0
ENDTAB
  0
ENDSEC
  0
SECTION
  2
BLOCKS
  0
BLOCK
  5
1B
330
1A
100
AcDbEntity
  8
0
100
AcDbBlockBegin
  2
*MODEL_SPACE
 70
     0
 10
0.0
 20
0.0
 30
0.0
  3
*MODEL_SPACE
  1

  0
ENDBLK
  5
1C
330
1A
100
AcDbEntity
  8
0
100
AcDbBlockEnd
  0
BLOCK
  5
28FD
330
28FB
100
AcDbEntity
 67
     1
  8
0
 48
10.0
100
AcDbBlockBegin
  2
*PAPER_SPACE
 70
     0
 10
0.0
 20
0.0
 30
0.0
  3
*PAPER_SPACE
  1

  0
ENDBLK
  5
28FE
330
28FB
100
AcDbEntity
 67
     1
  8
0
 48
10.0
100
AcDbBlockEnd
  0
BLOCK
  5
93
330
65
100
AcDbEntity
  8
0
100
AcDbBlockBegin
  2
A$C3392
 70
     0
 10
0.0
 20
0.0
 30
0.0
  3
A$C3392
  1
A$C3392
  0
LINE
  5
66
330
65
100
AcDbEntity
  8
図枠太線
  6
CONTINUOUS
100
AcDbLine
 10
211.858584505185
 20
30.927375675439
 30
0.0
 11
211.858584505185
 21
0.927375675439
 31
0.0
  0
LINE
  5
67
330
65
100
AcDbEntity
  8
図枠細線
  6
CONTINUOUS
100
AcDbLine
 10
231.858592505185
 20
15.927377675439
 30
0.0
 11
287.858592505185
 21
15.927375675439
 31
0.0
  0
LINE
  5
68
330
65
100
AcDbEntity
  8
図枠細線
  6
CONTINUOUS
100
AcDbLine
 10
211.858592505185
 20
15.927377675439
 30
0.0
 11
231.858592505185
 21
15.927377675439
 31
0.0
  0
LINE
  5
69
330
65
100
AcDbEntity
  8
図枠太線
  6
CONTINUOUS
 62
   251
100
AcDbLine
 10
1.858584505185
 20
0.927375675439
 30
0.0
 11
1.858584505185
 21
275.927375675439
 31
0.0
  0
TEXT
  5
6A
330
65
100
AcDbEntity
  8
図枠細線
  6
CONTINUOUS
 62
   252
100
AcDbText
 10
351.358592505185
 20
28.427377675439
 30
0.0
 40
2.0
  1
ＴＩＴＬＥ
 41
0.903614457831
  7
EXCADSTD
 72
     5
 11
361.358592505185
 21
28.427377675439
 31
0.0
100
AcDbText
  0
TEXT
  5
6B
330
65
100
AcDbEntity
  8
図枠細線
  6
CONTINUOUS
 62
   252
100
AcDbText
 10
345.358592505185
 20
28.427377675439
 30
0.0
 40
2.0
  1
名称
 41
1.171875
  7
EXCADSTD
 72
     5
 11
350.358592505185
 21
28.427377675439
 31
0.0
100
AcDbText
  0
TEXT
  5
6C
330
65
100
AcDbEntity
  8
図枠細線
  6
CONTINUOUS
 62
   252
100
AcDbText
 10
274.358592505185
 20
25.927377675439
 30
0.0
 40
2.0
  1
ＤＲＡＷＮ
 41
0.882352941176
  7
EXCADSTD
 72
     5
 11
284.358592505185
 21
25.927377675439
 31
0.0
100
AcDbText
  0
TEXT
  5
6D
330
65
100
AcDbEntity
  8
図枠細線
  6
CONTINUOUS
 62
   252
100
AcDbText
 10
260.358592505185
 20
25.927377675439
 30
0.0
 40
2.0
  1
ＤＥＳＩＧＮＥＤ
 41
0.713043472041
  7
EXCADSTD
 72
     5
 11
273.478592390744
 21
25.927377675439
 31
0.0
100
AcDbText
  0
TEXT
  5
6E
330
65
100
AcDbEntity
  8
図枠細線
  6
CONTINUOUS
 62
   252
100
AcDbText
 10
246.358592505185
 20
25.927377675439
 30
0.0
 40
2.0
  1
ＣＨＥＣＫＥＤ
 41
0.831249989569
  7
EXCADSTD
 72
     5
 11
259.658592338292
 21
25.927377675439
 31
0.0
100
AcDbText
  0
TEXT
  5
6F
330
65
100
AcDbEntity
  8
図枠細線
  6
CONTINUOUS
 62
   252
100
AcDbText
 10
274.358592505185
 20
28.427377675439
 30
0.0
 40
2.0
  1
製図
 41
1.209677419355
  7
EXCADSTD
 72
     5
 11
279.358592505185
 21
28.427377675439
 31
0.0
100
AcDbText
  0
TEXT
  5
70
330
65
100
AcDbEntity
  8
図枠細線
  6
CONTINUOUS
 62
   252
100
AcDbText
 10
260.358592505185
 20
28.427377675439
 30
0.0
 40
2.0
  1
設計
 41
1.171875
  7
EXCADSTD
 72
     5
 11
265.358592505185
 21
28.427377675439
 31
0.0
100
AcDbText
  0
TEXT
  5
71
330
65
100
AcDbEntity
  8
図枠細線
  6
CONTINUOUS
 62
   252
100
AcDbText
 10
246.358592505185
 20
28.427377675439
 30
0.0
 40
2.0
  1
検図
 41
1.209677419355
  7
EXCADSTD
 72
     5
 11
251.358592505185
 21
28.427377675439
 31
0.0
100
AcDbText
  0
TEXT
  5
72
330
65
100
AcDbEntity
  8
図枠細線
  6
CONTINUOUS
 62
   252
100
AcDbText
 10
232.358592505185
 20
25.927377675439
 30
0.0
 40
2.0
  1
ＡＰＰＲＯＶＥＤ
 41
0.695652184279
  7
EXCADSTD
 72
     5
 11
245.15859269592
 21
25.927377675439
 31
0.0
100
AcDbText
  0
TEXT
  5
73
330
65
100
AcDbEntity
  8
図枠細線
  6
CONTINUOUS
 62
   252
100
AcDbText
 10
232.358592505185
 20
28.427377675439
 30
0.0
 40
2.0
  1
承認
 41
1.171875
  7
EXCADSTD
 72
     5
 11
237.358592505185
 21
28.427377675439
 31
0.0
100
AcDbText
  0
TEXT
  5
74
330
65
100
AcDbEntity
  8
図枠細線
  6
CONTINUOUS
 62
   252
100
AcDbText
 10
290.069888505185
 20
2.574868675439
 30
0.0
 40
3.5
  1
ＴＯＷＡ　ＳＥＩＤＥＮ　ＩＮＤＵＳＴＲＩＡＬ　ＣＯ．，ＬＴＤ．
 41
0.414568012377
  7
EXCADSTD
 72
     5
 11
342.692388209546
 21
2.574868675439
 31
0.0
100
AcDbText
  0
TEXT
  5
75
330
65
100
AcDbEntity
  8
図枠ロゴマーク
  6
CONTINUOUS
 62
   253
100
AcDbText
 10
290.107348505185
 20
7.519769675439
 30
0.0
 40
7.0
  1
東和制電工業株式会社
 41
0.639204545455
  7
EXCADSTD
 72
     5
 11
342.607348505185
 21
7.519769675439
 31
0.0
100
AcDbText
  0
TEXT
  5
76
330
65
100
AcDbEntity
  8
図枠細線
  6
CONTINUOUS
 62
   252
100
AcDbText
 10
232.499705505185
 20
5.759088675439
 30
0.0
 40
2.0
  1
ＰＲＯＪＥＣＴＩＯＮ
 41
0.754285710199
  7
EXCADSTD
 72
     5
 11
250.099705409817
 21
5.759088675439
 31
0.0
100
AcDbText
  0
TEXT
  5
77
330
65
100
AcDbEntity
  8
図枠細線
  6
CONTINUOUS
 62
   252
100
AcDbText
 10
232.574629505185
 20
8.681077675439
 30
0.0
 40
2.0
  1
ＴＨＩＲＤ　ＡＮＧＬＥ
 41
0.691099486738
  7
EXCADSTD
 72
     5
 11
250.174629767445
 21
8.681077675439
 31
0.0
100
AcDbText
  0
TEXT
  5
78
330
65
100
AcDbEntity
  8
図枠細線
  6
CONTINUOUS
 62
   252
100
AcDbText
 10
256.823999505185
 20
13.427377675439
 30
0.0
 40
2.0
  1
ＳＣＡＬＥ
 41
0.903614457831
  7
EXCADSTD
 72
     5
 11
266.823999505185
 21
13.427377675439
 31
0.0
100
AcDbText
  0
TEXT
  5
79
330
65
100
AcDbEntity
  8
図枠細線
  6
CONTINUOUS
 62
   252
100
AcDbText
 10
274.858592505185
 20
13.427377675439
 30
0.0
 40
2.0
  1
ＤＡＴＥ
 41
0.923076923077
  7
EXCADSTD
 72
     5
 11
282.858592505185
 21
13.427377675439
 31
0.0
100
AcDbText
  0
TEXT
  5
7A
330
65
100
AcDbEntity
  8
図枠細線
  6
CONTINUOUS
 62
   252
100
AcDbText
 10
356.358592505185
 20
13.427377675439
 30
0.0
 40
2.0
  1
ＤＲＧ．ＮＯ．
 41
0.9375
  7
EXCADSTD
 72
     5
 11
370.358592505185
 21
13.427377675439
 31
0.0
100
AcDbText
  0
TEXT
  5
7B
330
65
100
AcDbEntity
  8
図枠細線
  6
CONTINUOUS
 62
   252
100
AcDbText
 10
345.358592505185
 20
13.427377675439
 30
0.0
 40
2.0
  1
図面番号
 41
1.102941176471
  7
EXCADSTD
 72
     5
 11
355.358592505185
 21
13.427377675439
 31
0.0
100
AcDbText
  0
TEXT
  5
7C
330
65
100
AcDbEntity
  8
図枠細線
  6
CONTINUOUS
 62
   252
100
AcDbText
 10
269.358592505185
 20
13.427377675439
 30
0.0
 40
2.0
  1
日付
 41
1.171875
  7
EXCADSTD
 72
     5
 11
274.358592505185
 21
13.427377675439
 31
0.0
100
AcDbText
  0
TEXT
  5
7D
330
65
100
AcDbEntity
  8
図枠細線
  6
CONTINUOUS
 62
   252
100
AcDbText
 10
251.451512505185
 20
13.427377675439
 30
0.0
 40
2.0
  1
尺度
 41
1.171875
  7
EXCADSTD
 72
     5
 11
256.451512505185
 21
13.427377675439
 31
0.0
100
AcDbText
  0
TEXT
  5
7E
330
65
100
AcDbEntity
  8
図枠細線
  6
CONTINUOUS
 62
   252
100
AcDbText
 10
232.358592505185
 20
13.427377675439
 30
0.0
 40
2.0
  1
第三角法
 41
1.102941176471
  7
EXCADSTD
 72
     5
 11
242.358592505185
 21
13.427377675439
 31
0.0
100
AcDbText
  0
TEXT
  5
7F
330
65
100
AcDbEntity
  8
図枠細線
  6
CONTINUOUS
 62
   252
100
AcDbText
 10
212.358592505185
 20
28.427377675439
 30
0.0
 40
2.0
  1
ＮＯＴＥ
 41
0.923076923077
  7
EXCADSTD
 72
     5
 11
220.358592505185
 21
28.427377675439
 31
0.0
100
AcDbText
  0
LINE
  5
80
330
65
100
AcDbEntity
  8
図枠細線
  6
CONTINUOUS
 62
   252
100
AcDbLine
 10
287.858592505185
 20
23.427375675439
 30
0.0
 11
344.858592505185
 21
23.427375675439
 31
0.0
  0
LINE
  5
81
330
65
100
AcDbEntity
  8
図枠太線
  6
CONTINUOUS
 62
   251
100
AcDbLine
 10
287.858584505185
 20
15.927375675439
 30
0.0
 11
344.858592505185
 21
15.927375675439
 31
0.0
  0
LINE
  5
82
330
65
100
AcDbEntity
  8
図枠細線
  6
CONTINUOUS
 62
   252
100
AcDbLine
 10
344.858592505185
 20
15.927375675439
 30
0.0
 11
401.858584505185
 21
15.927375675439
 31
0.0
  0
LINE
  5
83
330
65
100
AcDbEntity
  8
図枠太線
  6
CONTINUOUS
 62
   251
100
AcDbLine
 10
344.858592505185
 20
0.927377675439
 30
0.0
 11
344.858592505185
 21
30.927375675439
 31
0.0
  0
LINE
  5
84
330
65
100
AcDbEntity
  8
図枠太線
  6
CONTINUOUS
 62
   251
100
AcDbLine
 10
287.858592505185
 20
0.927377675439
 30
0.0
 11
287.858592505185
 21
30.927375675439
 31
0.0
  0
LINE
  5
85
330
65
100
AcDbEntity
  8
図枠細線
  6
CONTINUOUS
 62
   252
100
AcDbLine
 10
268.858592505185
 20
0.927377675439
 30
0.0
 11
268.858592505185
 21
15.927375675439
 31
0.0
  0
LINE
  5
86
330
65
100
AcDbEntity
  8
図枠細線
  6
CONTINUOUS
 62
   252
100
AcDbLine
 10
250.858592505185
 20
0.927377675439
 30
0.0
 11
250.858592505185
 21
15.927375675439
 31
0.0
  0
LINE
  5
87
330
65
100
AcDbEntity
  8
図枠細線
  6
CONTINUOUS
 62
   252
100
AcDbLine
 10
273.858592505185
 20
30.927375675439
 30
0.0
 11
273.858592505185
 21
15.927375675439
 31
0.0
  0
LINE
  5
88
330
65
100
AcDbEntity
  8
図枠細線
  6
CONTINUOUS
 62
   252
100
AcDbLine
 10
259.858592505185
 20
30.927375675439
 30
0.0
 11
259.858592505185
 21
15.927375675439
 31
0.0
  0
LINE
  5
89
330
65
100
AcDbEntity
  8
図枠細線
  6
CONTINUOUS
 62
   252
100
AcDbLine
 10
245.858592505185
 20
30.927375675439
 30
0.0
 11
245.858592505185
 21
15.927375675439
 31
0.0
  0
LINE
  5
8A
330
65
100
AcDbEntity
  8
図枠太線
  6
CONTINUOUS
 62
   251
100
AcDbLine
 10
231.858592505185
 20
0.927377675439
 30
0.0
 11
231.858592505185
 21
30.927375675439
 31
0.0
  0
LINE
  5
8B
330
65
100
AcDbEntity
  8
図枠細線
  6
CONTINUOUS
 62
   252
100
AcDbLine
 10
211.858592505185
 20
25.927375675439
 30
0.0
 11
231.858592505185
 21
25.927375675439
 31
0.0
  0
LINE
  5
8C
330
65
100
AcDbEntity
  8
図枠細線
  6
CONTINUOUS
 62
   252
100
AcDbLine
 10
211.858592505185
 20
20.927375675439
 30
0.0
 11
231.858592505185
 21
20.927375675439
 31
0.0
  0
LINE
  5
8D
330
65
100
AcDbEntity
  8
図枠細線
  6
CONTINUOUS
 62
   252
100
AcDbLine
 10
211.858592505185
 20
10.927375675439
 30
0.0
 11
231.858592505185
 21
10.927375675439
 31
0.0
  0
LINE
  5
8E
330
65
100
AcDbEntity
  8
図枠細線
  6
CONTINUOUS
 62
   252
100
AcDbLine
 10
211.858592505185
 20
5.927377675439
 30
0.0
 11
231.858592505185
 21
5.927377675439
 31
0.0
  0
LINE
  5
8F
330
65
100
AcDbEntity
  8
図枠太線
  6
CONTINUOUS
 62
   251
100
AcDbLine
 10
211.858592505185
 20
30.927375675439
 30
0.0
 11
401.858584505185
 21
30.927375675439
 31
0.0
  0
LINE
  5
90
330
65
100
AcDbEntity
  8
図枠太線
  6
CONTINUOUS
 62
   251
100
AcDbLine
 10
1.858584505185
 20
275.927375675439
 30
0.0
 11
401.858584505185
 21
275.927375675439
 31
0.0
  0
LINE
  5
91
330
65
100
AcDbEntity
  8
図枠太線
  6
CONTINUOUS
 62
   251
100
AcDbLine
 10
401.858584505185
 20
0.927375675439
 30
0.0
 11
401.858584505185
 21
275.927375675439
 31
0.0
  0
LINE
  5
92
330
65
100
AcDbEntity
  8
図枠太線
  6
CONTINUOUS
 62
   251
100
AcDbLine
 10
1.858584505185
 20
0.927375675439
 30
0.0
 11
401.858584505185
 21
0.927375675439
 31
0.0
  0
ENDBLK
  5
94
330
65
100
AcDbEntity
  8
0
100
AcDbBlockEnd
  0
BLOCK
  5
29C0
330
29BF
100
AcDbEntity
  8
0
100
AcDbBlockBegin
  2
A4横用_タイトル
 70
     0
 10
0.0
 20
0.0
 30
0.0
  3
A4横用_タイトル
  1
A4横用_タイトル
  0
LINE
  5
29C1
330
29BF
100
AcDbEntity
  8
図枠細線
  6
CONTINUOUS
100
AcDbLine
 10
75.061011071051
 20
16.806607253358
 30
0.0
 11
144.061011071051
 21
16.806604789072
 31
0.0
  0
LINE
  5
29C2
330
29BF
100
AcDbEntity
  8
図枠細線
  6
CONTINUOUS
 62
   252
100
AcDbLine
 10
4.061011071051
 20
11.806606253358
 30
0.0
 11
75.061011071051
 21
11.806606253358
 31
0.0
  0
LINE
  5
29C3
330
29BF
100
AcDbEntity
  8
図枠細線
  6
CONTINUOUS
 62
   252
100
AcDbLine
 10
4.061011071051
 20
21.806606253358
 30
0.0
 11
75.061011071051
 21
21.806606253358
 31
0.0
  0
LINE
  5
29C4
330
29BF
100
AcDbEntity
  8
図枠細線
  6
CONTINUOUS
 62
   252
100
AcDbLine
 10
4.061011071051
 20
26.806606253358
 30
0.0
 11
75.061011071051
 21
26.806606253358
 31
0.0
  0
LINE
  5
29C5
330
29BF
100
AcDbEntity
  8
図枠細線
  6
CONTINUOUS
100
AcDbLine
 10
4.061011071051
 20
16.806608253358
 30
0.0
 11
75.061011071051
 21
16.806608253358
 31
0.0
  0
TEXT
  5
29C6
330
29BF
100
AcDbEntity
  8
図枠細線
  6
CONTINUOUS
 62
   252
100
AcDbText
 10
76.405475827713
 20
9.560308253358
 30
0.0
 40
2.0
  1
ＴＨＩＲＤ　ＡＮＧＬＥ
 41
0.691099486738
  7
EXCADSTD
 72
     5
 11
94.005476089973
 21
9.560308253358
 31
0.0
100
AcDbText
  0
TEXT
  5
29C7
330
29BF
100
AcDbEntity
  8
図枠細線
  6
CONTINUOUS
 62
   252
100
AcDbText
 10
76.705775880921
 20
14.306608253358
 30
0.0
 40
2.0
  1
第三角法
 41
1.102941176471
  7
EXCADSTD
 72
     5
 11
86.705775880921
 21
14.306608253358
 31
0.0
100
AcDbText
  0
TEXT
  5
29C8
330
29BF
100
AcDbEntity
  8
図枠細線
  6
CONTINUOUS
 62
   252
100
AcDbText
 10
76.705775880921
 20
26.806608253358
 30
0.0
 40
2.0
  1
ＡＰＰＲＯＶＥＤ
 41
0.695652184279
  7
EXCADSTD
 72
     5
 11
89.505776071656
 21
26.806608253358
 31
0.0
100
AcDbText
  0
TEXT
  5
29C9
330
29BF
100
AcDbEntity
  8
図枠細線
  6
CONTINUOUS
 62
   252
100
AcDbText
 10
76.705775880921
 20
29.306608253358
 30
0.0
 40
2.0
  1
承認
 41
1.171875
  7
EXCADSTD
 72
     5
 11
81.705775880921
 21
29.306608253358
 31
0.0
100
AcDbText
  0
LINE
  5
29CA
330
29BF
100
AcDbEntity
  8
図枠細線
  6
CONTINUOUS
 62
   252
100
AcDbLine
 10
98.061011071051
 20
31.806606253358
 30
0.0
 11
98.061011071051
 21
16.806606253358
 31
0.0
  0
TEXT
  5
29CB
330
29BF
100
AcDbEntity
  8
図枠細線
  6
CONTINUOUS
 62
   252
100
AcDbText
 10
104.216531119804
 20
14.306608253358
 30
0.0
 40
2.0
  1
ＳＣＡＬＥ
 41
0.903614457831
  7
EXCADSTD
 72
     5
 11
114.216531119804
 21
14.306608253358
 31
0.0
100
AcDbText
  0
TEXT
  5
29CC
330
29BF
100
AcDbEntity
  8
図枠細線
  6
CONTINUOUS
 62
   252
100
AcDbText
 10
98.844044119804
 20
14.306608253358
 30
0.0
 40
2.0
  1
尺度
 41
1.171875
  7
EXCADSTD
 72
     5
 11
103.844044119804
 21
14.306608253358
 31
0.0
100
AcDbText
  0
TEXT
  5
29CD
330
29BF
100
AcDbEntity
  8
図枠細線
  6
CONTINUOUS
 62
   252
100
AcDbText
 10
98.968727707497
 20
26.806608253358
 30
0.0
 40
2.0
  1
ＣＨＥＣＫＥＤ
 41
0.831249989569
  7
EXCADSTD
 72
     5
 11
112.268727540604
 21
26.806608253358
 31
0.0
100
AcDbText
  0
TEXT
  5
29CE
330
29BF
100
AcDbEntity
  8
図枠細線
  6
CONTINUOUS
 62
   252
100
AcDbText
 10
98.968727707497
 20
29.306608253358
 30
0.0
 40
2.0
  1
検図
 41
1.209677419355
  7
EXCADSTD
 72
     5
 11
103.968727707497
 21
29.306608253358
 31
0.0
100
AcDbText
  0
LINE
  5
29CF
330
29BF
100
AcDbEntity
  8
図枠細線
  6
CONTINUOUS
 62
   252
100
AcDbLine
 10
121.061011071051
 20
31.806606253358
 30
0.0
 11
121.061011071051
 21
16.806606253358
 31
0.0
  0
TEXT
  5
29D0
330
29BF
100
AcDbEntity
  8
図枠細線
  6
CONTINUOUS
 62
   252
100
AcDbText
 10
128.001465247253
 20
14.306608253358
 30
0.0
 40
2.0
  1
ＤＡＴＥ
 41
0.923076923077
  7
EXCADSTD
 72
     5
 11
136.001465247253
 21
14.306608253358
 31
0.0
100
AcDbText
  0
TEXT
  5
29D1
330
29BF
100
AcDbEntity
  8
図枠細線
  6
CONTINUOUS
 62
   252
100
AcDbText
 10
122.066415498841
 20
14.306608253358
 30
0.0
 40
2.0
  1
日付
 41
1.171875
  7
EXCADSTD
 72
     5
 11
127.066415498841
 21
14.306608253358
 31
0.0
100
AcDbText
  0
TEXT
  5
29D2
330
29BF
100
AcDbEntity
  8
図枠細線
  6
CONTINUOUS
 62
   252
100
AcDbText
 10
121.59429406571
 20
29.306608253358
 30
0.0
 40
2.0
  1
製図
 41
1.209677419355
  7
EXCADSTD
 72
     5
 11
126.59429406571
 21
29.306608253358
 31
0.0
100
AcDbText
  0
TEXT
  5
29D3
330
29BF
100
AcDbEntity
  8
図枠細線
  6
CONTINUOUS
 62
   252
100
AcDbText
 10
121.59429406571
 20
26.806608253358
 30
0.0
 40
2.0
  1
ＤＲＡＷＮ
 41
0.882352941176
  7
EXCADSTD
 72
     5
 11
131.59429406571
 21
26.806608253358
 31
0.0
100
AcDbText
  0
TEXT
  5
29D4
330
29BF
100
AcDbEntity
  8
図枠細線
  6
CONTINUOUS
 62
   252
100
AcDbText
 10
226.591229661348
 20
14.306608253358
 30
0.0
 40
2.0
  1
ＤＲＧ．ＮＯ．
 41
0.9375
  7
EXCADSTD
 72
     5
 11
240.591229661348
 21
14.306608253358
 31
0.0
100
AcDbText
  0
LINE
  5
29D5
330
29BF
100
AcDbEntity
  8
図枠太線
  6
CONTINUOUS
 62
   251
100
AcDbLine
 10
144.061003071051
 20
16.806606253358
 30
0.0
 11
214.061011071051
 21
16.806606253358
 31
0.0
  0
LINE
  5
29D6
330
29BF
100
AcDbEntity
  8
図枠細線
  6
CONTINUOUS
 62
   252
100
AcDbLine
 10
144.061011071051
 20
24.306606253358
 30
0.0
 11
214.061011071051
 21
24.306606253358
 31
0.0
  0
TEXT
  5
29D7
330
29BF
100
AcDbEntity
  8
図枠ロゴマーク
  6
CONTINUOUS
 62
   253
100
AcDbText
 10
146.433776781596
 20
8.399000253358
 30
0.0
 40
7.0
  1
東和制電工業株式会社
 41
0.80361088462
  7
EXCADSTD
 72
     5
 11
212.437017438349
 21
8.399000253358
 31
0.0
100
AcDbText
  0
TEXT
  5
29D8
330
29BF
100
AcDbEntity
  8
図枠細線
  6
CONTINUOUS
 62
   252
100
AcDbText
 10
215.156179912936
 20
14.306608253358
 30
0.0
 40
2.0
  1
図面番号
 41
1.102941176471
  7
EXCADSTD
 72
     5
 11
225.156179912936
 21
14.306608253358
 31
0.0
100
AcDbText
  0
TEXT
  5
29D9
330
29BF
100
AcDbEntity
  8
図枠細線
  6
CONTINUOUS
 62
   252
100
AcDbText
 10
221.591229661348
 20
29.306608253358
 30
0.0
 40
2.0
  1
ＴＩＴＬＥ
 41
0.903614457831
  7
EXCADSTD
 72
     5
 11
231.591229661348
 21
29.306608253358
 31
0.0
100
AcDbText
  0
TEXT
  5
29DA
330
29BF
100
AcDbEntity
  8
図枠細線
  6
CONTINUOUS
 62
   252
100
AcDbText
 10
215.156179912936
 20
29.306608253358
 30
0.0
 40
2.0
  1
名称
 41
1.171875
  7
EXCADSTD
 72
     5
 11
220.156179912936
 21
29.306608253358
 31
0.0
100
AcDbText
  0
LINE
  5
29DB
330
29BF
100
AcDbEntity
  8
図枠太線
  6
CONTINUOUS
 62
   251
100
AcDbLine
 10
4.061011071051
 20
1.806608253358
 30
0.0
 11
284.061011071051
 21
1.806608253358
 31
0.0
  0
LINE
  5
29DC
330
29BF
100
AcDbEntity
  8
図枠細線
  6
CONTINUOUS
 62
   252
100
AcDbLine
 10
4.061011071051
 20
6.806608253358
 30
0.0
 11
75.061011071051
 21
6.806608253358
 31
0.0
  0
LINE
  5
29DD
330
29BF
100
AcDbEntity
  8
図枠太線
  6
CONTINUOUS
 62
   251
100
AcDbLine
 10
75.061011071051
 20
1.806608253358
 30
0.0
 11
75.061011071051
 21
31.806606253358
 31
0.0
  0
TEXT
  5
29DE
330
29BF
100
AcDbEntity
  8
図枠細線
  6
CONTINUOUS
 62
   252
100
AcDbText
 10
76.330551827713
 20
6.638319253358
 30
0.0
 40
2.0
  1
ＰＲＯＪＥＣＴＩＯＮ
 41
0.754285710199
  7
EXCADSTD
 72
     5
 11
93.930551732346
 21
6.638319253358
 31
0.0
100
AcDbText
  0
LINE
  5
29DF
330
29BF
100
AcDbEntity
  8
図枠細線
  6
CONTINUOUS
 62
   252
100
AcDbLine
 10
98.061011071051
 20
1.806606931929
 30
0.0
 11
98.061011071051
 21
16.806604931929
 31
0.0
  0
LINE
  5
29E0
330
29BF
100
AcDbEntity
  8
図枠細線
  6
CONTINUOUS
 62
   252
100
AcDbLine
 10
121.061011071051
 20
1.806607574787
 30
0.0
 11
121.061011071051
 21
16.806605574787
 31
0.0
  0
LINE
  5
29E1
330
29BF
100
AcDbEntity
  8
図枠太線
  6
CONTINUOUS
 62
   251
100
AcDbLine
 10
284.061011071051
 20
1.806608253358
 30
0.0
 11
284.061011071051
 21
31.806606253358
 31
0.0
  0
LINE
  5
29E2
330
29BF
100
AcDbEntity
  8
図枠細線
  6
CONTINUOUS
 62
   252
100
AcDbLine
 10
214.061011071051
 20
16.806606253358
 30
0.0
 11
284.061011071051
 21
16.806606253358
 31
0.0
  0
TEXT
  5
29E3
330
29BF
100
AcDbEntity
  8
図枠細線
  6
CONTINUOUS
 62
   252
100
AcDbText
 10
146.199593676182
 20
3.454099253358
 30
0.0
 40
3.5
  1
ＴＯＷＡ　ＳＥＩＤＥＮ　ＩＮＤＵＳＴＲＩＡＬ　ＣＯ．，ＬＴＤ．
 41
0.528937826907
  7
EXCADSTD
 72
     5
 11
213.339435171588
 21
3.454099253358
 31
0.0
100
AcDbText
  0
LINE
  5
29E4
330
29BF
100
AcDbEntity
  8
図枠太線
  6
CONTINUOUS
 62
   251
100
AcDbLine
 10
144.061011071051
 20
1.806608253358
 30
0.0
 11
144.061011071051
 21
31.806606253358
 31
0.0
  0
LINE
  5
29E5
330
29BF
100
AcDbEntity
  8
図枠太線
  6
CONTINUOUS
 62
   251
100
AcDbLine
 10
214.061011071051
 20
1.806608253358
 30
0.0
 11
214.061011071051
 21
31.806606253358
 31
0.0
  0
MTEXT
  5
29E6
330
29BF
100
AcDbEntity
  8
図枠太線
100
AcDbMText
 10
5.064337346478
 20
31.010982137407
 30
0.0
 40
2.5
 41
8.67856098472
 71
     1
 72
     5
  1
{\Fmonotxt.shx,bigfont.shx|c128;図暦}
  0
LINE
  5
29E7
330
29BF
100
AcDbEntity
  8
図枠太線
  6
CONTINUOUS
 62
   251
100
AcDbLine
 10
4.061011071051
 20
1.806608253358
 30
0.0
 11
4.061011071051
 21
31.806606253358
 31
0.0
  0
TEXT
  5
29E8
330
29BF
100
AcDbEntity
  8
図枠細線
 48
10.0
100
AcDbText
 10
12.260817420402
 20
28.625419626495
 30
0.0
 40
2.0
  1
CHANGE NOTICE
100
AcDbText
  0
ENDBLK
  5
29E9
330
29BF
100
AcDbEntity
  8
0
100
AcDbBlockEnd
  0
BLOCK
  5
29F5
330
29F4
100
AcDbEntity
  8
0
100
AcDbBlockBegin
  2
A4縦用_タイトル
 70
     0
 10
0.0
 20
0.0
 30
0.0
  3
A4縦用_タイトル
  1
A4縦用_タイトル
  0
LINE
  5
29F6
330
29F4
100
AcDbEntity
  8
図枠太線
  6
CONTINUOUS
 62
   251
100
AcDbLine
 10
2.368253864267
 20
4.525433224584
 30
0.0
 11
192.368245864267
 21
4.525433224584
 31
0.0
  0
LINE
  5
29F7
330
29F4
100
AcDbEntity
  8
図枠太線
  6
CONTINUOUS
 62
   251
100
AcDbLine
 10
78.368245864267
 20
19.525431224584
 30
0.0
 11
135.368253864267
 21
19.525431224584
 31
0.0
  0
LINE
  5
29F8
330
29F4
100
AcDbEntity
  8
図枠細線
  6
CONTINUOUS
 62
   252
100
AcDbLine
 10
78.368253864267
 20
27.025431224584
 30
0.0
 11
135.368253864267
 21
27.025431224584
 31
0.0
  0
TEXT
  5
29F9
330
29F4
100
AcDbEntity
  8
図枠ロゴマーク
  6
CONTINUOUS
 62
   253
100
AcDbText
 10
80.617009864267
 20
11.117825224584
 30
0.0
 40
7.0
  1
東和制電工業株式会社
 41
0.639204545455
  7
EXCADSTD
 72
     5
 11
133.117009864267
 21
11.117825224584
 31
0.0
100
AcDbText
  0
TEXT
  5
29FA
330
29F4
100
AcDbEntity
  8
図枠細線
  6
CONTINUOUS
 62
   252
100
AcDbText
 10
80.579549864267
 20
6.172924224584
 30
0.0
 40
3.5
  1
ＴＯＷＡ　ＳＥＩＤＥＮ　ＩＮＤＵＳＴＲＩＡＬ　ＣＯ．，ＬＴＤ．
 41
0.414568012377
  7
EXCADSTD
 72
     5
 11
133.202049568628
 21
6.172924224584
 31
0.0
100
AcDbText
  0
LINE
  5
29FB
330
29F4
100
AcDbEntity
  8
図枠太線
  6
CONTINUOUS
 62
   251
100
AcDbLine
 10
2.368253864267
 20
4.525433224584
 30
0.0
 11
2.368253864267
 21
34.525431224584
 31
0.0
  0
TEXT
  5
29FC
330
29F4
100
AcDbEntity
  8
図枠細線
  6
CONTINUOUS
 62
   252
100
AcDbText
 10
22.504308136501
 20
12.279133224584
 30
0.0
 40
2.0
  1
ＴＨＩＲＤ　ＡＮＧＬＥ
 41
0.691099486738
  7
EXCADSTD
 72
     5
 11
40.104308398762
 21
12.279133224584
 31
0.0
100
AcDbText
  0
TEXT
  5
29FD
330
29F4
100
AcDbEntity
  8
図枠細線
  6
CONTINUOUS
 62
   252
100
AcDbText
 10
22.429384136501
 20
9.357144224584
 30
0.0
 40
2.0
  1
ＰＲＯＪＥＣＴＩＯＮ
 41
0.754285710199
  7
EXCADSTD
 72
     5
 11
40.029384041134
 21
9.357144224584
 31
0.0
100
AcDbText
  0
LINE
  5
29FE
330
29F4
100
AcDbEntity
  8
図枠細線
  6
CONTINUOUS
100
AcDbLine
 10
22.368253864267
 20
19.525433224584
 30
0.0
 11
78.368253864267
 21
19.525431224584
 31
0.0
  0
TEXT
  5
29FF
330
29F4
100
AcDbEntity
  8
図枠細線
  6
CONTINUOUS
 62
   252
100
AcDbText
 10
22.868253864267
 20
17.025433224584
 30
0.0
 40
2.0
  1
第三角法
 41
1.102941176471
  7
EXCADSTD
 72
     5
 11
32.868253864267
 21
17.025433224584
 31
0.0
100
AcDbText
  0
TEXT
  5
2A00
330
29F4
100
AcDbEntity
  8
図枠細線
  6
CONTINUOUS
 62
   252
100
AcDbText
 10
22.868253864267
 20
29.525433224584
 30
0.0
 40
2.0
  1
ＡＰＰＲＯＶＥＤ
 41
0.695652184279
  7
EXCADSTD
 72
     5
 11
35.668254055002
 21
29.525433224584
 31
0.0
100
AcDbText
  0
LINE
  5
2A01
330
29F4
100
AcDbEntity
  8
図枠細線
  6
CONTINUOUS
 62
   252
100
AcDbLine
 10
2.368253864267
 20
9.525433224584
 30
0.0
 11
22.368253864267
 21
9.525433224584
 31
0.0
  0
LINE
  5
2A02
330
29F4
100
AcDbEntity
  8
図枠細線
  6
CONTINUOUS
 62
   252
100
AcDbLine
 10
2.368253864267
 20
14.525431224584
 30
0.0
 11
22.368253864267
 21
14.525431224584
 31
0.0
  0
LINE
  5
2A03
330
29F4
100
AcDbEntity
  8
図枠細線
  6
CONTINUOUS
 62
   252
100
AcDbLine
 10
2.368253864267
 20
24.525431224584
 30
0.0
 11
22.368253864267
 21
24.525431224584
 31
0.0
  0
LINE
  5
2A04
330
29F4
100
AcDbEntity
  8
図枠細線
  6
CONTINUOUS
 62
   252
100
AcDbLine
 10
2.368253864267
 20
29.525431224584
 30
0.0
 11
22.368253864267
 21
29.525431224584
 31
0.0
  0
LINE
  5
2A05
330
29F4
100
AcDbEntity
  8
図枠細線
  6
CONTINUOUS
100
AcDbLine
 10
2.368253864267
 20
19.525433224584
 30
0.0
 11
22.368253864267
 21
19.525433224584
 31
0.0
  0
TEXT
  5
2A06
330
29F4
100
AcDbEntity
  8
図枠細線
  6
CONTINUOUS
 62
   252
100
AcDbText
 10
2.868253864267
 20
32.025433224584
 30
0.0
 40
2.0
  1
ＮＯＴＥ
 41
0.923076923077
  7
EXCADSTD
 72
     5
 11
10.868253864267
 21
32.025433224584
 31
0.0
100
AcDbText
  0
LINE
  5
2A07
330
29F4
100
AcDbEntity
  8
図枠太線
  6
CONTINUOUS
 62
   251
100
AcDbLine
 10
22.368253864267
 20
4.525433224584
 30
0.0
 11
22.368253864267
 21
34.525431224584
 31
0.0
  0
TEXT
  5
2A08
330
29F4
100
AcDbEntity
  8
図枠細線
  6
CONTINUOUS
 62
   252
100
AcDbText
 10
22.868253864267
 20
32.025433224584
 30
0.0
 40
2.0
  1
承認
 41
1.171875
  7
EXCADSTD
 72
     5
 11
27.868253864267
 21
32.025433224584
 31
0.0
100
AcDbText
  0
TEXT
  5
2A09
330
29F4
100
AcDbEntity
  8
図枠細線
  6
CONTINUOUS
 62
   252
100
AcDbText
 10
60.711709035982
 20
32.025433224584
 30
0.0
 40
2.0
  1
製図
 41
1.209677419355
  7
EXCADSTD
 72
     5
 11
65.711709035982
 21
32.025433224584
 31
0.0
100
AcDbText
  0
TEXT
  5
2A0A
330
29F4
100
AcDbEntity
  8
図枠細線
  6
CONTINUOUS
 62
   252
100
AcDbText
 10
60.711709035982
 20
29.525433224584
 30
0.0
 40
2.0
  1
ＤＲＡＷＮ
 41
0.882352941176
  7
EXCADSTD
 72
     5
 11
70.711709035982
 21
29.525433224584
 31
0.0
100
AcDbText
  0
TEXT
  5
2A0B
330
29F4
100
AcDbEntity
  8
図枠細線
  6
CONTINUOUS
 62
   252
100
AcDbText
 10
60.834891743877
 20
17.025433224584
 30
0.0
 40
2.0
  1
日付
 41
1.171875
  7
EXCADSTD
 72
     5
 11
65.834891743877
 21
17.025433224584
 31
0.0
100
AcDbText
  0
TEXT
  5
2A0C
330
29F4
100
AcDbEntity
  8
図枠細線
  6
CONTINUOUS
 62
   252
100
AcDbText
 10
47.333660864267
 20
17.025433224584
 30
0.0
 40
2.0
  1
ＳＣＡＬＥ
 41
0.903614457831
  7
EXCADSTD
 72
     5
 11
57.333660864267
 21
17.025433224584
 31
0.0
100
AcDbText
  0
TEXT
  5
2A0D
330
29F4
100
AcDbEntity
  8
図枠細線
  6
CONTINUOUS
 62
   252
100
AcDbText
 10
42.281425990082
 20
29.525433224584
 30
0.0
 40
2.0
  1
ＣＨＥＣＫＥＤ
 41
0.831249989569
  7
EXCADSTD
 72
     5
 11
55.581425823189
 21
29.525433224584
 31
0.0
100
AcDbText
  0
LINE
  5
2A0E
330
29F4
100
AcDbEntity
  8
図枠細線
  6
CONTINUOUS
 62
   252
100
AcDbLine
 10
40.968253864267
 20
34.525431224584
 30
0.0
 11
40.968253864267
 21
19.525431224584
 31
0.0
  0
LINE
  5
2A0F
330
29F4
100
AcDbEntity
  8
図枠細線
  6
CONTINUOUS
 62
   252
100
AcDbLine
 10
40.968253864267
 20
4.525433224584
 30
0.0
 11
40.968253864267
 21
19.525431224584
 31
0.0
  0
TEXT
  5
2A10
330
29F4
100
AcDbEntity
  8
図枠細線
  6
CONTINUOUS
 62
   252
100
AcDbText
 10
41.961173864267
 20
17.025433224584
 30
0.0
 40
2.0
  1
尺度
 41
1.171875
  7
EXCADSTD
 72
     5
 11
46.961173864267
 21
17.025433224584
 31
0.0
100
AcDbText
  0
TEXT
  5
2A11
330
29F4
100
AcDbEntity
  8
図枠細線
  6
CONTINUOUS
 62
   252
100
AcDbText
 10
42.281425990082
 20
32.025433224584
 30
0.0
 40
2.0
  1
検図
 41
1.209677419355
  7
EXCADSTD
 72
     5
 11
47.281425990082
 21
32.025433224584
 31
0.0
100
AcDbText
  0
LINE
  5
2A12
330
29F4
100
AcDbEntity
  8
図枠細線
  6
CONTINUOUS
 62
   252
100
AcDbLine
 10
59.768253864267
 20
34.525431224584
 30
0.0
 11
59.768253864267
 21
19.525431224584
 31
0.0
  0
LINE
  5
2A13
330
29F4
100
AcDbEntity
  8
図枠細線
  6
CONTINUOUS
 62
   252
100
AcDbLine
 10
59.768253864267
 20
4.525433224584
 30
0.0
 11
59.768253864267
 21
19.525431224584
 31
0.0
  0
LINE
  5
2A14
330
29F4
100
AcDbEntity
  8
図枠太線
  6
CONTINUOUS
 62
   251
100
AcDbLine
 10
78.368253864267
 20
4.525433224584
 30
0.0
 11
78.368253864267
 21
34.525431224584
 31
0.0
  0
TEXT
  5
2A15
330
29F4
100
AcDbEntity
  8
図枠細線
  6
CONTINUOUS
 62
   252
100
AcDbText
 10
66.334891743877
 20
17.025433224584
 30
0.0
 40
2.0
  1
ＤＡＴＥ
 41
0.923076923077
  7
EXCADSTD
 72
     5
 11
74.334891743877
 21
17.025433224584
 31
0.0
100
AcDbText
  0
LINE
  5
2A16
330
29F4
100
AcDbEntity
  8
図枠細線
  6
CONTINUOUS
 62
   252
100
AcDbLine
 10
135.368253864267
 20
19.525431224584
 30
0.0
 11
192.368245864267
 21
19.525431224584
 31
0.0
  0
TEXT
  5
2A17
330
29F4
100
AcDbEntity
  8
図枠細線
  6
CONTINUOUS
 62
   252
100
AcDbText
 10
141.868253864267
 20
32.025433224584
 30
0.0
 40
2.0
  1
ＴＩＴＬＥ
 41
0.903614457831
  7
EXCADSTD
 72
     5
 11
151.868253864267
 21
32.025433224584
 31
0.0
100
AcDbText
  0
LINE
  5
2A18
330
29F4
100
AcDbEntity
  8
図枠太線
  6
CONTINUOUS
 62
   251
100
AcDbLine
 10
135.368253864267
 20
4.525433224584
 30
0.0
 11
135.368253864267
 21
34.525431224584
 31
0.0
  0
TEXT
  5
2A19
330
29F4
100
AcDbEntity
  8
図枠細線
  6
CONTINUOUS
 62
   252
100
AcDbText
 10
135.868253864267
 20
17.025433224584
 30
0.0
 40
2.0
  1
図面番号
 41
1.102941176471
  7
EXCADSTD
 72
     5
 11
145.868253864267
 21
17.025433224584
 31
0.0
100
AcDbText
  0
TEXT
  5
2A1A
330
29F4
100
AcDbEntity
  8
図枠細線
  6
CONTINUOUS
 62
   252
100
AcDbText
 10
135.868253864267
 20
32.025433224584
 30
0.0
 40
2.0
  1
名称
 41
1.171875
  7
EXCADSTD
 72
     5
 11
140.868253864267
 21
32.025433224584
 31
0.0
100
AcDbText
  0
TEXT
  5
2A1B
330
29F4
100
AcDbEntity
  8
図枠細線
  6
CONTINUOUS
 62
   252
100
AcDbText
 10
146.868253864267
 20
17.025433224584
 30
0.0
 40
2.0
  1
ＤＲＧ．ＮＯ．
 41
0.9375
  7
EXCADSTD
 72
     5
 11
160.868253864267
 21
17.025433224584
 31
0.0
100
AcDbText
  0
LINE
  5
2A1C
330
29F4
100
AcDbEntity
  8
図枠太線
  6
CONTINUOUS
 62
   251
100
AcDbLine
 10
192.368245864267
 20
4.525433224584
 30
0.0
 11
192.368245864267
 21
34.525431224584
 31
0.0
  0
ENDBLK
  5
2A1D
330
29F4
100
AcDbEntity
  8
0
100
AcDbBlockEnd
  0
BLOCK
  5
2A33
330
2A32
100
AcDbEntity
  8
0
100
AcDbBlockBegin
  2
A3横用_タイトル
 70
     0
 10
0.0
 20
0.0
 30
0.0
  3
A3横用_タイトル
  1
A3横用_タイトル
  0
LINE
  5
2A34
330
2A32
100
AcDbEntity
  8
図枠細線
  6
CONTINUOUS
 62
   252
100
AcDbLine
 10
205.098414535793
 20
33.525959753527
 30
0.0
 11
305.098414535793
 21
33.525959753527
 31
0.0
  0
LINE
  5
2A35
330
2A32
100
AcDbEntity
  8
図枠太線
  6
CONTINUOUS
 62
   251
100
AcDbLine
 10
205.098414535793
 20
23.525959753527
 30
0.0
 11
305.098414535793
 21
23.525959753527
 31
0.0
  0
LINE
  5
2A36
330
2A32
100
AcDbEntity
  8
図枠細線
  6
CONTINUOUS
100
AcDbLine
 10
5.098414535793
 20
23.525959753527
 30
0.0
 11
105.098414535793
 21
23.525959753527
 31
0.0
  0
LINE
  5
2A37
330
2A32
100
AcDbEntity
  8
図枠細線
  6
CONTINUOUS
 62
   252
100
AcDbLine
 10
5.098414535793
 20
36.725957753527
 30
0.0
 11
105.098414535793
 21
36.725957753527
 31
0.0
  0
LINE
  5
2A38
330
2A32
100
AcDbEntity
  8
図枠細線
  6
CONTINUOUS
 62
   252
100
AcDbLine
 10
5.098414535793
 20
30.125957753527
 30
0.0
 11
105.098414535793
 21
30.125957753527
 31
0.0
  0
LINE
  5
2A39
330
2A32
100
AcDbEntity
  8
図枠細線
  6
CONTINUOUS
 62
   252
100
AcDbLine
 10
5.098414535793
 20
16.725959753527
 30
0.0
 11
105.098414535793
 21
16.725959753527
 31
0.0
  0
LINE
  5
2A3A
330
2A32
100
AcDbEntity
  8
図枠細線
  6
CONTINUOUS
 62
   252
100
AcDbLine
 10
5.098414535793
 20
10.125959753527
 30
0.0
 11
105.098414535793
 21
10.125959753527
 31
0.0
  0
LINE
  5
2A3B
330
2A32
100
AcDbEntity
  8
図枠細線
  6
CONTINUOUS
100
AcDbLine
 10
105.098414535793
 20
23.525961753527
 30
0.0
 11
205.098414535793
 21
23.525959753527
 31
0.0
  0
LINE
  5
2A3C
330
2A32
100
AcDbEntity
  8
図枠細線
  6
CONTINUOUS
 62
   252
100
AcDbLine
 10
138.398414535793
 20
43.525959753527
 30
0.0
 11
138.398414535793
 21
18.525957753527
 31
0.0
  0
LINE
  5
2A3D
330
2A32
100
AcDbEntity
  8
図枠細線
  6
CONTINUOUS
 62
   252
100
AcDbLine
 10
171.698414535793
 20
43.525959753527
 30
0.0
 11
171.698414535793
 21
18.525957753527
 31
0.0
  0
LINE
  5
2A3E
330
2A32
100
AcDbEntity
  8
図枠細線
  6
CONTINUOUS
 62
   252
100
AcDbLine
 10
305.098414535793
 20
23.525959753527
 30
0.0
 11
405.098414535793
 21
23.525959753527
 31
0.0
  0
TEXT
  5
2A3F
330
2A32
100
AcDbEntity
  8
図枠ロゴマーク
  6
CONTINUOUS
 62
   253
100
AcDbText
 10
206.102509212755
 20
13.294257570546
 30
0.0
 40
7.0
  1
東和制電工業株式会社
 50
0.016555220185
 41
1.186384129432
  7
EXCADSTD
 72
     5
 11
303.544188309143
 21
13.322412672217
 31
0.0
100
AcDbText
  0
MTEXT
  5
2A40
330
2A32
100
AcDbEntity
  8
図枠細線
100
AcDbMText
 10
6.356764112375
 20
41.976594175478
 30
0.0
 40
2.5
 41
49.938282706292
 71
     1
 72
     5
  1
{\Fmonotxt.shx,bigfont.shx|c128;図暦　CHANGE　NOTICE}
  0
MTEXT
  5
2A41
330
2A32
100
AcDbEntity
  8
図枠細線
 48
10.0
100
AcDbMText
 10
306.544114926828
 20
41.701835800934
 30
0.0
 40
2.5
 41
28.002809618823
 71
     1
 72
     5
  1
{\Fmonotxt.shx,bigfont.shx|c128;名称　TITLE}
  0
MTEXT
  5
2A42
330
2A32
100
AcDbEntity
  8
図枠細線
 48
10.0
100
AcDbMText
 10
307.329617114284
 20
21.606206797226
 30
0.0
 40
2.5
 41
24.385612216707
 71
     1
 72
     5
  1
{\Fmonotxt.shx,bigfont.shx|c128;図面番号\PDRG.　No.}
  0
MTEXT
  5
2A43
330
2A32
100
AcDbEntity
  8
図枠細線
 48
10.0
100
AcDbMText
 10
173.726349404609
 20
21.73680662198
 30
0.0
 40
2.5
 41
25.735090160813
 71
     1
 72
     5
  1
{\Fmonotxt.shx,bigfont.shx|c128;日付 DATE}
  0
MTEXT
  5
2A44
330
2A32
100
AcDbEntity
  8
図枠細線
 48
10.0
100
AcDbMText
 10
173.48708833982
 20
41.621592044998
 30
0.0
 40
2.5
 41
24.983741184205
 71
     1
 72
     5
  1
{\Fmonotxt.shx,bigfont.shx|c128;製図　DRAWN}
  0
MTEXT
  5
2A45
330
2A32
100
AcDbEntity
  8
図枠細線
 48
10.0
100
AcDbMText
 10
139.28009927741
 20
21.866713069868
 30
0.0
 40
2.5
 41
22.629632913243
 71
     1
 72
     5
  1
{\Fmonotxt.shx,bigfont.shx|c128;尺度　SCALE}
  0
MTEXT
  5
2A46
330
2A32
100
AcDbEntity
  8
図枠細線
 48
10.0
100
AcDbMText
 10
139.910091179835
 20
41.311840415554
 30
0.0
 40
2.5
 41
28.998753428368
 71
     1
 72
     5
  1
{\Fmonotxt.shx,bigfont.shx|c128;検図  CHECKED}
  0
MTEXT
  5
2A47
330
2A32
100
AcDbEntity
  8
図枠細線
 48
10.0
100
AcDbMText
 10
114.253294667728
 20
21.916124850174
 30
0.0
 40
3.0
 41
19.692400475383
 71
     1
 72
     5
  1
{\Fmonotxt.shx,bigfont.shx|c128;第三角法}
  0
MTEXT
  5
2A48
330
2A32
100
AcDbEntity
  8
図枠細線
 48
10.0
100
AcDbMText
 10
108.986959929915
 20
15.282880185837
 30
0.0
 40
2.5
 41
27.954882823547
 71
     1
 72
     5
  1
{\Fmonotxt.shx,bigfont.shx|c128;THIRD ANGLE\PPROJECTION}
  0
MTEXT
  5
2A49
330
2A32
100
AcDbEntity
  8
図枠細線
 48
10.0
100
AcDbMText
 10
106.319432640184
 20
41.511437145487
 30
0.0
 40
2.5
 41
28.233595265074
 71
     1
 72
     5
  1
{\Fmonotxt.shx,bigfont.shx|c128;承認 APPROVED}
  0
LINE
  5
2A4A
330
2A32
100
AcDbEntity
  8
図枠太線
  6
CONTINUOUS
 62
   251
100
AcDbLine
 10
5.098414535793
 20
3.525959753527
 30
0.0
 11
405.098414535793
 21
3.525959753527
 31
0.0
  0
LINE
  5
2A4B
330
2A32
100
AcDbEntity
  8
図枠太線
 48
10.0
100
AcDbLine
 10
5.098414535793
 20
3.525959753527
 30
0.0
 11
5.098414535793
 21
43.525959753527
 31
0.0
  0
LINE
  5
2A4C
330
2A32
100
AcDbEntity
  8
図枠太線
  6
CONTINUOUS
 62
   251
100
AcDbLine
 10
105.098414535793
 20
3.525959753527
 30
0.0
 11
105.098414535793
 21
43.525959753527
 31
0.0
  0
LINE
  5
2A4D
330
2A32
100
AcDbEntity
  8
図枠細線
  6
CONTINUOUS
 62
   252
100
AcDbLine
 10
138.398414535793
 20
3.525959753527
 30
0.0
 11
138.398414535793
 21
18.525957753527
 31
0.0
  0
LINE
  5
2A4E
330
2A32
100
AcDbEntity
  8
図枠細線
  6
CONTINUOUS
 62
   252
100
AcDbLine
 10
171.698414535793
 20
3.525959753527
 30
0.0
 11
171.698414535793
 21
18.525957753527
 31
0.0
  0
LINE
  5
2A4F
330
2A32
100
AcDbEntity
  8
図枠太線
  6
CONTINUOUS
 62
   251
100
AcDbLine
 10
205.098414535793
 20
3.525959753527
 30
0.0
 11
205.098414535793
 21
43.525959753527
 31
0.0
  0
LINE
  5
2A50
330
2A32
100
AcDbEntity
  8
図枠太線
 48
10.0
100
AcDbLine
 10
405.098414535793
 20
43.525959753527
 30
0.0
 11
405.098414535793
 21
3.525959753527
 31
0.0
  0
TEXT
  5
2A51
330
2A32
100
AcDbEntity
  8
図枠細線
  6
CONTINUOUS
 62
   252
100
AcDbText
 10
208.519754474572
 20
6.482358407285
 30
0.0
 40
3.5
  1
ＴＯＷＡ　ＳＥＩＤＥＮ　ＩＮＤＵＳＴＲＩＡＬ　ＣＯ．，ＬＴＤ．
 41
0.746656297509
  7
EXCADSTD
 72
     5
 11
303.295327171727
 21
6.482358407285
 31
0.0
100
AcDbText
  0
LINE
  5
2A52
330
2A32
100
AcDbEntity
  8
図枠太線
  6
CONTINUOUS
 62
   251
100
AcDbLine
 10
305.098414535793
 20
3.525959753527
 30
0.0
 11
305.098414535793
 21
43.525959753527
 31
0.0
  0
ENDBLK
  5
2A53
330
2A32
100
AcDbEntity
  8
0
100
AcDbBlockEnd
  0
BLOCK
  5
2A6D
330
2A6C
100
AcDbEntity
  8
0
100
AcDbBlockBegin
  2
A3縦用_タイトル
 70
     0
 10
0.0
 20
0.0
 30
0.0
  3
A3縦用_タイトル
  1
A3縦用_タイトル
  0
MTEXT
  5
2A6E
330
2A6C
100
AcDbEntity
  8
図枠細線
100
AcDbMText
 10
5.040804501593
 20
31.626098649005
 30
0.0
 40
2.5
 41
49.938282706292
 71
     1
 72
     5
  1
{\Fmonotxt.shx,bigfont.shx|c128;図暦　CHANGE　NOTICE}
  0
LINE
  5
2A6F
330
2A6C
100
AcDbEntity
  8
図枠太線
  6
CONTINUOUS
 62
   251
100
AcDbLine
 10
283.577871882961
 20
2.820844689254
 30
0.0
 11
283.577871882961
 21
32.820842689254
 31
0.0
  0
MTEXT
  5
2A70
330
2A6C
100
AcDbEntity
  8
図枠細線
 48
10.0
100
AcDbMText
 10
214.912458947454
 20
31.621488632308
 30
0.0
 40
2.5
 41
28.002809618823
 71
     1
 72
     5
  1
{\Fmonotxt.shx,bigfont.shx|c128;名称　TITLE}
  0
MTEXT
  5
2A71
330
2A6C
100
AcDbEntity
  8
図枠細線
 48
10.0
100
AcDbMText
 10
214.740030458938
 20
16.310225796722
 30
0.0
 40
2.5
 41
24.385612216707
 71
     1
 72
     5
  1
{\Fmonotxt.shx,bigfont.shx|c128;図面番号\PDRG.　No.}
  0
LINE
  5
2A72
330
2A6C
100
AcDbEntity
  8
図枠太線
  6
CONTINUOUS
 62
   251
100
AcDbLine
 10
213.577871882961
 20
2.820844689254
 30
0.0
 11
213.577871882961
 21
32.820842689254
 31
0.0
  0
LINE
  5
2A73
330
2A6C
100
AcDbEntity
  8
図枠太線
  6
CONTINUOUS
 62
   251
100
AcDbLine
 10
143.577871882961
 20
2.820844689254
 30
0.0
 11
143.577871882961
 21
32.820842689254
 31
0.0
  0
TEXT
  5
2A74
330
2A6C
100
AcDbEntity
  8
図枠細線
  6
CONTINUOUS
 62
   252
100
AcDbText
 10
145.716454488093
 20
4.468335689254
 30
0.0
 40
3.5
  1
ＴＯＷＡ　ＳＥＩＤＥＮ　ＩＮＤＵＳＴＲＩＡＬ　ＣＯ．，ＬＴＤ．
 41
0.528937826907
  7
EXCADSTD
 72
     5
 11
212.856295983498
 21
4.468335689254
 31
0.0
100
AcDbText
  0
TEXT
  5
2A75
330
2A6C
100
AcDbEntity
  8
図枠ロゴマーク
  6
CONTINUOUS
 62
   253
100
AcDbText
 10
145.950637593507
 20
9.413236689254
 30
0.0
 40
7.0
  1
東和制電工業株式会社
 41
0.80361088462
  7
EXCADSTD
 72
     5
 11
211.953878250259
 21
9.413236689254
 31
0.0
100
AcDbText
  0
LINE
  5
2A76
330
2A6C
100
AcDbEntity
  8
図枠細線
  6
CONTINUOUS
 62
   252
100
AcDbLine
 10
143.577871882961
 20
25.320842689254
 30
0.0
 11
213.577871882961
 21
25.320842689254
 31
0.0
  0
LINE
  5
2A77
330
2A6C
100
AcDbEntity
  8
図枠太線
  6
CONTINUOUS
 62
   251
100
AcDbLine
 10
143.577863882961
 20
17.820842689254
 30
0.0
 11
213.577871882961
 21
17.820842689254
 31
0.0
  0
LINE
  5
2A78
330
2A6C
100
AcDbEntity
  8
図枠細線
  6
CONTINUOUS
 62
   252
100
AcDbLine
 10
213.577871882961
 20
17.820842689254
 30
0.0
 11
283.577871882961
 21
17.820842689254
 31
0.0
  0
LINE
  5
2A79
330
2A6C
100
AcDbEntity
  8
図枠細線
  6
CONTINUOUS
 62
   252
100
AcDbLine
 10
120.577871882961
 20
32.820842689254
 30
0.0
 11
120.577871882961
 21
17.820842689254
 31
0.0
  0
MTEXT
  5
2A7A
330
2A6C
100
AcDbEntity
  8
図枠細線
 48
10.0
100
AcDbMText
 10
121.100885670352
 20
16.33785922638
 30
0.0
 40
2.0
 41
17.705978285068
 71
     1
 72
     5
  1
{\Fmonotxt.shx,bigfont.shx|c128;日付 DATE}
  0
MTEXT
  5
2A7B
330
2A6C
100
AcDbEntity
  8
図枠細線
 48
10.0
100
AcDbMText
 10
121.254842273491
 20
31.208993514037
 30
0.0
 40
2.0
 41
18.363799568758
 71
     1
 72
     5
  1
{\Fmonotxt.shx,bigfont.shx|c128;製図　DRAWN}
  0
LINE
  5
2A7C
330
2A6C
100
AcDbEntity
  8
図枠細線
  6
CONTINUOUS
 62
   252
100
AcDbLine
 10
97.577871882961
 20
32.820842689254
 30
0.0
 11
97.577871882961
 21
17.820842689254
 31
0.0
  0
MTEXT
  5
2A7D
330
2A6C
100
AcDbEntity
  8
図枠細線
 48
10.0
100
AcDbMText
 10
98.239734796872
 20
16.467764839281
 30
0.0
 40
2.0
 41
17.757791689903
 71
     1
 72
     5
  1
{\Fmonotxt.shx,bigfont.shx|c128;尺度　SCALE}
  0
MTEXT
  5
2A7E
330
2A6C
100
AcDbEntity
  8
図枠細線
 48
10.0
100
AcDbMText
 10
97.864744625154
 20
31.298433377664
 30
0.0
 40
2.0
 41
23.162655920976
 71
     1
 72
     5
  1
{\Fmonotxt.shx,bigfont.shx|c128;検図  CHECKED}
  0
LINE
  5
2A7F
330
2A6C
100
AcDbEntity
  8
図枠細線
  6
CONTINUOUS
 62
   252
100
AcDbLine
 10
97.577871882961
 20
2.820843367826
 30
0.0
 11
97.577871882961
 21
17.820841367826
 31
0.0
  0
LINE
  5
2A80
330
2A6C
100
AcDbEntity
  8
図枠細線
  6
CONTINUOUS
 62
   252
100
AcDbLine
 10
120.577871882961
 20
2.820844010683
 30
0.0
 11
120.577871882961
 21
17.820842010683
 31
0.0
  0
MTEXT
  5
2A81
330
2A6C
100
AcDbEntity
  8
図枠細線
 48
10.0
100
AcDbMText
 10
81.402399084102
 20
16.316484117426
 30
0.0
 40
2.0
 41
12.920322819369
 71
     1
 72
     5
  1
{\Fmonotxt.shx,bigfont.shx|c128;第三角法}
  0
MTEXT
  5
2A82
330
2A6C
100
AcDbEntity
  8
図枠細線
 48
10.0
100
AcDbMText
 10
75.736576535096
 20
11.080410931319
 30
0.0
 40
2.0
 41
21.072870671471
 71
     1
 72
     5
  1
{\Fmonotxt.shx,bigfont.shx|c128;THIRD ANGLE\PPROJECTION}
  0
LINE
  5
2A83
330
2A6C
100
AcDbEntity
  8
図枠太線
  6
CONTINUOUS
 62
   251
100
AcDbLine
 10
74.577871882961
 20
2.820844689254
 30
0.0
 11
74.577871882961
 21
32.820842689254
 31
0.0
  0
MTEXT
  5
2A84
330
2A6C
100
AcDbEntity
  8
図枠細線
 48
10.0
100
AcDbMText
 10
75.060214781573
 20
31.298434778555
 30
0.0
 40
2.0
 41
22.240928805967
 71
     1
 72
     5
  1
{\Fmonotxt.shx,bigfont.shx|c128;承認 APPROVED}
  0
LINE
  5
2A85
330
2A6C
100
AcDbEntity
  8
図枠細線
  6
CONTINUOUS
100
AcDbLine
 10
3.577871882961
 20
17.820844689254
 30
0.0
 11
74.577871882961
 21
17.820844689254
 31
0.0
  0
LINE
  5
2A86
330
2A6C
100
AcDbEntity
  8
図枠細線
  6
CONTINUOUS
 62
   252
100
AcDbLine
 10
3.577871882961
 20
27.820842689254
 30
0.0
 11
74.577871882961
 21
27.820842689254
 31
0.0
  0
LINE
  5
2A87
330
2A6C
100
AcDbEntity
  8
図枠細線
  6
CONTINUOUS
 62
   252
100
AcDbLine
 10
3.577871882961
 20
22.820842689254
 30
0.0
 11
74.577871882961
 21
22.820842689254
 31
0.0
  0
LINE
  5
2A88
330
2A6C
100
AcDbEntity
  8
図枠細線
  6
CONTINUOUS
 62
   252
100
AcDbLine
 10
3.577871882961
 20
12.820842689254
 30
0.0
 11
74.577871882961
 21
12.820842689254
 31
0.0
  0
LINE
  5
2A89
330
2A6C
100
AcDbEntity
  8
図枠細線
  6
CONTINUOUS
 62
   252
100
AcDbLine
 10
3.577871882961
 20
7.820844689254
 30
0.0
 11
74.577871882961
 21
7.820844689254
 31
0.0
  0
LINE
  5
2A8A
330
2A6C
100
AcDbEntity
  8
図枠細線
  6
CONTINUOUS
100
AcDbLine
 10
74.577871882961
 20
17.820843689254
 30
0.0
 11
143.577871882961
 21
17.820841224969
 31
0.0
  0
LINE
  5
2A8B
330
2A6C
100
AcDbEntity
  8
図枠太線
  6
CONTINUOUS
 62
   251
100
AcDbLine
 10
3.577871882961
 20
2.820844689254
 30
0.0
 11
283.577871882961
 21
2.820844689254
 31
0.0
  0
LINE
  5
2A8C
330
2A6C
100
AcDbEntity
  8
図枠太線
  6
CONTINUOUS
 62
   251
100
AcDbLine
 10
3.577871882961
 20
2.820844689254
 30
0.0
 11
3.577871882961
 21
32.820842689254
 31
0.0
  0
ENDBLK
  5
2A8D
330
2A6C
100
AcDbEntity
  8
0
100
AcDbBlockEnd
  0
BLOCK
  5
2AF8
330
2AF4
100
AcDbEntity
  8
0
 48
10.0
100
AcDbBlockBegin
  2
_OPEN30
 70
     0
 10
0.0
 20
0.0
 30
0.0
  3
_OPEN30
  1
_OPEN30
  0
LINE
  5
2AF5
330
2AF4
100
AcDbEntity
  8
0
  6
BYBLOCK
 62
     0
100
AcDbLine
 10
-1.0
 20
0.26794919
 30
0.0
 11
0.0
 21
0.0
 31
0.0
  0
LINE
  5
2AF6
330
2AF4
100
AcDbEntity
  8
0
  6
BYBLOCK
 62
     0
100
AcDbLine
 10
0.0
 20
0.0
 30
0.0
 11
-1.0
 21
-0.26794919
 31
0.0
  0
LINE
  5
2AF7
330
2AF4
100
AcDbEntity
  8
0
  6
BYBLOCK
 62
     0
100
AcDbLine
 10
0.0
 20
0.0
 30
0.0
 11
-1.0
 21
0.0
 31
0.0
  0
ENDBLK
  5
2AF9
330
2AF4
100
AcDbEntity
  8
0
 48
10.0
100
AcDbBlockEnd
  0
BLOCK
  5
3025
330
3024
100
AcDbEntity
  8
0
 48
10.0
100
AcDbBlockBegin
  2
パドル_W1
 70
     0
 10
0.0
 20
0.0
 30
0.0
  3
パドル_W1
  1
パドル_W1
  0
LINE
  5
3026
330
3024
100
AcDbEntity
  8
中心線
 48
10.0
100
AcDbLine
 10
124.6832879095
 20
220.674073777677
 30
0.0
 11
131.9189439095
 21
220.674073777677
 31
0.0
  0
LINE
  5
3027
330
3024
100
AcDbEntity
  8
外形線
 48
10.0
100
AcDbLine
 10
58.3011159095
 20
260.651761921811
 30
0.0
 11
58.3011159095
 21
180.651761921811
 31
0.0
  0
LINE
  5
3028
330
3024
100
AcDbEntity
  8
外形線
 48
10.0
100
AcDbLine
 10
58.3011159095
 20
180.651761921811
 30
0.0
 11
123.3011159095
 21
180.651761921811
 31
0.0
  0
LINE
  5
3029
330
3024
100
AcDbEntity
  8
外形線
 48
10.0
100
AcDbLine
 10
138.3011159095
 20
208.651761921811
 30
0.0
 11
138.3011159095
 21
212.376811207105
 31
0.0
  0
LINE
  5
302A
330
3024
100
AcDbEntity
  8
外形線
 48
10.0
100
AcDbLine
 10
123.3011159095
 20
260.651761921811
 30
0.0
 11
58.3011159095
 21
260.651761921811
 31
0.0
  0
LINE
  5
302B
330
3024
100
AcDbEntity
  8
外形線
 48
10.0
100
AcDbLine
 10
138.3011159095
 20
232.651761921811
 30
0.0
 11
123.3011159095
 21
260.651761921811
 31
0.0
  0
LINE
  5
302C
330
3024
100
AcDbEntity
  8
外形線
 48
10.0
100
AcDbLine
 10
138.3011159095
 20
208.651761921811
 30
0.0
 11
123.3011159095
 21
180.651761921811
 31
0.0
  0
LINE
  5
302D
330
3024
100
AcDbEntity
  8
外形線
 48
10.0
100
AcDbLine
 10
153.3011159095
 20
212.376811207105
 30
0.0
 11
153.3011159095
 21
228.941629207105
 31
0.0
  0
LINE
  5
302E
330
3024
100
AcDbEntity
  8
外形線
100
AcDbLine
 10
125.0147379095
 20
212.376811207105
 30
0.0
 11
153.3011159095
 21
212.376811207105
 31
0.0
  0
LINE
  5
302F
330
3024
100
AcDbEntity
  8
細線
100
AcDbLine
 10
153.2891519095
 20
216.518045207105
 30
0.0
 11
124.6692799095
 21
216.518045207105
 31
0.0
  0
LINE
  5
3030
330
3024
100
AcDbEntity
  8
外形線
100
AcDbLine
 10
125.0147379095
 20
228.941629207105
 30
0.0
 11
123.3011159095
 21
227.228007207105
 31
0.0
  0
ARC
  5
3031
330
3024
100
AcDbEntity
  8
細線
100
AcDbCircle
 10
126.4810479095
 20
227.420755207105
 30
0.0
 40
3.18575
100
AcDbArc
 50
183.469852255156
 51
235.339263082109
  0
LINE
  5
3032
330
3024
100
AcDbEntity
  8
細線
100
AcDbLine
 10
153.2891519095
 20
224.800395207105
 30
0.0
 11
124.6692799095
 21
224.800395207105
 31
0.0
  0
ARC
  5
3033
330
3024
100
AcDbEntity
  8
細線
100
AcDbCircle
 10
126.4810479095
 20
213.897685207105
 30
0.0
 40
3.18575
100
AcDbArc
 50
124.660776613574
 51
176.530130144749
  0
LINE
  5
3034
330
3024
100
AcDbEntity
  8
外形線
100
AcDbLine
 10
123.3011159095
 20
227.228007207105
 30
0.0
 11
123.3011159095
 21
214.090433207105
 31
0.0
  0
CIRCLE
  5
3035
330
3024
100
AcDbEntity
  8
外形線
100
AcDbCircle
 10
128.3011159095
 20
220.674073777677
 30
0.0
 40
2.28479
  0
ARC
  5
3036
330
3024
100
AcDbEntity
  8
細線
100
AcDbCircle
 10
130.2525019095
 20
220.659219207105
 30
0.0
 40
6.951389999999999
100
AcDbArc
 50
143.43540034864
 51
216.564582051267
  0
LINE
  5
3037
330
3024
100
AcDbEntity
  8
中心線
 48
10.0
100
AcDbLine
 10
128.3011159095
 20
224.291901777677
 30
0.0
 11
128.3011159095
 21
217.056245777676
 31
0.0
  0
LINE
  5
3038
330
3024
100
AcDbEntity
  8
外形線
100
AcDbLine
 10
125.0147379095
 20
212.376811207105
 30
0.0
 11
123.3011159095
 21
214.090433207105
 31
0.0
  0
LINE
  5
3039
330
3024
100
AcDbEntity
  8
外形線
100
AcDbLine
 10
125.0147379095
 20
228.941629207105
 30
0.0
 11
153.3011159095
 21
228.941629207105
 31
0.0
  0
LINE
  5
303A
330
3024
100
AcDbEntity
  8
外形線
 48
10.0
100
AcDbLine
 10
138.3011159095
 20
228.941629207105
 30
0.0
 11
138.3011159095
 21
232.651761921811
 31
0.0
  0
ENDBLK
  5
303B
330
3024
100
AcDbEntity
  8
0
 48
10.0
100
AcDbBlockEnd
  0
BLOCK
  5
3055
330
3054
100
AcDbEntity
  8
0
 48
10.0
100
AcDbBlockBegin
  2
パドル_W1立面図
 70
     0
 10
0.0
 20
0.0
 30
0.0
  3
パドル_W1立面図
  1
パドル_W1立面図
  0
LINE
  5
3056
330
3054
100
AcDbEntity
  8
外形線
 48
10.0
100
AcDbLine
 10
-4.385455455444
 20
189.61846140322
 30
0.0
 11
-7.241459969979
 21
189.61846140322
 31
0.0
  0
LINE
  5
3057
330
3054
100
AcDbEntity
  8
外形線
 48
10.0
100
AcDbLine
 10
-4.385455455444
 20
269.61846140322
 30
0.0
 11
-7.241459969979
 21
269.61846140322
 31
0.0
  0
LINE
  5
3058
330
3054
100
AcDbEntity
  8
外形線
 48
10.0
100
AcDbLine
 10
-4.385455455444
 20
189.61846140322
 30
0.0
 11
-4.385455455444
 21
269.61846140322
 31
0.0
  0
LINE
  5
3059
330
3054
100
AcDbEntity
  8
外形線
 48
10.0
100
AcDbLine
 10
-7.241459969979
 20
269.61846140322
 30
0.0
 11
-7.241459969979
 21
189.61846140322
 31
0.0
  0
LINE
  5
305A
330
3054
100
AcDbEntity
  8
外形線
100
AcDbLine
 10
-4.385468503734
 20
237.376935973808
 30
0.0
 11
1.606659496266
 21
233.917433973808
 31
0.0
  0
ARC
  5
305B
330
3054
100
AcDbEntity
  8
細線
100
AcDbCircle
 10
-5.813446503734
 20
229.633375973808
 30
0.0
 40
8.568
100
AcDbArc
 50
279.594007516002
 51
80.406014579591
  0
LINE
  5
305C
330
3054
100
AcDbEntity
  8
外形線
100
AcDbLine
 10
1.606659496266
 20
233.917433973808
 30
0.0
 11
1.606659496266
 21
225.349439973808
 31
0.0
  0
LINE
  5
305D
330
3054
100
AcDbEntity
  8
外形線
100
AcDbLine
 10
-4.385468503734
 20
221.889815973808
 30
0.0
 11
1.606659496266
 21
225.349439973808
 31
0.0
  0
ARC
  5
305E
330
3054
100
AcDbEntity
  8
細線
100
AcDbCircle
 10
-5.813446503734
 20
229.633375973808
 30
0.0
 40
7.458525999999999
100
AcDbArc
 50
281.037746568172
 51
78.962275527419
  0
LINE
  5
305F
330
3054
100
AcDbEntity
  8
外形線
100
AcDbLine
 10
-7.241454503734
 20
221.889845973808
 30
0.0
 11
-13.233550503734
 21
225.349439973808
 31
0.0
  0
LINE
  5
3060
330
3054
100
AcDbEntity
  8
外形線
100
AcDbLine
 10
-13.233550503734
 20
225.349439973808
 30
0.0
 11
-13.233550503734
 21
233.917433973808
 31
0.0
  0
LINE
  5
3061
330
3054
100
AcDbEntity
  8
外形線
100
AcDbLine
 10
-7.241454503734
 20
237.376905973808
 30
0.0
 11
-13.233550503734
 21
233.917433973808
 31
0.0
  0
ARC
  5
3062
330
3054
100
AcDbEntity
  8
細線
100
AcDbCircle
 10
-5.813446503734
 20
229.633375973808
 30
0.0
 40
7.458525999999999
100
AcDbArc
 50
101.038013199227
 51
258.962026496458
  0
ARC
  5
3063
330
3054
100
AcDbEntity
  8
細線
100
AcDbCircle
 10
-5.813446503734
 20
229.633375973808
 30
0.0
 40
8.568
100
AcDbArc
 50
99.594159555498
 51
260.405880140189
  0
ENDBLK
  5
3064
330
3054
100
AcDbEntity
  8
0
 48
10.0
100
AcDbBlockEnd
  0
BLOCK
  5
3137
330
3136
100
AcDbEntity
  8
0
 48
10.0
100
AcDbBlockBegin
  2
*D8
 70
     1
 10
0.0
 20
0.0
 30
0.0
  3
*D8
  1
*D8
  0
LINE
  5
3138
330
3136
100
AcDbEntity
  8
寸法線
 62
     0
 48
10.0
100
AcDbLine
 10
-49.24303505395
 20
269.61846140322
 30
0.0
 11
-71.827276343155
 21
269.61846140322
 31
0.0
  0
LINE
  5
3139
330
3136
100
AcDbEntity
  8
寸法線
 62
     0
 48
10.0
100
AcDbLine
 10
-49.24303505395
 20
189.61846140322
 30
0.0
 11
-71.827276343155
 21
189.61846140322
 31
0.0
  0
LINE
  5
313A
330
3136
100
AcDbEntity
  8
寸法線
 62
     0
 48
10.0
100
AcDbLine
 10
-70.577276343155
 20
263.61846140322
 30
0.0
 11
-70.577276343155
 21
195.61846140322
 31
0.0
  0
INSERT
  5
313B
330
3136
100
AcDbEntity
  8
寸法線
 62
     0
 48
10.0
100
AcDbBlockReference
  2
_OPEN30
 10
-70.577276343155
 20
269.61846140322
 30
0.0
 41
6.0
 42
6.0
 43
6.0
 50
90.0
  0
INSERT
  5
313C
330
3136
100
AcDbEntity
  8
寸法線
 62
     0
 48
10.0
100
AcDbBlockReference
  2
_OPEN30
 10
-70.577276343155
 20
189.61846140322
 30
0.0
 41
6.0
 42
6.0
 43
6.0
 50
270.0
  0
MTEXT
  5
313D
330
3136
100
AcDbEntity
  8
寸法線
 62
     0
 48
10.0
100
AcDbMText
 10
-73.702276343155
 20
229.61846140322
 30
0.0
 40
5.0
 41
0.0
 71
     5
 72
     1
  1
\A1;80
 11
6.123031769111886E-17
 21
1.0
 31
0.0
  0
POINT
  5
313E
330
3136
100
AcDbEntity
  8
DEFPOINTS
 62
     0
 48
10.0
100
AcDbPoint
 10
-48.61803505395
 20
269.61846140322
 30
0.0
  0
POINT
  5
313F
330
3136
100
AcDbEntity
  8
DEFPOINTS
 62
     0
 48
10.0
100
AcDbPoint
 10
-48.61803505395
 20
189.61846140322
 30
0.0
  0
POINT
  5
3140
330
3136
100
AcDbEntity
  8
DEFPOINTS
 62
     0
 48
10.0
100
AcDbPoint
 10
-70.577276343155
 20
189.61846140322
 30
0.0
  0
ENDBLK
  5
3141
330
3136
100
AcDbEntity
  8
0
 48
10.0
100
AcDbBlockEnd
  0
BLOCK
  5
3143
330
3142
100
AcDbEntity
  8
0
 48
10.0
100
AcDbBlockBegin
  2
*D9
 70
     1
 10
0.0
 20
0.0
 30
0.0
  3
*D9
  1
*D9
  0
LINE
  5
3144
330
3142
100
AcDbEntity
  8
寸法線
 62
     0
 48
10.0
100
AcDbLine
 10
-48.61803505395
 20
188.99346140322
 30
0.0
 11
-48.61803505395
 21
169.842404217648
 31
0.0
  0
LINE
  5
3145
330
3142
100
AcDbEntity
  8
寸法線
 62
     0
 48
10.0
100
AcDbLine
 10
31.38196494605
 20
216.99346140322
 30
0.0
 11
31.38196494605
 21
169.842404217648
 31
0.0
  0
LINE
  5
3146
330
3142
100
AcDbEntity
  8
寸法線
 62
     0
 48
10.0
100
AcDbLine
 10
-42.61803505395
 20
171.092404217648
 30
0.0
 11
25.38196494605
 21
171.092404217648
 31
0.0
  0
INSERT
  5
3147
330
3142
100
AcDbEntity
  8
寸法線
 62
     0
 48
10.0
100
AcDbBlockReference
  2
_OPEN30
 10
-48.61803505395
 20
171.092404217648
 30
0.0
 41
6.0
 42
6.0
 43
6.0
 50
180.0
  0
INSERT
  5
3148
330
3142
100
AcDbEntity
  8
寸法線
 62
     0
 48
10.0
100
AcDbBlockReference
  2
_OPEN30
 10
31.38196494605
 20
171.092404217648
 30
0.0
 41
6.0
 42
6.0
 43
6.0
  0
MTEXT
  5
3149
330
3142
100
AcDbEntity
  8
寸法線
 62
     0
 48
10.0
100
AcDbMText
 10
-8.61803505395
 20
174.217404217648
 30
0.0
 40
5.0
 41
0.0
 71
     5
 72
     1
  1
\A1;80
  0
POINT
  5
314A
330
3142
100
AcDbEntity
  8
DEFPOINTS
 62
     0
 48
10.0
100
AcDbPoint
 10
-48.61803505395
 20
189.61846140322
 30
0.0
  0
POINT
  5
314B
330
3142
100
AcDbEntity
  8
DEFPOINTS
 62
     0
 48
10.0
100
AcDbPoint
 10
31.38196494605
 20
217.61846140322
 30
0.0
  0
POINT
  5
314C
330
3142
100
AcDbEntity
  8
DEFPOINTS
 62
     0
 48
10.0
100
AcDbPoint
 10
31.38196494605
 20
171.092404217648
 30
0.0
  0
ENDBLK
  5
314D
330
3142
100
AcDbEntity
  8
0
 48
10.0
100
AcDbBlockEnd
  0
BLOCK
  5
314F
330
314E
100
AcDbEntity
  8
0
 48
10.0
100
AcDbBlockBegin
  2
*D10
 70
     1
 10
0.0
 20
0.0
 30
0.0
  3
*D10
  1
*D10
  0
LINE
  5
3150
330
314E
100
AcDbEntity
  8
寸法線
 62
     0
 48
10.0
100
AcDbLine
 10
-142.545856406188
 20
188.99346140322
 30
0.0
 11
-142.545856406188
 21
171.16763126853
 31
0.0
  0
LINE
  5
3151
330
314E
100
AcDbEntity
  8
寸法線
 62
     0
 48
10.0
100
AcDbLine
 10
-139.689851891653
 20
188.99346140322
 30
0.0
 11
-139.689851891653
 21
171.16763126853
 31
0.0
  0
LINE
  5
3152
330
314E
100
AcDbEntity
  8
寸法線
 62
     0
 48
10.0
100
AcDbLine
 10
-148.545856406188
 20
172.41763126853
 30
0.0
 11
-154.545856406188
 21
172.41763126853
 31
0.0
  0
LINE
  5
3153
330
314E
100
AcDbEntity
  8
寸法線
 62
     0
 48
10.0
100
AcDbLine
 10
-133.689851891653
 20
172.41763126853
 30
0.0
 11
-120.232745110466
 21
172.41763126853
 31
0.0
  0
LINE
  5
3154
330
314E
100
AcDbEntity
  8
寸法線
 62
     0
 48
10.0
100
AcDbLine
 10
-142.545856406188
 20
172.41763126853
 30
0.0
 11
-139.689851891653
 21
172.41763126853
 31
0.0
  0
INSERT
  5
3155
330
314E
100
AcDbEntity
  8
寸法線
 62
     0
 48
10.0
100
AcDbBlockReference
  2
_OPEN30
 10
-142.545856406188
 20
172.41763126853
 30
0.0
 41
6.0
 42
6.0
 43
6.0
  0
INSERT
  5
3156
330
314E
100
AcDbEntity
  8
寸法線
 62
     0
 48
10.0
100
AcDbBlockReference
  2
_OPEN30
 10
-139.689851891653
 20
172.41763126853
 30
0.0
 41
6.0
 42
6.0
 43
6.0
 50
180.0
  0
MTEXT
  5
3157
330
314E
100
AcDbEntity
  8
寸法線
 62
     0
 48
10.0
100
AcDbMText
 10
-123.961298501059
 20
175.54263126853
 30
0.0
 40
5.0
 41
0.0
 71
     5
 72
     1
  1
\A1;1.5
  0
POINT
  5
3158
330
314E
100
AcDbEntity
  8
DEFPOINTS
 62
     0
 48
10.0
100
AcDbPoint
 10
-142.545856406188
 20
189.61846140322
 30
0.0
  0
POINT
  5
3159
330
314E
100
AcDbEntity
  8
DEFPOINTS
 62
     0
 48
10.0
100
AcDbPoint
 10
-139.689851891653
 20
189.61846140322
 30
0.0
  0
POINT
  5
315A
330
314E
100
AcDbEntity
  8
DEFPOINTS
 62
     0
 48
10.0
100
AcDbPoint
 10
-139.689851891653
 20
172.41763126853
 30
0.0
  0
ENDBLK
  5
315B
330
314E
100
AcDbEntity
  8
0
 48
10.0
100
AcDbBlockEnd
  0
BLOCK
  5
3170
330
315C
100
AcDbEntity
  8
0
 48
10.0
100
AcDbBlockBegin
  2
A$C384A4FFB
 70
     0
 10
0.0
 20
0.0
 30
0.0
  3
A$C384A4FFB
  1
A$C384A4FFB
  0
LINE
  5
315D
330
315C
100
AcDbEntity
  8
外形線
100
AcDbLine
 10
312.227694679646
 20
154.159896392983
 30
0.0
 11
519.638224678776
 21
154.159896392983
 31
0.0
  0
LINE
  5
315E
330
315C
100
AcDbEntity
  8
外形線
100
AcDbLine
 10
312.227694679646
 20
144.159973892983
 30
0.0
 11
519.638224678776
 21
144.159973892983
 31
0.0
  0
LINE
  5
315F
330
315C
100
AcDbEntity
  8
外形線
100
AcDbLine
 10
303.727694679646
 20
157.303858892983
 30
0.0
 11
309.981067179646
 21
157.303858892983
 31
0.0
  0
LINE
  5
3160
330
315C
100
AcDbEntity
  8
外形線
100
AcDbLine
 10
309.981067179646
 20
157.303858892983
 30
0.0
 11
312.227619679646
 21
155.057153892983
 31
0.0
  0
LINE
  5
3161
330
315C
100
AcDbEntity
  8
細線
100
AcDbLine
 10
305.727694679646
 20
153.231858892983
 30
0.0
 11
310.983175606654
 21
153.231858892983
 31
0.0
  0
ARC
  5
3162
330
315C
100
AcDbEntity
  8
細線
100
AcDbCircle
 10
308.639057179646
 20
156.166926392983
 30
0.0
 40
3.7563025
100
AcDbArc
 50
308.612371782873
 51
342.81588950412
  0
LINE
  5
3163
330
315C
100
AcDbEntity
  8
外形線
100
AcDbLine
 10
303.727694679646
 20
141.015938892983
 30
0.0
 11
309.981067179646
 21
141.015938892983
 31
0.0
  0
LINE
  5
3164
330
315C
100
AcDbEntity
  8
外形線
100
AcDbLine
 10
309.981067179646
 20
141.015938892983
 30
0.0
 11
312.227619679646
 21
143.262568892983
 31
0.0
  0
LINE
  5
3165
330
315C
100
AcDbEntity
  8
外形線
100
AcDbLine
 10
303.727694679646
 20
157.303858892983
 30
0.0
 11
303.727694679646
 21
141.015938892983
 31
0.0
  0
LINE
  5
3166
330
315C
100
AcDbEntity
  8
外形線
100
AcDbLine
 10
305.727694679646
 20
157.303858892983
 30
0.0
 11
305.727694679646
 21
141.015938892983
 31
0.0
  0
LINE
  5
3167
330
315C
100
AcDbEntity
  8
細線
100
AcDbLine
 10
305.727694679646
 20
145.087976392983
 30
0.0
 11
310.983135652015
 21
145.087976392983
 31
0.0
  0
ARC
  5
3168
330
315C
100
AcDbEntity
  8
細線
100
AcDbCircle
 10
308.639057179646
 20
142.152718892983
 30
0.0
 40
3.7563025
100
AcDbArc
 50
17.184150191555
 51
51.38761061704
  0
LINE
  5
3169
330
315C
100
AcDbEntity
  8
外形線
100
AcDbLine
 10
312.227694679646
 20
143.262491392983
 30
0.0
 11
312.227694679646
 21
155.057153892983
 31
0.0
  0
ARC
  5
316A
330
315C
100
AcDbEntity
  8
細線
100
AcDbCircle
 10
304.943837179646
 20
149.159861392983
 30
0.0
 40
7.2838425
100
AcDbArc
 50
326.010120640452
 51
33.98932849733
  0
DIMENSION
  5
316B
330
315C
100
AcDbEntity
  8
寸法線
 48
10.0
100
AcDbDimension
  2
*D10
 10
14.856002832544
 20
2.932922293165
 30
0.0
 11
30.584556223137
 21
6.057922293165
 31
0.0
 12
154.545854724197
 22
-169.484708975365
 32
0.0
  1
1.5
  3
ISO-25
100
AcDbAlignedDimension
 13
11.999998318009
 23
20.133752427855
 33
0.0
 14
14.856002832544
 24
20.133752427855
 34
0.0
100
AcDbRotatedDimension
1001
ACAD
1000
DSTYLE
1002
{
1070
     5
1000
OPEN30
1070
    41
1040
6.0
1070
    47
1040
0.1
1070
    48
1040
0.1
1070
    73
1070
     0
1070
   140
1040
5.0
1070
   271
1070
     1
1070
   272
1070
     1
1070
   341
1005
2AF4
1002
}
  0
INSERT
  5
316C
330
315C
100
AcDbEntity
  8
外形線
100
AcDbBlockReference
  2
パドル_W1立面図
 10
19.241458287988
 20
-169.484708975365
 30
0.0
  0
DIMENSION
  5
316D
330
315C
100
AcDbEntity
  8
寸法線
 48
10.0
100
AcDbDimension
  2
*D9
 10
185.927819670247
 20
1.607695242283
 30
0.0
 11
145.927819670247
 21
4.732695242283
 31
0.0
 12
154.545854724197
 22
-169.484708975365
 32
0.0
  3
ISO-25
100
AcDbAlignedDimension
 13
105.927819670247
 23
20.133752427855
 33
0.0
 14
185.927819670247
 24
48.133752427855
 34
0.0
100
AcDbRotatedDimension
1001
ACAD
1000
DSTYLE
1002
{
1070
     5
1000
OPEN30
1070
    41
1040
6.0
1070
    47
1040
0.1
1070
    48
1040
0.1
1070
    73
1070
     0
1070
   140
1040
5.0
1070
   271
1070
     1
1070
   272
1070
     1
1070
   341
1005
2AF4
1002
}
  0
DIMENSION
  5
316E
330
315C
100
AcDbEntity
  8
寸法線
 48
10.0
100
AcDbDimension
  2
*D8
 10
83.968578381042
 20
20.133752427855
 30
0.0
 11
80.843578381042
 21
60.133752427855
 31
0.0
 12
154.545854724197
 22
-169.484708975365
 32
0.0
  3
ISO-25
100
AcDbAlignedDimension
 13
105.927819670247
 23
100.133752427855
 33
0.0
 14
105.927819670247
 24
20.133752427855
 34
0.0
 50
90.0
100
AcDbRotatedDimension
1001
ACAD
1000
DSTYLE
1002
{
1070
     5
1000
OPEN30
1070
    41
1040
6.0
1070
    47
1040
0.1
1070
    48
1040
0.1
1070
    73
1070
     0
1070
   140
1040
5.0
1070
   271
1070
     1
1070
   272
1070
     1
1070
   341
1005
2AF4
1002
}
  0
INSERT
  5
316F
330
315C
100
AcDbEntity
  8
外形線
 48
10.0
100
AcDbBlockReference
  2
パドル_W1
 10
47.626703760747
 20
-160.518009493956
 30
0.0
  0
ENDBLK
  5
3171
330
315C
100
AcDbEntity
  8
0
 48
10.0
100
AcDbBlockEnd
  0
BLOCK
  5
34BD
330
34BA
100
AcDbEntity
  8
0
 48
10.0
100
AcDbBlockBegin
  2
A$C77C530E9
 70
     0
 10
0.0
 20
0.0
 30
0.0
  3
A$C77C530E9
  1
A$C77C530E9
  0
LINE
  5
34BB
330
34BA
100
AcDbEntity
  8
中心線
 48
10.0
100
AcDbLine
 10
0.000000851412
 20
22.054596647591
 30
0.0
 11
22.054597830693
 21
-0.000000331691
 31
0.0
  0
LINE
  5
34BC
330
34BA
100
AcDbEntity
  8
中心線
 48
10.0
100
AcDbLine
 10
47.201721658668
 20
-0.000000331691
 30
0.0
 11
69.256318637949
 21
22.054596647591
 31
0.0
  0
ENDBLK
  5
34BE
330
34BA
100
AcDbEntity
  8
0
 48
10.0
100
AcDbBlockEnd
  0
BLOCK
  5
673A
330
672E
100
AcDbEntity
  8
0
 48
10.0
100
AcDbBlockBegin
  2
*D19
 70
     1
 10
0.0
 20
0.0
 30
0.0
  3
*D19
  1
*D19
  0
LINE
  5
722F
330
672E
100
AcDbEntity
  8
寸法線
 62
     0
 48
10.0
100
AcDbLine
 10
487.75603102365
 20
606.681993530943
 30
0.0
 11
487.13103102365
 21
606.681993530943
 31
0.0
  0
LINE
  5
7230
330
672E
100
AcDbEntity
  8
寸法線
 62
     0
 48
10.0
100
AcDbLine
 10
487.75603102365
 20
616.681993530943
 30
0.0
 11
487.13103102365
 21
616.681993530943
 31
0.0
  0
LINE
  5
7231
330
672E
100
AcDbEntity
  8
寸法線
 62
     0
 48
10.0
100
AcDbLine
 10
488.38103102365
 20
622.681993530943
 30
0.0
 11
488.38103102365
 21
649.765326864276
 31
0.0
  0
LINE
  5
7232
330
672E
100
AcDbEntity
  8
寸法線
 62
     0
 48
10.0
100
AcDbLine
 10
488.38103102365
 20
606.681993530943
 30
0.0
 11
488.38103102365
 21
616.681993530943
 31
0.0
  0
LINE
  5
7233
330
672E
100
AcDbEntity
  8
寸法線
 62
     0
 48
10.0
100
AcDbLine
 10
488.38103102365
 20
600.681993530943
 30
0.0
 11
488.38103102365
 21
594.681993530943
 31
0.0
  0
INSERT
  5
7234
330
672E
100
AcDbEntity
  8
寸法線
 62
     0
100
AcDbBlockReference
  2
_OPEN30
 10
488.38103102365
 20
606.681993530943
 30
0.0
 41
6.0
 42
6.0
 43
6.0
 50
90.0
  0
INSERT
  5
7235
330
672E
100
AcDbEntity
  8
寸法線
 62
     0
100
AcDbBlockReference
  2
_OPEN30
 10
488.38103102365
 20
616.681993530943
 30
0.0
 41
6.0
 42
6.0
 43
6.0
 50
270.0
  0
MTEXT
  5
7236
330
672E
100
AcDbEntity
  8
寸法線
 62
     0
 48
10.0
100
AcDbMText
 10
482.75603102365
 20
639.223660197609
 30
0.0
 40
10.0
 41
0.0
 71
     5
 72
     1
  1
\A1;φ10
 11
0.0
 21
1.0
 31
0.0
  0
POINT
  5
7237
330
672E
100
AcDbEntity
  8
DEFPOINTS
 62
     0
100
AcDbPoint
 10
488.38103102365
 20
606.681993530943
 30
0.0
  0
POINT
  5
7238
330
672E
100
AcDbEntity
  8
DEFPOINTS
 62
     0
100
AcDbPoint
 10
488.38103102365
 20
616.681993530943
 30
0.0
  0
POINT
  5
7239
330
672E
100
AcDbEntity
  8
DEFPOINTS
 62
     0
100
AcDbPoint
 10
488.38103102365
 20
616.681993530943
 30
0.0
  0
ENDBLK
  5
673B
330
672E
100
AcDbEntity
  8
0
 48
10.0
100
AcDbBlockEnd
  0
BLOCK
  5
676C
330
6762
100
AcDbEntity
  8
0
 48
10.0
100
AcDbBlockBegin
  2
*D20
 70
     1
 10
0.0
 20
0.0
 30
0.0
  3
*D20
  1
*D20
  0
LINE
  5
7683
330
6762
100
AcDbEntity
  8
寸法線
 62
     0
 48
10.0
100
AcDbLine
 10
141.837243507452
 20
552.516020024784
 30
0.0
 11
141.837243507452
 21
412.814177750876
 31
0.0
  0
LINE
  5
7684
330
6762
100
AcDbEntity
  8
寸法線
 62
     0
 48
10.0
100
AcDbLine
 10
542.130074180934
 20
533.549534245649
 30
0.0
 11
542.130074180934
 21
412.814177750876
 31
0.0
  0
LINE
  5
7685
330
6762
100
AcDbEntity
  8
寸法線
 62
     0
 48
10.0
100
AcDbLine
 10
147.837243507452
 20
414.064177750876
 30
0.0
 11
536.130074180934
 21
414.064177750876
 31
0.0
  0
INSERT
  5
7686
330
6762
100
AcDbEntity
  8
寸法線
 62
     0
100
AcDbBlockReference
  2
_OPEN30
 10
141.837243507452
 20
414.064177750876
 30
0.0
 41
6.0
 42
6.0
 43
6.0
 50
180.0
  0
INSERT
  5
7687
330
6762
100
AcDbEntity
  8
寸法線
 62
     0
100
AcDbBlockReference
  2
_OPEN30
 10
542.130074180934
 20
414.064177750876
 30
0.0
 41
6.0
 42
6.0
 43
6.0
  0
POINT
  5
7688
330
6762
100
AcDbEntity
  8
DEFPOINTS
 62
     0
100
AcDbPoint
 10
141.837243507452
 20
553.141020024784
 30
0.0
  0
POINT
  5
7689
330
6762
100
AcDbEntity
  8
DEFPOINTS
 62
     0
100
AcDbPoint
 10
542.130074180934
 20
534.174534245649
 30
0.0
  0
POINT
  5
768A
330
6762
100
AcDbEntity
  8
DEFPOINTS
 62
     0
100
AcDbPoint
 10
542.130074180934
 20
414.064177750876
 30
0.0
  0
ENDBLK
  5
676D
330
6762
100
AcDbEntity
  8
0
 48
10.0
100
AcDbBlockEnd
  0
BLOCK
  5
7392
330
7391
100
AcDbEntity
  8
0
 48
10.0
100
AcDbBlockBegin
  2
A$C135842B4
 70
     0
 10
0.0
 20
0.0
 30
0.0
  3
A$C135842B4
  1
A$C135842B4
  0
LINE
  5
7393
330
7391
100
AcDbEntity
  8
外形線
100
AcDbLine
 10
0.000000359924
 20
20.066964684103
 30
0.0
 11
0.000000359924
 21
6.066947184103
 31
0.0
  0
LINE
  5
7394
330
7391
100
AcDbEntity
  8
外形線
100
AcDbLine
 10
0.000000359924
 20
20.066964684103
 30
0.0
 11
0.000000359924
 21
6.066947184103
 31
0.0
  0
LINE
  5
7395
330
7391
100
AcDbEntity
  8
外形線
100
AcDbLine
 10
0.000000359924
 20
20.066964684103
 30
0.0
 11
4.500007859925
 21
20.066964684103
 31
0.0
  0
LINE
  5
7396
330
7391
100
AcDbEntity
  8
外形線
100
AcDbLine
 10
0.000000359924
 20
20.066964684103
 30
0.0
 11
4.500007859925
 21
20.066964684103
 31
0.0
  0
LINE
  5
7397
330
7391
100
AcDbEntity
  8
外形線
100
AcDbLine
 10
19.500007859925
 20
20.066964684103
 30
0.0
 11
26.500015359925
 21
20.066964684103
 31
0.0
  0
LINE
  5
7398
330
7391
100
AcDbEntity
  8
外形線
100
AcDbLine
 10
4.500007859925
 20
21.566939684103
 30
0.0
 11
19.500007859925
 21
21.566939684103
 31
0.0
  0
LINE
  5
7399
330
7391
100
AcDbEntity
  8
外形線
100
AcDbLine
 10
4.500007859925
 20
21.566939684103
 30
0.0
 11
19.500007859925
 21
21.566939684103
 31
0.0
  0
LINE
  5
739A
330
7391
100
AcDbEntity
  8
外形線
100
AcDbLine
 10
19.500007859925
 20
20.066964684103
 30
0.0
 11
26.572566061358
 21
20.066964684103
 31
0.0
  0
LINE
  5
739B
330
7391
100
AcDbEntity
  8
外形線
100
AcDbLine
 10
26.572566061358
 20
6.166969684103
 30
0.0
 11
26.572566061358
 21
20.066964684103
 31
0.0
  0
LINE
  5
739C
330
7391
100
AcDbEntity
  8
外形線
100
AcDbLine
 10
26.572566061358
 20
6.066947184103
 30
0.0
 11
26.572566061358
 21
20.066964684103
 31
0.0
  0
LINE
  5
739D
330
7391
100
AcDbEntity
  8
外形線
100
AcDbLine
 10
19.500007859925
 20
6.066947184103
 30
0.0
 11
26.500015359925
 21
6.066947184103
 31
0.0
  0
LINE
  5
739E
330
7391
100
AcDbEntity
  8
外形線
100
AcDbLine
 10
19.500007859925
 20
0.566957184103
 30
0.0
 11
19.500007859925
 21
21.566939684103
 31
0.0
  0
LINE
  5
739F
330
7391
100
AcDbEntity
  8
外形線
100
AcDbLine
 10
4.500007859925
 20
0.566957184103
 30
0.0
 11
4.500007859925
 21
21.566939684103
 31
0.0
  0
LINE
  5
73A0
330
7391
100
AcDbEntity
  8
外形線
100
AcDbLine
 10
0.000000359924
 20
6.066947184103
 30
0.0
 11
4.500007859925
 21
6.066947184103
 31
0.0
  0
LINE
  5
73A1
330
7391
100
AcDbEntity
  8
中心線
 48
10.0
100
AcDbLine
 10
12.000007859925
 20
13.633914547349
 30
0.0
 11
12.000007859925
 21
-0.000000179144
 31
0.0
  0
CIRCLE
  5
73A2
330
7391
100
AcDbEntity
  8
外形線
100
AcDbCircle
 10
12.000007859925
 20
6.816957184103
 30
0.0
 40
3.25
  0
LINE
  5
73A3
330
7391
100
AcDbEntity
  8
外形線
100
AcDbLine
 10
4.500007859925
 20
0.566957184103
 30
0.0
 11
19.500007859925
 21
0.566957184103
 31
0.0
  0
LINE
  5
73A4
330
7391
100
AcDbEntity
  8
中心線
 48
10.0
100
AcDbLine
 10
5.183050496679
 20
6.816957184103
 30
0.0
 11
18.816965223171
 21
6.816957184103
 31
0.0
  0
LINE
  5
73A5
330
7391
100
AcDbEntity
  8
中心線
 48
10.0
100
AcDbLine
 10
5.183050496679
 20
6.816957184103
 30
0.0
 11
18.816965223171
 21
6.816957184103
 31
0.0
  0
LINE
  5
73A6
330
7391
100
AcDbEntity
  8
外形線
100
AcDbLine
 10
4.500007859925
 20
0.566957184103
 30
0.0
 11
19.500007859925
 21
0.566957184103
 31
0.0
  0
CIRCLE
  5
73A7
330
7391
100
AcDbEntity
  8
外形線
100
AcDbCircle
 10
12.000007859925
 20
6.816957184103
 30
0.0
 40
3.25
  0
LINE
  5
73A8
330
7391
100
AcDbEntity
  8
中心線
 48
10.0
100
AcDbLine
 10
12.000007859925
 20
13.633914547349
 30
0.0
 11
12.000007859925
 21
-0.000000179144
 31
0.0
  0
LINE
  5
73A9
330
7391
100
AcDbEntity
  8
外形線
100
AcDbLine
 10
0.000000359924
 20
6.066947184103
 30
0.0
 11
4.500007859925
 21
6.066947184103
 31
0.0
  0
LINE
  5
73AA
330
7391
100
AcDbEntity
  8
外形線
100
AcDbLine
 10
4.500007859925
 20
0.566957184103
 30
0.0
 11
4.500007859925
 21
21.566939684103
 31
0.0
  0
LINE
  5
73AB
330
7391
100
AcDbEntity
  8
外形線
100
AcDbLine
 10
19.500007859925
 20
0.566957184103
 30
0.0
 11
19.500007859925
 21
21.566939684103
 31
0.0
  0
LINE
  5
73AC
330
7391
100
AcDbEntity
  8
外形線
100
AcDbLine
 10
19.500007859925
 20
6.066947184103
 30
0.0
 11
26.572566061358
 21
6.066947184103
 31
0.0
  0
ENDBLK
  5
73AD
330
7391
100
AcDbEntity
  8
0
 48
10.0
100
AcDbBlockEnd
  0
BLOCK
  5
73AF
330
73AE
100
AcDbEntity
  8
0
 48
10.0
100
AcDbBlockBegin
  2
A$C76E55026
 70
     0
 10
0.0
 20
0.0
 30
0.0
  3
A$C76E55026
  1
A$C76E55026
  0
ARC
  5
73B0
330
73AE
100
AcDbEntity
  8
外形線
100
AcDbCircle
 10
40.358863614945
 20
18.000000216549
 30
0.0
 40
1.999999999999957
100
AcDbArc
 50
0.0
 51
180.0
  0
LINE
  5
73B1
330
73AE
100
AcDbEntity
  8
外形線
100
AcDbLine
 10
0.000001114945
 20
17.500112716549
 30
0.0
 11
0.000001114945
 21
2.499885216549
 31
0.0
  0
LINE
  5
73B2
330
73AE
100
AcDbEntity
  8
細線
100
AcDbLine
 10
14.358863614945
 20
13.752776966281
 30
0.0
 11
0.000001114945
 21
13.752776966281
 31
0.0
  0
LINE
  5
73B3
330
73AE
100
AcDbEntity
  8
外形線
100
AcDbLine
 10
14.358863614945
 20
17.500112716549
 30
0.0
 11
0.000001114945
 21
17.500112716549
 31
0.0
  0
ARC
  5
73B4
330
73AE
100
AcDbEntity
  8
外形線
100
AcDbCircle
 10
20.358863614945
 20
18.000000216549
 30
0.0
 40
1.999999999999957
100
AcDbArc
 50
0.0
 51
168.578813725037
  0
ARC
  5
73B5
330
73AE
100
AcDbEntity
  8
外形線
100
AcDbCircle
 10
24.358863614945
 20
18.000000216549
 30
0.0
 40
1.999999999999957
100
AcDbArc
 50
0.0
 51
168.578813725037
  0
ARC
  5
73B6
330
73AE
100
AcDbEntity
  8
外形線
100
AcDbCircle
 10
28.358863614944
 20
18.000000216549
 30
0.0
 40
1.999999999999957
100
AcDbArc
 50
0.0
 51
168.578813725037
  0
ARC
  5
73B7
330
73AE
100
AcDbEntity
  8
外形線
100
AcDbCircle
 10
32.358863614945
 20
18.000000216549
 30
0.0
 40
1.999999999999957
100
AcDbArc
 50
0.0
 51
168.578813725037
  0
ARC
  5
73B8
330
73AE
100
AcDbEntity
  8
外形線
100
AcDbCircle
 10
36.358863614945
 20
18.000000216549
 30
0.0
 40
1.999999999999957
100
AcDbArc
 50
0.0
 51
168.578813725037
  0
ARC
  5
73B9
330
73AE
100
AcDbEntity
  8
外形線
100
AcDbCircle
 10
16.358863614945
 20
18.000000216549
 30
0.0
 40
1.999999999999957
100
AcDbArc
 50
0.0
 51
180.0
  0
LINE
  5
73BA
330
73AE
100
AcDbEntity
  8
外形線
100
AcDbLine
 10
83.217758614945
 20
16.250112716549
 30
0.0
 11
83.217758614945
 21
3.749885216549
 31
0.0
  0
LINE
  5
73BB
330
73AE
100
AcDbEntity
  8
細線
100
AcDbLine
 10
58.358863614944
 20
13.752776966281
 30
0.0
 11
72.717726114945
 21
13.752776966281
 31
0.0
  0
LINE
  5
73BC
330
73AE
100
AcDbEntity
  8
外形線
100
AcDbLine
 10
81.967756114945
 20
17.500112716549
 30
0.0
 11
58.358863614944
 21
17.500112716549
 31
0.0
  0
ARC
  5
73BD
330
73AE
100
AcDbEntity
  8
外形線
100
AcDbCircle
 10
44.358863614945
 20
18.000000216549
 30
0.0
 40
1.999999999999957
100
AcDbArc
 50
0.0
 51
168.578813725037
  0
ARC
  5
73BE
330
73AE
100
AcDbEntity
  8
外形線
100
AcDbCircle
 10
48.358863614944
 20
18.000000216549
 30
0.0
 40
1.999999999999957
100
AcDbArc
 50
0.0
 51
180.0
  0
ARC
  5
73BF
330
73AE
100
AcDbEntity
  8
外形線
100
AcDbCircle
 10
52.358863614945
 20
18.000000216549
 30
0.0
 40
1.999999999999957
100
AcDbArc
 50
0.0
 51
180.0
  0
ARC
  5
73C0
330
73AE
100
AcDbEntity
  8
外形線
100
AcDbCircle
 10
56.358863614945
 20
18.000000216549
 30
0.0
 40
1.999999999999957
100
AcDbArc
 50
0.0
 51
180.0
  0
LINE
  5
73C1
330
73AE
100
AcDbEntity
  8
細線
100
AcDbLine
 10
75.217726114945
 20
13.752776966281
 30
0.0
 11
81.641106114945
 21
13.752776966281
 31
0.0
  0
LINE
  5
73C2
330
73AE
100
AcDbEntity
  8
外形線
100
AcDbLine
 10
81.967758614945
 20
17.505553716014
 30
0.0
 11
83.217758614945
 21
16.250112716549
 31
0.0
  0
ARC
  5
73C3
330
73AE
100
AcDbEntity
  8
細線
100
AcDbCircle
 10
80.431268453793
 20
16.262953281196
 30
0.0
 40
2.7865197466204
100
AcDbArc
 50
295.732819735836
 51
359.735974322254
  0
LINE
  5
73C4
330
73AE
100
AcDbEntity
  8
細線
100
AcDbLine
 10
40.71925965455
 20
1.603960612586
 30
0.0
 11
42.39846757534
 21
18.396039820509
 31
0.0
  0
ARC
  5
73C5
330
73AE
100
AcDbEntity
  8
外形線
100
AcDbCircle
 10
42.758863614945
 20
2.000000216549
 30
0.0
 40
1.999999999999957
100
AcDbArc
 50
168.578813725075
 51
0.0
  0
LINE
  5
73C6
330
73AE
100
AcDbEntity
  8
外形線
100
AcDbLine
 10
14.358863614945
 20
0.000000216549
 30
0.0
 11
14.358863614945
 21
18.000000216549
 31
0.0
  0
LINE
  5
73C7
330
73AE
100
AcDbEntity
  8
細線
100
AcDbLine
 10
16.71925965455
 20
1.603960612586
 30
0.0
 11
18.39846757534
 21
18.396039820509
 31
0.0
  0
LINE
  5
73C8
330
73AE
100
AcDbEntity
  8
細線
100
AcDbLine
 10
20.742031931777
 20
1.831683384866
 30
0.0
 11
22.39846757534
 21
18.396039820506
 31
0.0
  0
LINE
  5
73C9
330
73AE
100
AcDbEntity
  8
細線
100
AcDbLine
 10
24.71925965455
 20
1.603960612586
 30
0.0
 11
26.39846757534
 21
18.396039820509
 31
0.0
  0
LINE
  5
73CA
330
73AE
100
AcDbEntity
  8
細線
100
AcDbLine
 10
28.758863614945
 20
2.000000216549
 30
0.0
 11
30.39846757534
 21
18.396039820509
 31
0.0
  0
LINE
  5
73CB
330
73AE
100
AcDbEntity
  8
細線
100
AcDbLine
 10
32.71925965455
 20
1.603960612586
 30
0.0
 11
34.39846757534
 21
18.396039820509
 31
0.0
  0
LINE
  5
73CC
330
73AE
100
AcDbEntity
  8
細線
100
AcDbLine
 10
36.71925965455
 20
1.603960612586
 30
0.0
 11
38.358863614944
 21
18.000000216549
 31
0.0
  0
LINE
  5
73CD
330
73AE
100
AcDbEntity
  8
細線
100
AcDbLine
 10
14.358863614945
 20
6.247223466816
 30
0.0
 11
0.000001114945
 21
6.247223466816
 31
0.0
  0
LINE
  5
73CE
330
73AE
100
AcDbEntity
  8
外形線
100
AcDbLine
 10
14.358863614945
 20
2.499885216549
 30
0.0
 11
0.000001114945
 21
2.499885216549
 31
0.0
  0
ARC
  5
73CF
330
73AE
100
AcDbEntity
  8
外形線
100
AcDbCircle
 10
22.758863614945
 20
2.000000216549
 30
0.0
 40
1.999999999999957
100
AcDbArc
 50
168.578813725075
 51
0.0
  0
ARC
  5
73D0
330
73AE
100
AcDbEntity
  8
外形線
100
AcDbCircle
 10
26.758863614945
 20
2.000000216549
 30
0.0
 40
1.999999999999957
100
AcDbArc
 50
168.578813725075
 51
0.0
  0
ARC
  5
73D1
330
73AE
100
AcDbEntity
  8
外形線
100
AcDbCircle
 10
18.758863614945
 20
2.000000216549
 30
0.0
 40
1.999999999999957
100
AcDbArc
 50
168.578813725075
 51
0.0
  0
ARC
  5
73D2
330
73AE
100
AcDbEntity
  8
外形線
100
AcDbCircle
 10
14.758863614944
 20
2.000000216549
 30
0.0
 40
1.999999999999957
100
AcDbArc
 50
258.463040967168
 51
0.0
  0
ARC
  5
73D3
330
73AE
100
AcDbEntity
  8
外形線
100
AcDbCircle
 10
30.758863614945
 20
2.000000216549
 30
0.0
 40
1.999999999999957
100
AcDbArc
 50
168.578813725075
 51
0.0
  0
ARC
  5
73D4
330
73AE
100
AcDbEntity
  8
外形線
100
AcDbCircle
 10
34.758863614944
 20
2.000000216549
 30
0.0
 40
1.999999999999957
100
AcDbArc
 50
168.578813725075
 51
0.0
  0
ARC
  5
73D5
330
73AE
100
AcDbEntity
  8
外形線
100
AcDbCircle
 10
38.758863614945
 20
2.000000216549
 30
0.0
 40
1.999999999999957
100
AcDbArc
 50
168.578813725075
 51
0.0
  0
LINE
  5
73D6
330
73AE
100
AcDbEntity
  8
外形線
100
AcDbLine
 10
72.717726114945
 20
17.500112716549
 30
0.0
 11
72.717726114945
 21
2.499885216549
 31
0.0
  0
LINE
  5
73D7
330
73AE
100
AcDbEntity
  8
外形線
100
AcDbLine
 10
58.358863614944
 20
18.000000216551
 30
0.0
 11
58.358863614944
 21
0.000000216549
 31
0.0
  0
LINE
  5
73D8
330
73AE
100
AcDbEntity
  8
細線
100
AcDbLine
 10
44.719259654547
 20
1.603960612586
 30
0.0
 11
46.358863614945
 21
18.000000216549
 31
0.0
  0
LINE
  5
73D9
330
73AE
100
AcDbEntity
  8
細線
100
AcDbLine
 10
48.719259654551
 20
1.603960612586
 30
0.0
 11
50.358863614945
 21
18.000000216551
 31
0.0
  0
LINE
  5
73DA
330
73AE
100
AcDbEntity
  8
細線
100
AcDbLine
 10
52.71925965455
 20
1.603960612586
 30
0.0
 11
54.358863614945
 21
18.000000216549
 31
0.0
  0
LINE
  5
73DB
330
73AE
100
AcDbEntity
  8
細線
100
AcDbLine
 10
56.71925965455
 20
1.603960612586
 30
0.0
 11
58.358863614944
 21
18.000000216549
 31
0.0
  0
LINE
  5
73DC
330
73AE
100
AcDbEntity
  8
外形線
100
AcDbLine
 10
75.217726114945
 20
17.500112716549
 30
0.0
 11
75.217726114945
 21
2.499885216549
 31
0.0
  0
ARC
  5
73DD
330
73AE
100
AcDbEntity
  8
細線
100
AcDbCircle
 10
77.963218873597
 20
10.000000216549
 30
0.0
 40
5.2545397413469
100
AcDbArc
 50
314.422567418831
 51
45.577432581169
  0
LINE
  5
73DE
330
73AE
100
AcDbEntity
  8
細線
100
AcDbLine
 10
58.358863614944
 20
6.247223466816
 30
0.0
 11
72.717726114945
 21
6.247223466816
 31
0.0
  0
LINE
  5
73DF
330
73AE
100
AcDbEntity
  8
外形線
100
AcDbLine
 10
81.967756114945
 20
2.499885216549
 30
0.0
 11
58.358863614944
 21
2.499885216549
 31
0.0
  0
ARC
  5
73E0
330
73AE
100
AcDbEntity
  8
外形線
100
AcDbCircle
 10
46.758863614945
 20
2.000000216549
 30
0.0
 40
1.999999999999957
100
AcDbArc
 50
168.578813725075
 51
0.0
  0
ARC
  5
73E1
330
73AE
100
AcDbEntity
  8
外形線
100
AcDbCircle
 10
54.758863614944
 20
2.000000216549
 30
0.0
 40
1.999999999999957
100
AcDbArc
 50
168.578813725075
 51
0.0
  0
ARC
  5
73E2
330
73AE
100
AcDbEntity
  8
外形線
100
AcDbCircle
 10
50.758863614945
 20
2.000000216549
 30
0.0
 40
1.999999999999957
100
AcDbArc
 50
168.578813725075
 51
0.0
  0
ARC
  5
73E3
330
73AE
100
AcDbEntity
  8
外形線
100
AcDbCircle
 10
58.758863614945
 20
2.000000216549
 30
0.0
 40
1.999999999999957
100
AcDbArc
 50
168.578813725075
 51
258.463040967168
  0
LINE
  5
73E4
330
73AE
100
AcDbEntity
  8
細線
100
AcDbLine
 10
75.217726114945
 20
6.247223466816
 30
0.0
 11
81.641106114945
 21
6.247223466816
 31
0.0
  0
ARC
  5
73E5
330
73AE
100
AcDbEntity
  8
細線
100
AcDbCircle
 10
80.431268453793
 20
3.737047151901
 30
0.0
 40
2.7865197466204
100
AcDbArc
 50
0.264025677746
 51
64.267180264164
  0
LINE
  5
73E6
330
73AE
100
AcDbEntity
  8
外形線
100
AcDbLine
 10
81.967758614945
 20
2.494446717084
 30
0.0
 11
83.217758614945
 21
3.749887716549
 31
0.0
  0
ENDBLK
  5
73E7
330
73AE
100
AcDbEntity
  8
0
 48
10.0
100
AcDbBlockEnd
  0
BLOCK
  5
74A5
330
7499
100
AcDbEntity
  8
0
 48
10.0
100
AcDbBlockBegin
  2
*D28
 70
     1
 10
0.0
 20
0.0
 30
0.0
  3
*D28
  1
*D28
  0
LINE
  5
756D
330
7499
100
AcDbEntity
  8
寸法線
 62
     0
 48
10.0
100
AcDbLine
 10
279.032280443786
 20
607.674592995649
 30
0.0
 11
278.407280443786
 21
607.674592995649
 31
0.0
  0
LINE
  5
756E
330
7499
100
AcDbEntity
  8
寸法線
 62
     0
 48
10.0
100
AcDbLine
 10
279.032280443786
 20
615.674625495649
 30
0.0
 11
278.407280443786
 21
615.674625495649
 31
0.0
  0
LINE
  5
756F
330
7499
100
AcDbEntity
  8
寸法線
 62
     0
 48
10.0
100
AcDbLine
 10
279.657280443786
 20
621.674625495649
 30
0.0
 11
279.657280443786
 21
643.757958828982
 31
0.0
  0
LINE
  5
7570
330
7499
100
AcDbEntity
  8
寸法線
 62
     0
 48
10.0
100
AcDbLine
 10
279.657280443786
 20
607.674592995649
 30
0.0
 11
279.657280443786
 21
615.674625495649
 31
0.0
  0
LINE
  5
7571
330
7499
100
AcDbEntity
  8
寸法線
 62
     0
 48
10.0
100
AcDbLine
 10
279.657280443786
 20
601.674592995649
 30
0.0
 11
279.657280443786
 21
595.674592995649
 31
0.0
  0
INSERT
  5
7572
330
7499
100
AcDbEntity
  8
寸法線
 62
     0
100
AcDbBlockReference
  2
_OPEN30
 10
279.657280443786
 20
607.674592995649
 30
0.0
 41
6.0
 42
6.0
 43
6.0
 50
90.0
  0
INSERT
  5
7573
330
7499
100
AcDbEntity
  8
寸法線
 62
     0
100
AcDbBlockReference
  2
_OPEN30
 10
279.657280443786
 20
615.674625495649
 30
0.0
 41
6.0
 42
6.0
 43
6.0
 50
270.0
  0
MTEXT
  5
7574
330
7499
100
AcDbEntity
  8
寸法線
 62
     0
 48
10.0
100
AcDbMText
 10
274.02186377712
 20
635.716292162316
 30
0.0
 40
10.0
 41
0.0
 71
     5
 72
     1
  1
\A1;φ8
 11
0.0
 21
1.0
 31
0.0
  0
POINT
  5
7575
330
7499
100
AcDbEntity
  8
DEFPOINTS
 62
     0
100
AcDbPoint
 10
279.657280443786
 20
607.674592995649
 30
0.0
  0
POINT
  5
7576
330
7499
100
AcDbEntity
  8
DEFPOINTS
 62
     0
100
AcDbPoint
 10
279.657280443786
 20
615.674625495649
 30
0.0
  0
POINT
  5
7577
330
7499
100
AcDbEntity
  8
DEFPOINTS
 62
     0
100
AcDbPoint
 10
279.657280443786
 20
615.674625495649
 30
0.0
  0
ENDBLK
  5
74A6
330
7499
100
AcDbEntity
  8
0
 48
10.0
100
AcDbBlockEnd
  0
BLOCK
  5
74C9
330
74BF
100
AcDbEntity
  8
0
 48
10.0
100
AcDbBlockBegin
  2
*D29
 70
     1
 10
0.0
 20
0.0
 30
0.0
  3
*D29
  1
*D29
  0
LINE
  5
768B
330
74BF
100
AcDbEntity
  8
寸法線
 62
     0
 48
10.0
100
AcDbLine
 10
245.145410969268
 20
605.152127995649
 30
0.0
 11
245.145410969268
 21
548.692617680634
 31
0.0
  0
LINE
  5
768C
330
74BF
100
AcDbEntity
  8
寸法線
 62
     0
 48
10.0
100
AcDbLine
 10
290.788492568327
 20
604.049526745649
 30
0.0
 11
290.788492568327
 21
548.692617680634
 31
0.0
  0
LINE
  5
768D
330
74BF
100
AcDbEntity
  8
寸法線
 62
     0
 48
10.0
100
AcDbLine
 10
251.145410969268
 20
549.942617680634
 30
0.0
 11
284.788492568327
 21
549.942617680634
 31
0.0
  0
INSERT
  5
768E
330
74BF
100
AcDbEntity
  8
寸法線
 62
     0
100
AcDbBlockReference
  2
_OPEN30
 10
245.145410969268
 20
549.942617680634
 30
0.0
 41
6.0
 42
6.0
 43
6.0
 50
180.0
  0
INSERT
  5
768F
330
74BF
100
AcDbEntity
  8
寸法線
 62
     0
100
AcDbBlockReference
  2
_OPEN30
 10
290.788492568327
 20
549.942617680634
 30
0.0
 41
6.0
 42
6.0
 43
6.0
  0
POINT
  5
7690
330
74BF
100
AcDbEntity
  8
DEFPOINTS
 62
     0
100
AcDbPoint
 10
245.145410969268
 20
605.777127995649
 30
0.0
  0
POINT
  5
7691
330
74BF
100
AcDbEntity
  8
DEFPOINTS
 62
     0
100
AcDbPoint
 10
290.788492568327
 20
604.674526745649
 30
0.0
  0
POINT
  5
7692
330
74BF
100
AcDbEntity
  8
DEFPOINTS
 62
     0
100
AcDbPoint
 10
290.788492568327
 20
549.942617680634
 30
0.0
  0
ENDBLK
  5
74CA
330
74BF
100
AcDbEntity
  8
0
 48
10.0
100
AcDbBlockEnd
  0
BLOCK
  5
74D6
330
74CB
100
AcDbEntity
  8
0
 48
10.0
100
AcDbBlockBegin
  2
*D30
 70
     1
 10
0.0
 20
0.0
 30
0.0
  3
*D30
  1
*D30
  0
LINE
  5
78FB
330
74CB
100
AcDbEntity
  8
寸法線
 62
     0
 48
10.0
100
AcDbLine
 10
352.205197554808
 20
604.774623046427
 30
0.0
 11
351.580197554808
 21
604.774623046427
 31
0.0
  0
LINE
  5
78FC
330
74CB
100
AcDbEntity
  8
寸法線
 62
     0
 48
10.0
100
AcDbLine
 10
352.205197554808
 20
618.57459595265
 30
0.0
 11
351.580197554808
 21
618.57459595265
 31
0.0
  0
LINE
  5
78FD
330
74CB
100
AcDbEntity
  8
寸法線
 62
     0
 48
10.0
100
AcDbLine
 10
352.830197554808
 20
618.57459595265
 30
0.0
 11
352.830197554808
 21
655.657929285984
 31
0.0
  0
LINE
  5
78FE
330
74CB
100
AcDbEntity
  8
寸法線
 62
     0
 48
10.0
100
AcDbLine
 10
352.830197554808
 20
610.774623046427
 30
0.0
 11
352.830197554808
 21
612.57459595265
 31
0.0
  0
INSERT
  5
78FF
330
74CB
100
AcDbEntity
  8
寸法線
 62
     0
100
AcDbBlockReference
  2
_OPEN30
 10
352.830197554808
 20
604.774623046427
 30
0.0
 41
6.0
 42
6.0
 43
6.0
 50
270.0
  0
INSERT
  5
7900
330
74CB
100
AcDbEntity
  8
寸法線
 62
     0
100
AcDbBlockReference
  2
_OPEN30
 10
352.830197554808
 20
618.57459595265
 30
0.0
 41
6.0
 42
6.0
 43
6.0
 50
90.0
  0
MTEXT
  5
7901
330
74CB
100
AcDbEntity
  8
寸法線
 62
     0
 48
10.0
100
AcDbMText
 10
347.189572554808
 20
640.116262619317
 30
0.0
 40
10.0
 41
0.0
 71
     5
 72
     1
  1
\A1;φ13.8
 11
0.0
 21
1.0
 31
0.0
  0
POINT
  5
7902
330
74CB
100
AcDbEntity
  8
DEFPOINTS
 62
     0
100
AcDbPoint
 10
352.830197554808
 20
604.774623046427
 30
0.0
  0
POINT
  5
7903
330
74CB
100
AcDbEntity
  8
DEFPOINTS
 62
     0
100
AcDbPoint
 10
352.830197554808
 20
618.57459595265
 30
0.0
  0
POINT
  5
7904
330
74CB
100
AcDbEntity
  8
DEFPOINTS
 62
     0
100
AcDbPoint
 10
352.830197554808
 20
618.57459595265
 30
0.0
  0
ENDBLK
  5
74D7
330
74CB
100
AcDbEntity
  8
0
 48
10.0
100
AcDbBlockEnd
  0
BLOCK
  5
7515
330
750B
100
AcDbEntity
  8
0
 48
10.0
100
AcDbBlockBegin
  2
*D31
 70
     1
 10
0.0
 20
0.0
 30
0.0
  3
*D31
  1
*D31
  0
LINE
  5
7551
330
750B
100
AcDbEntity
  8
寸法線
 62
     0
 48
10.0
100
AcDbLine
 10
141.837243507452
 20
571.042077210356
 30
0.0
 11
141.837243507452
 21
548.692617680634
 31
0.0
  0
LINE
  5
7552
330
750B
100
AcDbEntity
  8
寸法線
 62
     0
 48
10.0
100
AcDbLine
 10
221.837243507452
 20
599.042077210356
 30
0.0
 11
221.837243507452
 21
548.692617680634
 31
0.0
  0
LINE
  5
7553
330
750B
100
AcDbEntity
  8
寸法線
 62
     0
 48
10.0
100
AcDbLine
 10
147.837243507452
 20
549.942617680634
 30
0.0
 11
215.837243507452
 21
549.942617680634
 31
0.0
  0
INSERT
  5
7554
330
750B
100
AcDbEntity
  8
寸法線
 62
     0
100
AcDbBlockReference
  2
_OPEN30
 10
141.837243507452
 20
549.942617680634
 30
0.0
 41
6.0
 42
6.0
 43
6.0
 50
180.0
  0
INSERT
  5
7555
330
750B
100
AcDbEntity
  8
寸法線
 62
     0
100
AcDbBlockReference
  2
_OPEN30
 10
221.837243507452
 20
549.942617680634
 30
0.0
 41
6.0
 42
6.0
 43
6.0
  0
MTEXT
  5
7556
330
750B
100
AcDbEntity
  8
寸法線
 62
     0
 48
10.0
100
AcDbMText
 10
181.837243507452
 20
555.578034347301
 30
0.0
 40
10.0
 41
0.0
 71
     5
 72
     1
  1
\A1;80
  0
POINT
  5
7557
330
750B
100
AcDbEntity
  8
DEFPOINTS
 62
     0
100
AcDbPoint
 10
141.837243507452
 20
571.667077210356
 30
0.0
  0
POINT
  5
7558
330
750B
100
AcDbEntity
  8
DEFPOINTS
 62
     0
100
AcDbPoint
 10
221.837243507452
 20
599.667077210356
 30
0.0
  0
POINT
  5
7559
330
750B
100
AcDbEntity
  8
DEFPOINTS
 62
     0
100
AcDbPoint
 10
221.837243507452
 20
549.942617680634
 30
0.0
  0
ENDBLK
  5
7516
330
750B
100
AcDbEntity
  8
0
 48
10.0
100
AcDbBlockEnd
  0
BLOCK
  5
7521
330
7517
100
AcDbEntity
  8
0
 48
10.0
100
AcDbBlockBegin
  2
*D32
 70
     1
 10
0.0
 20
0.0
 30
0.0
  3
*D32
  1
*D32
  0
LINE
  5
7548
330
7517
100
AcDbEntity
  8
寸法線
 62
     0
 48
10.0
100
AcDbLine
 10
141.212243507452
 20
651.667077210356
 30
0.0
 11
122.60463038275
 21
651.667077210356
 31
0.0
  0
LINE
  5
7549
330
7517
100
AcDbEntity
  8
寸法線
 62
     0
 48
10.0
100
AcDbLine
 10
141.212243507452
 20
571.667077210356
 30
0.0
 11
122.60463038275
 21
571.667077210356
 31
0.0
  0
LINE
  5
754A
330
7517
100
AcDbEntity
  8
寸法線
 62
     0
 48
10.0
100
AcDbLine
 10
123.85463038275
 20
645.667077210356
 30
0.0
 11
123.85463038275
 21
577.667077210356
 31
0.0
  0
INSERT
  5
754B
330
7517
100
AcDbEntity
  8
寸法線
 62
     0
100
AcDbBlockReference
  2
_OPEN30
 10
123.85463038275
 20
651.667077210356
 30
0.0
 41
6.0
 42
6.0
 43
6.0
 50
90.0
  0
INSERT
  5
754C
330
7517
100
AcDbEntity
  8
寸法線
 62
     0
100
AcDbBlockReference
  2
_OPEN30
 10
123.85463038275
 20
571.667077210356
 30
0.0
 41
6.0
 42
6.0
 43
6.0
 50
270.0
  0
MTEXT
  5
754D
330
7517
100
AcDbEntity
  8
寸法線
 62
     0
 48
10.0
100
AcDbMText
 10
118.219213716083
 20
611.667077210356
 30
0.0
 40
10.0
 41
0.0
 71
     5
 72
     1
  1
\A1;80
 11
0.0
 21
1.0
 31
0.0
  0
POINT
  5
754E
330
7517
100
AcDbEntity
  8
DEFPOINTS
 62
     0
100
AcDbPoint
 10
141.837243507452
 20
651.667077210356
 30
0.0
  0
POINT
  5
754F
330
7517
100
AcDbEntity
  8
DEFPOINTS
 62
     0
100
AcDbPoint
 10
141.837243507452
 20
571.667077210356
 30
0.0
  0
POINT
  5
7550
330
7517
100
AcDbEntity
  8
DEFPOINTS
 62
     0
100
AcDbPoint
 10
123.85463038275
 20
571.667077210356
 30
0.0
  0
ENDBLK
  5
7522
330
7517
100
AcDbEntity
  8
0
 48
10.0
100
AcDbBlockEnd
  0
BLOCK
  5
76A4
330
76A3
100
AcDbEntity
  8
0
 48
10.0
100
AcDbBlockBegin
  2
A$C511028D3
 70
     0
 10
0.0
 20
0.0
 30
0.0
  3
A$C511028D3
  1
A$C511028D3
  0
LINE
  5
76A5
330
76A3
100
AcDbEntity
  8
細線
100
AcDbLine
 10
2.000001078863
 20
4.072037970105
 30
0.0
 11
7.255442051231
 21
4.072037970105
 31
0.0
  0
ARC
  5
76A6
330
76A3
100
AcDbEntity
  8
細線
100
AcDbCircle
 10
4.911363578863
 20
1.136780470105
 30
0.0
 40
3.7563025
100
AcDbArc
 50
17.184150191548
 51
51.38761061704
  0
ARC
  5
76A7
330
76A3
100
AcDbEntity
  8
細線
100
AcDbCircle
 10
1.216143578864
 20
8.143922970106
 30
0.0
 40
7.2838425
100
AcDbArc
 50
326.010120640446
 51
33.989328497327
  0
LINE
  5
76A8
330
76A3
100
AcDbEntity
  8
外形線
100
AcDbLine
 10
0.000001078864
 20
0.000000470105
 30
0.0
 11
6.253373578863
 21
0.000000470105
 31
0.0
  0
LINE
  5
76A9
330
76A3
100
AcDbEntity
  8
外形線
100
AcDbLine
 10
6.253373578863
 20
0.000000470105
 30
0.0
 11
8.499926078863
 21
2.246630470105
 31
0.0
  0
LINE
  5
76AA
330
76A3
100
AcDbEntity
  8
外形線
100
AcDbLine
 10
0.000001078864
 20
16.287920470106
 30
0.0
 11
0.000001078864
 21
0.000000470105
 31
0.0
  0
LINE
  5
76AB
330
76A3
100
AcDbEntity
  8
外形線
100
AcDbLine
 10
2.000001078863
 20
16.287920470106
 30
0.0
 11
2.000001078863
 21
0.000000470105
 31
0.0
  0
LINE
  5
76AC
330
76A3
100
AcDbEntity
  8
外形線
100
AcDbLine
 10
8.500001078863
 20
2.246552970106
 30
0.0
 11
8.500001078863
 21
14.041215470105
 31
0.0
  0
LINE
  5
76AD
330
76A3
100
AcDbEntity
  8
外形線
100
AcDbLine
 10
8.500001078863
 20
2.246552970106
 30
0.0
 11
8.500001078863
 21
14.041215470105
 31
0.0
  0
LINE
  5
76AE
330
76A3
100
AcDbEntity
  8
外形線
100
AcDbLine
 10
2.000001078863
 20
16.287920470106
 30
0.0
 11
2.000001078863
 21
0.000000470105
 31
0.0
  0
LINE
  5
76AF
330
76A3
100
AcDbEntity
  8
外形線
100
AcDbLine
 10
0.000001078864
 20
16.287920470106
 30
0.0
 11
0.000001078864
 21
0.000000470105
 31
0.0
  0
LINE
  5
76B0
330
76A3
100
AcDbEntity
  8
外形線
100
AcDbLine
 10
6.253373578863
 20
0.000000470105
 30
0.0
 11
8.499926078863
 21
2.246630470105
 31
0.0
  0
LINE
  5
76B1
330
76A3
100
AcDbEntity
  8
外形線
100
AcDbLine
 10
0.000001078864
 20
0.000000470105
 30
0.0
 11
6.253373578863
 21
0.000000470105
 31
0.0
  0
ARC
  5
76B2
330
76A3
100
AcDbEntity
  8
細線
100
AcDbCircle
 10
1.216143578864
 20
8.143922970106
 30
0.0
 40
7.2838425
100
AcDbArc
 50
326.010120640446
 51
33.989328497327
  0
ARC
  5
76B3
330
76A3
100
AcDbEntity
  8
細線
100
AcDbCircle
 10
4.911363578863
 20
1.136780470105
 30
0.0
 40
3.7563025
100
AcDbArc
 50
17.184150191548
 51
51.38761061704
  0
LINE
  5
76B4
330
76A3
100
AcDbEntity
  8
細線
100
AcDbLine
 10
2.000001078863
 20
4.072037970105
 30
0.0
 11
7.255442051231
 21
4.072037970105
 31
0.0
  0
LINE
  5
76B5
330
76A3
100
AcDbEntity
  8
細線
100
AcDbLine
 10
2.000001078863
 20
12.215920470105
 30
0.0
 11
7.255482005871
 21
12.215920470105
 31
0.0
  0
ARC
  5
76B6
330
76A3
100
AcDbEntity
  8
細線
100
AcDbCircle
 10
4.911363578863
 20
15.150987970105
 30
0.0
 40
3.7563025
100
AcDbArc
 50
308.612371782871
 51
342.815889504127
  0
LINE
  5
76B7
330
76A3
100
AcDbEntity
  8
外形線
100
AcDbLine
 10
0.000001078864
 20
16.287920470106
 30
0.0
 11
6.253373578863
 21
16.287920470106
 31
0.0
  0
LINE
  5
76B8
330
76A3
100
AcDbEntity
  8
外形線
100
AcDbLine
 10
6.253373578863
 20
16.287920470106
 30
0.0
 11
8.499926078863
 21
14.041215470105
 31
0.0
  0
LINE
  5
76B9
330
76A3
100
AcDbEntity
  8
外形線
100
AcDbLine
 10
6.253373578863
 20
16.287920470106
 30
0.0
 11
8.499926078863
 21
14.041215470105
 31
0.0
  0
LINE
  5
76BA
330
76A3
100
AcDbEntity
  8
外形線
100
AcDbLine
 10
0.000001078864
 20
16.287920470106
 30
0.0
 11
6.253373578863
 21
16.287920470106
 31
0.0
  0
ARC
  5
76BB
330
76A3
100
AcDbEntity
  8
細線
100
AcDbCircle
 10
4.911363578863
 20
15.150987970105
 30
0.0
 40
3.7563025
100
AcDbArc
 50
308.612371782871
 51
342.815889504127
  0
LINE
  5
76BC
330
76A3
100
AcDbEntity
  8
細線
100
AcDbLine
 10
2.000001078863
 20
12.215920470105
 30
0.0
 11
7.255482005871
 21
12.215920470105
 31
0.0
  0
ENDBLK
  5
76BD
330
76A3
100
AcDbEntity
  8
0
 48
10.0
100
AcDbBlockEnd
  0
BLOCK
  5
7C25
330
7C1A
100
AcDbEntity
  8
0
 48
10.0
100
AcDbBlockBegin
  2
*D46
 70
     1
 10
0.0
 20
0.0
 30
0.0
  3
*D46
  1
*D46
  0
LINE
  5
7D6F
330
7C1A
100
AcDbEntity
  8
寸法線
 62
     0
 48
10.0
100
AcDbLine
 10
520.830888991674
 20
628.674534245649
 30
0.0
 11
521.589863586674
 21
628.674534245649
 31
0.0
  0
LINE
  5
7D70
330
7C1A
100
AcDbEntity
  8
寸法線
 62
     0
 48
10.0
100
AcDbLine
 10
520.964863586674
 20
594.674534245649
 30
0.0
 11
521.589863586674
 21
594.674534245649
 31
0.0
  0
LINE
  5
7D71
330
7C1A
100
AcDbEntity
  8
寸法線
 62
     0
 48
10.0
100
AcDbLine
 10
520.339863586674
 20
628.674534245649
 30
0.0
 11
520.339863586674
 21
660.252491234897
 31
0.0
  0
LINE
  5
7D72
330
7C1A
100
AcDbEntity
  8
寸法線
 62
     0
 48
10.0
100
AcDbLine
 10
520.339863586674
 20
622.674534245649
 30
0.0
 11
520.339863586674
 21
600.674534245649
 31
0.0
  0
INSERT
  5
7D73
330
7C1A
100
AcDbEntity
  8
寸法線
 62
     0
100
AcDbBlockReference
  2
_OPEN30
 10
520.339863586674
 20
628.674534245649
 30
0.0
 41
6.0
 42
6.0
 43
6.0
 50
90.0
  0
INSERT
  5
7D74
330
7C1A
100
AcDbEntity
  8
寸法線
 62
     0
100
AcDbBlockReference
  2
_OPEN30
 10
520.339863586674
 20
594.674534245649
 30
0.0
 41
6.0
 42
6.0
 43
6.0
 50
270.0
  0
MTEXT
  5
7D75
330
7C1A
100
AcDbEntity
  8
寸法線
 62
     0
 48
10.0
100
AcDbMText
 10
514.70965525334
 20
648.21082456823
 30
0.0
 40
10.0
 41
0.0
 71
     5
 72
     1
  1
\A1;φ34
 11
0.0
 21
1.0
 31
0.0
  0
POINT
  5
7D76
330
7C1A
100
AcDbEntity
  8
DEFPOINTS
 62
     0
100
AcDbPoint
 10
520.205888991674
 20
628.674534245649
 30
0.0
  0
POINT
  5
7D77
330
7C1A
100
AcDbEntity
  8
DEFPOINTS
 62
     0
100
AcDbPoint
 10
520.339863586674
 20
594.674534245649
 30
0.0
  0
POINT
  5
7D78
330
7C1A
100
AcDbEntity
  8
DEFPOINTS
 62
     0
100
AcDbPoint
 10
520.339863586674
 20
594.674534245649
 30
0.0
  0
ENDBLK
  5
7C26
330
7C1A
100
AcDbEntity
  8
0
 48
10.0
100
AcDbBlockEnd
  0
BLOCK
  5
7C33
330
7C27
100
AcDbEntity
  8
0
 48
10.0
100
AcDbBlockBegin
  2
*D47
 70
     1
 10
0.0
 20
0.0
 30
0.0
  3
*D47
  1
*D47
  0
LINE
  5
7D64
330
7C27
100
AcDbEntity
  8
寸法線
 62
     0
 48
10.0
100
AcDbLine
 10
554.130074180934
 20
533.549534245649
 30
0.0
 11
554.130074180934
 21
434.814177750876
 31
0.0
  0
LINE
  5
7D65
330
7C27
100
AcDbEntity
  8
寸法線
 62
     0
 48
10.0
100
AcDbLine
 10
542.130074180934
 20
533.549534245649
 30
0.0
 11
542.130074180934
 21
434.814177750876
 31
0.0
  0
LINE
  5
7D66
330
7C27
100
AcDbEntity
  8
寸法線
 62
     0
 48
10.0
100
AcDbLine
 10
554.130074180934
 20
436.064177750876
 30
0.0
 11
542.130074180934
 21
436.064177750876
 31
0.0
  0
LINE
  5
7D67
330
7C27
100
AcDbEntity
  8
寸法線
 62
     0
 48
10.0
100
AcDbLine
 10
560.130074180934
 20
436.064177750876
 30
0.0
 11
566.130074180934
 21
436.064177750876
 31
0.0
  0
LINE
  5
7D68
330
7C27
100
AcDbEntity
  8
寸法線
 62
     0
 48
10.0
100
AcDbLine
 10
536.130074180934
 20
436.064177750876
 30
0.0
 11
530.130074180934
 21
436.064177750876
 31
0.0
  0
INSERT
  5
7D69
330
7C27
100
AcDbEntity
  8
寸法線
 62
     0
100
AcDbBlockReference
  2
_OPEN30
 10
554.130074180934
 20
436.064177750876
 30
0.0
 41
6.0
 42
6.0
 43
6.0
 50
180.0
  0
INSERT
  5
7D6A
330
7C27
100
AcDbEntity
  8
寸法線
 62
     0
100
AcDbBlockReference
  2
_OPEN30
 10
542.130074180934
 20
436.064177750876
 30
0.0
 41
6.0
 42
6.0
 43
6.0
  0
MTEXT
  5
7D6B
330
7C27
100
AcDbEntity
  8
寸法線
 62
     0
 48
10.0
100
AcDbMText
 10
548.130074180934
 20
441.69438608421
 30
0.0
 40
10.0
 41
0.0
 71
     5
 72
     1
  1
\A1;12
  0
POINT
  5
7D6C
330
7C27
100
AcDbEntity
  8
DEFPOINTS
 62
     0
100
AcDbPoint
 10
554.130074180934
 20
534.174534245649
 30
0.0
  0
POINT
  5
7D6D
330
7C27
100
AcDbEntity
  8
DEFPOINTS
 62
     0
100
AcDbPoint
 10
542.130074180934
 20
534.174534245649
 30
0.0
  0
POINT
  5
7D6E
330
7C27
100
AcDbEntity
  8
DEFPOINTS
 62
     0
100
AcDbPoint
 10
542.130074180934
 20
436.064177750876
 30
0.0
  0
ENDBLK
  5
7C34
330
7C27
100
AcDbEntity
  8
0
 48
10.0
100
AcDbBlockEnd
  0
BLOCK
  5
7C3F
330
7C35
100
AcDbEntity
  8
0
 48
10.0
100
AcDbBlockBegin
  2
*D48
 70
     1
 10
0.0
 20
0.0
 30
0.0
  3
*D48
  1
*D48
  0
LINE
  5
7D5B
330
7C35
100
AcDbEntity
  8
寸法線
 62
     0
 48
10.0
100
AcDbLine
 10
664.130074180934
 20
533.54953424565
 30
0.0
 11
664.130074180934
 21
434.814177750876
 31
0.0
  0
LINE
  5
7D5C
330
7C35
100
AcDbEntity
  8
寸法線
 62
     0
 48
10.0
100
AcDbLine
 10
554.130074180934
 20
533.549534245649
 30
0.0
 11
554.130074180934
 21
434.814177750876
 31
0.0
  0
LINE
  5
7D5D
330
7C35
100
AcDbEntity
  8
寸法線
 62
     0
 48
10.0
100
AcDbLine
 10
658.130074180934
 20
436.064177750876
 30
0.0
 11
560.130074180934
 21
436.064177750876
 31
0.0
  0
INSERT
  5
7D5E
330
7C35
100
AcDbEntity
  8
寸法線
 62
     0
100
AcDbBlockReference
  2
_OPEN30
 10
664.130074180934
 20
436.064177750876
 30
0.0
 41
6.0
 42
6.0
 43
6.0
  0
INSERT
  5
7D5F
330
7C35
100
AcDbEntity
  8
寸法線
 62
     0
100
AcDbBlockReference
  2
_OPEN30
 10
554.130074180934
 20
436.064177750876
 30
0.0
 41
6.0
 42
6.0
 43
6.0
 50
180.0
  0
MTEXT
  5
7D60
330
7C35
100
AcDbEntity
  8
寸法線
 62
     0
 48
10.0
100
AcDbMText
 10
609.130074180934
 20
441.689177750876
 30
0.0
 40
10.0
 41
0.0
 71
     5
 72
     1
  1
\A1;110
  0
POINT
  5
7D61
330
7C35
100
AcDbEntity
  8
DEFPOINTS
 62
     0
100
AcDbPoint
 10
664.130074180934
 20
534.17453424565
 30
0.0
  0
POINT
  5
7D62
330
7C35
100
AcDbEntity
  8
DEFPOINTS
 62
     0
100
AcDbPoint
 10
554.130074180934
 20
534.174534245649
 30
0.0
  0
POINT
  5
7D63
330
7C35
100
AcDbEntity
  8
DEFPOINTS
 62
     0
100
AcDbPoint
 10
554.130074180934
 20
436.064177750876
 30
0.0
  0
ENDBLK
  5
7C40
330
7C35
100
AcDbEntity
  8
0
 48
10.0
100
AcDbBlockEnd
  0
BLOCK
  5
7C4B
330
7C41
100
AcDbEntity
  8
0
 48
10.0
100
AcDbBlockBegin
  2
*D49
 70
     1
 10
0.0
 20
0.0
 30
0.0
  3
*D49
  1
*D49
  0
LINE
  5
7D52
330
7C41
100
AcDbEntity
  8
寸法線
 62
     0
 48
10.0
100
AcDbLine
 10
866.101194140788
 20
539.049534245649
 30
0.0
 11
866.101194140788
 21
412.814177750876
 31
0.0
  0
LINE
  5
7D53
330
7C41
100
AcDbEntity
  8
寸法線
 62
     0
 48
10.0
100
AcDbLine
 10
542.130074180934
 20
533.549534245649
 30
0.0
 11
542.130074180934
 21
412.814177750876
 31
0.0
  0
LINE
  5
7D54
330
7C41
100
AcDbEntity
  8
寸法線
 62
     0
 48
10.0
100
AcDbLine
 10
860.101194140788
 20
414.064177750876
 30
0.0
 11
548.130074180934
 21
414.064177750876
 31
0.0
  0
INSERT
  5
7D55
330
7C41
100
AcDbEntity
  8
寸法線
 62
     0
100
AcDbBlockReference
  2
_OPEN30
 10
866.101194140788
 20
414.064177750876
 30
0.0
 41
6.0
 42
6.0
 43
6.0
  0
INSERT
  5
7D56
330
7C41
100
AcDbEntity
  8
寸法線
 62
     0
100
AcDbBlockReference
  2
_OPEN30
 10
542.130074180934
 20
414.064177750876
 30
0.0
 41
6.0
 42
6.0
 43
6.0
 50
180.0
  0
MTEXT
  5
7D57
330
7C41
100
AcDbEntity
  8
寸法線
 62
     0
 48
10.0
100
AcDbMText
 10
704.115634160861
 20
419.699594417543
 30
0.0
 40
10.0
 41
0.0
 71
     5
 72
     1
  1
\A1;（324）
  0
POINT
  5
7D58
330
7C41
100
AcDbEntity
  8
DEFPOINTS
 62
     0
100
AcDbPoint
 10
866.101194140788
 20
539.674534245649
 30
0.0
  0
POINT
  5
7D59
330
7C41
100
AcDbEntity
  8
DEFPOINTS
 62
     0
100
AcDbPoint
 10
542.130074180934
 20
534.174534245649
 30
0.0
  0
POINT
  5
7D5A
330
7C41
100
AcDbEntity
  8
DEFPOINTS
 62
     0
100
AcDbPoint
 10
542.130074180934
 20
414.064177750876
 30
0.0
  0
ENDBLK
  5
7C4C
330
7C41
100
AcDbEntity
  8
0
 48
10.0
100
AcDbBlockEnd
  0
BLOCK
  5
7C59
330
7C4D
100
AcDbEntity
  8
0
 48
10.0
100
AcDbBlockBegin
  2
*D50
 70
     1
 10
0.0
 20
0.0
 30
0.0
  3
*D50
  1
*D50
  0
LINE
  5
7D47
330
7C4D
100
AcDbEntity
  8
寸法線
 62
     0
 48
10.0
100
AcDbLine
 10
676.130074180934
 20
534.547404761145
 30
0.0
 11
676.130074180934
 21
434.814177750876
 31
0.0
  0
LINE
  5
7D48
330
7C4D
100
AcDbEntity
  8
寸法線
 62
     0
 48
10.0
100
AcDbLine
 10
664.130074180934
 20
533.54953424565
 30
0.0
 11
664.130074180934
 21
434.814177750876
 31
0.0
  0
LINE
  5
7D49
330
7C4D
100
AcDbEntity
  8
寸法線
 62
     0
 48
10.0
100
AcDbLine
 10
676.130074180934
 20
436.064177750876
 30
0.0
 11
664.130074180934
 21
436.064177750876
 31
0.0
  0
LINE
  5
7D4A
330
7C4D
100
AcDbEntity
  8
寸法線
 62
     0
 48
10.0
100
AcDbLine
 10
682.130074180934
 20
436.064177750876
 30
0.0
 11
688.130074180934
 21
436.064177750876
 31
0.0
  0
LINE
  5
7D4B
330
7C4D
100
AcDbEntity
  8
寸法線
 62
     0
 48
10.0
100
AcDbLine
 10
658.130074180934
 20
436.064177750876
 30
0.0
 11
652.130074180934
 21
436.064177750876
 31
0.0
  0
INSERT
  5
7D4C
330
7C4D
100
AcDbEntity
  8
寸法線
 62
     0
100
AcDbBlockReference
  2
_OPEN30
 10
676.130074180934
 20
436.064177750876
 30
0.0
 41
6.0
 42
6.0
 43
6.0
 50
180.0
  0
INSERT
  5
7D4D
330
7C4D
100
AcDbEntity
  8
寸法線
 62
     0
100
AcDbBlockReference
  2
_OPEN30
 10
664.130074180934
 20
436.064177750876
 30
0.0
 41
6.0
 42
6.0
 43
6.0
  0
MTEXT
  5
7D4E
330
7C4D
100
AcDbEntity
  8
寸法線
 62
     0
 48
10.0
100
AcDbMText
 10
669.130074180934
 20
441.69438608421
 30
0.0
 40
10.0
 41
0.0
 71
     5
 72
     1
  1
\A1;12
  0
POINT
  5
7D4F
330
7C4D
100
AcDbEntity
  8
DEFPOINTS
 62
     0
100
AcDbPoint
 10
676.130074180934
 20
535.172404761145
 30
0.0
  0
POINT
  5
7D50
330
7C4D
100
AcDbEntity
  8
DEFPOINTS
 62
     0
100
AcDbPoint
 10
664.130074180934
 20
534.17453424565
 30
0.0
  0
POINT
  5
7D51
330
7C4D
100
AcDbEntity
  8
DEFPOINTS
 62
     0
100
AcDbPoint
 10
664.130074180934
 20
436.064177750876
 30
0.0
  0
ENDBLK
  5
7C5A
330
7C4D
100
AcDbEntity
  8
0
 48
10.0
100
AcDbBlockEnd
  0
BLOCK
  5
7C65
330
7C5B
100
AcDbEntity
  8
0
 48
10.0
100
AcDbBlockBegin
  2
*D51
 70
     1
 10
0.0
 20
0.0
 30
0.0
  3
*D51
  1
*D51
  0
LINE
  5
7D3E
330
7C5B
100
AcDbEntity
  8
寸法線_文字
 62
     0
 48
10.0
100
AcDbLine
 10
794.101194140788
 20
538.549534245649
 30
0.0
 11
794.101194140788
 21
434.814177750876
 31
0.0
  0
LINE
  5
7D3F
330
7C5B
100
AcDbEntity
  8
寸法線_文字
 62
     0
 48
10.0
100
AcDbLine
 10
850.101194140788
 20
538.549534245649
 30
0.0
 11
850.101194140788
 21
434.814177750876
 31
0.0
  0
LINE
  5
7D40
330
7C5B
100
AcDbEntity
  8
寸法線_文字
 62
     0
 48
10.0
100
AcDbLine
 10
800.101194140788
 20
436.064177750876
 30
0.0
 11
844.101194140788
 21
436.064177750876
 31
0.0
  0
INSERT
  5
7D41
330
7C5B
100
AcDbEntity
  8
寸法線_文字
 62
     0
100
AcDbBlockReference
  2
_OPEN30
 10
794.101194140788
 20
436.064177750876
 30
0.0
 41
6.0
 42
6.0
 43
6.0
 50
180.0
  0
INSERT
  5
7D42
330
7C5B
100
AcDbEntity
  8
寸法線_文字
 62
     0
100
AcDbBlockReference
  2
_OPEN30
 10
850.101194140788
 20
436.064177750876
 30
0.0
 41
6.0
 42
6.0
 43
6.0
  0
MTEXT
  5
7D43
330
7C5B
100
AcDbEntity
  8
寸法線_文字
 62
     0
 48
10.0
100
AcDbMText
 10
822.101194140788
 20
441.689177750876
 30
0.0
 40
10.0
 41
0.0
 71
     5
 72
     1
  1
\A1;56
  0
POINT
  5
7D44
330
7C5B
100
AcDbEntity
  8
DEFPOINTS
 62
     0
100
AcDbPoint
 10
794.101194140788
 20
539.174534245649
 30
0.0
  0
POINT
  5
7D45
330
7C5B
100
AcDbEntity
  8
DEFPOINTS
 62
     0
100
AcDbPoint
 10
850.101194140788
 20
539.174534245649
 30
0.0
  0
POINT
  5
7D46
330
7C5B
100
AcDbEntity
  8
DEFPOINTS
 62
     0
100
AcDbPoint
 10
850.101194140788
 20
436.064177750876
 30
0.0
  0
ENDBLK
  5
7C66
330
7C5B
100
AcDbEntity
  8
0
 48
10.0
100
AcDbBlockEnd
  0
BLOCK
  5
7C73
330
7C67
100
AcDbEntity
  8
0
 48
10.0
100
AcDbBlockBegin
  2
*D52
 70
     1
 10
0.0
 20
0.0
 30
0.0
  3
*D52
  1
*D52
  0
LINE
  5
7D33
330
7C67
100
AcDbEntity
  8
寸法線
 62
     0
 48
10.0
100
AcDbLine
 10
628.137612746749
 20
616.704301000853
 30
0.0
 11
627.512612746749
 21
616.704301000853
 31
0.0
  0
LINE
  5
7D34
330
7C67
100
AcDbEntity
  8
寸法線
 62
     0
 48
10.0
100
AcDbLine
 10
628.137612746749
 20
606.704378500853
 30
0.0
 11
627.512612746749
 21
606.704378500853
 31
0.0
  0
LINE
  5
7D35
330
7C67
100
AcDbEntity
  8
寸法線
 62
     0
 48
10.0
100
AcDbLine
 10
628.762612746749
 20
616.704301000853
 30
0.0
 11
628.762612746749
 21
650.124904675394
 31
0.0
  0
LINE
  5
7D36
330
7C67
100
AcDbEntity
  8
寸法線
 62
     0
 48
10.0
100
AcDbLine
 10
628.762612746749
 20
616.704301000853
 30
0.0
 11
628.762612746749
 21
606.704378500853
 31
0.0
  0
LINE
  5
7D37
330
7C67
100
AcDbEntity
  8
寸法線
 62
     0
 48
10.0
100
AcDbLine
 10
628.762612746749
 20
622.704301000853
 30
0.0
 11
628.762612746749
 21
628.704301000853
 31
0.0
  0
LINE
  5
7D38
330
7C67
100
AcDbEntity
  8
寸法線
 62
     0
 48
10.0
100
AcDbLine
 10
628.762612746749
 20
600.704378500853
 30
0.0
 11
628.762612746749
 21
594.704378500853
 31
0.0
  0
INSERT
  5
7D39
330
7C67
100
AcDbEntity
  8
寸法線
 62
     0
100
AcDbBlockReference
  2
_OPEN30
 10
628.762612746749
 20
616.704301000853
 30
0.0
 41
6.0
 42
6.0
 43
6.0
 50
270.0
  0
INSERT
  5
7D3A
330
7C67
100
AcDbEntity
  8
寸法線
 62
     0
100
AcDbBlockReference
  2
_OPEN30
 10
628.762612746749
 20
606.704378500853
 30
0.0
 41
6.0
 42
6.0
 43
6.0
 50
90.0
  0
MTEXT
  5
7D3B
330
7C67
100
AcDbEntity
  8
寸法線
 62
     0
 48
10.0
100
AcDbMText
 10
623.137612746749
 20
639.583238008727
 30
0.0
 40
10.0
 41
0.0
 71
     5
 72
     1
  1
\A1;φ10
 11
0.0
 21
1.0
 31
0.0
  0
POINT
  5
7D3C
330
7C67
100
AcDbEntity
  8
DEFPOINTS
 62
     0
100
AcDbPoint
 10
628.762612746749
 20
616.704301000853
 30
0.0
  0
POINT
  5
7D3D
330
7C67
100
AcDbEntity
  8
DEFPOINTS
 62
     0
100
AcDbPoint
 10
628.762612746749
 20
606.704378500853
 30
0.0
  0
POINT
  5
8541
330
7C67
100
AcDbEntity
  8
DEFPOINTS
 62
     0
100
AcDbPoint
 10
628.762612746749
 20
606.704378500853
 30
0.0
  0
ENDBLK
  5
7C74
330
7C67
100
AcDbEntity
  8
0
 48
10.0
100
AcDbBlockEnd
  0
BLOCK
  5
7C7F
330
7C75
100
AcDbEntity
  8
0
 48
10.0
100
AcDbBlockBegin
  2
*D53
 70
     1
 10
0.0
 20
0.0
 30
0.0
  3
*D53
  1
*D53
  0
LINE
  5
7D2A
330
7C75
100
AcDbEntity
  8
寸法線_文字
 62
     0
 48
10.0
100
AcDbLine
 10
865.726194140788
 20
684.674534245649
 30
0.0
 11
914.351194140789
 21
684.674534245649
 31
0.0
  0
LINE
  5
7D2B
330
7C75
100
AcDbEntity
  8
寸法線_文字
 62
     0
 48
10.0
100
AcDbLine
 10
835.326194140788
 20
461.064177750876
 30
0.0
 11
914.351194140789
 21
461.064177750876
 31
0.0
  0
LINE
  5
7D2C
330
7C75
100
AcDbEntity
  8
寸法線_文字
 62
     0
 48
10.0
100
AcDbLine
 10
913.101194140789
 20
678.674534245649
 30
0.0
 11
913.101194140789
 21
467.064177750876
 31
0.0
  0
INSERT
  5
7D2D
330
7C75
100
AcDbEntity
  8
寸法線_文字
 62
     0
100
AcDbBlockReference
  2
_OPEN30
 10
913.101194140789
 20
684.674534245649
 30
0.0
 41
6.0
 42
6.0
 43
6.0
 50
90.0
  0
INSERT
  5
7D2E
330
7C75
100
AcDbEntity
  8
寸法線_文字
 62
     0
100
AcDbBlockReference
  2
_OPEN30
 10
913.101194140789
 20
461.064177750876
 30
0.0
 41
6.0
 42
6.0
 43
6.0
 50
270.0
  0
MTEXT
  5
7D2F
330
7C75
100
AcDbEntity
  8
寸法線_文字
 62
     0
 48
10.0
100
AcDbMText
 10
907.465777474122
 20
572.869355998263
 30
0.0
 40
10.0
 41
0.0
 71
     5
 72
     1
  1
\A1;（224）
 11
0.0
 21
1.0
 31
0.0
  0
POINT
  5
7D30
330
7C75
100
AcDbEntity
  8
DEFPOINTS
 62
     0
100
AcDbPoint
 10
865.101194140788
 20
684.674534245649
 30
0.0
  0
POINT
  5
7D31
330
7C75
100
AcDbEntity
  8
DEFPOINTS
 62
     0
100
AcDbPoint
 10
834.701194140788
 20
461.064177750876
 30
0.0
  0
POINT
  5
7D32
330
7C75
100
AcDbEntity
  8
DEFPOINTS
 62
     0
100
AcDbPoint
 10
913.101194140789
 20
461.064177750876
 30
0.0
  0
ENDBLK
  5
7C80
330
7C75
100
AcDbEntity
  8
0
 48
10.0
100
AcDbBlockEnd
  0
BLOCK
  5
7C8B
330
7C81
100
AcDbEntity
  8
0
 48
10.0
100
AcDbBlockBegin
  2
*D54
 70
     1
 10
0.0
 20
0.0
 30
0.0
  3
*D54
  1
*D54
  0
LINE
  5
7D21
330
7C81
100
AcDbEntity
  8
寸法線_文字
 62
     0
 48
10.0
100
AcDbLine
 10
850.101194140788
 20
538.54953424565
 30
0.0
 11
850.101194140788
 21
434.814177750876
 31
0.0
  0
LINE
  5
7D22
330
7C81
100
AcDbEntity
  8
寸法線_文字
 62
     0
 48
10.0
100
AcDbLine
 10
866.101194140788
 20
539.049534245649
 30
0.0
 11
866.101194140788
 21
434.814177750876
 31
0.0
  0
LINE
  5
7D23
330
7C81
100
AcDbEntity
  8
寸法線_文字
 62
     0
 48
10.0
100
AcDbLine
 10
856.101194140788
 20
436.064177750876
 30
0.0
 11
860.101194140788
 21
436.064177750876
 31
0.0
  0
INSERT
  5
7D24
330
7C81
100
AcDbEntity
  8
寸法線_文字
 62
     0
100
AcDbBlockReference
  2
_OPEN30
 10
850.101194140788
 20
436.064177750876
 30
0.0
 41
6.0
 42
6.0
 43
6.0
 50
180.0
  0
INSERT
  5
7D25
330
7C81
100
AcDbEntity
  8
寸法線_文字
 62
     0
100
AcDbBlockReference
  2
_OPEN30
 10
866.101194140788
 20
436.064177750876
 30
0.0
 41
6.0
 42
6.0
 43
6.0
  0
MTEXT
  5
7D26
330
7C81
100
AcDbEntity
  8
寸法線_文字
 62
     0
 48
10.0
100
AcDbMText
 10
858.101194140788
 20
441.689177750876
 30
0.0
 40
10.0
 41
0.0
 71
     5
 72
     1
  1
\A1;16
  0
POINT
  5
7D27
330
7C81
100
AcDbEntity
  8
DEFPOINTS
 62
     0
100
AcDbPoint
 10
850.101194140788
 20
539.17453424565
 30
0.0
  0
POINT
  5
7D28
330
7C81
100
AcDbEntity
  8
DEFPOINTS
 62
     0
100
AcDbPoint
 10
866.101194140788
 20
539.674534245649
 30
0.0
  0
POINT
  5
7D29
330
7C81
100
AcDbEntity
  8
DEFPOINTS
 62
     0
100
AcDbPoint
 10
866.101194140788
 20
436.064177750876
 30
0.0
  0
ENDBLK
  5
7C8C
330
7C81
100
AcDbEntity
  8
0
 48
10.0
100
AcDbBlockEnd
  0
BLOCK
  5
7C97
330
7C8D
100
AcDbEntity
  8
0
 48
10.0
100
AcDbBlockBegin
  2
*D55
 70
     1
 10
0.0
 20
0.0
 30
0.0
  3
*D55
  1
*D55
  0
LINE
  5
7D18
330
7C8D
100
AcDbEntity
  8
寸法線
 62
     0
 48
10.0
100
AcDbLine
 10
794.101194140788
 20
538.549534245649
 30
0.0
 11
794.101194140788
 21
434.814177750876
 31
0.0
  0
LINE
  5
7D19
330
7C8D
100
AcDbEntity
  8
寸法線
 62
     0
 48
10.0
100
AcDbLine
 10
676.130074180934
 20
534.547404761145
 30
0.0
 11
676.130074180934
 21
434.814177750876
 31
0.0
  0
LINE
  5
7D1A
330
7C8D
100
AcDbEntity
  8
寸法線
 62
     0
 48
10.0
100
AcDbLine
 10
788.101194140788
 20
436.064177750876
 30
0.0
 11
682.130074180934
 21
436.064177750876
 31
0.0
  0
INSERT
  5
7D1B
330
7C8D
100
AcDbEntity
  8
寸法線
 62
     0
100
AcDbBlockReference
  2
_OPEN30
 10
794.101194140788
 20
436.064177750876
 30
0.0
 41
6.0
 42
6.0
 43
6.0
  0
INSERT
  5
7D1C
330
7C8D
100
AcDbEntity
  8
寸法線
 62
     0
100
AcDbBlockReference
  2
_OPEN30
 10
676.130074180934
 20
436.064177750876
 30
0.0
 41
6.0
 42
6.0
 43
6.0
 50
180.0
  0
MTEXT
  5
7D1D
330
7C8D
100
AcDbEntity
  8
寸法線
 62
     0
 48
10.0
100
AcDbMText
 10
735.115634160861
 20
441.699594417543
 30
0.0
 40
10.0
 41
0.0
 71
     5
 72
     1
  1
\A1;118
  0
POINT
  5
7D1E
330
7C8D
100
AcDbEntity
  8
DEFPOINTS
 62
     0
100
AcDbPoint
 10
794.101194140788
 20
539.174534245649
 30
0.0
  0
POINT
  5
7D1F
330
7C8D
100
AcDbEntity
  8
DEFPOINTS
 62
     0
100
AcDbPoint
 10
676.130074180934
 20
535.172404761145
 30
0.0
  0
POINT
  5
7D20
330
7C8D
100
AcDbEntity
  8
DEFPOINTS
 62
     0
100
AcDbPoint
 10
676.130074180934
 20
436.064177750876
 30
0.0
  0
ENDBLK
  5
7C98
330
7C8D
100
AcDbEntity
  8
0
 48
10.0
100
AcDbBlockEnd
  0
BLOCK
  5
7CA3
330
7C99
100
AcDbEntity
  8
0
 48
10.0
100
AcDbBlockBegin
  2
*D56
 70
     1
 10
0.0
 20
0.0
 30
0.0
  3
*D56
  1
*D56
  0
LINE
  5
7D0F
330
7C99
100
AcDbEntity
  8
寸法線
 62
     0
 48
10.0
100
AcDbLine
 10
865.726194140788
 20
684.674534245649
 30
0.0
 11
892.351194140788
 21
684.674534245649
 31
0.0
  0
LINE
  5
7D10
330
7C99
100
AcDbEntity
  8
寸法線
 62
     0
 48
10.0
100
AcDbLine
 10
865.726194140788
 20
538.674534245649
 30
0.0
 11
892.351194140788
 21
538.674534245649
 31
0.0
  0
LINE
  5
7D11
330
7C99
100
AcDbEntity
  8
寸法線
 62
     0
 48
10.0
100
AcDbLine
 10
891.101194140788
 20
678.674534245649
 30
0.0
 11
891.101194140788
 21
544.674534245649
 31
0.0
  0
INSERT
  5
7D12
330
7C99
100
AcDbEntity
  8
寸法線
 62
     0
100
AcDbBlockReference
  2
_OPEN30
 10
891.101194140788
 20
684.674534245649
 30
0.0
 41
6.0
 42
6.0
 43
6.0
 50
90.0
  0
INSERT
  5
7D13
330
7C99
100
AcDbEntity
  8
寸法線
 62
     0
100
AcDbBlockReference
  2
_OPEN30
 10
891.101194140788
 20
538.674534245649
 30
0.0
 41
6.0
 42
6.0
 43
6.0
 50
270.0
  0
MTEXT
  5
7D14
330
7C99
100
AcDbEntity
  8
寸法線
 62
     0
 48
10.0
100
AcDbMText
 10
885.476194140788
 20
609.583111918124
 30
0.0
 40
10.0
 41
0.0
 71
     5
 72
     1
  1
\A1;%%c146
 11
0.0
 21
1.0
 31
0.0
  0
POINT
  5
7D15
330
7C99
100
AcDbEntity
  8
DEFPOINTS
 62
     0
100
AcDbPoint
 10
865.101194140788
 20
684.674534245649
 30
0.0
  0
POINT
  5
7D16
330
7C99
100
AcDbEntity
  8
DEFPOINTS
 62
     0
100
AcDbPoint
 10
865.101194140788
 20
538.674534245649
 30
0.0
  0
POINT
  5
7D17
330
7C99
100
AcDbEntity
  8
DEFPOINTS
 62
     0
100
AcDbPoint
 10
891.101194140788
 20
538.674534245649
 30
0.0
  0
ENDBLK
  5
7CA4
330
7C99
100
AcDbEntity
  8
0
 48
10.0
100
AcDbBlockEnd
  0
BLOCK
  5
8520
330
851F
100
AcDbEntity
  8
0
100
AcDbBlockBegin
  2
*D97
 70
     1
 10
0.0
 20
0.0
 30
0.0
  3
*D97
  1
*D97
  0
LINE
  5
8522
330
851F
100
AcDbEntity
  8
寸法線
 62
     0
 48
10.0
100
AcDbLine
 10
19.495663733861
 20
584.018285514865
 30
0.0
 11
19.495663733861
 21
584.643285514865
 31
0.0
  0
LINE
  5
8523
330
851F
100
AcDbEntity
  8
寸法線
 62
     0
 48
10.0
100
AcDbLine
 10
22.351668248396
 20
584.018285514865
 30
0.0
 11
22.351668248396
 21
584.643285514865
 31
0.0
  0
LINE
  5
8524
330
851F
100
AcDbEntity
  8
寸法線
 62
     0
 48
10.0
100
AcDbLine
 10
28.351668248396
 20
583.393285514865
 30
0.0
 11
47.601668248396
 21
583.393285514865
 31
0.0
  0
LINE
  5
8525
330
851F
100
AcDbEntity
  8
寸法線
 62
     0
 48
10.0
100
AcDbLine
 10
19.495663733861
 20
583.393285514865
 30
0.0
 11
22.351668248396
 21
583.393285514865
 31
0.0
  0
LINE
  5
8526
330
851F
100
AcDbEntity
  8
寸法線
 62
     0
 48
10.0
100
AcDbLine
 10
13.495663733861
 20
583.393285514865
 30
0.0
 11
7.495663733861
 21
583.393285514865
 31
0.0
  0
INSERT
  5
8527
330
851F
100
AcDbEntity
  8
寸法線
 62
     0
100
AcDbBlockReference
  2
_OPEN30
 10
19.495663733861
 20
583.393285514865
 30
0.0
 41
6.0
 42
6.0
 43
6.0
  0
INSERT
  5
8528
330
851F
100
AcDbEntity
  8
寸法線
 62
     0
100
AcDbBlockReference
  2
_OPEN30
 10
22.351668248396
 20
583.393285514865
 30
0.0
 41
6.0
 42
6.0
 43
6.0
 50
180.0
  0
MTEXT
  5
8529
330
851F
100
AcDbEntity
  8
寸法線
 62
     0
 48
10.0
100
AcDbMText
 10
40.976668248396
 20
589.018285514865
 30
0.0
 40
10.0
 41
0.0
 71
     5
 72
     1
  1
\A1;1.5
  0
POINT
  5
852A
330
851F
100
AcDbEntity
  8
DEFPOINTS
 62
     0
100
AcDbPoint
 10
19.495663733861
 20
583.393285514865
 30
0.0
  0
POINT
  5
852B
330
851F
100
AcDbEntity
  8
DEFPOINTS
 62
     0
100
AcDbPoint
 10
22.351668248396
 20
583.393285514865
 30
0.0
  0
POINT
  5
852C
330
851F
100
AcDbEntity
  8
DEFPOINTS
 62
     0
100
AcDbPoint
 10
22.351668248396
 20
583.393285514865
 30
0.0
  0
ENDBLK
  5
8521
330
851F
100
AcDbEntity
  8
0
100
AcDbBlockEnd
  0
BLOCK
  5
852E
330
852D
100
AcDbEntity
  8
0
100
AcDbBlockBegin
  2
*D98
 70
     1
 10
0.0
 20
0.0
 30
0.0
  3
*D98
  1
*D98
  0
LINE
  5
8530
330
852D
100
AcDbEntity
  8
寸法線
 62
     0
 48
10.0
100
AcDbLine
 10
-50.354721786843
 20
605.178096541435
 30
0.0
 11
92.055138536079
 21
618.156219487914
 31
0.0
  0
INSERT
  5
8531
330
852D
100
AcDbEntity
  8
寸法線
 62
     0
100
AcDbBlockReference
  2
_OPEN30
 10
-56.32996068262
 20
604.633559914209
 30
0.0
 41
6.0
 42
6.0
 43
6.0
 50
185.2071067117
  0
INSERT
  5
8532
330
852D
100
AcDbEntity
  8
寸法線
 62
     0
100
AcDbBlockReference
  2
_OPEN30
 10
98.030377431857
 20
618.70075611514
 30
0.0
 41
6.0
 42
6.0
 43
6.0
 50
5.2071067117
  0
MTEXT
  5
8533
330
852D
100
AcDbEntity
  8
寸法線
 62
     0
 48
10.0
100
AcDbMText
 10
66.988522613349
 20
621.520153526379
 30
0.0
 40
10.0
 41
0.0
 71
     5
 72
     1
  1
\A1;φ155
 11
0.9958731492962073
 21
0.0907561045376782
 31
0.0
  0
POINT
  5
8534
330
852D
100
AcDbEntity
  8
DEFPOINTS
 62
     0
100
AcDbPoint
 10
-56.32996068262
 20
604.633559914208
 30
0.0
  0
POINT
  5
8535
330
852D
100
AcDbEntity
  8
DEFPOINTS
 62
     0
100
AcDbPoint
 10
98.030377431857
 20
618.70075611514
 30
0.0
  0
POINT
  5
8536
330
852D
100
AcDbEntity
  8
DEFPOINTS
 62
     0
100
AcDbPoint
 10
98.030377431857
 20
618.70075611514
 30
0.0
  0
ENDBLK
  5
852F
330
852D
100
AcDbEntity
  8
0
100
AcDbBlockEnd
  0
BLOCK
  5
8538
330
8537
100
AcDbEntity
  8
0
100
AcDbBlockBegin
  2
*D99
 70
     1
 10
0.0
 20
0.0
 30
0.0
  3
*D99
  1
*D99
  0
LINE
  5
853A
330
8537
100
AcDbEntity
  8
寸法線
 62
     0
 48
10.0
100
AcDbLine
 10
-33.182357579085
 20
587.973277883769
 30
0.0
 11
74.884194753371
 21
635.361253781034
 31
0.0
  0
INSERT
  5
853B
330
8537
100
AcDbEntity
  8
寸法線
 62
     0
100
AcDbBlockReference
  2
_OPEN30
 10
-38.677267021166
 20
585.563719786663
 30
0.0
 41
6.0
 42
6.0
 43
6.0
 50
203.677803450481
  0
INSERT
  5
853C
330
8537
100
AcDbEntity
  8
寸法線
 62
     0
100
AcDbBlockReference
  2
_OPEN30
 10
80.379104195452
 20
637.77081187814
 30
0.0
 41
6.0
 42
6.0
 43
6.0
 50
23.677803450481
  0
MTEXT
  5
853D
330
8537
100
AcDbEntity
  8
寸法線
 62
     0
 48
10.0
100
AcDbMText
 10
61.584018495975
 20
635.676764459477
 30
0.0
 40
10.0
 41
0.0
 71
     5
 72
     1
  1
\A1;φ130
 11
0.9158182403468372
 21
0.4015930161843241
 31
0.0
  0
POINT
  5
853E
330
8537
100
AcDbEntity
  8
DEFPOINTS
 62
     0
100
AcDbPoint
 10
-38.677267021166
 20
585.563719786663
 30
0.0
  0
POINT
  5
853F
330
8537
100
AcDbEntity
  8
DEFPOINTS
 62
     0
100
AcDbPoint
 10
80.379104195451
 20
637.77081187814
 30
0.0
  0
POINT
  5
8540
330
8537
100
AcDbEntity
  8
DEFPOINTS
 62
     0
100
AcDbPoint
 10
80.379104195452
 20
637.77081187814
 30
0.0
  0
ENDBLK
  5
8539
330
8537
100
AcDbEntity
  8
0
100
AcDbBlockEnd
  0
ENDSEC
  0
SECTION
  2
ENTITIES
  0
MTEXT
  5
585A
330
1A
100
AcDbEntity
  8
細線
 48
10.0
100
AcDbMText
 10
2388.730547772073
 20
872.93633111709
 30
0.0
 40
6.0
 41
0.0
 71
     7
 72
     1
  1

  0
MTEXT
  5
5DFD
330
1A
100
AcDbEntity
  8
細線
 48
10.0
100
AcDbMText
 10
3365.875517977815
 20
358.633693314642
 30
0.0
 40
6.0
 41
0.0
 71
     7
 72
     1
  1

  0
LINE
  5
64D9
330
1A
100
AcDbEntity
  8
中心線
 48
10.0
100
AcDbLine
 10
876.101194140788
 20
611.674534245649
 30
0.0
 11
133.820083501387
 21
611.667077210356
 31
0.0
  0
LINE
  5
6561
330
1A
100
AcDbEntity
  8
下書線
100
AcDbLine
 10
95.586535071843
 20
717.414711228493
 30
0.0
 11
910.263648293918
 21
717.414711228493
 31
0.0
  0
DIMENSION
  5
65DE
330
1A
100
AcDbEntity
  8
寸法線
 48
10.0
100
AcDbDimension
  2
*D19
 10
488.38103102365
 20
616.681993530943
 30
0.0
 11
482.75603102365
 21
639.223660197609
 31
0.0
 70
    32
  1
φ10
  3
ISO-25
100
AcDbAlignedDimension
 13
488.38103102365
 23
606.681993530943
 33
0.0
 14
488.38103102365
 24
616.681993530943
 34
0.0
 50
90.0
100
AcDbRotatedDimension
1001
ACAD
1000
DSTYLE
1002
{
1070
     5
1000
OPEN30
1070
    41
1040
6.0
1070
    47
1040
0.1
1070
    48
1040
0.1
1070
    73
1070
     0
1070
   140
1040
10.0
1070
   271
1070
     1
1070
   272
1070
     1
1070
   341
1005
2AF4
1002
}
  0
LEADER
  5
65EC
330
1A
100
AcDbEntity
  8
寸法線
 48
10.0
100
AcDbLeader
  3
ISO-25
 76
     3
 10
478.127161297845
 20
616.694490781695
 30
0.0
 10
454.592947892401
 20
717.414711228493
 30
0.0
 10
442.592947892401
 20
717.414711228493
 30
0.0
1001
ACAD
1000
DSTYLE
1002
{
1070
     5
1000
OPEN30
1070
   147
1040
0.625
1070
    77
1070
     0
1070
    41
1040
6.0
1070
    47
1040
0.1
1070
    48
1040
0.1
1070
    73
1070
     0
1070
   140
1040
8.0
1070
   271
1070
     1
1070
   272
1070
     1
1070
   341
1005
2AF4
1070
   342
1005
2AF4
1002
}
  0
MTEXT
  5
65ED
330
1A
100
AcDbEntity
  8
寸法線
 48
10.0
100
AcDbMText
 10
410.371919554792
 20
728.349362097058
 30
0.0
 40
2.333873885063
 41
47.634784273192
 71
     1
 72
     5
  1
{\H4.285x;SUS304}
  0
LINE
  5
6606
330
1A
100
AcDbEntity
  8
外形線
100
AcDbLine
 10
475.554794180934
 20
606.681993530943
 30
0.0
 11
492.130074180934
 21
606.681993530943
 31
0.0
  0
LINE
  5
660B
330
1A
100
AcDbEntity
  8
外形線
100
AcDbLine
 10
475.554794180934
 20
616.681993530943
 30
0.0
 11
492.130074180934
 21
616.681993530943
 31
0.0
  0
DIMENSION
  5
6611
330
1A
100
AcDbEntity
  8
寸法線
 48
10.0
100
AcDbDimension
  2
*D20
 10
542.130074180934
 20
414.064177750876
 30
0.0
 11
333.428660120708
 21
414.064177750876
 31
0.0
 70
    32
  1
 
  3
ISO-25
100
AcDbAlignedDimension
 13
141.837243507452
 23
553.141020024784
 33
0.0
 14
542.130074180934
 24
534.174534245649
 34
0.0
100
AcDbRotatedDimension
1001
ACAD
1000
DSTYLE
1002
{
1070
     5
1000
OPEN30
1070
    41
1040
6.0
1070
    47
1040
0.1
1070
    48
1040
0.1
1070
    73
1070
     0
1070
   140
1040
10.0
1070
   271
1070
     1
1070
   272
1070
     1
1070
   341
1005
2AF4
1002
}
  0
MTEXT
  5
6697
330
1A
100
AcDbEntity
  8
細線
 48
10.0
100
AcDbMText
 10
2386.842198953746
 20
912.80153897725
 30
0.0
 40
6.0
 41
0.0
 71
     7
 72
     1
  1

  0
INSERT
  5
7462
330
1A
100
AcDbEntity
  8
外形線
 48
10.0
100
AcDbBlockReference
  2
パドル_W1
 10
83.536127597952
 20
391.015315288544
 30
0.0
  0
LINE
  5
7463
330
1A
100
AcDbEntity
  8
外形線
100
AcDbLine
 10
245.337243507451
 20
607.674592995649
 30
0.0
 11
264.825517733629
 21
607.674592995649
 31
0.0
  0
DIMENSION
  5
7464
330
1A
100
AcDbEntity
  8
寸法線
 48
10.0
100
AcDbDimension
  2
*D28
 10
279.657280443786
 20
615.674625495649
 30
0.0
 11
274.02186377712
 21
635.716292162316
 31
0.0
 70
    32
  1
φ<>
  3
ISO-25
100
AcDbAlignedDimension
 13
279.657280443786
 23
607.674592995649
 33
0.0
 14
279.657280443786
 24
615.674625495649
 34
0.0
 50
90.0
100
AcDbRotatedDimension
1001
ACAD
1000
DSTYLE
1002
{
1070
     5
1000
OPEN30
1070
    41
1040
6.0
1070
    47
1040
0.1
1070
    48
1040
0.1
1070
    73
1070
     0
1070
   140
1040
10.0
1070
   271
1070
     1
1070
   272
1070
     1
1070
   341
1005
2AF4
1002
}
  0
LINE
  5
7465
330
1A
100
AcDbEntity
  8
外形線
100
AcDbLine
 10
236.837243507452
 20
619.956944495649
 30
0.0
 11
243.090616007451
 21
619.956944495649
 31
0.0
  0
LINE
  5
7466
330
1A
100
AcDbEntity
  8
外形線
100
AcDbLine
 10
243.090616007451
 20
619.956944495649
 30
0.0
 11
245.337168507452
 21
617.571790495649
 31
0.0
  0
ARC
  5
7467
330
1A
100
AcDbEntity
  8
細線
100
AcDbCircle
 10
241.748606007451
 20
618.681562995649
 30
0.0
 40
3.7563025
100
AcDbArc
 50
308.612371782869
 51
342.815889504128
  0
LINE
  5
7468
330
1A
100
AcDbEntity
  8
細線
100
AcDbLine
 10
238.837243507451
 20
615.746495495649
 30
0.0
 11
244.092724434459
 21
615.746495495649
 31
0.0
  0
LINE
  5
7469
330
1A
100
AcDbEntity
  8
外形線
100
AcDbLine
 10
236.837243507452
 20
603.392126495649
 30
0.0
 11
243.090616007451
 21
603.392126495649
 31
0.0
  0
LINE
  5
746A
330
1A
100
AcDbEntity
  8
外形線
100
AcDbLine
 10
243.090616007451
 20
603.392126495649
 30
0.0
 11
245.337168507452
 21
605.777205495649
 31
0.0
  0
LINE
  5
746B
330
1A
100
AcDbEntity
  8
外形線
100
AcDbLine
 10
236.837243507452
 20
619.818495495649
 30
0.0
 11
236.837243507452
 21
603.530575495649
 31
0.0
  0
LINE
  5
746C
330
1A
100
AcDbEntity
  8
外形線
100
AcDbLine
 10
245.337243507451
 20
605.777127995649
 30
0.0
 11
245.337243507451
 21
617.571790495649
 31
0.0
  0
LINE
  5
746D
330
1A
100
AcDbEntity
  8
外形線
100
AcDbLine
 10
238.837243507451
 20
619.956944495649
 30
0.0
 11
238.837243507451
 21
603.392126495649
 31
0.0
  0
LINE
  5
746E
330
1A
100
AcDbEntity
  8
外形線
100
AcDbLine
 10
236.837243507452
 20
619.818495495649
 30
0.0
 11
236.837243507452
 21
603.530575495649
 31
0.0
  0
ARC
  5
746F
330
1A
100
AcDbEntity
  8
細線
100
AcDbCircle
 10
238.053386007452
 20
611.67449799565
 30
0.0
 40
7.2838425
100
AcDbArc
 50
326.010120640441
 51
33.989328497327
  0
ARC
  5
7470
330
1A
100
AcDbEntity
  8
細線
100
AcDbCircle
 10
241.748606007451
 20
604.667355495649
 30
0.0
 40
3.7563025
100
AcDbArc
 50
17.184150191552
 51
51.387610617045
  0
LINE
  5
7471
330
1A
100
AcDbEntity
  8
細線
100
AcDbLine
 10
238.837243507451
 20
607.602612995649
 30
0.0
 11
244.092684479819
 21
607.602612995649
 31
0.0
  0
ARC
  5
7472
330
1A
100
AcDbEntity
  8
細線
100
AcDbCircle
 10
271.368370245114
 20
613.674617995649
 30
0.0
 40
4.000015
100
AcDbArc
 50
149.999999999999
 51
210.000000000001
  0
LINE
  5
7473
330
1A
100
AcDbEntity
  8
外形線
100
AcDbLine
 10
267.904255639595
 20
615.674625495649
 30
0.0
 11
290.788492568327
 21
615.674625495649
 31
0.0
  0
ARC
  5
7474
330
1A
100
AcDbEntity
  8
細線
100
AcDbCircle
 10
268.289631704053
 20
613.674619195654
 30
0.0
 40
4.000015
100
AcDbArc
 50
150.000019847852
 51
210.000019847829
  0
LINE
  5
7475
330
1A
100
AcDbEntity
  8
外形線
100
AcDbLine
 10
245.337243507451
 20
615.674625495649
 30
0.0
 11
264.825516405711
 21
615.674625495649
 31
0.0
  0
ARC
  5
7476
330
1A
100
AcDbEntity
  8
細線
100
AcDbCircle
 10
261.361402493015
 20
613.674616795644
 30
0.0
 40
4.000015
100
AcDbArc
 50
330.000019847852
 51
30.000019847829
  0
LINE
  5
7477
330
1A
100
AcDbEntity
  8
外形線
100
AcDbLine
 10
267.904257082972
 20
607.674592995649
 30
0.0
 11
290.788492568327
 21
607.674592995649
 31
0.0
  0
LINE
  5
7478
330
1A
100
AcDbEntity
  8
外形線
100
AcDbLine
 10
236.837243507452
 20
619.818495495649
 30
0.0
 11
236.837243507452
 21
603.530575495649
 31
0.0
  0
ARC
  5
7479
330
1A
100
AcDbEntity
  8
細線
100
AcDbCircle
 10
261.361403878663
 20
609.674601795644
 30
0.0
 40
4.000015
100
AcDbArc
 50
330.000019847852
 51
30.000019847829
  0
ARC
  5
747A
330
1A
100
AcDbEntity
  8
細線
100
AcDbCircle
 10
264.440141034077
 20
609.674602995649
 30
0.0
 40
4.000015
100
AcDbArc
 50
329.999999999999
 51
30.000000000001
  0
ARC
  5
747B
330
1A
100
AcDbEntity
  8
細線
100
AcDbCircle
 10
271.368370245114
 20
609.674602995649
 30
0.0
 40
4.000015
100
AcDbArc
 50
149.999999999999
 51
210.000000000001
  0
DIMENSION
  5
747E
330
1A
100
AcDbEntity
  8
寸法線
 48
10.0
100
AcDbDimension
  2
*D29
 10
290.788492568327
 20
549.942617680634
 30
0.0
 11
247.642667578344
 21
549.942617680634
 31
0.0
 70
   160
  1
 
  3
ISO-25
100
AcDbAlignedDimension
 13
245.145410969268
 23
605.777127995649
 33
0.0
 14
290.788492568327
 24
604.674526745649
 34
0.0
100
AcDbRotatedDimension
1001
ACAD
1000
DSTYLE
1002
{
1070
     5
1000
OPEN30
1070
    41
1040
6.0
1070
    47
1040
0.1
1070
    48
1040
0.1
1070
    73
1070
     0
1070
   140
1040
10.0
1070
   271
1070
     1
1070
   272
1070
     1
1070
   341
1005
2AF4
1002
}
  0
LEADER
  5
747F
330
1A
100
AcDbEntity
  8
寸法線
 48
10.0
100
AcDbLeader
  3
ISO-25
 76
     3
 10
305.358157835678
 20
602.638570053799
 30
0.0
 10
347.709795677629
 20
532.137106094142
 30
0.0
 10
363.384848676088
 20
532.137106094142
 30
0.0
1001
ACAD
1000
DSTYLE
1002
{
1070
     5
1000
OPEN30
1070
   147
1040
0.625
1070
    77
1070
     0
1070
    41
1040
6.0
1070
    47
1040
0.1
1070
    48
1040
0.1
1070
    73
1070
     0
1070
   140
1040
5.0
1070
   271
1070
     1
1070
   272
1070
     1
1070
   341
1005
2AF4
1070
   342
1005
2AF4
1002
}
  0
MTEXT
  5
7480
330
1A
100
AcDbEntity
  8
寸法線
 48
10.0
100
AcDbMText
 10
350.042345068351
 20
532.715362054658
 30
0.0
 40
10.0
 41
109.5
 71
     7
 72
     5
  1
可変軸締付金具\PSUS303
  0
MTEXT
  5
7481
330
1A
100
AcDbEntity
  8
寸法線
 48
10.0
100
AcDbMText
 10
102.30821740588
 20
727.823620601366
 30
0.0
 40
10.0
 41
0.0
 71
     1
 72
     5
  1
SUS304
  0
LEADER
  5
7482
330
1A
100
AcDbEntity
  8
寸法線
 48
10.0
100
AcDbLeader
  3
ISO-25
 76
     3
 10
168.742163736097
 20
651.536850997144
 30
0.0
 10
148.908667363517
 20
717.342973312663
 30
0.0
 10
136.908667363517
 20
717.342973312663
 30
0.0
1001
ACAD
1000
DSTYLE
1002
{
1070
     5
1000
OPEN30
1070
   147
1040
0.625
1070
    77
1070
     0
1070
    41
1040
6.0
1070
    47
1040
0.1
1070
    48
1040
0.1
1070
    73
1070
     0
1070
   140
1040
5.0
1070
   271
1070
     1
1070
   272
1070
     1
1070
   341
1005
2AF4
1070
   342
1005
2AF4
1002
}
  0
LEADER
  5
7483
330
1A
100
AcDbEntity
  8
寸法線
 48
10.0
100
AcDbLeader
  3
ISO-25
 76
     3
 10
249.737865426811
 20
615.674625495649
 30
0.0
 10
212.805599837134
 20
717.414711228493
 30
0.0
 10
200.805599837134
 20
717.414711228493
 30
0.0
1001
ACAD
1000
DSTYLE
1002
{
1070
     5
1000
OPEN30
1070
   147
1040
0.625
1070
    77
1070
     0
1070
    41
1040
6.0
1070
    47
1040
0.1
1070
    48
1040
0.1
1070
    73
1070
     0
1070
   140
1040
5.0
1070
   271
1070
     1
1070
   272
1070
     1
1070
   341
1005
2AF4
1070
   342
1005
2AF4
1002
}
  0
MTEXT
  5
7484
330
1A
100
AcDbEntity
  8
寸法線
 48
10.0
100
AcDbMText
 10
210.627417030028
 20
718.24198293451
 30
0.0
 40
10.0
 41
0.0
 71
     9
 72
     5
  1
寸法可変軸\PSUS304
1001
ACAD
1000
MTEXTBEGIN
1070
    44
1040
0.8
1000
MTEXTEND
  0
LEADER
  5
7485
330
1A
100
AcDbEntity
  8
寸法線
 48
10.0
100
AcDbLeader
  3
ISO-25
 76
     3
 10
303.743974630753
 20
620.365642920999
 30
0.0
 10
310.056095129437
 20
681.62763730552
 30
0.0
 10
298.056095129437
 20
681.62763730552
 30
0.0
1001
ACAD
1000
DSTYLE
1002
{
1070
     5
1000
OPEN30
1070
   147
1040
0.625
1070
    77
1070
     0
1070
    41
1040
6.0
1070
    47
1040
0.1
1070
    48
1040
0.1
1070
    73
1070
     0
1070
   140
1040
5.0
1070
   271
1070
     1
1070
   272
1070
     1
1070
   341
1005
2AF4
1070
   342
1005
2AF4
1002
}
  0
MTEXT
  5
7486
330
1A
100
AcDbEntity
  8
寸法線
 48
10.0
100
AcDbMText
 10
307.877912322331
 20
682.454909011537
 30
0.0
 40
10.0
 41
0.0
 71
     9
 72
     5
  1
可変軸固定金具\PBsBM
1001
ACAD
1000
MTEXTBEGIN
1070
    44
1040
0.8
1000
MTEXTEND
  0
MTEXT
  5
7487
330
1A
100
AcDbEntity
  8
寸法線
 48
10.0
100
AcDbMText
 10
336.360040065601
 20
718.24198293451
 30
0.0
 40
10.0
 41
0.0
 71
     9
 72
     5
  1
可変用パイプ\PSUS
1001
ACAD
1000
MTEXTBEGIN
1070
    44
1040
0.8
1000
MTEXTEND
  0
LEADER
  5
7488
330
1A
100
AcDbEntity
  8
寸法線
 48
10.0
100
AcDbLeader
  3
ISO-25
 76
     3
 10
331.075740048915
 20
618.5745978394
 30
0.0
 10
338.538222872707
 20
717.414711228493
 30
0.0
 10
326.538222872707
 20
717.414711228493
 30
0.0
1001
ACAD
1000
DSTYLE
1002
{
1070
     5
1000
OPEN30
1070
   147
1040
0.625
1070
    77
1070
     0
1070
    41
1040
6.0
1070
    47
1040
0.1
1070
    48
1040
0.1
1070
    73
1070
     0
1070
   140
1040
5.0
1070
   271
1070
     1
1070
   272
1070
     1
1070
   341
1005
2AF4
1070
   342
1005
2AF4
1002
}
  0
DIMENSION
  5
7489
330
1A
100
AcDbEntity
  8
寸法線
 48
10.0
100
AcDbDimension
  2
*D30
 10
352.830197554808
 20
618.57459595265
 30
0.0
 11
347.189572554808
 21
640.116262619317
 31
0.0
 70
    32
  1
φ<>
  3
ISO-25
100
AcDbAlignedDimension
 13
352.830197554808
 23
604.774623046427
 33
0.0
 14
352.830197554808
 24
618.57459595265
 34
0.0
 50
90.0
100
AcDbRotatedDimension
1001
ACAD
1000
DSTYLE
1002
{
1070
     5
1000
OPEN30
1070
    41
1040
6.0
1070
    47
1040
0.1
1070
    48
1040
0.1
1070
    73
1070
     0
1070
   140
1040
10.0
1070
   271
1070
     1
1070
   272
1070
     1
1070
   341
1005
2AF4
1002
}
  0
LINE
  5
748A
330
1A
100
AcDbEntity
  8
外形線
100
AcDbLine
 10
334.007834561115
 20
604.774494345779
 30
0.0
 11
317.361058269761
 21
604.774580243212
 31
0.0
  0
LINE
  5
748B
330
1A
100
AcDbEntity
  8
外形線
 48
10.0
100
AcDbLine
 10
334.007829780665
 20
618.574469345774
 30
0.0
 11
317.361058269761
 21
618.574555243202
 31
0.0
  0
ARC
  5
748C
330
1A
100
AcDbEntity
  8
細線
100
AcDbCircle
 10
343.487827262786
 20
615.124476220774
 30
0.0
 40
4.717439959755914
100
AcDbArc
 50
133.002198028015
 51
226.997801971984
  0
LINE
  5
748D
330
1A
100
AcDbEntity
  8
外形線
100
AcDbLine
 10
365.130074180933
 20
618.574597459543
 30
0.0
 11
340.270408592662
 21
618.574469970774
 31
0.0
  0
LINE
  5
748E
330
1A
100
AcDbEntity
  8
外形線
100
AcDbLine
 10
365.130074180933
 20
604.774623213859
 30
0.0
 11
340.270408592664
 21
604.774494970774
 31
0.0
  0
ARC
  5
748F
330
1A
100
AcDbEntity
  8
細線
100
AcDbCircle
 10
337.052722097048
 20
608.224488720774
 30
0.0
 40
4.71762262788198
100
AcDbArc
 50
313.004576857278
 51
46.995423142722
  0
ARC
  5
7490
330
1A
100
AcDbEntity
  8
細線
100
AcDbCircle
 10
343.487693361405
 20
608.224488720773
 30
0.0
 40
4.717348636493086
100
AcDbArc
 50
133.001008645248
 51
226.998991354752
  0
ARC
  5
7491
330
1A
100
AcDbEntity
  8
細線
100
AcDbCircle
 10
337.225360690821
 20
615.124476710363
 30
0.0
 40
4.717515696023207
100
AcDbArc
 50
133.003204200557
 51
226.996835495122
  0
ARC
  5
7492
330
1A
100
AcDbEntity
  8
細線
100
AcDbCircle
 10
330.790389444763
 20
615.124474481221
 30
0.0
 40
4.717455551515777
100
AcDbArc
 50
313.002420933762
 51
46.997618761911
  0
ARC
  5
7493
330
1A
100
AcDbEntity
  8
細線
100
AcDbCircle
 10
330.790250415234
 20
608.224486981175
 30
0.0
 40
4.717552005024041
100
AcDbArc
 50
313.003677040383
 51
46.996362655291
  0
INSERT
  5
7494
330
1A
100
AcDbEntity
  8
外形線
 48
10.0
100
AcDbBlockReference
  2
A$C135842B4
 10
290.788492208402
 20
598.607579561546
 30
0.0
  0
MTEXT
  5
7495
330
1A
100
AcDbEntity
  8
寸法線
 48
10.0
100
AcDbMText
 10
431.302914749731
 20
682.454909011537
 30
0.0
 40
10.0
 41
0.0
 71
     9
 72
     5
  1
ステンレス\Pバネ鋼
1001
ACAD
1000
MTEXTBEGIN
1070
    44
1040
0.8
1000
MTEXTEND
  0
LEADER
  5
7496
330
1A
100
AcDbEntity
  8
寸法線
 48
10.0
100
AcDbLeader
  3
ISO-25
 76
     3
 10
428.520204866024
 20
623.852497782762
 30
0.0
 10
433.481097556837
 20
681.62763730552
 30
0.0
 10
421.481097556837
 20
681.62763730552
 30
0.0
1001
ACAD
1000
DSTYLE
1002
{
1070
     5
1000
OPEN30
1070
   147
1040
0.625
1070
    77
1070
     0
1070
    41
1040
6.0
1070
    47
1040
0.1
1070
    48
1040
0.1
1070
    73
1070
     0
1070
   140
1040
5.0
1070
   271
1070
     1
1070
   272
1070
     1
1070
   341
1005
2AF4
1070
   342
1005
2AF4
1002
}
  0
DIMENSION
  5
7509
330
1A
100
AcDbEntity
  8
寸法線
 48
10.0
100
AcDbDimension
  2
*D31
 10
221.837243507452
 20
549.942617680634
 30
0.0
 11
181.837243507452
 21
549.942617680634
 31
0.0
 70
   160
  3
ISO-25
100
AcDbAlignedDimension
 13
141.837243507452
 23
571.667077210356
 33
0.0
 14
221.837243507452
 24
599.667077210356
 34
0.0
100
AcDbRotatedDimension
1001
ACAD
1000
DSTYLE
1002
{
1070
     5
1000
OPEN30
1070
    41
1040
6.0
1070
    47
1040
0.1
1070
    48
1040
0.1
1070
    73
1070
     0
1070
   140
1040
10.0
1070
   271
1070
     1
1070
   272
1070
     1
1070
   341
1005
2AF4
1002
}
  0
DIMENSION
  5
750A
330
1A
100
AcDbEntity
  8
寸法線
 48
10.0
100
AcDbDimension
  2
*D32
 10
123.85463038275
 20
571.667077210356
 30
0.0
 11
123.85463038275
 21
611.667077210356
 31
0.0
 70
   160
  3
ISO-25
100
AcDbAlignedDimension
 13
141.837243507452
 23
651.667077210356
 33
0.0
 14
141.837243507452
 24
571.667077210356
 34
0.0
 50
90.0
100
AcDbRotatedDimension
1001
ACAD
1000
DSTYLE
1002
{
1070
     5
1000
OPEN30
1070
    41
1040
6.0
1070
    47
1040
0.1
1070
    48
1040
0.1
1070
    73
1070
     0
1070
   140
1040
10.0
1070
   271
1070
     1
1070
   272
1070
     1
1070
   341
1005
2AF4
1002
}
  0
MTEXT
  5
75EB
330
1A
100
AcDbEntity
  8
寸法線
 62
     1
 48
10.0
100
AcDbMText
 10
500.987355860267
 20
275.685414449609
 30
0.0
 40
9.0
 41
41.830572654069
 71
     1
 72
     5
  1
{\C256;記事}
  0
MTEXT
  5
75EC
330
1A
100
AcDbEntity
  8
寸法線
 62
     1
 48
10.0
100
AcDbMText
 10
567.749381825401
 20
276.025333314886
 30
0.0
 40
2.333873885063
 41
33.668509357609
 71
     1
 72
     5
  1
{\H3.856x;\C256;台数}
  0
MTEXT
  5
75EE
330
1A
100
AcDbEntity
  8
寸法線
 62
     1
 48
10.0
100
AcDbMText
 10
349.679127803674
 20
260.91176819781
 30
0.0
 40
9.0
 41
74.76828455196
 71
     1
 72
     5
  1
1020～1520\P1220～2020\P1520～2520\P1720～3020
  0
MTEXT
  5
75EF
330
1A
100
AcDbEntity
  8
寸法線
 62
     1
 48
10.0
100
AcDbMText
 10
419.016085179826
 20
260.885036557215
 30
0.0
 40
9.0
 41
67.174976926887
 71
     1
 72
     5
  1
0～500\P0～800\P0～1000\P0～1300
  0
LINE
  5
75F0
330
1A
100
AcDbEntity
  8
寸法線
 48
10.0
100
AcDbLine
 10
308.637126969855
 20
234.005479984265
 30
0.0
 11
592.143375552795
 21
234.005479984265
 31
0.0
  0
LINE
  5
75F1
330
1A
100
AcDbEntity
  8
寸法線
 48
10.0
100
AcDbLine
 10
308.637126969855
 20
249.017367614123
 30
0.0
 11
592.143375552795
 21
249.017367614123
 31
0.0
  0
LINE
  5
75F2
330
1A
100
AcDbEntity
  8
寸法線
 48
10.0
100
AcDbLine
 10
308.637126969855
 20
264.029255243981
 30
0.0
 11
592.143375552795
 21
264.029255243981
 31
0.0
  0
LINE
  5
75F3
330
1A
100
AcDbEntity
  8
寸法線
 48
10.0
100
AcDbLine
 10
308.637126969855
 20
279.041142873839
 30
0.0
 11
592.143375552795
 21
279.041142873839
 31
0.0
  0
LINE
  5
75F4
330
1A
100
AcDbEntity
  8
寸法線
 48
10.0
100
AcDbLine
 10
592.143375552795
 20
279.041142873839
 30
0.0
 11
592.143375552795
 21
203.981704724549
 31
0.0
  0
LINE
  5
75F5
330
1A
100
AcDbEntity
  8
寸法線
 48
10.0
100
AcDbLine
 10
562.474615222383
 20
279.041142873839
 30
0.0
 11
562.474615222383
 21
203.981704724549
 31
0.0
  0
LINE
  5
75F6
330
1A
100
AcDbEntity
  8
寸法線
 48
10.0
100
AcDbLine
 10
461.515683040699
 20
279.041142873839
 30
0.0
 11
461.515683040699
 21
203.981704724549
 31
0.0
  0
LINE
  5
75F7
330
1A
100
AcDbEntity
  8
寸法線
 48
10.0
100
AcDbLine
 10
413.217727259548
 20
279.041142873839
 30
0.0
 11
413.217727259548
 21
203.981704724549
 31
0.0
  0
LINE
  5
75F8
330
1A
100
AcDbEntity
  8
寸法線
 48
10.0
100
AcDbLine
 10
344.116327094699
 20
279.041142873839
 30
0.0
 11
344.116327094699
 21
203.981704724549
 31
0.0
  0
LINE
  5
75F9
330
1A
100
AcDbEntity
  8
寸法線
 48
10.0
100
AcDbLine
 10
308.637126969855
 20
279.041142873839
 30
0.0
 11
308.637126969855
 21
203.981704724549
 31
0.0
  0
TEXT
  5
75FA
330
1A
100
AcDbEntity
  8
寸法線
100
AcDbText
 10
440.125443641409
 20
266.073730825253
 30
0.0
 40
4.9725
  1
０
 41
1.304347826087
  7
EXCADSTD
 72
     5
 11
445.097943641409
 21
266.073730825253
 31
0.0
100
AcDbText
  0
ARC
  5
75FB
330
1A
100
AcDbEntity
  8
寸法線
100
AcDbCircle
 10
435.702882251409
 20
276.164865141503
 30
0.0
 40
0.3343384687500001
100
AcDbArc
 50
28.230948369006
 51
123.883845843378
  0
ARC
  5
75FC
330
1A
100
AcDbEntity
  8
寸法線
100
AcDbCircle
 10
438.690206103909
 20
271.641844334003
 30
0.0
 40
5.75490547125
100
AcDbArc
 50
123.469024399707
 51
239.773899120639
  0
ARC
  5
75FD
330
1A
100
AcDbEntity
  8
寸法線
100
AcDbCircle
 10
430.795633882659
 20
272.891038270253
 30
0.0
 40
6.23195717625
100
AcDbArc
 50
273.280470979895
 51
33.415912335969
  0
ARC
  5
75FE
330
1A
100
AcDbEntity
  8
寸法線
100
AcDbCircle
 10
436.436435396409
 20
268.761198010253
 30
0.0
 40
2.18863344375
100
AcDbArc
 50
252.903398883417
 51
337.412611017138
  0
ARC
  5
75FF
330
1A
100
AcDbEntity
  8
寸法線
100
AcDbCircle
 10
378.675621300264
 20
276.42073738023
 30
0.0
 40
0.3343384687500001
100
AcDbArc
 50
28.230948369006
 51
123.883845843378
  0
ARC
  5
7600
330
1A
100
AcDbEntity
  8
寸法線
100
AcDbCircle
 10
381.662945152764
 20
271.89771657273
 30
0.0
 40
5.75490547125
100
AcDbArc
 50
123.469024399699
 51
239.773899120639
  0
ARC
  5
7601
330
1A
100
AcDbEntity
  8
寸法線
100
AcDbCircle
 10
373.768372931514
 20
273.14691050898
 30
0.0
 40
6.23195717625
100
AcDbArc
 50
273.280470979895
 51
33.415912335969
  0
ARC
  5
7602
330
1A
100
AcDbEntity
  8
寸法線
100
AcDbCircle
 10
379.409249032764
 20
269.01707024898
 30
0.0
 40
2.18863344375
100
AcDbArc
 50
252.903398883417
 51
337.412611017139
  0
MTEXT
  5
7603
330
1A
100
AcDbEntity
  8
寸法線
 48
10.0
100
AcDbMText
 10
439.658218335627
 20
199.862237322053
 30
0.0
 40
9.0
 41
156.612571841817
 71
     1
 72
     5
  1
○印が今回の貴社の御仕様です。
  0
LINE
  5
7637
330
1A
100
AcDbEntity
  8
寸法線
 48
10.0
100
AcDbLine
 10
308.637126969855
 20
218.993592354407
 30
0.0
 11
592.143375552795
 21
218.993592354407
 31
0.0
  0
MTEXT
  5
7674
330
1A
100
AcDbEntity
  8
寸法線
 62
     1
 48
10.0
100
AcDbMText
 10
311.30799208527
 20
275.685414449609
 30
0.0
 40
9.0
 41
41.830572654069
 71
     1
 72
     5
  1
御仕様
  0
ARC
  5
767F
330
1A
100
AcDbEntity
  8
寸法線
100
AcDbCircle
 10
335.531481443286
 20
418.087982422624
 30
0.0
 40
2.18863344375
100
AcDbArc
 50
252.903398883417
 51
337.412611017139
  0
ARC
  5
7680
330
1A
100
AcDbEntity
  8
寸法線
100
AcDbCircle
 10
329.890605342036
 20
422.217822682624
 30
0.0
 40
6.23195717625
100
AcDbArc
 50
273.280470979895
 51
33.415912335969
  0
ARC
  5
7681
330
1A
100
AcDbEntity
  8
寸法線
100
AcDbCircle
 10
337.785177563286
 20
420.968628746375
 30
0.0
 40
5.75490547125
100
AcDbArc
 50
123.469024399699
 51
239.773899120639
  0
ARC
  5
7682
330
1A
100
AcDbEntity
  8
寸法線
100
AcDbCircle
 10
334.797853710786
 20
425.491649553875
 30
0.0
 40
0.3343384687500001
100
AcDbArc
 50
28.230948369006
 51
123.883845843378
  0
ARC
  5
7693
330
1A
100
AcDbEntity
  8
寸法線
100
AcDbCircle
 10
266.056871968954
 20
553.822461607777
 30
0.0
 40
2.18863344375
100
AcDbArc
 50
252.903398883417
 51
337.412611017138
  0
ARC
  5
7694
330
1A
100
AcDbEntity
  8
寸法線
100
AcDbCircle
 10
260.416070455204
 20
557.952301867777
 30
0.0
 40
6.23195717625
100
AcDbArc
 50
273.280470979894
 51
33.415912335969
  0
ARC
  5
7695
330
1A
100
AcDbEntity
  8
寸法線
100
AcDbCircle
 10
268.310642676454
 20
556.703107931527
 30
0.0
 40
5.75490547125
100
AcDbArc
 50
123.469024399708
 51
239.773899120639
  0
ARC
  5
7696
330
1A
100
AcDbEntity
  8
寸法線
100
AcDbCircle
 10
265.323318823954
 20
561.226128739027
 30
0.0
 40
0.3343384687500001
100
AcDbArc
 50
28.230948369006
 51
123.883845843378
  0
TEXT
  5
7697
330
1A
100
AcDbEntity
  8
寸法線
100
AcDbText
 10
268.169456837473
 20
551.134994422777
 30
0.0
 40
4.9725
  1
０
 41
1.304347826087
  7
EXCADSTD
 72
     5
 11
273.141956837473
 21
551.134994422777
 31
0.0
100
AcDbText
  0
LINE
  5
77C0
330
1A
100
AcDbEntity
  8
外形線
 48
10.0
100
AcDbLine
 10
467.130074180934
 20
603.399577204114
 30
0.0
 11
467.130074180934
 21
619.964395204114
 31
0.0
  0
LINE
  5
77C2
330
1A
100
AcDbEntity
  8
外形線
100
AcDbLine
 10
467.130074180934
 20
619.964395204114
 30
0.0
 11
473.177337498093
 21
619.964395204114
 31
0.0
  0
ARC
  5
77C3
330
1A
100
AcDbEntity
  8
細線
100
AcDbCircle
 10
471.966234180934
 20
618.696546989408
 30
0.0
 40
3.7563025
100
AcDbArc
 50
308.612371782882
 51
342.815889504113
  0
LINE
  5
77C4
330
1A
100
AcDbEntity
  8
細線
100
AcDbLine
 10
469.376626680934
 20
615.761479489408
 30
0.0
 11
474.310364180934
 21
615.761479489408
 31
0.0
  0
LINE
  5
77C5
330
1A
100
AcDbEntity
  8
外形線
100
AcDbLine
 10
473.177337498093
 20
619.964395204114
 30
0.0
 11
475.554794180934
 21
617.586774489408
 31
0.0
  0
ARC
  5
77C7
330
1A
100
AcDbEntity
  8
細線
100
AcDbCircle
 10
468.270591680934
 20
611.689481989408
 30
0.0
 40
7.284212499999999
100
AcDbArc
 50
326.012068696965
 51
33.987437736606
  0
LINE
  5
77C8
330
1A
100
AcDbEntity
  8
外形線
100
AcDbLine
 10
475.554794180934
 20
605.792111989408
 30
0.0
 11
475.554794180934
 21
617.586774489408
 31
0.0
  0
LINE
  5
77C9
330
1A
100
AcDbEntity
  8
外形線
100
AcDbLine
 10
469.376626680934
 20
603.399577204114
 30
0.0
 11
469.376626680934
 21
619.964395204114
 31
0.0
  0
ARC
  5
77CA
330
1A
100
AcDbEntity
  8
細線
100
AcDbCircle
 10
471.966234180934
 20
604.682339489408
 30
0.0
 40
3.7563025
100
AcDbArc
 50
17.184150191566
 51
51.387610617029
  0
LINE
  5
77CB
330
1A
100
AcDbEntity
  8
細線
100
AcDbLine
 10
469.376626680934
 20
607.617596989408
 30
0.0
 11
474.310364180934
 21
607.617596989408
 31
0.0
  0
LINE
  5
77CC
330
1A
100
AcDbEntity
  8
外形線
100
AcDbLine
 10
467.130074180934
 20
603.399577204114
 30
0.0
 11
473.162267093907
 21
603.399577204114
 31
0.0
  0
LINE
  5
77CD
330
1A
100
AcDbEntity
  8
外形線
100
AcDbLine
 10
473.162267093907
 20
603.399577204114
 30
0.0
 11
475.554794180934
 21
605.792189489408
 31
0.0
  0
LINE
  5
77CE
330
1A
100
AcDbEntity
  8
外形線
100
AcDbLine
 10
365.130074180933
 20
601.431971204114
 30
0.0
 11
366.880059180933
 21
599.681986204113
 31
0.0
  0
LINE
  5
77CF
330
1A
100
AcDbEntity
  8
細線
100
AcDbLine
 10
385.130074180933
 20
605.681986204114
 30
0.0
 11
367.021591680933
 21
605.681986204114
 31
0.0
  0
ARC
  5
77D0
330
1A
100
AcDbEntity
  8
細線
100
AcDbCircle
 10
375.592001827071
 20
611.681986204114
 30
0.0
 40
10.4619276461377
100
AcDbArc
 50
145.004781311401
 51
214.995218688599
  0
ARC
  5
77D1
330
1A
100
AcDbEntity
  8
細線
100
AcDbCircle
 10
372.062103082851
 20
600.892721106886
 30
0.0
 40
6.952971693050801
100
AcDbArc
 50
136.464145118945
 51
175.551856895771
  0
LINE
  5
77D2
330
1A
100
AcDbEntity
  8
外形線
100
AcDbLine
 10
385.130074180933
 20
599.681986204113
 30
0.0
 11
366.880059180933
 21
599.681986204113
 31
0.0
  0
LINE
  5
77D3
330
1A
100
AcDbEntity
  8
外形線
100
AcDbLine
 10
365.130074180933
 20
621.932001204114
 30
0.0
 11
365.130074180933
 21
601.431971204114
 31
0.0
  0
LINE
  5
77D4
330
1A
100
AcDbEntity
  8
外形線
100
AcDbLine
 10
365.130074180933
 20
621.932001204114
 30
0.0
 11
366.880059180933
 21
623.681986204114
 31
0.0
  0
LINE
  5
77D5
330
1A
100
AcDbEntity
  8
細線
100
AcDbLine
 10
385.130074180933
 20
617.681986204114
 30
0.0
 11
367.021591680933
 21
617.681986204114
 31
0.0
  0
ARC
  5
77D6
330
1A
100
AcDbEntity
  8
細線
100
AcDbCircle
 10
372.062103082851
 20
622.471251301341
 30
0.0
 40
6.952971693050801
100
AcDbArc
 50
184.448143104216
 51
223.535854881055
  0
LINE
  5
77D7
330
1A
100
AcDbEntity
  8
外形線
100
AcDbLine
 10
385.130074180933
 20
623.681986204114
 30
0.0
 11
366.880059180933
 21
623.681986204114
 31
0.0
  0
LINE
  5
77D8
330
1A
100
AcDbEntity
  8
細線
100
AcDbLine
 10
420.793453112226
 20
621.923466694794
 30
0.0
 11
422.493210980881
 21
601.115913906769
 31
0.0
  0
ARC
  5
77D9
330
1A
100
AcDbEntity
  8
外形線
100
AcDbCircle
 10
422.793453112226
 20
621.923466694794
 30
0.0
 40
2.000000000000028
100
AcDbArc
 50
9.340183859371
 51
180.0
  0
LINE
  5
77DA
330
1A
100
AcDbEntity
  8
細線
100
AcDbLine
 10
420.889748946758
 20
600.891083764466
 30
0.0
 11
422.008270103802
 21
607.052308192684
 31
0.0
  0
LINE
  5
77DB
330
1A
100
AcDbEntity
  8
外形線
100
AcDbLine
 10
385.130074180933
 20
623.740074849401
 30
0.0
 11
385.130074180933
 21
599.623897558826
 31
0.0
  0
ARC
  5
77DC
330
1A
100
AcDbEntity
  8
外形線
100
AcDbCircle
 10
389.793453112227
 20
621.923466694794
 30
0.0
 40
2.000000000000028
100
AcDbArc
 50
9.340183859371
 51
180.0
  0
ARC
  5
77DD
330
1A
100
AcDbEntity
  8
外形線
100
AcDbCircle
 10
395.293453112226
 20
621.923466694794
 30
0.0
 40
2.000000000000028
100
AcDbArc
 50
9.340183859371
 51
180.0
  0
ARC
  5
77DE
330
1A
100
AcDbEntity
  8
外形線
100
AcDbCircle
 10
400.793453112226
 20
621.923466694794
 30
0.0
 40
2.000000000000028
100
AcDbArc
 50
9.340183859371
 51
180.0
  0
ARC
  5
77DF
330
1A
100
AcDbEntity
  8
外形線
100
AcDbCircle
 10
406.293453112227
 20
621.923466694794
 30
0.0
 40
2.000000000000028
100
AcDbArc
 50
9.340183859371
 51
180.0
  0
ARC
  5
77E0
330
1A
100
AcDbEntity
  8
外形線
100
AcDbCircle
 10
411.793453112226
 20
621.923466694794
 30
0.0
 40
2.000000000000028
100
AcDbArc
 50
9.340183859371
 51
180.0
  0
ARC
  5
77E1
330
1A
100
AcDbEntity
  8
外形線
100
AcDbCircle
 10
417.293453112227
 20
621.923466694794
 30
0.0
 40
2.000000000000028
100
AcDbArc
 50
9.340183859371
 51
180.0
  0
ARC
  5
77E2
330
1A
100
AcDbEntity
  8
外形線
100
AcDbCircle
 10
384.293453112226
 20
621.923466694794
 30
0.0
 40
2.000000000000028
100
AcDbArc
 50
9.340183859371
 51
65.272029671754
  0
LINE
  5
77E3
330
1A
100
AcDbEntity
  8
細線
100
AcDbLine
 10
391.766937380986
 20
622.248058501461
 30
0.0
 11
393.466695249641
 21
601.440505713434
 31
0.0
  0
ARC
  5
77E4
330
1A
100
AcDbEntity
  8
外形線
100
AcDbCircle
 10
391.46669524964
 20
601.440505713436
 30
0.0
 40
2.000000000000028
100
AcDbArc
 50
180.0
 51
9.340183859397
  0
LINE
  5
77E5
330
1A
100
AcDbEntity
  8
細線
100
AcDbLine
 10
392.257023440041
 20
616.248679570786
 30
0.0
 11
393.293453112226
 21
621.923466694794
 31
0.0
  0
LINE
  5
77E6
330
1A
100
AcDbEntity
  8
細線
100
AcDbLine
 10
387.807394952935
 20
621.752797923737
 30
0.0
 11
389.493210980881
 21
601.115913906769
 31
0.0
  0
LINE
  5
77E7
330
1A
100
AcDbEntity
  8
細線
100
AcDbLine
 10
386.266937380986
 20
622.248058501461
 30
0.0
 11
387.966695249641
 21
601.440505713434
 31
0.0
  0
ARC
  5
77E8
330
1A
100
AcDbEntity
  8
外形線
100
AcDbCircle
 10
385.966695249641
 20
601.440505713436
 30
0.0
 40
2.000000000000028
100
AcDbArc
 50
245.272029671754
 51
9.340183859397
  0
LINE
  5
77E9
330
1A
100
AcDbEntity
  8
細線
100
AcDbLine
 10
387.889748946759
 20
600.891083764466
 30
0.0
 11
389.008270103801
 21
607.052308192684
 31
0.0
  0
LINE
  5
77EA
330
1A
100
AcDbEntity
  8
細線
100
AcDbLine
 10
386.757023440041
 20
616.248679570786
 30
0.0
 11
387.793453112226
 21
621.923466694794
 31
0.0
  0
LINE
  5
77EB
330
1A
100
AcDbEntity
  8
細線
100
AcDbLine
 10
419.266937380986
 20
622.248058501461
 30
0.0
 11
420.966695249641
 21
601.440505713434
 31
0.0
  0
LINE
  5
77EC
330
1A
100
AcDbEntity
  8
細線
100
AcDbLine
 10
415.293453112226
 20
621.923466694794
 30
0.0
 11
416.993210980881
 21
601.115913906764
 31
0.0
  0
LINE
  5
77ED
330
1A
100
AcDbEntity
  8
細線
100
AcDbLine
 10
413.766937380986
 20
622.248058501461
 30
0.0
 11
415.466695249641
 21
601.440505713434
 31
0.0
  0
LINE
  5
77EE
330
1A
100
AcDbEntity
  8
細線
100
AcDbLine
 10
409.793453112227
 20
621.923466694794
 30
0.0
 11
411.493210980881
 21
601.115913906769
 31
0.0
  0
LINE
  5
77EF
330
1A
100
AcDbEntity
  8
細線
100
AcDbLine
 10
408.266937380986
 20
622.248058501461
 30
0.0
 11
409.966695249641
 21
601.440505713434
 31
0.0
  0
LINE
  5
77F0
330
1A
100
AcDbEntity
  8
細線
100
AcDbLine
 10
404.293453112226
 20
621.923466694794
 30
0.0
 11
405.993210980881
 21
601.115913906764
 31
0.0
  0
LINE
  5
77F1
330
1A
100
AcDbEntity
  8
細線
100
AcDbLine
 10
402.766937380986
 20
622.248058501461
 30
0.0
 11
404.466695249641
 21
601.440505713434
 31
0.0
  0
LINE
  5
77F2
330
1A
100
AcDbEntity
  8
細線
100
AcDbLine
 10
398.793453112227
 20
621.923466694794
 30
0.0
 11
400.49321098088
 21
601.115913906769
 31
0.0
  0
LINE
  5
77F3
330
1A
100
AcDbEntity
  8
細線
100
AcDbLine
 10
397.266937380986
 20
622.248058501461
 30
0.0
 11
398.96669524964
 21
601.440505713434
 31
0.0
  0
LINE
  5
77F4
330
1A
100
AcDbEntity
  8
細線
100
AcDbLine
 10
393.293453112226
 20
621.923466694796
 30
0.0
 11
394.966695249641
 21
601.440505713439
 31
0.0
  0
ARC
  5
77F5
330
1A
100
AcDbEntity
  8
外形線
100
AcDbCircle
 10
396.966695249641
 20
601.440505713436
 30
0.0
 40
2.000000000000028
100
AcDbArc
 50
180.0
 51
9.340183859397
  0
ARC
  5
77F6
330
1A
100
AcDbEntity
  8
外形線
100
AcDbCircle
 10
402.466695249641
 20
601.440505713436
 30
0.0
 40
2.000000000000028
100
AcDbArc
 50
180.0
 51
9.340183859397
  0
ARC
  5
77F7
330
1A
100
AcDbEntity
  8
外形線
100
AcDbCircle
 10
407.966695249641
 20
601.440505713436
 30
0.0
 40
2.000000000000028
100
AcDbArc
 50
180.0
 51
9.340183859397
  0
ARC
  5
77F8
330
1A
100
AcDbEntity
  8
外形線
100
AcDbCircle
 10
413.466695249641
 20
601.440505713436
 30
0.0
 40
2.000000000000028
100
AcDbArc
 50
180.0
 51
9.340183859397
  0
ARC
  5
77F9
330
1A
100
AcDbEntity
  8
外形線
100
AcDbCircle
 10
418.96669524964
 20
601.440505713436
 30
0.0
 40
2.000000000000028
100
AcDbArc
 50
180.0
 51
9.340183859397
  0
LINE
  5
77FA
330
1A
100
AcDbEntity
  8
細線
100
AcDbLine
 10
393.389748946758
 20
600.891083764466
 30
0.0
 11
394.508270103802
 21
607.052308192684
 31
0.0
  0
LINE
  5
77FB
330
1A
100
AcDbEntity
  8
細線
100
AcDbLine
 10
398.889748946758
 20
600.891083764466
 30
0.0
 11
400.008270103801
 21
607.052308192684
 31
0.0
  0
LINE
  5
77FC
330
1A
100
AcDbEntity
  8
細線
100
AcDbLine
 10
397.757023440041
 20
616.248679570786
 30
0.0
 11
398.793453112227
 21
621.923466694794
 31
0.0
  0
LINE
  5
77FD
330
1A
100
AcDbEntity
  8
細線
100
AcDbLine
 10
404.389748946758
 20
600.891083764466
 30
0.0
 11
405.508270103801
 21
607.052308192684
 31
0.0
  0
LINE
  5
77FE
330
1A
100
AcDbEntity
  8
細線
100
AcDbLine
 10
403.25702344004
 20
616.248679570786
 30
0.0
 11
404.293453112226
 21
621.923466694794
 31
0.0
  0
LINE
  5
77FF
330
1A
100
AcDbEntity
  8
細線
100
AcDbLine
 10
409.889748946758
 20
600.891083764466
 30
0.0
 11
411.008270103801
 21
607.052308192684
 31
0.0
  0
LINE
  5
7800
330
1A
100
AcDbEntity
  8
細線
100
AcDbLine
 10
408.757023440041
 20
616.248679570786
 30
0.0
 11
409.793453112227
 21
621.923466694794
 31
0.0
  0
LINE
  5
7801
330
1A
100
AcDbEntity
  8
細線
100
AcDbLine
 10
415.389748946759
 20
600.891083764466
 30
0.0
 11
416.508270103801
 21
607.052308192684
 31
0.0
  0
LINE
  5
7802
330
1A
100
AcDbEntity
  8
細線
100
AcDbLine
 10
414.257023440041
 20
616.248679570786
 30
0.0
 11
415.293453112226
 21
621.923466694794
 31
0.0
  0
LINE
  5
7803
330
1A
100
AcDbEntity
  8
細線
100
AcDbLine
 10
419.757023440041
 20
616.248679570786
 30
0.0
 11
420.793453112226
 21
621.923466694794
 31
0.0
  0
ARC
  5
7804
330
1A
100
AcDbEntity
  8
外形線
100
AcDbCircle
 10
428.293453112226
 20
621.923466694794
 30
0.0
 40
2.000000000000028
100
AcDbArc
 50
9.340183859371
 51
180.0
  0
ARC
  5
7805
330
1A
100
AcDbEntity
  8
外形線
100
AcDbCircle
 10
433.793453112227
 20
621.923466694794
 30
0.0
 40
2.000000000000028
100
AcDbArc
 50
9.340183859371
 51
180.0
  0
ARC
  5
7806
330
1A
100
AcDbEntity
  8
外形線
100
AcDbCircle
 10
439.293453112226
 20
621.923466694794
 30
0.0
 40
2.000000000000028
100
AcDbArc
 50
9.340183859371
 51
180.0
  0
ARC
  5
7807
330
1A
100
AcDbEntity
  8
外形線
100
AcDbCircle
 10
444.793453112227
 20
621.923466694794
 30
0.0
 40
2.000000000000028
100
AcDbArc
 50
9.340183859371
 51
180.0
  0
ARC
  5
7808
330
1A
100
AcDbEntity
  8
外形線
100
AcDbCircle
 10
450.293453112226
 20
621.923466694794
 30
0.0
 40
2.000000000000028
100
AcDbArc
 50
23.319669944914
 51
180.0
  0
LINE
  5
7809
330
1A
100
AcDbEntity
  8
外形線
100
AcDbLine
 10
452.130074180934
 20
623.681986204114
 30
0.0
 11
452.130074180934
 21
599.447190052329
 31
0.0
  0
LINE
  5
780A
330
1A
100
AcDbEntity
  8
外形線
100
AcDbLine
 10
465.346591680934
 20
623.681986204114
 30
0.0
 11
467.130074180934
 21
621.034278704114
 31
0.0
  0
LINE
  5
780B
330
1A
100
AcDbEntity
  8
細線
100
AcDbLine
 10
448.293453112226
 20
621.923466694794
 30
0.0
 11
449.993210980881
 21
601.115913906769
 31
0.0
  0
ARC
  5
780C
330
1A
100
AcDbEntity
  8
外形線
100
AcDbCircle
 10
451.966695249641
 20
601.440505713436
 30
0.0
 40
2.000000000000028
100
AcDbArc
 50
180.0
 51
274.685682891617
  0
LINE
  5
780D
330
1A
100
AcDbEntity
  8
細線
100
AcDbLine
 10
446.766937380986
 20
622.248058501461
 30
0.0
 11
448.466695249641
 21
601.440505713434
 31
0.0
  0
LINE
  5
780E
330
1A
100
AcDbEntity
  8
細線
100
AcDbLine
 10
442.793453112226
 20
621.923466694794
 30
0.0
 11
444.466695249641
 21
601.440505713434
 31
0.0
  0
LINE
  5
780F
330
1A
100
AcDbEntity
  8
細線
100
AcDbLine
 10
441.266937380986
 20
622.248058501461
 30
0.0
 11
442.966695249641
 21
601.440505713434
 31
0.0
  0
LINE
  5
7810
330
1A
100
AcDbEntity
  8
細線
100
AcDbLine
 10
437.293453112227
 20
621.923466694794
 30
0.0
 11
438.993210980881
 21
601.115913906766
 31
0.0
  0
LINE
  5
7811
330
1A
100
AcDbEntity
  8
細線
100
AcDbLine
 10
435.766937380986
 20
622.248058501461
 30
0.0
 11
437.466695249641
 21
601.440505713434
 31
0.0
  0
LINE
  5
7812
330
1A
100
AcDbEntity
  8
細線
100
AcDbLine
 10
431.793453112226
 20
621.923466694794
 30
0.0
 11
433.493210980881
 21
601.115913906769
 31
0.0
  0
LINE
  5
7813
330
1A
100
AcDbEntity
  8
細線
100
AcDbLine
 10
430.266937380986
 20
622.248058501461
 30
0.0
 11
431.966695249641
 21
601.440505713434
 31
0.0
  0
LINE
  5
7814
330
1A
100
AcDbEntity
  8
細線
100
AcDbLine
 10
426.293453112227
 20
621.923466694794
 30
0.0
 11
427.99321098088
 21
601.115913906764
 31
0.0
  0
LINE
  5
7815
330
1A
100
AcDbEntity
  8
細線
100
AcDbLine
 10
424.766937380986
 20
622.248058501461
 30
0.0
 11
426.46669524964
 21
601.440505713434
 31
0.0
  0
ARC
  5
7816
330
1A
100
AcDbEntity
  8
外形線
100
AcDbCircle
 10
424.466695249641
 20
601.440505713436
 30
0.0
 40
2.000000000000028
100
AcDbArc
 50
180.0
 51
9.340183859397
  0
ARC
  5
7817
330
1A
100
AcDbEntity
  8
外形線
100
AcDbCircle
 10
429.966695249641
 20
601.440505713436
 30
0.0
 40
2.000000000000028
100
AcDbArc
 50
180.0
 51
9.340183859397
  0
ARC
  5
7818
330
1A
100
AcDbEntity
  8
外形線
100
AcDbCircle
 10
435.466695249641
 20
601.440505713436
 30
0.0
 40
2.000000000000028
100
AcDbArc
 50
180.0
 51
9.340183859397
  0
ARC
  5
7819
330
1A
100
AcDbEntity
  8
外形線
100
AcDbCircle
 10
440.966695249641
 20
601.440505713436
 30
0.0
 40
2.000000000000028
100
AcDbArc
 50
180.0
 51
9.340183859397
  0
ARC
  5
781A
330
1A
100
AcDbEntity
  8
外形線
100
AcDbCircle
 10
446.46669524964
 20
601.440505713436
 30
0.0
 40
2.000000000000028
100
AcDbArc
 50
180.0
 51
9.340183859397
  0
LINE
  5
781B
330
1A
100
AcDbEntity
  8
細線
100
AcDbLine
 10
426.389748946758
 20
600.891083764466
 30
0.0
 11
427.508270103801
 21
607.052308192684
 31
0.0
  0
LINE
  5
781C
330
1A
100
AcDbEntity
  8
細線
100
AcDbLine
 10
425.257023440041
 20
616.248679570786
 30
0.0
 11
426.293453112227
 21
621.923466694794
 31
0.0
  0
LINE
  5
781D
330
1A
100
AcDbEntity
  8
細線
100
AcDbLine
 10
431.889748946758
 20
600.891083764466
 30
0.0
 11
433.008270103801
 21
607.052308192684
 31
0.0
  0
LINE
  5
781E
330
1A
100
AcDbEntity
  8
細線
100
AcDbLine
 10
430.75702344004
 20
616.248679570786
 30
0.0
 11
431.793453112226
 21
621.923466694794
 31
0.0
  0
LINE
  5
781F
330
1A
100
AcDbEntity
  8
細線
100
AcDbLine
 10
437.389748946758
 20
600.891083764466
 30
0.0
 11
438.508270103801
 21
607.052308192684
 31
0.0
  0
LINE
  5
7820
330
1A
100
AcDbEntity
  8
細線
100
AcDbLine
 10
436.257023440041
 20
616.248679570786
 30
0.0
 11
437.293453112227
 21
621.923466694794
 31
0.0
  0
LINE
  5
7821
330
1A
100
AcDbEntity
  8
細線
100
AcDbLine
 10
442.889748946759
 20
600.891083764466
 30
0.0
 11
444.008270103801
 21
607.052308192684
 31
0.0
  0
LINE
  5
7822
330
1A
100
AcDbEntity
  8
細線
100
AcDbLine
 10
441.757023440041
 20
616.248679570786
 30
0.0
 11
442.793453112226
 21
621.923466694794
 31
0.0
  0
LINE
  5
7823
330
1A
100
AcDbEntity
  8
細線
100
AcDbLine
 10
448.389748946758
 20
600.891083764466
 30
0.0
 11
449.508270103802
 21
607.052308192684
 31
0.0
  0
LINE
  5
7824
330
1A
100
AcDbEntity
  8
細線
100
AcDbLine
 10
447.257023440041
 20
616.248679570786
 30
0.0
 11
448.293453112226
 21
621.923466694794
 31
0.0
  0
LINE
  5
7825
330
1A
100
AcDbEntity
  8
外形線
100
AcDbLine
 10
467.130074180934
 20
602.329693704114
 30
0.0
 11
467.130074180934
 21
621.034278704114
 31
0.0
  0
LINE
  5
7826
330
1A
100
AcDbEntity
  8
細線
100
AcDbLine
 10
452.130074180934
 20
617.681986204114
 30
0.0
 11
465.346591680934
 21
617.681986204114
 31
0.0
  0
LINE
  5
7827
330
1A
100
AcDbEntity
  8
細線
100
AcDbLine
 10
452.130074180934
 20
605.681986204114
 30
0.0
 11
465.346591680934
 21
605.681986204114
 31
0.0
  0
LINE
  5
7828
330
1A
100
AcDbEntity
  8
外形線
100
AcDbLine
 10
465.346591680934
 20
599.681986204113
 30
0.0
 11
452.130074180934
 21
599.681986204113
 31
0.0
  0
ARC
  5
7829
330
1A
100
AcDbEntity
  8
細線
100
AcDbCircle
 10
456.145719182271
 20
611.681986204114
 30
0.0
 40
10.98435499866225
100
AcDbArc
 50
326.891144138684
 51
33.108855861316
  0
ARC
  5
782A
330
1A
100
AcDbEntity
  8
細線
100
AcDbCircle
 10
462.992146113446
 20
621.085164740444
 30
0.0
 40
4.1382409403513
100
AcDbArc
 50
304.676927093576
 51
359.295442522744
  0
ARC
  5
782B
330
1A
100
AcDbEntity
  8
細線
100
AcDbCircle
 10
462.992146113446
 20
602.278807667784
 30
0.0
 40
4.1382409403513
100
AcDbArc
 50
0.704557477256
 51
55.323072906424
  0
LINE
  5
782C
330
1A
100
AcDbEntity
  8
外形線
100
AcDbLine
 10
465.346591680934
 20
599.681986204113
 30
0.0
 11
467.130074180934
 21
602.329693704114
 31
0.0
  0
LINE
  5
782D
330
1A
100
AcDbEntity
  8
外形線
100
AcDbLine
 10
465.346591680934
 20
623.681986204114
 30
0.0
 11
452.130074180934
 21
623.681986204114
 31
0.0
  0
LINE
  5
7943
330
1A
100
AcDbEntity
  8
寸法線
 48
10.0
100
AcDbLine
 10
308.637126969855
 20
203.981704724549
 30
0.0
 11
592.143375552795
 21
203.981704724549
 31
0.0
  0
LWPOLYLINE
  5
7B00
330
1A
100
AcDbEntity
  8
外形線
 48
10.0
100
AcDbPolyline
 90
        4
 70
     0
 43
0.0
 10
542.130074180934
 20
628.674534245649
 10
492.130074180934
 20
628.674534245649
 10
492.130074180934
 20
594.674534245649
 10
542.130074180934
 20
594.674534245649
  0
DIMENSION
  5
7B01
330
1A
100
AcDbEntity
  8
寸法線
 48
10.0
100
AcDbDimension
  2
*D46
 10
520.339863586674
 20
594.674534245649
 30
0.0
 11
520.339863586674
 21
648.21082456823
 31
0.0
 70
   160
  3
ISO-25
100
AcDbAlignedDimension
 13
520.205888991674
 23
628.674534245649
 33
0.0
 14
520.339863586674
 24
594.674534245649
 34
0.0
 50
90.0
100
AcDbRotatedDimension
1001
ACAD
1000
DSTYLE
1002
{
1070
     5
1000
OPEN30
1070
     3
1000
φ<>
1070
    41
1040
6.0
1070
    47
1040
0.1
1070
    48
1040
0.1
1070
    73
1070
     0
1070
   140
1040
10.0
1070
   271
1070
     1
1070
   272
1070
     1
1070
   341
1005
2AF4
1002
}
  0
MTEXT
  5
7B03
330
1A
100
AcDbEntity
  8
寸法線
 48
10.0
100
AcDbMText
 10
535.569934149431
 20
741.345059100795
 30
0.0
 40
10.0
 41
61.304386020114
 71
     3
 72
     5
  1
フランジ\Pアルミ鋳物
1001
ACAD
1000
MTEXTBEGIN
1070
    44
1040
0.8
1000
MTEXTEND
  0
LEADER
  5
7B04
330
1A
100
AcDbEntity
  8
寸法線
 48
10.0
100
AcDbLeader
  3
ISO-25
 76
     3
 10
547.604148166452
 20
689.174534245649
 30
0.0
 10
537.145000734053
 20
717.414711228493
 30
0.0
 10
525.145000734053
 20
717.414711228493
 30
0.0
1001
ACAD
1000
DSTYLE
1002
{
1070
     5
1000
OPEN30
1070
   147
1040
0.625
1070
    77
1070
     0
1070
    41
1040
6.0
1070
    47
1040
0.1
1070
    48
1040
0.1
1070
    73
1070
     0
1070
   140
1040
8.0
1070
   271
1070
     1
1070
   272
1070
     1
1070
   341
1005
2AF4
1070
   342
1005
2AF4
1002
}
  0
DIMENSION
  5
7B05
330
1A
100
AcDbEntity
  8
寸法線
 48
10.0
100
AcDbDimension
  2
*D47
 10
542.130074180934
 20
436.064177750876
 30
0.0
 11
548.130074180934
 21
436.064177750876
 31
0.0
 70
   160
  3
ISO-25
100
AcDbAlignedDimension
 13
554.130074180934
 23
534.174534245649
 33
0.0
 14
542.130074180934
 24
534.174534245649
 34
0.0
100
AcDbRotatedDimension
1001
ACAD
1000
DSTYLE
1002
{
1070
     5
1000
OPEN30
1070
    41
1040
6.0
1070
    47
1040
0.1
1070
    48
1040
0.1
1070
    73
1070
     0
1070
   140
1040
10.0
1070
   271
1070
     1
1070
   272
1070
     1
1070
   341
1005
2AF4
1002
}
  0
DIMENSION
  5
7B06
330
1A
100
AcDbEntity
  8
寸法線
 48
10.0
100
AcDbDimension
  2
*D48
 10
554.130074180934
 20
436.064177750876
 30
0.0
 11
609.130074180934
 21
441.689177750876
 31
0.0
 70
    32
  3
ISO-25
100
AcDbAlignedDimension
 13
664.130074180934
 23
534.17453424565
 33
0.0
 14
554.130074180934
 24
534.174534245649
 34
0.0
100
AcDbRotatedDimension
1001
ACAD
1000
DSTYLE
1002
{
1070
     5
1000
OPEN30
1070
    41
1040
6.0
1070
    47
1040
0.1
1070
    48
1040
0.1
1070
    73
1070
     0
1070
   140
1040
10.0
1070
   271
1070
     1
1070
   272
1070
     1
1070
   341
1005
2AF4
1002
}
  0
DIMENSION
  5
7B07
330
1A
100
AcDbEntity
  8
寸法線
 48
10.0
100
AcDbDimension
  2
*D49
 10
542.130074180934
 20
414.064177750876
 30
0.0
 11
704.115634160861
 21
419.699594417543
 31
0.0
 70
    32
  3
ISO-25
100
AcDbAlignedDimension
 13
866.101194140788
 23
539.674534245649
 33
0.0
 14
542.130074180934
 24
534.174534245649
 34
0.0
100
AcDbRotatedDimension
1001
ACAD
1000
DSTYLE
1002
{
1070
     5
1000
OPEN30
1070
     3
1000
（<>）
1070
    41
1040
6.0
1070
   271
1070
     1
1070
   341
1005
2AF4
1070
   272
1070
     1
1070
    73
1070
     0
1070
    48
1040
0.1
1070
    47
1040
0.1
1070
   140
1040
10.0
1002
}
  0
DIMENSION
  5
7B08
330
1A
100
AcDbEntity
  8
寸法線
 48
10.0
100
AcDbDimension
  2
*D50
 10
664.130074180934
 20
436.064177750876
 30
0.0
 11
669.130074180934
 21
436.064177750876
 31
0.0
 70
   160
  3
ISO-25
100
AcDbAlignedDimension
 13
676.130074180934
 23
535.172404761145
 33
0.0
 14
664.130074180934
 24
534.17453424565
 34
0.0
100
AcDbRotatedDimension
1001
ACAD
1000
DSTYLE
1002
{
1070
     5
1000
OPEN30
1070
    41
1040
6.0
1070
    47
1040
0.1
1070
    48
1040
0.1
1070
    73
1070
     0
1070
   140
1040
10.0
1070
   271
1070
     1
1070
   272
1070
     1
1070
   341
1005
2AF4
1002
}
  0
DIMENSION
  5
7B09
330
1A
100
AcDbEntity
  8
寸法線_文字
 48
10.0
100
AcDbDimension
  2
*D51
 10
850.101194140788
 20
436.064177750876
 30
0.0
 11
822.101194140788
 21
441.689177750876
 31
0.0
 70
    32
  3
ISO-25
100
AcDbAlignedDimension
 13
794.101194140788
 23
539.174534245649
 33
0.0
 14
850.101194140788
 24
539.174534245649
 34
0.0
100
AcDbRotatedDimension
1001
ACAD
1000
DSTYLE
1002
{
1070
     5
1000
OPEN30
1070
    41
1040
6.0
1070
    47
1040
0.1
1070
    48
1040
0.1
1070
    73
1070
     0
1070
   140
1040
10.0
1070
   271
1070
     1
1070
   272
1070
     1
1070
   341
1005
2AF4
1002
}
  0
LWPOLYLINE
  5
7B0A
330
1A
100
AcDbEntity
  8
外形線
 48
10.0
100
AcDbPolyline
 90
        4
 70
     1
 43
0.0
 10
542.130074180934
 20
534.174534245649
 10
554.130074180934
 20
534.174534245649
 10
554.130074180934
 20
689.174534245649
 10
542.130074180934
 20
689.174534245649
  0
LINE
  5
7B0B
330
1A
100
AcDbEntity
  8
外形線
 48
10.0
100
AcDbLine
 10
554.130074180934
 20
591.674534245649
 30
0.0
 11
576.130074180934
 21
591.674534245649
 31
0.0
  0
LINE
  5
7B0C
330
1A
100
AcDbEntity
  8
外形線
 48
10.0
100
AcDbLine
 10
554.130074180934
 20
631.674534245649
 30
0.0
 11
576.130074180934
 21
631.674534245649
 31
0.0
  0
HATCH
  5
7B0D
330
1A
100
AcDbEntity
  8
細線
 48
10.0
100
AcDbHatch
 10
0.0
 20
0.0
 30
0.0
210
0.0
220
0.0
230
1.0
  2
LINE
 70
     0
 71
     0
 91
        1
 92
        7
 72
     0
 73
     1
 93
        4
 10
639.1011941407885
 20
611.6745342456489
 10
639.1011941407885
 20
616.674534245649
 10
618.4351416809345
 20
616.6745342456489
 10
618.4351416809345
 20
611.6745342456492
 97
        0
 75
     0
 76
     1
 52
45.0
 41
1.0
 77
     0
 78
     1
 53
45.0
 43
123.1018008556091
 44
0.0
 45
-2.245064030267288
 46
2.245064030267288
 79
     0
 47
0.058980973623
 98
        1
 10
620.3988892635241
 20
613.5688880948396
  0
HATCH
  5
7B0E
330
1A
100
AcDbEntity
  8
細線
 48
10.0
100
AcDbHatch
 10
0.0
 20
0.0
 30
0.0
210
0.0
220
0.0
230
1.0
  2
LINE
 70
     0
 71
     0
 91
        2
 92
       23
 72
     0
 73
     1
 93
        4
 10
639.1011941407885
 20
611.6745342456492
 10
639.1011941407886
 20
616.674534245649
 10
618.4351416809345
 20
616.674534245649
 10
618.4351416809345
 20
611.674534245649
 97
        0
 92
        7
 72
     0
 73
     1
 93
        4
 10
639.1011941407885
 20
606.674534245649
 10
639.1011941407886
 20
616.674534245649
 10
618.4351416809345
 20
616.674534245649
 10
618.4351416809345
 20
606.6745342456488
 97
        0
 75
     0
 76
     1
 52
45.0
 41
1.0
 77
     0
 78
     1
 53
45.0
 43
123.1018008556091
 44
0.0
 45
-2.245064030267288
 46
2.245064030267288
 79
     0
 47
0.058980973623
 98
        2
 10
623.5859971572579
 20
613.273982989348
 10
622.9957910853961
 20
609.6171634432776
  0
LEADER
  5
7B0F
330
1A
100
AcDbEntity
  8
寸法線
 48
10.0
100
AcDbLeader
  3
ISO-25
 76
     3
 10
597.66780858816
 20
626.64526808118
 30
0.0
 10
577.985725109946
 20
717.414711228493
 30
0.0
 10
565.985725109946
 20
717.414711228493
 30
0.0
1001
ACAD
1000
DSTYLE
1002
{
1070
     5
1000
OPEN30
1070
   147
1040
0.625
1070
    77
1070
     0
1070
    41
1040
6.0
1070
    47
1040
0.1
1070
    48
1040
0.1
1070
    73
1070
     0
1070
   140
1040
5.0
1070
   271
1070
     1
1070
   272
1070
     1
1070
   341
1005
2AF4
1070
   342
1005
2AF4
1002
}
  0
MTEXT
  5
7B10
330
1A
100
AcDbEntity
  8
寸法線
 48
10.0
100
AcDbMText
 10
547.808069690024
 20
727.913066468895
 30
0.0
 40
10.0
 41
17.617431142437
 71
     1
 72
     5
  1
BsBM
  0
DIMENSION
  5
7B11
330
1A
100
AcDbEntity
  8
寸法線
 48
10.0
100
AcDbDimension
  2
*D52
 10
628.762612746749
 20
606.704378500853
 30
0.0
 11
628.762612746749
 21
639.583238008727
 31
0.0
 70
   160
  1
φ<>
  3
ISO-25
100
AcDbAlignedDimension
 13
628.762612746749
 23
616.704301000853
 33
0.0
 14
628.762612746749
 24
606.704378500853
 34
0.0
 50
90.0
100
AcDbRotatedDimension
1001
ACAD
1000
DSTYLE
1002
{
1070
     5
1000
OPEN30
1070
    41
1040
6.0
1070
    47
1040
0.1
1070
    48
1040
0.1
1070
    73
1070
     0
1070
   140
1040
10.0
1070
   271
1070
     1
1070
   272
1070
     1
1070
   341
1005
2AF4
1002
}
  0
LINE
  5
7B12
330
1A
100
AcDbEntity
  8
外形線
100
AcDbLine
 10
588.469228821059
 20
606.696886101515
 30
0.0
 11
576.130074180934
 21
606.696886101515
 31
0.0
  0
LINE
  5
7B13
330
1A
100
AcDbEntity
  8
外形線
100
AcDbLine
 10
588.469228821059
 20
616.696886101515
 30
0.0
 11
576.130074180934
 21
616.696886101515
 31
0.0
  0
LINE
  5
7B14
330
1A
100
AcDbEntity
  8
外形線
100
AcDbLine
 10
576.130074180934
 20
631.674534245649
 30
0.0
 11
576.130074180934
 21
591.674534245649
 31
0.0
  0
LINE
  5
7B15
330
1A
100
AcDbEntity
  8
外形線
100
AcDbLine
 10
618.435141680935
 20
617.462384245649
 30
0.0
 11
618.435141680935
 21
605.88660674565
 31
0.0
  0
ARC
  5
7B16
330
1A
100
AcDbEntity
  8
細線
100
AcDbCircle
 10
612.815134162021
 20
611.674515656224
 30
0.0
 40
5.62000751922095
100
AcDbArc
 50
318.143885364234
 51
41.855618507182
  0
LINE
  5
7B17
330
1A
100
AcDbEntity
  8
外形線
100
AcDbLine
 10
617.157981680934
 20
604.174496745649
 30
0.0
 11
618.435141680935
 21
605.88660674565
 31
0.0
  0
ARC
  5
7B18
330
1A
100
AcDbEntity
  8
細線
100
AcDbCircle
 10
612.904364180933
 20
603.518024245649
 30
0.0
 40
6.016645
100
AcDbArc
 50
23.183190193917
 51
47.086301857426
  0
LINE
  5
7B19
330
1A
100
AcDbEntity
  8
外形線
100
AcDbLine
 10
611.685111680933
 20
604.174496745649
 30
0.0
 11
617.157981680934
 21
604.174496745649
 31
0.0
  0
LINE
  5
7B1A
330
1A
100
AcDbEntity
  8
細線
100
AcDbLine
 10
611.685111680933
 20
607.924496745649
 30
0.0
 11
617.001044180934
 21
607.924496745649
 31
0.0
  0
ARC
  5
7B1B
330
1A
100
AcDbEntity
  8
細線
100
AcDbCircle
 10
612.904364180933
 20
619.83096674565
 30
0.0
 40
6.016645
100
AcDbArc
 50
312.913737838255
 51
336.816849501773
  0
LINE
  5
7B1C
330
1A
100
AcDbEntity
  8
外形線
100
AcDbLine
 10
617.157981680934
 20
619.174496745649
 30
0.0
 11
618.435141680935
 21
617.462384245649
 31
0.0
  0
LINE
  5
7B1D
330
1A
100
AcDbEntity
  8
外形線
100
AcDbLine
 10
611.685111680933
 20
619.174496745649
 30
0.0
 11
617.157981680934
 21
619.174496745649
 31
0.0
  0
LINE
  5
7B1E
330
1A
100
AcDbEntity
  8
細線
100
AcDbLine
 10
611.685111680933
 20
615.424496745649
 30
0.0
 11
617.001044180934
 21
615.424496745649
 31
0.0
  0
LINE
  5
7B1F
330
1A
100
AcDbEntity
  8
細線
 48
10.0
100
AcDbLine
 10
601.469228821059
 20
596.707904698553
 30
0.0
 11
601.469228821059
 21
608.674534245649
 31
0.0
  0
LINE
  5
7B20
330
1A
100
AcDbEntity
  8
細線
 48
10.0
100
AcDbLine
 10
601.469228821059
 20
626.641163792745
 30
0.0
 11
601.469228821059
 21
614.674534245649
 31
0.0
  0
LINE
  5
7B21
330
1A
100
AcDbEntity
  8
細線
 48
10.0
100
AcDbLine
 10
601.469228821059
 20
608.674534245649
 30
0.0
 11
596.969228821059
 21
608.674534245649
 31
0.0
  0
LINE
  5
7B22
330
1A
100
AcDbEntity
  8
細線
 48
10.0
100
AcDbLine
 10
596.969228821059
 20
614.674534245649
 30
0.0
 11
596.969228821059
 21
608.674534245649
 31
0.0
  0
LINE
  5
7B23
330
1A
100
AcDbEntity
  8
細線
 48
10.0
100
AcDbLine
 10
601.469228821059
 20
614.674534245649
 30
0.0
 11
596.969228821059
 21
614.674534245649
 31
0.0
  0
LINE
  5
7B24
330
1A
100
AcDbEntity
  8
外形線
 48
10.0
100
AcDbLine
 10
594.469228821059
 20
596.707904698553
 30
0.0
 11
601.469228821059
 21
596.707904698553
 31
0.0
  0
LINE
  5
7B25
330
1A
100
AcDbEntity
  8
外形線
 48
10.0
100
AcDbLine
 10
594.469228821059
 20
626.641163792745
 30
0.0
 11
601.469228821059
 21
626.641163792745
 31
0.0
  0
LINE
  5
7B26
330
1A
100
AcDbEntity
  8
細線
100
AcDbLine
 10
603.185111680933
 20
596.707904698553
 30
0.0
 11
603.185111680933
 21
609.174534245649
 31
0.0
  0
LINE
  5
7B27
330
1A
100
AcDbEntity
  8
細線
100
AcDbLine
 10
603.185111680933
 20
609.174534245649
 30
0.0
 11
598.685111680933
 21
609.174534245649
 31
0.0
  0
LINE
  5
7B28
330
1A
100
AcDbEntity
  8
細線
100
AcDbLine
 10
603.185111680933
 20
626.641163792745
 30
0.0
 11
603.185111680933
 21
614.174534245649
 31
0.0
  0
LINE
  5
7B29
330
1A
100
AcDbEntity
  8
外形線
100
AcDbLine
 10
605.685111680933
 20
626.641163792745
 30
0.0
 11
603.185111680933
 21
626.641163792745
 31
0.0
  0
LINE
  5
7B2A
330
1A
100
AcDbEntity
  8
外形線
100
AcDbLine
 10
611.685111680933
 20
621.674496745649
 30
0.0
 11
605.685111680933
 21
621.674496745649
 31
0.0
  0
LINE
  5
7B2B
330
1A
100
AcDbEntity
  8
外形線
100
AcDbLine
 10
594.469228821059
 20
621.674496745649
 30
0.0
 11
588.469228821059
 21
621.674496745649
 31
0.0
  0
LINE
  5
7B2C
330
1A
100
AcDbEntity
  8
細線
100
AcDbLine
 10
603.185111680933
 20
614.174534245649
 30
0.0
 11
598.685111680933
 21
614.174534245649
 31
0.0
  0
LINE
  5
7B2D
330
1A
100
AcDbEntity
  8
外形線
100
AcDbLine
 10
605.685111680933
 20
596.707904698553
 30
0.0
 11
603.185111680933
 21
596.707904698553
 31
0.0
  0
LINE
  5
7B2E
330
1A
100
AcDbEntity
  8
外形線
100
AcDbLine
 10
611.685111680933
 20
601.674496745649
 30
0.0
 11
605.685111680933
 21
601.674496745649
 31
0.0
  0
LINE
  5
7B2F
330
1A
100
AcDbEntity
  8
外形線
100
AcDbLine
 10
594.469228821059
 20
601.674496745649
 30
0.0
 11
588.469228821059
 21
601.674496745649
 31
0.0
  0
LINE
  5
7B30
330
1A
100
AcDbEntity
  8
外形線
100
AcDbLine
 10
594.469228821059
 20
626.641163792745
 30
0.0
 11
594.469228821059
 21
596.707904698553
 31
0.0
  0
LINE
  5
7B31
330
1A
100
AcDbEntity
  8
外形線
100
AcDbLine
 10
605.685111680933
 20
596.707904698553
 30
0.0
 11
605.685111680933
 21
626.641163792745
 31
0.0
  0
LINE
  5
7B32
330
1A
100
AcDbEntity
  8
外形線
100
AcDbLine
 10
611.685111680933
 20
621.674496745649
 30
0.0
 11
611.685111680933
 21
601.674496745649
 31
0.0
  0
LINE
  5
7B33
330
1A
100
AcDbEntity
  8
外形線
100
AcDbLine
 10
588.469228821059
 20
621.674496745649
 30
0.0
 11
588.469228821059
 21
601.674496745649
 31
0.0
  0
LINE
  5
7B34
330
1A
100
AcDbEntity
  8
細線
100
AcDbLine
 10
598.685111680933
 20
614.174534245649
 30
0.0
 11
598.685111680933
 21
609.174534245649
 31
0.0
  0
LINE
  5
7B60
330
1A
100
AcDbEntity
  8
外形線
100
AcDbLine
 10
554.130074180934
 20
552.924534245649
 30
0.0
 11
664.130074180934
 21
552.924534245649
 31
0.0
  0
LINE
  5
7B61
330
1A
100
AcDbEntity
  8
中心線
  6
DASHDOT
100
AcDbLine
 10
691.130079269586
 20
546.674534245649
 30
0.0
 11
536.130074180934
 21
546.674534245649
 31
0.0
  0
LINE
  5
7B62
330
1A
100
AcDbEntity
  8
外形線
100
AcDbLine
 10
554.130074180934
 20
540.42453424565
 30
0.0
 11
664.130074180934
 21
540.42453424565
 31
0.0
  0
LINE
  5
7B63
330
1A
100
AcDbEntity
  8
外形線
100
AcDbLine
 10
554.130074180934
 20
682.924534245649
 30
0.0
 11
664.130074180934
 21
682.924534245649
 31
0.0
  0
LINE
  5
7B64
330
1A
100
AcDbEntity
  8
外形線
100
AcDbLine
 10
554.130074180934
 20
670.424534245649
 30
0.0
 11
664.130074180934
 21
670.424534245649
 31
0.0
  0
LINE
  5
7B65
330
1A
100
AcDbEntity
  8
中心線
  6
DASHDOT
100
AcDbLine
 10
691.130079269586
 20
676.674534245649
 30
0.0
 11
536.130074180934
 21
676.674534245649
 31
0.0
  0
LEADER
  5
7B66
330
1A
100
AcDbEntity
  8
寸法線
 48
10.0
100
AcDbLeader
  3
ISO-25
 76
     3
 10
645.191119636403
 20
631.174534245649
 30
0.0
 10
630.103400614882
 20
717.414711228493
 30
0.0
 10
618.103400614882
 20
717.414711228493
 30
0.0
1001
ACAD
1000
DSTYLE
1002
{
1070
     5
1000
OPEN30
1070
   147
1040
0.625
1070
    77
1070
     0
1070
    41
1040
6.0
1070
    47
1040
0.1
1070
    48
1040
0.1
1070
    73
1070
     0
1070
   140
1040
5.0
1070
   271
1070
     1
1070
   272
1070
     1
1070
   341
1005
2AF4
1070
   342
1005
2AF4
1002
}
  0
LEADER
  5
7B67
330
1A
100
AcDbEntity
  8
寸法線
 48
10.0
100
AcDbLeader
  3
ISO-25
 76
     3
 10
663.251339952361
 20
630.56562883634
 30
0.0
 10
645.529479943198
 20
717.414711228493
 30
0.0
 10
657.529479943198
 20
717.414711228493
 30
0.0
1001
ACAD
1000
DSTYLE
1002
{
1070
     5
1000
OPEN30
1070
   147
1040
0.625
1070
    77
1070
     0
1070
    41
1040
6.0
1070
    47
1040
0.1
1070
    48
1040
0.1
1070
    73
1070
     0
1070
   140
1040
5.0
1070
   271
1070
     1
1070
   272
1070
     1
1070
   341
1005
2AF4
1070
   342
1005
2AF4
1002
}
  0
LEADER
  5
7B68
330
1A
100
AcDbEntity
  8
寸法線
 48
10.0
100
AcDbLeader
  3
ISO-25
 76
     3
 10
672.133227022319
 20
689.548117145183
 30
0.0
 10
695.830320165283
 20
717.414711228493
 30
0.0
 10
707.830320165283
 20
717.414711228493
 30
0.0
1001
ACAD
1000
DSTYLE
1002
{
1070
     5
1000
OPEN30
1070
   147
1040
0.625
1070
    77
1070
     0
1070
    41
1040
6.0
1070
    47
1040
0.1
1070
    48
1040
0.1
1070
    73
1070
     0
1070
   140
1040
5.0
1070
   271
1070
     1
1070
   272
1070
     1
1070
   341
1005
2AF4
1070
   342
1005
2AF4
1002
}
  0
MTEXT
  5
7B69
330
1A
100
AcDbEntity
  8
寸法線
 48
10.0
100
AcDbMText
 10
696.025025094299
 20
741.713936937364
 30
0.0
 40
10.0
 41
69.195504635065
 71
     1
 72
     5
  1
フランジ\Pアルミ鋳物
1001
ACAD
1000
MTEXTBEGIN
1070
    44
1040
0.8
1000
MTEXTEND
  0
MTEXT
  5
7B6A
330
1A
100
AcDbEntity
  8
寸法線
 48
10.0
100
AcDbMText
 10
646.115868043771
 20
728.744095645645
 30
0.0
 40
10.0
 41
43.610722308331
 71
     1
 72
     5
  1
Oリング
  0
MTEXT
  5
7B6B
330
1A
100
AcDbEntity
  8
寸法線
 48
10.0
100
AcDbMText
 10
587.155946331397
 20
728.747318667074
 30
0.0
 40
10.0
 41
89.2
 71
     1
 72
     5
  1
SUS304
  0
LINE
  5
7B70
330
1A
100
AcDbEntity
  8
外形線
100
AcDbLine
 10
618.435141680935
 20
606.674534245649
 30
0.0
 11
639.101194140788
 21
606.674534245649
 31
0.0
  0
LINE
  5
7B71
330
1A
100
AcDbEntity
  8
中心線
 48
10.0
100
AcDbLine
 10
822.101194140788
 20
553.704128263965
 30
0.0
 11
822.101194140788
 21
451.064177750876
 31
0.0
  0
MTEXT
  5
7B72
330
1A
100
AcDbEntity
  8
寸法線
 48
10.0
100
AcDbMText
 10
856.702657912864
 20
405.016733371615
 30
0.0
 40
10.0
 41
57.713255088558
 71
     1
 72
     5
  1
G 1/2"
  0
LEADER
  5
7B73
330
1A
100
AcDbEntity
  8
寸法線
 48
10.0
100
AcDbLeader
  3
ISO-25
 76
     3
 10
824.641584963878
 20
460.891879263331
 30
0.0
 10
853.072783567976
 20
394.484675467194
 30
0.0
 10
864.788936838896
 20
394.484675467194
 30
0.0
213
-44.57612925785418
223
0.0
233
0.0
1001
ACAD
1000
DSTYLE
1002
{
1070
     5
1000
OPEN30
1070
   147
1040
0.625
1070
    77
1070
     0
1070
    41
1040
6.0
1070
    47
1040
0.1
1070
    48
1040
0.1
1070
    73
1070
     0
1070
   140
1040
5.0
1070
   271
1070
     1
1070
   272
1070
     1
1070
   341
1005
2AF4
1070
   342
1005
2AF4
1002
}
  0
DIMENSION
  5
7B74
330
1A
100
AcDbEntity
  8
寸法線_文字
 48
10.0
100
AcDbDimension
  2
*D53
 10
913.101194140789
 20
461.064177750876
 30
0.0
 11
913.101194140789
 21
572.869355998263
 31
0.0
 70
   160
  3
ISO-25
100
AcDbAlignedDimension
 13
865.101194140788
 23
684.674534245649
 33
0.0
 14
834.701194140788
 24
461.064177750876
 34
0.0
 50
90.0
100
AcDbRotatedDimension
1001
ACAD
1000
DSTYLE
1002
{
1070
     5
1000
OPEN30
1070
     3
1000
（<>）
1070
    41
1040
6.0
1070
   271
1070
     0
1070
   341
1005
2AF4
1070
   272
1070
     1
1070
    73
1070
     0
1070
    48
1040
0.1
1070
    47
1040
0.1
1070
   140
1040
10.0
1002
}
  0
LINE
  5
7B75
330
1A
100
AcDbEntity
  8
隠れ線
 48
10.0
100
AcDbLine
 10
694.101194140788
 20
590.174534245649
 30
0.0
 11
664.101194140788
 21
590.174534245649
 31
0.0
  0
LINE
  5
7B76
330
1A
100
AcDbEntity
  8
隠れ線
 48
10.0
100
AcDbLine
 10
694.101194140788
 20
633.174534245649
 30
0.0
 11
664.101194140788
 21
633.174534245649
 31
0.0
  0
LEADER
  5
7B77
330
1A
100
AcDbEntity
  8
寸法線
 48
10.0
100
AcDbLeader
  3
ISO-25
 76
     3
 10
682.352607311448
 20
633.372152889731
 30
0.0
 10
696.969302970826
 20
681.428653229844
 30
0.0
 10
708.969302970826
 20
681.428653229844
 30
0.0
1001
ACAD
1000
DSTYLE
1002
{
1070
     5
1000
OPEN30
1070
   147
1040
0.625
1070
    77
1070
     0
1070
    41
1040
6.0
1070
    47
1040
0.1
1070
    48
1040
0.1
1070
    73
1070
     0
1070
   140
1040
5.0
1070
   271
1070
     1
1070
   272
1070
     1
1070
   341
1005
2AF4
1070
   342
1005
2AF4
1002
}
  0
LEADER
  5
7B78
330
1A
100
AcDbEntity
  8
寸法線
 48
10.0
100
AcDbLeader
  3
ISO-25
 76
     3
 10
785.08922404541
 20
685.162519768283
 30
0.0
 10
782.825395158173
 20
717.414711228493
 30
0.0
 10
794.825395158173
 20
717.414711228493
 30
0.0
1001
ACAD
1000
DSTYLE
1002
{
1070
     5
1000
OPEN30
1070
   147
1040
0.625
1070
    77
1070
     0
1070
    41
1040
6.0
1070
    47
1040
0.1
1070
    48
1040
0.1
1070
    73
1070
     0
1070
   140
1040
5.0
1070
   271
1070
     1
1070
   272
1070
     1
1070
   341
1005
2AF4
1070
   342
1005
2AF4
1002
}
  0
LEADER
  5
7B79
330
1A
100
AcDbEntity
  8
寸法線
 48
10.0
100
AcDbLeader
  3
ISO-25
 76
     3
 10
817.760353229219
 20
672.125396071422
 30
0.0
 10
824.979724090724
 20
717.414711228492
 30
0.0
 10
836.979724090724
 20
717.414711228493
 30
0.0
1001
ACAD
1000
DSTYLE
1002
{
1070
     5
1000
OPEN30
1070
   147
1040
0.625
1070
    77
1070
     0
1070
    41
1040
6.0
1070
    47
1040
0.1
1070
    48
1040
0.1
1070
    73
1070
     0
1070
   140
1040
5.0
1070
   271
1070
     1
1070
   272
1070
     1
1070
   341
1005
2AF4
1070
   342
1005
2AF4
1002
}
  0
LEADER
  5
7B7A
330
1A
100
AcDbEntity
  8
寸法線
 48
10.0
100
AcDbLeader
  3
ISO-25
 76
     3
 10
859.2957422691
 20
684.768734549684
 30
0.0
 10
871.181361531582
 20
717.414711228492
 30
0.0
 10
883.181361531583
 20
717.414711228493
 30
0.0
1001
ACAD
1000
DSTYLE
1002
{
1070
     5
1000
OPEN30
1070
   147
1040
0.625
1070
    77
1070
     0
1070
    41
1040
6.0
1070
    47
1040
0.1
1070
    48
1040
0.1
1070
    73
1070
     0
1070
   140
1040
5.0
1070
   271
1070
     1
1070
   272
1070
     1
1070
   341
1005
2AF4
1070
   342
1005
2AF4
1002
}
  0
MTEXT
  5
7B7B
330
1A
100
AcDbEntity
  8
寸法線
 48
10.0
100
AcDbMText
 10
872.757353343972
 20
727.792713420799
 30
0.0
 40
10.0
 41
26.553641107301
 71
     1
 72
     5
  1
AC7A
  0
MTEXT
  5
7B7C
330
1A
100
AcDbEntity
  8
寸法線
 48
10.0
100
AcDbMText
 10
826.309425468841
 20
727.709918942569
 30
0.0
 40
10.0
 41
26.553641107301
 71
     1
 72
     5
  1
AC7A
  0
MTEXT
  5
7B7D
330
1A
100
AcDbEntity
  8
寸法線
 48
10.0
100
AcDbMText
 10
785.14245276387
 20
728.150976392273
 30
0.0
 40
10.0
 41
26.553641107301
 71
     1
 72
     5
  1
AC7A
  0
MTEXT
  5
7B7E
330
1A
100
AcDbEntity
  8
寸法線
 48
10.0
100
AcDbMText
 10
697.6862248374
 20
692.875708613519
 30
0.0
 40
10.0
 41
74.696477522242
 71
     1
 72
     5
  1
固着剤使用
  0
LINE
  5
7B7F
330
1A
100
AcDbEntity
  8
外形線
 48
10.0
100
AcDbLine
 10
694.101194140788
 20
579.17453424565
 30
0.0
 11
694.101194140788
 21
644.174534245649
 31
0.0
  0
DIMENSION
  5
7B80
330
1A
100
AcDbEntity
  8
寸法線_文字
 48
10.0
100
AcDbDimension
  2
*D54
 10
866.101194140788
 20
436.064177750876
 30
0.0
 11
858.101194140788
 21
441.689177750876
 31
0.0
 70
    32
  3
ISO-25
100
AcDbAlignedDimension
 13
850.101194140788
 23
539.17453424565
 33
0.0
 14
866.101194140788
 24
539.674534245649
 34
0.0
100
AcDbRotatedDimension
1001
ACAD
1000
DSTYLE
1002
{
1070
     5
1000
OPEN30
1070
    41
1040
6.0
1070
    47
1040
0.1
1070
    48
1040
0.1
1070
    73
1070
     0
1070
   140
1040
10.0
1070
   271
1070
     1
1070
   272
1070
     1
1070
   341
1005
2AF4
1002
}
  0
DIMENSION
  5
7B81
330
1A
100
AcDbEntity
  8
寸法線
 48
10.0
100
AcDbDimension
  2
*D55
 10
676.130074180934
 20
436.064177750876
 30
0.0
 11
735.115634160861
 21
441.699594417543
 31
0.0
 70
    32
  3
ISO-25
100
AcDbAlignedDimension
 13
794.101194140788
 23
539.174534245649
 33
0.0
 14
676.130074180934
 24
535.172404761145
 34
0.0
100
AcDbRotatedDimension
1001
ACAD
1000
DSTYLE
1002
{
1070
     5
1000
OPEN30
1070
    41
1040
6.0
1070
    47
1040
0.1
1070
    48
1040
0.1
1070
    73
1070
     0
1070
   140
1040
10.0
1070
   271
1070
     1
1070
   272
1070
     1
1070
   341
1005
2AF4
1002
}
  0
DIMENSION
  5
7B82
330
1A
100
AcDbEntity
  8
寸法線
 48
10.0
100
AcDbDimension
  2
*D56
 10
891.101194140788
 20
538.674534245649
 30
0.0
 11
891.101194140788
 21
609.583111918124
 31
0.0
 70
   160
  3
ISO-25
100
AcDbAlignedDimension
 13
865.101194140788
 23
684.674534245649
 33
0.0
 14
865.101194140788
 24
538.674534245649
 34
0.0
 50
90.0
100
AcDbRotatedDimension
1001
ACAD
1000
DSTYLE
1002
{
1070
     5
1000
OPEN30
1070
     3
1000
%%c<>
1070
    41
1040
6.0
1070
    47
1040
0.1
1070
    48
1040
0.1
1070
    73
1070
     0
1070
   140
1040
10.0
1070
   271
1070
     1
1070
   272
1070
     1
1070
   341
1005
2AF4
1002
}
  0
LINE
  5
7B83
330
1A
100
AcDbEntity
  8
外形線
100
AcDbLine
 10
639.101194140788
 20
616.674534245649
 30
0.0
 11
618.435141680935
 21
616.674534245649
 31
0.0
  0
LINE
  5
7B84
330
1A
100
AcDbEntity
  8
外形線
100
AcDbLine
 10
842.064895993779
 20
538.67453424565
 30
0.0
 11
849.601194140788
 21
538.674534245649
 31
0.0
  0
LINE
  5
7B85
330
1A
100
AcDbEntity
  8
外形線
 48
10.0
100
AcDbLine
 10
830.060725790751
 20
521.909477212497
 30
0.0
 11
832.746428315806
 21
521.909477212497
 31
0.0
  0
ARC
  5
7B86
330
1A
100
AcDbEntity
  8
外形線
 48
10.0
100
AcDbCircle
 10
804.564879546856
 20
501.924928958257
 30
0.0
 40
21.13927998456884
100
AcDbArc
 50
70.974760675969
 51
89.901573090859
  0
ARC
  5
7B87
330
1A
100
AcDbEntity
  8
外形線
 48
10.0
100
AcDbCircle
 10
839.63750873472
 20
501.924928958257
 30
0.0
 40
21.13927998456884
100
AcDbArc
 50
90.098426909141
 51
109.025239324031
  0
ARC
  5
7B88
330
1A
100
AcDbEntity
  8
外形線
 48
10.0
100
AcDbCircle
 10
822.101194140788
 20
495.053678374607
 30
0.0
 40
28.01049937626924
100
AcDbArc
 50
73.491210313049
 51
106.508789686951
  0
LINE
  5
7B89
330
1A
100
AcDbEntity
  8
外形線
 48
10.0
100
AcDbLine
 10
811.455959965769
 20
521.909477212497
 30
0.0
 11
814.141662490825
 21
521.909477212497
 31
0.0
  0
LINE
  5
7B8A
330
1A
100
AcDbEntity
  8
外形線
 48
10.0
100
AcDbLine
 10
830.060725790751
 20
496.218878289255
 30
0.0
 11
832.746428315806
 21
496.218878289255
 31
0.0
  0
ARC
  5
7B8B
330
1A
100
AcDbEntity
  8
外形線
 48
10.0
100
AcDbCircle
 10
804.564879546856
 20
516.203426543496
 30
0.0
 40
21.13927998456884
100
AcDbArc
 50
270.098426909141
 51
289.025239324031
  0
ARC
  5
7B8C
330
1A
100
AcDbEntity
  8
外形線
 48
10.0
100
AcDbCircle
 10
839.63750873472
 20
516.203426543496
 30
0.0
 40
21.13927998456884
100
AcDbArc
 50
250.974760675969
 51
269.901573090846
  0
ARC
  5
7B8D
330
1A
100
AcDbEntity
  8
外形線
 48
10.0
100
AcDbCircle
 10
822.101194140788
 20
523.074677127146
 30
0.0
 40
28.01049937626924
100
AcDbArc
 50
253.491210313049
 51
286.508789686951
  0
LINE
  5
7B8E
330
1A
100
AcDbEntity
  8
外形線
 48
10.0
100
AcDbLine
 10
811.455959965769
 20
496.218878289255
 30
0.0
 11
814.141662490825
 21
496.218878289255
 31
0.0
  0
LINE
  5
7B8F
330
1A
100
AcDbEntity
  8
外形線
 48
10.0
100
AcDbLine
 10
811.455959965769
 20
532.064177750877
 30
0.0
 11
811.45595996577
 21
539.064177750877
 31
0.0
  0
LINE
  5
7B90
330
1A
100
AcDbEntity
  8
外形線
 48
10.0
100
AcDbLine
 10
814.141662490825
 20
532.064177750877
 30
0.0
 11
814.141662490825
 21
539.064177750877
 31
0.0
  0
LINE
  5
7B91
330
1A
100
AcDbEntity
  8
外形線
 48
10.0
100
AcDbLine
 10
832.746428315806
 20
532.064177750877
 30
0.0
 11
832.746428315806
 21
539.064177750877
 31
0.0
  0
LINE
  5
7B92
330
1A
100
AcDbEntity
  8
外形線
 48
10.0
100
AcDbLine
 10
830.060725790752
 20
532.064177750877
 30
0.0
 11
830.060725790751
 21
539.064177750877
 31
0.0
  0
LINE
  5
7B93
330
1A
100
AcDbEntity
  8
外形線
 48
10.0
100
AcDbLine
 10
811.455959965769
 20
496.218878289255
 30
0.0
 11
811.455959965769
 21
521.909477212497
 31
0.0
  0
LINE
  5
7B94
330
1A
100
AcDbEntity
  8
外形線
 48
10.0
100
AcDbLine
 10
814.141662490825
 20
496.218878289255
 30
0.0
 11
814.141662490825
 21
521.909477212497
 31
0.0
  0
LINE
  5
7B95
330
1A
100
AcDbEntity
  8
外形線
 48
10.0
100
AcDbLine
 10
832.746428315806
 20
496.218878289255
 30
0.0
 11
832.746428315806
 21
521.909477212497
 31
0.0
  0
LINE
  5
7B96
330
1A
100
AcDbEntity
  8
外形線
 48
10.0
100
AcDbLine
 10
830.060725790751
 20
496.218878289255
 30
0.0
 11
830.060725790751
 21
521.909477212497
 31
0.0
  0
LINE
  5
7B97
330
1A
100
AcDbEntity
  8
外形線
 48
10.0
100
AcDbLine
 10
806.101194140788
 20
523.064177750877
 30
0.0
 11
838.101194140788
 21
523.064177750877
 31
0.0
  0
LINE
  5
7B98
330
1A
100
AcDbEntity
  8
外形線
 62
     0
100
AcDbLine
 10
838.101194140788
 20
532.064177750877
 30
0.0
 11
838.101194140788
 21
523.064177750877
 31
0.0
  0
LINE
  5
7B99
330
1A
100
AcDbEntity
  8
外形線
 48
10.0
100
AcDbLine
 10
835.201194140788
 20
461.930203154661
 30
0.0
 11
835.201194140788
 21
473.064177750876
 31
0.0
  0
LINE
  5
7B9A
330
1A
100
AcDbEntity
  8
外形線
 48
10.0
100
AcDbLine
 10
806.851194140788
 20
473.064177750876
 30
0.0
 11
835.351194140788
 21
473.064177750876
 31
0.0
  0
LINE
  5
7B9B
330
1A
100
AcDbEntity
  8
外形線
 48
10.0
100
AcDbLine
 10
806.101194140788
 20
532.064177750877
 30
0.0
 11
838.101194140788
 21
532.064177750877
 31
0.0
  0
LINE
  5
7B9C
330
1A
100
AcDbEntity
  8
外形線
 48
10.0
100
AcDbLine
 10
831.301194140788
 20
539.064177750877
 30
0.0
 11
812.901194140788
 21
539.064177750877
 31
0.0
  0
LINE
  5
7B9D
330
1A
100
AcDbEntity
  8
外形線
100
AcDbLine
 10
839.601194140788
 20
539.064177750877
 30
0.0
 11
831.301194140788
 21
539.064177750877
 31
0.0
  0
LINE
  5
7B9E
330
1A
100
AcDbEntity
  8
外形線
100
AcDbLine
 10
839.601194140788
 20
539.064177750877
 30
0.0
 11
841.601194140788
 21
538.528279366014
 31
0.0
  0
LINE
  5
7B9F
330
1A
100
AcDbEntity
  8
外形線
 62
     0
100
AcDbLine
 10
841.601194140788
 20
538.528279366014
 30
0.0
 11
841.601194140788
 21
533.001999924385
 31
0.0
  0
LINE
  5
7BA0
330
1A
100
AcDbEntity
  8
外形線
100
AcDbLine
 10
804.601194140788
 20
539.064177750877
 30
0.0
 11
812.901194140788
 21
539.064177750877
 31
0.0
  0
LINE
  5
7BA1
330
1A
100
AcDbEntity
  8
外形線
100
AcDbLine
 10
804.601194140788
 20
539.064177750877
 30
0.0
 11
802.601194140788
 21
538.528279366014
 31
0.0
  0
LINE
  5
7BA2
330
1A
100
AcDbEntity
  8
外形線
 62
     0
100
AcDbLine
 10
802.601194140788
 20
538.528279366014
 30
0.0
 11
802.601194140788
 21
533.001999924385
 31
0.0
  0
LINE
  5
7BA3
330
1A
100
AcDbEntity
  8
外形線
 62
     0
100
AcDbLine
 10
806.101194140788
 20
532.064177750877
 30
0.0
 11
806.101194140788
 21
523.064177750877
 31
0.0
  0
LINE
  5
7BA4
330
1A
100
AcDbEntity
  8
外形線
100
AcDbLine
 10
809.001194140788
 20
473.064177750876
 30
0.0
 11
809.001194140788
 21
461.930203154661
 31
0.0
  0
LINE
  5
7BA5
330
1A
100
AcDbEntity
  8
外形線
100
AcDbLine
 10
834.701194140788
 20
461.064177750876
 30
0.0
 11
835.201194140788
 21
461.930203154661
 31
0.0
  0
LINE
  5
7BA6
330
1A
100
AcDbEntity
  8
外形線
100
AcDbLine
 10
809.501194140788
 20
461.064177750876
 30
0.0
 11
809.001194140788
 21
461.930203154661
 31
0.0
  0
LINE
  5
7BA7
330
1A
100
AcDbEntity
  8
外形線
100
AcDbLine
 10
809.501194140788
 20
461.064177750876
 30
0.0
 11
834.701194140788
 21
461.064177750876
 31
0.0
  0
LINE
  5
7BA8
330
1A
100
AcDbEntity
  8
外形線
100
AcDbLine
 10
804.851194140788
 20
475.064177750876
 30
0.0
 11
804.851194140788
 21
495.064177750876
 31
0.0
  0
LINE
  5
7BA9
330
1A
100
AcDbEntity
  8
外形線
100
AcDbLine
 10
839.351194140788
 20
475.064177750876
 30
0.0
 11
839.351194140788
 21
495.064177750876
 31
0.0
  0
ARC
  5
7BAA
330
1A
100
AcDbEntity
  8
外形線
100
AcDbCircle
 10
837.351194140788
 20
475.064177750876
 30
0.0
 40
2.0
100
AcDbArc
 50
270.0
 51
0.0
  0
ARC
  5
7BAB
330
1A
100
AcDbEntity
  8
外形線
100
AcDbCircle
 10
806.851194140788
 20
475.064177750876
 30
0.0
 40
2.0
100
AcDbArc
 50
180.0
 51
270.0
  0
LINE
  5
7BAC
330
1A
100
AcDbEntity
  8
外形線
100
AcDbLine
 10
839.601194140788
 20
495.064177750876
 30
0.0
 11
841.601194140788
 21
496.218878289255
 31
0.0
  0
LINE
  5
7BAD
330
1A
100
AcDbEntity
  8
外形線
 62
     0
100
AcDbLine
 10
839.601194140788
 20
523.064177750877
 30
0.0
 11
841.601194140788
 21
521.909477212497
 31
0.0
  0
LINE
  5
7BAE
330
1A
100
AcDbEntity
  8
外形線
 62
     0
100
AcDbLine
 10
804.601194140788
 20
523.064177750877
 30
0.0
 11
802.601194140788
 21
521.909477212497
 31
0.0
  0
LINE
  5
7BAF
330
1A
100
AcDbEntity
  8
外形線
100
AcDbLine
 10
804.601194140788
 20
495.064177750876
 30
0.0
 11
802.601194140788
 21
496.218878289255
 31
0.0
  0
LINE
  5
7BB0
330
1A
100
AcDbEntity
  8
外形線
100
AcDbLine
 10
804.601194140788
 20
495.064177750876
 30
0.0
 11
839.601194140788
 21
495.064177750876
 31
0.0
  0
LINE
  5
7BB1
330
1A
100
AcDbEntity
  8
外形線
100
AcDbLine
 10
841.601194140788
 20
521.909477212497
 30
0.0
 11
841.601194140788
 21
496.218878289255
 31
0.0
  0
LINE
  5
7BB2
330
1A
100
AcDbEntity
  8
外形線
100
AcDbLine
 10
802.601194140788
 20
521.909477212497
 30
0.0
 11
802.601194140788
 21
496.218878289255
 31
0.0
  0
LINE
  5
7BB3
330
1A
100
AcDbEntity
  8
外形線
 62
     0
100
AcDbLine
 10
839.601194140788
 20
523.064177750877
 30
0.0
 11
838.101194140788
 21
523.064177750877
 31
0.0
  0
LINE
  5
7BB4
330
1A
100
AcDbEntity
  8
外形線
 62
     0
100
AcDbLine
 10
806.101194140788
 20
523.064177750877
 30
0.0
 11
804.601194140788
 21
523.064177750877
 31
0.0
  0
LINE
  5
7BB5
330
1A
100
AcDbEntity
  8
外形線
100
AcDbLine
 10
837.351194140788
 20
473.064177750876
 30
0.0
 11
835.201194140788
 21
473.064177750876
 31
0.0
  0
LINE
  5
7BB6
330
1A
100
AcDbEntity
  8
外形線
100
AcDbLine
 10
838.101194140788
 20
532.064177750877
 30
0.0
 11
841.601194140788
 21
533.001999924385
 31
0.0
  0
LINE
  5
7BB7
330
1A
100
AcDbEntity
  8
外形線
 62
     0
100
AcDbLine
 10
806.101194140788
 20
532.064177750877
 30
0.0
 11
802.601194140788
 21
533.001999924385
 31
0.0
  0
ARC
  5
7BB8
330
1A
100
AcDbEntity
  8
外形線
100
AcDbCircle
 10
832.301194140788
 20
540.264177750876
 30
0.0
 40
1.2
100
AcDbArc
 50
270.0
 51
14.902994654036
  0
ARC
  5
7BB9
330
1A
100
AcDbEntity
  8
外形線
100
AcDbCircle
 10
811.901194140788
 20
540.264177750876
 30
0.0
 40
1.2
100
AcDbArc
 50
165.097005345964
 51
270.0
  0
HATCH
  5
7BBA
330
1A
100
AcDbEntity
  8
細線
 48
10.0
100
AcDbHatch
 10
0.0
 20
0.0
 30
0.0
210
0.0
220
0.0
230
1.0
  2
ANSI31
 70
     0
 71
     0
 91
       18
 92
        7
 72
     1
 73
     1
 93
        7
 10
832.7186223944188
 20
539.1391205731868
 42
-0.0890553773191663
 10
832.3011941407879
 20
539.0641777508765
 42
0.0
 10
831.3011941407879
 20
539.0641777508765
 42
0.0
 10
830.0607257907511
 20
539.0641777508765
 42
0.0
 10
830.0607257907516
 20
532.0641777508765
 42
0.0
 10
832.7464283158063
 20
532.0641777508765
 42
0.0
 10
832.7464283158063
 20
539.0641777508765
 42
0.0
 97
        0
 92
        7
 72
     0
 73
     1
 93
        7
 10
802.601194140788
 20
533.0019999243852
 10
806.101194140788
 20
532.0641777508765
 10
811.4559599657694
 20
532.0641777508765
 10
811.4559599657698
 20
539.0641777508765
 10
811.4837658871572
 20
539.0641777508765
 10
804.601194140788
 20
539.0641777508765
 10
802.601194140788
 20
538.5282793660142
 97
        0
 92
        7
 72
     0
 73
     1
 93
        7
 10
838.101194140788
 20
532.0641777508765
 10
841.601194140788
 20
533.0019999243852
 10
841.601194140788
 20
538.5282793660142
 10
839.601194140788
 20
539.0641777508765
 10
832.7186223944188
 20
539.0641777508765
 10
832.7464283158063
 20
539.0641777508765
 10
832.7464283158063
 20
532.0641777508765
 97
        0
 92
        7
 72
     1
 73
     1
 93
       11
 10
835.351194140788
 20
473.0641777508764
 42
0.0
 10
837.351194140788
 20
473.0641777508764
 42
0.414213562373095
 10
839.351194140788
 20
475.0641777508764
 42
0.0
 10
839.351194140788
 20
495.0641777508764
 42
0.0
 10
822.101194140788
 20
495.0641777508764
 42
0.0
 10
804.851194140788
 20
495.0641777508764
 42
0.0
 10
804.851194140788
 20
475.0641777508764
 42
0.414213562373095
 10
806.851194140788
 20
473.0641777508764
 42
0.0
 10
809.0011941407877
 20
473.0641777508764
 42
0.0
 10
822.101194140788
 20
473.0641777508764
 42
0.0
 10
835.201194140788
 20
473.0641777508764
 42
0.0
 97
        0
 92
        7
 72
     1
 73
     1
 93
       10
 10
806.101194140788
 20
523.0641777508765
 42
0.0
 10
804.601194140788
 20
523.0641777508765
 42
0.0
 10
802.601194140788
 20
521.909477212497
 42
0.0
 10
802.601194140788
 20
496.2188782892555
 42
0.0
 10
804.601194140788
 20
495.0641777508764
 42
0.0
 10
804.851194140788
 20
495.0641777508764
 42
0.0
 10
804.8511683052218
 20
495.0660852486964
 42
0.0797961404903644
 10
811.4559599657703
 20
496.2188782892559
 42
0.0
 10
811.4559599657694
 20
521.909477212497
 42
0.064967344209285
 10
806.0971551571631
 20
523.0086024930104
 42
0.0
 97
        0
 92
        7
 72
     1
 73
     1
 93
       10
 10
839.601194140788
 20
523.0641777508765
 42
0.0
 10
838.101194140788
 20
523.0641777508765
 42
0.0
 10
838.1052331244134
 20
523.0086024930104
 42
0.0649673442092901
 10
832.7464283158054
 20
521.909477212497
 42
0.0
 10
832.7464283158063
 20
496.2188782892555
 42
0.0797961404903702
 10
839.3512199763543
 20
495.0660852486964
 42
0.0
 10
839.351194140788
 20
495.0641777508764
 42
0.0
 10
839.601194140788
 20
495.0641777508764
 42
0.0
 10
841.601194140788
 20
496.2188782892555
 42
0.0
 10
841.601194140788
 20
521.909477212497
 42
0.0
 97
        0
 92
        7
 72
     0
 73
     1
 93
        5
 10
809.5011941407877
 20
461.0641777508764
 10
822.101194140788
 20
461.0641777508764
 10
822.101194140788
 20
473.0641777508764
 10
809.0011941407877
 20
473.0641777508764
 10
809.0011941407877
 20
461.9302031546609
 97
        0
 92
        7
 72
     0
 73
     1
 93
        5
 10
834.701194140788
 20
461.0641777508764
 10
835.201194140788
 20
461.9302031546609
 10
835.201194140788
 20
473.0641777508764
 10
822.101194140788
 20
473.0641777508764
 10
822.101194140788
 20
461.0641777508764
 97
        0
 92
        7
 72
     0
 73
     1
 93
        9
 10
806.101194140788
 20
532.0641777508765
 10
806.101194140788
 20
523.0641777508765
 10
822.101194140788
 20
523.0641777508765
 10
838.101194140788
 20
523.0641777508765
 10
838.101194140788
 20
532.0641777508765
 10
832.7464283158063
 20
532.0641777508765
 10
830.0607257907516
 20
532.0641777508765
 10
814.1416624908245
 20
532.0641777508765
 10
811.4559599657694
 20
532.0641777508765
 97
        0
 92
        7
 72
     1
 73
     1
 93
        5
 10
822.101194140788
 20
523.0641777508765
 42
0.0
 10
806.101194140788
 20
523.0641777508765
 42
0.0
 10
806.0971551571631
 20
523.0086024930104
 42
-0.064967344209285
 10
811.4559599657703
 20
521.909477212497
 42
0.0
 10
814.1416624908245
 20
521.909477212497
 42
-0.0721580311220423
 97
        0
 92
        7
 72
     1
 73
     1
 93
        6
 10
830.0607257907511
 20
496.2188782892555
 42
0.0
 10
830.0607257907511
 20
521.909477212497
 42
0.0721580311220383
 10
822.101194140788
 20
523.0641777508765
 42
0.0721580311220423
 10
814.1416624908222
 20
521.9094772124965
 42
0.0
 10
814.1416624908245
 20
496.2188782892555
 42
0.0721580311220422
 10
822.101194140788
 20
495.0641777508764
 42
0.0721580311220384
 97
        0
 92
        7
 72
     0
 73
     1
 93
        4
 10
830.0607257907511
 20
521.909477212497
 10
830.0607257907511
 20
496.2188782892555
 10
832.7464283158063
 20
496.2188782892555
 10
832.7464283158063
 20
521.909477212497
 97
        0
 92
        7
 72
     0
 73
     1
 93
        4
 10
814.1416624908245
 20
496.2188782892555
 10
814.1416624908245
 20
521.909477212497
 10
811.4559599657694
 20
521.909477212497
 10
811.4559599657694
 20
496.2188782892555
 97
        0
 92
        7
 72
     0
 73
     1
 93
        4
 10
830.0607257907516
 20
532.0641777508765
 10
830.0607257907511
 20
539.0641777508765
 10
814.1416624908245
 20
539.0641777508765
 10
814.1416624908245
 20
532.0641777508765
 97
        0
 92
        7
 72
     1
 73
     1
 93
        7
 10
814.1416624908245
 20
532.0641777508765
 42
0.0
 10
814.1416624908245
 20
539.0641777508765
 42
0.0
 10
812.9011941407878
 20
539.0641777508765
 42
0.0
 10
811.9011941407878
 20
539.0641777508765
 42
-0.0890553773190824
 10
811.4837658871572
 20
539.1391205731868
 42
0.0
 10
811.4559599657698
 20
539.0641777508765
 42
0.0
 10
811.4559599657694
 20
532.0641777508765
 42
0.0
 97
        0
 92
        7
 72
     1
 73
     1
 93
        5
 10
814.1416624908245
 20
496.2188782892555
 42
0.0
 10
811.4559599657694
 20
496.2188782892555
 42
-0.0797961404903644
 10
804.8511683052218
 20
495.0660852486964
 42
0.0
 10
804.851194140788
 20
495.0641777508764
 42
0.0
 10
822.101194140788
 20
495.0641777508764
 42
-0.0721580311220422
 97
        0
 92
        7
 72
     1
 73
     1
 93
        5
 10
839.3512199763543
 20
495.0660852486964
 42
-0.0797961404903702
 10
832.7464283158054
 20
496.2188782892559
 42
0.0
 10
830.0607257907511
 20
496.2188782892555
 42
-0.0721580311220384
 10
822.101194140788
 20
495.0641777508764
 42
0.0
 10
839.351194140788
 20
495.0641777508764
 42
0.0
 97
        0
 92
        7
 72
     1
 73
     1
 93
        5
 10
822.101194140788
 20
523.0641777508765
 42
-0.0721580311220383
 10
830.0607257907534
 20
521.9094772124965
 42
0.0
 10
832.7464283158063
 20
521.909477212497
 42
-0.0649673442092901
 10
838.1052331244134
 20
523.0086024930104
 42
0.0
 10
838.101194140788
 20
523.0641777508765
 42
0.0
 97
        0
 75
     0
 76
     1
 52
0.0
 41
1.25
 77
     0
 78
     1
 53
45.0
 43
123.1018008556091
 44
0.0
 45
-2.80633003783411
 46
2.806330037834111
 79
     0
 47
0.0
 98
       18
 10
831.0798541216275
 20
536.1566158032781
 10
806.9862614602491
 20
535.3758049299929
 10
834.6492752566462
 20
535.3758049299929
 10
815.32171476599
 20
483.8254249880539
 10
808.2763103567147
 20
509.1888808614465
 10
837.1624684347446
 20
511.6547724046929
 10
818.4921467501642
 20
468.3255352876473
 10
827.2989022617587
 20
467.2687246262559
 10
816.1304491417052
 20
525.5987142635338
 10
813.528787311918
 20
522.8057537697921
 10
820.6057680729471
 20
502.4957466726344
 10
831.1738746868607
 20
510.5979617433015
 10
812.5035530022799
 20
509.5411510819101
 10
826.5065332923843
 20
535.2642605195235
 10
812.786570804655
 20
535.3758049299929
 10
814.172192362006
 20
495.3892797983855
 10
830.1903389834367
 20
495.2817754586446
 10
830.5161086711153
 20
522.5379356402552
1001
ACAD
1010
0.0
1020
0.0
1030
0.0
  0
ARC
  5
7BBB
330
1A
100
AcDbEntity
  8
外形線
 48
10.0
100
AcDbCircle
 10
822.101194140788
 20
468.635606322304
 30
0.0
 40
72.82857142857176
100
AcDbArc
 50
74.060779211365
 51
105.939220788635
  0
LINE
  5
7BBC
330
1A
100
AcDbEntity
  8
外形線
 48
10.0
100
AcDbLine
 10
778.101194140788
 20
668.663256010236
 30
0.0
 11
778.101194140788
 21
554.685812481062
 31
0.0
  0
LINE
  5
7BBD
330
1A
100
AcDbEntity
  8
外形線
 48
10.0
100
AcDbLine
 10
838.101194140788
 20
673.674534245649
 30
0.0
 11
838.101194140788
 21
549.674534245649
 31
0.0
  0
LINE
  5
7BBE
330
1A
100
AcDbEntity
  8
外形線
 48
10.0
100
AcDbLine
 10
850.101194140788
 20
661.674534245649
 30
0.0
 11
850.101194140788
 21
561.674534245649
 31
0.0
  0
LWPOLYLINE
  5
7BBF
330
1A
100
AcDbEntity
  8
外形線
100
AcDbPolyline
 90
       10
 70
     0
 43
0.0
 10
850.101194140788
 20
561.674534245649
 10
850.101194140788
 20
539.174534245649
 10
850.601194140788
 20
538.674534245649
 10
865.101194140788
 20
538.674534245649
 10
866.101194140788
 20
539.674534245649
 10
866.101194140788
 20
683.674534245649
 10
865.101194140788
 20
684.674534245649
 10
850.601194140788
 20
684.674534245649
 10
850.101194140788
 20
684.174534245649
 10
850.101194140788
 20
661.674534245649
  0
LINE
  5
7BC0
330
1A
100
AcDbEntity
  8
外形線
 48
10.0
100
AcDbLine
 10
794.101194140788
 20
657.174534245649
 30
0.0
 11
794.101194140788
 21
566.174534245649
 31
0.0
  0
LINE
  5
7BC1
330
1A
100
AcDbEntity
  8
外形線
100
AcDbLine
 10
849.601194140788
 20
538.674534245649
 30
0.0
 11
850.101194140788
 21
539.174534245649
 31
0.0
  0
LINE
  5
7BC2
330
1A
100
AcDbEntity
  8
外形線
100
AcDbLine
 10
850.101194140788
 20
539.174534245649
 30
0.0
 11
850.101194140788
 21
684.174534245649
 31
0.0
  0
LINE
  5
7BC3
330
1A
100
AcDbEntity
  8
外形線
100
AcDbLine
 10
850.101194140788
 20
684.174534245649
 30
0.0
 11
849.601194140788
 21
684.674534245649
 31
0.0
  0
LINE
  5
7BC4
330
1A
100
AcDbEntity
  8
外形線
100
AcDbLine
 10
849.601194140788
 20
684.674534245649
 30
0.0
 11
839.101194140788
 21
684.674534245649
 31
0.0
  0
LINE
  5
7BC5
330
1A
100
AcDbEntity
  8
外形線
100
AcDbLine
 10
839.101194140788
 20
684.674534245649
 30
0.0
 11
838.101194140788
 21
683.674534245649
 31
0.0
  0
LINE
  5
7BC6
330
1A
100
AcDbEntity
  8
外形線
100
AcDbLine
 10
838.101194140788
 20
683.674534245649
 30
0.0
 11
838.101194140788
 21
673.674534245649
 31
0.0
  0
ARC
  5
7BC7
330
1A
100
AcDbEntity
  8
外形線
100
AcDbCircle
 10
836.101194140788
 20
673.674534245649
 30
0.0
 40
2.0
100
AcDbArc
 50
270.0
 51
0.0
  0
ARC
  5
7BC8
330
1A
100
AcDbEntity
  8
外形線
100
AcDbCircle
 10
836.101194140788
 20
549.674534245649
 30
0.0
 40
2.0
100
AcDbArc
 50
0.0
 51
90.0
  0
LINE
  5
7BC9
330
1A
100
AcDbEntity
  8
外形線
100
AcDbLine
 10
838.101194140788
 20
539.674534245649
 30
0.0
 11
838.101194140788
 21
549.674534245649
 31
0.0
  0
LINE
  5
7BCA
330
1A
100
AcDbEntity
  8
外形線
100
AcDbLine
 10
802.137492287797
 20
538.674534245649
 30
0.0
 11
794.601194140788
 21
538.674534245649
 31
0.0
  0
LINE
  5
7BCB
330
1A
100
AcDbEntity
  8
外形線
100
AcDbLine
 10
794.601194140788
 20
538.674534245649
 30
0.0
 11
794.101194140788
 21
539.174534245649
 31
0.0
  0
LINE
  5
7BCC
330
1A
100
AcDbEntity
  8
外形線
100
AcDbLine
 10
794.101194140788
 20
539.174534245649
 30
0.0
 11
794.101194140788
 21
566.174534245649
 31
0.0
  0
LINE
  5
7BCD
330
1A
100
AcDbEntity
  8
外形線
100
AcDbLine
 10
794.101194140788
 20
684.174534245649
 30
0.0
 11
794.601194140788
 21
684.674534245649
 31
0.0
  0
LINE
  5
7BCE
330
1A
100
AcDbEntity
  8
外形線
100
AcDbLine
 10
794.601194140788
 20
684.674534245649
 30
0.0
 11
805.101194140788
 21
684.674534245649
 31
0.0
  0
LINE
  5
7BCF
330
1A
100
AcDbEntity
  8
外形線
100
AcDbLine
 10
805.101194140788
 20
684.674534245649
 30
0.0
 11
806.101194140788
 21
683.674534245649
 31
0.0
  0
LINE
  5
7BD0
330
1A
100
AcDbEntity
  8
外形線
100
AcDbLine
 10
806.101194140788
 20
683.674534245649
 30
0.0
 11
806.101194140788
 21
539.67453424565
 31
0.0
  0
ARC
  5
7BD1
330
1A
100
AcDbEntity
  8
外形線
100
AcDbCircle
 10
808.101194140788
 20
673.674534245649
 30
0.0
 40
2.0
100
AcDbArc
 50
180.0
 51
270.0
  0
LINE
  5
7BD2
330
1A
100
AcDbEntity
  8
外形線
100
AcDbLine
 10
808.101194140788
 20
671.674534245649
 30
0.0
 11
836.101194140788
 21
671.674534245649
 31
0.0
  0
ARC
  5
7BD3
330
1A
100
AcDbEntity
  8
外形線
100
AcDbCircle
 10
808.101194140788
 20
549.674534245649
 30
0.0
 40
2.0
100
AcDbArc
 50
90.0
 51
180.0
  0
LINE
  5
7BD4
330
1A
100
AcDbEntity
  8
外形線
100
AcDbLine
 10
808.101194140788
 20
551.674534245649
 30
0.0
 11
836.101194140788
 21
551.674534245649
 31
0.0
  0
LINE
  5
7BD5
330
1A
100
AcDbEntity
  8
外形線
100
AcDbLine
 10
794.101194140788
 20
657.174534245649
 30
0.0
 11
794.101194140788
 21
684.174534245649
 31
0.0
  0
ELLIPSE
  5
7BD7
330
1A
100
AcDbEntity
  8
外形線
 48
10.0
100
AcDbEllipse
 10
663.362618905505
 20
593.674534245649
 30
0.0
 11
5.684341886080801E-14
 21
1.000000000000028
 31
0.0
210
0.0
220
0.0
230
1.0
 40
0.75
 41
0.0
 42
6.283185307179586
  0
ELLIPSE
  5
7BD8
330
1A
100
AcDbEntity
  8
外形線
 48
10.0
100
AcDbEllipse
 10
663.369986190596
 20
629.674534245649
 30
0.0
 11
5.684341886080801E-14
 21
1.000000000000028
 31
0.0
210
0.0
220
0.0
230
1.0
 40
0.75
 41
0.0
 42
6.283185307179586
  0
ARC
  5
7BD9
330
1A
100
AcDbEntity
  8
細線
100
AcDbCircle
 10
651.798315867795
 20
611.674534245649
 30
0.0
 40
12.69712172700661
100
AcDbArc
 50
180.0
 51
200.215333896393
  0
LINE
  5
7BDA
330
1A
100
AcDbEntity
  8
細線
100
AcDbLine
 10
639.883329499761
 20
597.413792670593
 30
0.0
 11
639.883329499761
 21
607.287052051953
 31
0.0
  0
LINE
  5
7BDB
330
1A
100
AcDbEntity
  8
細線
100
AcDbLine
 10
662.601194140788
 20
597.413792670593
 30
0.0
 11
639.883329499761
 21
597.413792670593
 31
0.0
  0
LINE
  5
7BDC
330
1A
100
AcDbEntity
  8
細線
100
AcDbLine
 10
662.601194140788
 20
607.287052051953
 30
0.0
 11
639.883329499761
 21
607.287052051953
 31
0.0
  0
ARC
  5
7BDD
330
1A
100
AcDbEntity
  8
細線
100
AcDbCircle
 10
693.999407661569
 20
584.142981396246
 30
0.0
 40
55.71951496104566
100
AcDbArc
 50
166.221342641834
 51
170.150364435503
  0
ARC
  5
7BDE
330
1A
100
AcDbEntity
  8
細線
100
AcDbCircle
 10
651.798315867795
 20
611.674534245649
 30
0.0
 40
12.69712172700661
100
AcDbArc
 50
159.784666103607
 51
180.0
  0
LINE
  5
7BDF
330
1A
100
AcDbEntity
  8
細線
100
AcDbLine
 10
639.883329499761
 20
625.935275820706
 30
0.0
 11
639.883329499761
 21
616.062016439346
 31
0.0
  0
LINE
  5
7BE0
330
1A
100
AcDbEntity
  8
細線
100
AcDbLine
 10
662.601194140788
 20
625.935275820706
 30
0.0
 11
639.883329499761
 21
625.935275820706
 31
0.0
  0
LINE
  5
7BE1
330
1A
100
AcDbEntity
  8
細線
100
AcDbLine
 10
662.601194140788
 20
616.062016439345
 30
0.0
 11
639.883329499761
 21
616.062016439345
 31
0.0
  0
LINE
  5
7BE2
330
1A
100
AcDbEntity
  8
外形線
100
AcDbLine
 10
639.101194140788
 20
629.674534245649
 30
0.0
 11
639.967219544573
 21
631.174534245649
 31
0.0
  0
LINE
  5
7BE3
330
1A
100
AcDbEntity
  8
外形線
100
AcDbLine
 10
639.101194140788
 20
593.674534245649
 30
0.0
 11
639.967219544573
 21
592.174534245649
 31
0.0
  0
LINE
  5
7BE4
330
1A
100
AcDbEntity
  8
外形線
100
AcDbLine
 10
639.101194140788
 20
593.674534245649
 30
0.0
 11
639.101194140788
 21
629.674534245649
 31
0.0
  0
ARC
  5
7BE5
330
1A
100
AcDbEntity
  8
細線
100
AcDbCircle
 10
693.999407661569
 20
639.206087095052
 30
0.0
 40
55.71951496104566
100
AcDbArc
 50
189.849635564497
 51
193.778657358166
  0
LINE
  5
7BE6
330
1A
100
AcDbEntity
  8
外形線
100
AcDbLine
 10
662.601194140788
 20
631.174534245649
 30
0.0
 11
662.601194140788
 21
592.174534245649
 31
0.0
  0
LINE
  5
7BE7
330
1A
100
AcDbEntity
  8
外形線
100
AcDbLine
 10
639.967219544573
 20
631.174534245649
 30
0.0
 11
662.601194140788
 21
631.174534245649
 31
0.0
  0
LINE
  5
7BE8
330
1A
100
AcDbEntity
  8
外形線
100
AcDbLine
 10
662.601194140788
 20
592.174534245649
 30
0.0
 11
639.967219544573
 21
592.174534245649
 31
0.0
  0
LINE
  5
7BE9
330
1A
100
AcDbEntity
  8
外形線
100
AcDbLine
 10
778.101194140788
 20
683.674534245649
 30
0.0
 11
778.101194140788
 21
668.663256010236
 31
0.0
  0
LINE
  5
7BEA
330
1A
100
AcDbEntity
  8
外形線
100
AcDbLine
 10
779.101194140788
 20
684.674534245649
 30
0.0
 11
778.101194140788
 21
683.674534245649
 31
0.0
  0
LINE
  5
7BEB
330
1A
100
AcDbEntity
  8
外形線
100
AcDbLine
 10
793.601194140788
 20
684.674534245649
 30
0.0
 11
779.101194140788
 21
684.674534245649
 31
0.0
  0
LINE
  5
7BEC
330
1A
100
AcDbEntity
  8
外形線
100
AcDbLine
 10
794.101194140788
 20
684.174534245649
 30
0.0
 11
793.601194140788
 21
684.674534245649
 31
0.0
  0
LINE
  5
7BED
330
1A
100
AcDbEntity
  8
外形線
100
AcDbLine
 10
794.101194140788
 20
539.174534245649
 30
0.0
 11
794.101194140788
 21
684.174534245649
 31
0.0
  0
LINE
  5
7BEE
330
1A
100
AcDbEntity
  8
外形線
100
AcDbLine
 10
793.601194140788
 20
538.674534245649
 30
0.0
 11
794.101194140788
 21
539.174534245649
 31
0.0
  0
LINE
  5
7BEF
330
1A
100
AcDbEntity
  8
外形線
100
AcDbLine
 10
779.101194140788
 20
538.674534245649
 30
0.0
 11
793.601194140788
 21
538.674534245649
 31
0.0
  0
LINE
  5
7BF0
330
1A
100
AcDbEntity
  8
外形線
100
AcDbLine
 10
778.101194140788
 20
539.674534245649
 30
0.0
 11
779.101194140788
 21
538.674534245649
 31
0.0
  0
LINE
  5
7BF1
330
1A
100
AcDbEntity
  8
外形線
100
AcDbLine
 10
778.101194140788
 20
554.685812481062
 30
0.0
 11
778.101194140788
 21
539.674534245649
 31
0.0
  0
LINE
  5
7BF2
330
1A
100
AcDbEntity
  8
細線
100
AcDbLine
 10
662.601194140788
 20
596.17453424565
 30
0.0
 11
663.101194140788
 21
596.17453424565
 31
0.0
  0
LINE
  5
7BF3
330
1A
100
AcDbEntity
  8
細線
100
AcDbLine
 10
663.101194140788
 20
594.67453424565
 30
0.0
 11
663.101194140788
 21
596.17453424565
 31
0.0
  0
LINE
  5
7BF4
330
1A
100
AcDbEntity
  8
細線
100
AcDbLine
 10
662.601194140788
 20
627.174534245649
 30
0.0
 11
663.101194140788
 21
627.174534245649
 31
0.0
  0
LINE
  5
7BF5
330
1A
100
AcDbEntity
  8
細線
100
AcDbLine
 10
663.101194140788
 20
628.674534245649
 30
0.0
 11
663.101194140788
 21
627.174534245649
 31
0.0
  0
LINE
  5
7BF7
330
1A
100
AcDbEntity
  8
外形線
100
AcDbLine
 10
662.601194140788
 20
594.674534245649
 30
0.0
 11
664.130074180934
 21
594.674534245649
 31
0.0
  0
LINE
  5
7BF8
330
1A
100
AcDbEntity
  8
外形線
100
AcDbLine
 10
662.601194140788
 20
628.674534245649
 30
0.0
 11
664.130074180934
 21
628.674534245649
 31
0.0
  0
ARC
  5
7BFA
330
1A
100
AcDbEntity
  8
外形線
100
AcDbCircle
 10
696.601194140788
 20
579.17453424565
 30
0.0
 40
2.5
100
AcDbArc
 50
180.0
 51
270.0
  0
ARC
  5
7BFB
330
1A
100
AcDbEntity
  8
外形線
100
AcDbCircle
 10
696.601194140788
 20
644.174534245649
 30
0.0
 40
2.5
100
AcDbArc
 50
90.0
 51
180.0
  0
ARC
  5
7BFC
330
1A
100
AcDbEntity
  8
外形線
100
AcDbCircle
 10
696.664722837971
 20
574.174534245649
 30
0.0
 40
2.5
100
AcDbArc
 50
4.883543378274
 51
90.0
  0
ARC
  5
7BFD
330
1A
100
AcDbEntity
  8
外形線
100
AcDbCircle
 10
696.664722837971
 20
649.174534245649
 30
0.0
 40
2.5
100
AcDbArc
 50
270.0
 51
355.116456621726
  0
LINE
  5
7BFE
330
1A
100
AcDbEntity
  8
外形線
100
AcDbLine
 10
696.664722837971
 20
576.674534245649
 30
0.0
 11
696.601194140788
 21
576.67453424565
 31
0.0
  0
LINE
  5
7BFF
330
1A
100
AcDbEntity
  8
外形線
100
AcDbLine
 10
696.601194140788
 20
646.674534245649
 30
0.0
 11
696.664722837971
 21
646.674534245649
 31
0.0
  0
ARC
  5
7C00
330
1A
100
AcDbEntity
  8
外形線
100
AcDbCircle
 10
714.101194140788
 20
575.664322319852
 30
0.0
 40
15.0
100
AcDbArc
 50
184.883543378274
 51
267.885681217768
  0
ARC
  5
7C01
330
1A
100
AcDbEntity
  8
外形線
100
AcDbCircle
 10
714.101194140788
 20
647.684746171446
 30
0.0
 40
15.0
100
AcDbArc
 50
92.114318782232
 51
175.116456621726
  0
LINE
  5
7C02
330
1A
100
AcDbEntity
  8
外形線
100
AcDbLine
 10
713.547792396588
 20
560.674534245649
 30
0.0
 11
775.361082989883
 21
557.674534245649
 31
0.0
  0
LINE
  5
7C03
330
1A
100
AcDbEntity
  8
外形線
100
AcDbLine
 10
713.547792396588
 20
662.674534245649
 30
0.0
 11
775.361082989883
 21
665.674534245649
 31
0.0
  0
ARC
  5
7C04
330
1A
100
AcDbEntity
  8
外形線
100
AcDbCircle
 10
775.101194140788
 20
554.685812481062
 30
0.0
 40
2.999999999999992
100
AcDbArc
 50
0.0
 51
85.030259271885
  0
HATCH
  5
7C05
330
1A
100
AcDbEntity
  8
細線
 48
10.0
100
AcDbHatch
 10
0.0
 20
0.0
 30
0.0
210
0.0
220
0.0
230
1.0
  2
ANSI31
 70
     0
 71
     0
 91
        4
 92
        7
 72
     0
 73
     1
 93
        4
 10
662.6011941407885
 20
594.674534245649
 10
663.1011941407885
 20
594.674534245649
 10
663.1011941407885
 20
596.1745342456495
 10
662.6011941407885
 20
596.1745342456495
 97
        0
 92
        7
 72
     0
 73
     1
 93
        6
 10
662.6011941407885
 20
596.1745342456495
 10
663.1011941407885
 20
596.1745342456495
 10
663.1011941407885
 20
594.6745342456495
 10
664.1011941407885
 20
594.674534245649
 10
664.1011941407885
 20
611.6745342456493
 10
662.6011941407885
 20
611.6745342456493
 97
        0
 92
        7
 72
     0
 73
     1
 93
        4
 10
662.6011941407885
 20
627.174534245649
 10
663.1011941407885
 20
627.174534245649
 10
663.1011941407885
 20
628.674534245649
 10
662.6011941407885
 20
628.674534245649
 97
        0
 92
        7
 72
     0
 73
     1
 93
        6
 10
663.1011941407885
 20
627.174534245649
 10
662.6011941407885
 20
627.174534245649
 10
662.6011941407885
 20
611.6745342456493
 10
664.1011941407885
 20
611.6745342456493
 10
664.1011941407885
 20
628.674534245649
 10
663.1011941407885
 20
628.674534245649
 97
        0
 75
     0
 76
     1
 52
0.0
 41
1.0
 77
     0
 78
     1
 53
45.0
 43
-308.4960961381014
 44
117.4852868404897
 45
-2.245064030267288
 46
2.245064030267288
 79
     0
 47
0.0
 98
        4
 10
662.757558636669
 20
627.702536029939
 10
662.8296401031705
 20
595.4821205037852
 10
663.8387806341909
 20
627.0538028314259
 10
663.1900474356778
 20
610.1867396700836
1001
ACAD
1010
0.0
1020
0.0
1030
0.0
  0
HATCH
  5
7C06
330
1A
100
AcDbEntity
  8
細線
 48
10.0
100
AcDbHatch
 10
0.0
 20
0.0
 30
0.0
210
0.0
220
0.0
230
1.0
  2
ANSI31
 70
     0
 71
     0
 91
        8
 92
        7
 72
     1
 73
     1
 93
        5
 10
639.8833294997612
 20
597.4137926705923
 42
0.0171452713841633
 10
639.1011941407879
 20
593.6745342456481
 42
0.0
 10
639.9672195445726
 20
592.174534245649
 42
0.0
 10
662.6011941407885
 20
592.174534245649
 42
0.0
 10
662.6011941407885
 20
597.4137926705928
 42
0.0
 97
        0
 92
        7
 72
     1
 73
     1
 93
        4
 10
639.1011941407879
 20
593.6745342456481
 42
-0.0171452713841633
 10
639.8833294997612
 20
597.4137926705923
 42
0.0
 10
639.8833294997614
 20
607.287052051953
 42
-0.088435504736872
 10
639.1011941407885
 20
611.674534245649
 42
0.0
 97
        0
 92
        7
 72
     0
 73
     1
 93
        4
 10
639.8833294997614
 20
597.4137926705928
 10
662.6011941407885
 20
597.4137926705928
 10
662.6011941407885
 20
607.287052051953
 10
639.8833294997614
 20
607.287052051953
 97
        0
 92
        7
 72
     1
 73
     1
 93
        4
 10
639.8833294997618
 20
616.0620164393458
 42
0.088435504736872
 10
639.1011941407885
 20
611.674534245649
 42
0.0
 10
662.6011941407885
 20
611.6745342456493
 42
0.0
 10
662.6011941407885
 20
616.0620164393451
 42
0.0
 97
        0
 92
        7
 72
     1
 73
     1
 93
        4
 10
639.1011941407885
 20
611.674534245649
 42
-0.088435504736872
 10
639.8833294997618
 20
616.0620164393458
 42
0.0
 10
639.8833294997614
 20
625.9352758207058
 42
-0.0171452713841626
 10
639.1011941407879
 20
629.6745342456504
 42
0.0
 97
        0
 92
        7
 72
     1
 73
     1
 93
        5
 10
662.6011941407885
 20
631.174534245649
 42
0.0
 10
639.9672195445726
 20
631.174534245649
 42
0.0
 10
639.1011941407885
 20
629.674534245649
 42
0.0171452713841626
 10
639.8833294997611
 20
625.9352758207062
 42
0.0
 10
662.6011941407885
 20
625.9352758207058
 42
0.0
 97
        0
 92
        7
 72
     1
 73
     1
 93
        4
 10
639.8833294997614
 20
607.287052051953
 42
0.0
 10
662.6011941407885
 20
607.287052051953
 42
0.0
 10
662.6011941407885
 20
611.6745342456493
 42
0.0
 10
639.1011941407885
 20
611.6745342456493
 42
0.088435504736872
 97
        0
 92
        7
 72
     0
 73
     1
 93
        4
 10
662.6011941407885
 20
625.9352758207058
 10
639.8833294997614
 20
625.9352758207058
 10
639.8833294997614
 20
616.0620164393456
 10
662.6011941407885
 20
616.0620164393451
 97
        0
 75
     0
 76
     1
 52
0.0
 41
1.25
 77
     0
 78
     1
 53
45.0
 43
123.1018008556091
 44
0.0
 45
-2.80633003783411
 46
2.806330037834111
 79
     0
 47
0.0
 98
        8
 10
647.4762877383589
 20
594.4729799727647
 10
656.2175206832317
 20
628.7330991728036
 10
639.218750266298
 20
624.5738255601498
 10
639.547326423198
 20
603.6273262184504
 10
654.4995598432224
 20
614.2660605200942
 10
645.3672416936995
 20
623.5792166527758
 10
643.8722144132857
 20
603.6994076849519
 10
646.53922867384
 20
610.1146582035822
1001
ACAD
1010
0.0
1020
0.0
1030
0.0
  0
HATCH
  5
7C07
330
1A
100
AcDbEntity
  8
細線
 48
10.0
100
AcDbHatch
 10
0.0
 20
0.0
 30
0.0
210
0.0
220
0.0
230
1.0
  2
ANSI31
 70
     0
 71
     0
 91
        7
 92
        7
 72
     0
 73
     1
 93
        7
 10
850.1011941407885
 20
561.674534245649
 10
850.1011941407885
 20
539.174534245649
 10
850.6011941407885
 20
538.674534245649
 10
865.1011941407885
 20
538.674534245649
 10
866.1011941407885
 20
539.674534245649
 10
866.1011941407885
 20
611.6745342456493
 10
850.1011941407885
 20
611.6745342456493
 97
        0
 92
        7
 72
     1
 73
     1
 93
        9
 10
850.1011941407885
 20
539.174534245649
 42
0.0
 10
850.1011941407885
 20
561.674534245649
 42
0.0
 10
850.1011941407885
 20
611.6745342456493
 42
0.0
 10
838.1011941407885
 20
611.6745342456493
 42
0.0
 10
838.1011941407885
 20
549.674534245649
 42
0.0
 10
838.1011941407885
 20
539.674534245649
 42
0.0
 10
838.103414113441
 20
539.6843907754771
 42
-0.0140363087987104
 10
842.064895993779
 20
538.674534245649
 42
0.0
 10
849.6011941407885
 20
538.674534245649
 42
0.0
 97
        0
 92
        7
 72
     0
 73
     1
 93
        7
 10
866.1011941407885
 20
683.674534245649
 10
865.1011941407885
 20
684.674534245649
 10
850.6011941407885
 20
684.674534245649
 10
850.1011941407885
 20
684.174534245649
 10
850.1011941407885
 20
661.674534245649
 10
850.1011941407885
 20
611.6745342456493
 10
866.1011941407885
 20
611.6745342456493
 97
        0
 92
        7
 72
     0
 73
     1
 93
        8
 10
850.1011941407885
 20
661.674534245649
 10
850.1011941407885
 20
684.174534245649
 10
849.6011941407885
 20
684.674534245649
 10
839.1011941407885
 20
684.674534245649
 10
838.1011941407885
 20
683.674534245649
 10
838.1011941407885
 20
673.674534245649
 10
838.1011941407885
 20
611.6745342456493
 10
850.1011941407885
 20
611.6745342456493
 97
        0
 92
        7
 72
     1
 73
     1
 93
        6
 10
808.1011941407885
 20
551.674534245649
 42
0.0
 10
836.1011941407885
 20
551.674534245649
 42
-0.414213562373095
 10
838.1011941407885
 20
549.674534245649
 42
0.0
 10
838.1011941407885
 20
611.6745342456493
 42
0.0
 10
806.1011941407883
 20
611.6745342456493
 42
0.0
 10
806.1011941407885
 20
549.674534245649
 42
-0.414213562373095
 97
        0
 92
        7
 72
     1
 73
     1
 93
        8
 10
836.1011941407885
 20
551.674534245649
 42
0.0
 10
808.1011941407885
 20
551.674534245649
 42
0.414213562373095
 10
806.1011941407885
 20
549.674534245649
 42
0.0
 10
806.1011941407885
 20
539.6745342456495
 42
0.0
 10
806.1011941407885
 20
539.6848907404221
 42
-0.1112133461715754
 10
838.103414113441
 20
539.6843907754771
 42
0.0
 10
838.1011941407885
 20
539.674534245649
 42
0.0
 10
838.1011941407885
 20
549.674534245649
 42
0.414213562373095
 97
        0
 92
        7
 72
     1
 73
     1
 93
        6
 10
838.1011941407885
 20
673.674534245649
 42
-0.414213562373095
 10
836.1011941407885
 20
671.674534245649
 42
0.0
 10
808.1011941407885
 20
671.674534245649
 42
-0.414213562373095
 10
806.1011941407885
 20
673.674534245649
 42
0.0
 10
806.1011941407883
 20
611.6745342456493
 42
0.0
 10
838.1011941407885
 20
611.6745342456493
 42
0.0
 97
        0
 75
     0
 76
     1
 52
0.0
 41
1.25
 77
     0
 78
     1
 53
45.0
 43
123.1018008556091
 44
0.0
 45
-2.80633003783411
 46
2.806330037834111
 79
     0
 47
0.0
 98
        7
 10
825.6610071488847
 20
594.582797521449
 10
828.9130307777284
 20
547.1032525403293
 10
831.1894473179188
 20
627.1030338098874
 10
845.4983512848319
 20
603.3632613193274
 10
841.2707205673348
 20
630.6802598016156
 10
862.4088741548196
 20
594.9079998843335
 10
861.758469429051
 20
627.1030338098874
1001
ACAD
1010
0.0
1020
0.0
1030
0.0
  0
ARC
  5
7C08
330
1A
100
AcDbEntity
  8
外形線
100
AcDbCircle
 10
775.101194140788
 20
668.663256010236
 30
0.0
 40
2.999999999999992
100
AcDbArc
 50
274.969740728115
 51
0.0
  0
HATCH
  5
7C09
330
1A
100
AcDbEntity
  8
細線
 48
10.0
100
AcDbHatch
 10
0.0
 20
0.0
 30
0.0
210
0.0
220
0.0
230
1.0
  2
ANSI31
 70
     0
 71
     0
 91
        2
 92
        7
 72
     1
 73
     1
 93
       13
 10
713.547792396588
 20
560.674534245649
 42
0.0
 10
775.3610829898828
 20
557.674534245649
 42
-0.3890307372446858
 10
778.101194140788
 20
554.6858124810622
 42
0.0
 10
778.101194140788
 20
611.6745342456493
 42
0.0
 10
694.1012042937125
 20
611.6745342456493
 42
0.0
 10
694.1012042937125
 20
590.1745342456493
 42
0.0
 10
694.1012042937125
 20
589.7179289552935
 42
0.0
 10
694.1012042937125
 20
587.3745319773436
 42
0.0
 10
694.1011941407885
 20
587.3745319773436
 42
0.0
 10
694.1011941407885
 20
579.1745342456495
 42
0.414213562373095
 10
696.6011941407885
 20
576.6745342456495
 42
0.0
 10
696.6647228379713
 20
576.674534245649
 42
-0.3894638293893796
 10
699.1556473098024
 20
574.3873611133924
 42
0.3788767757664114
 97
        0
 92
        7
 72
     1
 73
     1
 93
       13
 10
778.101194140788
 20
611.6745342456493
 42
0.0
 10
778.101194140788
 20
668.6632560102364
 42
-0.389030737244686
 10
775.3610829898828
 20
665.6745342456495
 42
0.0
 10
713.547792396588
 20
662.674534245649
 42
0.3788767757664114
 10
699.1556473098024
 20
648.9617073779061
 42
-0.3894638293893795
 10
696.6647228379713
 20
646.674534245649
 42
0.0
 10
696.6011941407885
 20
646.674534245649
 42
0.414213562373095
 10
694.1011941407885
 20
644.174534245649
 42
0.0
 10
694.1012042937125
 20
644.174534245649
 42
0.0
 10
694.1012042937125
 20
635.9745394773433
 42
0.0
 10
694.1012042937125
 20
633.6311449993934
 42
0.0
 10
694.1012042937125
 20
633.174534245649
 42
0.0
 10
694.1012042937125
 20
611.6745342456493
 42
0.0
 97
        0
 75
     0
 76
     1
 52
0.0
 41
1.25
 77
     0
 78
     1
 53
45.0
 43
123.1018008556091
 44
0.0
 45
-2.80633003783411
 46
2.806330037834111
 79
     0
 47
0.0
 98
        2
 10
735.4265856406475
 20
593.4211206217158
 10
726.4050403612989
 20
637.1756152265559
1001
ACAD
1010
0.0
1020
0.0
1030
0.0
  0
HATCH
  5
7C0A
330
1A
100
AcDbEntity
  8
細線
 48
10.0
100
AcDbHatch
 10
0.0
 20
0.0
 30
0.0
210
0.0
220
0.0
230
1.0
  2
ANSI31
 70
     0
 71
     0
 91
        6
 92
        7
 72
     0
 73
     1
 93
        8
 10
778.101194140788
 20
668.6632560102364
 10
778.101194140788
 20
611.6745342456493
 10
794.1011941407883
 20
611.6745342456493
 10
794.101194140788
 20
657.174534245649
 10
794.1011941407885
 20
684.174534245649
 10
793.601194140788
 20
684.674534245649
 10
779.101194140788
 20
684.674534245649
 10
778.101194140788
 20
683.674534245649
 97
        0
 92
        7
 72
     0
 73
     1
 93
        5
 10
664.1011941407885
 20
633.174534245649
 10
664.1011941407885
 20
628.6745342456495
 10
664.1011941407885
 20
611.6745342456493
 10
694.1011941407885
 20
611.6745342456493
 10
694.1011941407885
 20
633.174534245649
 97
        0
 92
        7
 72
     0
 73
     1
 93
        7
 10
794.101194140788
 20
657.174534245649
 10
794.1011941407883
 20
611.6745342456493
 10
806.1011941407883
 20
611.6745342456493
 10
806.101194140788
 20
683.674534245649
 10
805.101194140788
 20
684.674534245649
 10
794.6011941407885
 20
684.674534245649
 10
794.1011941407885
 20
684.174534245649
 97
        0
 92
        7
 72
     0
 73
     1
 93
        8
 10
793.601194140788
 20
538.674534245649
 10
794.101194140788
 20
539.174534245649
 10
794.101194140788
 20
566.174534245649
 10
794.1011941407883
 20
611.6745342456493
 10
778.101194140788
 20
611.6745342456493
 10
778.101194140788
 20
554.6858124810622
 10
778.101194140788
 20
539.674534245649
 10
779.101194140788
 20
538.674534245649
 97
        0
 92
        7
 72
     0
 73
     1
 93
        5
 10
664.1011941407885
 20
590.1745342456493
 10
694.1011941407885
 20
590.1745342456493
 10
694.1011941407885
 20
611.6745342456493
 10
664.1011941407885
 20
611.6745342456493
 10
664.1011941407885
 20
594.674534245649
 97
        0
 92
        7
 72
     1
 73
     1
 93
        8
 10
794.101194140788
 20
539.174534245649
 42
0.0
 10
794.601194140788
 20
538.674534245649
 42
0.0
 10
802.1374922877969
 20
538.674534245649
 42
-0.0140441217489112
 10
806.1011941407885
 20
539.6848907404221
 42
0.0
 10
806.1011941407885
 20
539.6745342456495
 42
0.0
 10
806.1011941407883
 20
611.6745342456493
 42
0.0
 10
794.1011941407883
 20
611.6745342456493
 42
0.0
 10
794.1011941407885
 20
566.174534245649
 42
0.0
 97
        0
 75
     0
 76
     1
 52
0.0
 41
1.25
 77
     0
 78
     1
 53
45.0
 43
123.1018008556091
 44
0.0
 45
-2.80633003783411
 46
2.806330037834111
 79
     0
 47
0.0
 98
       10
 10
766.4741771039269
 20
623.2006054552749
 10
758.6693203947018
 20
595.2332022472178
 10
670.2142776901496
 20
602.7128565935589
 10
670.8646824159182
 20
621.574593640853
 10
787.6123306914117
 20
599.4608329647149
 10
801.2708299325557
 20
601.0868447791368
 10
788.2627354171807
 20
630.0298550758469
 10
799.3196157552495
 20
631.981069253153
 10
685.1735863828312
 20
624.8266172696967
 10
684.8483840199467
 20
604.0136660450962
1001
ACAD
1010
0.0
1020
0.0
1030
0.0
  0
LEADER
  5
7C0B
330
1A
100
AcDbEntity
  8
寸法線
 48
10.0
100
AcDbLeader
  3
ISO-25
 76
     2
 10
805.230402152784
 20
473.460128407574
 30
0.0
 10
723.7166730801
 20
374.743218663802
 30
0.0
1001
ACAD
1000
DSTYLE
1002
{
1070
     5
1000
OPEN30
1070
   147
1040
0.625
1070
    77
1070
     0
1070
    41
1040
6.0
1070
    47
1040
0.1
1070
    48
1040
0.1
1070
    73
1070
     0
1070
   140
1040
8.0
1070
   271
1070
     1
1070
   272
1070
     1
1070
   341
1005
2AF4
1070
   342
1005
2AF4
1002
}
  0
LINE
  5
7C0C
330
1A
100
AcDbEntity
  8
寸法線_文字
 48
10.0
100
AcDbLine
 10
723.7166730801
 20
374.743218663802
 30
0.0
 11
723.7166730801
 21
334.059395883639
 31
0.0
  0
MTEXT
  5
7C0D
330
1A
100
AcDbEntity
  8
寸法線
 48
10.0
100
AcDbMText
 10
764.376937691692
 20
358.377166865865
 30
0.0
 40
8.4
 41
178.158537710773
 71
     1
 72
     5
  1
SXC-16B-1\PSXC-16B-2
  0
MTEXT
  5
7C0E
330
1A
100
AcDbEntity
  8
寸法線
 48
10.0
100
AcDbMText
 10
726.598914980533
 20
372.373878321133
 30
0.0
 40
8.4
 41
39.04500251385
 71
     1
 72
     5
  1
御仕様
  0
LINE
  5
7C0F
330
1A
100
AcDbEntity
  8
寸法線
 48
10.0
100
AcDbLine
 10
758.286938408207
 20
374.743218663802
 30
0.0
 11
758.286938408207
 21
334.059395883639
 31
0.0
  0
LINE
  5
7C10
330
1A
100
AcDbEntity
  8
寸法線
 48
10.0
100
AcDbLine
 10
822.74809829859
 20
374.743218663802
 30
0.0
 11
822.74809829859
 21
334.059395883639
 31
0.0
  0
TEXT
  5
7C11
330
1A
100
AcDbEntity
  8
寸法線
 48
10.0
100
AcDbText
 10
760.358815422335
 20
363.964709020186
 30
0.0
 40
8.4
  1
ケーブルグランド型式
 41
0.600158661747
 72
     5
 11
819.84654197469
 21
363.964709020186
 31
0.0
100
AcDbText
  0
MTEXT
  5
7C12
330
1A
100
AcDbEntity
  8
寸法線
 48
10.0
100
AcDbMText
 10
852.26706410298
 20
348.210459512591
 30
0.0
 40
8.4
 41
103.552
 71
     5
 72
     5
  1
φ10～φ12\Pφ8～φ10
  0
TEXT
  5
7C13
330
1A
100
AcDbEntity
  8
寸法線
 48
10.0
100
AcDbText
 10
726.210052760194
 20
322.272668679947
 30
0.0
 40
8.4
  1
○印が今回の貴社の御仕様です。
100
AcDbText
  0
LINE
  5
7C14
330
1A
100
AcDbEntity
  8
寸法線
 48
10.0
100
AcDbLine
 10
884.530743572806
 20
374.743218663802
 30
0.0
 11
884.530743572806
 21
334.059395883639
 31
0.0
  0
LINE
  5
7C15
330
1A
100
AcDbEntity
  8
寸法線
 48
10.0
100
AcDbLine
 10
723.7166730801
 20
374.743218663802
 30
0.0
 11
884.530743572806
 21
374.743218663802
 31
0.0
  0
LINE
  5
7C16
330
1A
100
AcDbEntity
  8
寸法線
 48
10.0
100
AcDbLine
 10
723.7166730801
 20
361.554559444414
 30
0.0
 11
884.530743572806
 21
361.554559444414
 31
0.0
  0
LINE
  5
7C17
330
1A
100
AcDbEntity
  8
寸法線
 48
10.0
100
AcDbLine
 10
723.7166730801
 20
347.806977664026
 30
0.0
 11
884.530743572806
 21
347.806977664026
 31
0.0
  0
LINE
  5
7C18
330
1A
100
AcDbEntity
  8
寸法線
 48
10.0
100
AcDbLine
 10
723.7166730801
 20
334.059395883639
 30
0.0
 11
884.530743572806
 21
334.059395883639
 31
0.0
  0
TEXT
  5
7C19
330
1A
100
AcDbEntity
  8
寸法線
 48
10.0
100
AcDbText
 10
825.92591224948
 20
363.964709020186
 30
0.0
 40
8.4
  1
適合ケーブル範囲
 41
0.711985775428
 72
     5
 11
881.745597043055
 21
363.964709020186
 31
0.0
100
AcDbText
  0
TEXT
  5
8395
330
1A
100
AcDbEntity
  8
寸法線
100
AcDbText
 10
80.91407487242
 20
238.173597350707
 30
0.0
 40
10.0
  1
１００   ０
 41
0.593716175771
  7
EXCADSTD
 72
     5
 11
117.526572378292
 21
238.173597350707
 31
0.0
100
AcDbText
  0
CIRCLE
  5
8396
330
1A
100
AcDbEntity
  8
寸法線
100
AcDbCircle
 10
115.70812033304
 20
253.701164850707
 30
0.0
 40
3.75
  0
CIRCLE
  5
8397
330
1A
100
AcDbEntity
  8
寸法線
100
AcDbCircle
 10
115.70812033304
 20
253.701164850707
 30
0.0
 40
1.9999975
  0
CIRCLE
  5
8398
330
1A
100
AcDbEntity
  8
寸法線
100
AcDbCircle
 10
90.71811283304
 20
253.701164850707
 30
0.0
 40
3.75
  0
CIRCLE
  5
8399
330
1A
100
AcDbEntity
  8
寸法線
100
AcDbCircle
 10
90.71811283304
 20
253.701164850707
 30
0.0
 40
1.9999975
  0
CIRCLE
  5
839A
330
1A
100
AcDbEntity
  8
寸法線
100
AcDbCircle
 10
66.08508783304
 20
253.701164850707
 30
0.0
 40
3.75
  0
CIRCLE
  5
839B
330
1A
100
AcDbEntity
  8
寸法線
100
AcDbCircle
 10
66.08508783304
 20
253.701164850707
 30
0.0
 40
1.9999975
  0
CIRCLE
  5
839C
330
1A
100
AcDbEntity
  8
寸法線
100
AcDbCircle
 10
40.20259533304
 20
253.701164850707
 30
0.0
 40
3.75
  0
CIRCLE
  5
839D
330
1A
100
AcDbEntity
  8
寸法線
100
AcDbCircle
 10
40.20259533304
 20
253.701164850707
 30
0.0
 40
1.9999975
  0
CIRCLE
  5
839E
330
1A
100
AcDbEntity
  8
寸法線
100
AcDbCircle
 10
14.32010283304
 20
253.701164850707
 30
0.0
 40
3.75
  0
TEXT
  5
839F
330
1A
100
AcDbEntity
  8
寸法線
100
AcDbText
 10
84.35039283304
 20
305.505477350707
 30
0.0
 40
11.206896551724
  1
シ　ロ
  7
EXCADVERT
 72
     3
 11
84.35039283304
 21
273.005477350707
 31
0.0
100
AcDbText
  0
TEXT
  5
83A0
330
1A
100
AcDbEntity
  8
寸法線
100
AcDbText
 10
-32.90996716696
 20
224.991619850707
 30
0.0
 40
10.0
  1
接地端子
 41
0.869565217391
  7
EXCADSTD
 72
     5
 11
7.09003283304
 21
224.991619850707
 31
0.0
100
AcDbText
  0
TEXT
  5
83A1
330
1A
100
AcDbEntity
  8
寸法線
100
AcDbText
 10
-14.502546243247
 20
238.241894850707
 30
0.0
 40
10.0
  1
E
100
AcDbText
  0
CIRCLE
  5
83A2
330
1A
100
AcDbEntity
  8
寸法線
100
AcDbCircle
 10
-11.56238716696
 20
253.701164850707
 30
0.0
 40
1.9999975
  0
TEXT
  5
83A3
330
1A
100
AcDbEntity
  8
寸法線
100
AcDbText
 10
109.20902033304
 20
305.505477350707
 30
0.0
 40
10.955056179775
  1
ク　ロ
  7
EXCADVERT
 72
     3
 11
109.20902033304
 21
273.005477350707
 31
0.0
100
AcDbText
  0
TEXT
  5
83A4
330
1A
100
AcDbEntity
  8
寸法線
100
AcDbText
 10
8.09947783304
 20
305.505477350707
 30
0.0
 40
9.393939398455
  1
ミドリ
  7
EXCADVERT
 72
     3
 11
8.09947783304
 21
274.505477335806
 31
0.0
100
AcDbText
  0
TEXT
  5
83A5
330
1A
100
AcDbEntity
  8
寸法線
100
AcDbText
 10
60.03742033304
 20
305.505477350707
 30
0.0
 40
10.051546391753
  1
ア　カ
  7
EXCADVERT
 72
     3
 11
60.03742033304
 21
273.005477350707
 31
0.0
100
AcDbText
  0
CIRCLE
  5
83A6
330
1A
100
AcDbEntity
  8
寸法線
100
AcDbCircle
 10
115.71758033304
 20
340.852692350707
 30
0.0
 40
11.4722475
  0
LINE
  5
83A7
330
1A
100
AcDbEntity
  8
寸法線
100
AcDbLine
 10
90.71811283304
 20
333.957149850707
 30
0.0
 11
92.71808283304
 21
352.233117350707
 31
0.0
  0
LINE
  5
83A8
330
1A
100
AcDbEntity
  8
寸法線
100
AcDbLine
 10
40.20259533304
 20
333.957149850707
 30
0.0
 11
32.38513783304
 21
352.233117350707
 31
0.0
  0
CIRCLE
  5
83A9
330
1A
100
AcDbEntity
  8
寸法線
100
AcDbCircle
 10
90.71811283304
 20
352.233117350707
 30
0.0
 40
2.0000075
  0
LINE
  5
83AA
330
1A
100
AcDbEntity
  8
寸法線
100
AcDbLine
 10
90.71811283304
 20
378.866149850707
 30
0.0
 11
90.71811283304
 21
354.233124850707
 31
0.0
  0
CIRCLE
  5
83AB
330
1A
100
AcDbEntity
  8
寸法線
100
AcDbCircle
 10
50.02010033304
 20
352.233117350707
 30
0.0
 40
2.0000075
  0
LINE
  5
83AC
330
1A
100
AcDbEntity
  8
寸法線
100
AcDbLine
 10
50.02010033304
 20
378.866149850707
 30
0.0
 11
50.02010033304
 21
354.233124850707
 31
0.0
  0
CIRCLE
  5
83AD
330
1A
100
AcDbEntity
  8
寸法線
100
AcDbCircle
 10
30.38509033304
 20
352.233117350707
 30
0.0
 40
2.0000075
  0
TEXT
  5
83AE
330
1A
100
AcDbEntity
  8
寸法線
100
AcDbText
 10
36.467695727692
 20
238.487718598922
 30
0.0
 40
10.0
  1
C
100
AcDbText
  0
TEXT
  5
83AF
330
1A
100
AcDbEntity
  8
寸法線
100
AcDbText
 10
61.889686375848
 20
238.737733598922
 30
0.0
 40
10.0
  1
H
100
AcDbText
  0
TEXT
  5
83B0
330
1A
100
AcDbEntity
  8
寸法線
100
AcDbText
 10
10.904648227691
 20
238.550223598922
 30
0.0
 40
10.0
  1
L
100
AcDbText
  0
CIRCLE
  5
83B1
330
1A
100
AcDbEntity
  8
寸法線
100
AcDbCircle
 10
90.71811283304
 20
331.957162350707
 30
0.0
 40
2.0000075
  0
LINE
  5
83B2
330
1A
100
AcDbEntity
  8
寸法線
100
AcDbLine
 10
90.71811283304
 20
329.957154850707
 30
0.0
 11
90.71811283304
 21
257.451164850707
 31
0.0
  0
CIRCLE
  5
83B3
330
1A
100
AcDbEntity
  8
寸法線
100
AcDbCircle
 10
14.32010283304
 20
253.701164850707
 30
0.0
 40
1.9999975
  0
LINE
  5
83B4
330
1A
100
AcDbEntity
  8
寸法線
100
AcDbLine
 10
115.70812033304
 20
329.344322350707
 30
0.0
 11
115.70812033304
 21
257.451164850707
 31
0.0
  0
LINE
  5
83B5
330
1A
100
AcDbEntity
  8
寸法線
100
AcDbLine
 10
66.08508783304
 20
378.866149850707
 30
0.0
 11
66.08508783304
 21
257.451164850707
 31
0.0
  0
LINE
  5
83B6
330
1A
100
AcDbEntity
  8
寸法線
100
AcDbLine
 10
40.20259533304
 20
329.957154850707
 30
0.0
 11
40.20259533304
 21
257.451164850707
 31
0.0
  0
CIRCLE
  5
83B7
330
1A
100
AcDbEntity
  8
寸法線
100
AcDbCircle
 10
40.20259533304
 20
331.957162350707
 30
0.0
 40
2.0000075
  0
LINE
  5
83B8
330
1A
100
AcDbEntity
  8
寸法線
100
AcDbLine
 10
115.70812033304
 20
378.866149850707
 30
0.0
 11
115.70812033304
 21
352.324937350707
 31
0.0
  0
TEXT
  5
83B9
330
1A
100
AcDbEntity
  8
寸法線
100
AcDbText
 10
108.20651783304
 20
333.074219850707
 30
0.0
 40
15.0
  1
Ｍ
 41
1.25
  7
EXCADSTD
 72
     5
 11
123.20651783304
 21
333.074219850707
 31
0.0
100
AcDbText
  0
TEXT
  5
83BA
330
1A
100
AcDbEntity
  8
寸法線
100
AcDbText
 10
33.70746283304
 20
294.130202350707
 30
0.0
 40
10.714285714286
  1
キ
  7
EXCADVERT
 72
     3
 11
33.70746283304
 21
284.130202350707
 31
0.0
100
AcDbText
  0
TEXT
  5
83BB
330
1A
100
AcDbEntity
  8
寸法線
100
AcDbText
 10
90.037852453444
 20
211.178782478723
 30
0.0
 40
11.25
  1
電源
100
AcDbText
  0
LINE
  5
83BC
330
1A
100
AcDbEntity
  8
寸法線
100
AcDbLine
 10
90.71811283304
 20
378.866149850707
 30
0.0
 11
115.70812033304
 21
378.866149850707
 31
0.0
  0
LINE
  5
83BD
330
1A
100
AcDbEntity
  8
寸法線
100
AcDbLine
 10
50.02010033304
 20
378.866149850707
 30
0.0
 11
66.08508783304
 21
378.866149850707
 31
0.0
  0
LINE
  5
83BE
330
1A
100
AcDbEntity
  8
寸法線
100
AcDbLine
 10
30.38509033304
 20
378.866149850707
 30
0.0
 11
30.38509033304
 21
354.233124850707
 31
0.0
  0
LINE
  5
83BF
330
1A
100
AcDbEntity
  8
寸法線
100
AcDbLine
 10
14.32010283304
 20
378.866149850707
 30
0.0
 11
30.38509033304
 21
378.866149850707
 31
0.0
  0
LINE
  5
83C0
330
1A
100
AcDbEntity
  8
寸法線
100
AcDbLine
 10
14.32010283304
 20
257.451164850707
 30
0.0
 11
14.32010283304
 21
378.866149850707
 31
0.0
  0
HATCH
  5
83C1
330
1A
100
AcDbEntity
  8
細線
 48
10.0
100
AcDbHatch
 10
0.0
 20
0.0
 30
0.0
210
0.0
220
0.0
230
1.0
  2
ANSI31
 70
     0
 71
     0
 91
       19
 92
        7
 72
     1
 73
     1
 93
        5
 10
1.350555255992788
 20
533.0049973256877
 42
0.0
 10
4.850555255992788
 20
532.0671751521787
 42
0.0
 10
10.20532108097456
 20
532.0671751521787
 42
0.0
 10
10.20532108097456
 20
534.9031983003703
 42
-0.0291464811783065
 10
1.350555255992788
 20
536.6619508898092
 42
0.0
 97
        0
 92
        7
 72
     1
 73
     1
 93
       10
 10
4.85055525599256
 20
523.0671751521787
 42
0.0
 10
3.35055525599256
 20
523.0671751521787
 42
0.0
 10
1.35055525599256
 20
521.9124746137994
 42
0.0
 10
1.35055525599256
 20
496.221875690558
 42
0.0
 10
3.35055525599256
 20
495.0671751521787
 42
0.0
 10
3.60055525599256
 20
495.0671751521787
 42
0.0
 10
11.54817234350213
 20
495.0671751521787
 42
0.0721580311220404
 10
19.50770399346771
 20
496.2218756905587
 42
0.0
 10
19.50770399346521
 20
521.9124746137994
 42
0.0721580311220404
 10
11.54817234350213
 20
523.0671751521787
 42
0.0
 97
        0
 92
        7
 72
     1
 73
     1
 93
        7
 10
3.60055525599256
 20
475.0671751521787
 42
0.414213562373095
 10
5.60055525599256
 20
473.0671751521787
 42
0.0
 10
7.750555255992651
 20
473.0671751521787
 42
0.0
 10
20.85055525599279
 20
473.0671751521787
 42
0.0
 10
20.85055525599279
 20
495.0671751521787
 42
0.0
 10
11.54817234350213
 20
495.0671751521787
 42
0.0
 10
3.60055525599256
 20
495.0671751521787
 42
0.0
 97
        0
 92
        7
 72
     0
 73
     1
 93
        8
 10
4.850555255992788
 20
532.0671751521787
 10
4.850555255992788
 20
523.0671751521787
 10
11.54817234350213
 20
523.0671751521787
 10
20.85055525599279
 20
523.0671751521787
 10
20.85055525599279
 20
532.0671751521787
 10
19.50770399346544
 20
532.0671751521787
 10
12.89102360602971
 20
532.0671751521787
 10
10.20532108097456
 20
532.0671751521787
 97
        0
 92
        7
 72
     0
 73
     1
 93
        4
 10
19.50770399346521
 20
521.9124746137994
 10
19.50770399346521
 20
496.221875690558
 10
20.85055525599256
 20
496.221875690558
 10
20.85055525599279
 20
521.9124746137994
 97
        0
 92
        7
 72
     1
 73
     1
 93
        4
 10
19.50770399346544
 20
532.0671751521787
 42
0.0
 10
19.50770399346544
 20
534.1802447219544
 42
-0.0213925304775309
 10
12.89102360602971
 20
534.578432535811
 42
0.0
 10
12.89102360602971
 20
532.0671751521787
 42
0.0
 97
        0
 92
        7
 72
     1
 73
     1
 93
        4
 10
19.50770399346544
 20
534.1802447219544
 42
0.0
 10
19.50770399346544
 20
532.0671751521787
 42
0.0
 10
20.85055525599279
 20
532.0671751521787
 42
0.0
 10
20.85055525599279
 20
534.1686094608987
 42
-0.0043320221627083
 97
        0
 92
        7
 72
     1
 73
     1
 93
        4
 10
12.89102360602971
 20
532.0671751521787
 42
0.0
 10
12.89102360602971
 20
534.578432535811
 42
-0.008727333203576
 10
10.20532108097456
 20
534.9031983003703
 42
0.0
 10
10.20532108097456
 20
532.0671751521787
 42
0.0
 97
        0
 92
        7
 72
     1
 73
     1
 93
        4
 10
20.85055525599256
 20
496.221875690558
 42
0.0
 10
19.50770399346521
 20
496.221875690558
 42
-0.0721580311220404
 10
11.54817234350213
 20
495.0671751521787
 42
0.0
 10
20.85055525599279
 20
495.0671751521787
 42
0.0
 97
        0
 92
        7
 72
     1
 73
     1
 93
        4
 10
11.54817234350213
 20
523.0671751521787
 42
-0.0721580311220404
 10
19.50770399346771
 20
521.9124746137987
 42
0.0
 10
20.85055525599256
 20
521.9124746137994
 42
0.0
 10
20.85055525599279
 20
523.0671751521787
 42
0.0
 97
        0
 92
        7
 72
     1
 73
     1
 93
        7
 10
36.85055525599256
 20
532.0671751521787
 42
0.0
 10
40.35055525599256
 20
533.0049973256877
 42
0.0
 10
40.35055525599256
 20
536.6619508898092
 42
0.0
 10
40.35055525599256
 20
536.6619352911958
 42
-0.0291464765926826
 10
31.49578943101079
 20
534.9031899800342
 42
0.0
 10
31.49578943101079
 20
534.9031983003703
 42
0.0
 10
31.49578943101079
 20
532.0671751521787
 42
0.0
 97
        0
 92
        7
 72
     1
 73
     1
 93
       10
 10
38.35055525599279
 20
523.0671751521787
 42
0.0
 10
36.85055525599279
 20
523.0671751521787
 42
0.0
 10
30.15293816848322
 20
523.0671751521787
 42
0.0721580311220404
 10
22.19340651851763
 20
521.9124746137987
 42
0.0
 10
22.19340651852013
 20
496.221875690558
 42
0.0721580311220404
 10
30.15293816848322
 20
495.0671751521787
 42
0.0
 10
38.10055525599279
 20
495.0671751521787
 42
0.0
 10
38.35055525599279
 20
495.0671751521787
 42
0.0
 10
40.35055525599279
 20
496.221875690558
 42
0.0
 10
40.35055525599279
 20
521.9124746137994
 42
0.0
 97
        0
 92
        7
 72
     1
 73
     1
 93
        7
 10
36.10055525599279
 20
473.0671751521787
 42
0.414213562373095
 10
38.10055525599279
 20
475.0671751521787
 42
0.0
 10
38.10055525599279
 20
495.0671751521787
 42
0.0
 10
30.15293816848322
 20
495.0671751521787
 42
0.0
 10
20.85055525599279
 20
495.0671751521787
 42
0.0
 10
20.85055525599279
 20
473.0671751521787
 42
0.0
 10
33.9505552559927
 20
473.0671751521787
 42
0.0
 97
        0
 92
        7
 72
     0
 73
     1
 93
        8
 10
36.85055525599256
 20
523.0671751521787
 10
36.85055525599256
 20
532.0671751521787
 10
31.49578943101079
 20
532.0671751521787
 10
28.81008690595564
 20
532.0671751521787
 10
22.19340651851991
 20
532.0671751521787
 10
20.85055525599279
 20
532.0671751521787
 10
20.85055525599279
 20
523.0671751521787
 10
30.15293816848322
 20
523.0671751521787
 97
        0
 92
        7
 72
     0
 73
     1
 93
        4
 10
22.19340651852013
 20
496.221875690558
 10
22.19340651852013
 20
521.9124746137994
 10
20.85055525599279
 20
521.9124746137994
 10
20.85055525599279
 20
496.221875690558
 97
        0
 92
        7
 72
     1
 73
     1
 93
        4
 10
22.19340651852013
 20
496.221875690558
 42
0.0
 10
20.85055525599279
 20
496.221875690558
 42
0.0
 10
20.85055525599279
 20
495.0671751521787
 42
0.0
 10
30.15293816848322
 20
495.0671751521787
 42
-0.0721580311220404
 97
        0
 92
        7
 72
     1
 73
     1
 93
        4
 10
22.19340651851763
 20
521.9124746137987
 42
-0.0721580311220404
 10
30.15293816848322
 20
523.0671751521787
 42
0.0
 10
20.85055525599279
 20
523.0671751521787
 42
0.0
 10
20.85055525599279
 20
521.9124746137994
 42
0.0
 97
        0
 92
        7
 72
     1
 73
     1
 93
        6
 10
31.49578943101079
 20
532.0671751521787
 42
0.0
 10
31.49578943101079
 20
534.9031983003703
 42
0.0
 10
31.49578943101079
 20
534.9031899800342
 42
-0.0087273323803324
 10
28.81008690595564
 20
534.5784263408337
 42
0.0
 10
28.81008690595564
 20
534.578432535811
 42
0.0
 10
28.81008690595564
 20
532.0671751521787
 42
0.0
 97
        0
 92
        7
 72
     1
 73
     1
 93
        6
 10
28.81008690595564
 20
532.0671751521787
 42
0.0
 10
28.81008690595564
 20
534.578432535811
 42
0.0
 10
28.81008690595564
 20
534.5784263408337
 42
-0.0213925294772096
 10
22.19340651851991
 20
534.1802436821716
 42
0.0
 10
22.19340651851991
 20
534.1802447219544
 42
0.0
 10
22.19340651851991
 20
532.0671751521787
 42
0.0
 97
        0
 75
     0
 76
     1
 52
0.0
 41
1.0
 77
     0
 78
     1
 53
45.0
 43
1168.095065604164
 44
117.4779277470196
 45
-2.245064030267288
 46
2.245064030267288
 79
     0
 47
0.0
 98
       19
 10
6.731861019080327
 20
532.6436745042384
 10
7.737691182112542
 20
513.6586301770027
 10
17.71551053949776
 20
490.5903063633883
 10
14.27558724182296
 20
527.8659812298348
 10
20.33242341643069
 20
520.9597391631545
 10
14.90423109371824
 20
532.8951320449966
 10
20.31056822001716
 20
532.8951320449966
 10
11.88674060462114
 20
532.8951320449966
 10
19.91284046966376
 20
495.5342987062621
 10
19.74920890539494
 20
522.5559051933573
 10
34.1407329617121
 20
533.0208608153756
 10
24.69118449890726
 20
521.0825211654779
 10
23.65828921426515
 20
491.9886072280395
 10
29.7402259984454
 20
526.9858798371814
 10
21.95928494721426
 20
519.7626146405024
 10
22.40980629939787
 20
495.3345414398833
 10
22.35832645476495
 20
522.6479916950997
 10
30.24314107996162
 20
533.0208608153756
 10
23.07660116835615
 20
533.0208608153756
1001
ACAD
1010
0.0
1020
0.0
1030
0.0
  0
LINE
  5
83C2
330
1A
100
AcDbEntity
  8
外形線
 62
     0
100
AcDbLine
 10
4.850555255993
 20
532.067175152179
 30
0.0
 11
1.350555255993
 21
533.004997325688
 31
0.0
  0
LINE
  5
83C3
330
1A
100
AcDbEntity
  8
外形線
 62
     0
100
AcDbLine
 10
4.850555255993
 20
523.067175152179
 30
0.0
 11
3.350555255993
 21
523.067175152179
 31
0.0
  0
LINE
  5
83C4
330
1A
100
AcDbEntity
  8
外形線
100
AcDbLine
 10
1.350555255993
 20
521.912474613799
 30
0.0
 11
1.350555255993
 21
496.221875690558
 31
0.0
  0
LINE
  5
83C5
330
1A
100
AcDbEntity
  8
外形線
100
AcDbLine
 10
3.350555255993
 20
495.067175152179
 30
0.0
 11
38.350555255993
 21
495.067175152179
 31
0.0
  0
LINE
  5
83C6
330
1A
100
AcDbEntity
  8
外形線
100
AcDbLine
 10
3.350555255993
 20
495.067175152179
 30
0.0
 11
1.350555255993
 21
496.221875690558
 31
0.0
  0
LINE
  5
83C7
330
1A
100
AcDbEntity
  8
外形線
 62
     0
100
AcDbLine
 10
3.350555255993
 20
523.067175152179
 30
0.0
 11
1.350555255993
 21
521.912474613799
 31
0.0
  0
ARC
  5
83C8
330
1A
100
AcDbEntity
  8
外形線
100
AcDbCircle
 10
5.600555255993
 20
475.067175152179
 30
0.0
 40
2.0
100
AcDbArc
 50
180.0
 51
270.0
  0
LINE
  5
83C9
330
1A
100
AcDbEntity
  8
外形線
100
AcDbLine
 10
3.600555255993
 20
475.067175152179
 30
0.0
 11
3.600555255993
 21
495.067175152179
 31
0.0
  0
HATCH
  5
83CA
330
1A
100
AcDbEntity
  8
細線
 48
10.0
100
AcDbHatch
 10
0.0
 20
0.0
 30
0.0
210
0.0
220
0.0
230
1.0
  2
ANSI31
 70
     0
 71
     1
 91
        2
 92
        7
 72
     0
 73
     1
 93
        5
 10
8.250555255992651
 20
461.0671751521787
 10
20.85055525599268
 20
461.0671751521787
 10
20.85055525599268
 20
473.0671751521787
 10
7.750555255992651
 20
473.0671751521787
 10
7.750555255992651
 20
461.9332005559633
 97
        5
330
83CB
330
83DB
330
83D1
330
83CD
330
83CC
 92
        7
 72
     0
 73
     1
 93
        5
 10
33.4505552559927
 20
461.0671751521787
 10
33.9505552559927
 20
461.9332005559633
 10
33.9505552559927
 20
473.0671751521787
 10
20.85055525599268
 20
473.0671751521787
 10
20.85055525599268
 20
461.0671751521787
 97
        5
330
83FE
330
83FF
330
83D1
330
83DB
330
83CB
 75
     0
 76
     1
 52
0.0
 41
1.0
 77
     0
 78
     1
 53
45.0
 43
1168.095065604164
 44
117.4779277470196
 45
-2.245064030267288
 46
2.245064030267288
 79
     0
 47
0.0
 98
        2
 10
15.39020201082809
 20
468.1420739692152
 10
26.74666467667436
 20
468.7244566700277
1001
ACAD
1010
0.0
1020
0.0
1030
0.0
  0
LINE
  5
83CB
102
{ACAD_REACTORS
330
83CA
102
}
330
1A
100
AcDbEntity
  8
外形線
100
AcDbLine
 10
8.250555255993
 20
461.067175152179
 30
0.0
 11
33.450555255993
 21
461.067175152179
 31
0.0
  0
LINE
  5
83CC
102
{ACAD_REACTORS
330
83CA
102
}
330
1A
100
AcDbEntity
  8
外形線
100
AcDbLine
 10
8.250555255993
 20
461.067175152179
 30
0.0
 11
7.750555255993
 21
461.933200555963
 31
0.0
  0
LINE
  5
83CD
102
{ACAD_REACTORS
330
83CA
102
}
330
1A
100
AcDbEntity
  8
外形線
100
AcDbLine
 10
7.750555255993
 20
473.067175152179
 30
0.0
 11
7.750555255993
 21
461.933200555963
 31
0.0
  0
LINE
  5
83CE
330
1A
100
AcDbEntity
  8
外形線
 62
     0
100
AcDbLine
 10
4.850555255993
 20
532.067175152179
 30
0.0
 11
4.850555255993
 21
523.067175152179
 31
0.0
  0
LINE
  5
83CF
330
1A
100
AcDbEntity
  8
外形線
 62
     0
100
AcDbLine
 10
1.350555255993
 20
536.661950889809
 30
0.0
 11
1.350555255993
 21
533.004997325688
 31
0.0
  0
LINE
  5
83D0
330
1A
100
AcDbEntity
  8
外形線
 48
10.0
100
AcDbLine
 10
4.850555255993
 20
532.067175152179
 30
0.0
 11
36.850555255993
 21
532.067175152179
 31
0.0
  0
LINE
  5
83D1
102
{ACAD_REACTORS
330
83CA
102
}
330
1A
100
AcDbEntity
  8
外形線
 48
10.0
100
AcDbLine
 10
5.600555255993
 20
473.067175152179
 30
0.0
 11
36.100555255993
 21
473.067175152179
 31
0.0
  0
LINE
  5
83D2
330
1A
100
AcDbEntity
  8
外形線
 48
10.0
100
AcDbLine
 10
4.850555255993
 20
523.067175152179
 30
0.0
 11
36.850555255993
 21
523.067175152179
 31
0.0
  0
LINE
  5
83D3
330
1A
100
AcDbEntity
  8
外形線
 48
10.0
100
AcDbLine
 10
19.507703993465
 20
496.221875690558
 30
0.0
 11
19.507703993465
 21
521.912474613799
 31
0.0
  0
LINE
  5
83D4
330
1A
100
AcDbEntity
  8
外形線
 48
10.0
100
AcDbLine
 10
19.507703993465
 20
532.067175152179
 30
0.0
 11
19.507703993465
 21
534.180244721954
 31
0.0
  0
LINE
  5
83D5
330
1A
100
AcDbEntity
  8
外形線
 48
10.0
100
AcDbLine
 10
12.89102360603
 20
532.067175152179
 30
0.0
 11
12.89102360603
 21
534.578432535811
 31
0.0
  0
LINE
  5
83D6
330
1A
100
AcDbEntity
  8
外形線
 48
10.0
100
AcDbLine
 10
10.205321080975
 20
532.067175152179
 30
0.0
 11
10.205321080975
 21
534.90319830037
 31
0.0
  0
LINE
  5
83D7
330
1A
100
AcDbEntity
  8
外形線
 48
10.0
100
AcDbLine
 10
19.507703993465
 20
496.221875690558
 30
0.0
 11
20.850555255993
 21
496.221875690558
 31
0.0
  0
ARC
  5
83D8
330
1A
100
AcDbEntity
  8
外形線
 48
10.0
100
AcDbCircle
 10
11.548172343502
 20
523.077674528448
 30
0.0
 40
28.01049937626924
100
AcDbArc
 50
270.0
 51
286.508789686952
  0
ARC
  5
83D9
330
1A
100
AcDbEntity
  8
外形線
 48
10.0
100
AcDbCircle
 10
11.548172343502
 20
495.056675775909
 30
0.0
 40
28.01049937626924
100
AcDbArc
 50
73.491210313048
 51
90.0
  0
LINE
  5
83DA
330
1A
100
AcDbEntity
  8
外形線
 48
10.0
100
AcDbLine
 10
19.507703993465
 20
521.912474613799
 30
0.0
 11
20.850555255993
 21
521.912474613799
 31
0.0
  0
LINE
  5
83DB
102
{ACAD_REACTORS
330
83CA
102
}
330
1A
100
AcDbEntity
  8
中心線
 48
10.0
100
AcDbLine
 10
20.850555255993
 20
453.067175152179
 30
0.0
 11
20.850555255993
 21
697.168609460887
 31
0.0
  0
LINE
  5
83DC
330
1A
100
AcDbEntity
  8
中心線
 48
10.0
100
AcDbLine
 10
-64.649414730735
 20
611.667175152179
 30
0.0
 11
106.35058524272
 21
611.667175152179
 31
0.0
  0
LINE
  5
83DE
330
1A
100
AcDbEntity
  8
外形線
 48
10.0
100
AcDbLine
 10
22.278576304283
 20
571.653694890305
 30
0.0
 11
19.422571789748
 21
571.653694890305
 31
0.0
  0
LINE
  5
83DF
330
1A
100
AcDbEntity
  8
外形線
 48
10.0
100
AcDbLine
 10
22.278576304283
 20
651.653694890305
 30
0.0
 11
19.422571789748
 21
651.653694890305
 31
0.0
  0
LINE
  5
83E0
330
1A
100
AcDbEntity
  8
外形線
 48
10.0
100
AcDbLine
 10
22.278576304283
 20
571.653694890305
 30
0.0
 11
22.278576304283
 21
651.653694890305
 31
0.0
  0
LINE
  5
83E1
330
1A
100
AcDbEntity
  8
外形線
 48
10.0
100
AcDbLine
 10
19.422571789748
 20
651.653694890305
 30
0.0
 11
19.422571789748
 21
571.653694890305
 31
0.0
  0
ARC
  5
83E2
330
1A
100
AcDbEntity
  8
外形線
 48
10.0
100
AcDbCircle
 10
20.850555255993
 20
611.667175152179
 30
0.0
 40
21.5
100
AcDbArc
 50
270.0
 51
270.000001804094
  0
LINE
  5
83E7
330
1A
100
AcDbEntity
  8
外形線
100
AcDbLine
 10
19.422571789748
 20
603.97007268486
 30
0.0
 11
13.493111020695
 21
607.39350363454
 31
0.0
  0
LINE
  5
83E8
330
1A
100
AcDbEntity
  8
外形線
100
AcDbLine
 10
13.493111020695
 20
607.39350363454
 30
0.0
 11
13.493111020695
 21
615.96149763454
 31
0.0
  0
LINE
  5
83E9
330
1A
100
AcDbEntity
  8
外形線
100
AcDbLine
 10
19.422571789748
 20
619.384807859483
 30
0.0
 11
13.493111020695
 21
615.96149763454
 31
0.0
  0
CIRCLE
  5
83EB
330
1A
100
AcDbEntity
  8
外形線
100
AcDbCircle
 10
66.812525428131
 20
565.706608907089
 30
0.0
 40
7.711199999999998
  0
CIRCLE
  5
83EC
330
1A
100
AcDbEntity
  8
外形線
100
AcDbCircle
 10
-25.111354916145
 20
565.706608907089
 30
0.0
 40
7.711199999999998
  0
CIRCLE
  5
83ED
330
1A
100
AcDbEntity
  8
外形線
100
AcDbCircle
 10
66.812525428131
 20
657.630610014697
 30
0.0
 40
7.711199999999998
  0
CIRCLE
  5
83EE
330
1A
100
AcDbEntity
  8
外形線
100
AcDbCircle
 10
20.850585255993
 20
611.668609460893
 30
0.0
 40
77.5
  0
CIRCLE
  5
83EF
330
1A
100
AcDbEntity
  8
外形線
100
AcDbCircle
 10
-25.111354916145
 20
657.630610014697
 30
0.0
 40
7.711199999999998
  0
LINE
  5
83F0
330
1A
100
AcDbEntity
  8
中心線
 48
10.0
100
AcDbLine
 10
59.66258979547
 20
572.945991589277
 30
0.0
 11
73.962588963806
 21
558.645992420941
 31
0.0
  0
LINE
  5
83F1
330
1A
100
AcDbEntity
  8
中心線
 48
10.0
100
AcDbLine
 10
-32.261354500313
 20
558.556609322921
 30
0.0
 11
-17.961355331977
 21
572.856608491257
 31
0.0
  0
LINE
  5
83F2
330
1A
100
AcDbEntity
  8
中心線
 48
10.0
100
AcDbLine
 10
-32.261354500313
 20
664.780609598865
 30
0.0
 11
-17.961355331977
 21
650.480610430529
 31
0.0
  0
LINE
  5
83F3
330
1A
100
AcDbEntity
  8
中心線
 48
10.0
100
AcDbLine
 10
59.662525843962
 20
650.480610430529
 30
0.0
 11
73.962525012299
 21
664.780609598865
 31
0.0
  0
CIRCLE
  5
83F4
330
1A
100
AcDbEntity
  8
中心線
 48
10.0
100
AcDbCircle
 10
20.850555255993
 20
611.668596690515
 30
0.0
 40
65.0
  0
LEADER
  5
83F5
330
1A
100
AcDbEntity
  8
寸法線
 48
10.0
100
AcDbLeader
  3
ISO-25
 76
     3
 10
-25.191305815559
 20
557.965548749114
 30
0.0
 10
-24.354485458856
 20
520.600763881259
 30
0.0
 10
-34.354485458856
 20
520.600763881259
 30
0.0
1001
ACAD
1000
DSTYLE
1002
{
1070
     5
1000
OPEN30
1070
   147
1040
0.625
1070
    77
1070
     0
1070
    41
1040
6.0
1070
    47
1040
0.1
1070
    48
1040
0.1
1070
    73
1070
     0
1070
   140
1040
5.0
1070
   271
1070
     1
1070
   272
1070
     1
1070
   341
1005
2AF4
1070
   342
1005
2AF4
1002
}
  0
MTEXT
  5
83F6
330
1A
100
AcDbEntity
  8
寸法線
 48
10.0
100
AcDbMText
 10
-62.758291172905
 20
532.035223076579
 30
0.0
 40
10.0
 41
30.694469560982
 71
     1
 72
     5
  1
4-φ15
  0
LINE
  5
83F7
330
1A
100
AcDbEntity
  8
外形線
 62
     0
100
AcDbLine
 10
36.850555255993
 20
532.067175152179
 30
0.0
 11
40.350555255993
 21
533.004997325688
 31
0.0
  0
LINE
  5
83F8
330
1A
100
AcDbEntity
  8
外形線
 62
     0
100
AcDbLine
 10
36.850555255993
 20
523.067175152179
 30
0.0
 11
38.350555255993
 21
523.067175152179
 31
0.0
  0
LINE
  5
83F9
330
1A
100
AcDbEntity
  8
外形線
100
AcDbLine
 10
40.350555255993
 20
521.912474613799
 30
0.0
 11
40.350555255993
 21
496.221875690558
 31
0.0
  0
LINE
  5
83FA
330
1A
100
AcDbEntity
  8
外形線
100
AcDbLine
 10
38.350555255993
 20
495.067175152179
 30
0.0
 11
40.350555255993
 21
496.221875690558
 31
0.0
  0
LINE
  5
83FB
330
1A
100
AcDbEntity
  8
外形線
 62
     0
100
AcDbLine
 10
38.350555255993
 20
523.067175152179
 30
0.0
 11
40.350555255993
 21
521.912474613799
 31
0.0
  0
ARC
  5
83FC
330
1A
100
AcDbEntity
  8
外形線
100
AcDbCircle
 10
36.100555255993
 20
475.067175152179
 30
0.0
 40
1.999999999999999
100
AcDbArc
 50
270.0
 51
0.0
  0
LINE
  5
83FD
330
1A
100
AcDbEntity
  8
外形線
100
AcDbLine
 10
38.100555255993
 20
475.067175152179
 30
0.0
 11
38.100555255993
 21
495.067175152179
 31
0.0
  0
LINE
  5
83FE
102
{ACAD_REACTORS
330
83CA
102
}
330
1A
100
AcDbEntity
  8
外形線
100
AcDbLine
 10
33.450555255993
 20
461.067175152179
 30
0.0
 11
33.950555255993
 21
461.933200555963
 31
0.0
  0
LINE
  5
83FF
102
{ACAD_REACTORS
330
83CA
102
}
330
1A
100
AcDbEntity
  8
外形線
100
AcDbLine
 10
33.950555255993
 20
473.067175152179
 30
0.0
 11
33.950555255993
 21
461.933200555963
 31
0.0
  0
LINE
  5
8400
330
1A
100
AcDbEntity
  8
外形線
 62
     0
100
AcDbLine
 10
36.850555255993
 20
532.067175152179
 30
0.0
 11
36.850555255993
 21
523.067175152179
 31
0.0
  0
LINE
  5
8401
330
1A
100
AcDbEntity
  8
外形線
 48
10.0
100
AcDbLine
 10
22.19340651852
 20
496.221875690558
 30
0.0
 11
22.19340651852
 21
521.912474613799
 31
0.0
  0
LINE
  5
8402
330
1A
100
AcDbEntity
  8
外形線
 48
10.0
100
AcDbLine
 10
22.19340651852
 20
496.221875690558
 30
0.0
 11
20.850555255993
 21
496.221875690558
 31
0.0
  0
ARC
  5
8403
330
1A
100
AcDbEntity
  8
外形線
 48
10.0
100
AcDbCircle
 10
30.152938168483
 20
523.077674528448
 30
0.0
 40
28.01049937626922
100
AcDbArc
 50
253.491210313048
 51
270.0
  0
ARC
  5
8404
330
1A
100
AcDbEntity
  8
外形線
 48
10.0
100
AcDbCircle
 10
30.152938168483
 20
495.056675775909
 30
0.0
 40
28.01049937626922
100
AcDbArc
 50
90.0
 51
106.508789686952
  0
LINE
  5
8405
330
1A
100
AcDbEntity
  8
外形線
 48
10.0
100
AcDbLine
 10
22.19340651852
 20
521.912474613799
 30
0.0
 11
20.850555255993
 21
521.912474613799
 31
0.0
  0
LINE
  5
8406
330
1A
100
AcDbEntity
  8
外形線
 62
     0
100
AcDbLine
 10
40.350555255993
 20
536.661950889809
 30
0.0
 11
40.350555255993
 21
533.004997325688
 31
0.0
  0
LINE
  5
8407
330
1A
100
AcDbEntity
  8
外形線
 48
10.0
100
AcDbLine
 10
31.495789431011
 20
532.067175152179
 30
0.0
 11
31.495789431011
 21
534.90319830037
 31
0.0
  0
LINE
  5
8408
330
1A
100
AcDbEntity
  8
外形線
 48
10.0
100
AcDbLine
 10
28.810086905956
 20
532.067175152179
 30
0.0
 11
28.810086905956
 21
534.578432535811
 31
0.0
  0
LINE
  5
8409
330
1A
100
AcDbEntity
  8
外形線
 48
10.0
100
AcDbLine
 10
22.19340651852
 20
532.067175152179
 30
0.0
 11
22.19340651852
 21
534.180244721954
 31
0.0
  0
DIMENSION
  5
840A
330
1A
100
AcDbEntity
  8
寸法線
 48
10.0
100
AcDbDimension
  2
*D97
 10
22.351668248396
 20
583.393285514865
 30
0.0
 11
40.976668248396
 21
589.018285514865
 31
0.0
 70
    32
  1
1.5
  3
ISO-25
100
AcDbAlignedDimension
 13
19.495663733861
 23
583.393285514865
 33
0.0
 14
22.351668248396
 24
583.393285514865
 34
0.0
100
AcDbRotatedDimension
1001
ACAD
1000
DSTYLE
1002
{
1070
     5
1000
OPEN30
1070
    41
1040
6.0
1070
    47
1040
0.1
1070
    48
1040
0.1
1070
    73
1070
     0
1070
   140
1040
10.0
1070
   271
1070
     1
1070
   272
1070
     1
1070
   341
1005
2AF4
1002
}
  0
MTEXT
  5
840B
330
1A
100
AcDbEntity
  8
寸法線
 48
10.0
100
AcDbMText
 10
145.891890158755
 20
371.921681322448
 30
0.0
 40
10.0
 41
414.880882725883
 71
     1
 72
     5
  1
内蔵マイクロスイッチ\PAC250V 6A  抵抗負荷\PDC125V 0.5A 抵抗負荷
  0
LINE
  5
840C
330
1A
100
AcDbEntity
  8
外形線
100
AcDbLine
 10
912.762719185784
 20
300.491648758313
 30
0.0
 11
912.762719185783
 21
201.001330540716
 31
0.0
  0
LINE
  5
840D
330
1A
100
AcDbEntity
  8
外形線
100
AcDbLine
 10
705.657789704414
 20
300.491648758313
 30
0.0
 11
912.762719185784
 21
300.491648758313
 31
0.0
  0
MTEXT
  5
840E
102
{ACAD_XDICTIONARY
360
8D16
102
}
330
1A
100
AcDbEntity
  8
寸法線
 48
10.0
100
AcDbMText
 10
784.03106177258
 20
267.609885718068
 30
0.0
 40
11.25
 41
147.712275705142
 71
     1
 72
     5
  1
労検第T66814号
1001
ACADANNOTATIVE
1000
AnnotativeData
1002
{
1070
     1
1070
     0
1002
}
  0
LINE
  5
840F
102
{ACAD_REACTORS
330
8414
102
}
330
1A
100
AcDbEntity
  8
外形線
100
AcDbLine
 10
766.528214544669
 20
287.026947997928
 30
0.0
 11
766.528214544669
 21
257.026947997928
 31
0.0
  0
LINE
  5
8410
102
{ACAD_REACTORS
330
8414
102
}
330
1A
100
AcDbEntity
  8
外形線
100
AcDbLine
 10
716.528214544669
 20
257.026947997928
 30
0.0
 11
766.528214544669
 21
257.026947997928
 31
0.0
  0
LINE
  5
8411
102
{ACAD_REACTORS
330
8414
102
}
330
1A
100
AcDbEntity
  8
外形線
100
AcDbLine
 10
716.528214544669
 20
287.026947997928
 30
0.0
 11
766.528214544669
 21
287.026947997928
 31
0.0
  0
LINE
  5
8412
102
{ACAD_REACTORS
330
8414
102
}
330
1A
100
AcDbEntity
  8
外形線
100
AcDbLine
 10
716.528214544669
 20
287.026947997928
 30
0.0
 11
716.528214544669
 21
257.026947997928
 31
0.0
  0
MTEXT
  5
8413
330
1A
100
AcDbEntity
  8
寸法線
 48
10.0
100
AcDbMText
 10
787.28353778079
 20
294.542175529625
 30
0.0
 40
15.0
 41
88.948093776244
 71
     1
 72
     5
  1
{\H1.25x;d2G4}
  0
HATCH
  5
8414
330
1A
100
AcDbEntity
  8
細線
 48
10.0
100
AcDbHatch
 10
0.0
 20
0.0
 30
0.0
210
0.0
220
0.0
230
1.0
  2
ANSI31
 70
     0
 71
     1
 91
        1
 92
        7
 72
     0
 73
     1
 93
        4
 10
716.5282145446695
 20
287.0269479979281
 10
716.5282145446695
 20
257.0269479979281
 10
766.5282145446695
 20
257.0269479979281
 10
766.5282145446695
 20
287.0269479979281
 97
        4
330
8412
330
8410
330
840F
330
8411
 75
     0
 76
     1
 52
0.0
 41
1.0
 77
     0
 78
     1
 53
45.0
 43
-147.4893128948694
 44
-189.0927918034465
 45
-2.245064030267288
 46
2.245064030267288
 79
     0
 47
0.627807578291
 98
        1
 10
730.8993683044409
 20
275.7493125375918
  0
LINE
  5
8415
330
1A
100
AcDbEntity
  8
外形線
100
AcDbLine
 10
912.762719185783
 20
201.001330540716
 30
0.0
 11
705.657789704414
 21
201.001330540716
 31
0.0
  0
LINE
  5
8416
330
1A
100
AcDbEntity
  8
外形線
100
AcDbLine
 10
705.657789704414
 20
201.001330540716
 30
0.0
 11
705.657789704414
 21
300.491648758313
 31
0.0
  0
MTEXT
  5
8417
102
{ACAD_XDICTIONARY
360
8418
102
}
330
1A
100
AcDbEntity
  8
寸法線
 48
10.0
100
AcDbMText
 10
716.327315724479
 20
245.775980822095
 30
0.0
 40
8.75
 41
266.161527505396
 71
     1
 72
     5
  1
防爆構造：耐圧防爆構造\P爆発等級及び発火度：2G4\P導線引込方式：耐圧パッキン式引込方式
1001
ACADANNOTATIVE
1000
AnnotativeData
1002
{
1070
     1
1070
     0
1002
}
  0
ARC
  5
841B
330
1A
100
AcDbEntity
  8
細線
100
AcDbCircle
 10
20.850555255993
 20
611.667175152179
 30
0.0
 40
8.500000000000028
100
AcDbArc
 50
279.671442086474
 51
279.67169906751
  0
MTEXT
  5
841C
102
{ACAD_XDICTIONARY
360
841D
102
}
330
1A
100
AcDbEntity
  8
寸法線
 62
     1
 48
10.0
100
AcDbMText
 10
143.505993359744
 20
308.18042322269
 30
0.0
 40
10.0
 41
189.697553026647
 71
     1
 72
     5
  1
\C256;塗　装　色：10YR7.5/14\P静止トルク：約10.0N・cm\P回　転　数：1RPM\P使用周囲温度：-10～+40℃
1001
ACADANNOTATIVE
1000
AnnotativeData
1002
{
1070
     1
1070
     0
1002
}
  0
DIMENSION
  5
8420
330
1A
100
AcDbEntity
  8
寸法線
 62
     1
 48
10.0
100
AcDbDimension
  2
*D98
 10
98.030377431857
 20
618.70075611514
 30
0.0
 11
67.499025701373
 21
615.918367061588
 31
0.0
 70
   160
  3
ISO-25
100
AcDbAlignedDimension
 13
-56.32996068262
 23
604.633559914208
 33
0.0
 14
98.030377431857
 24
618.70075611514
 34
0.0
 50
5.2071067117
100
AcDbRotatedDimension
1001
ACAD
1000
DSTYLE
1002
{
1070
     5
1000
OPEN30
1070
    76
1070
     1
1070
    75
1070
     1
1070
     3
1000
φ<>
1070
    41
1040
6.0
1070
    47
1040
0.1
1070
    48
1040
0.1
1070
    73
1070
     0
1070
   140
1040
10.0
1070
   271
1070
     1
1070
   272
1070
     1
1070
   341
1005
2AF4
1002
}
  0
DIMENSION
  5
8421
330
1A
100
AcDbEntity
  8
寸法線
 62
     1
 48
10.0
100
AcDbDimension
  2
*D99
 10
80.379104195452
 20
637.77081187814
 30
0.0
 11
63.845070842305
 21
630.520516970858
 31
0.0
 70
   160
  3
ISO-25
100
AcDbAlignedDimension
 13
-38.677267021166
 23
585.563719786663
 33
0.0
 14
80.379104195451
 24
637.77081187814
 34
0.0
 50
23.677803450481
100
AcDbRotatedDimension
1001
ACAD
1000
DSTYLE
1002
{
1070
     5
1000
OPEN30
1070
     3
1000
φ<>
1070
    76
1070
     1
1070
    75
1070
     1
1070
    41
1040
6.0
1070
    47
1040
0.1
1070
    48
1040
0.1
1070
    73
1070
     0
1070
   140
1040
10.0
1070
   271
1070
     1
1070
   272
1070
     1
1070
   341
1005
2AF4
1002
}
  0
TEXT
  5
8422
330
1A
100
AcDbEntity
  8
寸法線
100
AcDbText
 10
76.029384809339
 20
225.8682860229
 30
0.0
 40
10.0
  1
(２００   ０)
 41
0.566629621207
  7
EXCADSTD
 72
     5
 11
122.63467115365
 21
225.8682860229
 31
0.0
100
AcDbText
  0
MTEXT
  5
8423
102
{ACAD_XDICTIONARY
360
8424
102
}
330
1A
100
AcDbEntity
  8
寸法線
 48
10.0
100
AcDbMText
 10
311.956992048562
 20
367.159087857323
 30
0.0
 40
10.0
 41
210.629527060302
 71
     1
 72
     5
  1
御仕様  電源電圧  \P      　AC100V\P        AC200V
1001
ACADANNOTATIVE
1000
AnnotativeData
1002
{
1070
     1
1070
     0
1002
}
  0
MTEXT
  5
8427
330
1A
100
AcDbEntity
  8
寸法線
 48
10.0
100
AcDbMText
 10
337.18561970168
 20
315.838195227617
 30
0.0
 40
10.0
 41
202.063492063492
 71
     1
 72
     5
  1
○印が今回の貴社の御仕様です。
  0
LINE
  5
8428
330
1A
100
AcDbEntity
  8
寸法線
 62
     1
 48
10.0
100
AcDbLine
 10
308.917627593899
 20
353.60250506996
 30
0.0
 11
500.65213293735
 21
353.60250506996
 31
0.0
  0
LINE
  5
8429
330
1A
100
AcDbEntity
  8
寸法線
 62
     1
 48
10.0
100
AcDbLine
 10
308.917627593899
 20
337.025569114652
 30
0.0
 11
500.65213293735
 21
337.025569114652
 31
0.0
  0
LINE
  5
842A
330
1A
100
AcDbEntity
  8
寸法線
 62
     1
 48
10.0
100
AcDbLine
 10
308.917627593899
 20
320.448633159344
 30
0.0
 11
500.65213293735
 21
320.448633159344
 31
0.0
  0
LINE
  5
842B
330
1A
100
AcDbEntity
  8
寸法線
 62
     1
 48
10.0
100
AcDbLine
 10
308.917627593899
 20
369.85440306536
 30
0.0
 11
500.65213293735
 21
369.85440306536
 31
0.0
  0
LINE
  5
842C
330
1A
100
AcDbEntity
  8
寸法線
 62
     1
 48
10.0
100
AcDbLine
 10
349.872410542308
 20
369.85440306536
 30
0.0
 11
349.872410542308
 21
320.448633159344
 31
0.0
  0
LINE
  5
842D
330
1A
100
AcDbEntity
  8
寸法線
 62
     1
 48
10.0
100
AcDbLine
 10
308.917627593899
 20
369.85440306536
 30
0.0
 11
308.917627593899
 21
320.448633159344
 31
0.0
  0
LINE
  5
842E
330
1A
100
AcDbEntity
  8
寸法線
 62
     1
 48
10.0
100
AcDbLine
 10
416.671776819732
 20
369.85440306536
 30
0.0
 11
416.671776819732
 21
320.448633159344
 31
0.0
  0
LINE
  5
842F
330
1A
100
AcDbEntity
  8
寸法線
 62
     1
 48
10.0
100
AcDbLine
 10
500.65213293735
 20
369.85440306536
 30
0.0
 11
500.65213293735
 21
320.448633159344
 31
0.0
  0
MTEXT
  5
8430
102
{ACAD_XDICTIONARY
360
8431
102
}
330
1A
100
AcDbEntity
  8
寸法線
 48
10.0
100
AcDbMText
 10
459.430643932334
 20
367.159087857323
 30
0.0
 40
10.0
 41
71.895805002061
 71
     2
 72
     5
  1
申請型式名称   \PPRL-5-WP\PPRL-5-VP
1001
ACADANNOTATIVE
1000
AnnotativeData
1002
{
1070
     1
1070
     0
1002
}
  0
ARC
  5
8434
330
1A
100
AcDbEntity
  8
外形線
 48
10.0
100
AcDbCircle
 10
20.850396425669
 20
611.667175152179
 30
0.0
 40
17.0
100
AcDbArc
 50
94.817930299977
 51
265.182069700023
  0
ARC
  5
8435
330
1A
100
AcDbEntity
  8
外形線
 48
10.0
100
AcDbCircle
 10
20.850396425669
 20
611.667175152179
 30
0.0
 40
17.0
100
AcDbArc
 50
274.81913183516
 51
85.18086816484
  0
LEADER
  5
8543
330
1A
100
AcDbEntity
  8
寸法線
 48
10.0
100
AcDbLeader
  3
ISO-25
 76
     3
 10
530.673013828447
 20
628.318599381531
 30
0.0
 10
521.082477382893
 20
681.026222275242
 30
0.0
 10
509.082477382893
 20
681.026222275242
 30
0.0
1001
ACAD
1000
DSTYLE
1002
{
1070
     5
1000
OPEN30
1070
   147
1040
0.625
1070
    77
1070
     0
1070
    41
1040
6.0
1070
    47
1040
0.1
1070
    48
1040
0.1
1070
    73
1070
     0
1070
   140
1040
8.0
1070
   271
1070
     1
1070
   272
1070
     1
1070
   341
1005
2AF4
1070
   342
1005
2AF4
1002
}
  0
MTEXT
  5
8544
330
1A
100
AcDbEntity
  8
寸法線
 48
10.0
100
AcDbMText
 10
476.861449045284
 20
691.960873143807
 30
0.0
 40
2.333873885063
 41
47.634784273192
 71
     1
 72
     5
  1
{\H4.285x;SUS304}
  0
MTEXT
  5
8580
330
1A
100
AcDbEntity
  8
寸法線
 62
     1
 48
10.0
100
AcDbMText
 10
736.494700713503
 20
384.865659209362
 30
0.0
 40
8.0
 41
152.261044059946
 71
     1
 72
     1
  1
※ケーブルグランドをご指定下さい
  0
LINE
  5
8943
330
1A
100
AcDbEntity
  8
外形線
 48
10.0
100
AcDbLine
 10
694.130074180934
 20
579.172404761145
 30
0.0
 11
694.130074180934
 21
644.172404761145
 31
0.0
  0
LINE
  5
89B7
330
1A
100
AcDbEntity
  8
外形線
 48
10.0
100
AcDbLine
 10
694.130074180934
 20
579.172404761145
 30
0.0
 11
694.130074180934
 21
644.172404761145
 31
0.0
  0
LWPOLYLINE
  5
89B8
330
1A
100
AcDbEntity
  8
外形線
100
AcDbPolyline
 90
       10
 70
     0
 43
0.0
 10
676.130074180934
 20
648.672404761145
 10
676.130074180934
 20
648.672404761145
 42
0.414213562373
 10
678.130074180934
 20
646.672404761145
 10
692.130074180934
 20
646.672404761145
 10
694.130074180934
 20
644.672404761145
 10
694.130074180934
 20
578.672404761145
 10
692.130074180934
 20
576.672404761145
 10
678.130074180934
 20
576.672404761145
 42
0.414213562373
 10
676.130074180934
 20
574.672404761145
 10
676.130074180934
 20
574.672404761145
  0
LINE
  5
89B9
330
1A
100
AcDbEntity
  8
外形線
100
AcDbLine
 10
676.130074180934
 20
688.172404761145
 30
0.0
 11
675.130074180934
 21
689.172404761145
 31
0.0
  0
LINE
  5
89BA
330
1A
100
AcDbEntity
  8
外形線
100
AcDbLine
 10
675.130074180934
 20
689.172404761145
 30
0.0
 11
664.630074180934
 21
689.172404761145
 31
0.0
  0
LINE
  5
89BB
330
1A
100
AcDbEntity
  8
外形線
100
AcDbLine
 10
664.630074180934
 20
689.172404761145
 30
0.0
 11
664.130074180934
 21
688.672404761145
 31
0.0
  0
LINE
  5
89BC
330
1A
100
AcDbEntity
  8
外形線
100
AcDbLine
 10
664.130074180934
 20
688.672404761145
 30
0.0
 11
664.130074180934
 21
534.672404761145
 31
0.0
  0
LINE
  5
89BD
330
1A
100
AcDbEntity
  8
外形線
100
AcDbLine
 10
664.130074180934
 20
534.672404761145
 30
0.0
 11
664.630074180934
 21
534.172404761145
 31
0.0
  0
LINE
  5
89BE
330
1A
100
AcDbEntity
  8
外形線
100
AcDbLine
 10
664.630074180934
 20
534.172404761145
 30
0.0
 11
675.130074180934
 21
534.172404761145
 31
0.0
  0
LINE
  5
89BF
330
1A
100
AcDbEntity
  8
外形線
100
AcDbLine
 10
675.130074180934
 20
534.172404761145
 30
0.0
 11
676.130074180934
 21
535.172404761145
 31
0.0
  0
LINE
  5
89C0
330
1A
100
AcDbEntity
  8
外形線
100
AcDbLine
 10
676.130074180934
 20
535.172404761145
 30
0.0
 11
676.130074180934
 21
688.172404761145
 31
0.0
  0
LINE
  5
89C1
330
1A
100
AcDbEntity
  8
外形線
 48
10.0
100
AcDbLine
 10
676.130074180934
 20
537.822404761145
 30
0.0
 11
677.710074180934
 21
537.822404761145
 31
0.0
  0
LINE
  5
89C2
330
1A
100
AcDbEntity
  8
外形線
 48
10.0
100
AcDbLine
 10
676.130074180934
 20
555.522404761145
 30
0.0
 11
677.710074180934
 21
555.522404761145
 31
0.0
  0
LINE
  5
89C3
330
1A
100
AcDbEntity
  8
外形線
 48
10.0
100
AcDbLine
 10
677.710074180934
 20
537.822404761145
 30
0.0
 11
677.710074180934
 21
555.522404761145
 31
0.0
  0
LINE
  5
89C4
330
1A
100
AcDbEntity
  8
外形線
 48
10.0
100
AcDbLine
 10
682.895043795085
 20
539.282321315518
 30
0.0
 11
677.710074180934
 21
539.282321315518
 31
0.0
  0
LINE
  5
89C5
330
1A
100
AcDbEntity
  8
外形線
 48
10.0
100
AcDbLine
 10
682.895043795085
 20
554.062488206772
 30
0.0
 11
677.710074180934
 21
554.062488206772
 31
0.0
  0
LINE
  5
89C6
330
1A
100
AcDbEntity
  8
外形線
100
AcDbLine
 10
682.895043795085
 20
539.282321315518
 30
0.0
 11
684.030074180935
 21
540.422292261145
 31
0.0
  0
ARC
  5
89C7
330
1A
100
AcDbEntity
  8
細線
100
AcDbCircle
 10
681.099558005724
 20
540.36743153572
 30
0.0
 40
2.93102964030951
100
AcDbArc
 50
1.07248031449
 51
62.929683273473
  0
LINE
  5
89C8
330
1A
100
AcDbEntity
  8
細線
100
AcDbLine
 10
677.710074180934
 20
542.977363038331
 30
0.0
 11
682.433421680936
 21
542.977363038331
 31
0.0
  0
ARC
  5
89C9
330
1A
100
AcDbEntity
  8
細線
100
AcDbCircle
 10
678.956721772353
 20
546.672404761145
 30
0.0
 40
5.073536792778295
100
AcDbArc
 50
313.256183488111
 51
46.743816511899
  0
ARC
  5
89CA
330
1A
100
AcDbEntity
  8
細線
100
AcDbCircle
 10
681.099558005724
 20
552.97737798657
 30
0.0
 40
2.931029640308923
100
AcDbArc
 50
297.070316726528
 51
358.92751968551
  0
LINE
  5
89CB
330
1A
100
AcDbEntity
  8
外形線
100
AcDbLine
 10
682.895043795085
 20
554.062488206772
 30
0.0
 11
684.030074180935
 21
552.922517261145
 31
0.0
  0
LINE
  5
89CC
330
1A
100
AcDbEntity
  8
細線
100
AcDbLine
 10
677.710074180934
 20
550.367446483959
 30
0.0
 11
682.433421680936
 21
550.367446483959
 31
0.0
  0
LINE
  5
89CD
330
1A
100
AcDbEntity
  8
外形線
100
AcDbLine
 10
684.030074180935
 20
552.922517261145
 30
0.0
 11
684.030074180935
 21
540.422289761145
 31
0.0
  0
LINE
  5
89CE
330
1A
100
AcDbEntity
  8
細線
 48
10.0
100
AcDbLine
 10
685.130079269586
 20
543.672404761145
 30
0.0
 11
684.030074180935
 21
543.672404761145
 31
0.0
  0
LINE
  5
89CF
330
1A
100
AcDbEntity
  8
細線
 48
10.0
100
AcDbLine
 10
685.130079269586
 20
549.672404761145
 30
0.0
 11
684.030074180935
 21
549.672404761145
 31
0.0
  0
LINE
  5
89D0
330
1A
100
AcDbEntity
  8
外形線
100
AcDbLine
 10
684.030074180935
 20
550.592404761145
 30
0.0
 11
685.130079269586
 21
550.592404761145
 31
0.0
  0
LINE
  5
89D1
330
1A
100
AcDbEntity
  8
外形線
100
AcDbLine
 10
684.030074180935
 20
542.752404761145
 30
0.0
 11
685.130079269586
 21
542.752404761145
 31
0.0
  0
LINE
  5
89D2
330
1A
100
AcDbEntity
  8
外形線
 48
10.0
100
AcDbLine
 10
676.130074180934
 20
667.822404761145
 30
0.0
 11
677.710074180934
 21
667.822404761145
 31
0.0
  0
LINE
  5
89D3
330
1A
100
AcDbEntity
  8
外形線
 48
10.0
100
AcDbLine
 10
676.130074180934
 20
685.522404761145
 30
0.0
 11
677.710074180934
 21
685.522404761145
 31
0.0
  0
LINE
  5
89D4
330
1A
100
AcDbEntity
  8
外形線
 48
10.0
100
AcDbLine
 10
677.710074180934
 20
667.822404761145
 30
0.0
 11
677.710074180934
 21
685.522404761145
 31
0.0
  0
LINE
  5
89D5
330
1A
100
AcDbEntity
  8
外形線
 48
10.0
100
AcDbLine
 10
682.895043795085
 20
669.282321315518
 30
0.0
 11
677.710074180934
 21
669.282321315518
 31
0.0
  0
LINE
  5
89D6
330
1A
100
AcDbEntity
  8
外形線
 48
10.0
100
AcDbLine
 10
682.895043795085
 20
684.062488206772
 30
0.0
 11
677.710074180934
 21
684.062488206773
 31
0.0
  0
LINE
  5
89D7
330
1A
100
AcDbEntity
  8
外形線
100
AcDbLine
 10
682.895043795085
 20
669.282321315518
 30
0.0
 11
684.030074180935
 21
670.422292261145
 31
0.0
  0
ARC
  5
89D8
330
1A
100
AcDbEntity
  8
細線
100
AcDbCircle
 10
681.099558005724
 20
670.36743153572
 30
0.0
 40
2.93102964030951
100
AcDbArc
 50
1.072480314488
 51
62.929683273473
  0
LINE
  5
89D9
330
1A
100
AcDbEntity
  8
細線
100
AcDbLine
 10
677.710074180934
 20
672.977363038331
 30
0.0
 11
682.433421680936
 21
672.977363038331
 31
0.0
  0
ARC
  5
89DA
330
1A
100
AcDbEntity
  8
細線
100
AcDbCircle
 10
678.956721772353
 20
676.672404761145
 30
0.0
 40
5.073536792778295
100
AcDbArc
 50
313.256183488111
 51
46.743816511897
  0
ARC
  5
89DB
330
1A
100
AcDbEntity
  8
細線
100
AcDbCircle
 10
681.099558005724
 20
682.97737798657
 30
0.0
 40
2.931029640308923
100
AcDbArc
 50
297.070316726527
 51
358.927519685508
  0
LINE
  5
89DC
330
1A
100
AcDbEntity
  8
外形線
100
AcDbLine
 10
682.895043795085
 20
684.062488206772
 30
0.0
 11
684.030074180935
 21
682.922517261145
 31
0.0
  0
LINE
  5
89DD
330
1A
100
AcDbEntity
  8
細線
100
AcDbLine
 10
677.710074180934
 20
680.367446483959
 30
0.0
 11
682.433421680936
 21
680.367446483959
 31
0.0
  0
LINE
  5
89DE
330
1A
100
AcDbEntity
  8
外形線
100
AcDbLine
 10
684.030074180935
 20
682.922517261145
 30
0.0
 11
684.030074180935
 21
670.422289761145
 31
0.0
  0
LINE
  5
89DF
330
1A
100
AcDbEntity
  8
細線
 48
10.0
100
AcDbLine
 10
685.130079269586
 20
673.672404761145
 30
0.0
 11
684.030074180935
 21
673.672404761145
 31
0.0
  0
LINE
  5
89E0
330
1A
100
AcDbEntity
  8
細線
 48
10.0
100
AcDbLine
 10
685.130079269586
 20
679.672404761145
 30
0.0
 11
684.030074180935
 21
679.672404761145
 31
0.0
  0
LINE
  5
89E1
330
1A
100
AcDbEntity
  8
外形線
100
AcDbLine
 10
684.030074180935
 20
680.592404761145
 30
0.0
 11
685.130079269586
 21
680.592404761145
 31
0.0
  0
LINE
  5
89E2
330
1A
100
AcDbEntity
  8
外形線
100
AcDbLine
 10
684.030074180935
 20
672.752404761145
 30
0.0
 11
685.130079269586
 21
672.752404761145
 31
0.0
  0
LINE
  5
89E3
330
1A
100
AcDbEntity
  8
外形線
 48
10.0
100
AcDbLine
 10
685.130079269586
 20
542.752404761145
 30
0.0
 11
685.130079269586
 21
550.592404761145
 31
0.0
  0
LINE
  5
89E4
330
1A
100
AcDbEntity
  8
外形線
 48
10.0
100
AcDbLine
 10
685.130079269586
 20
680.592404761145
 30
0.0
 11
685.130079269586
 21
672.752404761145
 31
0.0
  0
CIRCLE
  5
8BDC
330
1A
100
AcDbEntity
  8
細線
100
AcDbCircle
 10
20.860109710196
 20
676.675716949886
 30
0.0
 40
4.0
  0
CIRCLE
  5
8BDD
330
1A
100
AcDbEntity
  8
外形線
100
AcDbCircle
 10
20.860109710196
 20
676.675716949886
 30
0.0
 40
3.0
  0
CIRCLE
  5
8BDE
330
1A
100
AcDbEntity
  8
細線
100
AcDbCircle
 10
85.850554148856
 20
611.667175152179
 30
0.0
 40
4.0
  0
CIRCLE
  5
8BDF
330
1A
100
AcDbEntity
  8
外形線
100
AcDbCircle
 10
85.850554148856
 20
611.667175152179
 30
0.0
 40
3.0
  0
CIRCLE
  5
8BE0
330
1A
100
AcDbEntity
  8
外形線
100
AcDbCircle
 10
20.850554710196
 20
546.675717652179
 30
0.0
 40
3.0
  0
CIRCLE
  5
8BE1
330
1A
100
AcDbEntity
  8
細線
100
AcDbCircle
 10
20.850554710196
 20
546.675717652179
 30
0.0
 40
4.0
  0
CIRCLE
  5
8BE2
330
1A
100
AcDbEntity
  8
細線
100
AcDbCircle
 10
-44.149444728463
 20
611.667175152179
 30
0.0
 40
4.0
  0
CIRCLE
  5
8BE3
330
1A
100
AcDbEntity
  8
外形線
100
AcDbCircle
 10
-44.149444728463
 20
611.667175152179
 30
0.0
 40
3.0
  0
LINE
  5
8CA8
330
1A
100
AcDbEntity
  8
外形線
 48
10.0
100
AcDbLine
 10
28.350794512723
 20
615.809749815112
 30
0.0
 11
28.350794512723
 21
619.127822597335
 31
0.0
  0
LINE
  5
8CA9
330
1A
100
AcDbEntity
  8
外形線
 48
10.0
100
AcDbLine
 10
13.350794512723
 20
615.809749753951
 30
0.0
 11
13.350794512723
 21
619.127822597335
 31
0.0
  0
LINE
  5
8CAA
330
1A
100
AcDbEntity
  8
外形線
 48
10.0
100
AcDbLine
 10
13.350794512723
 20
599.127822597335
 30
0.0
 11
13.350794512723
 21
607.559620964039
 31
0.0
  0
LINE
  5
8CAB
330
1A
100
AcDbEntity
  8
外形線
 48
10.0
100
AcDbLine
 10
28.350794512723
 20
599.127822597335
 30
0.0
 11
28.350794512723
 21
607.627488782313
 31
0.0
  0
LINE
  5
8CAF
330
1A
100
AcDbEntity
  8
外形線
 48
10.0
100
AcDbLine
 10
28.350794512723
 20
619.127822597335
 30
0.0
 11
24.923482912985
 21
619.127822597335
 31
0.0
  0
LINE
  5
8CB0
330
1A
100
AcDbEntity
  8
外形線
 48
10.0
100
AcDbLine
 10
28.350794512723
 20
599.127822597335
 30
0.0
 11
22.278785577904
 21
599.127822597335
 31
0.0
  0
LINE
  5
8CB1
330
1A
100
AcDbEntity
  8
中心線
 48
10.0
100
AcDbLine
 10
33.841172029614
 20
606.977822597335
 30
0.0
 11
24.350794529614
 21
606.977822597335
 31
0.0
  0
LINE
  5
8CB2
330
1A
100
AcDbEntity
  8
外形線
 48
10.0
100
AcDbLine
 10
16.777627599001
 20
619.127822597335
 30
0.0
 11
13.350794512723
 21
619.127822597335
 31
0.0
  0
LINE
  5
8CB3
330
1A
100
AcDbEntity
  8
外形線
 48
10.0
100
AcDbLine
 10
19.422781063369
 20
599.127822597335
 30
0.0
 11
13.350794512723
 21
599.127822597335
 31
0.0
  0
LINE
  5
8CB4
330
1A
100
AcDbEntity
  8
外形線
 48
10.0
100
AcDbLine
 10
29.20036482991
 20
609.977822597335
 30
0.0
 11
32.695792783533
 21
609.977822597335
 31
0.0
  0
LINE
  5
8CB5
330
1A
100
AcDbEntity
  8
外形線
 48
10.0
100
AcDbLine
 10
28.350794512723
 20
603.977822597335
 30
0.0
 11
32.695792783533
 21
603.977822597335
 31
0.0
  0
LINE
  5
8CD3
330
1A
100
AcDbEntity
  8
外形線
 48
10.0
100
AcDbLine
 10
32.695792783533
 20
609.977822597335
 30
0.0
 11
32.695792783533
 21
603.977822597335
 31
0.0
  0
LINE
  5
8CD4
330
1A
100
AcDbEntity
  8
寸法線
 62
     1
 48
10.0
100
AcDbLine
 10
29.430660327836
 20
603.977822597335
 30
0.0
 11
29.430660327836
 21
609.977822597335
 31
0.0
  0
ARC
  5
8D01
330
1A
100
AcDbEntity
  8
細線
 48
10.0
100
AcDbCircle
 10
20.850555255993
 20
611.667106509027
 30
0.0
 40
7.357444235618258
100
AcDbArc
 50
101.191387160412
 51
258.808612839588
  0
LINE
  5
8D02
330
1A
100
AcDbEntity
  8
外形線
100
AcDbLine
 10
22.278576304283
 20
619.384786161894
 30
0.0
 11
28.207999491291
 21
615.96149763454
 31
0.0
  0
LINE
  5
8D03
330
1A
100
AcDbEntity
  8
外形線
100
AcDbLine
 10
28.207999491291
 20
607.39350363454
 30
0.0
 11
28.207999491291
 21
615.96149763454
 31
0.0
  0
LINE
  5
8D04
330
1A
100
AcDbEntity
  8
外形線
100
AcDbLine
 10
22.278576304283
 20
603.970094383215
 30
0.0
 11
28.207999491291
 21
607.39350363454
 31
0.0
  0
ARC
  5
8D05
330
1A
100
AcDbEntity
  8
細線
 48
10.0
100
AcDbCircle
 10
20.850555255993
 20
611.667106509027
 30
0.0
 40
7.357444235618258
100
AcDbArc
 50
281.191685502295
 51
78.808314497705
  0
ARC
  5
8D06
330
1A
100
AcDbEntity
  8
細線
100
AcDbCircle
 10
20.850555255993
 20
611.667175152179
 30
0.0
 40
8.500000000000028
100
AcDbArc
 50
80.32830093249
 51
80.328557913526
  0
ARC
  5
8D07
330
1A
100
AcDbEntity
  8
細線
 48
10.0
100
AcDbCircle
 10
20.850794529614
 20
611.667211432265
 30
0.0
 40
8.518765100363519
100
AcDbArc
 50
279.648557877741
 51
80.351442122259
  0
ARC
  5
8D08
330
1A
100
AcDbEntity
  8
細線
 48
10.0
100
AcDbCircle
 10
20.850794529614
 20
611.667211432265
 30
0.0
 40
8.518765100363519
100
AcDbArc
 50
99.651566304797
 51
260.348433695203
  0
ARC
  5
8D0A
330
1A
100
AcDbEntity
  8
細線
 48
10.0
100
AcDbCircle
 10
20.850555255993
 20
611.667106509027
 30
0.0
 40
12.07296834037686
100
AcDbArc
 50
348.853807464932
 51
83.207008059223
  0
LINE
  5
8D0B
330
1A
100
AcDbEntity
  8
外形線
 48
10.0
100
AcDbLine
 10
19.422571789748
 20
622.915628210769
 30
0.0
 11
10.395057974141
 21
617.703590679215
 31
0.0
  0
LINE
  5
8D0C
330
1A
100
AcDbEntity
  8
外形線
 48
10.0
100
AcDbLine
 10
22.278576304283
 20
622.915606512764
 30
0.0
 11
31.306052537844
 21
617.703590679215
 31
0.0
  0
LINE
  5
8D0D
330
1A
100
AcDbEntity
  8
外形線
 48
10.0
100
AcDbLine
 10
10.395057974141
 20
617.703590679215
 30
0.0
 11
10.395057974141
 21
605.630622338838
 31
0.0
  0
LINE
  5
8D0E
330
1A
100
AcDbEntity
  8
外形線
 48
10.0
100
AcDbLine
 10
31.306052537844
 20
617.703590679215
 30
0.0
 11
31.306052537844
 21
609.977822597335
 31
0.0
  0
LINE
  5
8D0F
330
1A
100
AcDbEntity
  8
外形線
 48
10.0
100
AcDbLine
 10
13.350794512723
 20
603.924127052634
 30
0.0
 11
10.395057974141
 21
605.630622338838
 31
0.0
  0
ARC
  5
8D11
330
1A
100
AcDbEntity
  8
細線
 48
10.0
100
AcDbCircle
 10
20.850555255993
 20
611.667106509027
 30
0.0
 40
10.45549728207695
100
AcDbArc
 50
97.849836725325
 51
224.167733056823
  0
ARC
  5
8D13
330
1A
100
AcDbEntity
  8
細線
 48
10.0
100
AcDbCircle
 10
20.850555255993
 20
611.667106509027
 30
0.0
 40
12.07296834037686
100
AcDbArc
 50
96.79281232337
 51
231.595983419856
  0
ARC
  5
8D14
330
1A
100
AcDbEntity
  8
細線
 48
10.0
100
AcDbCircle
 10
20.850555255993
 20
611.667106509027
 30
0.0
 40
12.07296834037686
100
AcDbArc
 50
308.406914519867
 51
320.438889337772
  0
ARC
  5
8D15
330
1A
100
AcDbEntity
  8
細線
 48
10.0
100
AcDbCircle
 10
20.850555255993
 20
611.667106509027
 30
0.0
 40
10.45549728207695
100
AcDbArc
 50
350.702023495015
 51
82.14995537814
  0
VIEWPORT
  5
2902
330
28FB
100
AcDbEntity
 67
     1
  8
0
 48
10.0
100
AcDbViewport
 10
205.385757446289
 20
143.184346847534
 30
0.0
 40
507.612811327628
 41
302.558075959942
 68
     1
 69
     1
1001
ACAD
1000
MVIEW
1002
{
1070
    16
1010
0.0
1020
0.0
1030
0.0
1010
0.0
1020
0.0
1030
1.0
1040
0.0
1040
302.558075959942
1040
205.385757446289
1040
143.184346847534
1040
50.0
1040
0.0
1040
0.0
1070
     0
1070
   100
1070
     0
1070
     1
1070
     0
1070
     0
1070
     0
1070
     0
1040
0.0
1040
0.0
1040
0.0
1040
10.0
1040
10.0
1040
10.0
1040
10.0
1070
     0
1002
{
1002
}
1002
}
  0
VIEWPORT
  5
2904
330
28FB
100
AcDbEntity
 67
     1
  8
図枠太線
 48
10.0
100
AcDbViewport
 10
204.746305129083
 20
161.396645458131
 30
0.0
 40
400.0
 41
240.0
 68
     2
 69
     2
1001
ACAD
1000
MVIEW
1002
{
1070
    16
1010
0.0
1020
0.0
1030
0.0
1010
0.0
1020
0.0
1030
1.0
1040
0.0
1040
599.999998534488
1040
428.507786938727
1040
467.660869078415
1040
50.0
1040
0.0
1040
0.0
1070
     0
1070
   100
1070
     0
1070
     0
1070
     0
1070
     0
1070
     0
1070
     0
1040
0.0
1040
0.0
1040
0.0
1040
1.0
1040
1.0
1040
0.0
1040
0.0
1070
     0
1002
{
1002
}
1002
}
  0
INSERT
  5
2A59
330
28FB
100
AcDbEntity
 67
     1
  8
図枠太線
100
AcDbBlockReference
  2
A3横用_タイトル
 10
-0.352109406709
 20
-2.129314295396
 30
0.0
  0
MTEXT
  5
2FE5
330
28FB
100
AcDbEntity
 67
     1
  8
寸法線
 48
10.0
100
AcDbMText
 10
363.177813562453
 20
37.101021772108
 30
0.0
 40
5.0
 41
45.27425591701
 71
     1
 72
     5
  1
パドル式\Pレベルスイッチ
  0
MTEXT
  5
2FE6
330
28FB
100
AcDbEntity
 67
     1
  8
寸法線
 48
10.0
100
AcDbMText
 10
312.858533615354
 20
33.854739812749
 30
0.0
 40
7.0
 41
35.987227926891
 71
     1
 72
     5
  1
PRL-F7ED
  0
MTEXT
  5
2FE7
330
28FB
100
AcDbEntity
 67
     1
  8
寸法線
 48
10.0
100
AcDbMText
 10
146.077332112683
 20
14.022357319784
 30
0.0
 40
7.0
 41
12.5019545219
 71
     1
 72
     5
  1
1:2.5
  0
MTEXT
  5
2FEB
102
{ACAD_XDICTIONARY
360
8549
102
}
330
28FB
100
AcDbEntity
 67
     1
  8
寸法線
 48
10.0
100
AcDbMText
 10
341.544198781952
 20
14.917354273555
 30
0.0
 40
8.0
 41
36.402559001308
 71
     1
 72
     5
  1
HR-90004
1001
ACADANNOTATIVE
1000
AnnotativeData
1002
{
1070
     1
1070
     0
1002
}
  0
MTEXT
  5
2FEC
330
28FB
100
AcDbEntity
 67
     1
  8
寸法線
 48
10.0
100
AcDbMText
 10
373.949051752515
 20
48.742699288767
 30
0.0
 40
5.0
 41
33.206838365079
 71
     1
 72
     5
  1
台数   台
  0
MTEXT
  5
4936
102
{ACAD_XDICTIONARY
360
8546
102
}
330
28FB
100
AcDbEntity
 67
     1
  8
寸法線
 48
10.0
100
AcDbMText
 10
174.423592077792
 20
12.151996916646
 30
0.0
 40
5.0
 41
63.606060606061
 71
     1
 72
     5
  1
2015.6.16
1001
ACADANNOTATIVE
1000
AnnotativeData
1002
{
1070
     1
1070
     0
1002
}
  0
MTEXT
  5
4937
330
28FB
100
AcDbEntity
 67
     1
  8
寸法線
 48
10.0
100
AcDbMText
 10
180.969782321733
 20
32.229377230579
 30
0.0
 40
5.0
 41
23.879746689072
 71
     1
 72
     5
  1
ohno
  0
ENDSEC
  0
SECTION
  2
OBJECTS
  0
DICTIONARY
  5
C
330
0
100
AcDbDictionary
  3
ACAD_COLOR
350
2948
  3
ACAD_GROUP
350
D
  3
ACAD_LAYOUT
350
2816
  3
ACAD_MATERIAL
350
2947
  3
ACAD_MLEADERSTYLE
350
7E23
  3
ACAD_MLINESTYLE
350
E
  3
ACAD_PLOTSETTINGS
350
2817
  3
ACAD_SCALELIST
350
7DFD
  3
ACAD_VISUALSTYLE
350
7DE4
  3
ACADDIM
350
3450
  3
ACDBHEADERROUNDTRIPXREC
350
8D19
  3
ACDBVARIABLEDICTIONARY
350
854C
  3
DWGPROPS
350
8D3E
  0
DICTIONARY
  5
8D3F
330
8
100
AcDbDictionary
280
     1
  3
ACAD_XREC_ROUNDTRIP
360
8D40
  0
DICTIONARY
  5
29EA
330
2
100
AcDbDictionary
280
     1
  3
ACAD_LAYERFILTERS
360
2B0C
  3
ACAD_LAYERSTATES
360
29EB
  0
DICTIONARY
  5
8D16
330
840E
100
AcDbDictionary
280
     1
  3
ACDBCONTEXTDATAMANAGER
360
8D17
  0
DICTIONARY
  5
8418
330
8417
100
AcDbDictionary
280
     1
  3
ACDBCONTEXTDATAMANAGER
360
8419
  0
DICTIONARY
  5
841D
330
841C
100
AcDbDictionary
280
     1
  3
ACDBCONTEXTDATAMANAGER
360
841E
  0
DICTIONARY
  5
8424
330
8423
100
AcDbDictionary
280
     1
  3
ACDBCONTEXTDATAMANAGER
360
8425
  0
DICTIONARY
  5
8431
330
8430
100
AcDbDictionary
280
     1
  3
ACDBCONTEXTDATAMANAGER
360
8432
  0
DICTIONARY
  5
8549
330
2FEB
100
AcDbDictionary
280
     1
  3
ACDBCONTEXTDATAMANAGER
360
854A
  0
DICTIONARY
  5
8546
330
4936
100
AcDbDictionary
280
     1
  3
ACDBCONTEXTDATAMANAGER
360
8547
  0
DICTIONARY
  5
2948
102
{ACAD_REACTORS
330
C
102
}
330
C
100
AcDbDictionary
  0
DICTIONARY
  5
D
102
{ACAD_REACTORS
330
C
102
}
330
C
100
AcDbDictionary
  0
DICTIONARY
  5
2816
102
{ACAD_REACTORS
330
C
102
}
330
C
100
AcDbDictionary
  0
DICTIONARY
  5
2947
102
{ACAD_REACTORS
330
C
102
}
330
C
100
AcDbDictionary
  3
BYBLOCK
350
7E20
  3
BYLAYER
350
7E1F
  3
GLOBAL
350
5486
  0
DICTIONARY
  5
7E23
102
{ACAD_REACTORS
330
C
102
}
330
C
100
AcDbDictionary
  3
STANDARD
350
7E24
  0
DICTIONARY
  5
E
102
{ACAD_REACTORS
330
C
102
}
330
C
100
AcDbDictionary
  3
STANDARD
350
13
  0
DICTIONARY
  5
2817
102
{ACAD_REACTORS
330
C
102
}
330
C
100
AcDbDictionary
  0
DICTIONARY
  5
7DFD
102
{ACAD_REACTORS
330
C
102
}
330
C
100
AcDbDictionary
  3
A0
350
7DFE
  3
A1
350
7DFF
  3
A2
350
7E00
  3
A3
350
7E01
  3
A4
350
7E02
  3
A5
350
7E03
  3
A6
350
7E04
  3
A7
350
7E05
  3
A8
350
7E06
  3
A9
350
7E07
  3
B0
350
7E08
  3
B1
350
7E09
  3
B2
350
7E0A
  3
B3
350
7E0B
  3
B4
350
7E0C
  3
B5
350
7E0D
  3
B6
350
7E0E
  3
B7
350
7E0F
  3
B8
350
7E10
  3
B9
350
7E11
  3
C0
350
7E12
  3
C1
350
7E13
  3
C2
350
7E14
  3
C3
350
7E15
  3
C4
350
7E16
  3
C5
350
7E17
  3
C6
350
7E18
  3
C7
350
7E19
  3
C8
350
7E1A
  3
C9
350
7E1B
  3
D0
350
7E1C
  3
D1
350
7E1D
  3
D2
350
7E1E
  0
DICTIONARY
  5
7DE4
102
{ACAD_REACTORS
330
C
102
}
330
C
100
AcDbDictionary
  3
2DWIREFRAME
350
7DE9
  3
BASIC
350
7DEC
  3
BRIGHTEN
350
7DF0
  3
COLORCHANGE
350
7DF4
  3
CONCEPTUAL
350
7DEE
  3
DIM
350
7DEF
  3
EDGECOLOROFF
350
7DF7
  3
FACEPATTERN
350
7DF3
  3
FLAT
350
7DE5
  3
FLATWITHEDGES
350
7DE6
  3
GOURAUD
350
7DE7
  3
GOURAUDWITHEDGES
350
7DE8
  3
HIDDEN
350
7DEB
  3
JITTEROFF
350
7DF5
  3
LINEPATTERN
350
7DF2
  3
OVERHANGOFF
350
7DF6
  3
REALISTIC
350
7DED
  3
SHADED
350
7DFC
  3
SHADED_WITH_EDGES
350
7DFB
  3
SHADES_OF_GRAY
350
7DF8
  3
SKETCHY
350
7DF9
  3
THICKEN
350
7DF1
  3
WIREFRAME
350
7DEA
  3
X-RAY
350
7DFA
  0
XRECORD
  5
3450
102
{ACAD_REACTORS
330
C
102
}
330
C
100
AcDbXrecord
 90
   990106
  3

 60
     0
 61
     0
 62
     1
 63
     3
 64
     0
 65
     0
 66
     0
 67
     3
 68
     1
 69
     0
 70
     0
 71
     0
 72
     0
 40
88.016021699386
170
     0
  0
DICTIONARY
  5
8D19
102
{ACAD_REACTORS
330
C
102
}
330
C
100
AcDbDictionary
  3
CEPSNID
350
8D23
  3
CEPSNTYPE
350
8D22
  3
COLORDICT
350
8D3C
  3
DIMSTYLEDATA
350
8D39
  3
FINGERPRINTGUID
350
8D24
  3
HYPERLINKBASE
350
8D1C
  3
INSUNITS
350
8D21
  3
LAYOUTDICT
350
8D1E
  3
LWETCUNION
350
8D20
  3
MATERIALDICT
350
8D3D
  3
PLOTSETDICT
350
8D1F
  3
PSVPSCALE
350
8D26
  3
PUCSBASE
350
8D29
  3
PUCSORGBACK
350
8D2F
  3
PUCSORGBOTTOM
350
8D2B
  3
PUCSORGFRONT
350
8D2E
  3
PUCSORGLEFT
350
8D2C
  3
PUCSORGRIGHT
350
8D2D
  3
PUCSORGTOP
350
8D2A
  3
PUCSORTHOREF
350
8D27
  3
PUCSORTHOVIEW
350
8D28
  3
STYLESHEET
350
8D1D
  3
TSTACKALIGN
350
8D1A
  3
TSTACKSIZE
350
8D1B
  3
UCSBASE
350
8D32
  3
UCSORGBACK
350
8D38
  3
UCSORGBOTTOM
350
8D34
  3
UCSORGFRONT
350
8D37
  3
UCSORGLEFT
350
8D35
  3
UCSORGRIGHT
350
8D36
  3
UCSORGTOP
350
8D33
  3
UCSORTHOREF
350
8D30
  3
UCSORTHOVIEW
350
8D31
  3
VERSIONGUID
350
8D25
  0
DICTIONARY
  5
854C
102
{ACAD_REACTORS
330
C
102
}
330
C
100
AcDbDictionary
  3
CANNOSCALE
350
854D
  3
CMLEADERSTYLE
350
854F
  3
CTABLESTYLE
350
854E
  3
DIMASSOC
350
8D3A
  3
HIDETEXT
350
8D3B
  3
MSLTSCALE
350
8550
  3
XCLIPFRAME
350
8551
  0
XRECORD
  5
8D3E
102
{ACAD_REACTORS
330
C
102
}
330
C
100
AcDbXrecord
  1
DWGPROPS COOKIE
  2

  3

  4

  6

  7

  8
y-ohno
  9

300
=
301
=
302
=
303
=
304
=
305
=
306
=
307
=
308
=
309
=
 40
0.0
 41
2450576.222302431
 42
2457193.284956296
  1

 90
        0
  0
XRECORD
  5
8D40
102
{ACAD_REACTORS
330
8D3F
102
}
330
8D3F
100
AcDbXrecord
102
VTR_0.000_0.000_1.000_1.000_VISUALSTYLE
340
7DE9
102
VTR_0.000_0.000_1.000_1.000_GRIDDISPLAY
 70
     3
102
VTR_0.000_0.000_1.000_1.000_GRIDMAJOR
 70
     5
102
VTR_0.000_0.000_1.000_1.000_DEFAULTLIGHTING
280
     1
102
VTR_0.000_0.000_1.000_1.000_DEFAULTLIGHTINGTYPE
 70
     1
102
VTR_0.000_0.000_1.000_1.000_BRIGHTNESS
141
0.0
102
VTR_0.000_0.000_1.000_1.000_CONTRAST
142
0.0
  0
DICTIONARY
  5
2B0C
102
{ACAD_REACTORS
330
29EA
102
}
330
29EA
100
AcDbDictionary
  0
DICTIONARY
  5
29EB
102
{ACAD_REACTORS
330
29EA
102
}
330
29EA
100
AcDbDictionary
  0
DICTIONARY
  5
8D17
102
{ACAD_REACTORS
330
8D16
102
}
330
8D16
100
AcDbDictionary
  3
ACDB_ANNOTATIONSCALES
350
8D18
  0
DICTIONARY
  5
8419
102
{ACAD_REACTORS
330
8418
102
}
330
8418
100
AcDbDictionary
  3
ACDB_ANNOTATIONSCALES
350
841A
  0
DICTIONARY
  5
841E
102
{ACAD_REACTORS
330
841D
102
}
330
841D
100
AcDbDictionary
  3
ACDB_ANNOTATIONSCALES
350
841F
  0
DICTIONARY
  5
8425
102
{ACAD_REACTORS
330
8424
102
}
330
8424
100
AcDbDictionary
  3
ACDB_ANNOTATIONSCALES
350
8426
  0
DICTIONARY
  5
8432
102
{ACAD_REACTORS
330
8431
102
}
330
8431
100
AcDbDictionary
  3
ACDB_ANNOTATIONSCALES
350
8433
  0
DICTIONARY
  5
854A
102
{ACAD_REACTORS
330
8549
102
}
330
8549
100
AcDbDictionary
  3
ACDB_ANNOTATIONSCALES
350
854B
  0
DICTIONARY
  5
8547
102
{ACAD_REACTORS
330
8546
102
}
330
8546
100
AcDbDictionary
  3
ACDB_ANNOTATIONSCALES
350
8548
  0
MATERIAL
  5
7E20
102
{ACAD_REACTORS
330
2947
102
}
102
{ACAD_XDICTIONARY
360
8D45
102
}
330
2947
100
AcDbMaterial
  1
BYBLOCK
  0
MATERIAL
  5
7E1F
102
{ACAD_REACTORS
330
2947
102
}
102
{ACAD_XDICTIONARY
360
8D43
102
}
330
2947
100
AcDbMaterial
  1
BYLAYER
  0
MATERIAL
  5
5486
102
{ACAD_REACTORS
330
2947
102
}
102
{ACAD_XDICTIONARY
360
8D41
102
}
330
2947
100
AcDbMaterial
  1
GLOBAL
  0
ACAD_PROXY_OBJECT
  5
7E24
102
{ACAD_REACTORS
330
7E23
102
}
330
7E23
100
AcDbProxyObject
 90
      499
 91
      508
 93
      610
310
40901902A4063FBFFFFFE0000000000000020400000000000020404214DD185B99185C990000000000000104090141901A00000000000004100000000000000041025764000000000000039000
340
14
340
0
340
10
340
0
 94
        0
1001
ACAD_MLEADERVER
1070
     2
  0
MLINESTYLE
  5
13
102
{ACAD_REACTORS
330
E
102
}
330
E
100
AcDbMlineStyle
  2
STANDARD
 70
     0
  3

 62
     0
 51
90.0
 52
90.0
 71
     2
 49
0.5
 62
   256
  6
BYLAYER
 49
-0.5
 62
   256
  6
BYLAYER
  0
ACAD_PROXY_OBJECT
  5
7DFE
102
{ACAD_REACTORS
330
7DFD
102
}
330
7DFD
100
AcDbProxyObject
 90
      499
 91
      506
 93
       41
310
903313A31580
  0
ACAD_PROXY_OBJECT
  5
7DFF
102
{ACAD_REACTORS
330
7DFD
102
}
330
7DFD
100
AcDbProxyObject
 90
      499
 91
      506
 93
      105
310
903313A324000000000000004000
  0
ACAD_PROXY_OBJECT
  5
7E00
102
{ACAD_REACTORS
330
7DFD
102
}
330
7DFD
100
AcDbProxyObject
 90
      499
 91
      506
 93
      105
310
903313A344000000000000104000
  0
ACAD_PROXY_OBJECT
  5
7E01
102
{ACAD_REACTORS
330
7DFD
102
}
330
7DFD
100
AcDbProxyObject
 90
      499
 91
      506
 93
      105
310
903313A354000000000000144000
  0
ACAD_PROXY_OBJECT
  5
7E02
102
{ACAD_REACTORS
330
7DFD
102
}
330
7DFD
100
AcDbProxyObject
 90
      499
 91
      506
 93
      105
310
903313A384000000000000204000
  0
ACAD_PROXY_OBJECT
  5
7E03
102
{ACAD_REACTORS
330
7DFD
102
}
330
7DFD
100
AcDbProxyObject
 90
      499
 91
      506
 93
      113
310
904313A31304000000000000244000
  0
ACAD_PROXY_OBJECT
  5
7E04
102
{ACAD_REACTORS
330
7DFD
102
}
330
7DFD
100
AcDbProxyObject
 90
      499
 91
      506
 93
      113
310
904313A31364000000000000304000
  0
ACAD_PROXY_OBJECT
  5
7E05
102
{ACAD_REACTORS
330
7DFD
102
}
330
7DFD
100
AcDbProxyObject
 90
      499
 91
      506
 93
      113
310
904313A32304000000000000344000
  0
ACAD_PROXY_OBJECT
  5
7E06
102
{ACAD_REACTORS
330
7DFD
102
}
330
7DFD
100
AcDbProxyObject
 90
      499
 91
      506
 93
      113
310
904313A333040000000000003E4000
  0
ACAD_PROXY_OBJECT
  5
7E07
102
{ACAD_REACTORS
330
7DFD
102
}
330
7DFD
100
AcDbProxyObject
 90
      499
 91
      506
 93
      113
310
904313A34304000000000000444000
  0
ACAD_PROXY_OBJECT
  5
7E08
102
{ACAD_REACTORS
330
7DFD
102
}
330
7DFD
100
AcDbProxyObject
 90
      499
 91
      506
 93
      113
310
904313A35304000000000000494000
  0
ACAD_PROXY_OBJECT
  5
7E09
102
{ACAD_REACTORS
330
7DFD
102
}
330
7DFD
100
AcDbProxyObject
 90
      499
 91
      506
 93
      121
310
905313A3130304000000000000594000
  0
ACAD_PROXY_OBJECT
  5
7E0A
102
{ACAD_REACTORS
330
7DFD
102
}
330
7DFD
100
AcDbProxyObject
 90
      499
 91
      506
 93
      105
310
903323A310000000000000010100
  0
ACAD_PROXY_OBJECT
  5
7E0B
102
{ACAD_REACTORS
330
7DFD
102
}
330
7DFD
100
AcDbProxyObject
 90
      499
 91
      506
 93
      105
310
903343A310000000000000410100
  0
ACAD_PROXY_OBJECT
  5
7E0C
102
{ACAD_REACTORS
330
7DFD
102
}
330
7DFD
100
AcDbProxyObject
 90
      499
 91
      506
 93
      105
310
903383A310000000000000810100
  0
ACAD_PROXY_OBJECT
  5
7E0D
102
{ACAD_REACTORS
330
7DFD
102
}
330
7DFD
100
AcDbProxyObject
 90
      499
 91
      506
 93
      113
310
90431303A310000000000000910100
  0
ACAD_PROXY_OBJECT
  5
7E0E
102
{ACAD_REACTORS
330
7DFD
102
}
330
7DFD
100
AcDbProxyObject
 90
      499
 91
      506
 93
      121
310
9053130303A310000000000001650100
  0
ACAD_PROXY_OBJECT
  5
7E0F
102
{ACAD_REACTORS
330
7DFD
102
}
330
7DFD
100
AcDbProxyObject
 90
      499
 91
      506
 93
      257
310
90E312F31323822203D2031272D3022000000000000200FC000000000000284000
  0
ACAD_PROXY_OBJECT
  5
7E10
102
{ACAD_REACTORS
330
7DFD
102
}
330
7DFD
100
AcDbProxyObject
 90
      499
 91
      506
 93
      249
310
90D312F363422203D2031272D3022000000000000240FC000000000000284000
  0
ACAD_PROXY_OBJECT
  5
7E11
102
{ACAD_REACTORS
330
7DFD
102
}
330
7DFD
100
AcDbProxyObject
 90
      499
 91
      506
 93
      249
310
90D312F333222203D2031272D3022000000000000280FC000000000000284000
  0
ACAD_PROXY_OBJECT
  5
7E12
102
{ACAD_REACTORS
330
7DFD
102
}
330
7DFD
100
AcDbProxyObject
 90
      499
 91
      506
 93
      249
310
90D312F313622203D2031272D30220000000000002C0FC000000000000284000
  0
ACAD_PROXY_OBJECT
  5
7E13
102
{ACAD_REACTORS
330
7DFD
102
}
330
7DFD
100
AcDbProxyObject
 90
      499
 91
      506
 93
      249
310
90D332F333222203D2031272D30220000000000002E0FC000000000000284000
  0
ACAD_PROXY_OBJECT
  5
7E14
102
{ACAD_REACTORS
330
7DFD
102
}
330
7DFD
100
AcDbProxyObject
 90
      499
 91
      506
 93
      241
310
90C312F3822203D2031272D3022000000000000300FC000000000000284000
  0
ACAD_PROXY_OBJECT
  5
7E15
102
{ACAD_REACTORS
330
7DFD
102
}
330
7DFD
100
AcDbProxyObject
 90
      499
 91
      506
 93
      249
310
90D332F313622203D2031272D3022000000000000320FC000000000000284000
  0
ACAD_PROXY_OBJECT
  5
7E16
102
{ACAD_REACTORS
330
7DFD
102
}
330
7DFD
100
AcDbProxyObject
 90
      499
 91
      506
 93
      241
310
90C312F3422203D2031272D3022000000000000340FC000000000000284000
  0
ACAD_PROXY_OBJECT
  5
7E17
102
{ACAD_REACTORS
330
7DFD
102
}
330
7DFD
100
AcDbProxyObject
 90
      499
 91
      506
 93
      241
310
90C332F3822203D2031272D3022000000000000360FC000000000000284000
  0
ACAD_PROXY_OBJECT
  5
7E18
102
{ACAD_REACTORS
330
7DFD
102
}
330
7DFD
100
AcDbProxyObject
 90
      499
 91
      506
 93
      241
310
90C312F3222203D2031272D3022000000000000380FC000000000000284000
  0
ACAD_PROXY_OBJECT
  5
7E19
102
{ACAD_REACTORS
330
7DFD
102
}
330
7DFD
100
AcDbProxyObject
 90
      499
 91
      506
 93
      241
310
90C332F3422203D2031272D30220000000000003A0FC000000000000284000
  0
ACAD_PROXY_OBJECT
  5
7E1A
102
{ACAD_REACTORS
330
7DFD
102
}
330
7DFD
100
AcDbProxyObject
 90
      499
 91
      506
 93
      161
310
90A3122203D2031272D30224000000000000284000
  0
ACAD_PROXY_OBJECT
  5
7E1B
102
{ACAD_REACTORS
330
7DFD
102
}
330
7DFD
100
AcDbProxyObject
 90
      499
 91
      506
 93
      257
310
90E312D312F3222203D2031272D30220000000000003E0FC000000000000284000
  0
ACAD_PROXY_OBJECT
  5
7E1C
102
{ACAD_REACTORS
330
7DFD
102
}
330
7DFD
100
AcDbProxyObject
 90
      499
 91
      506
 93
      225
310
90A3322203D2031272D302200000000000002100000000000000284000
  0
ACAD_PROXY_OBJECT
  5
7E1D
102
{ACAD_REACTORS
330
7DFD
102
}
330
7DFD
100
AcDbProxyObject
 90
      499
 91
      506
 93
      225
310
90A3622203D2031272D302200000000000006100000000000000284000
  0
ACAD_PROXY_OBJECT
  5
7E1E
102
{ACAD_REACTORS
330
7DFD
102
}
330
7DFD
100
AcDbProxyObject
 90
      499
 91
      506
 93
      249
310
90D31272D3022203D2031272D30220000000000000A100000000000000284000
  0
ACAD_PROXY_OBJECT
  5
7DE9
102
{ACAD_REACTORS
330
7DE4
102
}
330
7DE4
100
AcDbProxyObject
 90
      499
 91
      505
 93
      436
310
42CC9915DA5C99599C985B595049028333333333333E33F0000000000000F90107901411070040501600405405064090741402480A0340
1001
ACAD
1000
AcDbSavedByObjectVersion
1070
     0
  0
ACAD_PROXY_OBJECT
  5
7DEC
102
{ACAD_REACTORS
330
7DE4
102
}
330
7DE4
100
AcDbProxyObject
 90
      499
 91
      505
 93
      388
310
4150985CDA58D07406404333333333333E33F0000000000000F90107A41107004050150841D405064090741402480A0350
1001
ACAD
1000
AcDbSavedByObjectVersion
1070
     0
  0
ACAD_PROXY_OBJECT
  5
7DF0
102
{ACAD_REACTORS
330
7DE4
102
}
330
7DE4
100
AcDbProxyObject
 90
      499
 91
      505
 93
      428
310
42109C9A59DA1D195B90C409028333333333333E33F0000000000000F9010790141107004050150841D405064090741402480A029950
1001
ACAD
1000
AcDbSavedByObjectVersion
1070
     0
  0
ACAD_PROXY_OBJECT
  5
7DF4
102
{ACAD_REACTORS
330
7DE4
102
}
330
7DE4
100
AcDbProxyObject
 90
      499
 91
      505
 93
      452
310
42D0DBDB1BDC90DA185B99D95104090240C333333333333E33F0000000000000F90108901411070040501508421405064090741402480A0350
1001
ACAD
1000
AcDbSavedByObjectVersion
1070
     0
  0
ACAD_PROXY_OBJECT
  5
7DEE
102
{ACAD_REACTORS
330
7DE4
102
}
330
7DE4
100
AcDbProxyObject
 90
      499
 91
      505
 93
      500
310
4290DBDB98D95C1D1D585B10940D028333333333333E33F0000000000000F90107902409070040501000000000018199010841D405064090740C02480A0340
1001
ACAD
1000
AcDbSavedByObjectVersion
1070
     0
  0
ACAD_PROXY_OBJECT
  5
7DEF
102
{ACAD_REACTORS
330
7DE4
102
}
330
7DE4
100
AcDbProxyObject
 90
      499
 91
      505
 93
      412
310
40D11A5B50B409028333333333333E33F0000000000000F9010790141107004050150841D405064090741402480A02677FFFFFD0
1001
ACAD
1000
AcDbSavedByObjectVersion
1070
     0
  0
ACAD_PROXY_OBJECT
  5
7DF7
102
{ACAD_REACTORS
330
7DE4
102
}
330
7DE4
100
AcDbProxyObject
 90
      499
 91
      505
 93
      452
310
43115919D950DBDB1BDC93D999916409028333333333333E33F0000000000000F9010790141107004050150841D405064090741402480A0350
1001
ACAD
1000
AcDbSavedByObjectVersion
1070
     0
  0
ACAD_PROXY_OBJECT
  5
7DF3
102
{ACAD_REACTORS
330
7DE4
102
}
330
7DE4
100
AcDbProxyObject
 90
      499
 91
      505
 93
      444
310
42D19858D95C185D1D195C9B90F409028333333333333E33F0000000000000F9010790141107004050150841D405064090741402480A0350
1001
ACAD
1000
AcDbSavedByObjectVersion
1070
     0
  0
ACAD_PROXY_OBJECT
  5
7DE5
102
{ACAD_REACTORS
330
7DE4
102
}
330
7DE4
100
AcDbProxyObject
 90
      499
 91
      505
 93
      380
310
41119B185D240901404333333333333E33F0000000000000F9010740A907004050150841D405064090741402480A1B50
1001
ACAD
1000
AcDbSavedByObjectVersion
1070
     0
  0
ACAD_PROXY_OBJECT
  5
7DE6
102
{ACAD_REACTORS
330
7DE4
102
}
330
7DE4
100
AcDbProxyObject
 90
      499
 91
      505
 93
      468
310
43519B185D15DA5D1A115919D95CD0140901404333333333333E33F0000000000000F90107409019070040501600405405064090741402480A1B50
1001
ACAD
1000
AcDbSavedByObjectVersion
1070
     0
  0
ACAD_PROXY_OBJECT
  5
7DE7
102
{ACAD_REACTORS
330
7DE4
102
}
330
7DE4
100
AcDbProxyObject
 90
      499
 91
      505
 93
      404
310
41D1DBDD5C985D5910240902404333333333333E33F0000000000000F9010740A9070040501641D405064090741402480A1B50
1001
ACAD
1000
AcDbSavedByObjectVersion
1070
     0
  0
ACAD_PROXY_OBJECT
  5
7DE8
102
{ACAD_REACTORS
330
7DE4
102
}
330
7DE4
100
AcDbProxyObject
 90
      499
 91
      505
 93
      492
310
4411DBDD5C985D5915DA5D1A115919D95CD0340902404333333333333E33F0000000000000F90107409019070040501600405405064090741402480A1B50
1001
ACAD
1000
AcDbSavedByObjectVersion
1070
     0
  0
ACAD_PROXY_OBJECT
  5
7DEB
102
{ACAD_REACTORS
330
7DE4
102
}
330
7DE4
100
AcDbProxyObject
 90
      499
 91
      505
 93
      476
310
41921A5919195B90640502408333333333333E33F0000000000000F901079024090700405020000000000001110200405405064090740C02480A0340
1001
ACAD
1000
AcDbSavedByObjectVersion
1070
     0
  0
ACAD_PROXY_OBJECT
  5
7DF5
102
{ACAD_REACTORS
330
7DE4
102
}
330
7DE4
100
AcDbProxyObject
 90
      499
 91
      505
 93
      428
310
42529A5D1D195C93D999914409028333333333333E33F0000000000000F9010790141107004050150A41D405064090741402480A0350
1001
ACAD
1000
AcDbSavedByObjectVersion
1070
     0
  0
ACAD_PROXY_OBJECT
  5
7DF2
102
{ACAD_REACTORS
330
7DE4
102
}
330
7DE4
100
AcDbProxyObject
 90
      499
 91
      505
 93
      444
310
42D31A5B995C185D1D195C9B90E409028333333333333E33F0000000000000F9010790141107004050750841D405064090741402483A0350
1001
ACAD
1000
AcDbSavedByObjectVersion
1070
     0
  0
ACAD_PROXY_OBJECT
  5
7DF6
102
{ACAD_REACTORS
330
7DE4
102
}
330
7DE4
100
AcDbProxyObject
 90
      499
 91
      505
 93
      444
310
42D3DD995C9A185B99D3D999915409028333333333333E33F0000000000000F9010790141107004050150941D405064090741402480A0350
1001
ACAD
1000
AcDbSavedByObjectVersion
1070
     0
  0
ACAD_PROXY_OBJECT
  5
7DED
102
{ACAD_REACTORS
330
7DE4
102
}
330
7DE4
100
AcDbProxyObject
 90
      499
 91
      505
 93
      428
310
425499585B1A5CDD1A58D08409038333333333333E33F0000000000000F9010740A907004050150800405405064090740C02480A1B40
1001
ACAD
1000
AcDbSavedByObjectVersion
1070
     0
  0
ACAD_PROXY_OBJECT
  5
7DFC
102
{ACAD_REACTORS
330
7DE4
102
}
330
7DE4
100
AcDbProxyObject
 90
      499
 91
      505
 93
      420
310
4194DA1859195911B40902404333333333333E33F0000000000000F9010740A41107004050150800405405064090840C02480A0B40
1001
ACAD
1000
AcDbSavedByObjectVersion
1070
     0
  0
ACAD_PROXY_OBJECT
  5
7DFB
102
{ACAD_REACTORS
330
7DE4
102
}
330
7DE4
100
AcDbProxyObject
 90
      499
 91
      505
 93
      516
310
4454DA18591959081DDA5D1A08195919D95CD1A40902404333333333333E33F0000000000000F901074090142907004050250800405405064090740C02480A0B40
1001
ACAD
1000
AcDbSavedByObjectVersion
1070
     0
  0
ACAD_PROXY_OBJECT
  5
7DF8
102
{ACAD_REACTORS
330
7DE4
102
}
330
7DE4
100
AcDbProxyObject
 90
      499
 91
      505
 93
      532
310
4394DA1859195CC81BD98811DC985E5174090240C333333333333E33F0000000000000F901079024090741D01000000000000111010841D405064090740C02480A0340
1001
ACAD
1000
AcDbSavedByObjectVersion
1070
     0
  0
ACAD_PROXY_OBJECT
  5
7DF9
102
{ACAD_REACTORS
330
7DE4
102
}
330
7DE4
100
AcDbProxyObject
 90
      499
 91
      505
 93
      476
310
41D4DAD95D18DA1E51840502408333333333333E33F0000000000000F901079024090741D01000000000000111010B41D405064090741802480A0340
1001
ACAD
1000
AcDbSavedByObjectVersion
1070
     0
  0
ACAD_PROXY_OBJECT
  5
7DF1
102
{ACAD_REACTORS
330
7DE4
102
}
330
7DE4
100
AcDbProxyObject
 90
      499
 91
      505
 93
      412
310
41D51A1A58DAD95B90D409028333333333333E33F0000000000000F9010790141107004050150C41D405064090741402480A0350
1001
ACAD
1000
AcDbSavedByObjectVersion
1070
     0
  0
ACAD_PROXY_OBJECT
  5
7DEA
102
{ACAD_REACTORS
330
7DE4
102
}
330
7DE4
100
AcDbProxyObject
 90
      499
 91
      505
 93
      420
310
4255DA5C99599C985B595059028333333333333E33F0000000000000F90107901411070040501600405405064090740C02480A0340
1001
ACAD
1000
AcDbSavedByObjectVersion
1070
     0
  0
ACAD_PROXY_OBJECT
  5
7DFA
102
{ACAD_REACTORS
330
7DE4
102
}
330
7DE4
100
AcDbProxyObject
 90
      499
 91
      505
 93
      404
310
41560B54985E51940902404000000000000E03F0000000000000F9010740501907004050150841D405064090740C02480A1B40
1001
ACAD
1000
AcDbSavedByObjectVersion
1070
     0
  0
XRECORD
  5
8D23
102
{ACAD_REACTORS
330
8D19
102
}
330
8D19
100
AcDbXrecord
340
0
  0
XRECORD
  5
8D22
102
{ACAD_REACTORS
330
8D19
102
}
330
8D19
100
AcDbXrecord
 90
        0
  0
XRECORD
  5
8D3C
102
{ACAD_REACTORS
330
8D19
102
}
330
8D19
100
AcDbXrecord
340
2948
  0
XRECORD
  5
8D39
102
{ACAD_REACTORS
330
8D19
102
}
330
8D19
100
AcDbXrecord
1000
DSTYLE
1002
{
1070
   171
 70
     2
1070
   143
 40
0.0394
1070
   274
 70
     2
1070
    41
 40
6.0
1070
   342
340
2AF4
1070
   271
 70
     1
1070
   278
 70
    46
1070
   341
340
2AF4
1070
   272
 70
     1
1070
    48
 40
0.1
1070
   283
 70
     1
1070
    47
 40
0.1
1070
   145
 40
1.0
1070
   340
340
10
1070
   140
 40
8.0
1070
   284
 70
     0
1002
}
  0
XRECORD
  5
8D24
102
{ACAD_REACTORS
330
8D19
102
}
330
8D19
100
AcDbXrecord
  1
{23698909-1D67-4744-B0E2-8DE11E3ED422}
  0
XRECORD
  5
8D1C
102
{ACAD_REACTORS
330
8D19
102
}
330
8D19
100
AcDbXrecord
  1

  0
XRECORD
  5
8D21
102
{ACAD_REACTORS
330
8D19
102
}
330
8D19
100
AcDbXrecord
 90
        0
  0
XRECORD
  5
8D1E
102
{ACAD_REACTORS
330
8D19
102
}
330
8D19
100
AcDbXrecord
340
2816
  0
XRECORD
  5
8D20
102
{ACAD_REACTORS
330
8D19
102
}
330
8D19
100
AcDbXrecord
 90
    10781
  0
XRECORD
  5
8D3D
102
{ACAD_REACTORS
330
8D19
102
}
330
8D19
100
AcDbXrecord
340
2947
  0
XRECORD
  5
8D1F
102
{ACAD_REACTORS
330
8D19
102
}
330
8D19
100
AcDbXrecord
340
2817
  0
XRECORD
  5
8D26
102
{ACAD_REACTORS
330
8D19
102
}
330
8D19
100
AcDbXrecord
 40
0.25
  0
XRECORD
  5
8D29
102
{ACAD_REACTORS
330
8D19
102
}
330
8D19
100
AcDbXrecord
340
0
  0
XRECORD
  5
8D2F
102
{ACAD_REACTORS
330
8D19
102
}
330
8D19
100
AcDbXrecord
 10
0.0
 20
0.0
 30
0.0
  0
XRECORD
  5
8D2B
102
{ACAD_REACTORS
330
8D19
102
}
330
8D19
100
AcDbXrecord
 10
0.0
 20
0.0
 30
0.0
  0
XRECORD
  5
8D2E
102
{ACAD_REACTORS
330
8D19
102
}
330
8D19
100
AcDbXrecord
 10
0.0
 20
0.0
 30
0.0
  0
XRECORD
  5
8D2C
102
{ACAD_REACTORS
330
8D19
102
}
330
8D19
100
AcDbXrecord
 10
0.0
 20
0.0
 30
0.0
  0
XRECORD
  5
8D2D
102
{ACAD_REACTORS
330
8D19
102
}
330
8D19
100
AcDbXrecord
 10
0.0
 20
0.0
 30
0.0
  0
XRECORD
  5
8D2A
102
{ACAD_REACTORS
330
8D19
102
}
330
8D19
100
AcDbXrecord
 10
0.0
 20
0.0
 30
0.0
  0
XRECORD
  5
8D27
102
{ACAD_REACTORS
330
8D19
102
}
330
8D19
100
AcDbXrecord
340
0
  0
XRECORD
  5
8D28
102
{ACAD_REACTORS
330
8D19
102
}
330
8D19
100
AcDbXrecord
 70
     0
  0
XRECORD
  5
8D1D
102
{ACAD_REACTORS
330
8D19
102
}
330
8D19
100
AcDbXrecord
  1

  0
XRECORD
  5
8D1A
102
{ACAD_REACTORS
330
8D19
102
}
330
8D19
100
AcDbXrecord
 90
        1
  0
XRECORD
  5
8D1B
102
{ACAD_REACTORS
330
8D19
102
}
330
8D19
100
AcDbXrecord
 90
       70
  0
XRECORD
  5
8D32
102
{ACAD_REACTORS
330
8D19
102
}
330
8D19
100
AcDbXrecord
340
0
  0
XRECORD
  5
8D38
102
{ACAD_REACTORS
330
8D19
102
}
330
8D19
100
AcDbXrecord
 10
0.0
 20
0.0
 30
0.0
  0
XRECORD
  5
8D34
102
{ACAD_REACTORS
330
8D19
102
}
330
8D19
100
AcDbXrecord
 10
0.0
 20
0.0
 30
0.0
  0
XRECORD
  5
8D37
102
{ACAD_REACTORS
330
8D19
102
}
330
8D19
100
AcDbXrecord
 10
0.0
 20
0.0
 30
0.0
  0
XRECORD
  5
8D35
102
{ACAD_REACTORS
330
8D19
102
}
330
8D19
100
AcDbXrecord
 10
0.0
 20
0.0
 30
0.0
  0
XRECORD
  5
8D36
102
{ACAD_REACTORS
330
8D19
102
}
330
8D19
100
AcDbXrecord
 10
0.0
 20
0.0
 30
0.0
  0
XRECORD
  5
8D33
102
{ACAD_REACTORS
330
8D19
102
}
330
8D19
100
AcDbXrecord
 10
0.0
 20
0.0
 30
0.0
  0
XRECORD
  5
8D30
102
{ACAD_REACTORS
330
8D19
102
}
330
8D19
100
AcDbXrecord
340
0
  0
XRECORD
  5
8D31
102
{ACAD_REACTORS
330
8D19
102
}
330
8D19
100
AcDbXrecord
 70
     0
  0
XRECORD
  5
8D25
102
{ACAD_REACTORS
330
8D19
102
}
330
8D19
100
AcDbXrecord
  1
{E447DBA7-6AC3-4B2A-9427-150AE05E5C01}
  0
DICTIONARYVAR
  5
854D
102
{ACAD_REACTORS
330
854C
102
}
330
854C
100
DictionaryVariables
280
     0
  1
1:1
  0
DICTIONARYVAR
  5
854F
102
{ACAD_REACTORS
330
854C
102
}
330
854C
100
DictionaryVariables
280
     0
  1
Standard
  0
DICTIONARYVAR
  5
854E
102
{ACAD_REACTORS
330
854C
102
}
330
854C
100
DictionaryVariables
280
     0
  1
Standard
  0
DICTIONARYVAR
  5
8D3A
102
{ACAD_REACTORS
330
854C
102
}
330
854C
100
DictionaryVariables
280
     0
  1
1
  0
DICTIONARYVAR
  5
8D3B
102
{ACAD_REACTORS
330
854C
102
}
330
854C
100
DictionaryVariables
280
     0
  1
0
  0
DICTIONARYVAR
  5
8550
102
{ACAD_REACTORS
330
854C
102
}
330
854C
100
DictionaryVariables
280
     0
  1
0
  0
DICTIONARYVAR
  5
8551
102
{ACAD_REACTORS
330
854C
102
}
330
854C
100
DictionaryVariables
280
     0
  1
0
  0
DICTIONARY
  5
8D18
102
{ACAD_REACTORS
330
8D17
102
}
330
8D17
100
AcDbDictionary
  0
DICTIONARY
  5
841A
102
{ACAD_REACTORS
330
8419
102
}
330
8419
100
AcDbDictionary
  0
DICTIONARY
  5
841F
102
{ACAD_REACTORS
330
841E
102
}
330
841E
100
AcDbDictionary
  0
DICTIONARY
  5
8426
102
{ACAD_REACTORS
330
8425
102
}
330
8425
100
AcDbDictionary
  0
DICTIONARY
  5
8433
102
{ACAD_REACTORS
330
8432
102
}
330
8432
100
AcDbDictionary
  0
DICTIONARY
  5
854B
102
{ACAD_REACTORS
330
854A
102
}
330
854A
100
AcDbDictionary
  0
DICTIONARY
  5
8548
102
{ACAD_REACTORS
330
8547
102
}
330
8547
100
AcDbDictionary
  0
DICTIONARY
  5
8D45
330
7E20
100
AcDbDictionary
280
     1
  3
ACAD_XREC_ROUNDTRIP
360
8D46
  0
DICTIONARY
  5
8D43
330
7E1F
100
AcDbDictionary
280
     1
  3
ACAD_XREC_ROUNDTRIP
360
8D44
  0
DICTIONARY
  5
8D41
330
5486
100
AcDbDictionary
280
     1
  3
ACAD_XREC_ROUNDTRIP
360
8D42
  0
XRECORD
  5
8D46
102
{ACAD_REACTORS
330
8D45
102
}
330
8D45
100
AcDbXrecord
102
MATERIAL
148
0.0
149
0.0
149
0.0
 93
        0
 94
      127
282
     0
 72
     1
 77
     1
171
     1
175
     1
179
     1
273
     0
  0
XRECORD
  5
8D44
102
{ACAD_REACTORS
330
8D43
102
}
330
8D43
100
AcDbXrecord
102
MATERIAL
148
0.0
149
0.0
149
0.0
 93
        0
 94
      127
282
     0
 72
     1
 77
     1
171
     1
175
     1
179
     1
273
     0
  0
XRECORD
  5
8D42
102
{ACAD_REACTORS
330
8D41
102
}
330
8D41
100
AcDbXrecord
102
MATERIAL
148
0.0
149
0.0
149
0.0
 93
        0
 94
      127
282
     0
 72
     1
 77
     1
171
     1
175
     1
179
     1
273
     0
  0
ENDSEC
  0
EOF
