  0
SECTION
  2
HEADER
  9
$ACADVER
  1
AC1014
  9
$ACADMAINTVER
 70
     9
  9
$DWGCODEPAGE
  3
ANSI_932
  9
$INSBASE
 10
0.0
 20
0.0
 30
0.0
  9
$EXTMIN
 10
198.289521774709
 20
239.240959978185
 30
0.0
  9
$EXTMAX
 10
940.042724139502
 20
697.359770751399
 30
0.0
  9
$LIMMIN
 10
-360.747566795242
 20
4.457354754526
  9
$LIMMAX
 10
-162.153696144267
 20
287.675440264018
  9
$ORTHOMODE
 70
     0
  9
$REGENMODE
 70
     1
  9
$FILLMODE
 70
     1
  9
$QTEXTMODE
 70
     0
  9
$MIRRTEXT
 70
     1
  9
$DRAGMODE
 70
     2
  9
$LTSCALE
 40
1.0
  9
$OSMODE
 70
    32
  9
$ATTMODE
 70
     1
  9
$TEXTSIZE
 40
2.333873885063
  9
$TRACEWID
 40
1.0
  9
$TEXTSTYLE
  7
STANDARD
  9
$CLAYER
  8
寸法線
  9
$CELTYPE
  6
BYLAYER
  9
$CECOLOR
 62
     1
  9
$CELTSCALE
 40
10.0
  9
$DELOBJ
 70
     1
  9
$DISPSILH
 70
     0
  9
$DIMSCALE
 40
1.0
  9
$DIMASZ
 40
6.0
  9
$DIMEXO
 40
0.625
  9
$DIMDLI
 40
3.75
  9
$DIMRND
 40
0.0
  9
$DIMDLE
 40
0.0
  9
$DIMEXE
 40
1.25
  9
$DIMTP
 40
0.1
  9
$DIMTM
 40
0.1
  9
$DIMTXT
 40
5.0
  9
$DIMCEN
 40
2.5
  9
$DIMTSZ
 40
0.0
  9
$DIMTOL
 70
     0
  9
$DIMLIM
 70
     0
  9
$DIMTIH
 70
     0
  9
$DIMTOH
 70
     0
  9
$DIMSE1
 70
     0
  9
$DIMSE2
 70
     0
  9
$DIMTAD
 70
     1
  9
$DIMZIN
 70
     8
  9
$DIMBLK
  1
OPEN30
  9
$DIMASO
 70
     1
  9
$DIMSHO
 70
     1
  9
$DIMPOST
  1

  9
$DIMAPOST
  1

  9
$DIMALT
 70
     0
  9
$DIMALTD
 70
     2
  9
$DIMALTF
 40
0.0394
  9
$DIMLFAC
 40
1.0
  9
$DIMTOFL
 70
     1
  9
$DIMTVP
 40
1.0
  9
$DIMTIX
 70
     0
  9
$DIMSOXD
 70
     0
  9
$DIMSAH
 70
     0
  9
$DIMBLK1
  1

  9
$DIMBLK2
  1

  9
$DIMSTYLE
  2
ISO-25
  9
$DIMCLRD
 70
     0
  9
$DIMCLRE
 70
     0
  9
$DIMCLRT
 70
     0
  9
$DIMTFAC
 40
1.0
  9
$DIMGAP
 40
0.625
  9
$DIMJUST
 70
     0
  9
$DIMSD1
 70
     0
  9
$DIMSD2
 70
     0
  9
$DIMTOLJ
 70
     1
  9
$DIMTZIN
 70
     0
  9
$DIMALTZ
 70
     0
  9
$DIMALTTZ
 70
     0
  9
$DIMFIT
 70
     3
  9
$DIMUPT
 70
     0
  9
$DIMUNIT
 70
     2
  9
$DIMDEC
 70
     1
  9
$DIMTDEC
 70
     1
  9
$DIMALTU
 70
     2
  9
$DIMALTTD
 70
     2
  9
$DIMTXSTY
  7
STANDARD
  9
$DIMAUNIT
 70
     0
  9
$LUNITS
 70
     2
  9
$LUPREC
 70
     4
  9
$SKETCHINC
 40
1.0
  9
$FILLETRAD
 40
2.0
  9
$AUNITS
 70
     0
  9
$AUPREC
 70
     0
  9
$MENU
  1
.
  9
$ELEVATION
 40
0.0
  9
$PELEVATION
 40
0.0
  9
$THICKNESS
 40
0.0
  9
$LIMCHECK
 70
     0
  9
$CHAMFERA
 40
10.0
  9
$CHAMFERB
 40
10.0
  9
$CHAMFERC
 40
20.0
  9
$CHAMFERD
 40
0.0
  9
$SKPOLY
 70
     0
  9
$TDCREATE
 40
2450576.597302431
  9
$TDUPDATE
 40
2457193.659226609
  9
$TDINDWG
 40
1.4447531944
  9
$TDUSRTIMER
 40
1.4447531944
  9
$USRTIMER
 70
     1
  9
$ANGBASE
 50
0.0
  9
$ANGDIR
 70
     0
  9
$PDMODE
 70
     0
  9
$PDSIZE
 40
0.0
  9
$PLINEWID
 40
0.0
  9
$COORDS
 70
     1
  9
$SPLFRAME
 70
     0
  9
$SPLINETYPE
 70
     6
  9
$SPLINESEGS
 70
     8
  9
$ATTDIA
 70
     0
  9
$ATTREQ
 70
     1
  9
$HANDLING
 70
     1
  9
$HANDSEED
  5
59EE
  9
$SURFTAB1
 70
     6
  9
$SURFTAB2
 70
     6
  9
$SURFTYPE
 70
     6
  9
$SURFU
 70
     6
  9
$SURFV
 70
     6
  9
$UCSNAME
  2

  9
$UCSORG
 10
0.0
 20
0.0
 30
0.0
  9
$UCSXDIR
 10
1.0
 20
0.0
 30
0.0
  9
$UCSYDIR
 10
0.0
 20
1.0
 30
0.0
  9
$PUCSNAME
  2

  9
$PUCSORG
 10
0.0
 20
0.0
 30
0.0
  9
$PUCSXDIR
 10
1.0
 20
0.0
 30
0.0
  9
$PUCSYDIR
 10
0.0
 20
1.0
 30
0.0
  9
$USERI1
 70
     0
  9
$USERI2
 70
     0
  9
$USERI3
 70
     0
  9
$USERI4
 70
     0
  9
$USERI5
 70
     0
  9
$USERR1
 40
0.0
  9
$USERR2
 40
0.0
  9
$USERR3
 40
0.0
  9
$USERR4
 40
0.0
  9
$USERR5
 40
0.0
  9
$WORLDVIEW
 70
     1
  9
$SHADEDGE
 70
     3
  9
$SHADEDIF
 70
    70
  9
$TILEMODE
 70
     0
  9
$MAXACTVP
 70
    16
  9
$PINSBASE
 10
0.0
 20
0.0
 30
0.0
  9
$PLIMCHECK
 70
     0
  9
$PEXTMIN
 10
4.746305129083
 20
3.091265222646
 30
0.0
  9
$PEXTMAX
 10
404.746305129083
 20
283.091265222646
 30
0.0
  9
$PLIMMIN
 10
-7.007122192383
 20
-7.007118782997
  9
$PLIMMAX
 10
417.718108215332
 20
293.315290427208
  9
$UNITMODE
 70
     0
  9
$VISRETAIN
 70
     0
  9
$PLINEGEN
 70
     0
  9
$PSLTSCALE
 70
     1
  9
$TREEDEPTH
 70
  3020
  9
$PICKSTYLE
 70
     1
  9
$CMLSTYLE
  2
STANDARD
  9
$CMLJUST
 70
     0
  9
$CMLSCALE
 40
1.0
  9
$PROXYGRAPHICS
 70
     1
  9
$MEASUREMENT
 70
     1
  0
ENDSEC
  0
SECTION
  2
CLASSES
  0
CLASS
  1
ACDBDICTIONARYWDFLT
  2
AcDbDictionaryWithDefault
  3
ObjectDBX Classes
 90
        0
280
     0
281
     0
  0
CLASS
  1
ACDBPLACEHOLDER
  2
AcDbPlaceHolder
  3
ObjectDBX Classes
 90
        0
280
     0
281
     0
  0
CLASS
  1
LAYOUT
  2
AcDbLayout
  3
ObjectDBX Classes
 90
        0
280
     0
281
     0
  0
CLASS
  1
SORTENTSTABLE
  2
AcDbSortentsTable
  3
ObjectDBX Classes
 90
        0
280
     0
281
     0
  0
CLASS
  1
MATERIAL
  2
AcDbMaterial
  3
ObjectDBX Classes
 90
     1153
280
     0
281
     0
  0
CLASS
  1
VISUALSTYLE
  2
AcDbVisualStyle
  3
ObjectDBX Classes
 90
     4095
280
     0
281
     0
  0
CLASS
  1
SCALE
  2
AcDbScale
  3
ObjectDBX Classes
 90
     1153
280
     0
281
     0
  0
CLASS
  1
TABLESTYLE
  2
AcDbTableStyle
  3
ObjectDBX Classes
 90
     4095
280
     0
281
     0
  0
CLASS
  1
MLEADERSTYLE
  2
AcDbMLeaderStyle
  3
ACDB_MLEADERSTYLE_CLASS
 90
     4095
280
     0
281
     0
  0
CLASS
  1
SUN
  2
AcDbSun
  3
SCENEOE
 90
     1153
280
     0
281
     0
  0
CLASS
  1
DICTIONARYVAR
  2
AcDbDictionaryVar
  3
ObjectDBX Classes
 90
        0
280
     0
281
     0
  0
CLASS
  1
CELLSTYLEMAP
  2
AcDbCellStyleMap
  3
ObjectDBX Classes
 90
     1152
280
     0
281
     0
  0
CLASS
  1
XRECORD
  2
AcDbXrecord
  3
ObjectDBX Classes
 90
        0
280
     0
281
     0
  0
CLASS
  1
LWPOLYLINE
  2
AcDbPolyline
  3
ObjectDBX Classes
 90
        0
280
     0
281
     1
  0
CLASS
  1
HATCH
  2
AcDbHatch
  3
ObjectDBX Classes
 90
        0
280
     0
281
     1
  0
ENDSEC
  0
SECTION
  2
TABLES
  0
TABLE
  2
VPORT
  5
8
102
{ACAD_XDICTIONARY
360
59E6
102
}
330
0
100
AcDbSymbolTable
 70
     4
  0
VPORT
  5
5551
330
8
100
AcDbSymbolTableRecord
100
AcDbViewportTableRecord
  2
*ACTIVE
 70
     0
 10
0.0
 20
0.0
 11
1.0
 21
1.0
 12
839.390096596367
 22
399.096480701369
 13
0.0
 23
0.0
 14
1.0
 24
1.0
 15
0.0
 25
0.0
 16
0.0
 26
0.0
 36
1.0
 17
0.0
 27
0.0
 37
0.0
 40
158.743570683148
 41
1.56746031746
 42
50.0
 43
0.0
 44
0.0
 50
0.0
 51
0.0
 71
    16
 72
   100
 73
     1
 74
     0
 75
     0
 76
     0
 77
     0
 78
     0
  0
ENDTAB
  0
TABLE
  2
LTYPE
  5
5
330
0
100
AcDbSymbolTable
 70
     4
  0
LTYPE
  5
14
330
5
100
AcDbSymbolTableRecord
100
AcDbLinetypeTableRecord
  2
BYBLOCK
 70
     0
  3

 72
    65
 73
     0
 40
0.0
  0
LTYPE
  5
15
330
5
100
AcDbSymbolTableRecord
100
AcDbLinetypeTableRecord
  2
BYLAYER
 70
     0
  3

 72
    65
 73
     0
 40
0.0
  0
LTYPE
  5
16
330
5
100
AcDbSymbolTableRecord
100
AcDbLinetypeTableRecord
  2
CONTINUOUS
 70
     0
  3
Solid line
 72
    65
 73
     0
 40
0.0
  0
LTYPE
  5
1EC
330
5
100
AcDbSymbolTableRecord
100
AcDbLinetypeTableRecord
  2
CENTER
 70
     0
  3
____ _ ____ _ ____ _ ____ _ ____ _ ____ _ ____ 
 72
    65
 73
     4
 40
2.0
 49
1.25
 74
     0
 49
-0.25
 74
     0
 49
0.25
 74
     0
 49
-0.25
 74
     0
  0
LTYPE
  5
1ED
330
5
100
AcDbSymbolTableRecord
100
AcDbLinetypeTableRecord
  2
DASHED
 70
     0
  3
__ __ __ __ __ __ __ __ __ __ __ __ __ __ __ __
 72
    65
 73
     2
 40
0.75
 49
0.5
 74
     0
 49
-0.25
 74
     0
  0
LTYPE
  5
2B1F
330
5
100
AcDbSymbolTableRecord
100
AcDbLinetypeTableRecord
  2
DASHDOT
 70
     0
  3
一点鎖線
 72
    65
 73
     4
 40
25.6
 49
20.0
 74
     0
 49
-2.0
 74
     0
 49
1.6
 74
     0
 49
-2.0
 74
     0
  0
ENDTAB
  0
TABLE
  2
LAYER
  5
2
102
{ACAD_XDICTIONARY
360
29EA
102
}
330
0
100
AcDbSymbolTable
 70
    14
  0
LAYER
  5
F
330
2
100
AcDbSymbolTableRecord
100
AcDbLayerTableRecord
  2
0
 70
     0
 62
     7
  6
CONTINUOUS
  0
LAYER
  5
61
330
2
100
AcDbSymbolTableRecord
100
AcDbLayerTableRecord
  2
図枠太線
 70
     0
 62
   251
  6
CONTINUOUS
  0
LAYER
  5
62
330
2
100
AcDbSymbolTableRecord
100
AcDbLayerTableRecord
  2
図枠細線
 70
     0
 62
   252
  6
CONTINUOUS
  0
LAYER
  5
63
330
2
100
AcDbSymbolTableRecord
100
AcDbLayerTableRecord
  2
図枠ロゴマーク
 70
     0
 62
   253
  6
CONTINUOUS
  0
LAYER
  5
1EF
330
2
100
AcDbSymbolTableRecord
100
AcDbLayerTableRecord
  2
外形線
 70
     0
 62
     7
  6
CONTINUOUS
  0
LAYER
  5
1F0
330
2
100
AcDbSymbolTableRecord
100
AcDbLayerTableRecord
  2
寸法線
 70
     0
 62
     1
  6
CONTINUOUS
  0
LAYER
  5
1F1
330
2
100
AcDbSymbolTableRecord
100
AcDbLayerTableRecord
  2
中心線
 70
     0
 62
     4
  6
CENTER
  0
LAYER
  5
1F4
330
2
100
AcDbSymbolTableRecord
100
AcDbLayerTableRecord
  2
DEFPOINTS
 70
     0
 62
     7
  6
CONTINUOUS
  0
LAYER
  5
2AA2
330
2
100
AcDbSymbolTableRecord
100
AcDbLayerTableRecord
  2
下書線
 70
     0
 62
     2
  6
CONTINUOUS
  0
LAYER
  5
2AA3
330
2
100
AcDbSymbolTableRecord
100
AcDbLayerTableRecord
  2
隠れ線
 70
     0
 62
     3
  6
DASHED
  0
LAYER
  5
2AA4
330
2
100
AcDbSymbolTableRecord
100
AcDbLayerTableRecord
  2
細線
 70
     0
 62
     6
  6
CONTINUOUS
  0
LAYER
  5
2AA5
330
2
100
AcDbSymbolTableRecord
100
AcDbLayerTableRecord
  2
太線
 70
     0
 62
   190
  6
CONTINUOUS
  0
LAYER
  5
2B20
330
2
100
AcDbSymbolTableRecord
100
AcDbLayerTableRecord
  2
LAY-1
 70
     0
 62
     7
  6
CONTINUOUS
  0
LAYER
  5
4C3A
330
2
100
AcDbSymbolTableRecord
100
AcDbLayerTableRecord
  2
寸法線_文字
 70
     0
 62
     1
  6
CONTINUOUS
  0
ENDTAB
  0
TABLE
  2
STYLE
  5
3
330
0
100
AcDbSymbolTable
 70
     3
  0
STYLE
  5
10
330
3
100
AcDbSymbolTableRecord
100
AcDbTextStyleTableRecord
  2
STANDARD
 70
     0
 40
0.0
 41
1.0
 50
0.0
 71
     0
 42
2.333873885063
  3
ISOCP
  4
bigfont.shx
  0
STYLE
  5
64
330
3
100
AcDbSymbolTableRecord
100
AcDbTextStyleTableRecord
  2
EXCADSTD
 70
     0
 40
0.0
 41
1.0
 50
0.0
 71
     0
 42
0.2
  3
monotxt
  4
bigfont
  0
STYLE
  5
2B21
330
3
100
AcDbSymbolTableRecord
100
AcDbTextStyleTableRecord
  2
EXCADVERT
 70
     4
 40
0.0
 41
1.0
 50
0.0
 71
     0
 42
0.286885
  3
monotxt
  4
bigfont
  0
ENDTAB
  0
TABLE
  2
VIEW
  5
6
330
0
100
AcDbSymbolTable
 70
     0
  0
ENDTAB
  0
TABLE
  2
UCS
  5
7
330
0
100
AcDbSymbolTable
 70
     0
  0
ENDTAB
  0
TABLE
  2
APPID
  5
9
330
0
100
AcDbSymbolTable
 70
     3
  0
APPID
  5
11
330
9
100
AcDbSymbolTableRecord
100
AcDbRegAppTableRecord
  2
ACAD
 70
     0
  0
APPID
  5
55F4
330
9
100
AcDbSymbolTableRecord
100
AcDbRegAppTableRecord
  2
ACAD_MLEADERVER
 70
     0
  0
APPID
  5
5859
330
9
100
AcDbSymbolTableRecord
100
AcDbRegAppTableRecord
  2
ACADANNOTATIVE
 70
     0
  0
ENDTAB
  0
TABLE
  2
DIMSTYLE
  5
A
330
0
100
AcDbSymbolTable
 70
     2
  0
DIMSTYLE
105
1D
330
A
100
AcDbSymbolTableRecord
100
AcDbDimStyleTableRecord
  2
STANDARD
 70
     0
  3

  4

  5

  6

  7

 40
1.0
 41
0.18
 42
0.0625
 43
0.38
 44
0.18
 45
0.0
 46
0.0
 47
0.0
 48
0.0
140
0.18
141
0.09
142
0.0
143
25.4
144
1.0
145
0.0
146
1.0
147
0.09
 71
     0
 72
     0
 73
     1
 74
     1
 75
     0
 76
     0
 77
     0
 78
     0
170
     0
171
     2
172
     0
173
     0
174
     0
175
     0
176
     0
177
     0
178
     0
270
     2
271
     4
272
     4
273
     2
274
     2
340
10
275
     0
280
     0
281
     0
282
     0
283
     1
284
     0
285
     0
286
     0
287
     3
288
     0
  0
DIMSTYLE
105
24
102
{ACAD_REACTORS
330
38B4
330
38EB
330
4EF7
330
4EF8
330
4E4E
330
4E4F
330
4E50
330
4E51
330
4E52
330
4E53
330
4E6B
330
4ECB
330
5471
330
54CA
102
}
330
A
100
AcDbSymbolTableRecord
100
AcDbDimStyleTableRecord
  2
ISO-25
 70
     0
  3

  4

  5

  6

  7

 40
1.0
 41
2.5
 42
0.625
 43
3.75
 44
1.25
 45
0.0
 46
0.0
 47
0.0
 48
0.0
140
2.5
141
2.5
142
0.0
143
0.0394
144
1.0
145
1.0
146
1.0
147
0.625
 71
     0
 72
     0
 73
     1
 74
     0
 75
     0
 76
     0
 77
     1
 78
     8
170
     0
171
     2
172
     1
173
     0
174
     0
175
     0
176
     0
177
     0
178
     0
270
     2
271
     4
272
     4
273
     2
274
     2
340
10
275
     0
280
     0
281
     0
282
     0
283
     1
284
     0
285
     0
286
     0
287
     3
288
     0
  0
ENDTAB
  0
TABLE
  2
BLOCK_RECORD
  5
1
330
0
100
AcDbSymbolTable
 70
    26
  0
BLOCK_RECORD
  5
1A
330
1
100
AcDbSymbolTableRecord
100
AcDbBlockTableRecord
  2
*MODEL_SPACE
  0
BLOCK_RECORD
  5
28FB
330
1
100
AcDbSymbolTableRecord
100
AcDbBlockTableRecord
  2
*PAPER_SPACE
  0
BLOCK_RECORD
  5
65
330
1
100
AcDbSymbolTableRecord
100
AcDbBlockTableRecord
  2
A$C3392
  0
BLOCK_RECORD
  5
29BF
330
1
100
AcDbSymbolTableRecord
100
AcDbBlockTableRecord
  2
A4横用_タイトル
1001
ACAD
1000
DesignCenter Data
1002
{
1070
     1
1070
     4
1002
}
  0
BLOCK_RECORD
  5
29F4
330
1
100
AcDbSymbolTableRecord
100
AcDbBlockTableRecord
  2
A4縦用_タイトル
1001
ACAD
1000
DesignCenter Data
1002
{
1070
     1
1070
     4
1002
}
  0
BLOCK_RECORD
  5
2A32
330
1
100
AcDbSymbolTableRecord
100
AcDbBlockTableRecord
  2
A3横用_タイトル
1001
ACAD
1000
DesignCenter Data
1002
{
1070
     1
1070
     4
1002
}
  0
BLOCK_RECORD
  5
2A6C
330
1
100
AcDbSymbolTableRecord
100
AcDbBlockTableRecord
  2
A3縦用_タイトル
1001
ACAD
1000
DesignCenter Data
1002
{
1070
     1
1070
     4
1002
}
  0
BLOCK_RECORD
  5
2AF4
330
1
100
AcDbSymbolTableRecord
100
AcDbBlockTableRecord
  2
_OPEN30
  0
BLOCK_RECORD
  5
3024
330
1
100
AcDbSymbolTableRecord
100
AcDbBlockTableRecord
  2
パドル_W1
  0
BLOCK_RECORD
  5
3054
330
1
100
AcDbSymbolTableRecord
100
AcDbBlockTableRecord
  2
パドル_W1立面図
  0
BLOCK_RECORD
  5
3136
330
1
100
AcDbSymbolTableRecord
100
AcDbBlockTableRecord
  2
*D8
  0
BLOCK_RECORD
  5
3142
330
1
100
AcDbSymbolTableRecord
100
AcDbBlockTableRecord
  2
*D9
  0
BLOCK_RECORD
  5
314E
330
1
100
AcDbSymbolTableRecord
100
AcDbBlockTableRecord
  2
*D10
  0
BLOCK_RECORD
  5
315C
330
1
100
AcDbSymbolTableRecord
100
AcDbBlockTableRecord
  2
A$C384A4FFB
  0
BLOCK_RECORD
  5
38B5
330
1
100
AcDbSymbolTableRecord
100
AcDbBlockTableRecord
  2
*D12
  0
BLOCK_RECORD
  5
38EC
330
1
100
AcDbSymbolTableRecord
100
AcDbBlockTableRecord
  2
*D13
  0
BLOCK_RECORD
  5
4F42
330
1
100
AcDbSymbolTableRecord
100
AcDbBlockTableRecord
  2
*D14
  0
BLOCK_RECORD
  5
4F50
330
1
100
AcDbSymbolTableRecord
100
AcDbBlockTableRecord
  2
*D15
  0
BLOCK_RECORD
  5
4F5C
330
1
100
AcDbSymbolTableRecord
100
AcDbBlockTableRecord
  2
*D16
  0
BLOCK_RECORD
  5
4F68
330
1
100
AcDbSymbolTableRecord
100
AcDbBlockTableRecord
  2
*D17
  0
BLOCK_RECORD
  5
4F74
330
1
100
AcDbSymbolTableRecord
100
AcDbBlockTableRecord
  2
*D18
  0
BLOCK_RECORD
  5
4F80
330
1
100
AcDbSymbolTableRecord
100
AcDbBlockTableRecord
  2
*D19
  0
BLOCK_RECORD
  5
4F8E
330
1
100
AcDbSymbolTableRecord
100
AcDbBlockTableRecord
  2
*D20
  0
BLOCK_RECORD
  5
4F9A
330
1
100
AcDbSymbolTableRecord
100
AcDbBlockTableRecord
  2
*D21
  0
BLOCK_RECORD
  5
4FA6
330
1
100
AcDbSymbolTableRecord
100
AcDbBlockTableRecord
  2
*D22
  0
BLOCK_RECORD
  5
4FB4
330
1
100
AcDbSymbolTableRecord
100
AcDbBlockTableRecord
  2
*D23
  0
BLOCK_RECORD
  5
5472
330
1
100
AcDbSymbolTableRecord
100
AcDbBlockTableRecord
  2
*D24
  0
BLOCK_RECORD
  5
54CB
330
1
100
AcDbSymbolTableRecord
100
AcDbBlockTableRecord
  2
*D25
  0
ENDTAB
  0
ENDSEC
  0
SECTION
  2
BLOCKS
  0
BLOCK
  5
1B
330
1A
100
AcDbEntity
  8
0
100
AcDbBlockBegin
  2
*MODEL_SPACE
 70
     0
 10
0.0
 20
0.0
 30
0.0
  3
*MODEL_SPACE
  1

  0
ENDBLK
  5
1C
330
1A
100
AcDbEntity
  8
0
100
AcDbBlockEnd
  0
BLOCK
  5
28FD
330
28FB
100
AcDbEntity
 67
     1
  8
0
 48
10.0
100
AcDbBlockBegin
  2
*PAPER_SPACE
 70
     0
 10
0.0
 20
0.0
 30
0.0
  3
*PAPER_SPACE
  1

  0
ENDBLK
  5
28FE
330
28FB
100
AcDbEntity
 67
     1
  8
0
 48
10.0
100
AcDbBlockEnd
  0
BLOCK
  5
93
330
65
100
AcDbEntity
  8
0
100
AcDbBlockBegin
  2
A$C3392
 70
     0
 10
0.0
 20
0.0
 30
0.0
  3
A$C3392
  1
A$C3392
  0
LINE
  5
66
330
65
100
AcDbEntity
  8
図枠太線
  6
CONTINUOUS
100
AcDbLine
 10
211.858584505185
 20
30.927375675439
 30
0.0
 11
211.858584505185
 21
0.927375675439
 31
0.0
  0
LINE
  5
67
330
65
100
AcDbEntity
  8
図枠細線
  6
CONTINUOUS
100
AcDbLine
 10
231.858592505185
 20
15.927377675439
 30
0.0
 11
287.858592505185
 21
15.927375675439
 31
0.0
  0
LINE
  5
68
330
65
100
AcDbEntity
  8
図枠細線
  6
CONTINUOUS
100
AcDbLine
 10
211.858592505185
 20
15.927377675439
 30
0.0
 11
231.858592505185
 21
15.927377675439
 31
0.0
  0
LINE
  5
69
330
65
100
AcDbEntity
  8
図枠太線
  6
CONTINUOUS
 62
   251
100
AcDbLine
 10
1.858584505185
 20
0.927375675439
 30
0.0
 11
1.858584505185
 21
275.927375675439
 31
0.0
  0
TEXT
  5
6A
330
65
100
AcDbEntity
  8
図枠細線
  6
CONTINUOUS
 62
   252
100
AcDbText
 10
351.358592505185
 20
28.427377675439
 30
0.0
 40
2.0
  1
ＴＩＴＬＥ
 41
0.903614457831
  7
EXCADSTD
 72
     5
 11
361.358592505185
 21
28.427377675439
 31
0.0
100
AcDbText
  0
TEXT
  5
6B
330
65
100
AcDbEntity
  8
図枠細線
  6
CONTINUOUS
 62
   252
100
AcDbText
 10
345.358592505185
 20
28.427377675439
 30
0.0
 40
2.0
  1
名称
 41
1.171875
  7
EXCADSTD
 72
     5
 11
350.358592505185
 21
28.427377675439
 31
0.0
100
AcDbText
  0
TEXT
  5
6C
330
65
100
AcDbEntity
  8
図枠細線
  6
CONTINUOUS
 62
   252
100
AcDbText
 10
274.358592505185
 20
25.927377675439
 30
0.0
 40
2.0
  1
ＤＲＡＷＮ
 41
0.882352941176
  7
EXCADSTD
 72
     5
 11
284.358592505185
 21
25.927377675439
 31
0.0
100
AcDbText
  0
TEXT
  5
6D
330
65
100
AcDbEntity
  8
図枠細線
  6
CONTINUOUS
 62
   252
100
AcDbText
 10
260.358592505185
 20
25.927377675439
 30
0.0
 40
2.0
  1
ＤＥＳＩＧＮＥＤ
 41
0.713043472041
  7
EXCADSTD
 72
     5
 11
273.478592390744
 21
25.927377675439
 31
0.0
100
AcDbText
  0
TEXT
  5
6E
330
65
100
AcDbEntity
  8
図枠細線
  6
CONTINUOUS
 62
   252
100
AcDbText
 10
246.358592505185
 20
25.927377675439
 30
0.0
 40
2.0
  1
ＣＨＥＣＫＥＤ
 41
0.831249989569
  7
EXCADSTD
 72
     5
 11
259.658592338292
 21
25.927377675439
 31
0.0
100
AcDbText
  0
TEXT
  5
6F
330
65
100
AcDbEntity
  8
図枠細線
  6
CONTINUOUS
 62
   252
100
AcDbText
 10
274.358592505185
 20
28.427377675439
 30
0.0
 40
2.0
  1
製図
 41
1.209677419355
  7
EXCADSTD
 72
     5
 11
279.358592505185
 21
28.427377675439
 31
0.0
100
AcDbText
  0
TEXT
  5
70
330
65
100
AcDbEntity
  8
図枠細線
  6
CONTINUOUS
 62
   252
100
AcDbText
 10
260.358592505185
 20
28.427377675439
 30
0.0
 40
2.0
  1
設計
 41
1.171875
  7
EXCADSTD
 72
     5
 11
265.358592505185
 21
28.427377675439
 31
0.0
100
AcDbText
  0
TEXT
  5
71
330
65
100
AcDbEntity
  8
図枠細線
  6
CONTINUOUS
 62
   252
100
AcDbText
 10
246.358592505185
 20
28.427377675439
 30
0.0
 40
2.0
  1
検図
 41
1.209677419355
  7
EXCADSTD
 72
     5
 11
251.358592505185
 21
28.427377675439
 31
0.0
100
AcDbText
  0
TEXT
  5
72
330
65
100
AcDbEntity
  8
図枠細線
  6
CONTINUOUS
 62
   252
100
AcDbText
 10
232.358592505185
 20
25.927377675439
 30
0.0
 40
2.0
  1
ＡＰＰＲＯＶＥＤ
 41
0.695652184279
  7
EXCADSTD
 72
     5
 11
245.15859269592
 21
25.927377675439
 31
0.0
100
AcDbText
  0
TEXT
  5
73
330
65
100
AcDbEntity
  8
図枠細線
  6
CONTINUOUS
 62
   252
100
AcDbText
 10
232.358592505185
 20
28.427377675439
 30
0.0
 40
2.0
  1
承認
 41
1.171875
  7
EXCADSTD
 72
     5
 11
237.358592505185
 21
28.427377675439
 31
0.0
100
AcDbText
  0
TEXT
  5
74
330
65
100
AcDbEntity
  8
図枠細線
  6
CONTINUOUS
 62
   252
100
AcDbText
 10
290.069888505185
 20
2.574868675439
 30
0.0
 40
3.5
  1
ＴＯＷＡ　ＳＥＩＤＥＮ　ＩＮＤＵＳＴＲＩＡＬ　ＣＯ．，ＬＴＤ．
 41
0.414568012377
  7
EXCADSTD
 72
     5
 11
342.692388209546
 21
2.574868675439
 31
0.0
100
AcDbText
  0
TEXT
  5
75
330
65
100
AcDbEntity
  8
図枠ロゴマーク
  6
CONTINUOUS
 62
   253
100
AcDbText
 10
290.107348505185
 20
7.519769675439
 30
0.0
 40
7.0
  1
東和制電工業株式会社
 41
0.639204545455
  7
EXCADSTD
 72
     5
 11
342.607348505185
 21
7.519769675439
 31
0.0
100
AcDbText
  0
TEXT
  5
76
330
65
100
AcDbEntity
  8
図枠細線
  6
CONTINUOUS
 62
   252
100
AcDbText
 10
232.499705505185
 20
5.759088675439
 30
0.0
 40
2.0
  1
ＰＲＯＪＥＣＴＩＯＮ
 41
0.754285710199
  7
EXCADSTD
 72
     5
 11
250.099705409817
 21
5.759088675439
 31
0.0
100
AcDbText
  0
TEXT
  5
77
330
65
100
AcDbEntity
  8
図枠細線
  6
CONTINUOUS
 62
   252
100
AcDbText
 10
232.574629505185
 20
8.681077675439
 30
0.0
 40
2.0
  1
ＴＨＩＲＤ　ＡＮＧＬＥ
 41
0.691099486738
  7
EXCADSTD
 72
     5
 11
250.174629767445
 21
8.681077675439
 31
0.0
100
AcDbText
  0
TEXT
  5
78
330
65
100
AcDbEntity
  8
図枠細線
  6
CONTINUOUS
 62
   252
100
AcDbText
 10
256.823999505185
 20
13.427377675439
 30
0.0
 40
2.0
  1
ＳＣＡＬＥ
 41
0.903614457831
  7
EXCADSTD
 72
     5
 11
266.823999505185
 21
13.427377675439
 31
0.0
100
AcDbText
  0
TEXT
  5
79
330
65
100
AcDbEntity
  8
図枠細線
  6
CONTINUOUS
 62
   252
100
AcDbText
 10
274.858592505185
 20
13.427377675439
 30
0.0
 40
2.0
  1
ＤＡＴＥ
 41
0.923076923077
  7
EXCADSTD
 72
     5
 11
282.858592505185
 21
13.427377675439
 31
0.0
100
AcDbText
  0
TEXT
  5
7A
330
65
100
AcDbEntity
  8
図枠細線
  6
CONTINUOUS
 62
   252
100
AcDbText
 10
356.358592505185
 20
13.427377675439
 30
0.0
 40
2.0
  1
ＤＲＧ．ＮＯ．
 41
0.9375
  7
EXCADSTD
 72
     5
 11
370.358592505185
 21
13.427377675439
 31
0.0
100
AcDbText
  0
TEXT
  5
7B
330
65
100
AcDbEntity
  8
図枠細線
  6
CONTINUOUS
 62
   252
100
AcDbText
 10
345.358592505185
 20
13.427377675439
 30
0.0
 40
2.0
  1
図面番号
 41
1.102941176471
  7
EXCADSTD
 72
     5
 11
355.358592505185
 21
13.427377675439
 31
0.0
100
AcDbText
  0
TEXT
  5
7C
330
65
100
AcDbEntity
  8
図枠細線
  6
CONTINUOUS
 62
   252
100
AcDbText
 10
269.358592505185
 20
13.427377675439
 30
0.0
 40
2.0
  1
日付
 41
1.171875
  7
EXCADSTD
 72
     5
 11
274.358592505185
 21
13.427377675439
 31
0.0
100
AcDbText
  0
TEXT
  5
7D
330
65
100
AcDbEntity
  8
図枠細線
  6
CONTINUOUS
 62
   252
100
AcDbText
 10
251.451512505185
 20
13.427377675439
 30
0.0
 40
2.0
  1
尺度
 41
1.171875
  7
EXCADSTD
 72
     5
 11
256.451512505185
 21
13.427377675439
 31
0.0
100
AcDbText
  0
TEXT
  5
7E
330
65
100
AcDbEntity
  8
図枠細線
  6
CONTINUOUS
 62
   252
100
AcDbText
 10
232.358592505185
 20
13.427377675439
 30
0.0
 40
2.0
  1
第三角法
 41
1.102941176471
  7
EXCADSTD
 72
     5
 11
242.358592505185
 21
13.427377675439
 31
0.0
100
AcDbText
  0
TEXT
  5
7F
330
65
100
AcDbEntity
  8
図枠細線
  6
CONTINUOUS
 62
   252
100
AcDbText
 10
212.358592505185
 20
28.427377675439
 30
0.0
 40
2.0
  1
ＮＯＴＥ
 41
0.923076923077
  7
EXCADSTD
 72
     5
 11
220.358592505185
 21
28.427377675439
 31
0.0
100
AcDbText
  0
LINE
  5
80
330
65
100
AcDbEntity
  8
図枠細線
  6
CONTINUOUS
 62
   252
100
AcDbLine
 10
287.858592505185
 20
23.427375675439
 30
0.0
 11
344.858592505185
 21
23.427375675439
 31
0.0
  0
LINE
  5
81
330
65
100
AcDbEntity
  8
図枠太線
  6
CONTINUOUS
 62
   251
100
AcDbLine
 10
287.858584505185
 20
15.927375675439
 30
0.0
 11
344.858592505185
 21
15.927375675439
 31
0.0
  0
LINE
  5
82
330
65
100
AcDbEntity
  8
図枠細線
  6
CONTINUOUS
 62
   252
100
AcDbLine
 10
344.858592505185
 20
15.927375675439
 30
0.0
 11
401.858584505185
 21
15.927375675439
 31
0.0
  0
LINE
  5
83
330
65
100
AcDbEntity
  8
図枠太線
  6
CONTINUOUS
 62
   251
100
AcDbLine
 10
344.858592505185
 20
0.927377675439
 30
0.0
 11
344.858592505185
 21
30.927375675439
 31
0.0
  0
LINE
  5
84
330
65
100
AcDbEntity
  8
図枠太線
  6
CONTINUOUS
 62
   251
100
AcDbLine
 10
287.858592505185
 20
0.927377675439
 30
0.0
 11
287.858592505185
 21
30.927375675439
 31
0.0
  0
LINE
  5
85
330
65
100
AcDbEntity
  8
図枠細線
  6
CONTINUOUS
 62
   252
100
AcDbLine
 10
268.858592505185
 20
0.927377675439
 30
0.0
 11
268.858592505185
 21
15.927375675439
 31
0.0
  0
LINE
  5
86
330
65
100
AcDbEntity
  8
図枠細線
  6
CONTINUOUS
 62
   252
100
AcDbLine
 10
250.858592505185
 20
0.927377675439
 30
0.0
 11
250.858592505185
 21
15.927375675439
 31
0.0
  0
LINE
  5
87
330
65
100
AcDbEntity
  8
図枠細線
  6
CONTINUOUS
 62
   252
100
AcDbLine
 10
273.858592505185
 20
30.927375675439
 30
0.0
 11
273.858592505185
 21
15.927375675439
 31
0.0
  0
LINE
  5
88
330
65
100
AcDbEntity
  8
図枠細線
  6
CONTINUOUS
 62
   252
100
AcDbLine
 10
259.858592505185
 20
30.927375675439
 30
0.0
 11
259.858592505185
 21
15.927375675439
 31
0.0
  0
LINE
  5
89
330
65
100
AcDbEntity
  8
図枠細線
  6
CONTINUOUS
 62
   252
100
AcDbLine
 10
245.858592505185
 20
30.927375675439
 30
0.0
 11
245.858592505185
 21
15.927375675439
 31
0.0
  0
LINE
  5
8A
330
65
100
AcDbEntity
  8
図枠太線
  6
CONTINUOUS
 62
   251
100
AcDbLine
 10
231.858592505185
 20
0.927377675439
 30
0.0
 11
231.858592505185
 21
30.927375675439
 31
0.0
  0
LINE
  5
8B
330
65
100
AcDbEntity
  8
図枠細線
  6
CONTINUOUS
 62
   252
100
AcDbLine
 10
211.858592505185
 20
25.927375675439
 30
0.0
 11
231.858592505185
 21
25.927375675439
 31
0.0
  0
LINE
  5
8C
330
65
100
AcDbEntity
  8
図枠細線
  6
CONTINUOUS
 62
   252
100
AcDbLine
 10
211.858592505185
 20
20.927375675439
 30
0.0
 11
231.858592505185
 21
20.927375675439
 31
0.0
  0
LINE
  5
8D
330
65
100
AcDbEntity
  8
図枠細線
  6
CONTINUOUS
 62
   252
100
AcDbLine
 10
211.858592505185
 20
10.927375675439
 30
0.0
 11
231.858592505185
 21
10.927375675439
 31
0.0
  0
LINE
  5
8E
330
65
100
AcDbEntity
  8
図枠細線
  6
CONTINUOUS
 62
   252
100
AcDbLine
 10
211.858592505185
 20
5.927377675439
 30
0.0
 11
231.858592505185
 21
5.927377675439
 31
0.0
  0
LINE
  5
8F
330
65
100
AcDbEntity
  8
図枠太線
  6
CONTINUOUS
 62
   251
100
AcDbLine
 10
211.858592505185
 20
30.927375675439
 30
0.0
 11
401.858584505185
 21
30.927375675439
 31
0.0
  0
LINE
  5
90
330
65
100
AcDbEntity
  8
図枠太線
  6
CONTINUOUS
 62
   251
100
AcDbLine
 10
1.858584505185
 20
275.927375675439
 30
0.0
 11
401.858584505185
 21
275.927375675439
 31
0.0
  0
LINE
  5
91
330
65
100
AcDbEntity
  8
図枠太線
  6
CONTINUOUS
 62
   251
100
AcDbLine
 10
401.858584505185
 20
0.927375675439
 30
0.0
 11
401.858584505185
 21
275.927375675439
 31
0.0
  0
LINE
  5
92
330
65
100
AcDbEntity
  8
図枠太線
  6
CONTINUOUS
 62
   251
100
AcDbLine
 10
1.858584505185
 20
0.927375675439
 30
0.0
 11
401.858584505185
 21
0.927375675439
 31
0.0
  0
ENDBLK
  5
94
330
65
100
AcDbEntity
  8
0
100
AcDbBlockEnd
  0
BLOCK
  5
29C0
330
29BF
100
AcDbEntity
  8
0
100
AcDbBlockBegin
  2
A4横用_タイトル
 70
     0
 10
0.0
 20
0.0
 30
0.0
  3
A4横用_タイトル
  1
A4横用_タイトル
  0
LINE
  5
29C1
330
29BF
100
AcDbEntity
  8
図枠細線
  6
CONTINUOUS
100
AcDbLine
 10
75.061011071051
 20
16.806607253358
 30
0.0
 11
144.061011071051
 21
16.806604789072
 31
0.0
  0
LINE
  5
29C2
330
29BF
100
AcDbEntity
  8
図枠細線
  6
CONTINUOUS
 62
   252
100
AcDbLine
 10
4.061011071051
 20
11.806606253358
 30
0.0
 11
75.061011071051
 21
11.806606253358
 31
0.0
  0
LINE
  5
29C3
330
29BF
100
AcDbEntity
  8
図枠細線
  6
CONTINUOUS
 62
   252
100
AcDbLine
 10
4.061011071051
 20
21.806606253358
 30
0.0
 11
75.061011071051
 21
21.806606253358
 31
0.0
  0
LINE
  5
29C4
330
29BF
100
AcDbEntity
  8
図枠細線
  6
CONTINUOUS
 62
   252
100
AcDbLine
 10
4.061011071051
 20
26.806606253358
 30
0.0
 11
75.061011071051
 21
26.806606253358
 31
0.0
  0
LINE
  5
29C5
330
29BF
100
AcDbEntity
  8
図枠細線
  6
CONTINUOUS
100
AcDbLine
 10
4.061011071051
 20
16.806608253358
 30
0.0
 11
75.061011071051
 21
16.806608253358
 31
0.0
  0
TEXT
  5
29C6
330
29BF
100
AcDbEntity
  8
図枠細線
  6
CONTINUOUS
 62
   252
100
AcDbText
 10
76.405475827713
 20
9.560308253358
 30
0.0
 40
2.0
  1
ＴＨＩＲＤ　ＡＮＧＬＥ
 41
0.691099486738
  7
EXCADSTD
 72
     5
 11
94.005476089973
 21
9.560308253358
 31
0.0
100
AcDbText
  0
TEXT
  5
29C7
330
29BF
100
AcDbEntity
  8
図枠細線
  6
CONTINUOUS
 62
   252
100
AcDbText
 10
76.705775880921
 20
14.306608253358
 30
0.0
 40
2.0
  1
第三角法
 41
1.102941176471
  7
EXCADSTD
 72
     5
 11
86.705775880921
 21
14.306608253358
 31
0.0
100
AcDbText
  0
TEXT
  5
29C8
330
29BF
100
AcDbEntity
  8
図枠細線
  6
CONTINUOUS
 62
   252
100
AcDbText
 10
76.705775880921
 20
26.806608253358
 30
0.0
 40
2.0
  1
ＡＰＰＲＯＶＥＤ
 41
0.695652184279
  7
EXCADSTD
 72
     5
 11
89.505776071656
 21
26.806608253358
 31
0.0
100
AcDbText
  0
TEXT
  5
29C9
330
29BF
100
AcDbEntity
  8
図枠細線
  6
CONTINUOUS
 62
   252
100
AcDbText
 10
76.705775880921
 20
29.306608253358
 30
0.0
 40
2.0
  1
承認
 41
1.171875
  7
EXCADSTD
 72
     5
 11
81.705775880921
 21
29.306608253358
 31
0.0
100
AcDbText
  0
LINE
  5
29CA
330
29BF
100
AcDbEntity
  8
図枠細線
  6
CONTINUOUS
 62
   252
100
AcDbLine
 10
98.061011071051
 20
31.806606253358
 30
0.0
 11
98.061011071051
 21
16.806606253358
 31
0.0
  0
TEXT
  5
29CB
330
29BF
100
AcDbEntity
  8
図枠細線
  6
CONTINUOUS
 62
   252
100
AcDbText
 10
104.216531119804
 20
14.306608253358
 30
0.0
 40
2.0
  1
ＳＣＡＬＥ
 41
0.903614457831
  7
EXCADSTD
 72
     5
 11
114.216531119804
 21
14.306608253358
 31
0.0
100
AcDbText
  0
TEXT
  5
29CC
330
29BF
100
AcDbEntity
  8
図枠細線
  6
CONTINUOUS
 62
   252
100
AcDbText
 10
98.844044119804
 20
14.306608253358
 30
0.0
 40
2.0
  1
尺度
 41
1.171875
  7
EXCADSTD
 72
     5
 11
103.844044119804
 21
14.306608253358
 31
0.0
100
AcDbText
  0
TEXT
  5
29CD
330
29BF
100
AcDbEntity
  8
図枠細線
  6
CONTINUOUS
 62
   252
100
AcDbText
 10
98.968727707497
 20
26.806608253358
 30
0.0
 40
2.0
  1
ＣＨＥＣＫＥＤ
 41
0.831249989569
  7
EXCADSTD
 72
     5
 11
112.268727540604
 21
26.806608253358
 31
0.0
100
AcDbText
  0
TEXT
  5
29CE
330
29BF
100
AcDbEntity
  8
図枠細線
  6
CONTINUOUS
 62
   252
100
AcDbText
 10
98.968727707497
 20
29.306608253358
 30
0.0
 40
2.0
  1
検図
 41
1.209677419355
  7
EXCADSTD
 72
     5
 11
103.968727707497
 21
29.306608253358
 31
0.0
100
AcDbText
  0
LINE
  5
29CF
330
29BF
100
AcDbEntity
  8
図枠細線
  6
CONTINUOUS
 62
   252
100
AcDbLine
 10
121.061011071051
 20
31.806606253358
 30
0.0
 11
121.061011071051
 21
16.806606253358
 31
0.0
  0
TEXT
  5
29D0
330
29BF
100
AcDbEntity
  8
図枠細線
  6
CONTINUOUS
 62
   252
100
AcDbText
 10
128.001465247253
 20
14.306608253358
 30
0.0
 40
2.0
  1
ＤＡＴＥ
 41
0.923076923077
  7
EXCADSTD
 72
     5
 11
136.001465247253
 21
14.306608253358
 31
0.0
100
AcDbText
  0
TEXT
  5
29D1
330
29BF
100
AcDbEntity
  8
図枠細線
  6
CONTINUOUS
 62
   252
100
AcDbText
 10
122.066415498841
 20
14.306608253358
 30
0.0
 40
2.0
  1
日付
 41
1.171875
  7
EXCADSTD
 72
     5
 11
127.066415498841
 21
14.306608253358
 31
0.0
100
AcDbText
  0
TEXT
  5
29D2
330
29BF
100
AcDbEntity
  8
図枠細線
  6
CONTINUOUS
 62
   252
100
AcDbText
 10
121.59429406571
 20
29.306608253358
 30
0.0
 40
2.0
  1
製図
 41
1.209677419355
  7
EXCADSTD
 72
     5
 11
126.59429406571
 21
29.306608253358
 31
0.0
100
AcDbText
  0
TEXT
  5
29D3
330
29BF
100
AcDbEntity
  8
図枠細線
  6
CONTINUOUS
 62
   252
100
AcDbText
 10
121.59429406571
 20
26.806608253358
 30
0.0
 40
2.0
  1
ＤＲＡＷＮ
 41
0.882352941176
  7
EXCADSTD
 72
     5
 11
131.59429406571
 21
26.806608253358
 31
0.0
100
AcDbText
  0
TEXT
  5
29D4
330
29BF
100
AcDbEntity
  8
図枠細線
  6
CONTINUOUS
 62
   252
100
AcDbText
 10
226.591229661348
 20
14.306608253358
 30
0.0
 40
2.0
  1
ＤＲＧ．ＮＯ．
 41
0.9375
  7
EXCADSTD
 72
     5
 11
240.591229661348
 21
14.306608253358
 31
0.0
100
AcDbText
  0
LINE
  5
29D5
330
29BF
100
AcDbEntity
  8
図枠太線
  6
CONTINUOUS
 62
   251
100
AcDbLine
 10
144.061003071051
 20
16.806606253358
 30
0.0
 11
214.061011071051
 21
16.806606253358
 31
0.0
  0
LINE
  5
29D6
330
29BF
100
AcDbEntity
  8
図枠細線
  6
CONTINUOUS
 62
   252
100
AcDbLine
 10
144.061011071051
 20
24.306606253358
 30
0.0
 11
214.061011071051
 21
24.306606253358
 31
0.0
  0
TEXT
  5
29D7
330
29BF
100
AcDbEntity
  8
図枠ロゴマーク
  6
CONTINUOUS
 62
   253
100
AcDbText
 10
146.433776781596
 20
8.399000253358
 30
0.0
 40
7.0
  1
東和制電工業株式会社
 41
0.80361088462
  7
EXCADSTD
 72
     5
 11
212.437017438349
 21
8.399000253358
 31
0.0
100
AcDbText
  0
TEXT
  5
29D8
330
29BF
100
AcDbEntity
  8
図枠細線
  6
CONTINUOUS
 62
   252
100
AcDbText
 10
215.156179912936
 20
14.306608253358
 30
0.0
 40
2.0
  1
図面番号
 41
1.102941176471
  7
EXCADSTD
 72
     5
 11
225.156179912936
 21
14.306608253358
 31
0.0
100
AcDbText
  0
TEXT
  5
29D9
330
29BF
100
AcDbEntity
  8
図枠細線
  6
CONTINUOUS
 62
   252
100
AcDbText
 10
221.591229661348
 20
29.306608253358
 30
0.0
 40
2.0
  1
ＴＩＴＬＥ
 41
0.903614457831
  7
EXCADSTD
 72
     5
 11
231.591229661348
 21
29.306608253358
 31
0.0
100
AcDbText
  0
TEXT
  5
29DA
330
29BF
100
AcDbEntity
  8
図枠細線
  6
CONTINUOUS
 62
   252
100
AcDbText
 10
215.156179912936
 20
29.306608253358
 30
0.0
 40
2.0
  1
名称
 41
1.171875
  7
EXCADSTD
 72
     5
 11
220.156179912936
 21
29.306608253358
 31
0.0
100
AcDbText
  0
LINE
  5
29DB
330
29BF
100
AcDbEntity
  8
図枠太線
  6
CONTINUOUS
 62
   251
100
AcDbLine
 10
4.061011071051
 20
1.806608253358
 30
0.0
 11
284.061011071051
 21
1.806608253358
 31
0.0
  0
LINE
  5
29DC
330
29BF
100
AcDbEntity
  8
図枠細線
  6
CONTINUOUS
 62
   252
100
AcDbLine
 10
4.061011071051
 20
6.806608253358
 30
0.0
 11
75.061011071051
 21
6.806608253358
 31
0.0
  0
LINE
  5
29DD
330
29BF
100
AcDbEntity
  8
図枠太線
  6
CONTINUOUS
 62
   251
100
AcDbLine
 10
75.061011071051
 20
1.806608253358
 30
0.0
 11
75.061011071051
 21
31.806606253358
 31
0.0
  0
TEXT
  5
29DE
330
29BF
100
AcDbEntity
  8
図枠細線
  6
CONTINUOUS
 62
   252
100
AcDbText
 10
76.330551827713
 20
6.638319253358
 30
0.0
 40
2.0
  1
ＰＲＯＪＥＣＴＩＯＮ
 41
0.754285710199
  7
EXCADSTD
 72
     5
 11
93.930551732346
 21
6.638319253358
 31
0.0
100
AcDbText
  0
LINE
  5
29DF
330
29BF
100
AcDbEntity
  8
図枠細線
  6
CONTINUOUS
 62
   252
100
AcDbLine
 10
98.061011071051
 20
1.806606931929
 30
0.0
 11
98.061011071051
 21
16.806604931929
 31
0.0
  0
LINE
  5
29E0
330
29BF
100
AcDbEntity
  8
図枠細線
  6
CONTINUOUS
 62
   252
100
AcDbLine
 10
121.061011071051
 20
1.806607574787
 30
0.0
 11
121.061011071051
 21
16.806605574787
 31
0.0
  0
LINE
  5
29E1
330
29BF
100
AcDbEntity
  8
図枠太線
  6
CONTINUOUS
 62
   251
100
AcDbLine
 10
284.061011071051
 20
1.806608253358
 30
0.0
 11
284.061011071051
 21
31.806606253358
 31
0.0
  0
LINE
  5
29E2
330
29BF
100
AcDbEntity
  8
図枠細線
  6
CONTINUOUS
 62
   252
100
AcDbLine
 10
214.061011071051
 20
16.806606253358
 30
0.0
 11
284.061011071051
 21
16.806606253358
 31
0.0
  0
TEXT
  5
29E3
330
29BF
100
AcDbEntity
  8
図枠細線
  6
CONTINUOUS
 62
   252
100
AcDbText
 10
146.199593676182
 20
3.454099253358
 30
0.0
 40
3.5
  1
ＴＯＷＡ　ＳＥＩＤＥＮ　ＩＮＤＵＳＴＲＩＡＬ　ＣＯ．，ＬＴＤ．
 41
0.528937826907
  7
EXCADSTD
 72
     5
 11
213.339435171588
 21
3.454099253358
 31
0.0
100
AcDbText
  0
LINE
  5
29E4
330
29BF
100
AcDbEntity
  8
図枠太線
  6
CONTINUOUS
 62
   251
100
AcDbLine
 10
144.061011071051
 20
1.806608253358
 30
0.0
 11
144.061011071051
 21
31.806606253358
 31
0.0
  0
LINE
  5
29E5
330
29BF
100
AcDbEntity
  8
図枠太線
  6
CONTINUOUS
 62
   251
100
AcDbLine
 10
214.061011071051
 20
1.806608253358
 30
0.0
 11
214.061011071051
 21
31.806606253358
 31
0.0
  0
MTEXT
  5
29E6
330
29BF
100
AcDbEntity
  8
図枠太線
100
AcDbMText
 10
5.064337346478
 20
31.010982137407
 30
0.0
 40
2.5
 41
8.67856098472
 71
     1
 72
     5
  1
{\Fmonotxt.shx,bigfont.shx|c128;図暦}
  0
LINE
  5
29E7
330
29BF
100
AcDbEntity
  8
図枠太線
  6
CONTINUOUS
 62
   251
100
AcDbLine
 10
4.061011071051
 20
1.806608253358
 30
0.0
 11
4.061011071051
 21
31.806606253358
 31
0.0
  0
TEXT
  5
29E8
330
29BF
100
AcDbEntity
  8
図枠細線
 48
10.0
100
AcDbText
 10
12.260817420402
 20
28.625419626495
 30
0.0
 40
2.0
  1
CHANGE NOTICE
100
AcDbText
  0
ENDBLK
  5
29E9
330
29BF
100
AcDbEntity
  8
0
100
AcDbBlockEnd
  0
BLOCK
  5
29F5
330
29F4
100
AcDbEntity
  8
0
100
AcDbBlockBegin
  2
A4縦用_タイトル
 70
     0
 10
0.0
 20
0.0
 30
0.0
  3
A4縦用_タイトル
  1
A4縦用_タイトル
  0
LINE
  5
29F6
330
29F4
100
AcDbEntity
  8
図枠太線
  6
CONTINUOUS
 62
   251
100
AcDbLine
 10
2.368253864267
 20
4.525433224584
 30
0.0
 11
192.368245864267
 21
4.525433224584
 31
0.0
  0
LINE
  5
29F7
330
29F4
100
AcDbEntity
  8
図枠太線
  6
CONTINUOUS
 62
   251
100
AcDbLine
 10
78.368245864267
 20
19.525431224584
 30
0.0
 11
135.368253864267
 21
19.525431224584
 31
0.0
  0
LINE
  5
29F8
330
29F4
100
AcDbEntity
  8
図枠細線
  6
CONTINUOUS
 62
   252
100
AcDbLine
 10
78.368253864267
 20
27.025431224584
 30
0.0
 11
135.368253864267
 21
27.025431224584
 31
0.0
  0
TEXT
  5
29F9
330
29F4
100
AcDbEntity
  8
図枠ロゴマーク
  6
CONTINUOUS
 62
   253
100
AcDbText
 10
80.617009864267
 20
11.117825224584
 30
0.0
 40
7.0
  1
東和制電工業株式会社
 41
0.639204545455
  7
EXCADSTD
 72
     5
 11
133.117009864267
 21
11.117825224584
 31
0.0
100
AcDbText
  0
TEXT
  5
29FA
330
29F4
100
AcDbEntity
  8
図枠細線
  6
CONTINUOUS
 62
   252
100
AcDbText
 10
80.579549864267
 20
6.172924224584
 30
0.0
 40
3.5
  1
ＴＯＷＡ　ＳＥＩＤＥＮ　ＩＮＤＵＳＴＲＩＡＬ　ＣＯ．，ＬＴＤ．
 41
0.414568012377
  7
EXCADSTD
 72
     5
 11
133.202049568628
 21
6.172924224584
 31
0.0
100
AcDbText
  0
LINE
  5
29FB
330
29F4
100
AcDbEntity
  8
図枠太線
  6
CONTINUOUS
 62
   251
100
AcDbLine
 10
2.368253864267
 20
4.525433224584
 30
0.0
 11
2.368253864267
 21
34.525431224584
 31
0.0
  0
TEXT
  5
29FC
330
29F4
100
AcDbEntity
  8
図枠細線
  6
CONTINUOUS
 62
   252
100
AcDbText
 10
22.504308136501
 20
12.279133224584
 30
0.0
 40
2.0
  1
ＴＨＩＲＤ　ＡＮＧＬＥ
 41
0.691099486738
  7
EXCADSTD
 72
     5
 11
40.104308398762
 21
12.279133224584
 31
0.0
100
AcDbText
  0
TEXT
  5
29FD
330
29F4
100
AcDbEntity
  8
図枠細線
  6
CONTINUOUS
 62
   252
100
AcDbText
 10
22.429384136501
 20
9.357144224584
 30
0.0
 40
2.0
  1
ＰＲＯＪＥＣＴＩＯＮ
 41
0.754285710199
  7
EXCADSTD
 72
     5
 11
40.029384041134
 21
9.357144224584
 31
0.0
100
AcDbText
  0
LINE
  5
29FE
330
29F4
100
AcDbEntity
  8
図枠細線
  6
CONTINUOUS
100
AcDbLine
 10
22.368253864267
 20
19.525433224584
 30
0.0
 11
78.368253864267
 21
19.525431224584
 31
0.0
  0
TEXT
  5
29FF
330
29F4
100
AcDbEntity
  8
図枠細線
  6
CONTINUOUS
 62
   252
100
AcDbText
 10
22.868253864267
 20
17.025433224584
 30
0.0
 40
2.0
  1
第三角法
 41
1.102941176471
  7
EXCADSTD
 72
     5
 11
32.868253864267
 21
17.025433224584
 31
0.0
100
AcDbText
  0
TEXT
  5
2A00
330
29F4
100
AcDbEntity
  8
図枠細線
  6
CONTINUOUS
 62
   252
100
AcDbText
 10
22.868253864267
 20
29.525433224584
 30
0.0
 40
2.0
  1
ＡＰＰＲＯＶＥＤ
 41
0.695652184279
  7
EXCADSTD
 72
     5
 11
35.668254055002
 21
29.525433224584
 31
0.0
100
AcDbText
  0
LINE
  5
2A01
330
29F4
100
AcDbEntity
  8
図枠細線
  6
CONTINUOUS
 62
   252
100
AcDbLine
 10
2.368253864267
 20
9.525433224584
 30
0.0
 11
22.368253864267
 21
9.525433224584
 31
0.0
  0
LINE
  5
2A02
330
29F4
100
AcDbEntity
  8
図枠細線
  6
CONTINUOUS
 62
   252
100
AcDbLine
 10
2.368253864267
 20
14.525431224584
 30
0.0
 11
22.368253864267
 21
14.525431224584
 31
0.0
  0
LINE
  5
2A03
330
29F4
100
AcDbEntity
  8
図枠細線
  6
CONTINUOUS
 62
   252
100
AcDbLine
 10
2.368253864267
 20
24.525431224584
 30
0.0
 11
22.368253864267
 21
24.525431224584
 31
0.0
  0
LINE
  5
2A04
330
29F4
100
AcDbEntity
  8
図枠細線
  6
CONTINUOUS
 62
   252
100
AcDbLine
 10
2.368253864267
 20
29.525431224584
 30
0.0
 11
22.368253864267
 21
29.525431224584
 31
0.0
  0
LINE
  5
2A05
330
29F4
100
AcDbEntity
  8
図枠細線
  6
CONTINUOUS
100
AcDbLine
 10
2.368253864267
 20
19.525433224584
 30
0.0
 11
22.368253864267
 21
19.525433224584
 31
0.0
  0
TEXT
  5
2A06
330
29F4
100
AcDbEntity
  8
図枠細線
  6
CONTINUOUS
 62
   252
100
AcDbText
 10
2.868253864267
 20
32.025433224584
 30
0.0
 40
2.0
  1
ＮＯＴＥ
 41
0.923076923077
  7
EXCADSTD
 72
     5
 11
10.868253864267
 21
32.025433224584
 31
0.0
100
AcDbText
  0
LINE
  5
2A07
330
29F4
100
AcDbEntity
  8
図枠太線
  6
CONTINUOUS
 62
   251
100
AcDbLine
 10
22.368253864267
 20
4.525433224584
 30
0.0
 11
22.368253864267
 21
34.525431224584
 31
0.0
  0
TEXT
  5
2A08
330
29F4
100
AcDbEntity
  8
図枠細線
  6
CONTINUOUS
 62
   252
100
AcDbText
 10
22.868253864267
 20
32.025433224584
 30
0.0
 40
2.0
  1
承認
 41
1.171875
  7
EXCADSTD
 72
     5
 11
27.868253864267
 21
32.025433224584
 31
0.0
100
AcDbText
  0
TEXT
  5
2A09
330
29F4
100
AcDbEntity
  8
図枠細線
  6
CONTINUOUS
 62
   252
100
AcDbText
 10
60.711709035982
 20
32.025433224584
 30
0.0
 40
2.0
  1
製図
 41
1.209677419355
  7
EXCADSTD
 72
     5
 11
65.711709035982
 21
32.025433224584
 31
0.0
100
AcDbText
  0
TEXT
  5
2A0A
330
29F4
100
AcDbEntity
  8
図枠細線
  6
CONTINUOUS
 62
   252
100
AcDbText
 10
60.711709035982
 20
29.525433224584
 30
0.0
 40
2.0
  1
ＤＲＡＷＮ
 41
0.882352941176
  7
EXCADSTD
 72
     5
 11
70.711709035982
 21
29.525433224584
 31
0.0
100
AcDbText
  0
TEXT
  5
2A0B
330
29F4
100
AcDbEntity
  8
図枠細線
  6
CONTINUOUS
 62
   252
100
AcDbText
 10
60.834891743877
 20
17.025433224584
 30
0.0
 40
2.0
  1
日付
 41
1.171875
  7
EXCADSTD
 72
     5
 11
65.834891743877
 21
17.025433224584
 31
0.0
100
AcDbText
  0
TEXT
  5
2A0C
330
29F4
100
AcDbEntity
  8
図枠細線
  6
CONTINUOUS
 62
   252
100
AcDbText
 10
47.333660864267
 20
17.025433224584
 30
0.0
 40
2.0
  1
ＳＣＡＬＥ
 41
0.903614457831
  7
EXCADSTD
 72
     5
 11
57.333660864267
 21
17.025433224584
 31
0.0
100
AcDbText
  0
TEXT
  5
2A0D
330
29F4
100
AcDbEntity
  8
図枠細線
  6
CONTINUOUS
 62
   252
100
AcDbText
 10
42.281425990082
 20
29.525433224584
 30
0.0
 40
2.0
  1
ＣＨＥＣＫＥＤ
 41
0.831249989569
  7
EXCADSTD
 72
     5
 11
55.581425823189
 21
29.525433224584
 31
0.0
100
AcDbText
  0
LINE
  5
2A0E
330
29F4
100
AcDbEntity
  8
図枠細線
  6
CONTINUOUS
 62
   252
100
AcDbLine
 10
40.968253864267
 20
34.525431224584
 30
0.0
 11
40.968253864267
 21
19.525431224584
 31
0.0
  0
LINE
  5
2A0F
330
29F4
100
AcDbEntity
  8
図枠細線
  6
CONTINUOUS
 62
   252
100
AcDbLine
 10
40.968253864267
 20
4.525433224584
 30
0.0
 11
40.968253864267
 21
19.525431224584
 31
0.0
  0
TEXT
  5
2A10
330
29F4
100
AcDbEntity
  8
図枠細線
  6
CONTINUOUS
 62
   252
100
AcDbText
 10
41.961173864267
 20
17.025433224584
 30
0.0
 40
2.0
  1
尺度
 41
1.171875
  7
EXCADSTD
 72
     5
 11
46.961173864267
 21
17.025433224584
 31
0.0
100
AcDbText
  0
TEXT
  5
2A11
330
29F4
100
AcDbEntity
  8
図枠細線
  6
CONTINUOUS
 62
   252
100
AcDbText
 10
42.281425990082
 20
32.025433224584
 30
0.0
 40
2.0
  1
検図
 41
1.209677419355
  7
EXCADSTD
 72
     5
 11
47.281425990082
 21
32.025433224584
 31
0.0
100
AcDbText
  0
LINE
  5
2A12
330
29F4
100
AcDbEntity
  8
図枠細線
  6
CONTINUOUS
 62
   252
100
AcDbLine
 10
59.768253864267
 20
34.525431224584
 30
0.0
 11
59.768253864267
 21
19.525431224584
 31
0.0
  0
LINE
  5
2A13
330
29F4
100
AcDbEntity
  8
図枠細線
  6
CONTINUOUS
 62
   252
100
AcDbLine
 10
59.768253864267
 20
4.525433224584
 30
0.0
 11
59.768253864267
 21
19.525431224584
 31
0.0
  0
LINE
  5
2A14
330
29F4
100
AcDbEntity
  8
図枠太線
  6
CONTINUOUS
 62
   251
100
AcDbLine
 10
78.368253864267
 20
4.525433224584
 30
0.0
 11
78.368253864267
 21
34.525431224584
 31
0.0
  0
TEXT
  5
2A15
330
29F4
100
AcDbEntity
  8
図枠細線
  6
CONTINUOUS
 62
   252
100
AcDbText
 10
66.334891743877
 20
17.025433224584
 30
0.0
 40
2.0
  1
ＤＡＴＥ
 41
0.923076923077
  7
EXCADSTD
 72
     5
 11
74.334891743877
 21
17.025433224584
 31
0.0
100
AcDbText
  0
LINE
  5
2A16
330
29F4
100
AcDbEntity
  8
図枠細線
  6
CONTINUOUS
 62
   252
100
AcDbLine
 10
135.368253864267
 20
19.525431224584
 30
0.0
 11
192.368245864267
 21
19.525431224584
 31
0.0
  0
TEXT
  5
2A17
330
29F4
100
AcDbEntity
  8
図枠細線
  6
CONTINUOUS
 62
   252
100
AcDbText
 10
141.868253864267
 20
32.025433224584
 30
0.0
 40
2.0
  1
ＴＩＴＬＥ
 41
0.903614457831
  7
EXCADSTD
 72
     5
 11
151.868253864267
 21
32.025433224584
 31
0.0
100
AcDbText
  0
LINE
  5
2A18
330
29F4
100
AcDbEntity
  8
図枠太線
  6
CONTINUOUS
 62
   251
100
AcDbLine
 10
135.368253864267
 20
4.525433224584
 30
0.0
 11
135.368253864267
 21
34.525431224584
 31
0.0
  0
TEXT
  5
2A19
330
29F4
100
AcDbEntity
  8
図枠細線
  6
CONTINUOUS
 62
   252
100
AcDbText
 10
135.868253864267
 20
17.025433224584
 30
0.0
 40
2.0
  1
図面番号
 41
1.102941176471
  7
EXCADSTD
 72
     5
 11
145.868253864267
 21
17.025433224584
 31
0.0
100
AcDbText
  0
TEXT
  5
2A1A
330
29F4
100
AcDbEntity
  8
図枠細線
  6
CONTINUOUS
 62
   252
100
AcDbText
 10
135.868253864267
 20
32.025433224584
 30
0.0
 40
2.0
  1
名称
 41
1.171875
  7
EXCADSTD
 72
     5
 11
140.868253864267
 21
32.025433224584
 31
0.0
100
AcDbText
  0
TEXT
  5
2A1B
330
29F4
100
AcDbEntity
  8
図枠細線
  6
CONTINUOUS
 62
   252
100
AcDbText
 10
146.868253864267
 20
17.025433224584
 30
0.0
 40
2.0
  1
ＤＲＧ．ＮＯ．
 41
0.9375
  7
EXCADSTD
 72
     5
 11
160.868253864267
 21
17.025433224584
 31
0.0
100
AcDbText
  0
LINE
  5
2A1C
330
29F4
100
AcDbEntity
  8
図枠太線
  6
CONTINUOUS
 62
   251
100
AcDbLine
 10
192.368245864267
 20
4.525433224584
 30
0.0
 11
192.368245864267
 21
34.525431224584
 31
0.0
  0
ENDBLK
  5
2A1D
330
29F4
100
AcDbEntity
  8
0
100
AcDbBlockEnd
  0
BLOCK
  5
2A33
330
2A32
100
AcDbEntity
  8
0
100
AcDbBlockBegin
  2
A3横用_タイトル
 70
     0
 10
0.0
 20
0.0
 30
0.0
  3
A3横用_タイトル
  1
A3横用_タイトル
  0
LINE
  5
2A34
330
2A32
100
AcDbEntity
  8
図枠細線
  6
CONTINUOUS
 62
   252
100
AcDbLine
 10
205.098414535793
 20
33.525959753527
 30
0.0
 11
305.098414535793
 21
33.525959753527
 31
0.0
  0
LINE
  5
2A35
330
2A32
100
AcDbEntity
  8
図枠太線
  6
CONTINUOUS
 62
   251
100
AcDbLine
 10
205.098414535793
 20
23.525959753527
 30
0.0
 11
305.098414535793
 21
23.525959753527
 31
0.0
  0
LINE
  5
2A36
330
2A32
100
AcDbEntity
  8
図枠細線
  6
CONTINUOUS
100
AcDbLine
 10
5.098414535793
 20
23.525959753527
 30
0.0
 11
105.098414535793
 21
23.525959753527
 31
0.0
  0
LINE
  5
2A37
330
2A32
100
AcDbEntity
  8
図枠細線
  6
CONTINUOUS
 62
   252
100
AcDbLine
 10
5.098414535793
 20
36.725957753527
 30
0.0
 11
105.098414535793
 21
36.725957753527
 31
0.0
  0
LINE
  5
2A38
330
2A32
100
AcDbEntity
  8
図枠細線
  6
CONTINUOUS
 62
   252
100
AcDbLine
 10
5.098414535793
 20
30.125957753527
 30
0.0
 11
105.098414535793
 21
30.125957753527
 31
0.0
  0
LINE
  5
2A39
330
2A32
100
AcDbEntity
  8
図枠細線
  6
CONTINUOUS
 62
   252
100
AcDbLine
 10
5.098414535793
 20
16.725959753527
 30
0.0
 11
105.098414535793
 21
16.725959753527
 31
0.0
  0
LINE
  5
2A3A
330
2A32
100
AcDbEntity
  8
図枠細線
  6
CONTINUOUS
 62
   252
100
AcDbLine
 10
5.098414535793
 20
10.125959753527
 30
0.0
 11
105.098414535793
 21
10.125959753527
 31
0.0
  0
LINE
  5
2A3B
330
2A32
100
AcDbEntity
  8
図枠細線
  6
CONTINUOUS
100
AcDbLine
 10
105.098414535793
 20
23.525961753527
 30
0.0
 11
205.098414535793
 21
23.525959753527
 31
0.0
  0
LINE
  5
2A3C
330
2A32
100
AcDbEntity
  8
図枠細線
  6
CONTINUOUS
 62
   252
100
AcDbLine
 10
138.398414535793
 20
43.525959753527
 30
0.0
 11
138.398414535793
 21
18.525957753527
 31
0.0
  0
LINE
  5
2A3D
330
2A32
100
AcDbEntity
  8
図枠細線
  6
CONTINUOUS
 62
   252
100
AcDbLine
 10
171.698414535793
 20
43.525959753527
 30
0.0
 11
171.698414535793
 21
18.525957753527
 31
0.0
  0
LINE
  5
2A3E
330
2A32
100
AcDbEntity
  8
図枠細線
  6
CONTINUOUS
 62
   252
100
AcDbLine
 10
305.098414535793
 20
23.525959753527
 30
0.0
 11
405.098414535793
 21
23.525959753527
 31
0.0
  0
TEXT
  5
2A3F
330
2A32
100
AcDbEntity
  8
図枠ロゴマーク
  6
CONTINUOUS
 62
   253
100
AcDbText
 10
206.102509212755
 20
13.294257570546
 30
0.0
 40
7.0
  1
東和制電工業株式会社
 50
0.016555220185
 41
1.186384129432
  7
EXCADSTD
 72
     5
 11
303.544188309143
 21
13.322412672217
 31
0.0
100
AcDbText
  0
MTEXT
  5
2A40
330
2A32
100
AcDbEntity
  8
図枠細線
100
AcDbMText
 10
6.356764112375
 20
41.976594175478
 30
0.0
 40
2.5
 41
49.938282706292
 71
     1
 72
     5
  1
{\Fmonotxt.shx,bigfont.shx|c128;図暦　CHANGE　NOTICE}
  0
MTEXT
  5
2A41
330
2A32
100
AcDbEntity
  8
図枠細線
 48
10.0
100
AcDbMText
 10
306.544114926828
 20
41.701835800934
 30
0.0
 40
2.5
 41
28.002809618823
 71
     1
 72
     5
  1
{\Fmonotxt.shx,bigfont.shx|c128;名称　TITLE}
  0
MTEXT
  5
2A42
330
2A32
100
AcDbEntity
  8
図枠細線
 48
10.0
100
AcDbMText
 10
307.329617114284
 20
21.606206797226
 30
0.0
 40
2.5
 41
24.385612216707
 71
     1
 72
     5
  1
{\Fmonotxt.shx,bigfont.shx|c128;図面番号\PDRG.　No.}
  0
MTEXT
  5
2A43
330
2A32
100
AcDbEntity
  8
図枠細線
 48
10.0
100
AcDbMText
 10
173.726349404609
 20
21.73680662198
 30
0.0
 40
2.5
 41
25.735090160813
 71
     1
 72
     5
  1
{\Fmonotxt.shx,bigfont.shx|c128;日付 DATE}
  0
MTEXT
  5
2A44
330
2A32
100
AcDbEntity
  8
図枠細線
 48
10.0
100
AcDbMText
 10
173.48708833982
 20
41.621592044998
 30
0.0
 40
2.5
 41
24.983741184205
 71
     1
 72
     5
  1
{\Fmonotxt.shx,bigfont.shx|c128;製図　DRAWN}
  0
MTEXT
  5
2A45
330
2A32
100
AcDbEntity
  8
図枠細線
 48
10.0
100
AcDbMText
 10
139.28009927741
 20
21.866713069868
 30
0.0
 40
2.5
 41
22.629632913243
 71
     1
 72
     5
  1
{\Fmonotxt.shx,bigfont.shx|c128;尺度　SCALE}
  0
MTEXT
  5
2A46
330
2A32
100
AcDbEntity
  8
図枠細線
 48
10.0
100
AcDbMText
 10
139.910091179835
 20
41.311840415554
 30
0.0
 40
2.5
 41
28.998753428368
 71
     1
 72
     5
  1
{\Fmonotxt.shx,bigfont.shx|c128;検図  CHECKED}
  0
MTEXT
  5
2A47
330
2A32
100
AcDbEntity
  8
図枠細線
 48
10.0
100
AcDbMText
 10
114.253294667728
 20
21.916124850174
 30
0.0
 40
3.0
 41
19.692400475383
 71
     1
 72
     5
  1
{\Fmonotxt.shx,bigfont.shx|c128;第三角法}
  0
MTEXT
  5
2A48
330
2A32
100
AcDbEntity
  8
図枠細線
 48
10.0
100
AcDbMText
 10
108.986959929915
 20
15.282880185837
 30
0.0
 40
2.5
 41
27.954882823547
 71
     1
 72
     5
  1
{\Fmonotxt.shx,bigfont.shx|c128;THIRD ANGLE\PPROJECTION}
  0
MTEXT
  5
2A49
330
2A32
100
AcDbEntity
  8
図枠細線
 48
10.0
100
AcDbMText
 10
106.319432640184
 20
41.511437145487
 30
0.0
 40
2.5
 41
28.233595265074
 71
     1
 72
     5
  1
{\Fmonotxt.shx,bigfont.shx|c128;承認 APPROVED}
  0
LINE
  5
2A4A
330
2A32
100
AcDbEntity
  8
図枠太線
  6
CONTINUOUS
 62
   251
100
AcDbLine
 10
5.098414535793
 20
3.525959753527
 30
0.0
 11
405.098414535793
 21
3.525959753527
 31
0.0
  0
LINE
  5
2A4B
330
2A32
100
AcDbEntity
  8
図枠太線
 48
10.0
100
AcDbLine
 10
5.098414535793
 20
3.525959753527
 30
0.0
 11
5.098414535793
 21
43.525959753527
 31
0.0
  0
LINE
  5
2A4C
330
2A32
100
AcDbEntity
  8
図枠太線
  6
CONTINUOUS
 62
   251
100
AcDbLine
 10
105.098414535793
 20
3.525959753527
 30
0.0
 11
105.098414535793
 21
43.525959753527
 31
0.0
  0
LINE
  5
2A4D
330
2A32
100
AcDbEntity
  8
図枠細線
  6
CONTINUOUS
 62
   252
100
AcDbLine
 10
138.398414535793
 20
3.525959753527
 30
0.0
 11
138.398414535793
 21
18.525957753527
 31
0.0
  0
LINE
  5
2A4E
330
2A32
100
AcDbEntity
  8
図枠細線
  6
CONTINUOUS
 62
   252
100
AcDbLine
 10
171.698414535793
 20
3.525959753527
 30
0.0
 11
171.698414535793
 21
18.525957753527
 31
0.0
  0
LINE
  5
2A4F
330
2A32
100
AcDbEntity
  8
図枠太線
  6
CONTINUOUS
 62
   251
100
AcDbLine
 10
205.098414535793
 20
3.525959753527
 30
0.0
 11
205.098414535793
 21
43.525959753527
 31
0.0
  0
LINE
  5
2A50
330
2A32
100
AcDbEntity
  8
図枠太線
 48
10.0
100
AcDbLine
 10
405.098414535793
 20
43.525959753527
 30
0.0
 11
405.098414535793
 21
3.525959753527
 31
0.0
  0
TEXT
  5
2A51
330
2A32
100
AcDbEntity
  8
図枠細線
  6
CONTINUOUS
 62
   252
100
AcDbText
 10
208.519754474572
 20
6.482358407285
 30
0.0
 40
3.5
  1
ＴＯＷＡ　ＳＥＩＤＥＮ　ＩＮＤＵＳＴＲＩＡＬ　ＣＯ．，ＬＴＤ．
 41
0.746656297509
  7
EXCADSTD
 72
     5
 11
303.295327171727
 21
6.482358407285
 31
0.0
100
AcDbText
  0
LINE
  5
2A52
330
2A32
100
AcDbEntity
  8
図枠太線
  6
CONTINUOUS
 62
   251
100
AcDbLine
 10
305.098414535793
 20
3.525959753527
 30
0.0
 11
305.098414535793
 21
43.525959753527
 31
0.0
  0
ENDBLK
  5
2A53
330
2A32
100
AcDbEntity
  8
0
100
AcDbBlockEnd
  0
BLOCK
  5
2A6D
330
2A6C
100
AcDbEntity
  8
0
100
AcDbBlockBegin
  2
A3縦用_タイトル
 70
     0
 10
0.0
 20
0.0
 30
0.0
  3
A3縦用_タイトル
  1
A3縦用_タイトル
  0
MTEXT
  5
2A6E
330
2A6C
100
AcDbEntity
  8
図枠細線
100
AcDbMText
 10
5.040804501593
 20
31.626098649005
 30
0.0
 40
2.5
 41
49.938282706292
 71
     1
 72
     5
  1
{\Fmonotxt.shx,bigfont.shx|c128;図暦　CHANGE　NOTICE}
  0
LINE
  5
2A6F
330
2A6C
100
AcDbEntity
  8
図枠太線
  6
CONTINUOUS
 62
   251
100
AcDbLine
 10
283.577871882961
 20
2.820844689254
 30
0.0
 11
283.577871882961
 21
32.820842689254
 31
0.0
  0
MTEXT
  5
2A70
330
2A6C
100
AcDbEntity
  8
図枠細線
 48
10.0
100
AcDbMText
 10
214.912458947454
 20
31.621488632308
 30
0.0
 40
2.5
 41
28.002809618823
 71
     1
 72
     5
  1
{\Fmonotxt.shx,bigfont.shx|c128;名称　TITLE}
  0
MTEXT
  5
2A71
330
2A6C
100
AcDbEntity
  8
図枠細線
 48
10.0
100
AcDbMText
 10
214.740030458938
 20
16.310225796722
 30
0.0
 40
2.5
 41
24.385612216707
 71
     1
 72
     5
  1
{\Fmonotxt.shx,bigfont.shx|c128;図面番号\PDRG.　No.}
  0
LINE
  5
2A72
330
2A6C
100
AcDbEntity
  8
図枠太線
  6
CONTINUOUS
 62
   251
100
AcDbLine
 10
213.577871882961
 20
2.820844689254
 30
0.0
 11
213.577871882961
 21
32.820842689254
 31
0.0
  0
LINE
  5
2A73
330
2A6C
100
AcDbEntity
  8
図枠太線
  6
CONTINUOUS
 62
   251
100
AcDbLine
 10
143.577871882961
 20
2.820844689254
 30
0.0
 11
143.577871882961
 21
32.820842689254
 31
0.0
  0
TEXT
  5
2A74
330
2A6C
100
AcDbEntity
  8
図枠細線
  6
CONTINUOUS
 62
   252
100
AcDbText
 10
145.716454488093
 20
4.468335689254
 30
0.0
 40
3.5
  1
ＴＯＷＡ　ＳＥＩＤＥＮ　ＩＮＤＵＳＴＲＩＡＬ　ＣＯ．，ＬＴＤ．
 41
0.528937826907
  7
EXCADSTD
 72
     5
 11
212.856295983498
 21
4.468335689254
 31
0.0
100
AcDbText
  0
TEXT
  5
2A75
330
2A6C
100
AcDbEntity
  8
図枠ロゴマーク
  6
CONTINUOUS
 62
   253
100
AcDbText
 10
145.950637593507
 20
9.413236689254
 30
0.0
 40
7.0
  1
東和制電工業株式会社
 41
0.80361088462
  7
EXCADSTD
 72
     5
 11
211.953878250259
 21
9.413236689254
 31
0.0
100
AcDbText
  0
LINE
  5
2A76
330
2A6C
100
AcDbEntity
  8
図枠細線
  6
CONTINUOUS
 62
   252
100
AcDbLine
 10
143.577871882961
 20
25.320842689254
 30
0.0
 11
213.577871882961
 21
25.320842689254
 31
0.0
  0
LINE
  5
2A77
330
2A6C
100
AcDbEntity
  8
図枠太線
  6
CONTINUOUS
 62
   251
100
AcDbLine
 10
143.577863882961
 20
17.820842689254
 30
0.0
 11
213.577871882961
 21
17.820842689254
 31
0.0
  0
LINE
  5
2A78
330
2A6C
100
AcDbEntity
  8
図枠細線
  6
CONTINUOUS
 62
   252
100
AcDbLine
 10
213.577871882961
 20
17.820842689254
 30
0.0
 11
283.577871882961
 21
17.820842689254
 31
0.0
  0
LINE
  5
2A79
330
2A6C
100
AcDbEntity
  8
図枠細線
  6
CONTINUOUS
 62
   252
100
AcDbLine
 10
120.577871882961
 20
32.820842689254
 30
0.0
 11
120.577871882961
 21
17.820842689254
 31
0.0
  0
MTEXT
  5
2A7A
330
2A6C
100
AcDbEntity
  8
図枠細線
 48
10.0
100
AcDbMText
 10
121.100885670352
 20
16.33785922638
 30
0.0
 40
2.0
 41
17.705978285068
 71
     1
 72
     5
  1
{\Fmonotxt.shx,bigfont.shx|c128;日付 DATE}
  0
MTEXT
  5
2A7B
330
2A6C
100
AcDbEntity
  8
図枠細線
 48
10.0
100
AcDbMText
 10
121.254842273491
 20
31.208993514037
 30
0.0
 40
2.0
 41
18.363799568758
 71
     1
 72
     5
  1
{\Fmonotxt.shx,bigfont.shx|c128;製図　DRAWN}
  0
LINE
  5
2A7C
330
2A6C
100
AcDbEntity
  8
図枠細線
  6
CONTINUOUS
 62
   252
100
AcDbLine
 10
97.577871882961
 20
32.820842689254
 30
0.0
 11
97.577871882961
 21
17.820842689254
 31
0.0
  0
MTEXT
  5
2A7D
330
2A6C
100
AcDbEntity
  8
図枠細線
 48
10.0
100
AcDbMText
 10
98.239734796872
 20
16.467764839281
 30
0.0
 40
2.0
 41
17.757791689903
 71
     1
 72
     5
  1
{\Fmonotxt.shx,bigfont.shx|c128;尺度　SCALE}
  0
MTEXT
  5
2A7E
330
2A6C
100
AcDbEntity
  8
図枠細線
 48
10.0
100
AcDbMText
 10
97.864744625154
 20
31.298433377664
 30
0.0
 40
2.0
 41
23.162655920976
 71
     1
 72
     5
  1
{\Fmonotxt.shx,bigfont.shx|c128;検図  CHECKED}
  0
LINE
  5
2A7F
330
2A6C
100
AcDbEntity
  8
図枠細線
  6
CONTINUOUS
 62
   252
100
AcDbLine
 10
97.577871882961
 20
2.820843367826
 30
0.0
 11
97.577871882961
 21
17.820841367826
 31
0.0
  0
LINE
  5
2A80
330
2A6C
100
AcDbEntity
  8
図枠細線
  6
CONTINUOUS
 62
   252
100
AcDbLine
 10
120.577871882961
 20
2.820844010683
 30
0.0
 11
120.577871882961
 21
17.820842010683
 31
0.0
  0
MTEXT
  5
2A81
330
2A6C
100
AcDbEntity
  8
図枠細線
 48
10.0
100
AcDbMText
 10
81.402399084102
 20
16.316484117426
 30
0.0
 40
2.0
 41
12.920322819369
 71
     1
 72
     5
  1
{\Fmonotxt.shx,bigfont.shx|c128;第三角法}
  0
MTEXT
  5
2A82
330
2A6C
100
AcDbEntity
  8
図枠細線
 48
10.0
100
AcDbMText
 10
75.736576535096
 20
11.080410931319
 30
0.0
 40
2.0
 41
21.072870671471
 71
     1
 72
     5
  1
{\Fmonotxt.shx,bigfont.shx|c128;THIRD ANGLE\PPROJECTION}
  0
LINE
  5
2A83
330
2A6C
100
AcDbEntity
  8
図枠太線
  6
CONTINUOUS
 62
   251
100
AcDbLine
 10
74.577871882961
 20
2.820844689254
 30
0.0
 11
74.577871882961
 21
32.820842689254
 31
0.0
  0
MTEXT
  5
2A84
330
2A6C
100
AcDbEntity
  8
図枠細線
 48
10.0
100
AcDbMText
 10
75.060214781573
 20
31.298434778555
 30
0.0
 40
2.0
 41
22.240928805967
 71
     1
 72
     5
  1
{\Fmonotxt.shx,bigfont.shx|c128;承認 APPROVED}
  0
LINE
  5
2A85
330
2A6C
100
AcDbEntity
  8
図枠細線
  6
CONTINUOUS
100
AcDbLine
 10
3.577871882961
 20
17.820844689254
 30
0.0
 11
74.577871882961
 21
17.820844689254
 31
0.0
  0
LINE
  5
2A86
330
2A6C
100
AcDbEntity
  8
図枠細線
  6
CONTINUOUS
 62
   252
100
AcDbLine
 10
3.577871882961
 20
27.820842689254
 30
0.0
 11
74.577871882961
 21
27.820842689254
 31
0.0
  0
LINE
  5
2A87
330
2A6C
100
AcDbEntity
  8
図枠細線
  6
CONTINUOUS
 62
   252
100
AcDbLine
 10
3.577871882961
 20
22.820842689254
 30
0.0
 11
74.577871882961
 21
22.820842689254
 31
0.0
  0
LINE
  5
2A88
330
2A6C
100
AcDbEntity
  8
図枠細線
  6
CONTINUOUS
 62
   252
100
AcDbLine
 10
3.577871882961
 20
12.820842689254
 30
0.0
 11
74.577871882961
 21
12.820842689254
 31
0.0
  0
LINE
  5
2A89
330
2A6C
100
AcDbEntity
  8
図枠細線
  6
CONTINUOUS
 62
   252
100
AcDbLine
 10
3.577871882961
 20
7.820844689254
 30
0.0
 11
74.577871882961
 21
7.820844689254
 31
0.0
  0
LINE
  5
2A8A
330
2A6C
100
AcDbEntity
  8
図枠細線
  6
CONTINUOUS
100
AcDbLine
 10
74.577871882961
 20
17.820843689254
 30
0.0
 11
143.577871882961
 21
17.820841224969
 31
0.0
  0
LINE
  5
2A8B
330
2A6C
100
AcDbEntity
  8
図枠太線
  6
CONTINUOUS
 62
   251
100
AcDbLine
 10
3.577871882961
 20
2.820844689254
 30
0.0
 11
283.577871882961
 21
2.820844689254
 31
0.0
  0
LINE
  5
2A8C
330
2A6C
100
AcDbEntity
  8
図枠太線
  6
CONTINUOUS
 62
   251
100
AcDbLine
 10
3.577871882961
 20
2.820844689254
 30
0.0
 11
3.577871882961
 21
32.820842689254
 31
0.0
  0
ENDBLK
  5
2A8D
330
2A6C
100
AcDbEntity
  8
0
100
AcDbBlockEnd
  0
BLOCK
  5
2AF8
330
2AF4
100
AcDbEntity
  8
0
 48
10.0
100
AcDbBlockBegin
  2
_OPEN30
 70
     0
 10
0.0
 20
0.0
 30
0.0
  3
_OPEN30
  1
_OPEN30
  0
LINE
  5
2AF5
330
2AF4
100
AcDbEntity
  8
0
  6
BYBLOCK
 62
     0
100
AcDbLine
 10
-1.0
 20
0.26794919
 30
0.0
 11
0.0
 21
0.0
 31
0.0
  0
LINE
  5
2AF6
330
2AF4
100
AcDbEntity
  8
0
  6
BYBLOCK
 62
     0
100
AcDbLine
 10
0.0
 20
0.0
 30
0.0
 11
-1.0
 21
-0.26794919
 31
0.0
  0
LINE
  5
2AF7
330
2AF4
100
AcDbEntity
  8
0
  6
BYBLOCK
 62
     0
100
AcDbLine
 10
0.0
 20
0.0
 30
0.0
 11
-1.0
 21
0.0
 31
0.0
  0
ENDBLK
  5
2AF9
330
2AF4
100
AcDbEntity
  8
0
 48
10.0
100
AcDbBlockEnd
  0
BLOCK
  5
3025
330
3024
100
AcDbEntity
  8
0
 48
10.0
100
AcDbBlockBegin
  2
パドル_W1
 70
     0
 10
0.0
 20
0.0
 30
0.0
  3
パドル_W1
  1
パドル_W1
  0
LINE
  5
3026
330
3024
100
AcDbEntity
  8
中心線
 48
10.0
100
AcDbLine
 10
124.6832879095
 20
220.674073777677
 30
0.0
 11
131.9189439095
 21
220.674073777677
 31
0.0
  0
LINE
  5
3027
330
3024
100
AcDbEntity
  8
外形線
 48
10.0
100
AcDbLine
 10
58.3011159095
 20
260.651761921811
 30
0.0
 11
58.3011159095
 21
180.651761921811
 31
0.0
  0
LINE
  5
3028
330
3024
100
AcDbEntity
  8
外形線
 48
10.0
100
AcDbLine
 10
58.3011159095
 20
180.651761921811
 30
0.0
 11
123.3011159095
 21
180.651761921811
 31
0.0
  0
LINE
  5
3029
330
3024
100
AcDbEntity
  8
外形線
 48
10.0
100
AcDbLine
 10
138.3011159095
 20
208.651761921811
 30
0.0
 11
138.3011159095
 21
212.376811207105
 31
0.0
  0
LINE
  5
302A
330
3024
100
AcDbEntity
  8
外形線
 48
10.0
100
AcDbLine
 10
123.3011159095
 20
260.651761921811
 30
0.0
 11
58.3011159095
 21
260.651761921811
 31
0.0
  0
LINE
  5
302B
330
3024
100
AcDbEntity
  8
外形線
 48
10.0
100
AcDbLine
 10
138.3011159095
 20
232.651761921811
 30
0.0
 11
123.3011159095
 21
260.651761921811
 31
0.0
  0
LINE
  5
302C
330
3024
100
AcDbEntity
  8
外形線
 48
10.0
100
AcDbLine
 10
138.3011159095
 20
208.651761921811
 30
0.0
 11
123.3011159095
 21
180.651761921811
 31
0.0
  0
LINE
  5
302D
330
3024
100
AcDbEntity
  8
外形線
 48
10.0
100
AcDbLine
 10
153.3011159095
 20
212.376811207105
 30
0.0
 11
153.3011159095
 21
228.941629207105
 31
0.0
  0
LINE
  5
302E
330
3024
100
AcDbEntity
  8
外形線
100
AcDbLine
 10
125.0147379095
 20
212.376811207105
 30
0.0
 11
153.3011159095
 21
212.376811207105
 31
0.0
  0
LINE
  5
302F
330
3024
100
AcDbEntity
  8
細線
100
AcDbLine
 10
153.2891519095
 20
216.518045207105
 30
0.0
 11
124.6692799095
 21
216.518045207105
 31
0.0
  0
LINE
  5
3030
330
3024
100
AcDbEntity
  8
外形線
100
AcDbLine
 10
125.0147379095
 20
228.941629207105
 30
0.0
 11
123.3011159095
 21
227.228007207105
 31
0.0
  0
ARC
  5
3031
330
3024
100
AcDbEntity
  8
細線
100
AcDbCircle
 10
126.4810479095
 20
227.420755207105
 30
0.0
 40
3.18575
100
AcDbArc
 50
183.469852255156
 51
235.339263082109
  0
LINE
  5
3032
330
3024
100
AcDbEntity
  8
細線
100
AcDbLine
 10
153.2891519095
 20
224.800395207105
 30
0.0
 11
124.6692799095
 21
224.800395207105
 31
0.0
  0
ARC
  5
3033
330
3024
100
AcDbEntity
  8
細線
100
AcDbCircle
 10
126.4810479095
 20
213.897685207105
 30
0.0
 40
3.18575
100
AcDbArc
 50
124.660776613574
 51
176.530130144749
  0
LINE
  5
3034
330
3024
100
AcDbEntity
  8
外形線
100
AcDbLine
 10
123.3011159095
 20
227.228007207105
 30
0.0
 11
123.3011159095
 21
214.090433207105
 31
0.0
  0
CIRCLE
  5
3035
330
3024
100
AcDbEntity
  8
外形線
100
AcDbCircle
 10
128.3011159095
 20
220.674073777677
 30
0.0
 40
2.28479
  0
ARC
  5
3036
330
3024
100
AcDbEntity
  8
細線
100
AcDbCircle
 10
130.2525019095
 20
220.659219207105
 30
0.0
 40
6.951389999999999
100
AcDbArc
 50
143.43540034864
 51
216.564582051267
  0
LINE
  5
3037
330
3024
100
AcDbEntity
  8
中心線
 48
10.0
100
AcDbLine
 10
128.3011159095
 20
224.291901777677
 30
0.0
 11
128.3011159095
 21
217.056245777676
 31
0.0
  0
LINE
  5
3038
330
3024
100
AcDbEntity
  8
外形線
100
AcDbLine
 10
125.0147379095
 20
212.376811207105
 30
0.0
 11
123.3011159095
 21
214.090433207105
 31
0.0
  0
LINE
  5
3039
330
3024
100
AcDbEntity
  8
外形線
100
AcDbLine
 10
125.0147379095
 20
228.941629207105
 30
0.0
 11
153.3011159095
 21
228.941629207105
 31
0.0
  0
LINE
  5
303A
330
3024
100
AcDbEntity
  8
外形線
 48
10.0
100
AcDbLine
 10
138.3011159095
 20
228.941629207105
 30
0.0
 11
138.3011159095
 21
232.651761921811
 31
0.0
  0
ENDBLK
  5
303B
330
3024
100
AcDbEntity
  8
0
 48
10.0
100
AcDbBlockEnd
  0
BLOCK
  5
3055
330
3054
100
AcDbEntity
  8
0
 48
10.0
100
AcDbBlockBegin
  2
パドル_W1立面図
 70
     0
 10
0.0
 20
0.0
 30
0.0
  3
パドル_W1立面図
  1
パドル_W1立面図
  0
LINE
  5
3056
330
3054
100
AcDbEntity
  8
外形線
 48
10.0
100
AcDbLine
 10
-4.385455455444
 20
189.61846140322
 30
0.0
 11
-7.241459969979
 21
189.61846140322
 31
0.0
  0
LINE
  5
3057
330
3054
100
AcDbEntity
  8
外形線
 48
10.0
100
AcDbLine
 10
-4.385455455444
 20
269.61846140322
 30
0.0
 11
-7.241459969979
 21
269.61846140322
 31
0.0
  0
LINE
  5
3058
330
3054
100
AcDbEntity
  8
外形線
 48
10.0
100
AcDbLine
 10
-4.385455455444
 20
189.61846140322
 30
0.0
 11
-4.385455455444
 21
269.61846140322
 31
0.0
  0
LINE
  5
3059
330
3054
100
AcDbEntity
  8
外形線
 48
10.0
100
AcDbLine
 10
-7.241459969979
 20
269.61846140322
 30
0.0
 11
-7.241459969979
 21
189.61846140322
 31
0.0
  0
LINE
  5
305A
330
3054
100
AcDbEntity
  8
外形線
100
AcDbLine
 10
-4.385468503734
 20
237.376935973808
 30
0.0
 11
1.606659496266
 21
233.917433973808
 31
0.0
  0
ARC
  5
305B
330
3054
100
AcDbEntity
  8
細線
100
AcDbCircle
 10
-5.813446503734
 20
229.633375973808
 30
0.0
 40
8.568
100
AcDbArc
 50
279.594007516002
 51
80.406014579591
  0
LINE
  5
305C
330
3054
100
AcDbEntity
  8
外形線
100
AcDbLine
 10
1.606659496266
 20
233.917433973808
 30
0.0
 11
1.606659496266
 21
225.349439973808
 31
0.0
  0
LINE
  5
305D
330
3054
100
AcDbEntity
  8
外形線
100
AcDbLine
 10
-4.385468503734
 20
221.889815973808
 30
0.0
 11
1.606659496266
 21
225.349439973808
 31
0.0
  0
ARC
  5
305E
330
3054
100
AcDbEntity
  8
細線
100
AcDbCircle
 10
-5.813446503734
 20
229.633375973808
 30
0.0
 40
7.458525999999999
100
AcDbArc
 50
281.037746568172
 51
78.962275527419
  0
LINE
  5
305F
330
3054
100
AcDbEntity
  8
外形線
100
AcDbLine
 10
-7.241454503734
 20
221.889845973808
 30
0.0
 11
-13.233550503734
 21
225.349439973808
 31
0.0
  0
LINE
  5
3060
330
3054
100
AcDbEntity
  8
外形線
100
AcDbLine
 10
-13.233550503734
 20
225.349439973808
 30
0.0
 11
-13.233550503734
 21
233.917433973808
 31
0.0
  0
LINE
  5
3061
330
3054
100
AcDbEntity
  8
外形線
100
AcDbLine
 10
-7.241454503734
 20
237.376905973808
 30
0.0
 11
-13.233550503734
 21
233.917433973808
 31
0.0
  0
ARC
  5
3062
330
3054
100
AcDbEntity
  8
細線
100
AcDbCircle
 10
-5.813446503734
 20
229.633375973808
 30
0.0
 40
7.458525999999999
100
AcDbArc
 50
101.038013199227
 51
258.962026496458
  0
ARC
  5
3063
330
3054
100
AcDbEntity
  8
細線
100
AcDbCircle
 10
-5.813446503734
 20
229.633375973808
 30
0.0
 40
8.568
100
AcDbArc
 50
99.594159555498
 51
260.405880140189
  0
ENDBLK
  5
3064
330
3054
100
AcDbEntity
  8
0
 48
10.0
100
AcDbBlockEnd
  0
BLOCK
  5
3137
330
3136
100
AcDbEntity
  8
0
 48
10.0
100
AcDbBlockBegin
  2
*D8
 70
     1
 10
0.0
 20
0.0
 30
0.0
  3
*D8
  1
*D8
  0
LINE
  5
3138
330
3136
100
AcDbEntity
  8
寸法線
 62
     0
 48
10.0
100
AcDbLine
 10
-49.24303505395
 20
269.61846140322
 30
0.0
 11
-71.827276343155
 21
269.61846140322
 31
0.0
  0
LINE
  5
3139
330
3136
100
AcDbEntity
  8
寸法線
 62
     0
 48
10.0
100
AcDbLine
 10
-49.24303505395
 20
189.61846140322
 30
0.0
 11
-71.827276343155
 21
189.61846140322
 31
0.0
  0
LINE
  5
313A
330
3136
100
AcDbEntity
  8
寸法線
 62
     0
 48
10.0
100
AcDbLine
 10
-70.577276343155
 20
263.61846140322
 30
0.0
 11
-70.577276343155
 21
195.61846140322
 31
0.0
  0
INSERT
  5
313B
330
3136
100
AcDbEntity
  8
寸法線
 62
     0
 48
10.0
100
AcDbBlockReference
  2
_OPEN30
 10
-70.577276343155
 20
269.61846140322
 30
0.0
 41
6.0
 42
6.0
 43
6.0
 50
90.0
  0
INSERT
  5
313C
330
3136
100
AcDbEntity
  8
寸法線
 62
     0
 48
10.0
100
AcDbBlockReference
  2
_OPEN30
 10
-70.577276343155
 20
189.61846140322
 30
0.0
 41
6.0
 42
6.0
 43
6.0
 50
270.0
  0
MTEXT
  5
313D
330
3136
100
AcDbEntity
  8
寸法線
 62
     0
 48
10.0
100
AcDbMText
 10
-73.702276343155
 20
229.61846140322
 30
0.0
 40
5.0
 41
0.0
 71
     5
 72
     1
  1
\A1;80
 11
6.123031769111886E-17
 21
1.0
 31
0.0
  0
POINT
  5
313E
330
3136
100
AcDbEntity
  8
DEFPOINTS
 62
     0
 48
10.0
100
AcDbPoint
 10
-48.61803505395
 20
269.61846140322
 30
0.0
  0
POINT
  5
313F
330
3136
100
AcDbEntity
  8
DEFPOINTS
 62
     0
 48
10.0
100
AcDbPoint
 10
-48.61803505395
 20
189.61846140322
 30
0.0
  0
POINT
  5
3140
330
3136
100
AcDbEntity
  8
DEFPOINTS
 62
     0
 48
10.0
100
AcDbPoint
 10
-70.577276343155
 20
189.61846140322
 30
0.0
  0
ENDBLK
  5
3141
330
3136
100
AcDbEntity
  8
0
 48
10.0
100
AcDbBlockEnd
  0
BLOCK
  5
3143
330
3142
100
AcDbEntity
  8
0
 48
10.0
100
AcDbBlockBegin
  2
*D9
 70
     1
 10
0.0
 20
0.0
 30
0.0
  3
*D9
  1
*D9
  0
LINE
  5
3144
330
3142
100
AcDbEntity
  8
寸法線
 62
     0
 48
10.0
100
AcDbLine
 10
-48.61803505395
 20
188.99346140322
 30
0.0
 11
-48.61803505395
 21
169.842404217648
 31
0.0
  0
LINE
  5
3145
330
3142
100
AcDbEntity
  8
寸法線
 62
     0
 48
10.0
100
AcDbLine
 10
31.38196494605
 20
216.99346140322
 30
0.0
 11
31.38196494605
 21
169.842404217648
 31
0.0
  0
LINE
  5
3146
330
3142
100
AcDbEntity
  8
寸法線
 62
     0
 48
10.0
100
AcDbLine
 10
-42.61803505395
 20
171.092404217648
 30
0.0
 11
25.38196494605
 21
171.092404217648
 31
0.0
  0
INSERT
  5
3147
330
3142
100
AcDbEntity
  8
寸法線
 62
     0
 48
10.0
100
AcDbBlockReference
  2
_OPEN30
 10
-48.61803505395
 20
171.092404217648
 30
0.0
 41
6.0
 42
6.0
 43
6.0
 50
180.0
  0
INSERT
  5
3148
330
3142
100
AcDbEntity
  8
寸法線
 62
     0
 48
10.0
100
AcDbBlockReference
  2
_OPEN30
 10
31.38196494605
 20
171.092404217648
 30
0.0
 41
6.0
 42
6.0
 43
6.0
  0
MTEXT
  5
3149
330
3142
100
AcDbEntity
  8
寸法線
 62
     0
 48
10.0
100
AcDbMText
 10
-8.61803505395
 20
174.217404217648
 30
0.0
 40
5.0
 41
0.0
 71
     5
 72
     1
  1
\A1;80
  0
POINT
  5
314A
330
3142
100
AcDbEntity
  8
DEFPOINTS
 62
     0
 48
10.0
100
AcDbPoint
 10
-48.61803505395
 20
189.61846140322
 30
0.0
  0
POINT
  5
314B
330
3142
100
AcDbEntity
  8
DEFPOINTS
 62
     0
 48
10.0
100
AcDbPoint
 10
31.38196494605
 20
217.61846140322
 30
0.0
  0
POINT
  5
314C
330
3142
100
AcDbEntity
  8
DEFPOINTS
 62
     0
 48
10.0
100
AcDbPoint
 10
31.38196494605
 20
171.092404217648
 30
0.0
  0
ENDBLK
  5
314D
330
3142
100
AcDbEntity
  8
0
 48
10.0
100
AcDbBlockEnd
  0
BLOCK
  5
314F
330
314E
100
AcDbEntity
  8
0
 48
10.0
100
AcDbBlockBegin
  2
*D10
 70
     1
 10
0.0
 20
0.0
 30
0.0
  3
*D10
  1
*D10
  0
LINE
  5
3150
330
314E
100
AcDbEntity
  8
寸法線
 62
     0
 48
10.0
100
AcDbLine
 10
-142.545856406188
 20
188.99346140322
 30
0.0
 11
-142.545856406188
 21
171.16763126853
 31
0.0
  0
LINE
  5
3151
330
314E
100
AcDbEntity
  8
寸法線
 62
     0
 48
10.0
100
AcDbLine
 10
-139.689851891653
 20
188.99346140322
 30
0.0
 11
-139.689851891653
 21
171.16763126853
 31
0.0
  0
LINE
  5
3152
330
314E
100
AcDbEntity
  8
寸法線
 62
     0
 48
10.0
100
AcDbLine
 10
-148.545856406188
 20
172.41763126853
 30
0.0
 11
-154.545856406188
 21
172.41763126853
 31
0.0
  0
LINE
  5
3153
330
314E
100
AcDbEntity
  8
寸法線
 62
     0
 48
10.0
100
AcDbLine
 10
-133.689851891653
 20
172.41763126853
 30
0.0
 11
-120.232745110466
 21
172.41763126853
 31
0.0
  0
LINE
  5
3154
330
314E
100
AcDbEntity
  8
寸法線
 62
     0
 48
10.0
100
AcDbLine
 10
-142.545856406188
 20
172.41763126853
 30
0.0
 11
-139.689851891653
 21
172.41763126853
 31
0.0
  0
INSERT
  5
3155
330
314E
100
AcDbEntity
  8
寸法線
 62
     0
 48
10.0
100
AcDbBlockReference
  2
_OPEN30
 10
-142.545856406188
 20
172.41763126853
 30
0.0
 41
6.0
 42
6.0
 43
6.0
  0
INSERT
  5
3156
330
314E
100
AcDbEntity
  8
寸法線
 62
     0
 48
10.0
100
AcDbBlockReference
  2
_OPEN30
 10
-139.689851891653
 20
172.41763126853
 30
0.0
 41
6.0
 42
6.0
 43
6.0
 50
180.0
  0
MTEXT
  5
3157
330
314E
100
AcDbEntity
  8
寸法線
 62
     0
 48
10.0
100
AcDbMText
 10
-123.961298501059
 20
175.54263126853
 30
0.0
 40
5.0
 41
0.0
 71
     5
 72
     1
  1
\A1;1.5
  0
POINT
  5
3158
330
314E
100
AcDbEntity
  8
DEFPOINTS
 62
     0
 48
10.0
100
AcDbPoint
 10
-142.545856406188
 20
189.61846140322
 30
0.0
  0
POINT
  5
3159
330
314E
100
AcDbEntity
  8
DEFPOINTS
 62
     0
 48
10.0
100
AcDbPoint
 10
-139.689851891653
 20
189.61846140322
 30
0.0
  0
POINT
  5
315A
330
314E
100
AcDbEntity
  8
DEFPOINTS
 62
     0
 48
10.0
100
AcDbPoint
 10
-139.689851891653
 20
172.41763126853
 30
0.0
  0
ENDBLK
  5
315B
330
314E
100
AcDbEntity
  8
0
 48
10.0
100
AcDbBlockEnd
  0
BLOCK
  5
3170
330
315C
100
AcDbEntity
  8
0
 48
10.0
100
AcDbBlockBegin
  2
A$C384A4FFB
 70
     0
 10
0.0
 20
0.0
 30
0.0
  3
A$C384A4FFB
  1
A$C384A4FFB
  0
LINE
  5
315D
330
315C
100
AcDbEntity
  8
外形線
100
AcDbLine
 10
312.227694679646
 20
154.159896392983
 30
0.0
 11
519.638224678776
 21
154.159896392983
 31
0.0
  0
LINE
  5
315E
330
315C
100
AcDbEntity
  8
外形線
100
AcDbLine
 10
312.227694679646
 20
144.159973892983
 30
0.0
 11
519.638224678776
 21
144.159973892983
 31
0.0
  0
LINE
  5
315F
330
315C
100
AcDbEntity
  8
外形線
100
AcDbLine
 10
303.727694679646
 20
157.303858892983
 30
0.0
 11
309.981067179646
 21
157.303858892983
 31
0.0
  0
LINE
  5
3160
330
315C
100
AcDbEntity
  8
外形線
100
AcDbLine
 10
309.981067179646
 20
157.303858892983
 30
0.0
 11
312.227619679646
 21
155.057153892983
 31
0.0
  0
LINE
  5
3161
330
315C
100
AcDbEntity
  8
細線
100
AcDbLine
 10
305.727694679646
 20
153.231858892983
 30
0.0
 11
310.983175606654
 21
153.231858892983
 31
0.0
  0
ARC
  5
3162
330
315C
100
AcDbEntity
  8
細線
100
AcDbCircle
 10
308.639057179646
 20
156.166926392983
 30
0.0
 40
3.7563025
100
AcDbArc
 50
308.612371782873
 51
342.81588950412
  0
LINE
  5
3163
330
315C
100
AcDbEntity
  8
外形線
100
AcDbLine
 10
303.727694679646
 20
141.015938892983
 30
0.0
 11
309.981067179646
 21
141.015938892983
 31
0.0
  0
LINE
  5
3164
330
315C
100
AcDbEntity
  8
外形線
100
AcDbLine
 10
309.981067179646
 20
141.015938892983
 30
0.0
 11
312.227619679646
 21
143.262568892983
 31
0.0
  0
LINE
  5
3165
330
315C
100
AcDbEntity
  8
外形線
100
AcDbLine
 10
303.727694679646
 20
157.303858892983
 30
0.0
 11
303.727694679646
 21
141.015938892983
 31
0.0
  0
LINE
  5
3166
330
315C
100
AcDbEntity
  8
外形線
100
AcDbLine
 10
305.727694679646
 20
157.303858892983
 30
0.0
 11
305.727694679646
 21
141.015938892983
 31
0.0
  0
LINE
  5
3167
330
315C
100
AcDbEntity
  8
細線
100
AcDbLine
 10
305.727694679646
 20
145.087976392983
 30
0.0
 11
310.983135652015
 21
145.087976392983
 31
0.0
  0
ARC
  5
3168
330
315C
100
AcDbEntity
  8
細線
100
AcDbCircle
 10
308.639057179646
 20
142.152718892983
 30
0.0
 40
3.7563025
100
AcDbArc
 50
17.184150191555
 51
51.38761061704
  0
LINE
  5
3169
330
315C
100
AcDbEntity
  8
外形線
100
AcDbLine
 10
312.227694679646
 20
143.262491392983
 30
0.0
 11
312.227694679646
 21
155.057153892983
 31
0.0
  0
ARC
  5
316A
330
315C
100
AcDbEntity
  8
細線
100
AcDbCircle
 10
304.943837179646
 20
149.159861392983
 30
0.0
 40
7.2838425
100
AcDbArc
 50
326.010120640452
 51
33.98932849733
  0
DIMENSION
  5
316B
330
315C
100
AcDbEntity
  8
寸法線
 48
10.0
100
AcDbDimension
  2
*D10
 10
14.856002832544
 20
2.932922293165
 30
0.0
 11
30.584556223137
 21
6.057922293165
 31
0.0
 12
154.545854724197
 22
-169.484708975365
 32
0.0
  1
1.5
  3
ISO-25
100
AcDbAlignedDimension
 13
11.999998318009
 23
20.133752427855
 33
0.0
 14
14.856002832544
 24
20.133752427855
 34
0.0
100
AcDbRotatedDimension
1001
ACAD
1000
DSTYLE
1002
{
1070
     5
1000
OPEN30
1070
    41
1040
6.0
1070
    47
1040
0.1
1070
    48
1040
0.1
1070
    73
1070
     0
1070
   140
1040
5.0
1070
   271
1070
     1
1070
   272
1070
     1
1070
   341
1005
2AF4
1002
}
  0
INSERT
  5
316C
330
315C
100
AcDbEntity
  8
外形線
100
AcDbBlockReference
  2
パドル_W1立面図
 10
19.241458287988
 20
-169.484708975365
 30
0.0
  0
DIMENSION
  5
316D
330
315C
100
AcDbEntity
  8
寸法線
 48
10.0
100
AcDbDimension
  2
*D9
 10
185.927819670247
 20
1.607695242283
 30
0.0
 11
145.927819670247
 21
4.732695242283
 31
0.0
 12
154.545854724197
 22
-169.484708975365
 32
0.0
  3
ISO-25
100
AcDbAlignedDimension
 13
105.927819670247
 23
20.133752427855
 33
0.0
 14
185.927819670247
 24
48.133752427855
 34
0.0
100
AcDbRotatedDimension
1001
ACAD
1000
DSTYLE
1002
{
1070
     5
1000
OPEN30
1070
    41
1040
6.0
1070
    47
1040
0.1
1070
    48
1040
0.1
1070
    73
1070
     0
1070
   140
1040
5.0
1070
   271
1070
     1
1070
   272
1070
     1
1070
   341
1005
2AF4
1002
}
  0
DIMENSION
  5
316E
330
315C
100
AcDbEntity
  8
寸法線
 48
10.0
100
AcDbDimension
  2
*D8
 10
83.968578381042
 20
20.133752427855
 30
0.0
 11
80.843578381042
 21
60.133752427855
 31
0.0
 12
154.545854724197
 22
-169.484708975365
 32
0.0
  3
ISO-25
100
AcDbAlignedDimension
 13
105.927819670247
 23
100.133752427855
 33
0.0
 14
105.927819670247
 24
20.133752427855
 34
0.0
 50
90.0
100
AcDbRotatedDimension
1001
ACAD
1000
DSTYLE
1002
{
1070
     5
1000
OPEN30
1070
    41
1040
6.0
1070
    47
1040
0.1
1070
    48
1040
0.1
1070
    73
1070
     0
1070
   140
1040
5.0
1070
   271
1070
     1
1070
   272
1070
     1
1070
   341
1005
2AF4
1002
}
  0
INSERT
  5
316F
330
315C
100
AcDbEntity
  8
外形線
 48
10.0
100
AcDbBlockReference
  2
パドル_W1
 10
47.626703760747
 20
-160.518009493956
 30
0.0
  0
ENDBLK
  5
3171
330
315C
100
AcDbEntity
  8
0
 48
10.0
100
AcDbBlockEnd
  0
BLOCK
  5
38BF
330
38B5
100
AcDbEntity
  8
0
 48
10.0
100
AcDbBlockBegin
  2
*D12
 70
     1
 10
0.0
 20
0.0
 30
0.0
  3
*D12
  1
*D12
  0
LINE
  5
5423
330
38B5
100
AcDbEntity
  8
寸法線
 62
     0
 48
10.0
100
AcDbLine
 10
445.040783171144
 20
609.80484470281
 30
0.0
 11
424.415783171144
 21
609.80484470281
 31
0.0
  0
LINE
  5
5424
330
38B5
100
AcDbEntity
  8
寸法線
 62
     0
 48
10.0
100
AcDbLine
 10
445.040783171144
 20
529.80484470281
 30
0.0
 11
424.415783171144
 21
529.80484470281
 31
0.0
  0
LINE
  5
5425
330
38B5
100
AcDbEntity
  8
寸法線
 62
     0
 48
10.0
100
AcDbLine
 10
425.665783171144
 20
603.80484470281
 30
0.0
 11
425.665783171144
 21
535.80484470281
 31
0.0
  0
INSERT
  5
5426
330
38B5
100
AcDbEntity
  8
寸法線
 62
     0
 48
10.0
100
AcDbBlockReference
  2
_OPEN30
 10
425.665783171144
 20
609.80484470281
 30
0.0
 41
6.0
 42
6.0
 43
6.0
 50
90.0
  0
INSERT
  5
5427
330
38B5
100
AcDbEntity
  8
寸法線
 62
     0
 48
10.0
100
AcDbBlockReference
  2
_OPEN30
 10
425.665783171144
 20
529.80484470281
 30
0.0
 41
6.0
 42
6.0
 43
6.0
 50
270.0
  0
MTEXT
  5
5428
330
38B5
100
AcDbEntity
  8
寸法線
 62
     0
 48
10.0
100
AcDbMText
 10
421.040783171144
 20
569.80484470281
 30
0.0
 40
8.0
 41
0.0
 71
     5
 72
     1
  1
\A1;80
 11
6.123031769111886E-17
 21
1.0
 31
0.0
  0
POINT
  5
5429
330
38B5
100
AcDbEntity
  8
DEFPOINTS
 62
     0
 48
10.0
100
AcDbPoint
 10
445.665783171144
 20
609.80484470281
 30
0.0
  0
POINT
  5
542A
330
38B5
100
AcDbEntity
  8
DEFPOINTS
 62
     0
 48
10.0
100
AcDbPoint
 10
445.665783171144
 20
529.80484470281
 30
0.0
  0
POINT
  5
542B
330
38B5
100
AcDbEntity
  8
DEFPOINTS
 62
     0
 48
10.0
100
AcDbPoint
 10
425.665783171144
 20
529.80484470281
 30
0.0
  0
ENDBLK
  5
38C0
330
38B5
100
AcDbEntity
  8
0
 48
10.0
100
AcDbBlockEnd
  0
BLOCK
  5
38F6
330
38EC
100
AcDbEntity
  8
0
 48
10.0
100
AcDbBlockBegin
  2
*D13
 70
     1
 10
0.0
 20
0.0
 30
0.0
  3
*D13
  1
*D13
  0
LINE
  5
542D
330
38EC
100
AcDbEntity
  8
寸法線
 62
     0
 48
10.0
100
AcDbLine
 10
445.665783171144
 20
529.17984470281
 30
0.0
 11
445.665783171144
 21
508.554743685654
 31
0.0
  0
LINE
  5
542E
330
38EC
100
AcDbEntity
  8
寸法線
 62
     0
 48
10.0
100
AcDbLine
 10
525.665783171144
 20
557.17984470281
 30
0.0
 11
525.665783171144
 21
508.554743685654
 31
0.0
  0
LINE
  5
542F
330
38EC
100
AcDbEntity
  8
寸法線
 62
     0
 48
10.0
100
AcDbLine
 10
451.665783171144
 20
509.804743685654
 30
0.0
 11
519.665783171144
 21
509.804743685654
 31
0.0
  0
INSERT
  5
5430
330
38EC
100
AcDbEntity
  8
寸法線
 62
     0
 48
10.0
100
AcDbBlockReference
  2
_OPEN30
 10
445.665783171144
 20
509.804743685654
 30
0.0
 41
6.0
 42
6.0
 43
6.0
 50
180.0
  0
INSERT
  5
5431
330
38EC
100
AcDbEntity
  8
寸法線
 62
     0
 48
10.0
100
AcDbBlockReference
  2
_OPEN30
 10
525.665783171144
 20
509.804743685654
 30
0.0
 41
6.0
 42
6.0
 43
6.0
  0
MTEXT
  5
5432
330
38EC
100
AcDbEntity
  8
寸法線
 62
     0
 48
10.0
100
AcDbMText
 10
485.665783171144
 20
514.429743685654
 30
0.0
 40
8.0
 41
0.0
 71
     5
 72
     1
  1
\A1;80
  0
POINT
  5
5433
330
38EC
100
AcDbEntity
  8
DEFPOINTS
 62
     0
 48
10.0
100
AcDbPoint
 10
445.665783171144
 20
529.80484470281
 30
0.0
  0
POINT
  5
5434
330
38EC
100
AcDbEntity
  8
DEFPOINTS
 62
     0
 48
10.0
100
AcDbPoint
 10
525.665783171144
 20
557.80484470281
 30
0.0
  0
POINT
  5
5435
330
38EC
100
AcDbEntity
  8
DEFPOINTS
 62
     0
 48
10.0
100
AcDbPoint
 10
525.665783171144
 20
509.804743685654
 30
0.0
  0
ENDBLK
  5
38F7
330
38EC
100
AcDbEntity
  8
0
 48
10.0
100
AcDbBlockEnd
  0
BLOCK
  5
4F4E
330
4F42
100
AcDbEntity
  8
0
 62
     1
 48
10.0
100
AcDbBlockBegin
  2
*D14
 70
     1
 10
0.0
 20
0.0
 30
0.0
  3
*D14
  1
*D14
  0
LINE
  5
52D4
330
4F42
100
AcDbEntity
  8
寸法線
 62
     0
 48
10.0
100
AcDbLine
 10
305.702622827131
 20
542.163274833634
 30
0.0
 11
305.702622827131
 21
542.788274833634
 31
0.0
  0
LINE
  5
52D5
330
4F42
100
AcDbEntity
  8
寸法線
 62
     0
 48
10.0
100
AcDbLine
 10
308.558627341666
 20
542.163274833634
 30
0.0
 11
308.558627341666
 21
542.788274833634
 31
0.0
  0
LINE
  5
52D6
330
4F42
100
AcDbEntity
  8
寸法線
 62
     0
 48
10.0
100
AcDbLine
 10
299.702622827131
 20
541.538274833634
 30
0.0
 11
293.702622827131
 21
541.538274833634
 31
0.0
  0
LINE
  5
52D7
330
4F42
100
AcDbEntity
  8
寸法線
 62
     0
 48
10.0
100
AcDbLine
 10
314.558627341666
 20
541.538274833634
 30
0.0
 11
331.739998191565
 21
541.538274833634
 31
0.0
  0
LINE
  5
52D8
330
4F42
100
AcDbEntity
  8
寸法線
 62
     0
 48
10.0
100
AcDbLine
 10
305.702622827131
 20
541.538274833634
 30
0.0
 11
308.558627341666
 21
541.538274833634
 31
0.0
  0
INSERT
  5
52D9
330
4F42
100
AcDbEntity
  8
寸法線
 62
     0
 48
10.0
100
AcDbBlockReference
  2
_OPEN30
 10
305.702622827131
 20
541.538274833634
 30
0.0
 41
6.0
 42
6.0
 43
6.0
  0
INSERT
  5
52DA
330
4F42
100
AcDbEntity
  8
寸法線
 62
     0
 48
10.0
100
AcDbBlockReference
  2
_OPEN30
 10
308.558627341666
 20
541.538274833634
 30
0.0
 41
6.0
 42
6.0
 43
6.0
 50
180.0
  0
MTEXT
  5
52DB
330
4F42
100
AcDbEntity
  8
寸法線
 62
     0
 48
10.0
100
AcDbMText
 10
326.149312766616
 20
546.163274833634
 30
0.0
 40
8.0
 41
0.0
 71
     5
 72
     1
  1
\A1;1.5
  0
POINT
  5
52DC
330
4F42
100
AcDbEntity
  8
DEFPOINTS
 62
     0
 48
10.0
100
AcDbPoint
 10
305.702622827131
 20
541.538274833634
 30
0.0
  0
POINT
  5
52DD
330
4F42
100
AcDbEntity
  8
DEFPOINTS
 62
     0
 48
10.0
100
AcDbPoint
 10
308.558627341666
 20
541.538274833634
 30
0.0
  0
POINT
  5
52DE
330
4F42
100
AcDbEntity
  8
DEFPOINTS
 62
     0
 48
10.0
100
AcDbPoint
 10
308.558627341666
 20
541.538274833634
 30
0.0
  0
ENDBLK
  5
4F4F
330
4F42
100
AcDbEntity
  8
0
 62
     1
 48
10.0
100
AcDbBlockEnd
  0
BLOCK
  5
4F5A
330
4F50
100
AcDbEntity
  8
0
 62
     1
 48
10.0
100
AcDbBlockBegin
  2
*D15
 70
     1
 10
0.0
 20
0.0
 30
0.0
  3
*D15
  1
*D15
  0
LINE
  5
53FD
330
4F50
100
AcDbEntity
  8
寸法線
 62
     0
 48
10.0
100
AcDbLine
 10
797.665768171144
 20
496.562164470948
 30
0.0
 11
797.665768171144
 21
379.951807976175
 31
0.0
  0
LINE
  5
53FE
330
4F50
100
AcDbEntity
  8
寸法線
 62
     0
 48
10.0
100
AcDbLine
 10
595.665768171144
 20
491.687164470948
 30
0.0
 11
595.665768171144
 21
379.951807976175
 31
0.0
  0
LINE
  5
53FF
330
4F50
100
AcDbEntity
  8
寸法線
 62
     0
 48
10.0
100
AcDbLine
 10
791.665768171144
 20
381.201807976175
 30
0.0
 11
601.665768171144
 21
381.201807976175
 31
0.0
  0
INSERT
  5
5400
330
4F50
100
AcDbEntity
  8
寸法線
 62
     0
 48
10.0
100
AcDbBlockReference
  2
_OPEN30
 10
797.665768171144
 20
381.201807976175
 30
0.0
 41
6.0
 42
6.0
 43
6.0
  0
INSERT
  5
5401
330
4F50
100
AcDbEntity
  8
寸法線
 62
     0
 48
10.0
100
AcDbBlockReference
  2
_OPEN30
 10
595.665768171144
 20
381.201807976175
 30
0.0
 41
6.0
 42
6.0
 43
6.0
 50
180.0
  0
MTEXT
  5
5402
330
4F50
100
AcDbEntity
  8
寸法線
 62
     0
 48
10.0
100
AcDbMText
 10
696.665768171144
 20
385.82759537775
 30
0.0
 40
8.0
 41
0.0
 71
     5
 72
     1
  1
\A1;（202）
  0
POINT
  5
5403
330
4F50
100
AcDbEntity
  8
DEFPOINTS
 62
     0
 48
10.0
100
AcDbPoint
 10
797.665768171144
 20
497.187164470948
 30
0.0
  0
POINT
  5
5404
330
4F50
100
AcDbEntity
  8
DEFPOINTS
 62
     0
 48
10.0
100
AcDbPoint
 10
595.665768171144
 20
492.312164470948
 30
0.0
  0
POINT
  5
5405
330
4F50
100
AcDbEntity
  8
DEFPOINTS
 62
     0
 48
10.0
100
AcDbPoint
 10
595.665768171144
 20
381.201807976175
 30
0.0
  0
ENDBLK
  5
4F5B
330
4F50
100
AcDbEntity
  8
0
 62
     1
 48
10.0
100
AcDbBlockEnd
  0
BLOCK
  5
4F66
330
4F5C
100
AcDbEntity
  8
0
 62
     1
 48
10.0
100
AcDbBlockBegin
  2
*D16
 70
     1
 10
0.0
 20
0.0
 30
0.0
  3
*D16
  1
*D16
  0
LINE
  5
53C4
330
4F5C
100
AcDbEntity
  8
寸法線
 62
     0
 48
10.0
100
AcDbLine
 10
797.290768171144
 20
642.812164470948
 30
0.0
 11
818.915768171144
 21
642.812164470948
 31
0.0
  0
LINE
  5
53C5
330
4F5C
100
AcDbEntity
  8
寸法線
 62
     0
 48
10.0
100
AcDbLine
 10
797.290768171144
 20
496.812164470948
 30
0.0
 11
818.915768171144
 21
496.812164470948
 31
0.0
  0
LINE
  5
53C6
330
4F5C
100
AcDbEntity
  8
寸法線
 62
     0
 48
10.0
100
AcDbLine
 10
817.665768171144
 20
636.812164470948
 30
0.0
 11
817.665768171144
 21
502.812164470948
 31
0.0
  0
INSERT
  5
53C7
330
4F5C
100
AcDbEntity
  8
寸法線
 62
     0
 48
10.0
100
AcDbBlockReference
  2
_OPEN30
 10
817.665768171144
 20
642.812164470948
 30
0.0
 41
6.0
 42
6.0
 43
6.0
 50
90.0
  0
INSERT
  5
53C8
330
4F5C
100
AcDbEntity
  8
寸法線
 62
     0
 48
10.0
100
AcDbBlockReference
  2
_OPEN30
 10
817.665768171144
 20
496.812164470948
 30
0.0
 41
6.0
 42
6.0
 43
6.0
 50
270.0
  0
MTEXT
  5
53C9
330
4F5C
100
AcDbEntity
  8
寸法線
 62
     0
 48
10.0
100
AcDbMText
 10
813.040768171144
 20
569.812164470948
 30
0.0
 40
8.0
 41
0.0
 71
     5
 72
     1
  1
\A1;%%c146
 11
6.123031769111886E-17
 21
1.0
 31
0.0
  0
POINT
  5
53CA
330
4F5C
100
AcDbEntity
  8
DEFPOINTS
 62
     0
 48
10.0
100
AcDbPoint
 10
796.665768171144
 20
642.812164470948
 30
0.0
  0
POINT
  5
53CB
330
4F5C
100
AcDbEntity
  8
DEFPOINTS
 62
     0
 48
10.0
100
AcDbPoint
 10
796.665768171144
 20
496.812164470948
 30
0.0
  0
POINT
  5
53CC
330
4F5C
100
AcDbEntity
  8
DEFPOINTS
 62
     0
 48
10.0
100
AcDbPoint
 10
817.665768171144
 20
496.812164470948
 30
0.0
  0
ENDBLK
  5
4F67
330
4F5C
100
AcDbEntity
  8
0
 62
     1
 48
10.0
100
AcDbBlockEnd
  0
BLOCK
  5
4F72
330
4F68
100
AcDbEntity
  8
0
 62
     1
 48
10.0
100
AcDbBlockBegin
  2
*D17
 70
     1
 10
0.0
 20
0.0
 30
0.0
  3
*D17
  1
*D17
  0
LINE
  5
53D6
330
4F68
100
AcDbEntity
  8
寸法線
 62
     0
 48
10.0
100
AcDbLine
 10
725.665768171143
 20
497.187164470948
 30
0.0
 11
725.665768171143
 21
397.951807976175
 31
0.0
  0
LINE
  5
53D7
330
4F68
100
AcDbEntity
  8
寸法線
 62
     0
 48
10.0
100
AcDbLine
 10
607.665768171144
 20
492.687164470948
 30
0.0
 11
607.665768171144
 21
397.951807976175
 31
0.0
  0
LINE
  5
53D8
330
4F68
100
AcDbEntity
  8
寸法線
 62
     0
 48
10.0
100
AcDbLine
 10
719.665768171143
 20
399.201807976175
 30
0.0
 11
613.665768171144
 21
399.201807976175
 31
0.0
  0
INSERT
  5
53D9
330
4F68
100
AcDbEntity
  8
寸法線
 62
     0
100
AcDbBlockReference
  2
_OPEN30
 10
725.665768171143
 20
399.201807976175
 30
0.0
 41
6.0
 42
6.0
 43
6.0
  0
INSERT
  5
53DA
330
4F68
100
AcDbEntity
  8
寸法線
 62
     0
100
AcDbBlockReference
  2
_OPEN30
 10
607.665768171144
 20
399.201807976175
 30
0.0
 41
6.0
 42
6.0
 43
6.0
 50
180.0
  0
MTEXT
  5
53DB
330
4F68
100
AcDbEntity
  8
寸法線
 62
     0
 48
10.0
100
AcDbMText
 10
666.665768171144
 20
403.835141309508
 30
0.0
 40
8.0
 41
0.0
 71
     5
 72
     1
  1
\A1;118
  0
POINT
  5
53DC
330
4F68
100
AcDbEntity
  8
DEFPOINTS
 62
     0
100
AcDbPoint
 10
725.665768171143
 20
497.812164470948
 30
0.0
  0
POINT
  5
53DD
330
4F68
100
AcDbEntity
  8
DEFPOINTS
 62
     0
100
AcDbPoint
 10
607.665768171144
 20
493.312164470948
 30
0.0
  0
POINT
  5
53DE
330
4F68
100
AcDbEntity
  8
DEFPOINTS
 62
     0
100
AcDbPoint
 10
607.665768171144
 20
399.201807976175
 30
0.0
  0
ENDBLK
  5
4F73
330
4F68
100
AcDbEntity
  8
0
 62
     1
 48
10.0
100
AcDbBlockEnd
  0
BLOCK
  5
4F7E
330
4F74
100
AcDbEntity
  8
0
 62
     1
 48
10.0
100
AcDbBlockBegin
  2
*D18
 70
     1
 10
0.0
 20
0.0
 30
0.0
  3
*D18
  1
*D18
  0
LINE
  5
5418
330
4F74
100
AcDbEntity
  8
寸法線
 62
     0
 48
10.0
100
AcDbLine
 10
595.665768171144
 20
491.687164470948
 30
0.0
 11
595.665768171144
 21
379.951807976175
 31
0.0
  0
LINE
  5
5419
330
4F74
100
AcDbEntity
  8
寸法線
 62
     0
 48
10.0
100
AcDbLine
 10
445.665783171144
 20
529.179743685654
 30
0.0
 11
445.665783171144
 21
379.951807976175
 31
0.0
  0
LINE
  5
541A
330
4F74
100
AcDbEntity
  8
寸法線
 62
     0
 48
10.0
100
AcDbLine
 10
589.665768171144
 20
381.201807976175
 30
0.0
 11
451.665783171144
 21
381.201807976175
 31
0.0
  0
INSERT
  5
541B
330
4F74
100
AcDbEntity
  8
寸法線
 62
     0
 48
10.0
100
AcDbBlockReference
  2
_OPEN30
 10
595.665768171144
 20
381.201807976175
 30
0.0
 41
6.0
 42
6.0
 43
6.0
  0
INSERT
  5
541C
330
4F74
100
AcDbEntity
  8
寸法線
 62
     0
 48
10.0
100
AcDbBlockReference
  2
_OPEN30
 10
445.665783171144
 20
381.201807976175
 30
0.0
 41
6.0
 42
6.0
 43
6.0
 50
180.0
  0
MTEXT
  5
541D
330
4F74
100
AcDbEntity
  8
寸法線
 62
     0
 48
10.0
100
AcDbMText
 10
521.30014552663
 20
385.826807976175
 30
0.0
 40
8.0
 41
0.0
 71
     5
 72
     1
  1
\A1;150
  0
POINT
  5
541E
330
4F74
100
AcDbEntity
  8
DEFPOINTS
 62
     0
 48
10.0
100
AcDbPoint
 10
595.665768171144
 20
492.312164470948
 30
0.0
  0
POINT
  5
541F
330
4F74
100
AcDbEntity
  8
DEFPOINTS
 62
     0
 48
10.0
100
AcDbPoint
 10
445.665783171144
 20
529.804743685654
 30
0.0
  0
POINT
  5
5420
330
4F74
100
AcDbEntity
  8
DEFPOINTS
 62
     0
 48
10.0
100
AcDbPoint
 10
445.665783171144
 20
381.201807976175
 30
0.0
  0
ENDBLK
  5
4F7F
330
4F74
100
AcDbEntity
  8
0
 62
     1
 48
10.0
100
AcDbBlockEnd
  0
BLOCK
  5
4F8C
330
4F80
100
AcDbEntity
  8
0
 62
     1
 48
10.0
100
AcDbBlockBegin
  2
*D19
 70
     1
 10
0.0
 20
0.0
 30
0.0
  3
*D19
  1
*D19
  0
LINE
  5
5544
330
4F80
100
AcDbEntity
  8
寸法線
 62
     0
 48
10.0
100
AcDbLine
 10
556.616379646123
 20
564.812164470948
 30
0.0
 11
560.72070941757
 21
564.812164470948
 31
0.0
  0
LINE
  5
5545
330
4F80
100
AcDbEntity
  8
寸法線
 62
     0
 48
10.0
100
AcDbLine
 10
556.616379646123
 20
574.812164470948
 30
0.0
 11
560.72070941757
 21
574.812164470948
 31
0.0
  0
LINE
  5
5546
330
4F80
100
AcDbEntity
  8
寸法線
 62
     0
 48
10.0
100
AcDbLine
 10
559.47070941757
 20
558.812164470948
 30
0.0
 11
559.47070941757
 21
552.812164470948
 31
0.0
  0
LINE
  5
5547
330
4F80
100
AcDbEntity
  8
寸法線
 62
     0
 48
10.0
100
AcDbLine
 10
559.47070941757
 20
580.812164470948
 30
0.0
 11
559.47070941757
 21
602.468463683547
 31
0.0
  0
LINE
  5
5548
330
4F80
100
AcDbEntity
  8
寸法線
 62
     0
 48
10.0
100
AcDbLine
 10
559.47070941757
 20
564.812164470948
 30
0.0
 11
559.47070941757
 21
574.812164470948
 31
0.0
  0
INSERT
  5
5549
330
4F80
100
AcDbEntity
  8
寸法線
 62
     0
 48
10.0
100
AcDbBlockReference
  2
_OPEN30
 10
559.47070941757
 20
564.812164470948
 30
0.0
 41
6.0
 42
6.0
 43
6.0
 50
90.0
  0
INSERT
  5
554A
330
4F80
100
AcDbEntity
  8
寸法線
 62
     0
 48
10.0
100
AcDbBlockReference
  2
_OPEN30
 10
559.47070941757
 20
574.812164470948
 30
0.0
 41
6.0
 42
6.0
 43
6.0
 50
270.0
  0
MTEXT
  5
554B
330
4F80
100
AcDbEntity
  8
寸法線
 62
     0
 48
10.0
100
AcDbMText
 10
554.845709417569
 20
594.640314077247
 30
0.0
 40
8.0
 41
0.0
 71
     5
 72
     1
  1
\A1;%%c10
 11
6.123031769111886E-17
 21
1.0
 31
0.0
  0
POINT
  5
554C
330
4F80
100
AcDbEntity
  8
DEFPOINTS
 62
     0
 48
10.0
100
AcDbPoint
 10
555.991379646123
 20
564.812164470948
 30
0.0
  0
POINT
  5
554D
330
4F80
100
AcDbEntity
  8
DEFPOINTS
 62
     0
 48
10.0
100
AcDbPoint
 10
555.991379646123
 20
574.812164470948
 30
0.0
  0
POINT
  5
554E
330
4F80
100
AcDbEntity
  8
DEFPOINTS
 62
     0
 48
10.0
100
AcDbPoint
 10
559.47070941757
 20
574.812164470948
 30
0.0
  0
ENDBLK
  5
4F8D
330
4F80
100
AcDbEntity
  8
0
 62
     1
 48
10.0
100
AcDbBlockEnd
  0
BLOCK
  5
4F98
330
4F8E
100
AcDbEntity
  8
0
 62
     1
 48
10.0
100
AcDbBlockBegin
  2
*D20
 70
     1
 10
0.0
 20
0.0
 30
0.0
  3
*D20
  1
*D20
  0
LINE
  5
53B2
330
4F8E
100
AcDbEntity
  8
寸法線_文字
 62
     0
 48
10.0
100
AcDbLine
 10
725.665768171143
 20
496.687164470948
 30
0.0
 11
725.665768171143
 21
397.951807976175
 31
0.0
  0
LINE
  5
53B3
330
4F8E
100
AcDbEntity
  8
寸法線_文字
 62
     0
 48
10.0
100
AcDbLine
 10
781.665768171144
 20
496.687164470948
 30
0.0
 11
781.665768171144
 21
397.951807976175
 31
0.0
  0
LINE
  5
53B4
330
4F8E
100
AcDbEntity
  8
寸法線_文字
 62
     0
 48
10.0
100
AcDbLine
 10
731.665768171143
 20
399.201807976175
 30
0.0
 11
775.665768171144
 21
399.201807976175
 31
0.0
  0
INSERT
  5
53B5
330
4F8E
100
AcDbEntity
  8
寸法線_文字
 62
     0
 48
10.0
100
AcDbBlockReference
  2
_OPEN30
 10
725.665768171143
 20
399.201807976175
 30
0.0
 41
6.0
 42
6.0
 43
6.0
 50
180.0
  0
INSERT
  5
53B6
330
4F8E
100
AcDbEntity
  8
寸法線_文字
 62
     0
 48
10.0
100
AcDbBlockReference
  2
_OPEN30
 10
781.665768171144
 20
399.201807976175
 30
0.0
 41
6.0
 42
6.0
 43
6.0
  0
MTEXT
  5
53B7
330
4F8E
100
AcDbEntity
  8
寸法線_文字
 62
     0
 48
10.0
100
AcDbMText
 10
756.515649685734
 20
403.826807976175
 30
0.0
 40
8.0
 41
0.0
 71
     5
 72
     1
  1
\A1;56
  0
POINT
  5
53B8
330
4F8E
100
AcDbEntity
  8
DEFPOINTS
 62
     0
 48
10.0
100
AcDbPoint
 10
725.665768171143
 20
497.312164470948
 30
0.0
  0
POINT
  5
53B9
330
4F8E
100
AcDbEntity
  8
DEFPOINTS
 62
     0
 48
10.0
100
AcDbPoint
 10
781.665768171144
 20
497.312164470948
 30
0.0
  0
POINT
  5
53BA
330
4F8E
100
AcDbEntity
  8
DEFPOINTS
 62
     0
 48
10.0
100
AcDbPoint
 10
781.665768171144
 20
399.201807976175
 30
0.0
  0
ENDBLK
  5
4F99
330
4F8E
100
AcDbEntity
  8
0
 62
     1
 48
10.0
100
AcDbBlockEnd
  0
BLOCK
  5
4FA4
330
4F9A
100
AcDbEntity
  8
0
 62
     1
 48
10.0
100
AcDbBlockBegin
  2
*D21
 70
     1
 10
0.0
 20
0.0
 30
0.0
  3
*D21
  1
*D21
  0
LINE
  5
53A9
330
4F9A
100
AcDbEntity
  8
寸法線_文字
 62
     0
 48
10.0
100
AcDbLine
 10
781.665768171144
 20
496.687164470948
 30
0.0
 11
781.665768171144
 21
397.951807976175
 31
0.0
  0
LINE
  5
53AA
330
4F9A
100
AcDbEntity
  8
寸法線_文字
 62
     0
 48
10.0
100
AcDbLine
 10
797.665768171144
 20
497.187164470948
 30
0.0
 11
797.665768171144
 21
397.951807976175
 31
0.0
  0
LINE
  5
53AB
330
4F9A
100
AcDbEntity
  8
寸法線_文字
 62
     0
 48
10.0
100
AcDbLine
 10
787.665768171144
 20
399.201807976175
 30
0.0
 11
791.665768171144
 21
399.201807976175
 31
0.0
  0
INSERT
  5
53AC
330
4F9A
100
AcDbEntity
  8
寸法線_文字
 62
     0
 48
10.0
100
AcDbBlockReference
  2
_OPEN30
 10
781.665768171144
 20
399.201807976175
 30
0.0
 41
6.0
 42
6.0
 43
6.0
 50
180.0
  0
INSERT
  5
53AD
330
4F9A
100
AcDbEntity
  8
寸法線_文字
 62
     0
 48
10.0
100
AcDbBlockReference
  2
_OPEN30
 10
797.665768171144
 20
399.201807976175
 30
0.0
 41
6.0
 42
6.0
 43
6.0
  0
MTEXT
  5
53AE
330
4F9A
100
AcDbEntity
  8
寸法線_文字
 62
     0
 48
10.0
100
AcDbMText
 10
789.665768171144
 20
403.826807976175
 30
0.0
 40
8.0
 41
0.0
 71
     5
 72
     1
  1
\A1;16
  0
POINT
  5
53AF
330
4F9A
100
AcDbEntity
  8
DEFPOINTS
 62
     0
 48
10.0
100
AcDbPoint
 10
781.665768171144
 20
497.312164470948
 30
0.0
  0
POINT
  5
53B0
330
4F9A
100
AcDbEntity
  8
DEFPOINTS
 62
     0
 48
10.0
100
AcDbPoint
 10
797.665768171144
 20
497.812164470948
 30
0.0
  0
POINT
  5
53B1
330
4F9A
100
AcDbEntity
  8
DEFPOINTS
 62
     0
 48
10.0
100
AcDbPoint
 10
797.665768171144
 20
399.201807976175
 30
0.0
  0
ENDBLK
  5
4FA5
330
4F9A
100
AcDbEntity
  8
0
 62
     1
 48
10.0
100
AcDbBlockEnd
  0
BLOCK
  5
4FB2
330
4FA6
100
AcDbEntity
  8
0
 62
     1
 48
10.0
100
AcDbBlockBegin
  2
*D22
 70
     1
 10
0.0
 20
0.0
 30
0.0
  3
*D22
  1
*D22
  0
LINE
  5
53DF
330
4FA6
100
AcDbEntity
  8
寸法線
 62
     0
 48
10.0
100
AcDbLine
 10
595.665768171144
 20
491.687164470948
 30
0.0
 11
595.665768171144
 21
397.951807976175
 31
0.0
  0
LINE
  5
53E0
330
4FA6
100
AcDbEntity
  8
寸法線
 62
     0
 48
10.0
100
AcDbLine
 10
607.665768171144
 20
492.687164470946
 30
0.0
 11
607.665768171144
 21
397.951807976175
 31
0.0
  0
LINE
  5
53E1
330
4FA6
100
AcDbEntity
  8
寸法線
 62
     0
 48
10.0
100
AcDbLine
 10
595.665768171144
 20
399.201807976175
 30
0.0
 11
607.665768171144
 21
399.201807976175
 31
0.0
  0
LINE
  5
53E2
330
4FA6
100
AcDbEntity
  8
寸法線
 62
     0
 48
10.0
100
AcDbLine
 10
589.665768171144
 20
399.201807976175
 30
0.0
 11
583.665768171144
 21
399.201807976175
 31
0.0
  0
LINE
  5
53E3
330
4FA6
100
AcDbEntity
  8
寸法線
 62
     0
 48
10.0
100
AcDbLine
 10
613.665768171144
 20
399.201807976175
 30
0.0
 11
619.665768171144
 21
399.201807976175
 31
0.0
  0
INSERT
  5
53E4
330
4FA6
100
AcDbEntity
  8
寸法線
 62
     0
100
AcDbBlockReference
  2
_OPEN30
 10
595.665768171144
 20
399.201807976175
 30
0.0
 41
6.0
 42
6.0
 43
6.0
  0
INSERT
  5
53E5
330
4FA6
100
AcDbEntity
  8
寸法線
 62
     0
100
AcDbBlockReference
  2
_OPEN30
 10
607.665768171144
 20
399.201807976175
 30
0.0
 41
6.0
 42
6.0
 43
6.0
 50
180.0
  0
MTEXT
  5
53E6
330
4FA6
100
AcDbEntity
  8
寸法線
 62
     0
 48
10.0
100
AcDbMText
 10
601.665768171144
 20
403.830974642842
 30
0.0
 40
8.0
 41
0.0
 71
     5
 72
     1
  1
\A1;12
  0
POINT
  5
53E7
330
4FA6
100
AcDbEntity
  8
DEFPOINTS
 62
     0
100
AcDbPoint
 10
595.665768171144
 20
492.312164470948
 30
0.0
  0
POINT
  5
53E8
330
4FA6
100
AcDbEntity
  8
DEFPOINTS
 62
     0
100
AcDbPoint
 10
607.665768171144
 20
493.312164470946
 30
0.0
  0
POINT
  5
53E9
330
4FA6
100
AcDbEntity
  8
DEFPOINTS
 62
     0
100
AcDbPoint
 10
607.665768171144
 20
399.201807976175
 30
0.0
  0
ENDBLK
  5
4FB3
330
4FA6
100
AcDbEntity
  8
0
 62
     1
 48
10.0
100
AcDbBlockEnd
  0
BLOCK
  5
4FBE
330
4FB4
100
AcDbEntity
  8
0
 62
     1
 48
10.0
100
AcDbBlockBegin
  2
*D23
 70
     1
 10
0.0
 20
0.0
 30
0.0
  3
*D23
  1
*D23
  0
LINE
  5
5467
330
4FB4
100
AcDbEntity
  8
寸法線_文字
 62
     0
 48
10.0
100
AcDbLine
 10
797.290768171144
 20
642.812164470948
 30
0.0
 11
836.915768171144
 21
642.812164470948
 31
0.0
  0
LINE
  5
5468
330
4FB4
100
AcDbEntity
  8
寸法線_文字
 62
     0
 48
10.0
100
AcDbLine
 10
766.890768171143
 20
419.201807976175
 30
0.0
 11
836.915768171144
 21
419.201807976175
 31
0.0
  0
LINE
  5
5469
330
4FB4
100
AcDbEntity
  8
寸法線_文字
 62
     0
 48
10.0
100
AcDbLine
 10
835.665768171144
 20
636.812164470948
 30
0.0
 11
835.665768171144
 21
425.201807976175
 31
0.0
  0
INSERT
  5
546A
330
4FB4
100
AcDbEntity
  8
寸法線_文字
 62
     0
 48
10.0
100
AcDbBlockReference
  2
_OPEN30
 10
835.665768171144
 20
642.812164470948
 30
0.0
 41
6.0
 42
6.0
 43
6.0
 50
90.0
  0
INSERT
  5
546B
330
4FB4
100
AcDbEntity
  8
寸法線_文字
 62
     0
 48
10.0
100
AcDbBlockReference
  2
_OPEN30
 10
835.665768171144
 20
419.201807976175
 30
0.0
 41
6.0
 42
6.0
 43
6.0
 50
270.0
  0
MTEXT
  5
546C
330
4FB4
100
AcDbEntity
  8
寸法線_文字
 62
     0
 48
10.0
100
AcDbMText
 10
831.039980769569
 20
531.006986223562
 30
0.0
 40
8.0
 41
0.0
 71
     5
 72
     1
  1
\A1;（224）
 11
6.123031769111886E-17
 21
1.0
 31
0.0
  0
POINT
  5
546D
330
4FB4
100
AcDbEntity
  8
DEFPOINTS
 62
     0
 48
10.0
100
AcDbPoint
 10
796.665768171144
 20
642.812164470948
 30
0.0
  0
POINT
  5
546E
330
4FB4
100
AcDbEntity
  8
DEFPOINTS
 62
     0
 48
10.0
100
AcDbPoint
 10
766.265768171143
 20
419.201807976175
 30
0.0
  0
POINT
  5
546F
330
4FB4
100
AcDbEntity
  8
DEFPOINTS
 62
     0
 48
10.0
100
AcDbPoint
 10
835.665768171144
 20
419.201807976175
 30
0.0
  0
ENDBLK
  5
4FBF
330
4FB4
100
AcDbEntity
  8
0
 62
     1
 48
10.0
100
AcDbBlockEnd
  0
BLOCK
  5
547C
330
5472
100
AcDbEntity
  8
0
 62
     1
 48
10.0
100
AcDbBlockBegin
  2
*D24
 70
     1
 10
0.0
 20
0.0
 30
0.0
  3
*D24
  1
*D24
  0
LINE
  5
54C3
330
5472
100
AcDbEntity
  8
寸法線
 62
     0
 48
10.0
100
AcDbLine
 10
235.852237306428
 20
563.323085860204
 30
0.0
 11
378.26209762935
 21
576.301208806683
 31
0.0
  0
INSERT
  5
54C4
330
5472
100
AcDbEntity
  8
寸法線
 62
     0
100
AcDbBlockReference
  2
_OPEN30
 10
229.876998410651
 20
562.778549232978
 30
0.0
 41
6.0
 42
6.0
 43
6.0
 50
185.2071067117
  0
INSERT
  5
54C5
330
5472
100
AcDbEntity
  8
寸法線
 62
     0
100
AcDbBlockReference
  2
_OPEN30
 10
384.237336525127
 20
576.845745433909
 30
0.0
 41
6.0
 42
6.0
 43
6.0
 50
5.2071067117
  0
MTEXT
  5
54C6
330
5472
100
AcDbEntity
  8
寸法線
 62
     0
 48
10.0
100
AcDbMText
 10
353.286237811157
 20
578.669269695851
 30
0.0
 40
8.0
 41
0.0
 71
     5
 72
     1
  1
\A1;φ155
 11
0.9958731492962074
 21
0.09075610453767823
 31
0.0
  0
POINT
  5
54C7
330
5472
100
AcDbEntity
  8
DEFPOINTS
 62
     0
100
AcDbPoint
 10
229.876998410651
 20
562.778549232977
 30
0.0
  0
POINT
  5
54C8
330
5472
100
AcDbEntity
  8
DEFPOINTS
 62
     0
100
AcDbPoint
 10
384.237336525127
 20
576.845745433909
 30
0.0
  0
POINT
  5
54C9
330
5472
100
AcDbEntity
  8
DEFPOINTS
 62
     0
100
AcDbPoint
 10
384.237336525127
 20
576.845745433909
 30
0.0
  0
ENDBLK
  5
547D
330
5472
100
AcDbEntity
  8
0
 62
     1
 48
10.0
100
AcDbBlockEnd
  0
BLOCK
  5
54D5
330
54CB
100
AcDbEntity
  8
0
 62
     1
 48
10.0
100
AcDbBlockBegin
  2
*D25
 70
     1
 10
0.0
 20
0.0
 30
0.0
  3
*D25
  1
*D25
  0
LINE
  5
5502
330
54CB
100
AcDbEntity
  8
寸法線
 62
     0
 48
10.0
100
AcDbLine
 10
251.47443197262
 20
550.026364432834
 30
0.0
 11
362.641333652235
 21
589.598071037655
 31
0.0
  0
INSERT
  5
5503
330
54CB
100
AcDbEntity
  8
寸法線
 62
     0
100
AcDbBlockReference
  2
_OPEN30
 10
245.821877648439
 20
548.014243757483
 30
0.0
 41
6.0
 42
6.0
 43
6.0
 50
199.594032233714
  0
INSERT
  5
5504
330
54CB
100
AcDbEntity
  8
寸法線
 62
     0
100
AcDbBlockReference
  2
_OPEN30
 10
368.293887976416
 20
591.610191713006
 30
0.0
 41
6.0
 42
6.0
 43
6.0
 50
19.594032233714
  0
MTEXT
  5
5505
330
54CB
100
AcDbEntity
  8
寸法線
 62
     0
 48
10.0
100
AcDbMText
 10
349.733098458989
 20
589.916877895939
 30
0.0
 40
8.0
 41
0.0
 71
     5
 72
     1
  1
\A1;φ130
 11
0.9420923873635835
 21
0.3353534458919186
 31
0.0
  0
POINT
  5
5506
330
54CB
100
AcDbEntity
  8
DEFPOINTS
 62
     0
100
AcDbPoint
 10
245.821877648439
 20
548.014243757483
 30
0.0
  0
POINT
  5
5507
330
54CB
100
AcDbEntity
  8
DEFPOINTS
 62
     0
100
AcDbPoint
 10
368.293887976416
 20
591.610191713006
 30
0.0
  0
POINT
  5
5508
330
54CB
100
AcDbEntity
  8
DEFPOINTS
 62
     0
100
AcDbPoint
 10
368.293887976416
 20
591.610191713006
 30
0.0
  0
ENDBLK
  5
54D6
330
54CB
100
AcDbEntity
  8
0
 62
     1
 48
10.0
100
AcDbBlockEnd
  0
ENDSEC
  0
SECTION
  2
ENTITIES
  0
TEXT
  5
2E94
330
1A
100
AcDbEntity
  8
寸法線
100
AcDbText
 10
289.116871348242
 20
260.536811875772
 30
0.0
 40
8.0
  1
１００   ０
 41
0.593716175771
  7
EXCADSTD
 72
     5
 11
318.40686935294
 21
260.536811875772
 31
0.0
100
AcDbText
  0
CIRCLE
  5
2E95
330
1A
100
AcDbEntity
  8
寸法線
100
AcDbCircle
 10
316.952107716738
 20
272.958865875772
 30
0.0
 40
3.0
  0
CIRCLE
  5
2E96
330
1A
100
AcDbEntity
  8
寸法線
100
AcDbCircle
 10
316.952107716738
 20
272.958865875772
 30
0.0
 40
1.599998
  0
CIRCLE
  5
2E97
330
1A
100
AcDbEntity
  8
寸法線
100
AcDbCircle
 10
296.960101716738
 20
272.958865875772
 30
0.0
 40
3.0
  0
CIRCLE
  5
2E98
330
1A
100
AcDbEntity
  8
寸法線
100
AcDbCircle
 10
296.960101716738
 20
272.958865875772
 30
0.0
 40
1.599998
  0
CIRCLE
  5
2E99
330
1A
100
AcDbEntity
  8
寸法線
100
AcDbCircle
 10
277.253681716738
 20
272.958865875772
 30
0.0
 40
3.0
  0
CIRCLE
  5
2E9A
330
1A
100
AcDbEntity
  8
寸法線
100
AcDbCircle
 10
277.253681716738
 20
272.958865875772
 30
0.0
 40
1.599998
  0
CIRCLE
  5
2E9B
330
1A
100
AcDbEntity
  8
寸法線
100
AcDbCircle
 10
256.547687716738
 20
272.958865875772
 30
0.0
 40
3.0
  0
CIRCLE
  5
2E9C
330
1A
100
AcDbEntity
  8
寸法線
100
AcDbCircle
 10
256.547687716738
 20
272.958865875772
 30
0.0
 40
1.599998
  0
CIRCLE
  5
2E9D
330
1A
100
AcDbEntity
  8
寸法線
100
AcDbCircle
 10
235.841693716738
 20
272.958865875772
 30
0.0
 40
3.0
  0
TEXT
  5
2F61
330
1A
100
AcDbEntity
  8
寸法線
100
AcDbText
 10
291.865925716738
 20
314.402315875772
 30
0.0
 40
8.965517241379
  1
シ　ロ
  7
EXCADVERT
 72
     3
 11
291.865925716738
 21
288.402315875772
 31
0.0
100
AcDbText
  0
TEXT
  5
2F67
330
1A
100
AcDbEntity
  8
寸法線
100
AcDbText
 10
198.057637716738
 20
249.991229875772
 30
0.0
 40
8.0
  1
接地端子
 41
0.869565217391
  7
EXCADSTD
 72
     5
 11
230.057637716738
 21
249.991229875772
 31
0.0
100
AcDbText
  0
TEXT
  5
2F68
330
1A
100
AcDbEntity
  8
寸法線
100
AcDbText
 10
212.783574455709
 20
260.591449875772
 30
0.0
 40
8.0
  1
E
100
AcDbText
  0
CIRCLE
  5
2F69
330
1A
100
AcDbEntity
  8
寸法線
100
AcDbCircle
 10
215.135701716738
 20
272.958865875772
 30
0.0
 40
1.599998
  0
TEXT
  5
2F6A
330
1A
100
AcDbEntity
  8
寸法線
100
AcDbText
 10
311.752827716738
 20
314.402315875772
 30
0.0
 40
8.76404494382
  1
ク　ロ
  7
EXCADVERT
 72
     3
 11
311.752827716738
 21
288.402315875772
 31
0.0
100
AcDbText
  0
TEXT
  5
2F6B
330
1A
100
AcDbEntity
  8
寸法線
100
AcDbText
 10
230.865193716738
 20
314.402315875772
 30
0.0
 40
7.515151518764
  1
ミドリ
  7
EXCADVERT
 72
     3
 11
230.865193716738
 21
289.602315863851
 31
0.0
100
AcDbText
  0
TEXT
  5
2F6C
330
1A
100
AcDbEntity
  8
寸法線
100
AcDbText
 10
272.415547716738
 20
314.402315875772
 30
0.0
 40
8.041237113402
  1
ア　カ
  7
EXCADVERT
 72
     3
 11
272.415547716738
 21
288.402315875772
 31
0.0
100
AcDbText
  0
CIRCLE
  5
2F6D
330
1A
100
AcDbEntity
  8
寸法線
100
AcDbCircle
 10
316.959675716738
 20
342.680087875772
 30
0.0
 40
9.177798
  0
LINE
  5
2F6E
330
1A
100
AcDbEntity
  8
寸法線
100
AcDbLine
 10
296.960101716738
 20
337.163653875772
 30
0.0
 11
298.560077716738
 21
351.784427875772
 31
0.0
  0
LINE
  5
2F6F
330
1A
100
AcDbEntity
  8
寸法線
100
AcDbLine
 10
256.547687716738
 20
337.163653875772
 30
0.0
 11
250.293721716738
 21
351.784427875772
 31
0.0
  0
CIRCLE
  5
2F70
330
1A
100
AcDbEntity
  8
寸法線
100
AcDbCircle
 10
296.960101716738
 20
351.784427875772
 30
0.0
 40
1.600006
  0
LINE
  5
2F71
330
1A
100
AcDbEntity
  8
寸法線
100
AcDbLine
 10
296.960101716738
 20
373.090853875772
 30
0.0
 11
296.960101716738
 21
353.384433875772
 31
0.0
  0
CIRCLE
  5
2F72
330
1A
100
AcDbEntity
  8
寸法線
100
AcDbCircle
 10
264.401691716738
 20
351.784427875772
 30
0.0
 40
1.600006
  0
LINE
  5
2F73
330
1A
100
AcDbEntity
  8
寸法線
100
AcDbLine
 10
264.401691716738
 20
373.090853875772
 30
0.0
 11
264.401691716738
 21
353.384433875772
 31
0.0
  0
CIRCLE
  5
2F74
330
1A
100
AcDbEntity
  8
寸法線
100
AcDbCircle
 10
248.693683716738
 20
351.784427875772
 30
0.0
 40
1.600006
  0
TEXT
  5
2F75
330
1A
100
AcDbEntity
  8
寸法線
100
AcDbText
 10
253.559768032459
 20
260.788108874345
 30
0.0
 40
8.0
  1
C
100
AcDbText
  0
TEXT
  5
2F76
330
1A
100
AcDbEntity
  8
寸法線
100
AcDbText
 10
273.897360550984
 20
260.988120874345
 30
0.0
 40
8.0
  1
H
100
AcDbText
  0
TEXT
  5
2F77
330
1A
100
AcDbEntity
  8
寸法線
100
AcDbText
 10
233.109330032459
 20
260.838112874345
 30
0.0
 40
8.0
  1
L
100
AcDbText
  0
CIRCLE
  5
2F78
330
1A
100
AcDbEntity
  8
寸法線
100
AcDbCircle
 10
296.960101716738
 20
335.563663875772
 30
0.0
 40
1.600006
  0
LINE
  5
2F79
330
1A
100
AcDbEntity
  8
寸法線
100
AcDbLine
 10
296.960101716738
 20
333.963657875772
 30
0.0
 11
296.960101716738
 21
275.958865875772
 31
0.0
  0
CIRCLE
  5
2F7A
330
1A
100
AcDbEntity
  8
寸法線
100
AcDbCircle
 10
235.841693716738
 20
272.958865875772
 30
0.0
 40
1.599998
  0
LINE
  5
2F7B
330
1A
100
AcDbEntity
  8
寸法線
100
AcDbLine
 10
316.952107716738
 20
333.473391875772
 30
0.0
 11
316.952107716738
 21
275.958865875772
 31
0.0
  0
LINE
  5
2F7C
330
1A
100
AcDbEntity
  8
寸法線
100
AcDbLine
 10
277.253681716738
 20
373.090853875772
 30
0.0
 11
277.253681716738
 21
275.958865875772
 31
0.0
  0
LINE
  5
2F7D
330
1A
100
AcDbEntity
  8
寸法線
100
AcDbLine
 10
256.547687716738
 20
333.963657875772
 30
0.0
 11
256.547687716738
 21
275.958865875772
 31
0.0
  0
CIRCLE
  5
2F7E
330
1A
100
AcDbEntity
  8
寸法線
100
AcDbCircle
 10
256.547687716738
 20
335.563663875772
 30
0.0
 40
1.600006
  0
LINE
  5
2F7F
330
1A
100
AcDbEntity
  8
寸法線
100
AcDbLine
 10
316.952107716738
 20
373.090853875772
 30
0.0
 11
316.952107716738
 21
351.857883875772
 31
0.0
  0
TEXT
  5
2F80
330
1A
100
AcDbEntity
  8
寸法線
100
AcDbText
 10
310.950825716738
 20
336.457309875772
 30
0.0
 40
12.0
  1
Ｍ
 41
1.25
  7
EXCADSTD
 72
     5
 11
322.950825716738
 21
336.457309875772
 31
0.0
100
AcDbText
  0
TEXT
  5
2F81
330
1A
100
AcDbEntity
  8
寸法線
100
AcDbText
 10
251.351581716738
 20
305.302095875772
 30
0.0
 40
8.571428571429
  1
キ
  7
EXCADVERT
 72
     3
 11
251.351581716738
 21
297.302095875772
 31
0.0
100
AcDbText
  0
TEXT
  5
2F82
330
1A
100
AcDbEntity
  8
寸法線
100
AcDbText
 10
296.415893413061
 20
238.940959978185
 30
0.0
 40
9.0
  1
電源
100
AcDbText
  0
LINE
  5
2F83
330
1A
100
AcDbEntity
  8
寸法線
100
AcDbLine
 10
296.960101716738
 20
373.090853875772
 30
0.0
 11
316.952107716738
 21
373.090853875772
 31
0.0
  0
LINE
  5
2F84
330
1A
100
AcDbEntity
  8
寸法線
100
AcDbLine
 10
264.401691716738
 20
373.090853875772
 30
0.0
 11
277.253681716738
 21
373.090853875772
 31
0.0
  0
LINE
  5
2F85
330
1A
100
AcDbEntity
  8
寸法線
100
AcDbLine
 10
248.693683716738
 20
373.090853875772
 30
0.0
 11
248.693683716738
 21
353.384433875772
 31
0.0
  0
LINE
  5
2F86
330
1A
100
AcDbEntity
  8
寸法線
100
AcDbLine
 10
235.841693716738
 20
373.090853875772
 30
0.0
 11
248.693683716738
 21
373.090853875772
 31
0.0
  0
LINE
  5
2F87
330
1A
100
AcDbEntity
  8
寸法線
100
AcDbLine
 10
235.841693716738
 20
275.958865875772
 30
0.0
 11
235.841693716738
 21
373.090853875772
 31
0.0
  0
DIMENSION
  5
38B4
330
1A
100
AcDbEntity
  8
寸法線
 48
10.0
100
AcDbDimension
  2
*D12
 10
425.665783171144
 20
529.80484470281
 30
0.0
 11
421.040783171144
 21
569.80484470281
 31
0.0
 70
    32
  3
ISO-25
100
AcDbAlignedDimension
 13
445.665783171144
 23
609.80484470281
 33
0.0
 14
445.665783171144
 24
529.80484470281
 34
0.0
 50
90.0
100
AcDbRotatedDimension
1001
ACAD
1000
DSTYLE
1002
{
1070
     5
1000
OPEN30
1070
    41
1040
6.0
1070
    47
1040
0.1
1070
    48
1040
0.1
1070
    73
1070
     0
1070
   140
1040
8.0
1070
   271
1070
     1
1070
   272
1070
     1
1070
   341
1005
2AF4
1002
}
  0
DIMENSION
  5
38EB
330
1A
100
AcDbEntity
  8
寸法線
 48
10.0
100
AcDbDimension
  2
*D13
 10
525.665783171144
 20
509.804743685654
 30
0.0
 11
485.665783171144
 21
514.429743685654
 31
0.0
 70
    32
  3
ISO-25
100
AcDbAlignedDimension
 13
445.665783171144
 23
529.80484470281
 33
0.0
 14
525.665783171144
 24
557.80484470281
 34
0.0
100
AcDbRotatedDimension
1001
ACAD
1000
DSTYLE
1002
{
1070
     5
1000
OPEN30
1070
    41
1040
6.0
1070
    47
1040
0.1
1070
    48
1040
0.1
1070
    73
1070
     0
1070
   140
1040
8.0
1070
   271
1070
     1
1070
   272
1070
     1
1070
   341
1005
2AF4
1002
}
  0
HATCH
  5
4DC4
330
1A
100
AcDbEntity
  8
細線
 48
10.0
100
AcDbHatch
 10
0.0
 20
0.0
 30
0.0
210
0.0
220
0.0
230
1.0
  2
ANSI31
 70
     0
 71
     0
 91
       10
 92
        7
 72
     1
 73
     1
 93
       10
 10
709.6657681711433
 20
626.8008862355352
 42
-0.389030737244686
 10
706.9256570202381
 20
623.8121644709483
 42
0.0
 10
645.1123664269433
 20
620.8121644709479
 42
0.3788767757664114
 10
630.7202213401577
 20
607.099337603205
 42
-0.3894638293893795
 10
628.2292968683266
 20
604.8121644709479
 42
0.0
 10
628.1657681711438
 20
604.8121644709479
 42
0.414213562373095
 10
625.6657681711438
 20
602.3121644709479
 42
0.0
 10
625.6657681711438
 20
591.3121644709479
 42
0.0
 10
625.6657681711438
 20
569.8121644709481
 42
0.0
 10
709.6657681711433
 20
569.8121644709481
 42
0.0
 97
        0
 92
        7
 72
     1
 73
     1
 93
       10
 10
706.9256570202381
 20
515.8121644709481
 42
-0.3890307372446858
 10
709.6657681711433
 20
512.8234427063611
 42
0.0
 10
709.6657681711433
 20
569.8121644709481
 42
0.0
 10
625.6657681711438
 20
569.8121644709481
 42
0.0
 10
625.6657681711438
 20
548.3121644709481
 42
0.0
 10
625.6657681711438
 20
537.3121644709482
 42
0.414213562373095
 10
628.1657681711438
 20
534.8121644709482
 42
0.0
 10
628.2292968683266
 20
534.812164470948
 42
-0.3894638293893796
 10
630.7202213401577
 20
532.5249913386913
 42
0.3788767757664114
 10
645.1123664269437
 20
518.8121644709481
 42
0.0
 97
        0
 92
        7
 72
     0
 73
     1
 93
        6
 10
595.6657681711436
 20
551.8121644709481
 10
595.6657681711436
 20
548.312164470948
 10
605.6657681711436
 20
548.3121644709481
 10
605.6657681711436
 20
569.8121644709481
 10
595.6657681711438
 20
569.8121644709481
 10
595.6657681711436
 20
552.812164470948
 97
        0
 92
        7
 72
     0
 73
     1
 93
        6
 10
595.6657681711436
 20
587.8121644709479
 10
595.6657681711436
 20
586.8121644709483
 10
595.6657681711436
 20
569.8121644709481
 10
605.6657681711436
 20
569.8121644709481
 10
605.6657681711436
 20
591.3121644709479
 10
595.6657681711438
 20
591.3121644709479
 97
        0
 92
        7
 72
     0
 73
     1
 93
        8
 10
709.6657681711433
 20
512.8234427063611
 10
709.6657681711433
 20
497.812164470948
 10
710.6657681711433
 20
496.812164470948
 10
725.1657681711433
 20
496.812164470948
 10
725.6657681711433
 20
497.312164470948
 10
725.6657681711433
 20
524.312164470948
 10
725.6657681711433
 20
569.8121644709481
 10
709.6657681711433
 20
569.8121644709481
 97
        0
 92
        7
 72
     1
 73
     1
 93
       10
 10
725.6657681711433
 20
524.312164470948
 42
0.0
 10
725.6657681711433
 20
497.312164470948
 42
0.0
 10
726.1657681711433
 20
496.812164470948
 42
0.0
 10
733.7020663181522
 20
496.812164470948
 42
0.0
 10
733.6657681711529
 20
496.801807976178
 42
-0.0141737213061776
 10
737.6657681711438
 20
497.8225209657212
 42
0.0
 10
737.6657681711438
 20
497.8121644709482
 42
0.0
 10
737.6657681711438
 20
507.812164470948
 42
0.0
 10
737.6657681711436
 20
569.8121644709481
 42
0.0
 10
725.6657681711436
 20
569.8121644709481
 42
0.0
 97
        0
 92
        7
 72
     0
 73
     1
 93
        8
 10
725.6657681711433
 20
642.3121644709479
 10
725.1657681711433
 20
642.8121644709479
 10
710.6657681711433
 20
642.8121644709479
 10
709.6657681711433
 20
641.8121644709479
 10
709.6657681711433
 20
626.8008862355352
 10
709.6657681711433
 20
569.8121644709481
 10
725.6657681711436
 20
569.8121644709481
 10
725.6657681711433
 20
615.3121644709479
 97
        0
 92
        7
 72
     0
 73
     1
 93
        8
 10
725.6657681711438
 20
642.3121644709479
 10
725.6657681711433
 20
615.3121644709479
 10
725.6657681711436
 20
569.8121644709481
 10
737.6657681711436
 20
569.8121644709481
 10
737.6657681711433
 20
631.8121644709479
 10
737.6657681711433
 20
641.8121644709479
 10
736.6657681711433
 20
642.8121644709479
 10
726.1657681711438
 20
642.8121644709479
 97
        0
 92
        7
 72
     0
 73
     1
 93
        4
 10
625.6657681711438
 20
591.3121644709479
 10
605.6657681711436
 20
591.3121644709479
 10
605.6657681711436
 20
569.8121644709481
 10
625.6657681711438
 20
569.8121644709481
 97
        0
 92
        7
 72
     0
 73
     1
 93
        4
 10
605.6657681711436
 20
548.3121644709481
 10
625.6657681711438
 20
548.3121644709481
 10
625.6657681711438
 20
569.8121644709481
 10
605.6657681711436
 20
569.8121644709481
 97
        0
 75
     0
 76
     1
 52
0.0
 41
1.0
 77
     0
 78
     1
 53
45.0
 43
-376.9315221077461
 44
75.62291706578844
 45
-2.245064030267288
 46
2.245064030267288
 79
     0
 47
0.0
 98
       10
 10
698.0387511342822
 20
581.3382356805737
 10
690.2338944250569
 20
553.3708324725167
 10
601.7788517205047
 20
560.8504868188576
 10
602.4292564462735
 20
579.7122238661518
 10
719.176904721767
 20
557.5984631900137
 10
732.835403962911
 20
559.2244750044356
 10
719.8273094475358
 20
588.1674853011457
 10
730.8841897856048
 20
590.1186994784518
 10
616.7381604131863
 20
582.9642474949956
 10
616.412958050302
 20
562.151296270395
1001
ACAD
1010
0.0
1020
0.0
1030
0.0
  0
ARC
  5
4DC5
330
1A
100
AcDbEntity
  8
外形線
100
AcDbCircle
 10
706.665768171143
 20
626.800886235535
 30
0.0
 40
2.999999999999992
100
AcDbArc
 50
274.969740728115
 51
0.0
  0
HATCH
  5
4DC6
330
1A
100
AcDbEntity
  8
細線
 48
10.0
100
AcDbHatch
 10
0.0
 20
0.0
 30
0.0
210
0.0
220
0.0
230
1.0
  2
ANSI31
 70
     0
 71
     1
 91
        7
 92
        7
 72
     1
 73
     1
 93
        6
 10
769.6657681711438
 20
569.8121644709479
 42
0.0
 10
737.6657681711436
 20
569.812164470948
 42
0.0
 10
737.6657681711438
 20
507.812164470948
 42
-0.4142135623730951
 10
739.6657681711438
 20
509.812164470948
 42
0.0
 10
767.6657681711438
 20
509.812164470948
 42
-0.4142135623730951
 10
769.6657681711438
 20
507.812164470948
 42
0.0
 97
        6
330
4DFB
330
4E07
330
4E12
330
4DCA
330
4DFF
330
4DFC
 92
        7
 72
     1
 73
     1
 93
        6
 10
739.6657681711438
 20
509.812164470948
 42
0.4142135623730951
 10
737.6657681711438
 20
507.812164470948
 42
0.0
 10
737.6657681711438
 20
497.8225209657213
 42
-0.1112054381533804
 10
769.6657681711438
 20
497.822520965721
 42
0.0
 10
769.6657681711438
 20
507.812164470948
 42
0.4142135623730951
 10
767.6657681711438
 20
509.812164470948
 42
0.0
 97
        6
330
4DFB
330
4DFC
330
4DFF
330
4E14
330
4E06
330
4E07
 92
        7
 72
     1
 73
     1
 93
        6
 10
769.6657681711438
 20
631.8121644709479
 42
-0.4142135623730951
 10
767.6657681711438
 20
629.8121644709479
 42
0.0
 10
739.6657681711438
 20
629.8121644709479
 42
-0.4142135623731616
 10
737.6657681711433
 20
631.8121644709479
 42
0.0
 10
737.6657681711436
 20
569.8121644709479
 42
0.0
 10
769.6657681711439
 20
569.8121644709479
 42
0.0
 97
        6
330
4DFD
330
4DFE
330
4DFF
330
4DCA
330
4E12
330
4E08
 92
        7
 72
     1
 73
     1
 93
        7
 10
781.6657681711441
 20
569.812164470948
 42
0.0
 10
769.6657681711438
 20
569.812164470948
 42
0.0
 10
769.6657681711438
 20
507.812164470948
 42
0.0
 10
769.6657681711438
 20
497.822520965721
 42
-0.0140441217489062
 10
773.6294700241341
 20
496.8121644709481
 42
0.0
 10
781.1657681711437
 20
496.8121644709479
 42
0.0
 10
781.6657681711438
 20
497.3121644709479
 42
0.0
 97
        7
330
4E06
330
4E14
330
4E4B
330
4E0E
330
4E0D
330
4DCA
330
4E12
 92
        7
 72
     0
 73
     1
 93
        8
 10
769.6657681711438
 20
569.8121644709479
 10
781.6657681711438
 20
569.8121644709479
 10
781.6657681711438
 20
619.8121644709479
 10
781.6657681711436
 20
642.3121644709479
 10
781.1657681711437
 20
642.8121644709478
 10
770.6657681711438
 20
642.8121644709479
 10
769.6657681711439
 20
641.812164470948
 10
769.6657681711438
 20
631.8121644709479
 97
        8
330
4E09
330
4E12
330
4DCA
330
4E11
330
4E10
330
4E0C
330
4E0B
330
4E0A
 92
        7
 72
     0
 73
     1
 93
        6
 10
797.6657681711438
 20
569.8121644709479
 10
781.6657681711438
 20
569.8121644709479
 10
781.6657681711438
 20
497.312164470948
 10
782.1657681711434
 20
496.812164470948
 10
796.6657681711438
 20
496.8121644709479
 10
797.6657681711439
 20
497.8121644709481
 97
        3
330
4E0D
330
4E10
330
4DCA
 92
        7
 72
     0
 73
     1
 93
        7
 10
797.6657681711438
 20
641.8121644709479
 10
796.6657681711437
 20
642.8121644709479
 10
782.1657681711436
 20
642.8121644709479
 10
781.6657681711436
 20
642.3121644709479
 10
781.6657681711436
 20
619.8121644709479
 10
781.6657681711437
 20
569.8121644709479
 10
797.6657681711438
 20
569.8121644709479
 97
        3
330
4E10
330
4E11
330
4DCA
 75
     0
 76
     1
 52
0.0
 41
1.0
 77
     0
 78
     1
 53
45.0
 43
-376.9315221077461
 44
75.62291706578844
 45
-2.245064030267288
 46
2.245064030267288
 79
     0
 47
0.0
 98
        7
 10
757.2255811792397
 20
552.720427746748
 10
760.4776048080835
 20
505.2408827656282
 10
762.7540213482741
 20
585.2406640351862
 10
777.0629253151872
 20
561.5008915446263
 10
772.8352945976901
 20
588.8178900269145
 10
793.9734481851749
 20
553.0456301096324
 10
793.3230434594063
 20
585.2406640351862
1001
ACAD
1010
0.0
1020
0.0
1030
0.0
  0
HATCH
  5
4DC7
330
1A
100
AcDbEntity
  8
細線
 48
10.0
100
AcDbHatch
 10
0.0
 20
0.0
 30
0.0
210
0.0
220
0.0
230
1.0
  2
ANSI31
 70
     0
 71
     0
 91
        8
 92
        7
 72
     1
 73
     1
 93
        8
 10
571.5317935749276
 20
550.312164470948
 42
0.0
 10
594.1657681711436
 20
550.312164470948
 42
0.0
 10
594.1657681711436
 20
551.8121653105866
 42
0.0
 10
594.1657681711436
 20
552.812164470948
 42
0.0
 10
594.1657681711436
 20
554.3121644709482
 42
0.0
 10
594.1657681711436
 20
555.5514228958915
 42
0.0
 10
571.4479035301165
 20
555.5514228958915
 42
0.0171452713841633
 10
570.6657681711431
 20
551.8121644709469
 42
0.0
 97
        0
 92
        7
 72
     1
 73
     1
 93
        8
 10
594.1657681711436
 20
589.3121644709479
 42
0.0
 10
571.5317935749276
 20
589.3121644709479
 42
0.0
 10
570.6657681711436
 20
587.8121644709479
 42
0.0171452713841633
 10
571.4479035301163
 20
584.0729060460048
 42
0.0
 10
594.1657681711436
 20
584.0729060460046
 42
0.0
 10
594.1657681711436
 20
585.3121644709479
 42
0.0
 10
594.1657681711436
 20
586.8121644709479
 42
0.0
 10
594.1657681711436
 20
587.8121658088587
 42
0.0
 97
        0
 92
        7
 72
     1
 73
     1
 93
        5
 10
571.4479035301163
 20
584.0729060460048
 42
-0.0171452713841633
 10
570.6657681711431
 20
587.8121644709493
 42
0.0
 10
570.6657681711436
 20
574.8121644709479
 42
0.0
 10
570.6657681711436
 20
569.8121644709481
 42
-0.088435504736871
 10
571.447903530117
 20
574.1996466646447
 42
0.0
 97
        0
 92
        7
 72
     1
 73
     1
 93
        5
 10
570.6657681711436
 20
564.812164470948
 42
0.0
 10
570.6657681711436
 20
551.812164470948
 42
-0.0171452713841633
 10
571.4479035301163
 20
555.5514228958912
 42
0.0
 10
571.4479035301165
 20
565.4246822772517
 42
-0.088435504736871
 10
570.6657681711436
 20
569.8121644709479
 42
0.0
 97
        0
 92
        7
 72
     1
 73
     1
 93
        4
 10
594.1657681711436
 20
574.199646664644
 42
0.0
 10
571.4479035301165
 20
574.199646664644
 42
0.088435504736871
 10
570.6657681711436
 20
569.8121644709479
 42
0.0
 10
594.1657681711436
 20
569.8121644709481
 42
0.0
 97
        0
 92
        7
 72
     0
 73
     1
 93
        4
 10
571.4479035301165
 20
574.199646664644
 10
594.1657681711436
 20
574.199646664644
 10
594.1657681711436
 20
584.0729060460046
 10
571.4479035301165
 20
584.0729060460046
 97
        0
 92
        7
 72
     0
 73
     1
 93
        4
 10
594.1657681711436
 20
565.4246822772519
 10
571.4479035301165
 20
565.4246822772519
 10
571.4479035301165
 20
555.5514228958915
 10
594.1657681711436
 20
555.5514228958915
 97
        0
 92
        7
 72
     1
 73
     1
 93
        4
 10
571.4479035301165
 20
565.4246822772519
 42
0.0
 10
594.1657681711436
 20
565.4246822772519
 42
0.0
 10
594.1657681711436
 20
569.8121644709481
 42
0.0
 10
570.6657681711436
 20
569.8121644709481
 42
0.088435504736871
 97
        0
 75
     0
 76
     1
 52
0.0
 41
1.0
 77
     0
 78
     1
 53
45.0
 43
-376.9315221077461
 44
75.62291706578844
 45
-2.245064030267288
 46
2.245064030267288
 79
     0
 47
0.0
 98
        8
 10
579.0408617687142
 20
552.6106101980636
 10
587.782094713587
 20
586.8707293981024
 10
570.7833242966531
 20
582.7114557854486
 10
571.1119004535533
 20
561.7649564437493
 10
586.0641338735777
 20
572.4036907453931
 10
576.9318157240548
 20
581.7168468780746
 10
575.436788443641
 20
561.8370379102507
 10
578.103802704195
 20
568.252288428881
1001
ACAD
1010
0.0
1020
0.0
1030
0.0
  0
HATCH
  5
4DC8
330
1A
100
AcDbEntity
  8
細線
 48
10.0
100
AcDbHatch
 10
0.0
 20
0.0
 30
0.0
210
0.0
220
0.0
230
1.0
  2
ANSI31
 70
     0
 71
     1
 91
        2
 92
        7
 72
     0
 73
     1
 93
        4
 10
570.6657681711437
 20
569.8121644709479
 10
570.6657681711438
 20
574.8121644709479
 10
549.1657681711438
 20
574.8121644709479
 10
549.1657681711439
 20
569.8121644709479
 97
        4
330
4E4C
330
4DCA
330
4DEB
330
4E4D
 92
        7
 72
     0
 73
     1
 93
        4
 10
570.6657681711436
 20
564.812164470948
 10
570.6657681711437
 20
569.812164470948
 10
549.1657681711438
 20
569.8121644709479
 10
549.1657681711438
 20
564.8121644709481
 97
        4
330
4E6A
330
4DEB
330
4DCA
330
4E4C
 75
     0
 76
     1
 52
0.0
 41
1.0
 77
     0
 78
     1
 53
45.0
 43
-376.9315221077461
 44
75.62291706578844
 45
-2.245064030267288
 46
2.245064030267288
 79
     0
 47
0.0
 98
        2
 10
565.9220348654478
 20
572.2888505529629
 10
565.633708999442
 20
566.8106590988517
1001
ACAD
1010
0.0
1020
0.0
1030
0.0
  0
HATCH
  5
4DC9
330
1A
100
AcDbEntity
  8
細線
 48
10.0
100
AcDbHatch
 10
0.0
 20
0.0
 30
0.0
210
0.0
220
0.0
230
1.0
  2
ANSI31
 70
     0
 71
     0
 91
        4
 92
        7
 72
     0
 73
     1
 93
        4
 10
594.6657681711436
 20
586.8121644709479
 10
594.1657681711436
 20
586.8121644709479
 10
594.1657681711436
 20
585.3121644709479
 10
594.6657681711436
 20
585.3121644709479
 97
        0
 92
        7
 72
     0
 73
     1
 93
        4
 10
594.1657681711436
 20
552.812164470948
 10
594.6657681711436
 20
552.812164470948
 10
594.6657681711436
 20
554.3121644709482
 10
594.1657681711436
 20
554.3121644709482
 97
        0
 92
        7
 72
     0
 73
     1
 93
        9
 10
594.6657681711436
 20
586.8121644709479
 10
594.6657681711436
 20
585.3121644709479
 10
594.1657681711436
 20
585.3121644709479
 10
594.1657681711436
 20
584.0729060460046
 10
594.1657681711436
 20
574.199646664644
 10
594.1657681711436
 20
569.8121644709481
 10
595.6657681711438
 20
569.8121644709481
 10
595.6657681711436
 20
586.8121644709479
 10
594.9157680222479
 20
586.8121644709479
 97
        0
 92
        7
 72
     0
 73
     1
 93
        9
 10
594.6657681711436
 20
554.3121644709482
 10
594.6657681711436
 20
552.8121644709482
 10
594.915767966897
 20
552.812164470948
 10
595.6657681711436
 20
552.812164470948
 10
595.6657681711436
 20
569.8121644709481
 10
594.1657681711436
 20
569.8121644709481
 10
594.1657681711436
 20
565.4246822772519
 10
594.1657681711436
 20
555.5514228958915
 10
594.1657681711436
 20
554.3121644709482
 97
        0
 75
     0
 76
     1
 52
0.0
 41
1.0
 77
     0
 78
     1
 53
45.0
 43
-376.9315221077461
 44
75.62291706578844
 45
-2.245064030267288
 46
2.245064030267288
 79
     0
 47
0.0
 98
        4
 10
594.3221326670241
 20
585.8401662552378
 10
594.3942141335256
 20
553.619750729084
 10
595.4033546645462
 20
585.1914330567247
 10
594.7546214660329
 20
568.3243698953825
1001
ACAD
1010
0.0
1020
0.0
1030
0.0
  0
LINE
  5
4DCA
102
{ACAD_REACTORS
330
4DC8
330
4DC6
102
}
330
1A
100
AcDbEntity
  8
中心線
 48
10.0
100
AcDbLine
 10
805.665768171144
 20
569.812164470948
 30
0.0
 11
437.665783171144
 21
569.812164470948
 31
0.0
  0
ARC
  5
4DCB
330
1A
100
AcDbEntity
  8
外形線
100
AcDbCircle
 10
706.665768171143
 20
512.823442706361
 30
0.0
 40
2.999999999999992
100
AcDbArc
 50
0.0
 51
85.030259271885
  0
LINE
  5
4DCC
330
1A
100
AcDbEntity
  8
外形線
100
AcDbLine
 10
645.112366426943
 20
620.812164470948
 30
0.0
 11
706.925657020238
 21
623.812164470948
 31
0.0
  0
LINE
  5
4DCD
330
1A
100
AcDbEntity
  8
外形線
100
AcDbLine
 10
645.112366426943
 20
518.812164470948
 30
0.0
 11
706.925657020238
 21
515.812164470948
 31
0.0
  0
ARC
  5
4DCE
330
1A
100
AcDbEntity
  8
外形線
100
AcDbCircle
 10
645.665768171144
 20
605.822376396745
 30
0.0
 40
15.0
100
AcDbArc
 50
92.114318782232
 51
175.116456621726
  0
ARC
  5
4DCF
330
1A
100
AcDbEntity
  8
外形線
100
AcDbCircle
 10
645.665768171144
 20
533.801952545151
 30
0.0
 40
15.0
100
AcDbArc
 50
184.883543378274
 51
267.885681217768
  0
LINE
  5
4DD0
330
1A
100
AcDbEntity
  8
外形線
100
AcDbLine
 10
628.165768171144
 20
604.812164470948
 30
0.0
 11
628.229296868327
 21
604.812164470948
 31
0.0
  0
LINE
  5
4DD1
330
1A
100
AcDbEntity
  8
外形線
100
AcDbLine
 10
628.229296868327
 20
534.812164470948
 30
0.0
 11
628.165768171144
 21
534.812164470948
 31
0.0
  0
ARC
  5
4DD2
330
1A
100
AcDbEntity
  8
外形線
100
AcDbCircle
 10
628.229296868327
 20
607.312164470948
 30
0.0
 40
2.5
100
AcDbArc
 50
270.0
 51
355.116456621726
  0
ARC
  5
4DD3
330
1A
100
AcDbEntity
  8
外形線
100
AcDbCircle
 10
628.229296868327
 20
532.312164470948
 30
0.0
 40
2.5
100
AcDbArc
 50
4.883543378274
 51
90.0
  0
ARC
  5
4DD4
330
1A
100
AcDbEntity
  8
外形線
100
AcDbCircle
 10
628.165768171144
 20
602.312164470948
 30
0.0
 40
2.5
100
AcDbArc
 50
90.0
 51
180.0
  0
ARC
  5
4DD5
330
1A
100
AcDbEntity
  8
外形線
100
AcDbCircle
 10
628.165768171144
 20
537.312164470948
 30
0.0
 40
2.5
100
AcDbArc
 50
180.0
 51
270.0
  0
LINE
  5
4DD6
330
1A
100
AcDbEntity
  8
外形線
100
AcDbLine
 10
595.665768171144
 20
548.312164470948
 30
0.0
 11
595.665768171144
 21
552.812164470948
 31
0.0
  0
LINE
  5
4DD7
330
1A
100
AcDbEntity
  8
外形線
100
AcDbLine
 10
594.165768171144
 20
586.812164470948
 30
0.0
 11
595.665768171144
 21
586.812164470948
 31
0.0
  0
LINE
  5
4DD8
330
1A
100
AcDbEntity
  8
外形線
100
AcDbLine
 10
594.165768171144
 20
552.812164470948
 30
0.0
 11
595.665768171144
 21
552.812164470948
 31
0.0
  0
LINE
  5
4DD9
330
1A
100
AcDbEntity
  8
外形線
100
AcDbLine
 10
595.665768171144
 20
586.812164470948
 30
0.0
 11
595.665768171144
 21
591.312164470948
 31
0.0
  0
LINE
  5
4DDA
330
1A
100
AcDbEntity
  8
細線
100
AcDbLine
 10
594.665768171144
 20
586.812164470948
 30
0.0
 11
594.665768171144
 21
585.312164470948
 31
0.0
  0
LINE
  5
4DDB
330
1A
100
AcDbEntity
  8
細線
100
AcDbLine
 10
594.165768171144
 20
585.312164470948
 30
0.0
 11
594.665768171144
 21
585.312164470948
 31
0.0
  0
LINE
  5
4DDC
330
1A
100
AcDbEntity
  8
細線
100
AcDbLine
 10
594.665768171144
 20
552.812164470948
 30
0.0
 11
594.665768171144
 21
554.312164470948
 31
0.0
  0
LINE
  5
4DDD
330
1A
100
AcDbEntity
  8
細線
100
AcDbLine
 10
594.165768171144
 20
554.312164470948
 30
0.0
 11
594.665768171144
 21
554.312164470948
 31
0.0
  0
LINE
  5
4DDE
330
1A
100
AcDbEntity
  8
外形線
100
AcDbLine
 10
709.665768171143
 20
512.823442706361
 30
0.0
 11
709.665768171143
 21
497.812164470948
 31
0.0
  0
LINE
  5
4DDF
330
1A
100
AcDbEntity
  8
外形線
100
AcDbLine
 10
709.665768171143
 20
497.812164470948
 30
0.0
 11
710.665768171143
 21
496.812164470948
 31
0.0
  0
LINE
  5
4DE0
330
1A
100
AcDbEntity
  8
外形線
100
AcDbLine
 10
710.665768171143
 20
496.812164470948
 30
0.0
 11
725.165768171143
 21
496.812164470948
 31
0.0
  0
LINE
  5
4DE1
330
1A
100
AcDbEntity
  8
外形線
100
AcDbLine
 10
725.165768171143
 20
496.812164470948
 30
0.0
 11
725.665768171143
 21
497.312164470948
 31
0.0
  0
LINE
  5
4DE2
330
1A
100
AcDbEntity
  8
外形線
100
AcDbLine
 10
725.665768171143
 20
497.312164470948
 30
0.0
 11
725.665768171143
 21
642.312164470948
 31
0.0
  0
LINE
  5
4DE3
330
1A
100
AcDbEntity
  8
外形線
100
AcDbLine
 10
725.665768171143
 20
642.312164470948
 30
0.0
 11
725.165768171143
 21
642.812164470948
 31
0.0
  0
LINE
  5
4DE4
330
1A
100
AcDbEntity
  8
外形線
100
AcDbLine
 10
725.165768171143
 20
642.812164470948
 30
0.0
 11
710.665768171143
 21
642.812164470948
 31
0.0
  0
LINE
  5
4DE5
330
1A
100
AcDbEntity
  8
外形線
100
AcDbLine
 10
710.665768171143
 20
642.812164470948
 30
0.0
 11
709.665768171143
 21
641.812164470948
 31
0.0
  0
LINE
  5
4DE6
330
1A
100
AcDbEntity
  8
外形線
100
AcDbLine
 10
709.665768171143
 20
641.812164470948
 30
0.0
 11
709.665768171143
 21
626.800886235535
 31
0.0
  0
LINE
  5
4DE7
330
1A
100
AcDbEntity
  8
外形線
100
AcDbLine
 10
594.165768171144
 20
550.312164470948
 30
0.0
 11
571.531793574928
 21
550.312164470948
 31
0.0
  0
LINE
  5
4DE8
330
1A
100
AcDbEntity
  8
外形線
100
AcDbLine
 10
571.531793574928
 20
589.312164470948
 30
0.0
 11
594.165768171144
 21
589.312164470948
 31
0.0
  0
LINE
  5
4DE9
330
1A
100
AcDbEntity
  8
外形線
100
AcDbLine
 10
594.165768171144
 20
589.312164470948
 30
0.0
 11
594.165768171144
 21
550.312164470948
 31
0.0
  0
ARC
  5
4DEA
330
1A
100
AcDbEntity
  8
細線
100
AcDbCircle
 10
625.563981691924
 20
597.343717320351
 30
0.0
 40
55.71951496104566
100
AcDbArc
 50
189.849635564497
 51
193.778657358166
  0
LINE
  5
4DEB
102
{ACAD_REACTORS
330
4DC8
102
}
330
1A
100
AcDbEntity
  8
外形線
100
AcDbLine
 10
570.665768171144
 20
551.812164470948
 30
0.0
 11
570.665768171144
 21
587.812164470948
 31
0.0
  0
LINE
  5
4DEC
330
1A
100
AcDbEntity
  8
外形線
100
AcDbLine
 10
570.665768171144
 20
551.812164470948
 30
0.0
 11
571.531793574928
 21
550.312164470948
 31
0.0
  0
LINE
  5
4DED
330
1A
100
AcDbEntity
  8
外形線
100
AcDbLine
 10
570.665768171144
 20
587.812164470948
 30
0.0
 11
571.531793574928
 21
589.312164470948
 31
0.0
  0
LINE
  5
4DEE
330
1A
100
AcDbEntity
  8
細線
100
AcDbLine
 10
594.165768171144
 20
574.199646664644
 30
0.0
 11
571.447903530116
 21
574.199646664644
 31
0.0
  0
LINE
  5
4DEF
330
1A
100
AcDbEntity
  8
細線
100
AcDbLine
 10
594.165768171144
 20
584.072906046005
 30
0.0
 11
571.447903530116
 21
584.072906046005
 31
0.0
  0
LINE
  5
4DF0
330
1A
100
AcDbEntity
  8
細線
100
AcDbLine
 10
571.447903530116
 20
584.072906046005
 30
0.0
 11
571.447903530116
 21
574.199646664644
 31
0.0
  0
ARC
  5
4DF1
330
1A
100
AcDbEntity
  8
細線
100
AcDbCircle
 10
583.36288989815
 20
569.812164470948
 30
0.0
 40
12.69712172700661
100
AcDbArc
 50
159.784666103607
 51
180.0
  0
ARC
  5
4DF2
330
1A
100
AcDbEntity
  8
細線
100
AcDbCircle
 10
625.563981691924
 20
542.280611621545
 30
0.0
 40
55.71951496104566
100
AcDbArc
 50
166.221342641834
 51
170.150364435503
  0
LINE
  5
4DF3
330
1A
100
AcDbEntity
  8
細線
100
AcDbLine
 10
594.165768171144
 20
565.424682277252
 30
0.0
 11
571.447903530116
 21
565.424682277252
 31
0.0
  0
LINE
  5
4DF4
330
1A
100
AcDbEntity
  8
細線
100
AcDbLine
 10
594.165768171144
 20
555.551422895892
 30
0.0
 11
571.447903530116
 21
555.551422895892
 31
0.0
  0
LINE
  5
4DF5
330
1A
100
AcDbEntity
  8
細線
100
AcDbLine
 10
571.447903530116
 20
555.551422895892
 30
0.0
 11
571.447903530116
 21
565.424682277252
 31
0.0
  0
ARC
  5
4DF6
330
1A
100
AcDbEntity
  8
細線
100
AcDbCircle
 10
583.36288989815
 20
569.812164470948
 30
0.0
 40
12.69712172700661
100
AcDbArc
 50
180.0
 51
200.215333896393
  0
ELLIPSE
  5
4DF7
330
1A
100
AcDbEntity
  8
外形線
 48
10.0
100
AcDbEllipse
 10
594.915768171143
 20
587.812164470948
 30
0.0
 11
5.684341886080801E-14
 21
1.000000000000028
 31
0.0
210
0.0
220
0.0
230
1.0
 40
0.75
 41
0.0
 42
6.283185307179586
  0
ELLIPSE
  5
4DF8
330
1A
100
AcDbEntity
  8
外形線
 48
10.0
100
AcDbEllipse
 10
594.915768171143
 20
551.812164470948
 30
0.0
 11
5.684341886080801E-14
 21
1.000000000000028
 31
0.0
210
0.0
220
0.0
230
1.0
 40
0.75
 41
0.0
 42
6.283185307179586
  0
LINE
  5
4DF9
330
1A
100
AcDbEntity
  8
外形線
 48
10.0
100
AcDbLine
 10
595.665768171144
 20
586.812164470948
 30
0.0
 11
595.665768171144
 21
552.812164470948
 31
0.0
  0
LINE
  5
4DFA
330
1A
100
AcDbEntity
  8
外形線
100
AcDbLine
 10
725.665768171143
 20
615.312164470948
 30
0.0
 11
725.665768171144
 21
642.312164470948
 31
0.0
  0
LINE
  5
4DFB
102
{ACAD_REACTORS
330
4DC6
102
}
330
1A
100
AcDbEntity
  8
外形線
100
AcDbLine
 10
739.665768171144
 20
509.812164470948
 30
0.0
 11
767.665768171144
 21
509.812164470948
 31
0.0
  0
ARC
  5
4DFC
102
{ACAD_REACTORS
330
4DC6
102
}
330
1A
100
AcDbEntity
  8
外形線
100
AcDbCircle
 10
739.665768171144
 20
507.812164470948
 30
0.0
 40
2.0
100
AcDbArc
 50
90.0
 51
180.0
  0
LINE
  5
4DFD
102
{ACAD_REACTORS
330
4DC6
102
}
330
1A
100
AcDbEntity
  8
外形線
100
AcDbLine
 10
739.665768171144
 20
629.812164470948
 30
0.0
 11
767.665768171144
 21
629.812164470948
 31
0.0
  0
ARC
  5
4DFE
102
{ACAD_REACTORS
330
4DC6
102
}
330
1A
100
AcDbEntity
  8
外形線
100
AcDbCircle
 10
739.665768171144
 20
631.812164470948
 30
0.0
 40
2.0
100
AcDbArc
 50
180.0
 51
270.0
  0
LINE
  5
4DFF
102
{ACAD_REACTORS
330
4DC6
102
}
330
1A
100
AcDbEntity
  8
外形線
100
AcDbLine
 10
737.665768171143
 20
641.812164470948
 30
0.0
 11
737.665768171144
 21
497.812164470948
 31
0.0
  0
LINE
  5
4E00
330
1A
100
AcDbEntity
  8
外形線
100
AcDbLine
 10
736.665768171143
 20
642.812164470948
 30
0.0
 11
737.665768171143
 21
641.812164470948
 31
0.0
  0
LINE
  5
4E01
330
1A
100
AcDbEntity
  8
外形線
100
AcDbLine
 10
726.165768171144
 20
642.812164470948
 30
0.0
 11
736.665768171143
 21
642.812164470948
 31
0.0
  0
LINE
  5
4E02
330
1A
100
AcDbEntity
  8
外形線
100
AcDbLine
 10
725.665768171144
 20
642.312164470948
 30
0.0
 11
726.165768171144
 21
642.812164470948
 31
0.0
  0
LINE
  5
4E03
330
1A
100
AcDbEntity
  8
外形線
100
AcDbLine
 10
725.665768171143
 20
497.312164470948
 30
0.0
 11
725.665768171144
 21
524.312164470948
 31
0.0
  0
LINE
  5
4E04
330
1A
100
AcDbEntity
  8
外形線
100
AcDbLine
 10
726.165768171143
 20
496.812164470948
 30
0.0
 11
725.665768171143
 21
497.312164470948
 31
0.0
  0
LINE
  5
4E05
330
1A
100
AcDbEntity
  8
外形線
100
AcDbLine
 10
733.702066318152
 20
496.812164470948
 30
0.0
 11
726.165768171143
 21
496.812164470948
 31
0.0
  0
LINE
  5
4E06
102
{ACAD_REACTORS
330
4DC6
102
}
330
1A
100
AcDbEntity
  8
外形線
100
AcDbLine
 10
769.665768171144
 20
497.812164470948
 30
0.0
 11
769.665768171144
 21
507.812164470948
 31
0.0
  0
ARC
  5
4E07
102
{ACAD_REACTORS
330
4DC6
102
}
330
1A
100
AcDbEntity
  8
外形線
100
AcDbCircle
 10
767.665768171144
 20
507.812164470948
 30
0.0
 40
2.0
100
AcDbArc
 50
0.0
 51
90.0
  0
ARC
  5
4E08
102
{ACAD_REACTORS
330
4DC6
102
}
330
1A
100
AcDbEntity
  8
外形線
100
AcDbCircle
 10
767.665768171144
 20
631.812164470948
 30
0.0
 40
2.0
100
AcDbArc
 50
270.0
 51
0.0
  0
LINE
  5
4E09
102
{ACAD_REACTORS
330
4DC6
102
}
330
1A
100
AcDbEntity
  8
外形線
100
AcDbLine
 10
769.665768171144
 20
641.812164470948
 30
0.0
 11
769.665768171144
 21
631.812164470948
 31
0.0
  0
LINE
  5
4E0A
102
{ACAD_REACTORS
330
4DC6
102
}
330
1A
100
AcDbEntity
  8
外形線
100
AcDbLine
 10
770.665768171144
 20
642.812164470948
 30
0.0
 11
769.665768171144
 21
641.812164470948
 31
0.0
  0
LINE
  5
4E0B
102
{ACAD_REACTORS
330
4DC6
102
}
330
1A
100
AcDbEntity
  8
外形線
100
AcDbLine
 10
781.165768171144
 20
642.812164470948
 30
0.0
 11
770.665768171144
 21
642.812164470948
 31
0.0
  0
LINE
  5
4E0C
102
{ACAD_REACTORS
330
4DC6
102
}
330
1A
100
AcDbEntity
  8
外形線
100
AcDbLine
 10
781.665768171144
 20
642.312164470948
 30
0.0
 11
781.165768171144
 21
642.812164470948
 31
0.0
  0
LINE
  5
4E0D
102
{ACAD_REACTORS
330
4DC6
102
}
330
1A
100
AcDbEntity
  8
外形線
100
AcDbLine
 10
781.665768171144
 20
497.312164470948
 30
0.0
 11
781.665768171144
 21
642.312164470948
 31
0.0
  0
LINE
  5
4E0E
102
{ACAD_REACTORS
330
4DC6
102
}
330
1A
100
AcDbEntity
  8
外形線
100
AcDbLine
 10
781.165768171144
 20
496.812164470948
 30
0.0
 11
781.665768171144
 21
497.312164470948
 31
0.0
  0
LINE
  5
4E0F
330
1A
100
AcDbEntity
  8
外形線
 48
10.0
100
AcDbLine
 10
725.665768171143
 20
615.312164470948
 30
0.0
 11
725.665768171144
 21
524.312164470948
 31
0.0
  0
LWPOLYLINE
  5
4E10
102
{ACAD_REACTORS
330
4DC6
102
}
330
1A
100
AcDbEntity
  8
外形線
100
AcDbPolyline
 90
       10
 70
     0
 43
0.0
 10
781.665768171144
 20
519.812164470948
 10
781.665768171144
 20
497.312164470948
 10
782.165768171144
 20
496.812164470948
 10
796.665768171144
 20
496.812164470948
 10
797.665768171144
 20
497.812164470948
 10
797.665768171144
 20
641.812164470948
 10
796.665768171144
 20
642.812164470948
 10
782.165768171144
 20
642.812164470948
 10
781.665768171144
 20
642.312164470948
 10
781.665768171144
 20
619.812164470948
  0
LINE
  5
4E11
102
{ACAD_REACTORS
330
4DC6
102
}
330
1A
100
AcDbEntity
  8
外形線
 48
10.0
100
AcDbLine
 10
781.665768171144
 20
619.812164470948
 30
0.0
 11
781.665768171144
 21
519.812164470948
 31
0.0
  0
LINE
  5
4E12
102
{ACAD_REACTORS
330
4DC6
102
}
330
1A
100
AcDbEntity
  8
外形線
 48
10.0
100
AcDbLine
 10
769.665768171144
 20
631.812164470948
 30
0.0
 11
769.665768171144
 21
507.812164470948
 31
0.0
  0
LINE
  5
4E13
330
1A
100
AcDbEntity
  8
外形線
 48
10.0
100
AcDbLine
 10
709.665768171143
 20
626.800886235535
 30
0.0
 11
709.665768171143
 21
512.823442706361
 31
0.0
  0
ARC
  5
4E14
102
{ACAD_REACTORS
330
4DC6
102
}
330
1A
100
AcDbEntity
  8
外形線
 48
10.0
100
AcDbCircle
 10
753.665768171143
 20
426.773236547603
 30
0.0
 40
72.82857142857176
100
AcDbArc
 50
74.060779211365
 51
105.939220788635
  0
HATCH
  5
4E15
330
1A
100
AcDbEntity
  8
細線
 48
10.0
100
AcDbHatch
 10
0.0
 20
0.0
 30
0.0
210
0.0
220
0.0
230
1.0
  2
ANSI31
 70
     0
 71
     0
 91
       18
 92
        7
 72
     1
 73
     1
 93
        7
 10
764.2831964247741
 20
497.2767507984856
 42
-0.0890553773191663
 10
763.8657681711431
 20
497.2018079761751
 42
0.0
 10
762.8657681711431
 20
497.2018079761751
 42
0.0
 10
761.6252998211064
 20
497.2018079761751
 42
0.0
 10
761.6252998211069
 20
490.2018079761752
 42
0.0
 10
764.3110023461616
 20
490.2018079761751
 42
0.0
 10
764.3110023461616
 20
497.2018079761751
 42
0.0
 97
        0
 92
        7
 72
     0
 73
     1
 93
        7
 10
734.1657681711433
 20
491.1396301496841
 10
737.6657681711433
 20
490.2018079761751
 10
743.0205339961246
 20
490.2018079761751
 10
743.0205339961251
 20
497.2018079761751
 10
743.0483399175125
 20
497.2018079761751
 10
736.1657681711433
 20
497.2018079761751
 10
734.1657681711433
 20
496.665909591313
 97
        0
 92
        7
 72
     0
 73
     1
 93
        7
 10
769.6657681711433
 20
490.2018079761751
 10
773.1657681711433
 20
491.1396301496841
 10
773.1657681711433
 20
496.665909591313
 10
771.1657681711433
 20
497.2018079761751
 10
764.2831964247741
 20
497.2018079761751
 10
764.3110023461616
 20
497.2018079761751
 10
764.3110023461616
 20
490.2018079761751
 97
        0
 92
        7
 72
     1
 73
     1
 93
       11
 10
766.9157681711433
 20
431.2018079761751
 42
0.0
 10
768.9157681711433
 20
431.2018079761751
 42
0.414213562373095
 10
770.9157681711433
 20
433.2018079761751
 42
0.0
 10
770.9157681711433
 20
453.2018079761751
 42
0.0
 10
753.6657681711433
 20
453.2018079761751
 42
0.0
 10
736.4157681711433
 20
453.2018079761751
 42
0.0
 10
736.4157681711433
 20
433.2018079761751
 42
0.414213562373095
 10
738.4157681711433
 20
431.2018079761751
 42
0.0
 10
740.565768171143
 20
431.2018079761751
 42
0.0
 10
753.6657681711431
 20
431.2018079761751
 42
0.0
 10
766.7657681711432
 20
431.2018079761751
 42
0.0
 97
        0
 92
        7
 72
     1
 73
     1
 93
       10
 10
737.6657681711433
 20
481.2018079761751
 42
0.0
 10
736.1657681711433
 20
481.2018079761751
 42
0.0
 10
734.1657681711433
 20
480.0471074377958
 42
0.0
 10
734.1657681711433
 20
454.3565085145544
 42
0.0
 10
736.1657681711433
 20
453.2018079761751
 42
0.0
 10
736.4157681711433
 20
453.2018079761751
 42
0.0
 10
736.4157423355771
 20
453.2037154739954
 42
0.0797961404903644
 10
743.0205339961256
 20
454.3565085145548
 42
0.0
 10
743.0205339961246
 20
480.0471074377958
 42
0.064967344209285
 10
737.6617291875182
 20
481.146232718309
 42
0.0
 97
        0
 92
        7
 72
     1
 73
     1
 93
       10
 10
771.1657681711433
 20
481.2018079761751
 42
0.0
 10
769.6657681711433
 20
481.2018079761751
 42
0.0
 10
769.6698071547685
 20
481.146232718309
 42
0.0649673442092901
 10
764.3110023461606
 20
480.0471074377956
 42
0.0
 10
764.3110023461616
 20
454.3565085145544
 42
0.0797961404903702
 10
770.9157940067096
 20
453.2037154739954
 42
0.0
 10
770.9157681711433
 20
453.2018079761751
 42
0.0
 10
771.1657681711433
 20
453.2018079761751
 42
0.0
 10
773.1657681711433
 20
454.3565085145544
 42
0.0
 10
773.1657681711433
 20
480.0471074377958
 42
0.0
 97
        0
 92
        7
 72
     0
 73
     1
 93
        5
 10
741.065768171143
 20
419.2018079761751
 10
753.6657681711431
 20
419.2018079761751
 10
753.6657681711431
 20
431.2018079761751
 10
740.565768171143
 20
431.2018079761751
 10
740.565768171143
 20
420.0678333799597
 97
        0
 92
        7
 72
     0
 73
     1
 93
        5
 10
766.2657681711432
 20
419.2018079761751
 10
766.7657681711432
 20
420.0678333799597
 10
766.7657681711432
 20
431.2018079761751
 10
753.6657681711431
 20
431.2018079761751
 10
753.6657681711431
 20
419.2018079761751
 97
        0
 92
        7
 72
     0
 73
     1
 93
        9
 10
737.6657681711433
 20
490.2018079761751
 10
737.6657681711433
 20
481.2018079761751
 10
753.6657681711433
 20
481.2018079761751
 10
769.6657681711433
 20
481.2018079761751
 10
769.6657681711433
 20
490.2018079761751
 10
764.3110023461616
 20
490.2018079761751
 10
761.6252998211069
 20
490.2018079761751
 10
745.7062365211798
 20
490.2018079761751
 10
743.0205339961246
 20
490.2018079761751
 97
        0
 92
        7
 72
     1
 73
     1
 93
        5
 10
753.6657681711433
 20
481.2018079761751
 42
0.0
 10
737.6657681711433
 20
481.2018079761751
 42
0.0
 10
737.6617291875182
 20
481.146232718309
 42
-0.064967344209285
 10
743.0205339961256
 20
480.0471074377957
 42
0.0
 10
745.7062365211798
 20
480.0471074377958
 42
-0.0721580311220423
 97
        0
 92
        7
 72
     1
 73
     1
 93
        6
 10
761.6252998211064
 20
454.3565085145544
 42
0.0
 10
761.6252998211064
 20
480.0471074377958
 42
0.0721580311220383
 10
753.6657681711433
 20
481.2018079761751
 42
0.0721580311220423
 10
745.7062365211775
 20
480.0471074377951
 42
0.0
 10
745.7062365211798
 20
454.3565085145544
 42
0.0721580311220422
 10
753.6657681711433
 20
453.2018079761751
 42
0.0721580311220384
 97
        0
 92
        7
 72
     0
 73
     1
 93
        4
 10
761.6252998211064
 20
480.0471074377958
 10
761.6252998211064
 20
454.3565085145544
 10
764.3110023461616
 20
454.3565085145544
 10
764.3110023461616
 20
480.0471074377958
 97
        0
 92
        7
 72
     0
 73
     1
 93
        4
 10
745.7062365211798
 20
454.3565085145544
 10
745.7062365211798
 20
480.0471074377958
 10
743.0205339961246
 20
480.0471074377958
 10
743.0205339961246
 20
454.3565085145544
 97
        0
 92
        7
 72
     0
 73
     1
 93
        4
 10
761.6252998211069
 20
490.2018079761752
 10
761.6252998211064
 20
497.2018079761751
 10
745.7062365211798
 20
497.2018079761752
 10
745.7062365211798
 20
490.2018079761751
 97
        0
 92
        7
 72
     1
 73
     1
 93
        7
 10
745.7062365211798
 20
490.2018079761751
 42
0.0
 10
745.7062365211798
 20
497.2018079761751
 42
0.0
 10
744.465768171143
 20
497.2018079761752
 42
0.0
 10
743.465768171143
 20
497.2018079761751
 42
-0.0890553773190824
 10
743.0483399175125
 20
497.2767507984855
 42
0.0
 10
743.0205339961251
 20
497.2018079761751
 42
0.0
 10
743.0205339961246
 20
490.2018079761751
 42
0.0
 97
        0
 92
        7
 72
     1
 73
     1
 93
        5
 10
745.7062365211798
 20
454.3565085145544
 42
0.0
 10
743.0205339961246
 20
454.3565085145544
 42
-0.0797961404903644
 10
736.4157423355771
 20
453.2037154739954
 42
0.0
 10
736.4157681711433
 20
453.2018079761751
 42
0.0
 10
753.6657681711433
 20
453.2018079761751
 42
-0.0721580311220422
 97
        0
 92
        7
 72
     1
 73
     1
 93
        5
 10
770.9157940067096
 20
453.2037154739954
 42
-0.0797961404903702
 10
764.3110023461606
 20
454.3565085145549
 42
0.0
 10
761.6252998211064
 20
454.3565085145544
 42
-0.0721580311220384
 10
753.6657681711433
 20
453.2018079761751
 42
0.0
 10
770.9157681711433
 20
453.2018079761751
 42
0.0
 97
        0
 92
        7
 72
     1
 73
     1
 93
        5
 10
753.6657681711433
 20
481.2018079761751
 42
-0.0721580311220383
 10
761.6252998211087
 20
480.0471074377953
 42
0.0
 10
764.3110023461616
 20
480.0471074377958
 42
-0.0649673442092901
 10
769.6698071547685
 20
481.146232718309
 42
0.0
 10
769.6657681711433
 20
481.2018079761751
 42
0.0
 97
        0
 75
     0
 76
     1
 52
0.0
 41
1.0
 77
     0
 78
     1
 53
45.0
 43
-376.9315221077461
 44
75.62291706578844
 45
-2.245064030267288
 46
2.245064030267288
 79
     0
 47
0.0
 98
       18
 10
762.6444281519825
 20
494.2942460285769
 10
738.5508354906044
 20
493.5134351552915
 10
766.2138492870015
 20
493.5134351552915
 10
746.8862887963453
 20
441.9630552133526
 10
739.8408843870698
 20
467.3265110867451
 10
768.7270424650999
 20
469.7924026299916
 10
750.0567207805195
 20
426.463165512946
 10
758.863476292114
 20
425.4063548515547
 10
747.6950231720602
 20
483.7363444888326
 10
745.0933613422733
 20
480.9433839950908
 10
752.1703421033021
 20
460.6333768979332
 10
762.7384487172158
 20
468.7355919686001
 10
744.0681270326352
 20
467.6787813072089
 10
758.0711073227394
 20
493.4018907448221
 10
744.3511448350102
 20
493.5134351552915
 10
745.7367663923612
 20
453.5269100236844
 10
761.7549130137918
 20
453.4194056839433
 10
762.0806827014706
 20
480.6755658655538
1001
ACAD
1010
0.0
1020
0.0
1030
0.0
  0
ARC
  5
4E16
330
1A
100
AcDbEntity
  8
外形線
100
AcDbCircle
 10
743.465768171143
 20
498.401807976175
 30
0.0
 40
1.2
100
AcDbArc
 50
165.097005345964
 51
270.0
  0
ARC
  5
4E17
330
1A
100
AcDbEntity
  8
外形線
100
AcDbCircle
 10
763.865768171143
 20
498.401807976175
 30
0.0
 40
1.2
100
AcDbArc
 50
270.0
 51
14.902994654042
  0
LINE
  5
4E18
330
1A
100
AcDbEntity
  8
外形線
 62
     0
100
AcDbLine
 10
737.665768171143
 20
490.201807976175
 30
0.0
 11
734.165768171143
 21
491.139630149684
 31
0.0
  0
LINE
  5
4E19
330
1A
100
AcDbEntity
  8
外形線
100
AcDbLine
 10
769.665768171143
 20
490.201807976175
 30
0.0
 11
773.165768171143
 21
491.139630149684
 31
0.0
  0
LINE
  5
4E1A
330
1A
100
AcDbEntity
  8
外形線
100
AcDbLine
 10
768.915768171143
 20
431.201807976175
 30
0.0
 11
766.765768171143
 21
431.201807976175
 31
0.0
  0
LINE
  5
4E1B
330
1A
100
AcDbEntity
  8
外形線
 62
     0
100
AcDbLine
 10
737.665768171143
 20
481.201807976175
 30
0.0
 11
736.165768171143
 21
481.201807976175
 31
0.0
  0
LINE
  5
4E1C
330
1A
100
AcDbEntity
  8
外形線
 62
     0
100
AcDbLine
 10
771.165768171143
 20
481.201807976175
 30
0.0
 11
769.665768171143
 21
481.201807976175
 31
0.0
  0
LINE
  5
4E1D
330
1A
100
AcDbEntity
  8
外形線
100
AcDbLine
 10
734.165768171143
 20
480.047107437796
 30
0.0
 11
734.165768171143
 21
454.356508514554
 31
0.0
  0
LINE
  5
4E1E
330
1A
100
AcDbEntity
  8
外形線
100
AcDbLine
 10
773.165768171143
 20
480.047107437796
 30
0.0
 11
773.165768171143
 21
454.356508514554
 31
0.0
  0
LINE
  5
4E1F
330
1A
100
AcDbEntity
  8
外形線
100
AcDbLine
 10
736.165768171143
 20
453.201807976175
 30
0.0
 11
771.165768171143
 21
453.201807976175
 31
0.0
  0
LINE
  5
4E20
330
1A
100
AcDbEntity
  8
外形線
100
AcDbLine
 10
736.165768171143
 20
453.201807976175
 30
0.0
 11
734.165768171143
 21
454.356508514554
 31
0.0
  0
LINE
  5
4E21
330
1A
100
AcDbEntity
  8
外形線
 62
     0
100
AcDbLine
 10
736.165768171143
 20
481.201807976175
 30
0.0
 11
734.165768171143
 21
480.047107437796
 31
0.0
  0
LINE
  5
4E22
330
1A
100
AcDbEntity
  8
外形線
 62
     0
100
AcDbLine
 10
771.165768171143
 20
481.201807976175
 30
0.0
 11
773.165768171143
 21
480.047107437796
 31
0.0
  0
LINE
  5
4E23
330
1A
100
AcDbEntity
  8
外形線
100
AcDbLine
 10
771.165768171143
 20
453.201807976175
 30
0.0
 11
773.165768171143
 21
454.356508514554
 31
0.0
  0
ARC
  5
4E24
330
1A
100
AcDbEntity
  8
外形線
100
AcDbCircle
 10
738.415768171143
 20
433.201807976175
 30
0.0
 40
2.0
100
AcDbArc
 50
180.0
 51
270.0
  0
ARC
  5
4E25
330
1A
100
AcDbEntity
  8
外形線
100
AcDbCircle
 10
768.915768171143
 20
433.201807976175
 30
0.0
 40
2.0
100
AcDbArc
 50
270.0
 51
0.0
  0
LINE
  5
4E26
330
1A
100
AcDbEntity
  8
外形線
100
AcDbLine
 10
770.915768171143
 20
433.201807976175
 30
0.0
 11
770.915768171143
 21
453.201807976175
 31
0.0
  0
LINE
  5
4E27
330
1A
100
AcDbEntity
  8
外形線
100
AcDbLine
 10
736.415768171143
 20
433.201807976175
 30
0.0
 11
736.415768171143
 21
453.201807976175
 31
0.0
  0
LINE
  5
4E28
330
1A
100
AcDbEntity
  8
外形線
100
AcDbLine
 10
741.065768171143
 20
419.201807976175
 30
0.0
 11
766.265768171143
 21
419.201807976175
 31
0.0
  0
LINE
  5
4E29
330
1A
100
AcDbEntity
  8
外形線
100
AcDbLine
 10
741.065768171143
 20
419.201807976175
 30
0.0
 11
740.565768171143
 21
420.06783337996
 31
0.0
  0
LINE
  5
4E2A
330
1A
100
AcDbEntity
  8
外形線
100
AcDbLine
 10
766.265768171143
 20
419.201807976175
 30
0.0
 11
766.765768171143
 21
420.06783337996
 31
0.0
  0
LINE
  5
4E2B
330
1A
100
AcDbEntity
  8
外形線
100
AcDbLine
 10
740.565768171143
 20
431.201807976175
 30
0.0
 11
740.565768171143
 21
420.06783337996
 31
0.0
  0
LINE
  5
4E2C
330
1A
100
AcDbEntity
  8
外形線
 62
     0
100
AcDbLine
 10
737.665768171143
 20
490.201807976175
 30
0.0
 11
737.665768171143
 21
481.201807976175
 31
0.0
  0
LINE
  5
4E2D
330
1A
100
AcDbEntity
  8
外形線
 62
     0
100
AcDbLine
 10
734.165768171143
 20
496.665909591313
 30
0.0
 11
734.165768171143
 21
491.139630149684
 31
0.0
  0
LINE
  5
4E2E
330
1A
100
AcDbEntity
  8
外形線
100
AcDbLine
 10
736.165768171143
 20
497.201807976175
 30
0.0
 11
734.165768171143
 21
496.665909591313
 31
0.0
  0
LINE
  5
4E2F
330
1A
100
AcDbEntity
  8
外形線
100
AcDbLine
 10
736.165768171143
 20
497.201807976175
 30
0.0
 11
744.465768171143
 21
497.201807976175
 31
0.0
  0
LINE
  5
4E30
330
1A
100
AcDbEntity
  8
外形線
 62
     0
100
AcDbLine
 10
773.165768171143
 20
496.665909591313
 30
0.0
 11
773.165768171143
 21
491.139630149684
 31
0.0
  0
LINE
  5
4E31
330
1A
100
AcDbEntity
  8
外形線
100
AcDbLine
 10
771.165768171143
 20
497.201807976175
 30
0.0
 11
773.165768171143
 21
496.665909591313
 31
0.0
  0
LINE
  5
4E32
330
1A
100
AcDbEntity
  8
外形線
100
AcDbLine
 10
771.165768171143
 20
497.201807976175
 30
0.0
 11
762.865768171143
 21
497.201807976175
 31
0.0
  0
LINE
  5
4E33
330
1A
100
AcDbEntity
  8
外形線
 48
10.0
100
AcDbLine
 10
762.865768171143
 20
497.201807976175
 30
0.0
 11
744.465768171143
 21
497.201807976175
 31
0.0
  0
LINE
  5
4E34
330
1A
100
AcDbEntity
  8
外形線
 48
10.0
100
AcDbLine
 10
737.665768171143
 20
490.201807976175
 30
0.0
 11
769.665768171143
 21
490.201807976175
 31
0.0
  0
LINE
  5
4E35
330
1A
100
AcDbEntity
  8
外形線
 48
10.0
100
AcDbLine
 10
738.415768171143
 20
431.201807976175
 30
0.0
 11
766.915768171143
 21
431.201807976175
 31
0.0
  0
LINE
  5
4E36
330
1A
100
AcDbEntity
  8
外形線
 48
10.0
100
AcDbLine
 10
766.765768171143
 20
420.06783337996
 30
0.0
 11
766.765768171143
 21
431.201807976175
 31
0.0
  0
LINE
  5
4E37
330
1A
100
AcDbEntity
  8
外形線
 62
     0
100
AcDbLine
 10
769.665768171143
 20
490.201807976175
 30
0.0
 11
769.665768171143
 21
481.201807976175
 31
0.0
  0
LINE
  5
4E38
330
1A
100
AcDbEntity
  8
外形線
 48
10.0
100
AcDbLine
 10
737.665768171143
 20
481.201807976175
 30
0.0
 11
769.665768171143
 21
481.201807976175
 31
0.0
  0
LINE
  5
4E39
330
1A
100
AcDbEntity
  8
外形線
 48
10.0
100
AcDbLine
 10
761.625299821106
 20
454.356508514554
 30
0.0
 11
761.625299821106
 21
480.047107437796
 31
0.0
  0
LINE
  5
4E3A
330
1A
100
AcDbEntity
  8
外形線
 48
10.0
100
AcDbLine
 10
764.311002346162
 20
454.356508514554
 30
0.0
 11
764.311002346162
 21
480.047107437796
 31
0.0
  0
LINE
  5
4E3B
330
1A
100
AcDbEntity
  8
外形線
 48
10.0
100
AcDbLine
 10
745.70623652118
 20
454.356508514554
 30
0.0
 11
745.70623652118
 21
480.047107437796
 31
0.0
  0
LINE
  5
4E3C
330
1A
100
AcDbEntity
  8
外形線
 48
10.0
100
AcDbLine
 10
743.020533996125
 20
454.356508514554
 30
0.0
 11
743.020533996125
 21
480.047107437796
 31
0.0
  0
LINE
  5
4E3D
330
1A
100
AcDbEntity
  8
外形線
 48
10.0
100
AcDbLine
 10
761.625299821107
 20
490.201807976175
 30
0.0
 11
761.625299821106
 21
497.201807976175
 31
0.0
  0
LINE
  5
4E3E
330
1A
100
AcDbEntity
  8
外形線
 48
10.0
100
AcDbLine
 10
764.311002346162
 20
490.201807976175
 30
0.0
 11
764.311002346162
 21
497.201807976175
 31
0.0
  0
LINE
  5
4E3F
330
1A
100
AcDbEntity
  8
外形線
 48
10.0
100
AcDbLine
 10
745.70623652118
 20
490.201807976175
 30
0.0
 11
745.70623652118
 21
497.201807976175
 31
0.0
  0
LINE
  5
4E40
330
1A
100
AcDbEntity
  8
外形線
 48
10.0
100
AcDbLine
 10
743.020533996125
 20
490.201807976175
 30
0.0
 11
743.020533996125
 21
497.201807976175
 31
0.0
  0
LINE
  5
4E41
330
1A
100
AcDbEntity
  8
外形線
 48
10.0
100
AcDbLine
 10
743.020533996125
 20
454.356508514554
 30
0.0
 11
745.70623652118
 21
454.356508514554
 31
0.0
  0
ARC
  5
4E42
330
1A
100
AcDbEntity
  8
外形線
 48
10.0
100
AcDbCircle
 10
753.665768171143
 20
481.212307352444
 30
0.0
 40
28.01049937626924
100
AcDbArc
 50
253.491210313048
 51
286.508789686952
  0
ARC
  5
4E43
330
1A
100
AcDbEntity
  8
外形線
 48
10.0
100
AcDbCircle
 10
771.202082765076
 20
474.341056768795
 30
0.0
 40
21.13927998456884
100
AcDbArc
 50
250.974760675969
 51
269.901573090846
  0
ARC
  5
4E44
330
1A
100
AcDbEntity
  8
外形線
 48
10.0
100
AcDbCircle
 10
736.129453577211
 20
474.341056768795
 30
0.0
 40
21.13927998456884
100
AcDbArc
 50
270.098426909141
 51
289.025239324031
  0
LINE
  5
4E45
330
1A
100
AcDbEntity
  8
外形線
 48
10.0
100
AcDbLine
 10
761.625299821106
 20
454.356508514554
 30
0.0
 11
764.311002346162
 21
454.356508514554
 31
0.0
  0
LINE
  5
4E46
330
1A
100
AcDbEntity
  8
外形線
 48
10.0
100
AcDbLine
 10
743.020533996125
 20
480.047107437796
 30
0.0
 11
745.70623652118
 21
480.047107437796
 31
0.0
  0
ARC
  5
4E47
330
1A
100
AcDbEntity
  8
外形線
 48
10.0
100
AcDbCircle
 10
753.665768171143
 20
453.191308599906
 30
0.0
 40
28.01049937626924
100
AcDbArc
 50
73.491210313048
 51
106.508789686952
  0
ARC
  5
4E48
330
1A
100
AcDbEntity
  8
外形線
 48
10.0
100
AcDbCircle
 10
771.202082765076
 20
460.062559183556
 30
0.0
 40
21.13927998456884
100
AcDbArc
 50
90.098426909141
 51
109.025239324031
  0
ARC
  5
4E49
330
1A
100
AcDbEntity
  8
外形線
 48
10.0
100
AcDbCircle
 10
736.129453577211
 20
460.062559183556
 30
0.0
 40
21.13927998456884
100
AcDbArc
 50
70.974760675969
 51
89.901573090859
  0
LINE
  5
4E4A
330
1A
100
AcDbEntity
  8
外形線
 48
10.0
100
AcDbLine
 10
761.625299821106
 20
480.047107437796
 30
0.0
 11
764.311002346162
 21
480.047107437796
 31
0.0
  0
LINE
  5
4E4B
102
{ACAD_REACTORS
330
4DC6
102
}
330
1A
100
AcDbEntity
  8
外形線
100
AcDbLine
 10
773.629470024134
 20
496.812164470948
 30
0.0
 11
781.165768171144
 21
496.812164470948
 31
0.0
  0
LINE
  5
4E4C
102
{ACAD_REACTORS
330
4DC8
102
}
330
1A
100
AcDbEntity
  8
外形線
100
AcDbLine
 10
549.165768171144
 20
574.812164470948
 30
0.0
 11
549.165768171144
 21
564.812164470948
 31
0.0
  0
LINE
  5
4E4D
102
{ACAD_REACTORS
330
4DC8
102
}
330
1A
100
AcDbEntity
  8
外形線
100
AcDbLine
 10
570.665768171144
 20
574.812164470948
 30
0.0
 11
549.165768171144
 21
574.812164470948
 31
0.0
  0
DIMENSION
  5
4E4E
330
1A
100
AcDbEntity
  8
寸法線
 48
10.0
100
AcDbDimension
  2
*D16
 10
817.665768171144
 20
496.812164470948
 30
0.0
 11
817.665768171144
 21
569.812164470948
 31
0.0
 70
   160
  3
ISO-25
100
AcDbAlignedDimension
 13
796.665768171144
 23
642.812164470948
 33
0.0
 14
796.665768171144
 24
496.812164470948
 34
0.0
 50
90.0
100
AcDbRotatedDimension
1001
ACAD
1000
DSTYLE
1002
{
1070
     5
1000
OPEN30
1070
     3
1000
%%c<>
1070
    41
1040
6.0
1070
    47
1040
0.1
1070
    48
1040
0.1
1070
    73
1070
     0
1070
   140
1040
8.0
1070
   271
1070
     1
1070
   272
1070
     1
1070
   341
1005
2AF4
1002
}
  0
DIMENSION
  5
4E4F
330
1A
100
AcDbEntity
  8
寸法線
 48
10.0
100
AcDbDimension
  2
*D17
 10
607.665768171144
 20
399.201807976175
 30
0.0
 11
666.665768171144
 21
403.835141309508
 31
0.0
 70
    32
  3
ISO-25
100
AcDbAlignedDimension
 13
725.665768171143
 23
497.812164470948
 33
0.0
 14
607.665768171144
 24
493.312164470948
 34
0.0
100
AcDbRotatedDimension
1001
ACAD
1000
DSTYLE
1002
{
1070
     5
1000
OPEN30
1070
    41
1040
6.0
1070
    47
1040
0.1
1070
    48
1040
0.1
1070
    73
1070
     0
1070
   140
1040
8.0
1070
   271
1070
     1
1070
   272
1070
     1
1070
   341
1005
2AF4
1002
}
  0
DIMENSION
  5
4E50
330
1A
100
AcDbEntity
  8
寸法線
 48
10.0
100
AcDbDimension
  2
*D18
 10
445.665783171144
 20
381.201807976175
 30
0.0
 11
521.30014552663
 21
381.201807976175
 31
0.0
 70
   160
  3
ISO-25
100
AcDbAlignedDimension
 13
595.665768171144
 23
492.312164470948
 33
0.0
 14
445.665783171144
 24
529.804743685654
 34
0.0
100
AcDbRotatedDimension
1001
ACAD
1000
DSTYLE
1002
{
1070
     5
1000
OPEN30
1070
    41
1040
6.0
1070
    47
1040
0.1
1070
    48
1040
0.1
1070
    73
1070
     0
1070
   140
1040
8.0
1070
   271
1070
     1
1070
   272
1070
     1
1070
   341
1005
2AF4
1002
}
  0
DIMENSION
  5
4E51
330
1A
100
AcDbEntity
  8
寸法線
 48
10.0
100
AcDbDimension
  2
*D19
 10
559.47070941757
 20
574.812164470948
 30
0.0
 11
559.470709417569
 21
594.640314077247
 31
0.0
 70
   160
  3
ISO-25
100
AcDbAlignedDimension
 13
555.991379646123
 23
564.812164470948
 33
0.0
 14
555.991379646123
 24
574.812164470948
 34
0.0
 50
90.0
100
AcDbRotatedDimension
1001
ACAD
1000
DSTYLE
1002
{
1070
     5
1000
OPEN30
1070
     3
1000
%%c<>
1070
    41
1040
6.0
1070
    47
1040
0.1
1070
    48
1040
0.1
1070
    73
1070
     0
1070
   140
1040
8.0
1070
   271
1070
     1
1070
   272
1070
     1
1070
   341
1005
2AF4
1002
}
  0
DIMENSION
  5
4E52
330
1A
100
AcDbEntity
  8
寸法線_文字
 48
10.0
100
AcDbDimension
  2
*D20
 10
781.665768171144
 20
399.201807976175
 30
0.0
 11
756.515649685734
 21
399.201807976175
 31
0.0
 70
   160
  3
ISO-25
100
AcDbAlignedDimension
 13
725.665768171143
 23
497.312164470948
 33
0.0
 14
781.665768171144
 24
497.312164470948
 34
0.0
100
AcDbRotatedDimension
1001
ACAD
1000
DSTYLE
1002
{
1070
     5
1000
OPEN30
1070
    41
1040
6.0
1070
    47
1040
0.1
1070
    48
1040
0.1
1070
    73
1070
     0
1070
   140
1040
8.0
1070
   271
1070
     1
1070
   272
1070
     1
1070
   341
1005
2AF4
1002
}
  0
DIMENSION
  5
4E53
330
1A
100
AcDbEntity
  8
寸法線_文字
 48
10.0
100
AcDbDimension
  2
*D21
 10
797.665768171144
 20
399.201807976175
 30
0.0
 11
789.665768171144
 21
403.826807976175
 31
0.0
 70
    32
  3
ISO-25
100
AcDbAlignedDimension
 13
781.665768171144
 23
497.312164470948
 33
0.0
 14
797.665768171144
 24
497.812164470948
 34
0.0
100
AcDbRotatedDimension
1001
ACAD
1000
DSTYLE
1002
{
1070
     5
1000
OPEN30
1070
    41
1040
6.0
1070
    47
1040
0.1
1070
    48
1040
0.1
1070
    73
1070
     0
1070
   140
1040
8.0
1070
   271
1070
     1
1070
   272
1070
     1
1070
   341
1005
2AF4
1002
}
  0
LINE
  5
4E54
330
1A
100
AcDbEntity
  8
外形線
100
AcDbLine
 10
540.665783171144
 20
577.956161970948
 30
0.0
 11
546.919155671144
 21
577.956161970948
 31
0.0
  0
LINE
  5
4E55
330
1A
100
AcDbEntity
  8
外形線
100
AcDbLine
 10
546.919155671144
 20
577.956161970948
 30
0.0
 11
549.165708171143
 21
575.709456970948
 31
0.0
  0
LINE
  5
4E56
330
1A
100
AcDbEntity
  8
細線
100
AcDbLine
 10
542.665783171143
 20
573.884161970948
 30
0.0
 11
547.921264098152
 21
573.884161970948
 31
0.0
  0
ARC
  5
4E57
330
1A
100
AcDbEntity
  8
細線
100
AcDbCircle
 10
545.577145671143
 20
576.819229470948
 30
0.0
 40
3.756302499999998
100
AcDbArc
 50
308.612371782873
 51
342.81588950412
  0
LINE
  5
4E58
330
1A
100
AcDbEntity
  8
外形線
100
AcDbLine
 10
540.665783171144
 20
561.668241970948
 30
0.0
 11
546.919155671144
 21
561.668241970948
 31
0.0
  0
LINE
  5
4E59
330
1A
100
AcDbEntity
  8
外形線
100
AcDbLine
 10
546.919155671144
 20
561.668241970948
 30
0.0
 11
549.165708171143
 21
563.914871970948
 31
0.0
  0
LINE
  5
4E5A
330
1A
100
AcDbEntity
  8
外形線
100
AcDbLine
 10
540.665783171144
 20
577.956161970948
 30
0.0
 11
540.665783171144
 21
561.668241970948
 31
0.0
  0
LINE
  5
4E5B
330
1A
100
AcDbEntity
  8
外形線
100
AcDbLine
 10
542.665783171143
 20
577.956161970948
 30
0.0
 11
542.665783171143
 21
561.668241970948
 31
0.0
  0
LINE
  5
4E5C
330
1A
100
AcDbEntity
  8
細線
100
AcDbLine
 10
542.665783171143
 20
565.740279470948
 30
0.0
 11
547.921224143513
 21
565.740279470948
 31
0.0
  0
ARC
  5
4E5D
330
1A
100
AcDbEntity
  8
細線
100
AcDbCircle
 10
545.577145671143
 20
562.805021970948
 30
0.0
 40
3.756302499999998
100
AcDbArc
 50
17.184150191552
 51
51.387610617038
  0
LINE
  5
4E5E
330
1A
100
AcDbEntity
  8
外形線
100
AcDbLine
 10
549.165783171144
 20
563.914794470948
 30
0.0
 11
549.165783171144
 21
575.709456970948
 31
0.0
  0
ARC
  5
4E5F
330
1A
100
AcDbEntity
  8
細線
100
AcDbCircle
 10
541.881925671144
 20
569.812164470948
 30
0.0
 40
7.283842499999998
100
AcDbArc
 50
326.010120640448
 51
33.989328497333
  0
LINE
  5
4E6A
102
{ACAD_REACTORS
330
4DC8
102
}
330
1A
100
AcDbEntity
  8
外形線
100
AcDbLine
 10
549.165768171144
 20
564.812164470948
 30
0.0
 11
570.665768171144
 21
564.812164470948
 31
0.0
  0
DIMENSION
  5
4E6B
330
1A
100
AcDbEntity
  8
寸法線
 48
10.0
100
AcDbDimension
  2
*D22
 10
607.665768171144
 20
399.201807976175
 30
0.0
 11
601.665768171144
 21
403.830974642842
 31
0.0
 70
    32
  3
ISO-25
100
AcDbAlignedDimension
 13
595.665768171144
 23
492.312164470948
 33
0.0
 14
607.665768171144
 24
493.312164470946
 34
0.0
100
AcDbRotatedDimension
1001
ACAD
1000
DSTYLE
1002
{
1070
     5
1000
OPEN30
1070
    41
1040
6.0
1070
   271
1070
     1
1070
   341
1005
2AF4
1070
   272
1070
     1
1070
    73
1070
     0
1070
    48
1040
0.1
1070
    47
1040
0.1
1070
   140
1040
8.0
1002
}
  0
LINE
  5
4E6D
330
1A
100
AcDbEntity
  8
外形線
 48
10.0
100
AcDbLine
 10
625.665768171144
 20
537.312164470948
 30
0.0
 11
625.665768171144
 21
602.312164470948
 31
0.0
  0
LINE
  5
4E6E
330
1A
100
AcDbEntity
  8
下書線
100
AcDbLine
 10
383.185894992547
 20
675.552341453792
 30
0.0
 11
849.995494992547
 21
675.552341453792
 31
0.0
  0
MTEXT
  5
4E6F
330
1A
100
AcDbEntity
  8
寸法線
 48
10.0
100
AcDbMText
 10
414.35634502391
 20
684.146149083054
 30
0.0
 40
8.0
 41
26.553641107301
 71
     1
 72
     5
  1
SUS304
  0
MTEXT
  5
4E70
330
1A
100
AcDbEntity
  8
寸法線
 48
10.0
100
AcDbMText
 10
461.904153810018
 20
684.472861289487
 30
0.0
 40
8.0
 41
26.553641107301
 71
     1
 72
     5
  1
SUS304
  0
MTEXT
  5
4E71
330
1A
100
AcDbEntity
  8
寸法線
 48
10.0
100
AcDbMText
 10
502.963277840858
 20
684.031579912795
 30
0.0
 40
8.0
 41
17.732437998547
 71
     1
 72
     5
  1
SUS304
  0
MTEXT
  5
4E72
102
{ACAD_XDICTIONARY
360
585A
102
}
330
1A
100
AcDbEntity
  8
寸法線
 48
10.0
100
AcDbMText
 10
548.856654606853
 20
684.028356891366
 30
0.0
 40
8.0
 41
40.141187306222
 71
     1
 72
     5
  1
Oリング
1001
ACADANNOTATIVE
1000
AnnotativeData
1002
{
1070
     1
1070
     0
1002
}
  0
MTEXT
  5
4E73
330
1A
100
AcDbEntity
  8
寸法線
 48
10.0
100
AcDbMText
 10
600.959133832492
 20
697.626437418066
 30
0.0
 40
8.0
 41
48.652919564095
 71
     1
 72
     5
  1
フランジ\Pアルミ鋳物
  0
MTEXT
  5
4E74
330
1A
100
AcDbEntity
  8
寸法線
 48
10.0
100
AcDbMText
 10
658.179679407666
 20
684.849819008618
 30
0.0
 40
8.0
 41
48.77579857492
 71
     1
 72
     5
  1
固着剤使用
  0
MTEXT
  5
4E75
330
1A
100
AcDbEntity
  8
寸法線
 48
10.0
100
AcDbMText
 10
714.805252474548
 20
684.274783847301
 30
0.0
 40
8.0
 41
26.553641107301
 71
     1
 72
     5
  1
AC7A
  0
MTEXT
  5
4E76
330
1A
100
AcDbEntity
  8
寸法線
 48
10.0
100
AcDbMText
 10
756.469624125232
 20
684.550252340547
 30
0.0
 40
8.0
 41
26.553641107301
 71
     1
 72
     5
  1
AC7A
  0
MTEXT
  5
4E77
330
1A
100
AcDbEntity
  8
寸法線
 48
10.0
100
AcDbMText
 10
802.999557281712
 20
684.274783847301
 30
0.0
 40
8.0
 41
26.553641107301
 71
     1
 72
     5
  1
AC7A
  0
LEADER
  5
4E78
330
1A
100
AcDbEntity
  8
寸法線
 48
10.0
100
AcDbLeader
  3
ISO-25
 76
     3
 10
789.719455940769
 20
642.812095453792
 30
0.0
 10
801.341560187974
 20
675.552341453791
 30
0.0
 10
811.341560187974
 20
675.552341453792
 30
0.0
1001
ACAD
1000
DSTYLE
1002
{
1070
     5
1000
OPEN30
1070
   147
1040
0.625
1070
    77
1070
     0
1070
    41
1040
6.0
1070
    47
1040
0.1
1070
    48
1040
0.1
1070
    73
1070
     0
1070
   140
1040
5.0
1070
   271
1070
     1
1070
   272
1070
     1
1070
   341
1005
2AF4
1070
   342
1005
2AF4
1002
}
  0
LEADER
  5
4E79
330
1A
100
AcDbEntity
  8
寸法線
 48
10.0
100
AcDbLeader
  3
ISO-25
 76
     3
 10
755.139922747115
 20
629.812095453792
 30
0.0
 10
755.139922747115
 20
675.552341453791
 30
0.0
 10
765.139922747115
 20
675.552341453792
 30
0.0
1001
ACAD
1000
DSTYLE
1002
{
1070
     5
1000
OPEN30
1070
   147
1040
0.625
1070
    77
1070
     0
1070
    41
1040
6.0
1070
    47
1040
0.1
1070
    48
1040
0.1
1070
    73
1070
     0
1070
   140
1040
5.0
1070
   271
1070
     1
1070
   272
1070
     1
1070
   341
1005
2AF4
1070
   342
1005
2AF4
1002
}
  0
LEADER
  5
4E7A
330
1A
100
AcDbEntity
  8
寸法線
 48
10.0
100
AcDbLeader
  3
ISO-25
 76
     3
 10
712.985593814565
 20
642.812095453792
 30
0.0
 10
712.985593814565
 20
675.552341453792
 30
0.0
 10
722.985593814565
 20
675.552341453792
 30
0.0
1001
ACAD
1000
DSTYLE
1002
{
1070
     5
1000
OPEN30
1070
   147
1040
0.625
1070
    77
1070
     0
1070
    41
1040
6.0
1070
    47
1040
0.1
1070
    48
1040
0.1
1070
    73
1070
     0
1070
   140
1040
5.0
1070
   271
1070
     1
1070
   272
1070
     1
1070
   341
1005
2AF4
1070
   342
1005
2AF4
1002
}
  0
LEADER
  5
4E7B
330
1A
100
AcDbEntity
  8
寸法線
 48
10.0
100
AcDbLeader
  3
ISO-25
 76
     3
 10
619.559154943373
 20
591.812063453792
 30
0.0
 10
657.233483910092
 20
675.552341453792
 30
0.0
 10
667.233483910092
 20
675.552341453792
 30
0.0
1001
ACAD
1000
DSTYLE
1002
{
1070
     5
1000
OPEN30
1070
   147
1040
0.625
1070
    77
1070
     0
1070
    41
1040
6.0
1070
    47
1040
0.1
1070
    48
1040
0.1
1070
    73
1070
     0
1070
   140
1040
5.0
1070
   271
1070
     1
1070
   272
1070
     1
1070
   341
1005
2AF4
1070
   342
1005
2AF4
1002
}
  0
LEADER
  5
4E7C
330
1A
100
AcDbEntity
  8
寸法線
 48
10.0
100
AcDbLeader
  3
ISO-25
 76
     3
 10
600.251578992547
 20
647.312063453792
 30
0.0
 10
600.251578992547
 20
675.552341453791
 30
0.0
 10
610.251578992547
 20
675.552341453791
 30
0.0
1001
ACAD
1000
DSTYLE
1002
{
1070
     5
1000
OPEN30
1070
   147
1040
0.625
1070
    77
1070
     0
1070
    41
1040
6.0
1070
    47
1040
0.1
1070
    48
1040
0.1
1070
    73
1070
     0
1070
   140
1040
5.0
1070
   271
1070
     1
1070
   272
1070
     1
1070
   341
1005
2AF4
1070
   342
1005
2AF4
1002
}
  0
LEADER
  5
4E7D
330
1A
100
AcDbEntity
  8
寸法線
 48
10.0
100
AcDbLeader
  3
ISO-25
 76
     3
 10
594.701983608489
 20
589.375610269436
 30
0.0
 10
581.851578992547
 20
675.552341453792
 30
0.0
 10
571.851578992547
 20
675.552341453792
 30
0.0
1001
ACAD
1000
DSTYLE
1002
{
1070
     5
1000
OPEN30
1070
   147
1040
0.625
1070
    77
1070
     0
1070
    41
1040
6.0
1070
    47
1040
0.1
1070
    48
1040
0.1
1070
    73
1070
     0
1070
   140
1040
5.0
1070
   271
1070
     1
1070
   272
1070
     1
1070
   341
1005
2AF4
1070
   342
1005
2AF4
1002
}
  0
LEADER
  5
4E7E
330
1A
100
AcDbEntity
  8
寸法線
 48
10.0
100
AcDbLeader
  3
ISO-25
 76
     3
 10
581.957883197571
 20
589.551272381424
 30
0.0
 10
538.493023518637
 20
675.552341453792
 30
0.0
 10
528.493023518637
 20
675.552341453792
 30
0.0
213
-5.752651529441778
223
0.0
233
0.0
1001
ACAD
1000
DSTYLE
1002
{
1070
     5
1000
OPEN30
1070
   147
1040
0.625
1070
    77
1070
     0
1070
    41
1040
6.0
1070
    47
1040
0.1
1070
    48
1040
0.1
1070
    73
1070
     0
1070
   140
1040
5.0
1070
   271
1070
     1
1070
   272
1070
     1
1070
   341
1005
2AF4
1070
   342
1005
2AF4
1002
}
  0
LEADER
  5
4E7F
330
1A
100
AcDbEntity
  8
寸法線
 48
10.0
100
AcDbLeader
  3
ISO-25
 76
     3
 10
551.647689849342
 20
574.812199470948
 30
0.0
 10
497.851578992547
 20
675.552341453792
 30
0.0
 10
487.851578992547
 20
675.552341453792
 30
0.0
1001
ACAD
1000
DSTYLE
1002
{
1070
     5
1000
OPEN30
1070
   147
1040
0.625
1070
    77
1070
     0
1070
    41
1040
6.0
1070
    47
1040
0.1
1070
    48
1040
0.1
1070
    73
1070
     0
1070
   140
1040
5.0
1070
   271
1070
     1
1070
   272
1070
     1
1070
   341
1005
2AF4
1070
   342
1005
2AF4
1002
}
  0
LEADER
  5
4E80
330
1A
100
AcDbEntity
  8
寸法線
 48
10.0
100
AcDbLeader
  3
ISO-25
 76
     3
 10
460.051578992547
 20
609.938895453792
 30
0.0
 10
449.851578992547
 20
675.552341453792
 30
0.0
 10
439.851578992547
 20
675.552341453792
 30
0.0
1001
ACAD
1000
DSTYLE
1002
{
1070
     5
1000
OPEN30
1070
   147
1040
0.625
1070
    77
1070
     0
1070
    41
1040
6.0
1070
    47
1040
0.1
1070
    48
1040
0.1
1070
    73
1070
     0
1070
   140
1040
5.0
1070
   271
1070
     1
1070
   272
1070
     1
1070
   341
1005
2AF4
1070
   342
1005
2AF4
1002
}
  0
LINE
  5
4E81
330
1A
100
AcDbEntity
  8
隠れ線
 48
10.0
100
AcDbLine
 10
625.665768171144
 20
591.312164470948
 30
0.0
 11
595.665768171144
 21
591.312164470948
 31
0.0
  0
LINE
  5
4E82
330
1A
100
AcDbEntity
  8
隠れ線
 48
10.0
100
AcDbLine
 10
625.665768171144
 20
548.312164470948
 30
0.0
 11
595.665768171144
 21
548.312164470948
 31
0.0
  0
HATCH
  5
4E83
330
1A
100
AcDbEntity
  8
細線
 48
10.0
100
AcDbHatch
 10
0.0
 20
0.0
 30
0.0
210
0.0
220
0.0
230
1.0
  2
ANSI31
 70
     0
 71
     0
 91
       19
 92
        7
 72
     1
 73
     1
 93
        5
 10
287.5575143492636
 20
491.1499866444564
 42
0.0
 10
291.0575143492636
 20
490.2121644709474
 42
0.0
 10
296.4122801742453
 20
490.2121644709474
 42
0.0
 10
296.4122801742453
 20
493.0481876191391
 42
-0.0291464811783065
 10
287.5575143492636
 20
494.806940208578
 42
0.0
 97
        0
 92
        7
 72
     1
 73
     1
 93
       10
 10
291.0575143492633
 20
481.2121644709474
 42
0.0
 10
289.5575143492633
 20
481.2121644709474
 42
0.0
 10
287.5575143492633
 20
480.0574639325681
 42
0.0
 10
287.5575143492633
 20
454.3668650093267
 42
0.0
 10
289.5575143492633
 20
453.2121644709474
 42
0.0
 10
289.8075143492633
 20
453.2121644709474
 42
0.0
 10
297.7551314367729
 20
453.2121644709474
 42
0.0721580311220404
 10
305.7146630867385
 20
454.3668650093275
 42
0.0
 10
305.714663086736
 20
480.0574639325681
 42
0.0721580311220404
 10
297.7551314367729
 20
481.2121644709475
 42
0.0
 97
        0
 92
        7
 72
     1
 73
     1
 93
        7
 10
289.8075143492633
 20
433.2121644709474
 42
0.414213562373095
 10
291.8075143492633
 20
431.2121644709474
 42
0.0
 10
293.9575143492634
 20
431.2121644709474
 42
0.0
 10
307.0575143492636
 20
431.2121644709474
 42
0.0
 10
307.0575143492636
 20
453.2121644709474
 42
0.0
 10
297.7551314367729
 20
453.2121644709474
 42
0.0
 10
289.8075143492633
 20
453.2121644709474
 42
0.0
 97
        0
 92
        7
 72
     0
 73
     1
 93
        8
 10
291.0575143492636
 20
490.2121644709474
 10
291.0575143492636
 20
481.2121644709474
 10
297.7551314367729
 20
481.2121644709474
 10
307.0575143492636
 20
481.2121644709474
 10
307.0575143492636
 20
490.2121644709474
 10
305.7146630867362
 20
490.2121644709474
 10
299.0979826993005
 20
490.2121644709474
 10
296.4122801742453
 20
490.2121644709474
 97
        0
 92
        7
 72
     0
 73
     1
 93
        4
 10
305.714663086736
 20
480.0574639325681
 10
305.714663086736
 20
454.3668650093267
 10
307.0575143492633
 20
454.3668650093267
 10
307.0575143492636
 20
480.0574639325681
 97
        0
 92
        7
 72
     1
 73
     1
 93
        4
 10
305.7146630867362
 20
490.2121644709475
 42
0.0
 10
305.7146630867362
 20
492.3252340407232
 42
-0.0213925304775309
 10
299.0979826993005
 20
492.7234218545797
 42
0.0
 10
299.0979826993005
 20
490.2121644709474
 42
0.0
 97
        0
 92
        7
 72
     1
 73
     1
 93
        4
 10
305.7146630867362
 20
492.3252340407232
 42
0.0
 10
305.7146630867362
 20
490.2121644709475
 42
0.0
 10
307.0575143492636
 20
490.2121644709474
 42
0.0
 10
307.0575143492636
 20
492.3135987796675
 42
-0.0043320221627083
 97
        0
 92
        7
 72
     1
 73
     1
 93
        4
 10
299.0979826993005
 20
490.2121644709474
 42
0.0
 10
299.0979826993005
 20
492.7234218545797
 42
-0.008727333203576
 10
296.4122801742453
 20
493.0481876191391
 42
0.0
 10
296.4122801742453
 20
490.2121644709474
 42
0.0
 97
        0
 92
        7
 72
     1
 73
     1
 93
        4
 10
307.0575143492633
 20
454.3668650093267
 42
0.0
 10
305.714663086736
 20
454.3668650093267
 42
-0.0721580311220404
 10
297.7551314367729
 20
453.2121644709475
 42
0.0
 10
307.0575143492636
 20
453.2121644709474
 42
0.0
 97
        0
 92
        7
 72
     1
 73
     1
 93
        4
 10
297.7551314367729
 20
481.2121644709475
 42
-0.0721580311220404
 10
305.7146630867385
 20
480.0574639325675
 42
0.0
 10
307.0575143492633
 20
480.0574639325681
 42
0.0
 10
307.0575143492636
 20
481.2121644709474
 42
0.0
 97
        0
 92
        7
 72
     1
 73
     1
 93
        7
 10
323.0575143492633
 20
490.2121644709474
 42
0.0
 10
326.5575143492633
 20
491.1499866444564
 42
0.0
 10
326.5575143492633
 20
494.806940208578
 42
0.0
 10
326.5575143492633
 20
494.8069246099645
 42
-0.0291464765926826
 10
317.7027485242816
 20
493.048179298803
 42
0.0
 10
317.7027485242816
 20
493.0481876191391
 42
0.0
 10
317.7027485242816
 20
490.2121644709474
 42
0.0
 97
        0
 92
        7
 72
     1
 73
     1
 93
       10
 10
324.5575143492636
 20
481.2121644709474
 42
0.0
 10
323.0575143492636
 20
481.2121644709474
 42
0.0
 10
316.359897261754
 20
481.2121644709474
 42
0.0721580311220404
 10
308.4003656117884
 20
480.0574639325675
 42
0.0
 10
308.4003656117909
 20
454.3668650093267
 42
0.0721580311220404
 10
316.359897261754
 20
453.2121644709475
 42
0.0
 10
324.3075143492636
 20
453.2121644709474
 42
0.0
 10
324.5575143492636
 20
453.2121644709474
 42
0.0
 10
326.5575143492636
 20
454.3668650093267
 42
0.0
 10
326.5575143492636
 20
480.0574639325681
 42
0.0
 97
        0
 92
        7
 72
     1
 73
     1
 93
        7
 10
322.3075143492636
 20
431.2121644709474
 42
0.414213562373095
 10
324.3075143492636
 20
433.2121644709474
 42
0.0
 10
324.3075143492636
 20
453.2121644709474
 42
0.0
 10
316.359897261754
 20
453.2121644709474
 42
0.0
 10
307.0575143492636
 20
453.2121644709474
 42
0.0
 10
307.0575143492636
 20
431.2121644709474
 42
0.0
 10
320.1575143492635
 20
431.2121644709474
 42
0.0
 97
        0
 92
        7
 72
     0
 73
     1
 93
        8
 10
323.0575143492633
 20
481.2121644709474
 10
323.0575143492633
 20
490.2121644709474
 10
317.7027485242816
 20
490.2121644709474
 10
315.0170459992264
 20
490.2121644709474
 10
308.4003656117907
 20
490.2121644709474
 10
307.0575143492636
 20
490.2121644709474
 10
307.0575143492636
 20
481.2121644709474
 10
316.359897261754
 20
481.2121644709474
 97
        0
 92
        7
 72
     0
 73
     1
 93
        4
 10
308.4003656117909
 20
454.3668650093267
 10
308.4003656117909
 20
480.0574639325681
 10
307.0575143492636
 20
480.0574639325681
 10
307.0575143492636
 20
454.3668650093267
 97
        0
 92
        7
 72
     1
 73
     1
 93
        4
 10
308.4003656117909
 20
454.3668650093267
 42
0.0
 10
307.0575143492636
 20
454.3668650093267
 42
0.0
 10
307.0575143492636
 20
453.2121644709474
 42
0.0
 10
316.359897261754
 20
453.2121644709474
 42
-0.0721580311220404
 97
        0
 92
        7
 72
     1
 73
     1
 93
        4
 10
308.4003656117884
 20
480.0574639325675
 42
-0.0721580311220404
 10
316.359897261754
 20
481.2121644709474
 42
0.0
 10
307.0575143492636
 20
481.2121644709474
 42
0.0
 10
307.0575143492636
 20
480.0574639325681
 42
0.0
 97
        0
 92
        7
 72
     1
 73
     1
 93
        6
 10
317.7027485242816
 20
490.2121644709474
 42
0.0
 10
317.7027485242816
 20
493.0481876191391
 42
0.0
 10
317.7027485242816
 20
493.048179298803
 42
-0.0087273323803324
 10
315.0170459992264
 20
492.7234156596026
 42
0.0
 10
315.0170459992264
 20
492.7234218545797
 42
0.0
 10
315.0170459992264
 20
490.2121644709474
 42
0.0
 97
        0
 92
        7
 72
     1
 73
     1
 93
        6
 10
315.0170459992264
 20
490.2121644709474
 42
0.0
 10
315.0170459992264
 20
492.7234218545797
 42
0.0
 10
315.0170459992264
 20
492.7234156596026
 42
-0.0213925294772096
 10
308.4003656117907
 20
492.3252330009403
 42
0.0
 10
308.4003656117907
 20
492.3252340407232
 42
0.0
 10
308.4003656117907
 20
490.2121644709475
 42
0.0
 97
        0
 75
     0
 76
     1
 52
0.0
 41
1.0
 77
     0
 78
     1
 53
45.0
 43
1454.302024697435
 44
75.62291706578833
 45
-2.245064030267288
 46
2.245064030267288
 79
     0
 47
0.0
 98
       19
 10
292.9388201123511
 20
490.7886638230073
 10
293.9446502753833
 20
471.8036194957715
 10
303.9224696327685
 20
448.7352956821571
 10
300.4825463350937
 20
486.0109705486036
 10
306.5393825097015
 20
479.1047284819233
 10
301.111190186989
 20
491.0401213637654
 10
306.5175273132879
 20
491.0401213637654
 10
298.0936996978919
 20
491.0401213637654
 10
306.1197995629345
 20
453.6792880250308
 10
305.9561679986657
 20
480.7008945121261
 10
320.3476920549829
 20
491.1658501341444
 10
310.898143592178
 20
479.2275104842466
 10
309.8652483075359
 20
450.1335965468083
 10
315.9471850917162
 20
485.1308691559502
 10
308.166244040485
 20
477.9076039592712
 10
308.6167653926686
 20
453.4795307586521
 10
308.5652855480357
 20
480.7929810138685
 10
316.4501001732324
 20
491.1658501341444
 10
309.2835602616269
 20
491.1658501341444
1001
ACAD
1010
0.0
1020
0.0
1030
0.0
  0
LINE
  5
4E84
330
1A
100
AcDbEntity
  8
外形線
 62
     0
100
AcDbLine
 10
291.057514349264
 20
490.212164470947
 30
0.0
 11
287.557514349264
 21
491.149986644456
 31
0.0
  0
LINE
  5
4E85
330
1A
100
AcDbEntity
  8
外形線
 62
     0
100
AcDbLine
 10
291.057514349263
 20
481.212164470947
 30
0.0
 11
289.557514349263
 21
481.212164470947
 31
0.0
  0
LINE
  5
4E86
330
1A
100
AcDbEntity
  8
外形線
100
AcDbLine
 10
287.557514349263
 20
480.057463932568
 30
0.0
 11
287.557514349263
 21
454.366865009327
 31
0.0
  0
LINE
  5
4E87
330
1A
100
AcDbEntity
  8
外形線
100
AcDbLine
 10
289.557514349263
 20
453.212164470947
 30
0.0
 11
324.557514349264
 21
453.212164470947
 31
0.0
  0
LINE
  5
4E88
330
1A
100
AcDbEntity
  8
外形線
100
AcDbLine
 10
289.557514349263
 20
453.212164470947
 30
0.0
 11
287.557514349263
 21
454.366865009327
 31
0.0
  0
LINE
  5
4E89
330
1A
100
AcDbEntity
  8
外形線
 62
     0
100
AcDbLine
 10
289.557514349263
 20
481.212164470947
 30
0.0
 11
287.557514349263
 21
480.057463932568
 31
0.0
  0
ARC
  5
4E8A
330
1A
100
AcDbEntity
  8
外形線
100
AcDbCircle
 10
291.807514349263
 20
433.212164470947
 30
0.0
 40
2.0
100
AcDbArc
 50
180.0
 51
270.0
  0
LINE
  5
4E8B
330
1A
100
AcDbEntity
  8
外形線
100
AcDbLine
 10
289.807514349263
 20
433.212164470947
 30
0.0
 11
289.807514349263
 21
453.212164470947
 31
0.0
  0
HATCH
  5
4E8C
330
1A
100
AcDbEntity
  8
細線
 48
10.0
100
AcDbHatch
 10
0.0
 20
0.0
 30
0.0
210
0.0
220
0.0
230
1.0
  2
ANSI31
 70
     0
 71
     1
 91
        2
 92
        7
 72
     0
 73
     1
 93
        5
 10
293.9575143492634
 20
431.2121644709474
 10
293.9575143492634
 20
420.0781898747319
 10
294.4575143492634
 20
419.2121644709474
 10
307.0575143492634
 20
419.2121644709474
 10
307.0575143492634
 20
431.2121644709474
 97
        5
330
4E8D
330
4E9D
330
4E93
330
4E8F
330
4E8E
 92
        7
 72
     0
 73
     1
 93
        5
 10
307.0575143492634
 20
431.2121644709474
 10
307.0575143492634
 20
419.2121644709474
 10
319.6575143492634
 20
419.2121644709475
 10
320.1575143492634
 20
420.0781898747318
 10
320.1575143492635
 20
431.2121644709474
 97
        5
330
4ED3
330
4ED4
330
4E93
330
4E9D
330
4E8D
 75
     0
 76
     1
 52
0.0
 41
1.0
 77
     0
 78
     1
 53
45.0
 43
1454.302024697435
 44
75.62291706578833
 45
-2.245064030267288
 46
2.245064030267288
 79
     0
 47
0.0
 98
        2
 10
301.5971611040989
 20
426.287063287984
 10
312.9536237699451
 20
426.8694459887965
1001
ACAD
1010
0.0
1020
0.0
1030
0.0
  0
LINE
  5
4E8D
102
{ACAD_REACTORS
330
4E8C
102
}
330
1A
100
AcDbEntity
  8
外形線
100
AcDbLine
 10
294.457514349263
 20
419.212164470947
 30
0.0
 11
319.657514349263
 21
419.212164470947
 31
0.0
  0
LINE
  5
4E8E
102
{ACAD_REACTORS
330
4E8C
102
}
330
1A
100
AcDbEntity
  8
外形線
100
AcDbLine
 10
294.457514349263
 20
419.212164470947
 30
0.0
 11
293.957514349263
 21
420.078189874732
 31
0.0
  0
LINE
  5
4E8F
102
{ACAD_REACTORS
330
4E8C
102
}
330
1A
100
AcDbEntity
  8
外形線
100
AcDbLine
 10
293.957514349263
 20
431.212164470948
 30
0.0
 11
293.957514349263
 21
420.078189874732
 31
0.0
  0
LINE
  5
4E90
330
1A
100
AcDbEntity
  8
外形線
 62
     0
100
AcDbLine
 10
291.057514349264
 20
490.212164470947
 30
0.0
 11
291.057514349264
 21
481.212164470947
 31
0.0
  0
LINE
  5
4E91
330
1A
100
AcDbEntity
  8
外形線
 62
     0
100
AcDbLine
 10
287.557514349264
 20
494.806940208578
 30
0.0
 11
287.557514349264
 21
491.149986644456
 31
0.0
  0
LINE
  5
4E92
330
1A
100
AcDbEntity
  8
外形線
 48
10.0
100
AcDbLine
 10
291.057514349264
 20
490.212164470947
 30
0.0
 11
323.057514349263
 21
490.212164470947
 31
0.0
  0
LINE
  5
4E93
102
{ACAD_REACTORS
330
4E8C
102
}
330
1A
100
AcDbEntity
  8
外形線
 48
10.0
100
AcDbLine
 10
291.807514349263
 20
431.212164470947
 30
0.0
 11
322.307514349264
 21
431.212164470947
 31
0.0
  0
LINE
  5
4E94
330
1A
100
AcDbEntity
  8
外形線
 48
10.0
100
AcDbLine
 10
291.057514349263
 20
481.212164470947
 30
0.0
 11
323.057514349263
 21
481.212164470947
 31
0.0
  0
LINE
  5
4E95
330
1A
100
AcDbEntity
  8
外形線
 48
10.0
100
AcDbLine
 10
305.714663086736
 20
454.366865009327
 30
0.0
 11
305.714663086736
 21
480.057463932568
 31
0.0
  0
LINE
  5
4E96
330
1A
100
AcDbEntity
  8
外形線
 48
10.0
100
AcDbLine
 10
305.714663086736
 20
490.212164470948
 30
0.0
 11
305.714663086736
 21
492.325234040723
 31
0.0
  0
LINE
  5
4E97
330
1A
100
AcDbEntity
  8
外形線
 48
10.0
100
AcDbLine
 10
299.0979826993
 20
490.212164470947
 30
0.0
 11
299.0979826993
 21
492.72342185458
 31
0.0
  0
LINE
  5
4E98
330
1A
100
AcDbEntity
  8
外形線
 48
10.0
100
AcDbLine
 10
296.412280174245
 20
490.212164470947
 30
0.0
 11
296.412280174245
 21
493.048187619139
 31
0.0
  0
LINE
  5
4E99
330
1A
100
AcDbEntity
  8
外形線
 48
10.0
100
AcDbLine
 10
305.714663086736
 20
454.366865009327
 30
0.0
 11
307.057514349263
 21
454.366865009327
 31
0.0
  0
ARC
  5
4E9A
330
1A
100
AcDbEntity
  8
外形線
 48
10.0
100
AcDbCircle
 10
297.755131436773
 20
481.222663847217
 30
0.0
 40
28.01049937626924
100
AcDbArc
 50
270.0
 51
286.508789686952
  0
ARC
  5
4E9B
330
1A
100
AcDbEntity
  8
外形線
 48
10.0
100
AcDbCircle
 10
297.755131436773
 20
453.201665094678
 30
0.0
 40
28.01049937626924
100
AcDbArc
 50
73.491210313048
 51
90.0
  0
LINE
  5
4E9C
330
1A
100
AcDbEntity
  8
外形線
 48
10.0
100
AcDbLine
 10
305.714663086736
 20
480.057463932568
 30
0.0
 11
307.057514349263
 21
480.057463932568
 31
0.0
  0
LINE
  5
4E9D
102
{ACAD_REACTORS
330
4E8C
102
}
330
1A
100
AcDbEntity
  8
中心線
 48
10.0
100
AcDbLine
 10
307.057514349263
 20
411.212164470947
 30
0.0
 11
307.057514349264
 21
655.313598779656
 31
0.0
  0
LINE
  5
4E9E
330
1A
100
AcDbEntity
  8
中心線
 48
10.0
100
AcDbLine
 10
221.557544362536
 20
569.812164470948
 30
0.0
 11
392.557544335991
 21
569.812164470948
 31
0.0
  0
LINE
  5
4E9F
330
1A
100
AcDbEntity
  8
外形線
100
AcDbLine
 10
301.357185387656
 20
588.4603882397
 30
0.0
 11
293.757843310871
 21
584.072906046004
 31
0.0
  0
ARC
  5
4EA0
330
1A
100
AcDbEntity
  8
外形線
100
AcDbCircle
 10
307.057514349264
 20
569.812164470948
 30
0.0
 40
19.5
100
AcDbArc
 50
133.0028244668
 51
166.997175533201
  0
LINE
  5
4EA1
330
1A
100
AcDbEntity
  8
外形線
100
AcDbLine
 10
288.057514349264
 20
574.199646664644
 30
0.0
 11
288.057514349264
 21
565.424682277252
 31
0.0
  0
ARC
  5
4EA2
330
1A
100
AcDbEntity
  8
外形線
100
AcDbCircle
 10
307.057514349264
 20
569.812164470948
 30
0.0
 40
19.5
100
AcDbArc
 50
193.002824466799
 51
226.9971755332
  0
LINE
  5
4EA3
330
1A
100
AcDbEntity
  8
外形線
100
AcDbLine
 10
293.757843310871
 20
555.551422895892
 30
0.0
 11
301.357185387656
 21
551.163940702196
 31
0.0
  0
ARC
  5
4EA4
330
1A
100
AcDbEntity
  8
外形線
100
AcDbCircle
 10
307.057514349264
 20
569.812164470948
 30
0.0
 40
19.5
100
AcDbArc
 50
253.002824466801
 51
265.800475444034
  0
ARC
  5
4EA5
330
1A
100
AcDbEntity
  8
外形線
100
AcDbCircle
 10
307.057514349264
 20
569.812164470948
 30
0.0
 40
19.5
100
AcDbArc
 50
94.199524555966
 51
106.997175533199
  0
ARC
  5
4EA6
330
1A
100
AcDbEntity
  8
細線
100
AcDbCircle
 10
307.057514349264
 20
569.812164470948
 30
0.0
 40
18.00000000000017
100
AcDbArc
 50
94.550193959156
 51
265.449806040844
  0
ARC
  5
4EA7
330
1A
100
AcDbEntity
  8
細線
100
AcDbCircle
 10
307.057514349264
 20
569.812164470948
 30
0.0
 40
8.500000000000028
100
AcDbArc
 50
99.671442086475
 51
260.328557913525
  0
ARC
  5
4EA8
330
1A
100
AcDbEntity
  8
外形線
 48
10.0
100
AcDbCircle
 10
307.057514349264
 20
569.812164470948
 30
0.0
 40
21.5
100
AcDbArc
 50
93.808265092333
 51
266.191734907667
  0
LINE
  5
4EA9
330
1A
100
AcDbEntity
  8
外形線
 48
10.0
100
AcDbLine
 10
308.485535397554
 20
529.798684209074
 30
0.0
 11
305.629530883019
 21
529.798684209074
 31
0.0
  0
LINE
  5
4EAA
330
1A
100
AcDbEntity
  8
外形線
 48
10.0
100
AcDbLine
 10
308.485535397554
 20
609.798684209074
 30
0.0
 11
305.629530883019
 21
609.798684209074
 31
0.0
  0
LINE
  5
4EAB
330
1A
100
AcDbEntity
  8
外形線
 48
10.0
100
AcDbLine
 10
308.485535397554
 20
529.798684209074
 30
0.0
 11
308.485535397554
 21
609.798684209074
 31
0.0
  0
LINE
  5
4EAC
330
1A
100
AcDbEntity
  8
外形線
 48
10.0
100
AcDbLine
 10
305.629530883019
 20
609.798684209074
 30
0.0
 11
305.629530883019
 21
529.798684209074
 31
0.0
  0
ARC
  5
4EAD
330
1A
100
AcDbEntity
  8
外形線
 48
10.0
100
AcDbCircle
 10
307.057514349264
 20
569.812164470948
 30
0.0
 40
21.5
100
AcDbArc
 50
270.0
 51
270.000001804094
  0
LINE
  5
4EAE
330
1A
100
AcDbEntity
  8
外形線
100
AcDbLine
 10
308.548152113965
 20
577.565988953309
 30
0.0
 11
314.540280113966
 21
574.106486953309
 31
0.0
  0
LINE
  5
4EAF
330
1A
100
AcDbEntity
  8
外形線
100
AcDbLine
 10
314.540280113966
 20
574.106486953309
 30
0.0
 11
314.540280113966
 21
565.538492953309
 31
0.0
  0
LINE
  5
4EB0
330
1A
100
AcDbEntity
  8
外形線
100
AcDbLine
 10
308.548152113965
 20
562.078868953309
 30
0.0
 11
314.540280113966
 21
565.538492953309
 31
0.0
  0
ARC
  5
4EB1
330
1A
100
AcDbEntity
  8
細線
100
AcDbCircle
 10
307.120174113966
 20
569.822428953309
 30
0.0
 40
7.458525999999999
100
AcDbArc
 50
281.037746568167
 51
78.962275527421
  0
LINE
  5
4EB2
330
1A
100
AcDbEntity
  8
外形線
100
AcDbLine
 10
305.692166113966
 20
562.078898953309
 30
0.0
 11
299.700070113965
 21
565.538492953309
 31
0.0
  0
LINE
  5
4EB3
330
1A
100
AcDbEntity
  8
外形線
100
AcDbLine
 10
299.700070113965
 20
565.538492953309
 30
0.0
 11
299.700070113965
 21
574.106486953309
 31
0.0
  0
LINE
  5
4EB4
330
1A
100
AcDbEntity
  8
外形線
100
AcDbLine
 10
305.692166113966
 20
577.565958953309
 30
0.0
 11
299.700070113965
 21
574.106486953309
 31
0.0
  0
ARC
  5
4EB5
330
1A
100
AcDbEntity
  8
細線
100
AcDbCircle
 10
307.120174113966
 20
569.822428953309
 30
0.0
 40
7.458525999999999
100
AcDbArc
 50
101.03801319922
 51
258.962026496462
  0
LINE
  5
4EB6
330
1A
100
AcDbEntity
  8
外形線
100
AcDbLine
 10
312.757843310871
 20
588.4603882397
 30
0.0
 11
320.357185387656
 21
584.072906046004
 31
0.0
  0
ARC
  5
4EB7
330
1A
100
AcDbEntity
  8
細線
100
AcDbCircle
 10
307.057514349264
 20
569.812164470948
 30
0.0
 40
18.00000000000017
100
AcDbArc
 50
274.550193959156
 51
85.449806040844
  0
ARC
  5
4EB8
330
1A
100
AcDbEntity
  8
外形線
 48
10.0
100
AcDbCircle
 10
307.057514349264
 20
569.812164470948
 30
0.0
 40
21.5
100
AcDbArc
 50
273.808265092333
 51
86.191734907667
  0
ARC
  5
4EB9
330
1A
100
AcDbEntity
  8
外形線
100
AcDbCircle
 10
307.057514349264
 20
569.812164470948
 30
0.0
 40
19.5
100
AcDbArc
 50
13.002824466799
 51
46.9971755332
  0
LINE
  5
4EBA
330
1A
100
AcDbEntity
  8
外形線
100
AcDbLine
 10
326.057514349264
 20
574.199646664644
 30
0.0
 11
326.057514349264
 21
565.424682277252
 31
0.0
  0
ARC
  5
4EBB
330
1A
100
AcDbEntity
  8
外形線
100
AcDbCircle
 10
307.057514349264
 20
569.812164470948
 30
0.0
 40
19.5
100
AcDbArc
 50
313.0028244668
 51
346.997175533201
  0
LINE
  5
4EBC
330
1A
100
AcDbEntity
  8
外形線
100
AcDbLine
 10
320.357185387656
 20
555.551422895892
 30
0.0
 11
312.757843310871
 21
551.163940702196
 31
0.0
  0
ARC
  5
4EBD
330
1A
100
AcDbEntity
  8
外形線
100
AcDbCircle
 10
307.057514349264
 20
569.812164470948
 30
0.0
 40
19.5
100
AcDbArc
 50
274.199524555966
 51
286.997175533199
  0
ARC
  5
4EBE
330
1A
100
AcDbEntity
  8
外形線
100
AcDbCircle
 10
307.057514349264
 20
569.812164470948
 30
0.0
 40
19.5
100
AcDbArc
 50
73.002824466801
 51
85.800475444034
  0
CIRCLE
  5
4EBF
330
1A
100
AcDbEntity
  8
外形線
100
AcDbCircle
 10
353.019484521402
 20
523.851598225858
 30
0.0
 40
7.711199999999998
  0
CIRCLE
  5
4EC0
330
1A
100
AcDbEntity
  8
外形線
100
AcDbCircle
 10
261.095604177126
 20
523.851598225858
 30
0.0
 40
7.711199999999998
  0
CIRCLE
  5
4EC1
330
1A
100
AcDbEntity
  8
外形線
100
AcDbCircle
 10
353.019484521402
 20
615.775599333466
 30
0.0
 40
7.711199999999998
  0
CIRCLE
  5
4EC2
330
1A
100
AcDbEntity
  8
外形線
100
AcDbCircle
 10
307.057544349263
 20
569.813598779662
 30
0.0
 40
77.5
  0
CIRCLE
  5
4EC3
330
1A
100
AcDbEntity
  8
外形線
100
AcDbCircle
 10
261.095604177126
 20
615.775599333466
 30
0.0
 40
7.711199999999998
  0
LINE
  5
4EC4
330
1A
100
AcDbEntity
  8
中心線
 48
10.0
100
AcDbLine
 10
345.869548888741
 20
531.090980908046
 30
0.0
 11
360.169548057077
 21
516.790981739709
 31
0.0
  0
LINE
  5
4EC5
330
1A
100
AcDbEntity
  8
中心線
 48
10.0
100
AcDbLine
 10
253.945604592958
 20
516.701598641689
 30
0.0
 11
268.245603761294
 21
531.001597810026
 31
0.0
  0
LINE
  5
4EC6
330
1A
100
AcDbEntity
  8
中心線
 48
10.0
100
AcDbLine
 10
253.945604592958
 20
622.925598917634
 30
0.0
 11
268.245603761294
 21
608.625599749297
 31
0.0
  0
LINE
  5
4EC7
330
1A
100
AcDbEntity
  8
中心線
 48
10.0
100
AcDbLine
 10
345.869484937233
 20
608.625599749297
 30
0.0
 11
360.16948410557
 21
622.925598917634
 31
0.0
  0
CIRCLE
  5
4EC8
330
1A
100
AcDbEntity
  8
中心線
 48
10.0
100
AcDbCircle
 10
307.057514349264
 20
569.813586009284
 30
0.0
 40
65.0
  0
LEADER
  5
4EC9
330
1A
100
AcDbEntity
  8
寸法線
 48
10.0
100
AcDbLeader
  3
ISO-25
 76
     3
 10
258.422649333239
 20
516.110538067883
 30
0.0
 10
235.372065243205
 20
478.745753200028
 30
0.0
 10
225.372065243205
 20
478.745753200028
 30
0.0
1001
ACAD
1000
DSTYLE
1002
{
1070
     5
1000
OPEN30
1070
   147
1040
0.625
1070
    77
1070
     0
1070
    41
1040
6.0
1070
    47
1040
0.1
1070
    48
1040
0.1
1070
    73
1070
     0
1070
   140
1040
5.0
1070
   271
1070
     1
1070
   272
1070
     1
1070
   341
1005
2AF4
1070
   342
1005
2AF4
1002
}
  0
MTEXT
  5
4ECA
330
1A
100
AcDbEntity
  8
寸法線
 48
10.0
100
AcDbMText
 10
204.854907141275
 20
487.274605380356
 30
0.0
 40
8.0
 41
30.694469560982
 71
     1
 72
     5
  1
4-φ15
  0
DIMENSION
  5
4ECB
330
1A
100
AcDbEntity
  8
寸法線_文字
 48
10.0
100
AcDbDimension
  2
*D23
 10
835.665768171144
 20
419.201807976175
 30
0.0
 11
835.665768171144
 21
531.006986223562
 31
0.0
 70
   160
  3
ISO-25
100
AcDbAlignedDimension
 13
796.665768171144
 23
642.812164470948
 33
0.0
 14
766.265768171143
 24
419.201807976175
 34
0.0
 50
90.0
100
AcDbRotatedDimension
1001
ACAD
1000
DSTYLE
1002
{
1070
     5
1000
OPEN30
1070
     3
1000
（<>）
1070
    41
1040
6.0
1070
   271
1070
     0
1070
   341
1005
2AF4
1070
   272
1070
     1
1070
    73
1070
     0
1070
    48
1040
0.1
1070
    47
1040
0.1
1070
   140
1040
8.0
1002
}
  0
LINE
  5
4ECC
330
1A
100
AcDbEntity
  8
外形線
 62
     0
100
AcDbLine
 10
323.057514349263
 20
490.212164470947
 30
0.0
 11
326.557514349263
 21
491.149986644456
 31
0.0
  0
LINE
  5
4ECD
330
1A
100
AcDbEntity
  8
外形線
 62
     0
100
AcDbLine
 10
323.057514349264
 20
481.212164470947
 30
0.0
 11
324.557514349264
 21
481.212164470947
 31
0.0
  0
LINE
  5
4ECE
330
1A
100
AcDbEntity
  8
外形線
100
AcDbLine
 10
326.557514349264
 20
480.057463932568
 30
0.0
 11
326.557514349264
 21
454.366865009327
 31
0.0
  0
LINE
  5
4ECF
330
1A
100
AcDbEntity
  8
外形線
100
AcDbLine
 10
324.557514349264
 20
453.212164470947
 30
0.0
 11
326.557514349264
 21
454.366865009327
 31
0.0
  0
LINE
  5
4ED0
330
1A
100
AcDbEntity
  8
外形線
 62
     0
100
AcDbLine
 10
324.557514349264
 20
481.212164470947
 30
0.0
 11
326.557514349264
 21
480.057463932568
 31
0.0
  0
ARC
  5
4ED1
330
1A
100
AcDbEntity
  8
外形線
100
AcDbCircle
 10
322.307514349264
 20
433.212164470947
 30
0.0
 40
1.999999999999999
100
AcDbArc
 50
270.0
 51
0.0
  0
LINE
  5
4ED2
330
1A
100
AcDbEntity
  8
外形線
100
AcDbLine
 10
324.307514349264
 20
433.212164470947
 30
0.0
 11
324.307514349264
 21
453.212164470947
 31
0.0
  0
LINE
  5
4ED3
102
{ACAD_REACTORS
330
4E8C
102
}
330
1A
100
AcDbEntity
  8
外形線
100
AcDbLine
 10
319.657514349263
 20
419.212164470947
 30
0.0
 11
320.157514349263
 21
420.078189874732
 31
0.0
  0
LINE
  5
4ED4
102
{ACAD_REACTORS
330
4E8C
102
}
330
1A
100
AcDbEntity
  8
外形線
100
AcDbLine
 10
320.157514349263
 20
431.212164470948
 30
0.0
 11
320.157514349263
 21
420.078189874732
 31
0.0
  0
LINE
  5
4ED5
330
1A
100
AcDbEntity
  8
外形線
 62
     0
100
AcDbLine
 10
323.057514349263
 20
490.212164470947
 30
0.0
 11
323.057514349263
 21
481.212164470947
 31
0.0
  0
LINE
  5
4ED6
330
1A
100
AcDbEntity
  8
外形線
 48
10.0
100
AcDbLine
 10
308.400365611791
 20
454.366865009327
 30
0.0
 11
308.400365611791
 21
480.057463932568
 31
0.0
  0
LINE
  5
4ED7
330
1A
100
AcDbEntity
  8
外形線
 48
10.0
100
AcDbLine
 10
308.400365611791
 20
454.366865009327
 30
0.0
 11
307.057514349264
 21
454.366865009327
 31
0.0
  0
ARC
  5
4ED8
330
1A
100
AcDbEntity
  8
外形線
 48
10.0
100
AcDbCircle
 10
316.359897261754
 20
481.222663847217
 30
0.0
 40
28.01049937626922
100
AcDbArc
 50
253.491210313048
 51
270.0
  0
ARC
  5
4ED9
330
1A
100
AcDbEntity
  8
外形線
 48
10.0
100
AcDbCircle
 10
316.359897261754
 20
453.201665094678
 30
0.0
 40
28.01049937626922
100
AcDbArc
 50
90.0
 51
106.508789686952
  0
LINE
  5
4EDA
330
1A
100
AcDbEntity
  8
外形線
 48
10.0
100
AcDbLine
 10
308.400365611791
 20
480.057463932568
 30
0.0
 11
307.057514349264
 21
480.057463932568
 31
0.0
  0
LINE
  5
4EDB
330
1A
100
AcDbEntity
  8
外形線
 62
     0
100
AcDbLine
 10
326.557514349263
 20
494.806940208578
 30
0.0
 11
326.557514349263
 21
491.149986644456
 31
0.0
  0
LINE
  5
4EDC
330
1A
100
AcDbEntity
  8
外形線
 48
10.0
100
AcDbLine
 10
317.702748524282
 20
490.212164470947
 30
0.0
 11
317.702748524282
 21
493.048187619139
 31
0.0
  0
LINE
  5
4EDD
330
1A
100
AcDbEntity
  8
外形線
 48
10.0
100
AcDbLine
 10
315.017045999226
 20
490.212164470947
 30
0.0
 11
315.017045999226
 21
492.72342185458
 31
0.0
  0
LINE
  5
4EDE
330
1A
100
AcDbEntity
  8
外形線
 48
10.0
100
AcDbLine
 10
308.400365611791
 20
490.212164470948
 30
0.0
 11
308.400365611791
 21
492.325234040723
 31
0.0
  0
LEADER
  5
4EE1
330
1A
100
AcDbEntity
  8
寸法線
 48
10.0
100
AcDbLeader
  3
ISO-25
 76
     3
 10
749.364201076953
 20
419.201807976175
 30
0.0
 10
729.967815901455
 20
365.831558700785
 30
0.0
 10
739.967815901455
 20
365.831558700785
 30
0.0
213
-27.21281245643422
223
0.0
233
0.0
1001
ACAD
1000
DSTYLE
1002
{
1070
     5
1000
OPEN30
1070
   147
1040
0.625
1070
    77
1070
     0
1070
    41
1040
6.0
1070
    47
1040
0.1
1070
    48
1040
0.1
1070
    73
1070
     0
1070
   140
1040
5.0
1070
   271
1070
     1
1070
   272
1070
     1
1070
   341
1005
2AF4
1070
   342
1005
2AF4
1002
}
  0
MTEXT
  5
4EE2
330
1A
100
AcDbEntity
  8
寸法線
 48
10.0
100
AcDbMText
 10
735.486982170459
 20
374.897894331295
 30
0.0
 40
8.0
 41
57.713255088558
 71
     1
 72
     5
  1
G 1/2"
  0
LINE
  5
4EE3
330
1A
100
AcDbEntity
  8
中心線
 48
10.0
100
AcDbLine
 10
753.665768171143
 20
512.206871333111
 30
0.0
 11
753.665768171143
 21
411.201807976175
 31
0.0
  0
LINE
  5
4EE4
330
1A
100
AcDbEntity
  8
外形線
 48
10.0
100
AcDbLine
 10
445.665783171144
 20
609.804743685654
 30
0.0
 11
445.665783171144
 21
529.804743685654
 31
0.0
  0
LINE
  5
4EE5
330
1A
100
AcDbEntity
  8
外形線
 48
10.0
100
AcDbLine
 10
445.665783171144
 20
529.804743685654
 30
0.0
 11
510.665783171144
 21
529.804743685654
 31
0.0
  0
LINE
  5
4EE6
330
1A
100
AcDbEntity
  8
外形線
 48
10.0
100
AcDbLine
 10
525.665783171144
 20
557.804743685654
 30
0.0
 11
525.665783171144
 21
561.529792970948
 31
0.0
  0
LINE
  5
4EE7
330
1A
100
AcDbEntity
  8
外形線
 48
10.0
100
AcDbLine
 10
510.665783171144
 20
609.804743685654
 30
0.0
 11
445.665783171144
 21
609.804743685654
 31
0.0
  0
LINE
  5
4EE8
330
1A
100
AcDbEntity
  8
外形線
 48
10.0
100
AcDbLine
 10
525.665783171144
 20
581.804743685654
 30
0.0
 11
510.665783171144
 21
609.804743685654
 31
0.0
  0
LINE
  5
4EE9
330
1A
100
AcDbEntity
  8
外形線
 48
10.0
100
AcDbLine
 10
525.665783171144
 20
557.804743685654
 30
0.0
 11
510.665783171144
 21
529.804743685654
 31
0.0
  0
LINE
  5
4EEA
330
1A
100
AcDbEntity
  8
外形線
 48
10.0
100
AcDbLine
 10
540.665783171144
 20
561.529792970948
 30
0.0
 11
540.665783171144
 21
578.094610970948
 31
0.0
  0
LINE
  5
4EEB
330
1A
100
AcDbEntity
  8
外形線
100
AcDbLine
 10
512.379405171144
 20
561.529792970948
 30
0.0
 11
540.665783171144
 21
561.529792970948
 31
0.0
  0
LINE
  5
4EEC
330
1A
100
AcDbEntity
  8
細線
100
AcDbLine
 10
540.653819171144
 20
565.671026970948
 30
0.0
 11
512.033947171144
 21
565.671026970948
 31
0.0
  0
LINE
  5
4EED
330
1A
100
AcDbEntity
  8
外形線
100
AcDbLine
 10
512.379405171144
 20
578.094610970948
 30
0.0
 11
510.665783171144
 21
576.380988970948
 31
0.0
  0
ARC
  5
4EEE
330
1A
100
AcDbEntity
  8
細線
100
AcDbCircle
 10
513.845715171144
 20
576.573736970948
 30
0.0
 40
3.18575
100
AcDbArc
 50
183.46985225516
 51
235.339263082116
  0
LINE
  5
4EEF
330
1A
100
AcDbEntity
  8
細線
100
AcDbLine
 10
540.653819171144
 20
573.953376970948
 30
0.0
 11
512.033947171144
 21
573.953376970948
 31
0.0
  0
ARC
  5
4EF0
330
1A
100
AcDbEntity
  8
細線
100
AcDbCircle
 10
513.845715171144
 20
563.050666970948
 30
0.0
 40
3.18575
100
AcDbArc
 50
124.660776613571
 51
176.530130144752
  0
LINE
  5
4EF1
330
1A
100
AcDbEntity
  8
外形線
100
AcDbLine
 10
510.665783171144
 20
576.380988970948
 30
0.0
 11
510.665783171144
 21
563.243414970948
 31
0.0
  0
CIRCLE
  5
4EF2
330
1A
100
AcDbEntity
  8
外形線
100
AcDbCircle
 10
515.665783171144
 20
569.827055541519
 30
0.0
 40
2.28479
  0
ARC
  5
4EF3
330
1A
100
AcDbEntity
  8
細線
100
AcDbCircle
 10
517.617169171144
 20
569.812200970948
 30
0.0
 40
6.951389999999999
100
AcDbArc
 50
143.43540034864
 51
216.56458205126
  0
LINE
  5
4EF4
330
1A
100
AcDbEntity
  8
外形線
100
AcDbLine
 10
512.379405171144
 20
561.529792970948
 30
0.0
 11
510.665783171144
 21
563.243414970948
 31
0.0
  0
LINE
  5
4EF5
330
1A
100
AcDbEntity
  8
外形線
100
AcDbLine
 10
512.379405171144
 20
578.094610970948
 30
0.0
 11
540.665783171144
 21
578.094610970948
 31
0.0
  0
LINE
  5
4EF6
330
1A
100
AcDbEntity
  8
外形線
 48
10.0
100
AcDbLine
 10
525.665783171144
 20
578.094610970948
 30
0.0
 11
525.665783171144
 21
581.804743685654
 31
0.0
  0
DIMENSION
  5
4EF7
330
1A
100
AcDbEntity
  8
寸法線
 48
10.0
100
AcDbDimension
  2
*D14
 10
308.558627341666
 20
541.538274833634
 30
0.0
 11
326.149312766616
 21
546.163274833634
 31
0.0
 70
    32
  1
1.5
  3
ISO-25
100
AcDbAlignedDimension
 13
305.702622827131
 23
541.538274833634
 33
0.0
 14
308.558627341666
 24
541.538274833634
 34
0.0
100
AcDbRotatedDimension
1001
ACAD
1000
DSTYLE
1002
{
1070
     5
1000
OPEN30
1070
    41
1040
6.0
1070
    47
1040
0.1
1070
    48
1040
0.1
1070
    73
1070
     0
1070
   140
1040
8.0
1070
   271
1070
     1
1070
   272
1070
     1
1070
   341
1005
2AF4
1002
}
  0
DIMENSION
  5
4EF8
330
1A
100
AcDbEntity
  8
寸法線
 48
10.0
100
AcDbDimension
  2
*D15
 10
595.665768171144
 20
381.201807976175
 30
0.0
 11
696.665768171144
 21
381.201807976175
 31
0.0
 70
   160
  3
ISO-25
100
AcDbAlignedDimension
 13
797.665768171144
 23
497.187164470948
 33
0.0
 14
595.665768171144
 24
492.312164470948
 34
0.0
100
AcDbRotatedDimension
1001
ACAD
1000
DSTYLE
1002
{
1070
     5
1000
OPEN30
1070
     3
1000
（<>）
1070
    41
1040
6.0
1070
   271
1070
     1
1070
   341
1005
2AF4
1070
   272
1070
     1
1070
    73
1070
     0
1070
    48
1040
0.1
1070
    47
1040
0.1
1070
   140
1040
8.0
1002
}
  0
TEXT
  5
4EF9
330
1A
100
AcDbEntity
  8
寸法線
 48
10.0
100
AcDbText
 10
836.497537714449
 20
394.176339623911
 30
0.0
 40
7.0
  1
ケーブルグランド型式
 41
0.600158661747
 72
     5
 11
886.070643174746
 21
394.176339623911
 31
0.0
100
AcDbText
  0
TEXT
  5
4EFA
330
1A
100
AcDbEntity
  8
寸法線
 48
10.0
100
AcDbText
 10
891.136785070403
 20
394.176339623911
 30
0.0
 40
7.0
  1
適合ケーブル範囲
 41
0.711985775428
 72
     5
 11
937.653189065049
 21
394.176339623911
 31
0.0
100
AcDbText
  0
LINE
  5
4EFB
330
1A
100
AcDbEntity
  8
寸法線
 48
10.0
100
AcDbLine
 10
805.96241909592
 20
369.255245343456
 30
0.0
 11
939.974144506508
 21
369.255245343456
 31
0.0
  0
LINE
  5
4EFC
330
1A
100
AcDbEntity
  8
寸法線
 48
10.0
100
AcDbLine
 10
805.96241909592
 20
380.711563493778
 30
0.0
 11
939.974144506508
 21
380.711563493778
 31
0.0
  0
LINE
  5
4EFD
330
1A
100
AcDbEntity
  8
寸法線
 48
10.0
100
AcDbLine
 10
805.96241909592
 20
392.167881644101
 30
0.0
 11
939.974144506508
 21
392.167881644101
 31
0.0
  0
LINE
  5
4EFE
330
1A
100
AcDbEntity
  8
寸法線
 48
10.0
100
AcDbLine
 10
805.96241909592
 20
403.158430993592
 30
0.0
 11
939.974144506508
 21
403.158430993592
 31
0.0
  0
LINE
  5
4EFF
330
1A
100
AcDbEntity
  8
寸法線
 48
10.0
100
AcDbLine
 10
939.974144506508
 20
403.158430993592
 30
0.0
 11
939.974144506508
 21
369.255245343456
 31
0.0
  0
LINE
  5
4F00
330
1A
100
AcDbEntity
  8
寸法線
 48
10.0
100
AcDbLine
 10
888.488606777996
 20
403.158430993592
 30
0.0
 11
888.488606777995
 21
369.255245343456
 31
0.0
  0
LINE
  5
4F01
330
1A
100
AcDbEntity
  8
寸法線
 48
10.0
100
AcDbLine
 10
834.77097353601
 20
403.158430993592
 30
0.0
 11
834.77097353601
 21
369.255245343456
 31
0.0
  0
TEXT
  5
4F02
330
1A
100
AcDbEntity
  8
寸法線
 48
10.0
100
AcDbText
 10
808.040235495999
 20
359.432972673712
 30
0.0
 40
7.0
  1
○印が今回の貴社の御仕様です。
100
AcDbText
  0
MTEXT
  5
4F03
330
1A
100
AcDbEntity
  8
寸法線
 48
10.0
100
AcDbMText
 10
913.08774494832
 20
381.047798367582
 30
0.0
 40
7.0
 41
86.293333333333
 71
     5
 72
     5
  1
φ10～φ12\Pφ8～φ10
  0
MTEXT
  5
4F04
330
1A
100
AcDbEntity
  8
寸法線
 48
10.0
100
AcDbMText
 10
808.364287346281
 20
401.183980708034
 30
0.0
 40
7.0
 41
32.537502094875
 71
     1
 72
     5
  1
御仕様
  0
MTEXT
  5
4F05
330
1A
100
AcDbEntity
  8
寸法線
 48
10.0
100
AcDbMText
 10
839.845972938913
 20
389.520054495311
 30
0.0
 40
7.0
 41
148.46544809231
 71
     1
 72
     5
  1
SXC-16B-1\PSXC-16B-2
  0
LINE
  5
4F06
330
1A
100
AcDbEntity
  8
寸法線_文字
 48
10.0
100
AcDbLine
 10
805.96241909592
 20
403.158430993592
 30
0.0
 11
805.96241909592
 21
369.255245343456
 31
0.0
  0
MTEXT
  5
4F08
330
1A
100
AcDbEntity
  8
細線
 48
10.0
100
AcDbMText
 10
2520.377633393985
 20
808.025115520806
 30
0.0
 40
6.0
 41
0.0
 71
     7
 72
     1
  1

  0
MTEXT
  5
4F35
330
1A
100
AcDbEntity
  8
寸法線
 48
10.0
100
AcDbMText
 10
341.09912357731
 20
367.535279053165
 30
0.0
 40
8.0
 41
331.904706180706
 71
     1
 72
     5
  1
内蔵マイクロスイッチ\PAC250V 6A  抵抗負荷\PDC125V 0.5A 抵抗負荷
  0
LINE
  5
4F37
330
1A
100
AcDbEntity
  8
外形線
100
AcDbLine
 10
939.444911788948
 20
344.202596400419
 30
0.0
 11
939.444911788948
 21
265.467745275833
 31
0.0
  0
LINE
  5
4F38
330
1A
100
AcDbEntity
  8
外形線
100
AcDbLine
 10
773.760968203852
 20
344.202596400419
 30
0.0
 11
939.444911788948
 21
344.202596400419
 31
0.0
  0
MTEXT
  5
4F39
102
{ACAD_XDICTIONARY
360
59BC
102
}
330
1A
100
AcDbEntity
  8
寸法線
 48
10.0
100
AcDbMText
 10
836.459585858385
 20
317.897185968223
 30
0.0
 40
9.0
 41
118.169820564114
 71
     1
 72
     5
  1
労検第T66814号
1001
ACADANNOTATIVE
1000
AnnotativeData
1002
{
1070
     1
1070
     0
1002
}
  0
LINE
  5
4F3A
102
{ACAD_REACTORS
330
4F3F
102
}
330
1A
100
AcDbEntity
  8
外形線
100
AcDbLine
 10
822.457308076056
 20
333.213150508933
 30
0.0
 11
822.457308076056
 21
309.213150508933
 31
0.0
  0
LINE
  5
4F3B
102
{ACAD_REACTORS
330
4F3F
102
}
330
1A
100
AcDbEntity
  8
外形線
100
AcDbLine
 10
782.457308076056
 20
309.213150508933
 30
0.0
 11
822.457308076056
 21
309.213150508933
 31
0.0
  0
LINE
  5
4F3C
102
{ACAD_REACTORS
330
4F3F
102
}
330
1A
100
AcDbEntity
  8
外形線
100
AcDbLine
 10
782.457308076056
 20
333.213150508933
 30
0.0
 11
822.457308076056
 21
333.213150508933
 31
0.0
  0
LINE
  5
4F3D
102
{ACAD_REACTORS
330
4F3F
102
}
330
1A
100
AcDbEntity
  8
外形線
100
AcDbLine
 10
782.457308076056
 20
333.213150508933
 30
0.0
 11
782.457308076056
 21
309.213150508933
 31
0.0
  0
MTEXT
  5
4F3E
330
1A
100
AcDbEntity
  8
寸法線
 48
10.0
100
AcDbMText
 10
839.061566664953
 20
339.443017817469
 30
0.0
 40
12.0
 41
71.158475020995
 71
     1
 72
     5
  1
{\H1.25x;d2G4}
  0
HATCH
  5
4F3F
330
1A
100
AcDbEntity
  8
細線
 48
10.0
100
AcDbHatch
 10
0.0
 20
0.0
 30
0.0
210
0.0
220
0.0
230
1.0
  2
ANSI31
 70
     0
 71
     1
 91
        1
 92
        7
 72
     0
 73
     1
 93
        4
 10
822.4573080760564
 20
309.2131505089334
 10
822.4573080760564
 20
333.2131505089334
 10
782.4573080760564
 20
333.2131505089334
 10
782.4573080760564
 20
309.2131505089334
 97
        4
330
4F3A
330
4F3C
330
4F3D
330
4F3B
 75
     0
 76
     1
 52
0.0
 41
0.8
 77
     0
 78
     1
 53
45.0
 43
91.24328612442537
 44
-47.68264133216633
 45
-1.79605122421383
 46
1.796051224213831
 79
     0
 47
0.627807578291
 98
        1
 10
793.9542310838737
 20
324.1910421406643
  0
LINE
  5
4F40
330
1A
100
AcDbEntity
  8
外形線
100
AcDbLine
 10
939.444911788948
 20
265.467745275833
 30
0.0
 11
773.760968203852
 21
265.467745275833
 31
0.0
  0
LINE
  5
4F41
330
1A
100
AcDbEntity
  8
外形線
100
AcDbLine
 10
773.760968203852
 20
265.467745275833
 30
0.0
 11
773.760968203852
 21
344.202596400419
 31
0.0
  0
MTEXT
  5
5290
102
{ACAD_XDICTIONARY
360
5965
102
}
330
1A
100
AcDbEntity
  8
寸法線
 48
10.0
100
AcDbMText
 10
782.296589019904
 20
301.82500986727
 30
0.0
 40
7.0
 41
212.929222004317
 71
     1
 72
     5
  1
防爆構造：耐圧防爆構造\P爆発等級及び発火度：2G4\P導線引込方式：耐圧パッキン式引込方式
1001
ACADANNOTATIVE
1000
AnnotativeData
1002
{
1070
     1
1070
     0
1002
}
  0
LEADER
  5
52CE
330
1A
100
AcDbEntity
  8
寸法線
 62
     1
 48
10.0
100
AcDbLeader
  3
ISO-25
 76
     2
 10
770.832192061912
 20
445.711656219436
 30
0.0
 10
805.96241909592
 20
403.158430993592
 30
0.0
1001
ACAD
1000
DSTYLE
1002
{
1070
     5
1000
OPEN30
1070
   147
1040
0.625
1070
    77
1070
     0
1070
    41
1040
6.0
1070
    47
1040
0.1
1070
    48
1040
0.1
1070
    73
1070
     0
1070
   140
1040
5.0
1070
   271
1070
     1
1070
   272
1070
     1
1070
   341
1005
2AF4
1070
   342
1005
2AF4
1002
}
  0
ARC
  5
52D1
330
1A
100
AcDbEntity
  8
細線
100
AcDbCircle
 10
307.057514349264
 20
569.812164470948
 30
0.0
 40
8.500000000000028
100
AcDbArc
 50
279.671442086475
 51
80.328557913525
  0
MTEXT
  5
52E9
102
{ACAD_XDICTIONARY
360
59AE
102
}
330
1A
100
AcDbEntity
  8
寸法線
 62
     1
 48
10.0
100
AcDbMText
 10
339.190406138101
 20
316.542272573359
 30
0.0
 40
8.0
 41
151.758042421318
 71
     1
 72
     5
  1
\C256;塗　装　色：10YR7.5/14\P静止トルク：約10.0N・cm\P回　転　数：1RPM\P使用周囲温度：-10～+40℃
1001
ACADANNOTATIVE
1000
AnnotativeData
1002
{
1070
     1
1070
     0
1002
}
  0
DIMENSION
  5
5471
330
1A
100
AcDbEntity
  8
寸法線
 62
     1
 48
10.0
100
AcDbDimension
  2
*D24
 10
384.237336525127
 20
576.845745433909
 30
0.0
 11
353.705984794644
 21
574.063356380356
 31
0.0
 70
   160
  3
ISO-25
100
AcDbAlignedDimension
 13
229.876998410651
 23
562.778549232977
 33
0.0
 14
384.237336525127
 24
576.845745433909
 34
0.0
 50
5.2071067117
100
AcDbRotatedDimension
1001
ACAD
1000
DSTYLE
1002
{
1070
     5
1000
OPEN30
1070
    76
1070
     1
1070
    75
1070
     1
1070
     3
1000
φ<>
1070
    41
1040
6.0
1070
    47
1040
0.1
1070
    48
1040
0.1
1070
    73
1070
     0
1070
   140
1040
8.0
1070
   271
1070
     1
1070
   272
1070
     1
1070
   341
1005
2AF4
1002
}
  0
DIMENSION
  5
54CA
330
1A
100
AcDbEntity
  8
寸法線
 62
     1
 48
10.0
100
AcDbDimension
  2
*D25
 10
368.293887976416
 20
591.610191713006
 30
0.0
 11
351.285505452264
 21
585.555775219435
 31
0.0
 70
   160
  3
ISO-25
100
AcDbAlignedDimension
 13
245.821877648439
 23
548.014243757483
 33
0.0
 14
368.293887976416
 24
591.610191713006
 34
0.0
 50
19.594032233714
100
AcDbRotatedDimension
1001
ACAD
1000
DSTYLE
1002
{
1070
     5
1000
OPEN30
1070
     3
1000
φ<>
1070
    76
1070
     1
1070
    75
1070
     1
1070
    41
1040
6.0
1070
    47
1040
0.1
1070
    48
1040
0.1
1070
    73
1070
     0
1070
   140
1040
8.0
1070
   271
1070
     1
1070
   272
1070
     1
1070
   341
1005
2AF4
1002
}
  0
LWPOLYLINE
  5
580F
330
1A
100
AcDbEntity
  8
外形線
100
AcDbPolyline
 90
       10
 70
     0
 43
0.0
 10
607.665768171144
 20
606.812164470948
 10
607.665768171144
 20
606.812164470948
 42
0.414213562373
 10
609.665768171144
 20
604.812164470948
 10
623.665768171144
 20
604.812164470948
 10
625.665768171144
 20
602.812164470948
 10
625.665768171144
 20
536.812164470948
 10
623.665768171144
 20
534.812164470948
 10
609.665768171144
 20
534.812164470948
 42
0.414213562373
 10
607.665768171144
 20
532.812164470948
 10
607.665768171144
 20
532.812164470948
  0
LINE
  5
5810
330
1A
100
AcDbEntity
  8
中心線
 48
10.0
100
AcDbLine
 10
612.665768171144
 20
504.812164470948
 30
0.0
 11
590.665768171144
 21
504.812164470948
 31
0.0
  0
LINE
  5
5811
330
1A
100
AcDbEntity
  8
中心線
 48
10.0
100
AcDbLine
 10
612.665768171144
 20
634.812164470948
 30
0.0
 11
590.665768171144
 21
634.812164470948
 31
0.0
  0
LINE
  5
5812
330
1A
100
AcDbEntity
  8
外形線
100
AcDbLine
 10
607.665768171144
 20
646.312164470948
 30
0.0
 11
606.665768171144
 21
647.312164470948
 31
0.0
  0
LINE
  5
5813
330
1A
100
AcDbEntity
  8
外形線
100
AcDbLine
 10
606.665768171144
 20
647.312164470948
 30
0.0
 11
596.165768171144
 21
647.312164470948
 31
0.0
  0
LINE
  5
5814
330
1A
100
AcDbEntity
  8
外形線
100
AcDbLine
 10
596.165768171144
 20
647.312164470948
 30
0.0
 11
595.665768171144
 21
646.812164470948
 31
0.0
  0
LINE
  5
5815
330
1A
100
AcDbEntity
  8
外形線
100
AcDbLine
 10
595.665768171144
 20
646.812164470948
 30
0.0
 11
595.665768171144
 21
492.812164470948
 31
0.0
  0
LINE
  5
5816
330
1A
100
AcDbEntity
  8
外形線
100
AcDbLine
 10
595.665768171144
 20
492.812164470948
 30
0.0
 11
596.165768171144
 21
492.312164470948
 31
0.0
  0
LINE
  5
5817
330
1A
100
AcDbEntity
  8
外形線
100
AcDbLine
 10
596.165768171144
 20
492.312164470948
 30
0.0
 11
606.665768171144
 21
492.312164470948
 31
0.0
  0
LINE
  5
5818
330
1A
100
AcDbEntity
  8
外形線
100
AcDbLine
 10
606.665768171144
 20
492.312164470948
 30
0.0
 11
607.665768171144
 21
493.312164470948
 31
0.0
  0
LINE
  5
5819
330
1A
100
AcDbEntity
  8
外形線
100
AcDbLine
 10
607.665768171144
 20
493.312164470948
 30
0.0
 11
607.665768171144
 21
646.312164470948
 31
0.0
  0
TEXT
  5
5929
330
1A
100
AcDbEntity
  8
寸法線
100
AcDbText
 10
285.209119297777
 20
250.692562813527
 30
0.0
 40
8.0
  1
(２００   ０)
 41
0.566629621207
  7
EXCADSTD
 72
     5
 11
322.493348373226
 21
250.692562813527
 31
0.0
100
AcDbText
  0
MTEXT
  5
59A1
102
{ACAD_XDICTIONARY
360
59A2
102
}
330
1A
100
AcDbEntity
  8
寸法線
 48
10.0
100
AcDbMText
 10
473.951205089156
 20
363.725204281065
 30
0.0
 40
8.0
 41
168.503621648242
 71
     1
 72
     5
  1
御仕様  電源電圧  \P      　AC100V\P        AC200V
1001
ACADANNOTATIVE
1000
AnnotativeData
1002
{
1070
     1
1070
     0
1002
}
  0
MTEXT
  5
59A5
330
1A
100
AcDbEntity
  8
寸法線
 48
10.0
100
AcDbMText
 10
494.13410721165
 20
322.668490177301
 30
0.0
 40
8.0
 41
161.650793650794
 71
     1
 72
     5
  1
○印が今回の貴社の御仕様です。
  0
LINE
  5
59A6
330
1A
100
AcDbEntity
  8
寸法線
 62
     1
 48
10.0
100
AcDbLine
 10
471.519713525425
 20
352.879938051175
 30
0.0
 11
624.907317800186
 21
352.879938051175
 31
0.0
  0
LINE
  5
59A7
330
1A
100
AcDbEntity
  8
寸法線
 62
     1
 48
10.0
100
AcDbLine
 10
471.519713525425
 20
339.618389286928
 30
0.0
 11
624.907317800186
 21
339.618389286928
 31
0.0
  0
LINE
  5
59A8
330
1A
100
AcDbEntity
  8
寸法線
 62
     1
 48
10.0
100
AcDbLine
 10
471.519713525425
 20
326.356840522682
 30
0.0
 11
624.907317800186
 21
326.356840522682
 31
0.0
  0
LINE
  5
59A9
330
1A
100
AcDbEntity
  8
寸法線
 62
     1
 48
10.0
100
AcDbLine
 10
471.519713525425
 20
365.881456447495
 30
0.0
 11
624.907317800186
 21
365.881456447495
 31
0.0
  0
LINE
  5
59AA
330
1A
100
AcDbEntity
  8
寸法線
 62
     1
 48
10.0
100
AcDbLine
 10
504.283539884152
 20
365.881456447495
 30
0.0
 11
504.283539884152
 21
326.356840522682
 31
0.0
  0
LINE
  5
59AB
330
1A
100
AcDbEntity
  8
寸法線
 62
     1
 48
10.0
100
AcDbLine
 10
471.519713525425
 20
365.881456447495
 30
0.0
 11
471.519713525425
 21
326.356840522682
 31
0.0
  0
LINE
  5
59AC
330
1A
100
AcDbEntity
  8
寸法線
 62
     1
 48
10.0
100
AcDbLine
 10
557.723032906092
 20
365.881456447495
 30
0.0
 11
557.723032906092
 21
326.356840522682
 31
0.0
  0
LINE
  5
59AD
330
1A
100
AcDbEntity
  8
寸法線
 62
     1
 48
10.0
100
AcDbLine
 10
624.907317800186
 20
365.881456447495
 30
0.0
 11
624.907317800186
 21
326.356840522682
 31
0.0
  0
MTEXT
  5
59B1
102
{ACAD_XDICTIONARY
360
59B2
102
}
330
1A
100
AcDbEntity
  8
寸法線
 48
10.0
100
AcDbMText
 10
591.930126596173
 20
363.725204281065
 30
0.0
 40
8.0
 41
57.516644001649
 71
     2
 72
     5
  1
申請型式名称   \PPRL-5-WP\PPRL-5-VP
1001
ACADANNOTATIVE
1000
AnnotativeData
1002
{
1070
     1
1070
     0
1002
}
  0
MTEXT
  5
59BB
330
1A
100
AcDbEntity
  8
寸法線
 62
     1
 48
10.0
100
AcDbMText
 10
808.442724139502
 20
412.553206138615
 30
0.0
 40
7.0
 41
152.261044059946
 71
     1
 72
     1
  1
※ケーブルグランドをご指定下さい
  0
VIEWPORT
  5
2902
330
28FB
100
AcDbEntity
 67
     1
  8
0
 48
10.0
100
AcDbViewport
 10
0.0
 20
0.0
 30
0.0
 40
470.708333333333
 41
300.3
 68
     1
 69
     1
1001
ACAD
1000
MVIEW
1002
{
1070
    16
1010
0.0
1020
0.0
1030
0.0
1010
0.0
1020
0.0
1030
1.0
1040
0.0
1040
300.3
1040
206.482943333333
1040
144.277943333333
1040
50.0
1040
0.0
1040
0.0
1070
    16
1070
   100
1070
     0
1070
     1
1070
     0
1070
     0
1070
     0
1070
     0
1040
0.0
1040
0.0
1040
0.0
1040
10.0
1040
10.0
1040
10.0
1040
10.0
1070
     0
1002
{
1002
}
1002
}
  0
VIEWPORT
  5
2904
330
28FB
100
AcDbEntity
 67
     1
  8
図枠太線
 48
10.0
100
AcDbViewport
 10
204.746305129083
 20
163.091265222646
 30
0.0
 40
400.0
 41
240.0
 68
     2
 69
     2
1001
ACAD
1000
MVIEW
1002
{
1070
    16
1010
0.0
1020
0.0
1030
0.0
1010
0.0
1020
0.0
1030
1.0
1040
0.0
1040
480.000003538612
1040
554.807547993549
1040
468.140675361736
1040
50.0
1040
0.0
1040
0.0
1070
     0
1070
   100
1070
     0
1070
     0
1070
     0
1070
     0
1070
     0
1070
     0
1040
0.0
1040
0.0
1040
0.0
1040
1.0
1040
1.0
1040
0.0
1040
0.0
1070
     0
1002
{
1002
}
1002
}
  0
INSERT
  5
2A59
330
28FB
100
AcDbEntity
 67
     1
  8
図枠太線
100
AcDbBlockReference
  2
A3横用_タイトル
 10
-0.352109406709
 20
-0.434694530881
 30
0.0
  0
MTEXT
  5
2FE5
330
28FB
100
AcDbEntity
 67
     1
  8
寸法線
 48
10.0
100
AcDbMText
 10
363.177813562453
 20
38.795641536623
 30
0.0
 40
5.0
 41
45.27425591701
 71
     1
 72
     5
  1
パドル式\Pレベルスイッチ
  0
MTEXT
  5
2FE6
330
28FB
100
AcDbEntity
 67
     1
  8
寸法線
 48
10.0
100
AcDbMText
 10
317.207032615727
 20
35.549359577263
 30
0.0
 40
7.0
 41
35.987227926891
 71
     1
 72
     5
  1
PRL-S7
  0
MTEXT
  5
2FE7
330
28FB
100
AcDbEntity
 67
     1
  8
寸法線
 48
10.0
100
AcDbMText
 10
148.557616336103
 20
15.716977084299
 30
0.0
 40
7.0
 41
12.5019545219
 71
     1
 72
     5
  1
1:2
  0
MTEXT
  5
2FE8
102
{ACAD_XDICTIONARY
360
59B5
102
}
330
28FB
100
AcDbEntity
 67
     1
  8
寸法線
 48
10.0
100
AcDbMText
 10
176.354339134044
 20
13.262484031968
 30
0.0
 40
4.5
 41
24.482994753342
 71
     1
 72
     5
  1
2015.6.16
1001
ACADANNOTATIVE
1000
AnnotativeData
1002
{
1070
     1
1070
     0
1002
}
  0
MTEXT
  5
2FE9
330
28FB
100
AcDbEntity
 67
     1
  8
寸法線
 48
10.0
100
AcDbMText
 10
181.132198176223
 20
32.910797295429
 30
0.0
 40
5.0
 41
28.650314852463
 71
     1
 72
     5
  1
ohno
  0
MTEXT
  5
2FEB
102
{ACAD_XDICTIONARY
360
59B8
102
}
330
28FB
100
AcDbEntity
 67
     1
  8
寸法線
 48
10.0
100
AcDbMText
 10
338.958850548293
 20
16.61197403807
 30
0.0
 40
8.0
 41
36.402559001308
 71
     1
 72
     5
  1
HR-90001
1001
ACADANNOTATIVE
1000
AnnotativeData
1002
{
1070
     1
1070
     0
1002
}
  0
MTEXT
  5
2FEC
330
28FB
100
AcDbEntity
 67
     1
  8
寸法線
 48
10.0
100
AcDbMText
 10
373.949051752515
 20
51.694222229741
 30
0.0
 40
5.0
 41
33.206838365079
 71
     1
 72
     5
  1
台数   台
  0
ENDSEC
  0
SECTION
  2
OBJECTS
  0
DICTIONARY
  5
C
330
0
100
AcDbDictionary
  3
ACAD_COLOR
350
2948
  3
ACAD_GROUP
350
D
  3
ACAD_LAYOUT
350
2816
  3
ACAD_MATERIAL
350
2947
  3
ACAD_MLEADERSTYLE
350
5591
  3
ACAD_MLINESTYLE
350
E
  3
ACAD_PLOTSETTINGS
350
2817
  3
ACAD_SCALELIST
350
556B
  3
ACAD_VISUALSTYLE
350
5552
  3
ACDBHEADERROUNDTRIPXREC
350
59BF
  3
ACDBVARIABLEDICTIONARY
350
55B7
  3
DWGPROPS
350
59E4
  0
DICTIONARY
  5
59E6
330
8
100
AcDbDictionary
280
     1
  3
ACAD_XREC_ROUNDTRIP
360
59E7
  0
DICTIONARY
  5
29EA
330
2
100
AcDbDictionary
280
     1
  3
ACAD_LAYERFILTERS
360
2B0C
  3
ACAD_LAYERSTATES
360
29EB
  0
DICTIONARY
  5
585A
330
4E72
100
AcDbDictionary
280
     1
  3
ACDBCONTEXTDATAMANAGER
360
585B
  0
DICTIONARY
  5
59BC
330
4F39
100
AcDbDictionary
280
     1
  3
ACDBCONTEXTDATAMANAGER
360
59BD
  0
DICTIONARY
  5
5965
330
5290
100
AcDbDictionary
280
     1
  3
ACDBCONTEXTDATAMANAGER
360
5966
  0
DICTIONARY
  5
59AE
330
52E9
100
AcDbDictionary
280
     1
  3
ACDBCONTEXTDATAMANAGER
360
59AF
  0
DICTIONARY
  5
59A2
330
59A1
100
AcDbDictionary
280
     1
  3
ACDBCONTEXTDATAMANAGER
360
59A3
  0
DICTIONARY
  5
59B2
330
59B1
100
AcDbDictionary
280
     1
  3
ACDBCONTEXTDATAMANAGER
360
59B3
  0
DICTIONARY
  5
59B5
330
2FE8
100
AcDbDictionary
280
     1
  3
ACAD_MTEXT_RT
360
59E5
  3
ACDBCONTEXTDATAMANAGER
360
59B6
  0
DICTIONARY
  5
59B8
330
2FEB
100
AcDbDictionary
280
     1
  3
ACDBCONTEXTDATAMANAGER
360
59B9
  0
DICTIONARY
  5
2948
102
{ACAD_REACTORS
330
C
102
}
330
C
100
AcDbDictionary
  0
DICTIONARY
  5
D
102
{ACAD_REACTORS
330
C
102
}
330
C
100
AcDbDictionary
  0
DICTIONARY
  5
2816
102
{ACAD_REACTORS
330
C
102
}
330
C
100
AcDbDictionary
  0
DICTIONARY
  5
2947
102
{ACAD_REACTORS
330
C
102
}
330
C
100
AcDbDictionary
  3
BYBLOCK
350
558E
  3
BYLAYER
350
558D
  3
GLOBAL
350
4C3D
  0
DICTIONARY
  5
5591
102
{ACAD_REACTORS
330
C
102
}
330
C
100
AcDbDictionary
  3
STANDARD
350
5592
  0
DICTIONARY
  5
E
102
{ACAD_REACTORS
330
C
102
}
330
C
100
AcDbDictionary
  3
STANDARD
350
13
  0
DICTIONARY
  5
2817
102
{ACAD_REACTORS
330
C
102
}
330
C
100
AcDbDictionary
  0
DICTIONARY
  5
556B
102
{ACAD_REACTORS
330
C
102
}
330
C
100
AcDbDictionary
  3
A0
350
556C
  3
A1
350
556D
  3
A2
350
556E
  3
A3
350
556F
  3
A4
350
5570
  3
A5
350
5571
  3
A6
350
5572
  3
A7
350
5573
  3
A8
350
5574
  3
A9
350
5575
  3
B0
350
5576
  3
B1
350
5577
  3
B2
350
5578
  3
B3
350
5579
  3
B4
350
557A
  3
B5
350
557B
  3
B6
350
557C
  3
B7
350
557D
  3
B8
350
557E
  3
B9
350
557F
  3
C0
350
5580
  3
C1
350
5581
  3
C2
350
5582
  3
C3
350
5583
  3
C4
350
5584
  3
C5
350
5585
  3
C6
350
5586
  3
C7
350
5587
  3
C8
350
5588
  3
C9
350
5589
  3
D0
350
558A
  3
D1
350
558B
  3
D2
350
558C
  0
DICTIONARY
  5
5552
102
{ACAD_REACTORS
330
C
102
}
330
C
100
AcDbDictionary
  3
2DWIREFRAME
350
5557
  3
BASIC
350
555A
  3
BRIGHTEN
350
555E
  3
COLORCHANGE
350
5562
  3
CONCEPTUAL
350
555C
  3
DIM
350
555D
  3
EDGECOLOROFF
350
5565
  3
FACEPATTERN
350
5561
  3
FLAT
350
5553
  3
FLATWITHEDGES
350
5554
  3
GOURAUD
350
5555
  3
GOURAUDWITHEDGES
350
5556
  3
HIDDEN
350
5559
  3
JITTEROFF
350
5563
  3
LINEPATTERN
350
5560
  3
MODELING
350
5593
  3
OVERHANGOFF
350
5564
  3
REALISTIC
350
555B
  3
SHADED
350
556A
  3
SHADED_WITH_EDGES
350
5569
  3
SHADES_OF_GRAY
350
5566
  3
SKETCHY
350
5567
  3
THICKEN
350
555F
  3
WIREFRAME
350
5558
  3
X-RAY
350
5568
  0
DICTIONARY
  5
59BF
102
{ACAD_REACTORS
330
C
102
}
330
C
100
AcDbDictionary
  3
CEPSNID
350
59C9
  3
CEPSNTYPE
350
59C8
  3
COLORDICT
350
59E2
  3
DIMSTYLEDATA
350
59DF
  3
FINGERPRINTGUID
350
59CA
  3
HYPERLINKBASE
350
59C2
  3
INSUNITS
350
59C7
  3
LAYOUTDICT
350
59C4
  3
LWETCUNION
350
59C6
  3
MATERIALDICT
350
59E3
  3
PLOTSETDICT
350
59C5
  3
PSVPSCALE
350
59CC
  3
PUCSBASE
350
59CF
  3
PUCSORGBACK
350
59D5
  3
PUCSORGBOTTOM
350
59D1
  3
PUCSORGFRONT
350
59D4
  3
PUCSORGLEFT
350
59D2
  3
PUCSORGRIGHT
350
59D3
  3
PUCSORGTOP
350
59D0
  3
PUCSORTHOREF
350
59CD
  3
PUCSORTHOVIEW
350
59CE
  3
STYLESHEET
350
59C3
  3
TSTACKALIGN
350
59C0
  3
TSTACKSIZE
350
59C1
  3
UCSBASE
350
59D8
  3
UCSORGBACK
350
59DE
  3
UCSORGBOTTOM
350
59DA
  3
UCSORGFRONT
350
59DD
  3
UCSORGLEFT
350
59DB
  3
UCSORGRIGHT
350
59DC
  3
UCSORGTOP
350
59D9
  3
UCSORTHOREF
350
59D6
  3
UCSORTHOVIEW
350
59D7
  3
VERSIONGUID
350
59CB
  0
DICTIONARY
  5
55B7
102
{ACAD_REACTORS
330
C
102
}
330
C
100
AcDbDictionary
  3
CANNOSCALE
350
55B8
  3
CMLEADERSTYLE
350
55F9
  3
CTABLESTYLE
350
55F8
  3
DIMASSOC
350
59E0
  3
HIDETEXT
350
59E1
  3
MSLTSCALE
350
55FA
  3
XCLIPFRAME
350
55FB
  0
XRECORD
  5
59E4
102
{ACAD_REACTORS
330
C
102
}
330
C
100
AcDbXrecord
  1
DWGPROPS COOKIE
  2

  3

  4

  6

  7

  8
y-ohno
  9

300
=
301
=
302
=
303
=
304
=
305
=
306
=
307
=
308
=
309
=
 40
0.0
 41
2450576.222302431
 42
2457193.284226609
  1

 90
        0
  0
XRECORD
  5
59E7
102
{ACAD_REACTORS
330
59E6
102
}
330
59E6
100
AcDbXrecord
102
VTR_0.000_0.000_1.000_1.000_VISUALSTYLE
340
5557
102
VTR_0.000_0.000_1.000_1.000_GRIDDISPLAY
 70
     3
102
VTR_0.000_0.000_1.000_1.000_GRIDMAJOR
 70
     5
102
VTR_0.000_0.000_1.000_1.000_DEFAULTLIGHTING
280
     1
102
VTR_0.000_0.000_1.000_1.000_DEFAULTLIGHTINGTYPE
 70
     1
102
VTR_0.000_0.000_1.000_1.000_BRIGHTNESS
141
0.0
102
VTR_0.000_0.000_1.000_1.000_CONTRAST
142
0.0
  0
DICTIONARY
  5
2B0C
102
{ACAD_REACTORS
330
29EA
102
}
330
29EA
100
AcDbDictionary
  0
DICTIONARY
  5
29EB
102
{ACAD_REACTORS
330
29EA
102
}
330
29EA
100
AcDbDictionary
  0
DICTIONARY
  5
585B
102
{ACAD_REACTORS
330
585A
102
}
330
585A
100
AcDbDictionary
  3
ACDB_ANNOTATIONSCALES
350
585C
  0
DICTIONARY
  5
59BD
102
{ACAD_REACTORS
330
59BC
102
}
330
59BC
100
AcDbDictionary
  3
ACDB_ANNOTATIONSCALES
350
59BE
  0
DICTIONARY
  5
5966
102
{ACAD_REACTORS
330
5965
102
}
330
5965
100
AcDbDictionary
  3
ACDB_ANNOTATIONSCALES
350
5967
  0
DICTIONARY
  5
59AF
102
{ACAD_REACTORS
330
59AE
102
}
330
59AE
100
AcDbDictionary
  3
ACDB_ANNOTATIONSCALES
350
59B0
  0
DICTIONARY
  5
59A3
102
{ACAD_REACTORS
330
59A2
102
}
330
59A2
100
AcDbDictionary
  3
ACDB_ANNOTATIONSCALES
350
59A4
  0
DICTIONARY
  5
59B3
102
{ACAD_REACTORS
330
59B2
102
}
330
59B2
100
AcDbDictionary
  3
ACDB_ANNOTATIONSCALES
350
59B4
  0
XRECORD
  5
59E5
102
{ACAD_REACTORS
330
59B5
102
}
330
59B5
100
AcDbXrecord
 40
2259.0
  1
\pt36.175;2015.6.16
  0
DICTIONARY
  5
59B6
102
{ACAD_REACTORS
330
59B5
102
}
330
59B5
100
AcDbDictionary
  3
ACDB_ANNOTATIONSCALES
350
59B7
  0
DICTIONARY
  5
59B9
102
{ACAD_REACTORS
330
59B8
102
}
330
59B8
100
AcDbDictionary
  3
ACDB_ANNOTATIONSCALES
350
59BA
  0
MATERIAL
  5
558E
102
{ACAD_REACTORS
330
2947
102
}
102
{ACAD_XDICTIONARY
360
59EC
102
}
330
2947
100
AcDbMaterial
  1
BYBLOCK
  0
MATERIAL
  5
558D
102
{ACAD_REACTORS
330
2947
102
}
102
{ACAD_XDICTIONARY
360
59EA
102
}
330
2947
100
AcDbMaterial
  1
BYLAYER
  0
MATERIAL
  5
4C3D
102
{ACAD_REACTORS
330
2947
102
}
102
{ACAD_XDICTIONARY
360
59E8
102
}
330
2947
100
AcDbMaterial
  1
GLOBAL
  0
ACAD_PROXY_OBJECT
  5
5592
102
{ACAD_REACTORS
330
5591
102
}
330
5591
100
AcDbProxyObject
 90
      499
 91
      508
 93
      610
310
40901902A4063FBFFFFFE0000000000000020400000000000020404214DD185B99185C990000000000000104090141901A00000000000004100000000000000041025764000000000000039000
340
14
340
0
340
10
340
0
 94
        0
1001
ACAD_MLEADERVER
1070
     2
  0
MLINESTYLE
  5
13
102
{ACAD_REACTORS
330
E
102
}
330
E
100
AcDbMlineStyle
  2
STANDARD
 70
     0
  3

 62
     0
 51
90.0
 52
90.0
 71
     2
 49
0.5
 62
   256
  6
BYLAYER
 49
-0.5
 62
   256
  6
BYLAYER
  0
ACAD_PROXY_OBJECT
  5
556C
102
{ACAD_REACTORS
330
556B
102
}
330
556B
100
AcDbProxyObject
 90
      499
 91
      506
 93
       41
310
903313A31580
  0
ACAD_PROXY_OBJECT
  5
556D
102
{ACAD_REACTORS
330
556B
102
}
330
556B
100
AcDbProxyObject
 90
      499
 91
      506
 93
      105
310
903313A324000000000000004000
  0
ACAD_PROXY_OBJECT
  5
556E
102
{ACAD_REACTORS
330
556B
102
}
330
556B
100
AcDbProxyObject
 90
      499
 91
      506
 93
      105
310
903313A344000000000000104000
  0
ACAD_PROXY_OBJECT
  5
556F
102
{ACAD_REACTORS
330
556B
102
}
330
556B
100
AcDbProxyObject
 90
      499
 91
      506
 93
      105
310
903313A354000000000000144000
  0
ACAD_PROXY_OBJECT
  5
5570
102
{ACAD_REACTORS
330
556B
102
}
330
556B
100
AcDbProxyObject
 90
      499
 91
      506
 93
      105
310
903313A384000000000000204000
  0
ACAD_PROXY_OBJECT
  5
5571
102
{ACAD_REACTORS
330
556B
102
}
330
556B
100
AcDbProxyObject
 90
      499
 91
      506
 93
      113
310
904313A31304000000000000244000
  0
ACAD_PROXY_OBJECT
  5
5572
102
{ACAD_REACTORS
330
556B
102
}
330
556B
100
AcDbProxyObject
 90
      499
 91
      506
 93
      113
310
904313A31364000000000000304000
  0
ACAD_PROXY_OBJECT
  5
5573
102
{ACAD_REACTORS
330
556B
102
}
330
556B
100
AcDbProxyObject
 90
      499
 91
      506
 93
      113
310
904313A32304000000000000344000
  0
ACAD_PROXY_OBJECT
  5
5574
102
{ACAD_REACTORS
330
556B
102
}
330
556B
100
AcDbProxyObject
 90
      499
 91
      506
 93
      113
310
904313A333040000000000003E4000
  0
ACAD_PROXY_OBJECT
  5
5575
102
{ACAD_REACTORS
330
556B
102
}
330
556B
100
AcDbProxyObject
 90
      499
 91
      506
 93
      113
310
904313A34304000000000000444000
  0
ACAD_PROXY_OBJECT
  5
5576
102
{ACAD_REACTORS
330
556B
102
}
330
556B
100
AcDbProxyObject
 90
      499
 91
      506
 93
      113
310
904313A35304000000000000494000
  0
ACAD_PROXY_OBJECT
  5
5577
102
{ACAD_REACTORS
330
556B
102
}
330
556B
100
AcDbProxyObject
 90
      499
 91
      506
 93
      121
310
905313A3130304000000000000594000
  0
ACAD_PROXY_OBJECT
  5
5578
102
{ACAD_REACTORS
330
556B
102
}
330
556B
100
AcDbProxyObject
 90
      499
 91
      506
 93
      105
310
903323A310000000000000010100
  0
ACAD_PROXY_OBJECT
  5
5579
102
{ACAD_REACTORS
330
556B
102
}
330
556B
100
AcDbProxyObject
 90
      499
 91
      506
 93
      105
310
903343A310000000000000410100
  0
ACAD_PROXY_OBJECT
  5
557A
102
{ACAD_REACTORS
330
556B
102
}
330
556B
100
AcDbProxyObject
 90
      499
 91
      506
 93
      105
310
903383A310000000000000810100
  0
ACAD_PROXY_OBJECT
  5
557B
102
{ACAD_REACTORS
330
556B
102
}
330
556B
100
AcDbProxyObject
 90
      499
 91
      506
 93
      113
310
90431303A310000000000000910100
  0
ACAD_PROXY_OBJECT
  5
557C
102
{ACAD_REACTORS
330
556B
102
}
330
556B
100
AcDbProxyObject
 90
      499
 91
      506
 93
      121
310
9053130303A310000000000001650100
  0
ACAD_PROXY_OBJECT
  5
557D
102
{ACAD_REACTORS
330
556B
102
}
330
556B
100
AcDbProxyObject
 90
      499
 91
      506
 93
      257
310
90E312F31323822203D2031272D3022000000000000200FC000000000000284000
  0
ACAD_PROXY_OBJECT
  5
557E
102
{ACAD_REACTORS
330
556B
102
}
330
556B
100
AcDbProxyObject
 90
      499
 91
      506
 93
      249
310
90D312F363422203D2031272D3022000000000000240FC000000000000284000
  0
ACAD_PROXY_OBJECT
  5
557F
102
{ACAD_REACTORS
330
556B
102
}
330
556B
100
AcDbProxyObject
 90
      499
 91
      506
 93
      249
310
90D312F333222203D2031272D3022000000000000280FC000000000000284000
  0
ACAD_PROXY_OBJECT
  5
5580
102
{ACAD_REACTORS
330
556B
102
}
330
556B
100
AcDbProxyObject
 90
      499
 91
      506
 93
      249
310
90D312F313622203D2031272D30220000000000002C0FC000000000000284000
  0
ACAD_PROXY_OBJECT
  5
5581
102
{ACAD_REACTORS
330
556B
102
}
330
556B
100
AcDbProxyObject
 90
      499
 91
      506
 93
      249
310
90D332F333222203D2031272D30220000000000002E0FC000000000000284000
  0
ACAD_PROXY_OBJECT
  5
5582
102
{ACAD_REACTORS
330
556B
102
}
330
556B
100
AcDbProxyObject
 90
      499
 91
      506
 93
      241
310
90C312F3822203D2031272D3022000000000000300FC000000000000284000
  0
ACAD_PROXY_OBJECT
  5
5583
102
{ACAD_REACTORS
330
556B
102
}
330
556B
100
AcDbProxyObject
 90
      499
 91
      506
 93
      249
310
90D332F313622203D2031272D3022000000000000320FC000000000000284000
  0
ACAD_PROXY_OBJECT
  5
5584
102
{ACAD_REACTORS
330
556B
102
}
330
556B
100
AcDbProxyObject
 90
      499
 91
      506
 93
      241
310
90C312F3422203D2031272D3022000000000000340FC000000000000284000
  0
ACAD_PROXY_OBJECT
  5
5585
102
{ACAD_REACTORS
330
556B
102
}
330
556B
100
AcDbProxyObject
 90
      499
 91
      506
 93
      241
310
90C332F3822203D2031272D3022000000000000360FC000000000000284000
  0
ACAD_PROXY_OBJECT
  5
5586
102
{ACAD_REACTORS
330
556B
102
}
330
556B
100
AcDbProxyObject
 90
      499
 91
      506
 93
      241
310
90C312F3222203D2031272D3022000000000000380FC000000000000284000
  0
ACAD_PROXY_OBJECT
  5
5587
102
{ACAD_REACTORS
330
556B
102
}
330
556B
100
AcDbProxyObject
 90
      499
 91
      506
 93
      241
310
90C332F3422203D2031272D30220000000000003A0FC000000000000284000
  0
ACAD_PROXY_OBJECT
  5
5588
102
{ACAD_REACTORS
330
556B
102
}
330
556B
100
AcDbProxyObject
 90
      499
 91
      506
 93
      161
310
90A3122203D2031272D30224000000000000284000
  0
ACAD_PROXY_OBJECT
  5
5589
102
{ACAD_REACTORS
330
556B
102
}
330
556B
100
AcDbProxyObject
 90
      499
 91
      506
 93
      257
310
90E312D312F3222203D2031272D30220000000000003E0FC000000000000284000
  0
ACAD_PROXY_OBJECT
  5
558A
102
{ACAD_REACTORS
330
556B
102
}
330
556B
100
AcDbProxyObject
 90
      499
 91
      506
 93
      225
310
90A3322203D2031272D302200000000000002100000000000000284000
  0
ACAD_PROXY_OBJECT
  5
558B
102
{ACAD_REACTORS
330
556B
102
}
330
556B
100
AcDbProxyObject
 90
      499
 91
      506
 93
      225
310
90A3622203D2031272D302200000000000006100000000000000284000
  0
ACAD_PROXY_OBJECT
  5
558C
102
{ACAD_REACTORS
330
556B
102
}
330
556B
100
AcDbProxyObject
 90
      499
 91
      506
 93
      249
310
90D31272D3022203D2031272D30220000000000000A100000000000000284000
  0
ACAD_PROXY_OBJECT
  5
5557
102
{ACAD_REACTORS
330
5552
102
}
330
5552
100
AcDbProxyObject
 90
      499
 91
      505
 93
      436
310
42CC9915DA5C99599C985B595049028333333333333E33F0000000000000F90107901411070040501600405405064090741402480A0340
1001
ACAD
1000
AcDbSavedByObjectVersion
1070
     0
  0
ACAD_PROXY_OBJECT
  5
555A
102
{ACAD_REACTORS
330
5552
102
}
330
5552
100
AcDbProxyObject
 90
      499
 91
      505
 93
      388
310
4150985CDA58D07406404333333333333E33F0000000000000F90107A41107004050150841D405064090741402480A0350
1001
ACAD
1000
AcDbSavedByObjectVersion
1070
     0
  0
ACAD_PROXY_OBJECT
  5
555E
102
{ACAD_REACTORS
330
5552
102
}
330
5552
100
AcDbProxyObject
 90
      499
 91
      505
 93
      428
310
42109C9A59DA1D195B90C409028333333333333E33F0000000000000F9010790141107004050150841D405064090741402480A029950
1001
ACAD
1000
AcDbSavedByObjectVersion
1070
     0
  0
ACAD_PROXY_OBJECT
  5
5562
102
{ACAD_REACTORS
330
5552
102
}
330
5552
100
AcDbProxyObject
 90
      499
 91
      505
 93
      452
310
42D0DBDB1BDC90DA185B99D95104090240C333333333333E33F0000000000000F90108901411070040501508421405064090741402480A0350
1001
ACAD
1000
AcDbSavedByObjectVersion
1070
     0
  0
ACAD_PROXY_OBJECT
  5
555C
102
{ACAD_REACTORS
330
5552
102
}
330
5552
100
AcDbProxyObject
 90
      499
 91
      505
 93
      500
310
4290DBDB98D95C1D1D585B10940D028333333333333E33F0000000000000F90107902409070040501000000000018199010841D405064090740C02480A0340
1001
ACAD
1000
AcDbSavedByObjectVersion
1070
     0
  0
ACAD_PROXY_OBJECT
  5
555D
102
{ACAD_REACTORS
330
5552
102
}
330
5552
100
AcDbProxyObject
 90
      499
 91
      505
 93
      412
310
40D11A5B50B409028333333333333E33F0000000000000F9010790141107004050150841D405064090741402480A02677FFFFFD0
1001
ACAD
1000
AcDbSavedByObjectVersion
1070
     0
  0
ACAD_PROXY_OBJECT
  5
5565
102
{ACAD_REACTORS
330
5552
102
}
330
5552
100
AcDbProxyObject
 90
      499
 91
      505
 93
      452
310
43115919D950DBDB1BDC93D999916409028333333333333E33F0000000000000F9010790141107004050150841D405064090741402480A0350
1001
ACAD
1000
AcDbSavedByObjectVersion
1070
     0
  0
ACAD_PROXY_OBJECT
  5
5561
102
{ACAD_REACTORS
330
5552
102
}
330
5552
100
AcDbProxyObject
 90
      499
 91
      505
 93
      444
310
42D19858D95C185D1D195C9B90F409028333333333333E33F0000000000000F9010790141107004050150841D405064090741402480A0350
1001
ACAD
1000
AcDbSavedByObjectVersion
1070
     0
  0
ACAD_PROXY_OBJECT
  5
5553
102
{ACAD_REACTORS
330
5552
102
}
330
5552
100
AcDbProxyObject
 90
      499
 91
      505
 93
      380
310
41119B185D240901404333333333333E33F0000000000000F9010740A907004050150841D405064090741402480A1B50
1001
ACAD
1000
AcDbSavedByObjectVersion
1070
     0
  0
ACAD_PROXY_OBJECT
  5
5554
102
{ACAD_REACTORS
330
5552
102
}
330
5552
100
AcDbProxyObject
 90
      499
 91
      505
 93
      468
310
43519B185D15DA5D1A115919D95CD0140901404333333333333E33F0000000000000F90107409019070040501600405405064090741402480A1B50
1001
ACAD
1000
AcDbSavedByObjectVersion
1070
     0
  0
ACAD_PROXY_OBJECT
  5
5555
102
{ACAD_REACTORS
330
5552
102
}
330
5552
100
AcDbProxyObject
 90
      499
 91
      505
 93
      404
310
41D1DBDD5C985D5910240902404333333333333E33F0000000000000F9010740A9070040501641D405064090741402480A1B50
1001
ACAD
1000
AcDbSavedByObjectVersion
1070
     0
  0
ACAD_PROXY_OBJECT
  5
5556
102
{ACAD_REACTORS
330
5552
102
}
330
5552
100
AcDbProxyObject
 90
      499
 91
      505
 93
      492
310
4411DBDD5C985D5915DA5D1A115919D95CD0340902404333333333333E33F0000000000000F90107409019070040501600405405064090741402480A1B50
1001
ACAD
1000
AcDbSavedByObjectVersion
1070
     0
  0
ACAD_PROXY_OBJECT
  5
5559
102
{ACAD_REACTORS
330
5552
102
}
330
5552
100
AcDbProxyObject
 90
      499
 91
      505
 93
      476
310
41921A5919195B90640502408333333333333E33F0000000000000F901079024090700405020000000000001110200405405064090740C02480A0340
1001
ACAD
1000
AcDbSavedByObjectVersion
1070
     0
  0
ACAD_PROXY_OBJECT
  5
5563
102
{ACAD_REACTORS
330
5552
102
}
330
5552
100
AcDbProxyObject
 90
      499
 91
      505
 93
      428
310
42529A5D1D195C93D999914409028333333333333E33F0000000000000F9010790141107004050150A41D405064090741402480A0350
1001
ACAD
1000
AcDbSavedByObjectVersion
1070
     0
  0
ACAD_PROXY_OBJECT
  5
5560
102
{ACAD_REACTORS
330
5552
102
}
330
5552
100
AcDbProxyObject
 90
      499
 91
      505
 93
      444
310
42D31A5B995C185D1D195C9B90E409028333333333333E33F0000000000000F9010790141107004050750841D405064090741402483A0350
1001
ACAD
1000
AcDbSavedByObjectVersion
1070
     0
  0
ACAD_PROXY_OBJECT
  5
5593
102
{ACAD_REACTORS
330
5552
102
}
330
5552
100
AcDbProxyObject
 90
      499
 91
      505
 93
      412
310
90A409038333333333333E33F0000000000000F901074090290700405010000000000201990108421405064090741402480A1B40
1001
ACAD
1000
AcDbSavedByObjectVersion
1070
     0
  0
ACAD_PROXY_OBJECT
  5
5564
102
{ACAD_REACTORS
330
5552
102
}
330
5552
100
AcDbProxyObject
 90
      499
 91
      505
 93
      444
310
42D3DD995C9A185B99D3D999915409028333333333333E33F0000000000000F9010790141107004050150941D405064090741402480A0350
1001
ACAD
1000
AcDbSavedByObjectVersion
1070
     0
  0
ACAD_PROXY_OBJECT
  5
555B
102
{ACAD_REACTORS
330
5552
102
}
330
5552
100
AcDbProxyObject
 90
      499
 91
      505
 93
      428
310
425499585B1A5CDD1A58D08409038333333333333E33F0000000000000F9010740A907004050150800405405064090740C02480A1B40
1001
ACAD
1000
AcDbSavedByObjectVersion
1070
     0
  0
ACAD_PROXY_OBJECT
  5
556A
102
{ACAD_REACTORS
330
5552
102
}
330
5552
100
AcDbProxyObject
 90
      499
 91
      505
 93
      420
310
4194DA1859195911B40902404333333333333E33F0000000000000F9010740A41107004050150800405405064090840C02480A0B40
1001
ACAD
1000
AcDbSavedByObjectVersion
1070
     0
  0
ACAD_PROXY_OBJECT
  5
5569
102
{ACAD_REACTORS
330
5552
102
}
330
5552
100
AcDbProxyObject
 90
      499
 91
      505
 93
      516
310
4454DA18591959081DDA5D1A08195919D95CD1A40902404333333333333E33F0000000000000F901074090142907004050250800405405064090740C02480A0B40
1001
ACAD
1000
AcDbSavedByObjectVersion
1070
     0
  0
ACAD_PROXY_OBJECT
  5
5566
102
{ACAD_REACTORS
330
5552
102
}
330
5552
100
AcDbProxyObject
 90
      499
 91
      505
 93
      532
310
4394DA1859195CC81BD98811DC985E5174090240C333333333333E33F0000000000000F901079024090741D01000000000000111010841D405064090740C02480A0340
1001
ACAD
1000
AcDbSavedByObjectVersion
1070
     0
  0
ACAD_PROXY_OBJECT
  5
5567
102
{ACAD_REACTORS
330
5552
102
}
330
5552
100
AcDbProxyObject
 90
      499
 91
      505
 93
      476
310
41D4DAD95D18DA1E51840502408333333333333E33F0000000000000F901079024090741D01000000000000111010B41D405064090741802480A0340
1001
ACAD
1000
AcDbSavedByObjectVersion
1070
     0
  0
ACAD_PROXY_OBJECT
  5
555F
102
{ACAD_REACTORS
330
5552
102
}
330
5552
100
AcDbProxyObject
 90
      499
 91
      505
 93
      412
310
41D51A1A58DAD95B90D409028333333333333E33F0000000000000F9010790141107004050150C41D405064090741402480A0350
1001
ACAD
1000
AcDbSavedByObjectVersion
1070
     0
  0
ACAD_PROXY_OBJECT
  5
5558
102
{ACAD_REACTORS
330
5552
102
}
330
5552
100
AcDbProxyObject
 90
      499
 91
      505
 93
      420
310
4255DA5C99599C985B595059028333333333333E33F0000000000000F90107901411070040501600405405064090740C02480A0340
1001
ACAD
1000
AcDbSavedByObjectVersion
1070
     0
  0
ACAD_PROXY_OBJECT
  5
5568
102
{ACAD_REACTORS
330
5552
102
}
330
5552
100
AcDbProxyObject
 90
      499
 91
      505
 93
      404
310
41560B54985E51940902404000000000000E03F0000000000000F9010740501907004050150841D405064090740C02480A1B40
1001
ACAD
1000
AcDbSavedByObjectVersion
1070
     0
  0
XRECORD
  5
59C9
102
{ACAD_REACTORS
330
59BF
102
}
330
59BF
100
AcDbXrecord
340
0
  0
XRECORD
  5
59C8
102
{ACAD_REACTORS
330
59BF
102
}
330
59BF
100
AcDbXrecord
 90
        0
  0
XRECORD
  5
59E2
102
{ACAD_REACTORS
330
59BF
102
}
330
59BF
100
AcDbXrecord
340
2948
  0
XRECORD
  5
59DF
102
{ACAD_REACTORS
330
59BF
102
}
330
59BF
100
AcDbXrecord
1000
DSTYLE
1002
{
1070
   171
 70
     2
1070
   143
 40
0.0394
1070
   274
 70
     2
1070
    41
 40
6.0
1070
   342
340
2AF4
1070
   271
 70
     1
1070
   278
 70
    46
1070
   341
340
2AF4
1070
   272
 70
     1
1070
    48
 40
0.1
1070
   283
 70
     1
1070
    47
 40
0.1
1070
   145
 40
1.0
1070
   340
340
10
1070
   140
 40
5.0
1070
   284
 70
     0
1002
}
  0
XRECORD
  5
59CA
102
{ACAD_REACTORS
330
59BF
102
}
330
59BF
100
AcDbXrecord
  1
{23698909-1D67-4744-B0E2-8DE11E3ED422}
  0
XRECORD
  5
59C2
102
{ACAD_REACTORS
330
59BF
102
}
330
59BF
100
AcDbXrecord
  1

  0
XRECORD
  5
59C7
102
{ACAD_REACTORS
330
59BF
102
}
330
59BF
100
AcDbXrecord
 90
        0
  0
XRECORD
  5
59C4
102
{ACAD_REACTORS
330
59BF
102
}
330
59BF
100
AcDbXrecord
340
2816
  0
XRECORD
  5
59C6
102
{ACAD_REACTORS
330
59BF
102
}
330
59BF
100
AcDbXrecord
 90
    10781
  0
XRECORD
  5
59E3
102
{ACAD_REACTORS
330
59BF
102
}
330
59BF
100
AcDbXrecord
340
2947
  0
XRECORD
  5
59C5
102
{ACAD_REACTORS
330
59BF
102
}
330
59BF
100
AcDbXrecord
340
2817
  0
XRECORD
  5
59CC
102
{ACAD_REACTORS
330
59BF
102
}
330
59BF
100
AcDbXrecord
 40
0.25
  0
XRECORD
  5
59CF
102
{ACAD_REACTORS
330
59BF
102
}
330
59BF
100
AcDbXrecord
340
0
  0
XRECORD
  5
59D5
102
{ACAD_REACTORS
330
59BF
102
}
330
59BF
100
AcDbXrecord
 10
0.0
 20
0.0
 30
0.0
  0
XRECORD
  5
59D1
102
{ACAD_REACTORS
330
59BF
102
}
330
59BF
100
AcDbXrecord
 10
0.0
 20
0.0
 30
0.0
  0
XRECORD
  5
59D4
102
{ACAD_REACTORS
330
59BF
102
}
330
59BF
100
AcDbXrecord
 10
0.0
 20
0.0
 30
0.0
  0
XRECORD
  5
59D2
102
{ACAD_REACTORS
330
59BF
102
}
330
59BF
100
AcDbXrecord
 10
0.0
 20
0.0
 30
0.0
  0
XRECORD
  5
59D3
102
{ACAD_REACTORS
330
59BF
102
}
330
59BF
100
AcDbXrecord
 10
0.0
 20
0.0
 30
0.0
  0
XRECORD
  5
59D0
102
{ACAD_REACTORS
330
59BF
102
}
330
59BF
100
AcDbXrecord
 10
0.0
 20
0.0
 30
0.0
  0
XRECORD
  5
59CD
102
{ACAD_REACTORS
330
59BF
102
}
330
59BF
100
AcDbXrecord
340
0
  0
XRECORD
  5
59CE
102
{ACAD_REACTORS
330
59BF
102
}
330
59BF
100
AcDbXrecord
 70
     0
  0
XRECORD
  5
59C3
102
{ACAD_REACTORS
330
59BF
102
}
330
59BF
100
AcDbXrecord
  1

  0
XRECORD
  5
59C0
102
{ACAD_REACTORS
330
59BF
102
}
330
59BF
100
AcDbXrecord
 90
        1
  0
XRECORD
  5
59C1
102
{ACAD_REACTORS
330
59BF
102
}
330
59BF
100
AcDbXrecord
 90
       70
  0
XRECORD
  5
59D8
102
{ACAD_REACTORS
330
59BF
102
}
330
59BF
100
AcDbXrecord
340
0
  0
XRECORD
  5
59DE
102
{ACAD_REACTORS
330
59BF
102
}
330
59BF
100
AcDbXrecord
 10
0.0
 20
0.0
 30
0.0
  0
XRECORD
  5
59DA
102
{ACAD_REACTORS
330
59BF
102
}
330
59BF
100
AcDbXrecord
 10
0.0
 20
0.0
 30
0.0
  0
XRECORD
  5
59DD
102
{ACAD_REACTORS
330
59BF
102
}
330
59BF
100
AcDbXrecord
 10
0.0
 20
0.0
 30
0.0
  0
XRECORD
  5
59DB
102
{ACAD_REACTORS
330
59BF
102
}
330
59BF
100
AcDbXrecord
 10
0.0
 20
0.0
 30
0.0
  0
XRECORD
  5
59DC
102
{ACAD_REACTORS
330
59BF
102
}
330
59BF
100
AcDbXrecord
 10
0.0
 20
0.0
 30
0.0
  0
XRECORD
  5
59D9
102
{ACAD_REACTORS
330
59BF
102
}
330
59BF
100
AcDbXrecord
 10
0.0
 20
0.0
 30
0.0
  0
XRECORD
  5
59D6
102
{ACAD_REACTORS
330
59BF
102
}
330
59BF
100
AcDbXrecord
340
0
  0
XRECORD
  5
59D7
102
{ACAD_REACTORS
330
59BF
102
}
330
59BF
100
AcDbXrecord
 70
     0
  0
XRECORD
  5
59CB
102
{ACAD_REACTORS
330
59BF
102
}
330
59BF
100
AcDbXrecord
  1
{21C23D79-673D-4045-AC9A-72A67F7C4E0F}
  0
DICTIONARYVAR
  5
55B8
102
{ACAD_REACTORS
330
55B7
102
}
330
55B7
100
DictionaryVariables
280
     0
  1
1:1
  0
DICTIONARYVAR
  5
55F9
102
{ACAD_REACTORS
330
55B7
102
}
330
55B7
100
DictionaryVariables
280
     0
  1
Standard
  0
DICTIONARYVAR
  5
55F8
102
{ACAD_REACTORS
330
55B7
102
}
330
55B7
100
DictionaryVariables
280
     0
  1
Standard
  0
DICTIONARYVAR
  5
59E0
102
{ACAD_REACTORS
330
55B7
102
}
330
55B7
100
DictionaryVariables
280
     0
  1
1
  0
DICTIONARYVAR
  5
59E1
102
{ACAD_REACTORS
330
55B7
102
}
330
55B7
100
DictionaryVariables
280
     0
  1
0
  0
DICTIONARYVAR
  5
55FA
102
{ACAD_REACTORS
330
55B7
102
}
330
55B7
100
DictionaryVariables
280
     0
  1
0
  0
DICTIONARYVAR
  5
55FB
102
{ACAD_REACTORS
330
55B7
102
}
330
55B7
100
DictionaryVariables
280
     0
  1
0
  0
DICTIONARY
  5
585C
102
{ACAD_REACTORS
330
585B
102
}
330
585B
100
AcDbDictionary
  0
DICTIONARY
  5
59BE
102
{ACAD_REACTORS
330
59BD
102
}
330
59BD
100
AcDbDictionary
  0
DICTIONARY
  5
5967
102
{ACAD_REACTORS
330
5966
102
}
330
5966
100
AcDbDictionary
  0
DICTIONARY
  5
59B0
102
{ACAD_REACTORS
330
59AF
102
}
330
59AF
100
AcDbDictionary
  0
DICTIONARY
  5
59A4
102
{ACAD_REACTORS
330
59A3
102
}
330
59A3
100
AcDbDictionary
  0
DICTIONARY
  5
59B4
102
{ACAD_REACTORS
330
59B3
102
}
330
59B3
100
AcDbDictionary
  0
DICTIONARY
  5
59B7
102
{ACAD_REACTORS
330
59B6
102
}
330
59B6
100
AcDbDictionary
  0
DICTIONARY
  5
59BA
102
{ACAD_REACTORS
330
59B9
102
}
330
59B9
100
AcDbDictionary
  0
DICTIONARY
  5
59EC
330
558E
100
AcDbDictionary
280
     1
  3
ACAD_XREC_ROUNDTRIP
360
59ED
  0
DICTIONARY
  5
59EA
330
558D
100
AcDbDictionary
280
     1
  3
ACAD_XREC_ROUNDTRIP
360
59EB
  0
DICTIONARY
  5
59E8
330
4C3D
100
AcDbDictionary
280
     1
  3
ACAD_XREC_ROUNDTRIP
360
59E9
  0
XRECORD
  5
59ED
102
{ACAD_REACTORS
330
59EC
102
}
330
59EC
100
AcDbXrecord
102
MATERIAL
148
0.0
149
0.0
149
0.0
 93
        0
 94
      127
282
     0
 72
     1
 77
     1
171
     1
175
     1
179
     1
273
     0
  0
XRECORD
  5
59EB
102
{ACAD_REACTORS
330
59EA
102
}
330
59EA
100
AcDbXrecord
102
MATERIAL
148
0.0
149
0.0
149
0.0
 93
        0
 94
      127
282
     0
 72
     1
 77
     1
171
     1
175
     1
179
     1
273
     0
  0
XRECORD
  5
59E9
102
{ACAD_REACTORS
330
59E8
102
}
330
59E8
100
AcDbXrecord
102
MATERIAL
148
0.0
149
0.0
149
0.0
 93
        0
 94
      127
282
     0
 72
     1
 77
     1
171
     1
175
     1
179
     1
273
     0
  0
ENDSEC
  0
EOF
