  0
SECTION
  2
HEADER
  9
$ACADVER
  1
AC1014
  9
$ACADMAINTVER
 70
     9
  9
$DWGCODEPAGE
  3
ANSI_932
  9
$INSBASE
 10
0.0
 20
0.0
 30
0.0
  9
$EXTMIN
 10
658.290590341128
 20
789.659006197142
 30
0.0
  9
$EXTMAX
 10
1390.118113167804
 20
1190.355235897382
 30
0.0
  9
$LIMMIN
 10
-360.747566795242
 20
4.457354754526
  9
$LIMMAX
 10
-162.153696144267
 20
287.675440264018
  9
$ORTHOMODE
 70
     0
  9
$REGENMODE
 70
     1
  9
$FILLMODE
 70
     1
  9
$QTEXTMODE
 70
     0
  9
$MIRRTEXT
 70
     1
  9
$DRAGMODE
 70
     2
  9
$LTSCALE
 40
1.0
  9
$OSMODE
 70
   935
  9
$ATTMODE
 70
     1
  9
$TEXTSIZE
 40
2.333873885063
  9
$TRACEWID
 40
1.0
  9
$TEXTSTYLE
  7
STANDARD
  9
$CLAYER
  8
寸法線
  9
$CELTYPE
  6
BYLAYER
  9
$CECOLOR
 62
   256
  9
$CELTSCALE
 40
10.0
  9
$DELOBJ
 70
     1
  9
$DISPSILH
 70
     0
  9
$DIMSCALE
 40
1.0
  9
$DIMASZ
 40
6.0
  9
$DIMEXO
 40
0.625
  9
$DIMDLI
 40
3.75
  9
$DIMRND
 40
0.0
  9
$DIMDLE
 40
0.0
  9
$DIMEXE
 40
1.25
  9
$DIMTP
 40
0.1
  9
$DIMTM
 40
0.1
  9
$DIMTXT
 40
5.0
  9
$DIMCEN
 40
2.5
  9
$DIMTSZ
 40
0.0
  9
$DIMTOL
 70
     0
  9
$DIMLIM
 70
     0
  9
$DIMTIH
 70
     0
  9
$DIMTOH
 70
     0
  9
$DIMSE1
 70
     0
  9
$DIMSE2
 70
     0
  9
$DIMTAD
 70
     1
  9
$DIMZIN
 70
     8
  9
$DIMBLK
  1
OPEN30
  9
$DIMASO
 70
     1
  9
$DIMSHO
 70
     1
  9
$DIMPOST
  1

  9
$DIMAPOST
  1

  9
$DIMALT
 70
     0
  9
$DIMALTD
 70
     2
  9
$DIMALTF
 40
0.0394
  9
$DIMLFAC
 40
1.0
  9
$DIMTOFL
 70
     1
  9
$DIMTVP
 40
1.0
  9
$DIMTIX
 70
     0
  9
$DIMSOXD
 70
     0
  9
$DIMSAH
 70
     0
  9
$DIMBLK1
  1

  9
$DIMBLK2
  1

  9
$DIMSTYLE
  2
ISO-25
  9
$DIMCLRD
 70
     0
  9
$DIMCLRE
 70
     0
  9
$DIMCLRT
 70
     0
  9
$DIMTFAC
 40
1.0
  9
$DIMGAP
 40
0.625
  9
$DIMJUST
 70
     0
  9
$DIMSD1
 70
     0
  9
$DIMSD2
 70
     0
  9
$DIMTOLJ
 70
     1
  9
$DIMTZIN
 70
     0
  9
$DIMALTZ
 70
     0
  9
$DIMALTTZ
 70
     0
  9
$DIMFIT
 70
     3
  9
$DIMUPT
 70
     0
  9
$DIMUNIT
 70
     2
  9
$DIMDEC
 70
     1
  9
$DIMTDEC
 70
     1
  9
$DIMALTU
 70
     2
  9
$DIMALTTD
 70
     2
  9
$DIMTXSTY
  7
STANDARD
  9
$DIMAUNIT
 70
     0
  9
$LUNITS
 70
     2
  9
$LUPREC
 70
     4
  9
$SKETCHINC
 40
1.0
  9
$FILLETRAD
 40
6.5
  9
$AUNITS
 70
     0
  9
$AUPREC
 70
     0
  9
$MENU
  1
.
  9
$ELEVATION
 40
0.0
  9
$PELEVATION
 40
0.0
  9
$THICKNESS
 40
0.0
  9
$LIMCHECK
 70
     0
  9
$CHAMFERA
 40
10.0
  9
$CHAMFERB
 40
10.0
  9
$CHAMFERC
 40
20.0
  9
$CHAMFERD
 40
0.0
  9
$SKPOLY
 70
     0
  9
$TDCREATE
 40
2450576.597302431
  9
$TDUPDATE
 40
2457269.373497685
  9
$TDINDWG
 40
1.2634014699
  9
$TDUSRTIMER
 40
1.2634014699
  9
$USRTIMER
 70
     1
  9
$ANGBASE
 50
0.0
  9
$ANGDIR
 70
     0
  9
$PDMODE
 70
     0
  9
$PDSIZE
 40
0.0
  9
$PLINEWID
 40
0.0
  9
$COORDS
 70
     0
  9
$SPLFRAME
 70
     0
  9
$SPLINETYPE
 70
     6
  9
$SPLINESEGS
 70
     8
  9
$ATTDIA
 70
     0
  9
$ATTREQ
 70
     1
  9
$HANDLING
 70
     1
  9
$HANDSEED
  5
59D9
  9
$SURFTAB1
 70
     6
  9
$SURFTAB2
 70
     6
  9
$SURFTYPE
 70
     6
  9
$SURFU
 70
     6
  9
$SURFV
 70
     6
  9
$UCSNAME
  2

  9
$UCSORG
 10
0.0
 20
0.0
 30
0.0
  9
$UCSXDIR
 10
1.0
 20
0.0
 30
0.0
  9
$UCSYDIR
 10
0.0
 20
1.0
 30
0.0
  9
$PUCSNAME
  2

  9
$PUCSORG
 10
0.0
 20
0.0
 30
0.0
  9
$PUCSXDIR
 10
1.0
 20
0.0
 30
0.0
  9
$PUCSYDIR
 10
0.0
 20
1.0
 30
0.0
  9
$USERI1
 70
     0
  9
$USERI2
 70
     0
  9
$USERI3
 70
     0
  9
$USERI4
 70
     0
  9
$USERI5
 70
     0
  9
$USERR1
 40
0.0
  9
$USERR2
 40
0.0
  9
$USERR3
 40
0.0
  9
$USERR4
 40
0.0
  9
$USERR5
 40
0.0
  9
$WORLDVIEW
 70
     1
  9
$SHADEDGE
 70
     3
  9
$SHADEDIF
 70
    70
  9
$TILEMODE
 70
     0
  9
$MAXACTVP
 70
    16
  9
$PINSBASE
 10
0.0
 20
0.0
 30
0.0
  9
$PLIMCHECK
 70
     0
  9
$PEXTMIN
 10
4.746305129083
 20
1.396645458131
 30
0.0
  9
$PEXTMAX
 10
404.746305129083
 20
281.396645458131
 30
0.0
  9
$PLIMMIN
 10
-6.946593322754
 20
-6.94658241272
  9
$PLIMMAX
 10
417.718108215332
 20
293.315276107788
  9
$UNITMODE
 70
     0
  9
$VISRETAIN
 70
     0
  9
$PLINEGEN
 70
     0
  9
$PSLTSCALE
 70
     1
  9
$TREEDEPTH
 70
  3020
  9
$PICKSTYLE
 70
     1
  9
$CMLSTYLE
  2
STANDARD
  9
$CMLJUST
 70
     0
  9
$CMLSCALE
 40
1.0
  9
$PROXYGRAPHICS
 70
     1
  9
$MEASUREMENT
 70
     1
  0
ENDSEC
  0
SECTION
  2
CLASSES
  0
CLASS
  1
ACDBDICTIONARYWDFLT
  2
AcDbDictionaryWithDefault
  3
ObjectDBX Classes
 90
        0
280
     0
281
     0
  0
CLASS
  1
ACDBPLACEHOLDER
  2
AcDbPlaceHolder
  3
ObjectDBX Classes
 90
        0
280
     0
281
     0
  0
CLASS
  1
LAYOUT
  2
AcDbLayout
  3
ObjectDBX Classes
 90
        0
280
     0
281
     0
  0
CLASS
  1
SORTENTSTABLE
  2
AcDbSortentsTable
  3
ObjectDBX Classes
 90
        0
280
     0
281
     0
  0
CLASS
  1
VISUALSTYLE
  2
AcDbVisualStyle
  3
ObjectDBX Classes
 90
     4095
280
     0
281
     0
  0
CLASS
  1
SCALE
  2
AcDbScale
  3
ObjectDBX Classes
 90
     1153
280
     0
281
     0
  0
CLASS
  1
MATERIAL
  2
AcDbMaterial
  3
ObjectDBX Classes
 90
     1153
280
     0
281
     0
  0
CLASS
  1
TABLESTYLE
  2
AcDbTableStyle
  3
ObjectDBX Classes
 90
     4095
280
     0
281
     0
  0
CLASS
  1
MLEADERSTYLE
  2
AcDbMLeaderStyle
  3
ACDB_MLEADERSTYLE_CLASS
 90
     4095
280
     0
281
     0
  0
CLASS
  1
SUN
  2
AcDbSun
  3
SCENEOE
 90
     1153
280
     0
281
     0
  0
CLASS
  1
DICTIONARYVAR
  2
AcDbDictionaryVar
  3
ObjectDBX Classes
 90
        0
280
     0
281
     0
  0
CLASS
  1
CELLSTYLEMAP
  2
AcDbCellStyleMap
  3
ObjectDBX Classes
 90
     1152
280
     0
281
     0
  0
CLASS
  1
XRECORD
  2
AcDbXrecord
  3
ObjectDBX Classes
 90
        0
280
     0
281
     0
  0
CLASS
  1
LWPOLYLINE
  2
AcDbPolyline
  3
ObjectDBX Classes
 90
        0
280
     0
281
     1
  0
CLASS
  1
HATCH
  2
AcDbHatch
  3
ObjectDBX Classes
 90
        0
280
     0
281
     1
  0
ENDSEC
  0
SECTION
  2
TABLES
  0
TABLE
  2
VPORT
  5
8
102
{ACAD_XDICTIONARY
360
59D1
102
}
330
0
100
AcDbSymbolTable
 70
     1
  0
VPORT
  5
4D19
330
8
100
AcDbSymbolTableRecord
100
AcDbViewportTableRecord
  2
*ACTIVE
 70
     0
 10
0.0
 20
0.0
 11
1.0
 21
1.0
 12
1024.204351754466
 22
990.007121047262
 13
0.0
 23
0.0
 14
1.0
 24
1.0
 15
0.0
 25
0.0
 16
0.0
 26
0.0
 36
1.0
 17
0.0
 27
0.0
 37
0.0
 40
408.710154294245
 41
1.839224629418
 42
50.0
 43
0.0
 44
0.0
 50
0.0
 51
0.0
 71
    16
 72
   100
 73
     1
 74
     0
 75
     0
 76
     0
 77
     0
 78
     0
  0
ENDTAB
  0
TABLE
  2
LTYPE
  5
5
330
0
100
AcDbSymbolTable
 70
     4
  0
LTYPE
  5
14
330
5
100
AcDbSymbolTableRecord
100
AcDbLinetypeTableRecord
  2
BYBLOCK
 70
     0
  3

 72
    65
 73
     0
 40
0.0
  0
LTYPE
  5
15
330
5
100
AcDbSymbolTableRecord
100
AcDbLinetypeTableRecord
  2
BYLAYER
 70
     0
  3

 72
    65
 73
     0
 40
0.0
  0
LTYPE
  5
16
330
5
100
AcDbSymbolTableRecord
100
AcDbLinetypeTableRecord
  2
CONTINUOUS
 70
     0
  3
Solid line
 72
    65
 73
     0
 40
0.0
  0
LTYPE
  5
1EC
330
5
100
AcDbSymbolTableRecord
100
AcDbLinetypeTableRecord
  2
CENTER
 70
     0
  3
____ _ ____ _ ____ _ ____ _ ____ _ ____ _ ____ 
 72
    65
 73
     4
 40
2.0
 49
1.25
 74
     0
 49
-0.25
 74
     0
 49
0.25
 74
     0
 49
-0.25
 74
     0
  0
LTYPE
  5
1ED
330
5
100
AcDbSymbolTableRecord
100
AcDbLinetypeTableRecord
  2
DASHED
 70
     0
  3
__ __ __ __ __ __ __ __ __ __ __ __ __ __ __ __
 72
    65
 73
     2
 40
0.75
 49
0.5
 74
     0
 49
-0.25
 74
     0
  0
LTYPE
  5
2B1F
330
5
100
AcDbSymbolTableRecord
100
AcDbLinetypeTableRecord
  2
DASHDOT
 70
     0
  3
一点鎖線
 72
    65
 73
     4
 40
25.6
 49
20.0
 74
     0
 49
-2.0
 74
     0
 49
1.6
 74
     0
 49
-2.0
 74
     0
  0
ENDTAB
  0
TABLE
  2
LAYER
  5
2
102
{ACAD_XDICTIONARY
360
29EA
102
}
330
0
100
AcDbSymbolTable
 70
    16
  0
LAYER
  5
F
330
2
100
AcDbSymbolTableRecord
100
AcDbLayerTableRecord
  2
0
 70
     0
 62
     7
  6
CONTINUOUS
  0
LAYER
  5
61
330
2
100
AcDbSymbolTableRecord
100
AcDbLayerTableRecord
  2
図枠太線
 70
     0
 62
   251
  6
CONTINUOUS
  0
LAYER
  5
62
330
2
100
AcDbSymbolTableRecord
100
AcDbLayerTableRecord
  2
図枠細線
 70
     0
 62
   252
  6
CONTINUOUS
  0
LAYER
  5
63
330
2
100
AcDbSymbolTableRecord
100
AcDbLayerTableRecord
  2
図枠ロゴマーク
 70
     0
 62
   253
  6
CONTINUOUS
  0
LAYER
  5
1EF
330
2
100
AcDbSymbolTableRecord
100
AcDbLayerTableRecord
  2
外形線
 70
     0
 62
     7
  6
CONTINUOUS
  0
LAYER
  5
1F0
330
2
100
AcDbSymbolTableRecord
100
AcDbLayerTableRecord
  2
寸法線
 70
     0
 62
     1
  6
CONTINUOUS
  0
LAYER
  5
1F1
330
2
100
AcDbSymbolTableRecord
100
AcDbLayerTableRecord
  2
中心線
 70
     0
 62
     4
  6
CENTER
  0
LAYER
  5
1F4
330
2
100
AcDbSymbolTableRecord
100
AcDbLayerTableRecord
  2
DEFPOINTS
 70
     0
 62
     7
  6
CONTINUOUS
  0
LAYER
  5
2AA2
330
2
100
AcDbSymbolTableRecord
100
AcDbLayerTableRecord
  2
下書線
 70
     0
 62
     2
  6
CONTINUOUS
  0
LAYER
  5
2AA3
330
2
100
AcDbSymbolTableRecord
100
AcDbLayerTableRecord
  2
隠れ線
 70
     0
 62
     3
  6
DASHED
  0
LAYER
  5
2AA4
330
2
100
AcDbSymbolTableRecord
100
AcDbLayerTableRecord
  2
細線
 70
     0
 62
     6
  6
CONTINUOUS
  0
LAYER
  5
2AA5
330
2
100
AcDbSymbolTableRecord
100
AcDbLayerTableRecord
  2
太線
 70
     0
 62
   190
  6
CONTINUOUS
  0
LAYER
  5
2B20
330
2
100
AcDbSymbolTableRecord
100
AcDbLayerTableRecord
  2
LAY-1
 70
     0
 62
     7
  6
CONTINUOUS
  0
LAYER
  5
2B21
330
2
100
AcDbSymbolTableRecord
100
AcDbLayerTableRecord
  2
LAY-2
 70
     0
 62
     7
  6
CONTINUOUS
  0
LAYER
  5
2B22
330
2
100
AcDbSymbolTableRecord
100
AcDbLayerTableRecord
  2
LAY-5
 70
     0
 62
     7
  6
CONTINUOUS
  0
LAYER
  5
2B23
330
2
100
AcDbSymbolTableRecord
100
AcDbLayerTableRecord
  2
LAY-6
 70
     0
 62
     7
  6
CONTINUOUS
  0
ENDTAB
  0
TABLE
  2
STYLE
  5
3
330
0
100
AcDbSymbolTable
 70
     2
  0
STYLE
  5
10
330
3
100
AcDbSymbolTableRecord
100
AcDbTextStyleTableRecord
  2
STANDARD
 70
     0
 40
0.0
 41
1.0
 50
0.0
 71
     0
 42
2.333873885063
  3
ISOCP
  4
bigfont.shx
  0
STYLE
  5
64
330
3
100
AcDbSymbolTableRecord
100
AcDbTextStyleTableRecord
  2
EXCADSTD
 70
     0
 40
0.0
 41
1.0
 50
0.0
 71
     0
 42
0.2
  3
monotxt
  4
bigfont
  0
ENDTAB
  0
TABLE
  2
VIEW
  5
6
330
0
100
AcDbSymbolTable
 70
     0
  0
ENDTAB
  0
TABLE
  2
UCS
  5
7
330
0
100
AcDbSymbolTable
 70
     0
  0
ENDTAB
  0
TABLE
  2
APPID
  5
9
330
0
100
AcDbSymbolTable
 70
     3
  0
APPID
  5
11
330
9
100
AcDbSymbolTableRecord
100
AcDbRegAppTableRecord
  2
ACAD
 70
     0
  0
APPID
  5
4D73
330
9
100
AcDbSymbolTableRecord
100
AcDbRegAppTableRecord
  2
ACADANNOTATIVE
 70
     0
  0
APPID
  5
50DA
330
9
100
AcDbSymbolTableRecord
100
AcDbRegAppTableRecord
  2
ACAD_MLEADERVER
 70
     0
  0
ENDTAB
  0
TABLE
  2
DIMSTYLE
  5
A
330
0
100
AcDbSymbolTable
 70
     2
  0
DIMSTYLE
105
1D
330
A
100
AcDbSymbolTableRecord
100
AcDbDimStyleTableRecord
  2
STANDARD
 70
     0
  3

  4

  5

  6

  7

 40
1.0
 41
0.18
 42
0.0625
 43
0.38
 44
0.18
 45
0.0
 46
0.0
 47
0.0
 48
0.0
140
0.18
141
0.09
142
0.0
143
25.4
144
1.0
145
0.0
146
1.0
147
0.09
 71
     0
 72
     0
 73
     1
 74
     1
 75
     0
 76
     0
 77
     0
 78
     0
170
     0
171
     2
172
     0
173
     0
174
     0
175
     0
176
     0
177
     0
178
     0
270
     2
271
     4
272
     4
273
     2
274
     2
340
10
275
     0
280
     0
281
     0
282
     0
283
     1
284
     0
285
     0
286
     0
287
     3
288
     0
  0
DIMSTYLE
105
24
102
{ACAD_REACTORS
330
4AC1
330
4AC0
330
4ABD
330
4A20
330
4A1F
330
4C84
330
4C91
330
4CB9
330
4CDD
102
}
330
A
100
AcDbSymbolTableRecord
100
AcDbDimStyleTableRecord
  2
ISO-25
 70
     0
  3

  4

  5

  6

  7

 40
1.0
 41
2.5
 42
0.625
 43
3.75
 44
1.25
 45
0.0
 46
0.0
 47
0.0
 48
0.0
140
2.5
141
2.5
142
0.0
143
0.0394
144
1.0
145
1.0
146
1.0
147
0.625
 71
     0
 72
     0
 73
     1
 74
     0
 75
     0
 76
     0
 77
     1
 78
     8
170
     0
171
     2
172
     1
173
     0
174
     0
175
     0
176
     0
177
     0
178
     0
270
     2
271
     4
272
     4
273
     2
274
     2
340
10
275
     0
280
     0
281
     0
282
     0
283
     1
284
     0
285
     0
286
     0
287
     3
288
     0
  0
ENDTAB
  0
TABLE
  2
BLOCK_RECORD
  5
1
330
0
100
AcDbSymbolTable
 70
    15
  0
BLOCK_RECORD
  5
1A
330
1
100
AcDbSymbolTableRecord
100
AcDbBlockTableRecord
  2
*MODEL_SPACE
  0
BLOCK_RECORD
  5
28FB
330
1
100
AcDbSymbolTableRecord
100
AcDbBlockTableRecord
  2
*PAPER_SPACE
  0
BLOCK_RECORD
  5
65
330
1
100
AcDbSymbolTableRecord
100
AcDbBlockTableRecord
  2
A$C3392
  0
BLOCK_RECORD
  5
29BF
330
1
100
AcDbSymbolTableRecord
100
AcDbBlockTableRecord
  2
A4横用_タイトル
1001
ACAD
1000
DesignCenter Data
1002
{
1070
     1
1070
     4
1002
}
  0
BLOCK_RECORD
  5
29F4
330
1
100
AcDbSymbolTableRecord
100
AcDbBlockTableRecord
  2
A4縦用_タイトル
1001
ACAD
1000
DesignCenter Data
1002
{
1070
     1
1070
     4
1002
}
  0
BLOCK_RECORD
  5
2A32
330
1
100
AcDbSymbolTableRecord
100
AcDbBlockTableRecord
  2
A3横用_タイトル
1001
ACAD
1000
DesignCenter Data
1002
{
1070
     1
1070
     4
1002
}
  0
BLOCK_RECORD
  5
2A6C
330
1
100
AcDbSymbolTableRecord
100
AcDbBlockTableRecord
  2
A3縦用_タイトル
1001
ACAD
1000
DesignCenter Data
1002
{
1070
     1
1070
     4
1002
}
  0
BLOCK_RECORD
  5
2AF4
330
1
100
AcDbSymbolTableRecord
100
AcDbBlockTableRecord
  2
_OPEN30
  0
BLOCK_RECORD
  5
4B0D
330
1
100
AcDbSymbolTableRecord
100
AcDbBlockTableRecord
  2
*D6
  0
BLOCK_RECORD
  5
4B19
330
1
100
AcDbSymbolTableRecord
100
AcDbBlockTableRecord
  2
*D7
  0
BLOCK_RECORD
  5
4B3D
330
1
100
AcDbSymbolTableRecord
100
AcDbBlockTableRecord
  2
*D8
  0
BLOCK_RECORD
  5
4B56
330
1
100
AcDbSymbolTableRecord
100
AcDbBlockTableRecord
  2
*D9
  0
BLOCK_RECORD
  5
4B62
330
1
100
AcDbSymbolTableRecord
100
AcDbBlockTableRecord
  2
*D10
  0
BLOCK_RECORD
  5
4C85
330
1
100
AcDbSymbolTableRecord
100
AcDbBlockTableRecord
  2
*D11
  0
BLOCK_RECORD
  5
4C92
330
1
100
AcDbSymbolTableRecord
100
AcDbBlockTableRecord
  2
*D12
  0
BLOCK_RECORD
  5
4CBA
330
1
100
AcDbSymbolTableRecord
100
AcDbBlockTableRecord
  2
*D13
  0
BLOCK_RECORD
  5
4CDE
330
1
100
AcDbSymbolTableRecord
100
AcDbBlockTableRecord
  2
*D14
  0
ENDTAB
  0
ENDSEC
  0
SECTION
  2
BLOCKS
  0
BLOCK
  5
1B
330
1A
100
AcDbEntity
  8
0
100
AcDbBlockBegin
  2
*MODEL_SPACE
 70
     0
 10
0.0
 20
0.0
 30
0.0
  3
*MODEL_SPACE
  1

  0
ENDBLK
  5
1C
330
1A
100
AcDbEntity
  8
0
100
AcDbBlockEnd
  0
BLOCK
  5
28FD
330
28FB
100
AcDbEntity
 67
     1
  8
0
 48
10.0
100
AcDbBlockBegin
  2
*PAPER_SPACE
 70
     0
 10
0.0
 20
0.0
 30
0.0
  3
*PAPER_SPACE
  1

  0
ENDBLK
  5
28FE
330
28FB
100
AcDbEntity
 67
     1
  8
0
 48
10.0
100
AcDbBlockEnd
  0
BLOCK
  5
93
330
65
100
AcDbEntity
  8
0
100
AcDbBlockBegin
  2
A$C3392
 70
     0
 10
0.0
 20
0.0
 30
0.0
  3
A$C3392
  1

  0
LINE
  5
66
330
65
100
AcDbEntity
  8
図枠太線
  6
CONTINUOUS
100
AcDbLine
 10
211.858584505185
 20
30.927375675439
 30
0.0
 11
211.858584505185
 21
0.927375675439
 31
0.0
  0
LINE
  5
67
330
65
100
AcDbEntity
  8
図枠細線
  6
CONTINUOUS
100
AcDbLine
 10
231.858592505185
 20
15.927377675439
 30
0.0
 11
287.858592505185
 21
15.927375675439
 31
0.0
  0
LINE
  5
68
330
65
100
AcDbEntity
  8
図枠細線
  6
CONTINUOUS
100
AcDbLine
 10
211.858592505185
 20
15.927377675439
 30
0.0
 11
231.858592505185
 21
15.927377675439
 31
0.0
  0
LINE
  5
69
330
65
100
AcDbEntity
  8
図枠太線
  6
CONTINUOUS
 62
   251
100
AcDbLine
 10
1.858584505185
 20
0.927375675439
 30
0.0
 11
1.858584505185
 21
275.927375675439
 31
0.0
  0
TEXT
  5
6A
330
65
100
AcDbEntity
  8
図枠細線
  6
CONTINUOUS
 62
   252
100
AcDbText
 10
351.358592505185
 20
28.427377675439
 30
0.0
 40
2.0
  1
ＴＩＴＬＥ
 41
0.903614457831
  7
EXCADSTD
 72
     5
 11
361.358592505185
 21
28.427377675439
 31
0.0
100
AcDbText
  0
TEXT
  5
6B
330
65
100
AcDbEntity
  8
図枠細線
  6
CONTINUOUS
 62
   252
100
AcDbText
 10
345.358592505185
 20
28.427377675439
 30
0.0
 40
2.0
  1
名称
 41
1.171875
  7
EXCADSTD
 72
     5
 11
350.358592505185
 21
28.427377675439
 31
0.0
100
AcDbText
  0
TEXT
  5
6C
330
65
100
AcDbEntity
  8
図枠細線
  6
CONTINUOUS
 62
   252
100
AcDbText
 10
274.358592505185
 20
25.927377675439
 30
0.0
 40
2.0
  1
ＤＲＡＷＮ
 41
0.882352941176
  7
EXCADSTD
 72
     5
 11
284.358592505185
 21
25.927377675439
 31
0.0
100
AcDbText
  0
TEXT
  5
6D
330
65
100
AcDbEntity
  8
図枠細線
  6
CONTINUOUS
 62
   252
100
AcDbText
 10
260.358592505185
 20
25.927377675439
 30
0.0
 40
2.0
  1
ＤＥＳＩＧＮＥＤ
 41
0.713043472041
  7
EXCADSTD
 72
     5
 11
273.478592390744
 21
25.927377675439
 31
0.0
100
AcDbText
  0
TEXT
  5
6E
330
65
100
AcDbEntity
  8
図枠細線
  6
CONTINUOUS
 62
   252
100
AcDbText
 10
246.358592505185
 20
25.927377675439
 30
0.0
 40
2.0
  1
ＣＨＥＣＫＥＤ
 41
0.831249989569
  7
EXCADSTD
 72
     5
 11
259.658592338292
 21
25.927377675439
 31
0.0
100
AcDbText
  0
TEXT
  5
6F
330
65
100
AcDbEntity
  8
図枠細線
  6
CONTINUOUS
 62
   252
100
AcDbText
 10
274.358592505185
 20
28.427377675439
 30
0.0
 40
2.0
  1
製図
 41
1.209677419355
  7
EXCADSTD
 72
     5
 11
279.358592505185
 21
28.427377675439
 31
0.0
100
AcDbText
  0
TEXT
  5
70
330
65
100
AcDbEntity
  8
図枠細線
  6
CONTINUOUS
 62
   252
100
AcDbText
 10
260.358592505185
 20
28.427377675439
 30
0.0
 40
2.0
  1
設計
 41
1.171875
  7
EXCADSTD
 72
     5
 11
265.358592505185
 21
28.427377675439
 31
0.0
100
AcDbText
  0
TEXT
  5
71
330
65
100
AcDbEntity
  8
図枠細線
  6
CONTINUOUS
 62
   252
100
AcDbText
 10
246.358592505185
 20
28.427377675439
 30
0.0
 40
2.0
  1
検図
 41
1.209677419355
  7
EXCADSTD
 72
     5
 11
251.358592505185
 21
28.427377675439
 31
0.0
100
AcDbText
  0
TEXT
  5
72
330
65
100
AcDbEntity
  8
図枠細線
  6
CONTINUOUS
 62
   252
100
AcDbText
 10
232.358592505185
 20
25.927377675439
 30
0.0
 40
2.0
  1
ＡＰＰＲＯＶＥＤ
 41
0.695652184279
  7
EXCADSTD
 72
     5
 11
245.15859269592
 21
25.927377675439
 31
0.0
100
AcDbText
  0
TEXT
  5
73
330
65
100
AcDbEntity
  8
図枠細線
  6
CONTINUOUS
 62
   252
100
AcDbText
 10
232.358592505185
 20
28.427377675439
 30
0.0
 40
2.0
  1
承認
 41
1.171875
  7
EXCADSTD
 72
     5
 11
237.358592505185
 21
28.427377675439
 31
0.0
100
AcDbText
  0
TEXT
  5
74
330
65
100
AcDbEntity
  8
図枠細線
  6
CONTINUOUS
 62
   252
100
AcDbText
 10
290.069888505185
 20
2.574868675439
 30
0.0
 40
3.5
  1
ＴＯＷＡ　ＳＥＩＤＥＮ　ＩＮＤＵＳＴＲＩＡＬ　ＣＯ．，ＬＴＤ．
 41
0.414568012377
  7
EXCADSTD
 72
     5
 11
342.692388209546
 21
2.574868675439
 31
0.0
100
AcDbText
  0
TEXT
  5
75
330
65
100
AcDbEntity
  8
図枠ロゴマーク
  6
CONTINUOUS
 62
   253
100
AcDbText
 10
290.107348505185
 20
7.519769675439
 30
0.0
 40
7.0
  1
東和制電工業株式会社
 41
0.639204545455
  7
EXCADSTD
 72
     5
 11
342.607348505185
 21
7.519769675439
 31
0.0
100
AcDbText
  0
TEXT
  5
76
330
65
100
AcDbEntity
  8
図枠細線
  6
CONTINUOUS
 62
   252
100
AcDbText
 10
232.499705505185
 20
5.759088675439
 30
0.0
 40
2.0
  1
ＰＲＯＪＥＣＴＩＯＮ
 41
0.754285710199
  7
EXCADSTD
 72
     5
 11
250.099705409817
 21
5.759088675439
 31
0.0
100
AcDbText
  0
TEXT
  5
77
330
65
100
AcDbEntity
  8
図枠細線
  6
CONTINUOUS
 62
   252
100
AcDbText
 10
232.574629505185
 20
8.681077675439
 30
0.0
 40
2.0
  1
ＴＨＩＲＤ　ＡＮＧＬＥ
 41
0.691099486738
  7
EXCADSTD
 72
     5
 11
250.174629767445
 21
8.681077675439
 31
0.0
100
AcDbText
  0
TEXT
  5
78
330
65
100
AcDbEntity
  8
図枠細線
  6
CONTINUOUS
 62
   252
100
AcDbText
 10
256.823999505185
 20
13.427377675439
 30
0.0
 40
2.0
  1
ＳＣＡＬＥ
 41
0.903614457831
  7
EXCADSTD
 72
     5
 11
266.823999505185
 21
13.427377675439
 31
0.0
100
AcDbText
  0
TEXT
  5
79
330
65
100
AcDbEntity
  8
図枠細線
  6
CONTINUOUS
 62
   252
100
AcDbText
 10
274.858592505185
 20
13.427377675439
 30
0.0
 40
2.0
  1
ＤＡＴＥ
 41
0.923076923077
  7
EXCADSTD
 72
     5
 11
282.858592505185
 21
13.427377675439
 31
0.0
100
AcDbText
  0
TEXT
  5
7A
330
65
100
AcDbEntity
  8
図枠細線
  6
CONTINUOUS
 62
   252
100
AcDbText
 10
356.358592505185
 20
13.427377675439
 30
0.0
 40
2.0
  1
ＤＲＧ．ＮＯ．
 41
0.9375
  7
EXCADSTD
 72
     5
 11
370.358592505185
 21
13.427377675439
 31
0.0
100
AcDbText
  0
TEXT
  5
7B
330
65
100
AcDbEntity
  8
図枠細線
  6
CONTINUOUS
 62
   252
100
AcDbText
 10
345.358592505185
 20
13.427377675439
 30
0.0
 40
2.0
  1
図面番号
 41
1.102941176471
  7
EXCADSTD
 72
     5
 11
355.358592505185
 21
13.427377675439
 31
0.0
100
AcDbText
  0
TEXT
  5
7C
330
65
100
AcDbEntity
  8
図枠細線
  6
CONTINUOUS
 62
   252
100
AcDbText
 10
269.358592505185
 20
13.427377675439
 30
0.0
 40
2.0
  1
日付
 41
1.171875
  7
EXCADSTD
 72
     5
 11
274.358592505185
 21
13.427377675439
 31
0.0
100
AcDbText
  0
TEXT
  5
7D
330
65
100
AcDbEntity
  8
図枠細線
  6
CONTINUOUS
 62
   252
100
AcDbText
 10
251.451512505185
 20
13.427377675439
 30
0.0
 40
2.0
  1
尺度
 41
1.171875
  7
EXCADSTD
 72
     5
 11
256.451512505185
 21
13.427377675439
 31
0.0
100
AcDbText
  0
TEXT
  5
7E
330
65
100
AcDbEntity
  8
図枠細線
  6
CONTINUOUS
 62
   252
100
AcDbText
 10
232.358592505185
 20
13.427377675439
 30
0.0
 40
2.0
  1
第三角法
 41
1.102941176471
  7
EXCADSTD
 72
     5
 11
242.358592505185
 21
13.427377675439
 31
0.0
100
AcDbText
  0
TEXT
  5
7F
330
65
100
AcDbEntity
  8
図枠細線
  6
CONTINUOUS
 62
   252
100
AcDbText
 10
212.358592505185
 20
28.427377675439
 30
0.0
 40
2.0
  1
ＮＯＴＥ
 41
0.923076923077
  7
EXCADSTD
 72
     5
 11
220.358592505185
 21
28.427377675439
 31
0.0
100
AcDbText
  0
LINE
  5
80
330
65
100
AcDbEntity
  8
図枠細線
  6
CONTINUOUS
 62
   252
100
AcDbLine
 10
287.858592505185
 20
23.427375675439
 30
0.0
 11
344.858592505185
 21
23.427375675439
 31
0.0
  0
LINE
  5
81
330
65
100
AcDbEntity
  8
図枠太線
  6
CONTINUOUS
 62
   251
100
AcDbLine
 10
287.858584505185
 20
15.927375675439
 30
0.0
 11
344.858592505185
 21
15.927375675439
 31
0.0
  0
LINE
  5
82
330
65
100
AcDbEntity
  8
図枠細線
  6
CONTINUOUS
 62
   252
100
AcDbLine
 10
344.858592505185
 20
15.927375675439
 30
0.0
 11
401.858584505185
 21
15.927375675439
 31
0.0
  0
LINE
  5
83
330
65
100
AcDbEntity
  8
図枠太線
  6
CONTINUOUS
 62
   251
100
AcDbLine
 10
344.858592505185
 20
0.927377675439
 30
0.0
 11
344.858592505185
 21
30.927375675439
 31
0.0
  0
LINE
  5
84
330
65
100
AcDbEntity
  8
図枠太線
  6
CONTINUOUS
 62
   251
100
AcDbLine
 10
287.858592505185
 20
0.927377675439
 30
0.0
 11
287.858592505185
 21
30.927375675439
 31
0.0
  0
LINE
  5
85
330
65
100
AcDbEntity
  8
図枠細線
  6
CONTINUOUS
 62
   252
100
AcDbLine
 10
268.858592505185
 20
0.927377675439
 30
0.0
 11
268.858592505185
 21
15.927375675439
 31
0.0
  0
LINE
  5
86
330
65
100
AcDbEntity
  8
図枠細線
  6
CONTINUOUS
 62
   252
100
AcDbLine
 10
250.858592505185
 20
0.927377675439
 30
0.0
 11
250.858592505185
 21
15.927375675439
 31
0.0
  0
LINE
  5
87
330
65
100
AcDbEntity
  8
図枠細線
  6
CONTINUOUS
 62
   252
100
AcDbLine
 10
273.858592505185
 20
30.927375675439
 30
0.0
 11
273.858592505185
 21
15.927375675439
 31
0.0
  0
LINE
  5
88
330
65
100
AcDbEntity
  8
図枠細線
  6
CONTINUOUS
 62
   252
100
AcDbLine
 10
259.858592505185
 20
30.927375675439
 30
0.0
 11
259.858592505185
 21
15.927375675439
 31
0.0
  0
LINE
  5
89
330
65
100
AcDbEntity
  8
図枠細線
  6
CONTINUOUS
 62
   252
100
AcDbLine
 10
245.858592505185
 20
30.927375675439
 30
0.0
 11
245.858592505185
 21
15.927375675439
 31
0.0
  0
LINE
  5
8A
330
65
100
AcDbEntity
  8
図枠太線
  6
CONTINUOUS
 62
   251
100
AcDbLine
 10
231.858592505185
 20
0.927377675439
 30
0.0
 11
231.858592505185
 21
30.927375675439
 31
0.0
  0
LINE
  5
8B
330
65
100
AcDbEntity
  8
図枠細線
  6
CONTINUOUS
 62
   252
100
AcDbLine
 10
211.858592505185
 20
25.927375675439
 30
0.0
 11
231.858592505185
 21
25.927375675439
 31
0.0
  0
LINE
  5
8C
330
65
100
AcDbEntity
  8
図枠細線
  6
CONTINUOUS
 62
   252
100
AcDbLine
 10
211.858592505185
 20
20.927375675439
 30
0.0
 11
231.858592505185
 21
20.927375675439
 31
0.0
  0
LINE
  5
8D
330
65
100
AcDbEntity
  8
図枠細線
  6
CONTINUOUS
 62
   252
100
AcDbLine
 10
211.858592505185
 20
10.927375675439
 30
0.0
 11
231.858592505185
 21
10.927375675439
 31
0.0
  0
LINE
  5
8E
330
65
100
AcDbEntity
  8
図枠細線
  6
CONTINUOUS
 62
   252
100
AcDbLine
 10
211.858592505185
 20
5.927377675439
 30
0.0
 11
231.858592505185
 21
5.927377675439
 31
0.0
  0
LINE
  5
8F
330
65
100
AcDbEntity
  8
図枠太線
  6
CONTINUOUS
 62
   251
100
AcDbLine
 10
211.858592505185
 20
30.927375675439
 30
0.0
 11
401.858584505185
 21
30.927375675439
 31
0.0
  0
LINE
  5
90
330
65
100
AcDbEntity
  8
図枠太線
  6
CONTINUOUS
 62
   251
100
AcDbLine
 10
1.858584505185
 20
275.927375675439
 30
0.0
 11
401.858584505185
 21
275.927375675439
 31
0.0
  0
LINE
  5
91
330
65
100
AcDbEntity
  8
図枠太線
  6
CONTINUOUS
 62
   251
100
AcDbLine
 10
401.858584505185
 20
0.927375675439
 30
0.0
 11
401.858584505185
 21
275.927375675439
 31
0.0
  0
LINE
  5
92
330
65
100
AcDbEntity
  8
図枠太線
  6
CONTINUOUS
 62
   251
100
AcDbLine
 10
1.858584505185
 20
0.927375675439
 30
0.0
 11
401.858584505185
 21
0.927375675439
 31
0.0
  0
ENDBLK
  5
94
330
65
100
AcDbEntity
  8
0
100
AcDbBlockEnd
  0
BLOCK
  5
29C0
330
29BF
100
AcDbEntity
  8
0
100
AcDbBlockBegin
  2
A4横用_タイトル
 70
     0
 10
0.0
 20
0.0
 30
0.0
  3
A4横用_タイトル
  1

  0
LINE
  5
29C1
330
29BF
100
AcDbEntity
  8
図枠細線
  6
CONTINUOUS
100
AcDbLine
 10
75.061011071051
 20
16.806607253358
 30
0.0
 11
144.061011071051
 21
16.806604789072
 31
0.0
  0
LINE
  5
29C2
330
29BF
100
AcDbEntity
  8
図枠細線
  6
CONTINUOUS
 62
   252
100
AcDbLine
 10
4.061011071051
 20
11.806606253358
 30
0.0
 11
75.061011071051
 21
11.806606253358
 31
0.0
  0
LINE
  5
29C3
330
29BF
100
AcDbEntity
  8
図枠細線
  6
CONTINUOUS
 62
   252
100
AcDbLine
 10
4.061011071051
 20
21.806606253358
 30
0.0
 11
75.061011071051
 21
21.806606253358
 31
0.0
  0
LINE
  5
29C4
330
29BF
100
AcDbEntity
  8
図枠細線
  6
CONTINUOUS
 62
   252
100
AcDbLine
 10
4.061011071051
 20
26.806606253358
 30
0.0
 11
75.061011071051
 21
26.806606253358
 31
0.0
  0
LINE
  5
29C5
330
29BF
100
AcDbEntity
  8
図枠細線
  6
CONTINUOUS
100
AcDbLine
 10
4.061011071051
 20
16.806608253358
 30
0.0
 11
75.061011071051
 21
16.806608253358
 31
0.0
  0
TEXT
  5
29C6
330
29BF
100
AcDbEntity
  8
図枠細線
  6
CONTINUOUS
 62
   252
100
AcDbText
 10
76.405475827713
 20
9.560308253358
 30
0.0
 40
2.0
  1
ＴＨＩＲＤ　ＡＮＧＬＥ
 41
0.691099486738
  7
EXCADSTD
 72
     5
 11
94.005476089973
 21
9.560308253358
 31
0.0
100
AcDbText
  0
TEXT
  5
29C7
330
29BF
100
AcDbEntity
  8
図枠細線
  6
CONTINUOUS
 62
   252
100
AcDbText
 10
76.705775880921
 20
14.306608253358
 30
0.0
 40
2.0
  1
第三角法
 41
1.102941176471
  7
EXCADSTD
 72
     5
 11
86.705775880921
 21
14.306608253358
 31
0.0
100
AcDbText
  0
TEXT
  5
29C8
330
29BF
100
AcDbEntity
  8
図枠細線
  6
CONTINUOUS
 62
   252
100
AcDbText
 10
76.705775880921
 20
26.806608253358
 30
0.0
 40
2.0
  1
ＡＰＰＲＯＶＥＤ
 41
0.695652184279
  7
EXCADSTD
 72
     5
 11
89.505776071656
 21
26.806608253358
 31
0.0
100
AcDbText
  0
TEXT
  5
29C9
330
29BF
100
AcDbEntity
  8
図枠細線
  6
CONTINUOUS
 62
   252
100
AcDbText
 10
76.705775880921
 20
29.306608253358
 30
0.0
 40
2.0
  1
承認
 41
1.171875
  7
EXCADSTD
 72
     5
 11
81.705775880921
 21
29.306608253358
 31
0.0
100
AcDbText
  0
LINE
  5
29CA
330
29BF
100
AcDbEntity
  8
図枠細線
  6
CONTINUOUS
 62
   252
100
AcDbLine
 10
98.061011071051
 20
31.806606253358
 30
0.0
 11
98.061011071051
 21
16.806606253358
 31
0.0
  0
TEXT
  5
29CB
330
29BF
100
AcDbEntity
  8
図枠細線
  6
CONTINUOUS
 62
   252
100
AcDbText
 10
104.216531119804
 20
14.306608253358
 30
0.0
 40
2.0
  1
ＳＣＡＬＥ
 41
0.903614457831
  7
EXCADSTD
 72
     5
 11
114.216531119804
 21
14.306608253358
 31
0.0
100
AcDbText
  0
TEXT
  5
29CC
330
29BF
100
AcDbEntity
  8
図枠細線
  6
CONTINUOUS
 62
   252
100
AcDbText
 10
98.844044119804
 20
14.306608253358
 30
0.0
 40
2.0
  1
尺度
 41
1.171875
  7
EXCADSTD
 72
     5
 11
103.844044119804
 21
14.306608253358
 31
0.0
100
AcDbText
  0
TEXT
  5
29CD
330
29BF
100
AcDbEntity
  8
図枠細線
  6
CONTINUOUS
 62
   252
100
AcDbText
 10
98.968727707497
 20
26.806608253358
 30
0.0
 40
2.0
  1
ＣＨＥＣＫＥＤ
 41
0.831249989569
  7
EXCADSTD
 72
     5
 11
112.268727540604
 21
26.806608253358
 31
0.0
100
AcDbText
  0
TEXT
  5
29CE
330
29BF
100
AcDbEntity
  8
図枠細線
  6
CONTINUOUS
 62
   252
100
AcDbText
 10
98.968727707497
 20
29.306608253358
 30
0.0
 40
2.0
  1
検図
 41
1.209677419355
  7
EXCADSTD
 72
     5
 11
103.968727707497
 21
29.306608253358
 31
0.0
100
AcDbText
  0
LINE
  5
29CF
330
29BF
100
AcDbEntity
  8
図枠細線
  6
CONTINUOUS
 62
   252
100
AcDbLine
 10
121.061011071051
 20
31.806606253358
 30
0.0
 11
121.061011071051
 21
16.806606253358
 31
0.0
  0
TEXT
  5
29D0
330
29BF
100
AcDbEntity
  8
図枠細線
  6
CONTINUOUS
 62
   252
100
AcDbText
 10
128.001465247253
 20
14.306608253358
 30
0.0
 40
2.0
  1
ＤＡＴＥ
 41
0.923076923077
  7
EXCADSTD
 72
     5
 11
136.001465247253
 21
14.306608253358
 31
0.0
100
AcDbText
  0
TEXT
  5
29D1
330
29BF
100
AcDbEntity
  8
図枠細線
  6
CONTINUOUS
 62
   252
100
AcDbText
 10
122.066415498841
 20
14.306608253358
 30
0.0
 40
2.0
  1
日付
 41
1.171875
  7
EXCADSTD
 72
     5
 11
127.066415498841
 21
14.306608253358
 31
0.0
100
AcDbText
  0
TEXT
  5
29D2
330
29BF
100
AcDbEntity
  8
図枠細線
  6
CONTINUOUS
 62
   252
100
AcDbText
 10
121.59429406571
 20
29.306608253358
 30
0.0
 40
2.0
  1
製図
 41
1.209677419355
  7
EXCADSTD
 72
     5
 11
126.59429406571
 21
29.306608253358
 31
0.0
100
AcDbText
  0
TEXT
  5
29D3
330
29BF
100
AcDbEntity
  8
図枠細線
  6
CONTINUOUS
 62
   252
100
AcDbText
 10
121.59429406571
 20
26.806608253358
 30
0.0
 40
2.0
  1
ＤＲＡＷＮ
 41
0.882352941176
  7
EXCADSTD
 72
     5
 11
131.59429406571
 21
26.806608253358
 31
0.0
100
AcDbText
  0
TEXT
  5
29D4
330
29BF
100
AcDbEntity
  8
図枠細線
  6
CONTINUOUS
 62
   252
100
AcDbText
 10
226.591229661348
 20
14.306608253358
 30
0.0
 40
2.0
  1
ＤＲＧ．ＮＯ．
 41
0.9375
  7
EXCADSTD
 72
     5
 11
240.591229661348
 21
14.306608253358
 31
0.0
100
AcDbText
  0
LINE
  5
29D5
330
29BF
100
AcDbEntity
  8
図枠太線
  6
CONTINUOUS
 62
   251
100
AcDbLine
 10
144.061003071051
 20
16.806606253358
 30
0.0
 11
214.061011071051
 21
16.806606253358
 31
0.0
  0
LINE
  5
29D6
330
29BF
100
AcDbEntity
  8
図枠細線
  6
CONTINUOUS
 62
   252
100
AcDbLine
 10
144.061011071051
 20
24.306606253358
 30
0.0
 11
214.061011071051
 21
24.306606253358
 31
0.0
  0
TEXT
  5
29D7
330
29BF
100
AcDbEntity
  8
図枠ロゴマーク
  6
CONTINUOUS
 62
   253
100
AcDbText
 10
146.433776781596
 20
8.399000253358
 30
0.0
 40
7.0
  1
東和制電工業株式会社
 41
0.80361088462
  7
EXCADSTD
 72
     5
 11
212.437017438349
 21
8.399000253358
 31
0.0
100
AcDbText
  0
TEXT
  5
29D8
330
29BF
100
AcDbEntity
  8
図枠細線
  6
CONTINUOUS
 62
   252
100
AcDbText
 10
215.156179912936
 20
14.306608253358
 30
0.0
 40
2.0
  1
図面番号
 41
1.102941176471
  7
EXCADSTD
 72
     5
 11
225.156179912936
 21
14.306608253358
 31
0.0
100
AcDbText
  0
TEXT
  5
29D9
330
29BF
100
AcDbEntity
  8
図枠細線
  6
CONTINUOUS
 62
   252
100
AcDbText
 10
221.591229661348
 20
29.306608253358
 30
0.0
 40
2.0
  1
ＴＩＴＬＥ
 41
0.903614457831
  7
EXCADSTD
 72
     5
 11
231.591229661348
 21
29.306608253358
 31
0.0
100
AcDbText
  0
TEXT
  5
29DA
330
29BF
100
AcDbEntity
  8
図枠細線
  6
CONTINUOUS
 62
   252
100
AcDbText
 10
215.156179912936
 20
29.306608253358
 30
0.0
 40
2.0
  1
名称
 41
1.171875
  7
EXCADSTD
 72
     5
 11
220.156179912936
 21
29.306608253358
 31
0.0
100
AcDbText
  0
LINE
  5
29DB
330
29BF
100
AcDbEntity
  8
図枠太線
  6
CONTINUOUS
 62
   251
100
AcDbLine
 10
4.061011071051
 20
1.806608253358
 30
0.0
 11
284.061011071051
 21
1.806608253358
 31
0.0
  0
LINE
  5
29DC
330
29BF
100
AcDbEntity
  8
図枠細線
  6
CONTINUOUS
 62
   252
100
AcDbLine
 10
4.061011071051
 20
6.806608253358
 30
0.0
 11
75.061011071051
 21
6.806608253358
 31
0.0
  0
LINE
  5
29DD
330
29BF
100
AcDbEntity
  8
図枠太線
  6
CONTINUOUS
 62
   251
100
AcDbLine
 10
75.061011071051
 20
1.806608253358
 30
0.0
 11
75.061011071051
 21
31.806606253358
 31
0.0
  0
TEXT
  5
29DE
330
29BF
100
AcDbEntity
  8
図枠細線
  6
CONTINUOUS
 62
   252
100
AcDbText
 10
76.330551827713
 20
6.638319253358
 30
0.0
 40
2.0
  1
ＰＲＯＪＥＣＴＩＯＮ
 41
0.754285710199
  7
EXCADSTD
 72
     5
 11
93.930551732346
 21
6.638319253358
 31
0.0
100
AcDbText
  0
LINE
  5
29DF
330
29BF
100
AcDbEntity
  8
図枠細線
  6
CONTINUOUS
 62
   252
100
AcDbLine
 10
98.061011071051
 20
1.806606931929
 30
0.0
 11
98.061011071051
 21
16.806604931929
 31
0.0
  0
LINE
  5
29E0
330
29BF
100
AcDbEntity
  8
図枠細線
  6
CONTINUOUS
 62
   252
100
AcDbLine
 10
121.061011071051
 20
1.806607574787
 30
0.0
 11
121.061011071051
 21
16.806605574787
 31
0.0
  0
LINE
  5
29E1
330
29BF
100
AcDbEntity
  8
図枠太線
  6
CONTINUOUS
 62
   251
100
AcDbLine
 10
284.061011071051
 20
1.806608253358
 30
0.0
 11
284.061011071051
 21
31.806606253358
 31
0.0
  0
LINE
  5
29E2
330
29BF
100
AcDbEntity
  8
図枠細線
  6
CONTINUOUS
 62
   252
100
AcDbLine
 10
214.061011071051
 20
16.806606253358
 30
0.0
 11
284.061011071051
 21
16.806606253358
 31
0.0
  0
TEXT
  5
29E3
330
29BF
100
AcDbEntity
  8
図枠細線
  6
CONTINUOUS
 62
   252
100
AcDbText
 10
146.199593676182
 20
3.454099253358
 30
0.0
 40
3.5
  1
ＴＯＷＡ　ＳＥＩＤＥＮ　ＩＮＤＵＳＴＲＩＡＬ　ＣＯ．，ＬＴＤ．
 41
0.528937826907
  7
EXCADSTD
 72
     5
 11
213.339435171588
 21
3.454099253358
 31
0.0
100
AcDbText
  0
LINE
  5
29E4
330
29BF
100
AcDbEntity
  8
図枠太線
  6
CONTINUOUS
 62
   251
100
AcDbLine
 10
144.061011071051
 20
1.806608253358
 30
0.0
 11
144.061011071051
 21
31.806606253358
 31
0.0
  0
LINE
  5
29E5
330
29BF
100
AcDbEntity
  8
図枠太線
  6
CONTINUOUS
 62
   251
100
AcDbLine
 10
214.061011071051
 20
1.806608253358
 30
0.0
 11
214.061011071051
 21
31.806606253358
 31
0.0
  0
MTEXT
  5
29E6
330
29BF
100
AcDbEntity
  8
図枠太線
100
AcDbMText
 10
5.064337346478
 20
31.010982137407
 30
0.0
 40
2.5
 41
8.67856098472
 71
     1
 72
     5
  1
{\Fmonotxt.shx,bigfont.shx|c128;図暦}
  0
LINE
  5
29E7
330
29BF
100
AcDbEntity
  8
図枠太線
  6
CONTINUOUS
 62
   251
100
AcDbLine
 10
4.061011071051
 20
1.806608253358
 30
0.0
 11
4.061011071051
 21
31.806606253358
 31
0.0
  0
TEXT
  5
29E8
330
29BF
100
AcDbEntity
  8
図枠細線
 48
10.0
100
AcDbText
 10
12.260817420402
 20
28.625419626495
 30
0.0
 40
2.0
  1
CHANGE NOTICE
100
AcDbText
  0
ENDBLK
  5
29E9
330
29BF
100
AcDbEntity
  8
0
100
AcDbBlockEnd
  0
BLOCK
  5
29F5
330
29F4
100
AcDbEntity
  8
0
100
AcDbBlockBegin
  2
A4縦用_タイトル
 70
     0
 10
0.0
 20
0.0
 30
0.0
  3
A4縦用_タイトル
  1

  0
LINE
  5
29F6
330
29F4
100
AcDbEntity
  8
図枠太線
  6
CONTINUOUS
 62
   251
100
AcDbLine
 10
2.368253864267
 20
4.525433224584
 30
0.0
 11
192.368245864267
 21
4.525433224584
 31
0.0
  0
LINE
  5
29F7
330
29F4
100
AcDbEntity
  8
図枠太線
  6
CONTINUOUS
 62
   251
100
AcDbLine
 10
78.368245864267
 20
19.525431224584
 30
0.0
 11
135.368253864267
 21
19.525431224584
 31
0.0
  0
LINE
  5
29F8
330
29F4
100
AcDbEntity
  8
図枠細線
  6
CONTINUOUS
 62
   252
100
AcDbLine
 10
78.368253864267
 20
27.025431224584
 30
0.0
 11
135.368253864267
 21
27.025431224584
 31
0.0
  0
TEXT
  5
29F9
330
29F4
100
AcDbEntity
  8
図枠ロゴマーク
  6
CONTINUOUS
 62
   253
100
AcDbText
 10
80.617009864267
 20
11.117825224584
 30
0.0
 40
7.0
  1
東和制電工業株式会社
 41
0.639204545455
  7
EXCADSTD
 72
     5
 11
133.117009864267
 21
11.117825224584
 31
0.0
100
AcDbText
  0
TEXT
  5
29FA
330
29F4
100
AcDbEntity
  8
図枠細線
  6
CONTINUOUS
 62
   252
100
AcDbText
 10
80.579549864267
 20
6.172924224584
 30
0.0
 40
3.5
  1
ＴＯＷＡ　ＳＥＩＤＥＮ　ＩＮＤＵＳＴＲＩＡＬ　ＣＯ．，ＬＴＤ．
 41
0.414568012377
  7
EXCADSTD
 72
     5
 11
133.202049568628
 21
6.172924224584
 31
0.0
100
AcDbText
  0
LINE
  5
29FB
330
29F4
100
AcDbEntity
  8
図枠太線
  6
CONTINUOUS
 62
   251
100
AcDbLine
 10
2.368253864267
 20
4.525433224584
 30
0.0
 11
2.368253864267
 21
34.525431224584
 31
0.0
  0
TEXT
  5
29FC
330
29F4
100
AcDbEntity
  8
図枠細線
  6
CONTINUOUS
 62
   252
100
AcDbText
 10
22.504308136501
 20
12.279133224584
 30
0.0
 40
2.0
  1
ＴＨＩＲＤ　ＡＮＧＬＥ
 41
0.691099486738
  7
EXCADSTD
 72
     5
 11
40.104308398762
 21
12.279133224584
 31
0.0
100
AcDbText
  0
TEXT
  5
29FD
330
29F4
100
AcDbEntity
  8
図枠細線
  6
CONTINUOUS
 62
   252
100
AcDbText
 10
22.429384136501
 20
9.357144224584
 30
0.0
 40
2.0
  1
ＰＲＯＪＥＣＴＩＯＮ
 41
0.754285710199
  7
EXCADSTD
 72
     5
 11
40.029384041134
 21
9.357144224584
 31
0.0
100
AcDbText
  0
LINE
  5
29FE
330
29F4
100
AcDbEntity
  8
図枠細線
  6
CONTINUOUS
100
AcDbLine
 10
22.368253864267
 20
19.525433224584
 30
0.0
 11
78.368253864267
 21
19.525431224584
 31
0.0
  0
TEXT
  5
29FF
330
29F4
100
AcDbEntity
  8
図枠細線
  6
CONTINUOUS
 62
   252
100
AcDbText
 10
22.868253864267
 20
17.025433224584
 30
0.0
 40
2.0
  1
第三角法
 41
1.102941176471
  7
EXCADSTD
 72
     5
 11
32.868253864267
 21
17.025433224584
 31
0.0
100
AcDbText
  0
TEXT
  5
2A00
330
29F4
100
AcDbEntity
  8
図枠細線
  6
CONTINUOUS
 62
   252
100
AcDbText
 10
22.868253864267
 20
29.525433224584
 30
0.0
 40
2.0
  1
ＡＰＰＲＯＶＥＤ
 41
0.695652184279
  7
EXCADSTD
 72
     5
 11
35.668254055002
 21
29.525433224584
 31
0.0
100
AcDbText
  0
LINE
  5
2A01
330
29F4
100
AcDbEntity
  8
図枠細線
  6
CONTINUOUS
 62
   252
100
AcDbLine
 10
2.368253864267
 20
9.525433224584
 30
0.0
 11
22.368253864267
 21
9.525433224584
 31
0.0
  0
LINE
  5
2A02
330
29F4
100
AcDbEntity
  8
図枠細線
  6
CONTINUOUS
 62
   252
100
AcDbLine
 10
2.368253864267
 20
14.525431224584
 30
0.0
 11
22.368253864267
 21
14.525431224584
 31
0.0
  0
LINE
  5
2A03
330
29F4
100
AcDbEntity
  8
図枠細線
  6
CONTINUOUS
 62
   252
100
AcDbLine
 10
2.368253864267
 20
24.525431224584
 30
0.0
 11
22.368253864267
 21
24.525431224584
 31
0.0
  0
LINE
  5
2A04
330
29F4
100
AcDbEntity
  8
図枠細線
  6
CONTINUOUS
 62
   252
100
AcDbLine
 10
2.368253864267
 20
29.525431224584
 30
0.0
 11
22.368253864267
 21
29.525431224584
 31
0.0
  0
LINE
  5
2A05
330
29F4
100
AcDbEntity
  8
図枠細線
  6
CONTINUOUS
100
AcDbLine
 10
2.368253864267
 20
19.525433224584
 30
0.0
 11
22.368253864267
 21
19.525433224584
 31
0.0
  0
TEXT
  5
2A06
330
29F4
100
AcDbEntity
  8
図枠細線
  6
CONTINUOUS
 62
   252
100
AcDbText
 10
2.868253864267
 20
32.025433224584
 30
0.0
 40
2.0
  1
ＮＯＴＥ
 41
0.923076923077
  7
EXCADSTD
 72
     5
 11
10.868253864267
 21
32.025433224584
 31
0.0
100
AcDbText
  0
LINE
  5
2A07
330
29F4
100
AcDbEntity
  8
図枠太線
  6
CONTINUOUS
 62
   251
100
AcDbLine
 10
22.368253864267
 20
4.525433224584
 30
0.0
 11
22.368253864267
 21
34.525431224584
 31
0.0
  0
TEXT
  5
2A08
330
29F4
100
AcDbEntity
  8
図枠細線
  6
CONTINUOUS
 62
   252
100
AcDbText
 10
22.868253864267
 20
32.025433224584
 30
0.0
 40
2.0
  1
承認
 41
1.171875
  7
EXCADSTD
 72
     5
 11
27.868253864267
 21
32.025433224584
 31
0.0
100
AcDbText
  0
TEXT
  5
2A09
330
29F4
100
AcDbEntity
  8
図枠細線
  6
CONTINUOUS
 62
   252
100
AcDbText
 10
60.711709035982
 20
32.025433224584
 30
0.0
 40
2.0
  1
製図
 41
1.209677419355
  7
EXCADSTD
 72
     5
 11
65.711709035982
 21
32.025433224584
 31
0.0
100
AcDbText
  0
TEXT
  5
2A0A
330
29F4
100
AcDbEntity
  8
図枠細線
  6
CONTINUOUS
 62
   252
100
AcDbText
 10
60.711709035982
 20
29.525433224584
 30
0.0
 40
2.0
  1
ＤＲＡＷＮ
 41
0.882352941176
  7
EXCADSTD
 72
     5
 11
70.711709035982
 21
29.525433224584
 31
0.0
100
AcDbText
  0
TEXT
  5
2A0B
330
29F4
100
AcDbEntity
  8
図枠細線
  6
CONTINUOUS
 62
   252
100
AcDbText
 10
60.834891743877
 20
17.025433224584
 30
0.0
 40
2.0
  1
日付
 41
1.171875
  7
EXCADSTD
 72
     5
 11
65.834891743877
 21
17.025433224584
 31
0.0
100
AcDbText
  0
TEXT
  5
2A0C
330
29F4
100
AcDbEntity
  8
図枠細線
  6
CONTINUOUS
 62
   252
100
AcDbText
 10
47.333660864267
 20
17.025433224584
 30
0.0
 40
2.0
  1
ＳＣＡＬＥ
 41
0.903614457831
  7
EXCADSTD
 72
     5
 11
57.333660864267
 21
17.025433224584
 31
0.0
100
AcDbText
  0
TEXT
  5
2A0D
330
29F4
100
AcDbEntity
  8
図枠細線
  6
CONTINUOUS
 62
   252
100
AcDbText
 10
42.281425990082
 20
29.525433224584
 30
0.0
 40
2.0
  1
ＣＨＥＣＫＥＤ
 41
0.831249989569
  7
EXCADSTD
 72
     5
 11
55.581425823189
 21
29.525433224584
 31
0.0
100
AcDbText
  0
LINE
  5
2A0E
330
29F4
100
AcDbEntity
  8
図枠細線
  6
CONTINUOUS
 62
   252
100
AcDbLine
 10
40.968253864267
 20
34.525431224584
 30
0.0
 11
40.968253864267
 21
19.525431224584
 31
0.0
  0
LINE
  5
2A0F
330
29F4
100
AcDbEntity
  8
図枠細線
  6
CONTINUOUS
 62
   252
100
AcDbLine
 10
40.968253864267
 20
4.525433224584
 30
0.0
 11
40.968253864267
 21
19.525431224584
 31
0.0
  0
TEXT
  5
2A10
330
29F4
100
AcDbEntity
  8
図枠細線
  6
CONTINUOUS
 62
   252
100
AcDbText
 10
41.961173864267
 20
17.025433224584
 30
0.0
 40
2.0
  1
尺度
 41
1.171875
  7
EXCADSTD
 72
     5
 11
46.961173864267
 21
17.025433224584
 31
0.0
100
AcDbText
  0
TEXT
  5
2A11
330
29F4
100
AcDbEntity
  8
図枠細線
  6
CONTINUOUS
 62
   252
100
AcDbText
 10
42.281425990082
 20
32.025433224584
 30
0.0
 40
2.0
  1
検図
 41
1.209677419355
  7
EXCADSTD
 72
     5
 11
47.281425990082
 21
32.025433224584
 31
0.0
100
AcDbText
  0
LINE
  5
2A12
330
29F4
100
AcDbEntity
  8
図枠細線
  6
CONTINUOUS
 62
   252
100
AcDbLine
 10
59.768253864267
 20
34.525431224584
 30
0.0
 11
59.768253864267
 21
19.525431224584
 31
0.0
  0
LINE
  5
2A13
330
29F4
100
AcDbEntity
  8
図枠細線
  6
CONTINUOUS
 62
   252
100
AcDbLine
 10
59.768253864267
 20
4.525433224584
 30
0.0
 11
59.768253864267
 21
19.525431224584
 31
0.0
  0
LINE
  5
2A14
330
29F4
100
AcDbEntity
  8
図枠太線
  6
CONTINUOUS
 62
   251
100
AcDbLine
 10
78.368253864267
 20
4.525433224584
 30
0.0
 11
78.368253864267
 21
34.525431224584
 31
0.0
  0
TEXT
  5
2A15
330
29F4
100
AcDbEntity
  8
図枠細線
  6
CONTINUOUS
 62
   252
100
AcDbText
 10
66.334891743877
 20
17.025433224584
 30
0.0
 40
2.0
  1
ＤＡＴＥ
 41
0.923076923077
  7
EXCADSTD
 72
     5
 11
74.334891743877
 21
17.025433224584
 31
0.0
100
AcDbText
  0
LINE
  5
2A16
330
29F4
100
AcDbEntity
  8
図枠細線
  6
CONTINUOUS
 62
   252
100
AcDbLine
 10
135.368253864267
 20
19.525431224584
 30
0.0
 11
192.368245864267
 21
19.525431224584
 31
0.0
  0
TEXT
  5
2A17
330
29F4
100
AcDbEntity
  8
図枠細線
  6
CONTINUOUS
 62
   252
100
AcDbText
 10
141.868253864267
 20
32.025433224584
 30
0.0
 40
2.0
  1
ＴＩＴＬＥ
 41
0.903614457831
  7
EXCADSTD
 72
     5
 11
151.868253864267
 21
32.025433224584
 31
0.0
100
AcDbText
  0
LINE
  5
2A18
330
29F4
100
AcDbEntity
  8
図枠太線
  6
CONTINUOUS
 62
   251
100
AcDbLine
 10
135.368253864267
 20
4.525433224584
 30
0.0
 11
135.368253864267
 21
34.525431224584
 31
0.0
  0
TEXT
  5
2A19
330
29F4
100
AcDbEntity
  8
図枠細線
  6
CONTINUOUS
 62
   252
100
AcDbText
 10
135.868253864267
 20
17.025433224584
 30
0.0
 40
2.0
  1
図面番号
 41
1.102941176471
  7
EXCADSTD
 72
     5
 11
145.868253864267
 21
17.025433224584
 31
0.0
100
AcDbText
  0
TEXT
  5
2A1A
330
29F4
100
AcDbEntity
  8
図枠細線
  6
CONTINUOUS
 62
   252
100
AcDbText
 10
135.868253864267
 20
32.025433224584
 30
0.0
 40
2.0
  1
名称
 41
1.171875
  7
EXCADSTD
 72
     5
 11
140.868253864267
 21
32.025433224584
 31
0.0
100
AcDbText
  0
TEXT
  5
2A1B
330
29F4
100
AcDbEntity
  8
図枠細線
  6
CONTINUOUS
 62
   252
100
AcDbText
 10
146.868253864267
 20
17.025433224584
 30
0.0
 40
2.0
  1
ＤＲＧ．ＮＯ．
 41
0.9375
  7
EXCADSTD
 72
     5
 11
160.868253864267
 21
17.025433224584
 31
0.0
100
AcDbText
  0
LINE
  5
2A1C
330
29F4
100
AcDbEntity
  8
図枠太線
  6
CONTINUOUS
 62
   251
100
AcDbLine
 10
192.368245864267
 20
4.525433224584
 30
0.0
 11
192.368245864267
 21
34.525431224584
 31
0.0
  0
ENDBLK
  5
2A1D
330
29F4
100
AcDbEntity
  8
0
100
AcDbBlockEnd
  0
BLOCK
  5
2A33
330
2A32
100
AcDbEntity
  8
0
100
AcDbBlockBegin
  2
A3横用_タイトル
 70
     0
 10
0.0
 20
0.0
 30
0.0
  3
A3横用_タイトル
  1

  0
LINE
  5
2A34
330
2A32
100
AcDbEntity
  8
図枠細線
  6
CONTINUOUS
 62
   252
100
AcDbLine
 10
205.098414535793
 20
33.525959753527
 30
0.0
 11
305.098414535793
 21
33.525959753527
 31
0.0
  0
LINE
  5
2A35
330
2A32
100
AcDbEntity
  8
図枠太線
  6
CONTINUOUS
 62
   251
100
AcDbLine
 10
205.098414535793
 20
23.525959753527
 30
0.0
 11
305.098414535793
 21
23.525959753527
 31
0.0
  0
LINE
  5
2A36
330
2A32
100
AcDbEntity
  8
図枠細線
  6
CONTINUOUS
100
AcDbLine
 10
5.098414535793
 20
23.525959753527
 30
0.0
 11
105.098414535793
 21
23.525959753527
 31
0.0
  0
LINE
  5
2A37
330
2A32
100
AcDbEntity
  8
図枠細線
  6
CONTINUOUS
 62
   252
100
AcDbLine
 10
5.098414535793
 20
36.725957753527
 30
0.0
 11
105.098414535793
 21
36.725957753527
 31
0.0
  0
LINE
  5
2A38
330
2A32
100
AcDbEntity
  8
図枠細線
  6
CONTINUOUS
 62
   252
100
AcDbLine
 10
5.098414535793
 20
30.125957753527
 30
0.0
 11
105.098414535793
 21
30.125957753527
 31
0.0
  0
LINE
  5
2A39
330
2A32
100
AcDbEntity
  8
図枠細線
  6
CONTINUOUS
 62
   252
100
AcDbLine
 10
5.098414535793
 20
16.725959753527
 30
0.0
 11
105.098414535793
 21
16.725959753527
 31
0.0
  0
LINE
  5
2A3A
330
2A32
100
AcDbEntity
  8
図枠細線
  6
CONTINUOUS
 62
   252
100
AcDbLine
 10
5.098414535793
 20
10.125959753527
 30
0.0
 11
105.098414535793
 21
10.125959753527
 31
0.0
  0
LINE
  5
2A3B
330
2A32
100
AcDbEntity
  8
図枠細線
  6
CONTINUOUS
100
AcDbLine
 10
105.098414535793
 20
23.525961753527
 30
0.0
 11
205.098414535793
 21
23.525959753527
 31
0.0
  0
LINE
  5
2A3C
330
2A32
100
AcDbEntity
  8
図枠細線
  6
CONTINUOUS
 62
   252
100
AcDbLine
 10
138.398414535793
 20
43.525959753527
 30
0.0
 11
138.398414535793
 21
18.525957753527
 31
0.0
  0
LINE
  5
2A3D
330
2A32
100
AcDbEntity
  8
図枠細線
  6
CONTINUOUS
 62
   252
100
AcDbLine
 10
171.698414535793
 20
43.525959753527
 30
0.0
 11
171.698414535793
 21
18.525957753527
 31
0.0
  0
LINE
  5
2A3E
330
2A32
100
AcDbEntity
  8
図枠細線
  6
CONTINUOUS
 62
   252
100
AcDbLine
 10
305.098414535793
 20
23.525959753527
 30
0.0
 11
405.098414535793
 21
23.525959753527
 31
0.0
  0
TEXT
  5
2A3F
330
2A32
100
AcDbEntity
  8
図枠ロゴマーク
  6
CONTINUOUS
 62
   253
100
AcDbText
 10
206.102509212755
 20
13.294257570546
 30
0.0
 40
7.0
  1
東和制電工業株式会社
 50
0.016555220185
 41
1.186384129432
  7
EXCADSTD
 72
     5
 11
303.544188309143
 21
13.322412672217
 31
0.0
100
AcDbText
  0
MTEXT
  5
2A40
330
2A32
100
AcDbEntity
  8
図枠細線
100
AcDbMText
 10
6.356764112375
 20
41.976594175478
 30
0.0
 40
2.5
 41
49.938282706292
 71
     1
 72
     5
  1
{\Fmonotxt.shx,bigfont.shx|c128;図暦　CHANGE　NOTICE}
  0
MTEXT
  5
2A41
330
2A32
100
AcDbEntity
  8
図枠細線
 48
10.0
100
AcDbMText
 10
306.544114926828
 20
41.701835800934
 30
0.0
 40
2.5
 41
28.002809618823
 71
     1
 72
     5
  1
{\Fmonotxt.shx,bigfont.shx|c128;名称　TITLE}
  0
MTEXT
  5
2A42
330
2A32
100
AcDbEntity
  8
図枠細線
 48
10.0
100
AcDbMText
 10
307.329617114284
 20
21.606206797226
 30
0.0
 40
2.5
 41
24.385612216707
 71
     1
 72
     5
  1
{\Fmonotxt.shx,bigfont.shx|c128;図面番号\PDRG.　No.}
  0
MTEXT
  5
2A43
330
2A32
100
AcDbEntity
  8
図枠細線
 48
10.0
100
AcDbMText
 10
173.726349404609
 20
21.73680662198
 30
0.0
 40
2.5
 41
25.735090160813
 71
     1
 72
     5
  1
{\Fmonotxt.shx,bigfont.shx|c128;日付 DATE}
  0
MTEXT
  5
2A44
330
2A32
100
AcDbEntity
  8
図枠細線
 48
10.0
100
AcDbMText
 10
173.48708833982
 20
41.621592044998
 30
0.0
 40
2.5
 41
24.983741184205
 71
     1
 72
     5
  1
{\Fmonotxt.shx,bigfont.shx|c128;製図　DRAWN}
  0
MTEXT
  5
2A45
330
2A32
100
AcDbEntity
  8
図枠細線
 48
10.0
100
AcDbMText
 10
139.28009927741
 20
21.866713069868
 30
0.0
 40
2.5
 41
22.629632913243
 71
     1
 72
     5
  1
{\Fmonotxt.shx,bigfont.shx|c128;尺度　SCALE}
  0
MTEXT
  5
2A46
330
2A32
100
AcDbEntity
  8
図枠細線
 48
10.0
100
AcDbMText
 10
139.910091179835
 20
41.311840415554
 30
0.0
 40
2.5
 41
28.998753428368
 71
     1
 72
     5
  1
{\Fmonotxt.shx,bigfont.shx|c128;検図  CHECKED}
  0
MTEXT
  5
2A47
330
2A32
100
AcDbEntity
  8
図枠細線
 48
10.0
100
AcDbMText
 10
114.253294667728
 20
21.916124850174
 30
0.0
 40
3.0
 41
19.692400475383
 71
     1
 72
     5
  1
{\Fmonotxt.shx,bigfont.shx|c128;第三角法}
  0
MTEXT
  5
2A48
330
2A32
100
AcDbEntity
  8
図枠細線
 48
10.0
100
AcDbMText
 10
108.986959929915
 20
15.282880185837
 30
0.0
 40
2.5
 41
27.954882823547
 71
     1
 72
     5
  1
{\Fmonotxt.shx,bigfont.shx|c128;THIRD ANGLE\PPROJECTION}
  0
MTEXT
  5
2A49
330
2A32
100
AcDbEntity
  8
図枠細線
 48
10.0
100
AcDbMText
 10
106.319432640184
 20
41.511437145487
 30
0.0
 40
2.5
 41
28.233595265074
 71
     1
 72
     5
  1
{\Fmonotxt.shx,bigfont.shx|c128;承認 APPROVED}
  0
LINE
  5
2A4A
330
2A32
100
AcDbEntity
  8
図枠太線
  6
CONTINUOUS
 62
   251
100
AcDbLine
 10
5.098414535793
 20
3.525959753527
 30
0.0
 11
405.098414535793
 21
3.525959753527
 31
0.0
  0
LINE
  5
2A4B
330
2A32
100
AcDbEntity
  8
図枠太線
 48
10.0
100
AcDbLine
 10
5.098414535793
 20
3.525959753527
 30
0.0
 11
5.098414535793
 21
43.525959753527
 31
0.0
  0
LINE
  5
2A4C
330
2A32
100
AcDbEntity
  8
図枠太線
  6
CONTINUOUS
 62
   251
100
AcDbLine
 10
105.098414535793
 20
3.525959753527
 30
0.0
 11
105.098414535793
 21
43.525959753527
 31
0.0
  0
LINE
  5
2A4D
330
2A32
100
AcDbEntity
  8
図枠細線
  6
CONTINUOUS
 62
   252
100
AcDbLine
 10
138.398414535793
 20
3.525959753527
 30
0.0
 11
138.398414535793
 21
18.525957753527
 31
0.0
  0
LINE
  5
2A4E
330
2A32
100
AcDbEntity
  8
図枠細線
  6
CONTINUOUS
 62
   252
100
AcDbLine
 10
171.698414535793
 20
3.525959753527
 30
0.0
 11
171.698414535793
 21
18.525957753527
 31
0.0
  0
LINE
  5
2A4F
330
2A32
100
AcDbEntity
  8
図枠太線
  6
CONTINUOUS
 62
   251
100
AcDbLine
 10
205.098414535793
 20
3.525959753527
 30
0.0
 11
205.098414535793
 21
43.525959753527
 31
0.0
  0
LINE
  5
2A50
330
2A32
100
AcDbEntity
  8
図枠太線
 48
10.0
100
AcDbLine
 10
405.098414535793
 20
43.525959753527
 30
0.0
 11
405.098414535793
 21
3.525959753527
 31
0.0
  0
TEXT
  5
2A51
330
2A32
100
AcDbEntity
  8
図枠細線
  6
CONTINUOUS
 62
   252
100
AcDbText
 10
208.519754474572
 20
6.482358407285
 30
0.0
 40
3.5
  1
ＴＯＷＡ　ＳＥＩＤＥＮ　ＩＮＤＵＳＴＲＩＡＬ　ＣＯ．，ＬＴＤ．
 41
0.746656297509
  7
EXCADSTD
 72
     5
 11
303.295327171727
 21
6.482358407285
 31
0.0
100
AcDbText
  0
LINE
  5
2A52
330
2A32
100
AcDbEntity
  8
図枠太線
  6
CONTINUOUS
 62
   251
100
AcDbLine
 10
305.098414535793
 20
3.525959753527
 30
0.0
 11
305.098414535793
 21
43.525959753527
 31
0.0
  0
ENDBLK
  5
2A53
330
2A32
100
AcDbEntity
  8
0
100
AcDbBlockEnd
  0
BLOCK
  5
2A6D
330
2A6C
100
AcDbEntity
  8
0
100
AcDbBlockBegin
  2
A3縦用_タイトル
 70
     0
 10
0.0
 20
0.0
 30
0.0
  3
A3縦用_タイトル
  1

  0
MTEXT
  5
2A6E
330
2A6C
100
AcDbEntity
  8
図枠細線
100
AcDbMText
 10
5.040804501593
 20
31.626098649005
 30
0.0
 40
2.5
 41
49.938282706292
 71
     1
 72
     5
  1
{\Fmonotxt.shx,bigfont.shx|c128;図暦　CHANGE　NOTICE}
  0
LINE
  5
2A6F
330
2A6C
100
AcDbEntity
  8
図枠太線
  6
CONTINUOUS
 62
   251
100
AcDbLine
 10
283.577871882961
 20
2.820844689254
 30
0.0
 11
283.577871882961
 21
32.820842689254
 31
0.0
  0
MTEXT
  5
2A70
330
2A6C
100
AcDbEntity
  8
図枠細線
 48
10.0
100
AcDbMText
 10
214.912458947454
 20
31.621488632308
 30
0.0
 40
2.5
 41
28.002809618823
 71
     1
 72
     5
  1
{\Fmonotxt.shx,bigfont.shx|c128;名称　TITLE}
  0
MTEXT
  5
2A71
330
2A6C
100
AcDbEntity
  8
図枠細線
 48
10.0
100
AcDbMText
 10
214.740030458938
 20
16.310225796722
 30
0.0
 40
2.5
 41
24.385612216707
 71
     1
 72
     5
  1
{\Fmonotxt.shx,bigfont.shx|c128;図面番号\PDRG.　No.}
  0
LINE
  5
2A72
330
2A6C
100
AcDbEntity
  8
図枠太線
  6
CONTINUOUS
 62
   251
100
AcDbLine
 10
213.577871882961
 20
2.820844689254
 30
0.0
 11
213.577871882961
 21
32.820842689254
 31
0.0
  0
LINE
  5
2A73
330
2A6C
100
AcDbEntity
  8
図枠太線
  6
CONTINUOUS
 62
   251
100
AcDbLine
 10
143.577871882961
 20
2.820844689254
 30
0.0
 11
143.577871882961
 21
32.820842689254
 31
0.0
  0
TEXT
  5
2A74
330
2A6C
100
AcDbEntity
  8
図枠細線
  6
CONTINUOUS
 62
   252
100
AcDbText
 10
145.716454488093
 20
4.468335689254
 30
0.0
 40
3.5
  1
ＴＯＷＡ　ＳＥＩＤＥＮ　ＩＮＤＵＳＴＲＩＡＬ　ＣＯ．，ＬＴＤ．
 41
0.528937826907
  7
EXCADSTD
 72
     5
 11
212.856295983498
 21
4.468335689254
 31
0.0
100
AcDbText
  0
TEXT
  5
2A75
330
2A6C
100
AcDbEntity
  8
図枠ロゴマーク
  6
CONTINUOUS
 62
   253
100
AcDbText
 10
145.950637593507
 20
9.413236689254
 30
0.0
 40
7.0
  1
東和制電工業株式会社
 41
0.80361088462
  7
EXCADSTD
 72
     5
 11
211.953878250259
 21
9.413236689254
 31
0.0
100
AcDbText
  0
LINE
  5
2A76
330
2A6C
100
AcDbEntity
  8
図枠細線
  6
CONTINUOUS
 62
   252
100
AcDbLine
 10
143.577871882961
 20
25.320842689254
 30
0.0
 11
213.577871882961
 21
25.320842689254
 31
0.0
  0
LINE
  5
2A77
330
2A6C
100
AcDbEntity
  8
図枠太線
  6
CONTINUOUS
 62
   251
100
AcDbLine
 10
143.577863882961
 20
17.820842689254
 30
0.0
 11
213.577871882961
 21
17.820842689254
 31
0.0
  0
LINE
  5
2A78
330
2A6C
100
AcDbEntity
  8
図枠細線
  6
CONTINUOUS
 62
   252
100
AcDbLine
 10
213.577871882961
 20
17.820842689254
 30
0.0
 11
283.577871882961
 21
17.820842689254
 31
0.0
  0
LINE
  5
2A79
330
2A6C
100
AcDbEntity
  8
図枠細線
  6
CONTINUOUS
 62
   252
100
AcDbLine
 10
120.577871882961
 20
32.820842689254
 30
0.0
 11
120.577871882961
 21
17.820842689254
 31
0.0
  0
MTEXT
  5
2A7A
330
2A6C
100
AcDbEntity
  8
図枠細線
 48
10.0
100
AcDbMText
 10
121.100885670352
 20
16.33785922638
 30
0.0
 40
2.0
 41
17.705978285068
 71
     1
 72
     5
  1
{\Fmonotxt.shx,bigfont.shx|c128;日付 DATE}
  0
MTEXT
  5
2A7B
330
2A6C
100
AcDbEntity
  8
図枠細線
 48
10.0
100
AcDbMText
 10
121.254842273491
 20
31.208993514037
 30
0.0
 40
2.0
 41
18.363799568758
 71
     1
 72
     5
  1
{\Fmonotxt.shx,bigfont.shx|c128;製図　DRAWN}
  0
LINE
  5
2A7C
330
2A6C
100
AcDbEntity
  8
図枠細線
  6
CONTINUOUS
 62
   252
100
AcDbLine
 10
97.577871882961
 20
32.820842689254
 30
0.0
 11
97.577871882961
 21
17.820842689254
 31
0.0
  0
MTEXT
  5
2A7D
330
2A6C
100
AcDbEntity
  8
図枠細線
 48
10.0
100
AcDbMText
 10
98.239734796872
 20
16.467764839281
 30
0.0
 40
2.0
 41
17.757791689903
 71
     1
 72
     5
  1
{\Fmonotxt.shx,bigfont.shx|c128;尺度　SCALE}
  0
MTEXT
  5
2A7E
330
2A6C
100
AcDbEntity
  8
図枠細線
 48
10.0
100
AcDbMText
 10
97.864744625154
 20
31.298433377664
 30
0.0
 40
2.0
 41
23.162655920976
 71
     1
 72
     5
  1
{\Fmonotxt.shx,bigfont.shx|c128;検図  CHECKED}
  0
LINE
  5
2A7F
330
2A6C
100
AcDbEntity
  8
図枠細線
  6
CONTINUOUS
 62
   252
100
AcDbLine
 10
97.577871882961
 20
2.820843367826
 30
0.0
 11
97.577871882961
 21
17.820841367826
 31
0.0
  0
LINE
  5
2A80
330
2A6C
100
AcDbEntity
  8
図枠細線
  6
CONTINUOUS
 62
   252
100
AcDbLine
 10
120.577871882961
 20
2.820844010683
 30
0.0
 11
120.577871882961
 21
17.820842010683
 31
0.0
  0
MTEXT
  5
2A81
330
2A6C
100
AcDbEntity
  8
図枠細線
 48
10.0
100
AcDbMText
 10
81.402399084102
 20
16.316484117426
 30
0.0
 40
2.0
 41
12.920322819369
 71
     1
 72
     5
  1
{\Fmonotxt.shx,bigfont.shx|c128;第三角法}
  0
MTEXT
  5
2A82
330
2A6C
100
AcDbEntity
  8
図枠細線
 48
10.0
100
AcDbMText
 10
75.736576535096
 20
11.080410931319
 30
0.0
 40
2.0
 41
21.072870671471
 71
     1
 72
     5
  1
{\Fmonotxt.shx,bigfont.shx|c128;THIRD ANGLE\PPROJECTION}
  0
LINE
  5
2A83
330
2A6C
100
AcDbEntity
  8
図枠太線
  6
CONTINUOUS
 62
   251
100
AcDbLine
 10
74.577871882961
 20
2.820844689254
 30
0.0
 11
74.577871882961
 21
32.820842689254
 31
0.0
  0
MTEXT
  5
2A84
330
2A6C
100
AcDbEntity
  8
図枠細線
 48
10.0
100
AcDbMText
 10
75.060214781573
 20
31.298434778555
 30
0.0
 40
2.0
 41
22.240928805967
 71
     1
 72
     5
  1
{\Fmonotxt.shx,bigfont.shx|c128;承認 APPROVED}
  0
LINE
  5
2A85
330
2A6C
100
AcDbEntity
  8
図枠細線
  6
CONTINUOUS
100
AcDbLine
 10
3.577871882961
 20
17.820844689254
 30
0.0
 11
74.577871882961
 21
17.820844689254
 31
0.0
  0
LINE
  5
2A86
330
2A6C
100
AcDbEntity
  8
図枠細線
  6
CONTINUOUS
 62
   252
100
AcDbLine
 10
3.577871882961
 20
27.820842689254
 30
0.0
 11
74.577871882961
 21
27.820842689254
 31
0.0
  0
LINE
  5
2A87
330
2A6C
100
AcDbEntity
  8
図枠細線
  6
CONTINUOUS
 62
   252
100
AcDbLine
 10
3.577871882961
 20
22.820842689254
 30
0.0
 11
74.577871882961
 21
22.820842689254
 31
0.0
  0
LINE
  5
2A88
330
2A6C
100
AcDbEntity
  8
図枠細線
  6
CONTINUOUS
 62
   252
100
AcDbLine
 10
3.577871882961
 20
12.820842689254
 30
0.0
 11
74.577871882961
 21
12.820842689254
 31
0.0
  0
LINE
  5
2A89
330
2A6C
100
AcDbEntity
  8
図枠細線
  6
CONTINUOUS
 62
   252
100
AcDbLine
 10
3.577871882961
 20
7.820844689254
 30
0.0
 11
74.577871882961
 21
7.820844689254
 31
0.0
  0
LINE
  5
2A8A
330
2A6C
100
AcDbEntity
  8
図枠細線
  6
CONTINUOUS
100
AcDbLine
 10
74.577871882961
 20
17.820843689254
 30
0.0
 11
143.577871882961
 21
17.820841224969
 31
0.0
  0
LINE
  5
2A8B
330
2A6C
100
AcDbEntity
  8
図枠太線
  6
CONTINUOUS
 62
   251
100
AcDbLine
 10
3.577871882961
 20
2.820844689254
 30
0.0
 11
283.577871882961
 21
2.820844689254
 31
0.0
  0
LINE
  5
2A8C
330
2A6C
100
AcDbEntity
  8
図枠太線
  6
CONTINUOUS
 62
   251
100
AcDbLine
 10
3.577871882961
 20
2.820844689254
 30
0.0
 11
3.577871882961
 21
32.820842689254
 31
0.0
  0
ENDBLK
  5
2A8D
330
2A6C
100
AcDbEntity
  8
0
100
AcDbBlockEnd
  0
BLOCK
  5
2AF8
330
2AF4
100
AcDbEntity
  8
0
 48
10.0
100
AcDbBlockBegin
  2
_OPEN30
 70
     0
 10
0.0
 20
0.0
 30
0.0
  3
_OPEN30
  1

  0
LINE
  5
2AF5
330
2AF4
100
AcDbEntity
  8
0
  6
BYBLOCK
 62
     0
100
AcDbLine
 10
-1.0
 20
0.26794919
 30
0.0
 11
0.0
 21
0.0
 31
0.0
  0
LINE
  5
2AF6
330
2AF4
100
AcDbEntity
  8
0
  6
BYBLOCK
 62
     0
100
AcDbLine
 10
0.0
 20
0.0
 30
0.0
 11
-1.0
 21
-0.26794919
 31
0.0
  0
LINE
  5
2AF7
330
2AF4
100
AcDbEntity
  8
0
  6
BYBLOCK
 62
     0
100
AcDbLine
 10
0.0
 20
0.0
 30
0.0
 11
-1.0
 21
0.0
 31
0.0
  0
ENDBLK
  5
2AF9
330
2AF4
100
AcDbEntity
  8
0
 48
10.0
100
AcDbBlockEnd
  0
BLOCK
  5
4B17
330
4B0D
100
AcDbEntity
  8
0
 48
10.0
100
AcDbBlockBegin
  2
*D6
 70
     1
 10
0.0
 20
0.0
 30
0.0
  3
*D6
  1

  0
LINE
  5
4C3B
330
4B0D
100
AcDbEntity
  8
寸法線
 62
     0
 48
10.0
100
AcDbLine
 10
898.250019750646
 20
1071.410567201735
 30
0.0
 11
846.439864152243
 21
1071.410567201735
 31
0.0
  0
LINE
  5
4C3C
330
4B0D
100
AcDbEntity
  8
寸法線
 62
     0
 48
10.0
100
AcDbLine
 10
898.250019750646
 20
1097.410567201735
 30
0.0
 11
846.439864152243
 21
1097.410567201735
 31
0.0
  0
LINE
  5
4C3D
330
4B0D
100
AcDbEntity
  8
寸法線
 62
     0
 48
10.0
100
AcDbLine
 10
847.689864152243
 20
1075.710567201735
 30
0.0
 11
847.689864152243
 21
1093.110567201735
 31
0.0
  0
INSERT
  5
4C3E
330
4B0D
100
AcDbEntity
  8
寸法線
 62
     0
 48
10.0
100
AcDbBlockReference
  2
_OPEN30
 10
847.689864152243
 20
1071.410567201735
 30
0.0
 41
4.3
 42
4.3
 43
4.3
 50
270.0
  0
INSERT
  5
4C3F
330
4B0D
100
AcDbEntity
  8
寸法線
 62
     0
 48
10.0
100
AcDbBlockReference
  2
_OPEN30
 10
847.689864152243
 20
1097.410567201735
 30
0.0
 41
4.3
 42
4.3
 43
4.3
 50
90.0
  0
MTEXT
  5
4C40
330
4B0D
100
AcDbEntity
  8
寸法線
 62
     0
 48
10.0
100
AcDbMText
 10
843.064076750668
 20
1084.410567201735
 30
0.0
 40
8.0
 41
0.0
 71
     5
 72
     1
  1
\A1;26
 11
6.123031769111886E-17
 21
1.0
 31
0.0
  0
POINT
  5
4C41
330
4B0D
100
AcDbEntity
  8
DEFPOINTS
 62
     0
 48
10.0
100
AcDbPoint
 10
898.875019750646
 20
1071.410567201735
 30
0.0
  0
POINT
  5
4C42
330
4B0D
100
AcDbEntity
  8
DEFPOINTS
 62
     0
 48
10.0
100
AcDbPoint
 10
898.875019750646
 20
1097.410567201735
 30
0.0
  0
POINT
  5
4C43
330
4B0D
100
AcDbEntity
  8
DEFPOINTS
 62
     0
 48
10.0
100
AcDbPoint
 10
847.689864152243
 20
1097.410567201735
 30
0.0
  0
ENDBLK
  5
4B18
330
4B0D
100
AcDbEntity
  8
0
 48
10.0
100
AcDbBlockEnd
  0
BLOCK
  5
4B23
330
4B19
100
AcDbEntity
  8
0
 48
10.0
100
AcDbBlockBegin
  2
*D7
 70
     1
 10
0.0
 20
0.0
 30
0.0
  3
*D7
  1

  0
LINE
  5
4C44
330
4B19
100
AcDbEntity
  8
寸法線
 62
     0
 48
10.0
100
AcDbLine
 10
885.250019750646
 20
1076.410567201735
 30
0.0
 11
867.940613025691
 21
1076.410567201735
 31
0.0
  0
LINE
  5
4C45
330
4B19
100
AcDbEntity
  8
寸法線
 62
     0
 48
10.0
100
AcDbLine
 10
885.250019750646
 20
1092.410567201735
 30
0.0
 11
867.940613025691
 21
1092.410567201735
 31
0.0
  0
LINE
  5
4C46
330
4B19
100
AcDbEntity
  8
寸法線
 62
     0
 48
10.0
100
AcDbLine
 10
869.190613025691
 20
1080.710567201735
 30
0.0
 11
869.190613025691
 21
1088.110567201735
 31
0.0
  0
INSERT
  5
4C47
330
4B19
100
AcDbEntity
  8
寸法線
 62
     0
 48
10.0
100
AcDbBlockReference
  2
_OPEN30
 10
869.190613025691
 20
1076.410567201735
 30
0.0
 41
4.3
 42
4.3
 43
4.3
 50
270.0
  0
INSERT
  5
4C48
330
4B19
100
AcDbEntity
  8
寸法線
 62
     0
 48
10.0
100
AcDbBlockReference
  2
_OPEN30
 10
869.190613025691
 20
1092.410567201735
 30
0.0
 41
4.3
 42
4.3
 43
4.3
 50
90.0
  0
MTEXT
  5
4C49
330
4B19
100
AcDbEntity
  8
寸法線
 62
     0
 48
10.0
100
AcDbMText
 10
864.565613025691
 20
1084.410567201735
 30
0.0
 40
8.0
 41
0.0
 71
     5
 72
     1
  1
\A1;15.6
 11
6.123031769111886E-17
 21
1.0
 31
0.0
  0
POINT
  5
4C4A
330
4B19
100
AcDbEntity
  8
DEFPOINTS
 62
     0
 48
10.0
100
AcDbPoint
 10
885.875019750646
 20
1076.410567201735
 30
0.0
  0
POINT
  5
4C4B
330
4B19
100
AcDbEntity
  8
DEFPOINTS
 62
     0
 48
10.0
100
AcDbPoint
 10
885.875019750646
 20
1092.410567201735
 30
0.0
  0
POINT
  5
4C4C
330
4B19
100
AcDbEntity
  8
DEFPOINTS
 62
     0
 48
10.0
100
AcDbPoint
 10
869.190613025691
 20
1092.410567201735
 30
0.0
  0
ENDBLK
  5
4B24
330
4B19
100
AcDbEntity
  8
0
 48
10.0
100
AcDbBlockEnd
  0
BLOCK
  5
4B48
330
4B3D
100
AcDbEntity
  8
0
 48
10.0
100
AcDbBlockBegin
  2
*D8
 70
     1
 10
0.0
 20
0.0
 30
0.0
  3
*D8
  1

  0
LINE
  5
4C5F
330
4B3D
100
AcDbEntity
  8
寸法線
 62
     0
 48
10.0
100
AcDbLine
 10
1001.542685459575
 20
1070.410567201735
 30
0.0
 11
1002.167685459575
 21
1070.410567201735
 31
0.0
  0
LINE
  5
4C60
330
4B3D
100
AcDbEntity
  8
寸法線
 62
     0
 48
10.0
100
AcDbLine
 10
1001.542685459575
 20
1098.410567201735
 30
0.0
 11
1002.167685459575
 21
1098.410567201735
 31
0.0
  0
LINE
  5
4C61
330
4B3D
100
AcDbEntity
  8
寸法線
 62
     0
 48
10.0
100
AcDbLine
 10
1000.917685459575
 20
1074.710567201735
 30
0.0
 11
1000.917685459575
 21
1094.110567201735
 31
0.0
  0
LINE
  5
4C62
330
4B3D
100
AcDbEntity
  8
寸法線
 62
     0
 48
10.0
100
AcDbLine
 10
1000.917685459575
 20
1098.410567201735
 30
0.0
 11
1000.917685459575
 21
1121.960567201735
 31
0.0
  0
INSERT
  5
4C63
330
4B3D
100
AcDbEntity
  8
寸法線
 62
     0
 48
10.0
100
AcDbBlockReference
  2
_OPEN30
 10
1000.917685459575
 20
1070.410567201735
 30
0.0
 41
4.3
 42
4.3
 43
4.3
 50
270.0
  0
INSERT
  5
4C64
330
4B3D
100
AcDbEntity
  8
寸法線
 62
     0
 48
10.0
100
AcDbBlockReference
  2
_OPEN30
 10
1000.917685459575
 20
1098.410567201735
 30
0.0
 41
4.3
 42
4.3
 43
4.3
 50
90.0
  0
MTEXT
  5
4C65
330
4B3D
100
AcDbEntity
  8
寸法線
 62
     0
 48
10.0
100
AcDbMText
 10
996.291898058
 20
1112.335567201735
 30
0.0
 40
8.0
 41
0.0
 71
     5
 72
     1
  1
\A1;φ28
 11
6.123031769111886E-17
 21
1.0
 31
0.0
  0
POINT
  5
4C66
330
4B3D
100
AcDbEntity
  8
DEFPOINTS
 62
     0
 48
10.0
100
AcDbPoint
 10
1000.917685459575
 20
1070.410567201735
 30
0.0
  0
POINT
  5
4C67
330
4B3D
100
AcDbEntity
  8
DEFPOINTS
 62
     0
 48
10.0
100
AcDbPoint
 10
1000.917685459575
 20
1098.410567201735
 30
0.0
  0
POINT
  5
4C68
330
4B3D
100
AcDbEntity
  8
DEFPOINTS
 62
     0
 48
10.0
100
AcDbPoint
 10
1000.917685459575
 20
1098.410567201735
 30
0.0
  0
ENDBLK
  5
4B49
330
4B3D
100
AcDbEntity
  8
0
 48
10.0
100
AcDbBlockEnd
  0
BLOCK
  5
4B60
330
4B56
100
AcDbEntity
  8
0
 48
10.0
100
AcDbBlockBegin
  2
*D9
 70
     1
 10
0.0
 20
0.0
 30
0.0
  3
*D9
  1

  0
LINE
  5
4C72
330
4B56
100
AcDbEntity
  8
寸法線
 62
     0
 48
10.0
100
AcDbLine
 10
1166.617143792532
 20
1084.410567201734
 30
0.0
 11
1188.41447788935
 21
1084.410567201734
 31
0.0
  0
LINE
  5
4C73
330
4B56
100
AcDbEntity
  8
寸法線
 62
     0
 48
10.0
100
AcDbLine
 10
1124.044581758043
 20
995.410567201734
 30
0.0
 11
1188.41447788935
 21
995.410567201734
 31
0.0
  0
LINE
  5
4C74
330
4B56
100
AcDbEntity
  8
寸法線
 62
     0
 48
10.0
100
AcDbLine
 10
1187.16447788935
 20
1078.410567201734
 30
0.0
 11
1187.16447788935
 21
1001.410567201734
 31
0.0
  0
INSERT
  5
4C75
330
4B56
100
AcDbEntity
  8
寸法線
 62
     0
 48
10.0
100
AcDbBlockReference
  2
_OPEN30
 10
1187.16447788935
 20
1084.410567201734
 30
0.0
 41
6.0
 42
6.0
 43
6.0
 50
90.0
  0
INSERT
  5
4C76
330
4B56
100
AcDbEntity
  8
寸法線
 62
     0
 48
10.0
100
AcDbBlockReference
  2
_OPEN30
 10
1187.16447788935
 20
995.410567201734
 30
0.0
 41
6.0
 42
6.0
 43
6.0
 50
270.0
  0
MTEXT
  5
4C77
330
4B56
100
AcDbEntity
  8
寸法線
 62
     0
 48
10.0
100
AcDbMText
 10
1182.53947788935
 20
1054.925830226037
 30
0.0
 40
8.0
 41
0.0
 71
     5
 72
     1
  1
\A1;89
 11
6.123031769111886E-17
 21
1.0
 31
0.0
  0
POINT
  5
4C78
330
4B56
100
AcDbEntity
  8
DEFPOINTS
 62
     0
 48
10.0
100
AcDbPoint
 10
1165.992143792532
 20
1084.410567201734
 30
0.0
  0
POINT
  5
4C79
330
4B56
100
AcDbEntity
  8
DEFPOINTS
 62
     0
 48
10.0
100
AcDbPoint
 10
1123.419581758043
 20
995.410567201734
 30
0.0
  0
POINT
  5
4C7A
330
4B56
100
AcDbEntity
  8
DEFPOINTS
 62
     0
 48
10.0
100
AcDbPoint
 10
1187.16447788935
 20
995.410567201734
 30
0.0
  0
ENDBLK
  5
4B61
330
4B56
100
AcDbEntity
  8
0
 48
10.0
100
AcDbBlockEnd
  0
BLOCK
  5
4B6C
330
4B62
100
AcDbEntity
  8
0
 48
10.0
100
AcDbBlockBegin
  2
*D10
 70
     1
 10
0.0
 20
0.0
 30
0.0
  3
*D10
  1

  0
LINE
  5
4C7B
330
4B62
100
AcDbEntity
  8
寸法線
 62
     0
 48
10.0
100
AcDbLine
 10
1138.900690108962
 20
1034.011326871618
 30
0.0
 11
1208.320084596346
 21
1034.011326871618
 31
0.0
  0
LINE
  5
4C7C
330
4B62
100
AcDbEntity
  8
寸法線
 62
     0
 48
10.0
100
AcDbLine
 10
1138.900690108962
 20
1134.578830875442
 30
0.0
 11
1208.320084596346
 21
1134.578830875442
 31
0.0
  0
LINE
  5
4C7D
330
4B62
100
AcDbEntity
  8
寸法線
 62
     0
 48
10.0
100
AcDbLine
 10
1207.070084596346
 20
1040.011326871618
 30
0.0
 11
1207.070084596346
 21
1128.578830875442
 31
0.0
  0
INSERT
  5
4C7E
330
4B62
100
AcDbEntity
  8
寸法線
 62
     0
 48
10.0
100
AcDbBlockReference
  2
_OPEN30
 10
1207.070084596346
 20
1034.011326871618
 30
0.0
 41
6.0
 42
6.0
 43
6.0
 50
270.0
  0
INSERT
  5
4C7F
330
4B62
100
AcDbEntity
  8
寸法線
 62
     0
 48
10.0
100
AcDbBlockReference
  2
_OPEN30
 10
1207.070084596346
 20
1134.578830875442
 30
0.0
 41
6.0
 42
6.0
 43
6.0
 50
90.0
  0
MTEXT
  5
4C80
330
4B62
100
AcDbEntity
  8
寸法線
 62
     0
 48
10.0
100
AcDbMText
 10
1202.445084596346
 20
1084.29507887353
 30
0.0
 40
8.0
 41
0.0
 71
     5
 72
     1
  1
\A1;φ100
 11
6.123031769111886E-17
 21
1.0
 31
0.0
  0
POINT
  5
4C81
330
4B62
100
AcDbEntity
  8
DEFPOINTS
 62
     0
 48
10.0
100
AcDbPoint
 10
1138.275690108962
 20
1034.011326871618
 30
0.0
  0
POINT
  5
4C82
330
4B62
100
AcDbEntity
  8
DEFPOINTS
 62
     0
 48
10.0
100
AcDbPoint
 10
1138.275690108962
 20
1134.578830875442
 30
0.0
  0
POINT
  5
4C83
330
4B62
100
AcDbEntity
  8
DEFPOINTS
 62
     0
 48
10.0
100
AcDbPoint
 10
1207.070084596346
 20
1134.578830875442
 30
0.0
  0
ENDBLK
  5
4B6D
330
4B62
100
AcDbEntity
  8
0
 48
10.0
100
AcDbBlockEnd
  0
BLOCK
  5
4C8F
330
4C85
100
AcDbEntity
  8
0
 48
10.0
100
AcDbBlockBegin
  2
*D11
 70
     1
 10
0.0
 20
0.0
 30
0.0
  3
*D11
  1

  0
LINE
  5
4CCF
330
4C85
100
AcDbEntity
  8
寸法線
 62
     0
 48
10.0
100
AcDbLine
 10
1051.876420590054
 20
1063.785567201735
 30
0.0
 11
1051.876420590054
 21
965.660567201736
 31
0.0
  0
LINE
  5
4CD0
330
4C85
100
AcDbEntity
  8
寸法線
 62
     0
 48
10.0
100
AcDbLine
 10
1165.992897297036
 20
1039.252896478084
 30
0.0
 11
1165.992897297036
 21
965.660567201736
 31
0.0
  0
LINE
  5
4CD1
330
4C85
100
AcDbEntity
  8
寸法線
 62
     0
 48
10.0
100
AcDbLine
 10
1057.876420590054
 20
966.910567201736
 30
0.0
 11
1159.992897297036
 21
966.910567201736
 31
0.0
  0
INSERT
  5
4CD2
330
4C85
100
AcDbEntity
  8
寸法線
 62
     0
 48
10.0
100
AcDbBlockReference
  2
_OPEN30
 10
1051.876420590054
 20
966.910567201736
 30
0.0
 41
6.0
 42
6.0
 43
6.0
 50
180.0
  0
INSERT
  5
4CD3
330
4C85
100
AcDbEntity
  8
寸法線
 62
     0
 48
10.0
100
AcDbBlockReference
  2
_OPEN30
 10
1165.992897297036
 20
966.910567201736
 30
0.0
 41
6.0
 42
6.0
 43
6.0
  0
MTEXT
  5
4CD4
330
4C85
100
AcDbEntity
  8
寸法線
 62
     0
 48
10.0
100
AcDbMText
 10
1108.934658943545
 20
971.535567201736
 30
0.0
 40
8.0
 41
0.0
 71
     5
 72
     1
  1
\A1;111
  0
POINT
  5
4CD5
330
4C85
100
AcDbEntity
  8
DEFPOINTS
 62
     0
 48
10.0
100
AcDbPoint
 10
1051.876420590054
 20
1064.410567201735
 30
0.0
  0
POINT
  5
4CD6
330
4C85
100
AcDbEntity
  8
DEFPOINTS
 62
     0
 48
10.0
100
AcDbPoint
 10
1165.992897297036
 20
1039.877896478084
 30
0.0
  0
POINT
  5
4CD7
330
4C85
100
AcDbEntity
  8
DEFPOINTS
 62
     0
 48
10.0
100
AcDbPoint
 10
1165.992897297036
 20
966.910567201736
 30
0.0
  0
ENDBLK
  5
4C90
330
4C85
100
AcDbEntity
  8
0
 48
10.0
100
AcDbBlockEnd
  0
BLOCK
  5
4C9C
330
4C92
100
AcDbEntity
  8
0
 48
10.0
100
AcDbBlockBegin
  2
*D12
 70
     1
 10
0.0
 20
0.0
 30
0.0
  3
*D12
  1

  0
LINE
  5
4CA7
330
4C92
100
AcDbEntity
  8
寸法線
 62
     0
 48
10.0
100
AcDbLine
 10
885.875019750646
 20
1074.785567201736
 30
0.0
 11
885.875019750646
 21
965.660567201736
 31
0.0
  0
LINE
  5
4CA8
330
4C92
100
AcDbEntity
  8
寸法線
 62
     0
 48
10.0
100
AcDbLine
 10
1051.876420590054
 20
1063.785567201735
 30
0.0
 11
1051.876420590054
 21
965.660567201736
 31
0.0
  0
LINE
  5
4CA9
330
4C92
100
AcDbEntity
  8
寸法線
 62
     0
 48
10.0
100
AcDbLine
 10
891.875019750646
 20
966.910567201736
 30
0.0
 11
1045.876420590054
 21
966.910567201736
 31
0.0
  0
INSERT
  5
4CAA
330
4C92
100
AcDbEntity
  8
寸法線
 62
     0
 48
10.0
100
AcDbBlockReference
  2
_OPEN30
 10
885.875019750646
 20
966.910567201736
 30
0.0
 41
6.0
 42
6.0
 43
6.0
 50
180.0
  0
INSERT
  5
4CAB
330
4C92
100
AcDbEntity
  8
寸法線
 62
     0
 48
10.0
100
AcDbBlockReference
  2
_OPEN30
 10
1051.876420590054
 20
966.910567201736
 30
0.0
 41
6.0
 42
6.0
 43
6.0
  0
POINT
  5
4CAC
330
4C92
100
AcDbEntity
  8
DEFPOINTS
 62
     0
 48
10.0
100
AcDbPoint
 10
885.875019750646
 20
1075.410567201736
 30
0.0
  0
POINT
  5
4CAD
330
4C92
100
AcDbEntity
  8
DEFPOINTS
 62
     0
 48
10.0
100
AcDbPoint
 10
1051.876420590054
 20
1064.410567201735
 30
0.0
  0
POINT
  5
4CAE
330
4C92
100
AcDbEntity
  8
DEFPOINTS
 62
     0
 48
10.0
100
AcDbPoint
 10
1051.876420590054
 20
966.910567201736
 30
0.0
  0
ENDBLK
  5
4C9D
330
4C92
100
AcDbEntity
  8
0
 48
10.0
100
AcDbBlockEnd
  0
BLOCK
  5
4CC4
330
4CBA
100
AcDbEntity
  8
0
 48
10.0
100
AcDbBlockBegin
  2
*D13
 70
     1
 10
0.0
 20
0.0
 30
0.0
  3
*D13
  1

  0
LINE
  5
4CC6
330
4CBA
100
AcDbEntity
  8
寸法線
 62
     0
 48
10.0
100
AcDbLine
 10
925.875019750646
 20
1069.785567201736
 30
0.0
 11
925.875019750646
 21
1037.832739329584
 31
0.0
  0
LINE
  5
4CC7
330
4CBA
100
AcDbEntity
  8
寸法線
 62
     0
 48
10.0
100
AcDbLine
 10
885.875019750646
 20
1074.785567201736
 30
0.0
 11
885.875019750646
 21
1037.832739329584
 31
0.0
  0
LINE
  5
4CC8
330
4CBA
100
AcDbEntity
  8
寸法線
 62
     0
 48
10.0
100
AcDbLine
 10
919.875019750646
 20
1039.082739329584
 30
0.0
 11
891.875019750646
 21
1039.082739329584
 31
0.0
  0
INSERT
  5
4CC9
330
4CBA
100
AcDbEntity
  8
寸法線
 62
     0
 48
10.0
100
AcDbBlockReference
  2
_OPEN30
 10
925.875019750646
 20
1039.082739329584
 30
0.0
 41
6.0
 42
6.0
 43
6.0
  0
INSERT
  5
4CCA
330
4CBA
100
AcDbEntity
  8
寸法線
 62
     0
 48
10.0
100
AcDbBlockReference
  2
_OPEN30
 10
885.875019750646
 20
1039.082739329584
 30
0.0
 41
6.0
 42
6.0
 43
6.0
 50
180.0
  0
MTEXT
  5
4CCB
330
4CBA
100
AcDbEntity
  8
寸法線
 62
     0
 48
10.0
100
AcDbMText
 10
905.875019750646
 20
1043.707739329584
 30
0.0
 40
8.0
 41
0.0
 71
     5
 72
     1
  1
\A1;40
  0
POINT
  5
4CCC
330
4CBA
100
AcDbEntity
  8
DEFPOINTS
 62
     0
 48
10.0
100
AcDbPoint
 10
925.875019750646
 20
1070.410567201736
 30
0.0
  0
POINT
  5
4CCD
330
4CBA
100
AcDbEntity
  8
DEFPOINTS
 62
     0
 48
10.0
100
AcDbPoint
 10
885.875019750646
 20
1075.410567201736
 30
0.0
  0
POINT
  5
4CCE
330
4CBA
100
AcDbEntity
  8
DEFPOINTS
 62
     0
 48
10.0
100
AcDbPoint
 10
885.875019750646
 20
1039.082739329584
 30
0.0
  0
ENDBLK
  5
4CC5
330
4CBA
100
AcDbEntity
  8
0
 48
10.0
100
AcDbBlockEnd
  0
BLOCK
  5
4CE8
330
4CDE
100
AcDbEntity
  8
0
 48
10.0
100
AcDbBlockBegin
  2
*D14
 70
     1
 10
0.0
 20
0.0
 30
0.0
  3
*D14
  1

  0
LINE
  5
4CEA
330
4CDE
100
AcDbEntity
  8
寸法線
 62
     0
 48
10.0
100
AcDbLine
 10
1036.876420590054
 20
1069.035567201735
 30
0.0
 11
1036.876420590054
 21
1037.832739329584
 31
0.0
  0
LINE
  5
4CEB
330
4CDE
100
AcDbEntity
  8
寸法線
 62
     0
 48
10.0
100
AcDbLine
 10
1051.876420590054
 20
1063.785567201735
 30
0.0
 11
1051.876420590054
 21
1037.832739329584
 31
0.0
  0
LINE
  5
4CEC
330
4CDE
100
AcDbEntity
  8
寸法線
 62
     0
 48
10.0
100
AcDbLine
 10
1042.876420590054
 20
1039.082739329584
 30
0.0
 11
1045.876420590054
 21
1039.082739329584
 31
0.0
  0
INSERT
  5
4CED
330
4CDE
100
AcDbEntity
  8
寸法線
 62
     0
 48
10.0
100
AcDbBlockReference
  2
_OPEN30
 10
1036.876420590054
 20
1039.082739329584
 30
0.0
 41
6.0
 42
6.0
 43
6.0
 50
180.0
  0
INSERT
  5
4CEE
330
4CDE
100
AcDbEntity
  8
寸法線
 62
     0
 48
10.0
100
AcDbBlockReference
  2
_OPEN30
 10
1051.876420590054
 20
1039.082739329584
 30
0.0
 41
6.0
 42
6.0
 43
6.0
  0
MTEXT
  5
4CEF
330
4CDE
100
AcDbEntity
  8
寸法線
 62
     0
 48
10.0
100
AcDbMText
 10
1044.376420590054
 20
1043.707739329584
 30
0.0
 40
8.0
 41
0.0
 71
     5
 72
     1
  1
\A1;15
  0
POINT
  5
4CF0
330
4CDE
100
AcDbEntity
  8
DEFPOINTS
 62
     0
 48
10.0
100
AcDbPoint
 10
1036.876420590054
 20
1069.660567201735
 30
0.0
  0
POINT
  5
4CF1
330
4CDE
100
AcDbEntity
  8
DEFPOINTS
 62
     0
 48
10.0
100
AcDbPoint
 10
1051.876420590054
 20
1064.410567201735
 30
0.0
  0
POINT
  5
4CF2
330
4CDE
100
AcDbEntity
  8
DEFPOINTS
 62
     0
 48
10.0
100
AcDbPoint
 10
1051.876420590054
 20
1039.082739329584
 30
0.0
  0
ENDBLK
  5
4CE9
330
4CDE
100
AcDbEntity
  8
0
 48
10.0
100
AcDbBlockEnd
  0
ENDSEC
  0
SECTION
  2
ENTITIES
  0
LINE
  5
33A8
330
1A
100
AcDbEntity
  8
寸法線
100
AcDbLine
 10
805.490590341128
 20
937.777733895096
 30
0.0
 11
805.490590341128
 21
887.777733895096
 31
0.0
  0
LINE
  5
33A9
330
1A
100
AcDbEntity
  8
寸法線
100
AcDbLine
 10
805.490590341128
 20
937.777733895096
 30
0.0
 11
660.290590341128
 21
937.777733895096
 31
0.0
  0
LINE
  5
33AA
330
1A
100
AcDbEntity
  8
寸法線
100
AcDbLine
 10
660.290590341128
 20
937.777733895096
 30
0.0
 11
660.290590341128
 21
887.777733895096
 31
0.0
  0
LINE
  5
33AB
330
1A
100
AcDbEntity
  8
寸法線
100
AcDbLine
 10
667.490590341128
 20
885.777733895096
 30
0.0
 11
667.490590341128
 21
847.777733895096
 31
0.0
  0
LINE
  5
33AC
330
1A
100
AcDbEntity
  8
寸法線
100
AcDbLine
 10
798.290590341128
 20
885.777733895096
 30
0.0
 11
798.290590341128
 21
847.777733895096
 31
0.0
  0
CIRCLE
  5
33AD
330
1A
100
AcDbEntity
  8
寸法線
100
AcDbCircle
 10
667.490590341128
 20
887.777733895096
 30
0.0
 40
2.0
  0
CIRCLE
  5
33AE
330
1A
100
AcDbEntity
  8
寸法線
100
AcDbCircle
 10
693.650590341128
 20
887.777733895096
 30
0.0
 40
2.0
  0
CIRCLE
  5
33AF
330
1A
100
AcDbEntity
  8
寸法線
100
AcDbCircle
 10
719.810590341128
 20
887.777733895096
 30
0.0
 40
2.0
  0
CIRCLE
  5
33B0
330
1A
100
AcDbEntity
  8
寸法線
100
AcDbCircle
 10
745.970590341128
 20
887.777733895096
 30
0.0
 40
2.0
  0
CIRCLE
  5
33B1
330
1A
100
AcDbEntity
  8
寸法線
100
AcDbCircle
 10
772.130590341128
 20
887.777733895096
 30
0.0
 40
2.0
  0
CIRCLE
  5
33B2
330
1A
100
AcDbEntity
  8
寸法線
100
AcDbCircle
 10
798.290590341128
 20
887.777733895096
 30
0.0
 40
2.0
  0
LINE
  5
33B3
330
1A
100
AcDbEntity
  8
寸法線
100
AcDbLine
 10
693.650590341128
 20
885.777733895096
 30
0.0
 11
693.650590341128
 21
847.777733895096
 31
0.0
  0
LINE
  5
33B4
330
1A
100
AcDbEntity
  8
寸法線
100
AcDbLine
 10
719.810590341128
 20
885.777733895096
 30
0.0
 11
719.810590341128
 21
847.777733895096
 31
0.0
  0
LINE
  5
33B5
330
1A
100
AcDbEntity
  8
寸法線
100
AcDbLine
 10
745.970590341128
 20
885.777733895096
 30
0.0
 11
745.970590341128
 21
847.777733895096
 31
0.0
  0
LINE
  5
33B6
330
1A
100
AcDbEntity
  8
寸法線
100
AcDbLine
 10
772.130590341128
 20
885.777733895096
 30
0.0
 11
772.130590341128
 21
847.777733895096
 31
0.0
  0
LINE
  5
33B7
330
1A
100
AcDbEntity
  8
寸法線
100
AcDbLine
 10
665.490590341128
 20
887.777733895096
 30
0.0
 11
660.290590341128
 21
887.777733895096
 31
0.0
  0
LINE
  5
33B8
330
1A
100
AcDbEntity
  8
寸法線
100
AcDbLine
 10
669.490590341128
 20
887.777733895096
 30
0.0
 11
691.650590341128
 21
887.777733895096
 31
0.0
  0
LINE
  5
33B9
330
1A
100
AcDbEntity
  8
寸法線
100
AcDbLine
 10
695.650590341128
 20
887.777733895096
 30
0.0
 11
717.810590341128
 21
887.777733895096
 31
0.0
  0
LINE
  5
33BA
330
1A
100
AcDbEntity
  8
寸法線
100
AcDbLine
 10
721.810590341128
 20
887.777733895096
 30
0.0
 11
743.970590341128
 21
887.777733895096
 31
0.0
  0
LINE
  5
33BB
330
1A
100
AcDbEntity
  8
寸法線
100
AcDbLine
 10
747.970590341128
 20
887.777733895096
 30
0.0
 11
770.130590341128
 21
887.777733895096
 31
0.0
  0
LINE
  5
33BC
330
1A
100
AcDbEntity
  8
寸法線
100
AcDbLine
 10
774.130590341128
 20
887.777733895096
 30
0.0
 11
796.290590341128
 21
887.777733895096
 31
0.0
  0
LINE
  5
33BD
330
1A
100
AcDbEntity
  8
寸法線
100
AcDbLine
 10
805.490590341128
 20
887.777733895096
 30
0.0
 11
800.290590341128
 21
887.777733895096
 31
0.0
  0
CIRCLE
  5
33BE
330
1A
100
AcDbEntity
  8
寸法線
100
AcDbCircle
 10
667.290590341128
 20
896.777733895096
 30
0.0
 40
5.0
  0
CIRCLE
  5
33C0
330
1A
100
AcDbEntity
  8
寸法線
100
AcDbCircle
 10
693.690590341128
 20
896.777733895096
 30
0.0
 40
5.0
  0
CIRCLE
  5
33C2
330
1A
100
AcDbEntity
  8
寸法線
100
AcDbCircle
 10
719.890590341128
 20
896.777733895096
 30
0.0
 40
5.0
  0
CIRCLE
  5
33C4
330
1A
100
AcDbEntity
  8
寸法線
100
AcDbCircle
 10
746.090590341128
 20
896.777733895096
 30
0.0
 40
5.0
  0
CIRCLE
  5
33C6
330
1A
100
AcDbEntity
  8
寸法線
100
AcDbCircle
 10
772.290590341128
 20
896.777733895096
 30
0.0
 40
5.0
  0
CIRCLE
  5
33C8
330
1A
100
AcDbEntity
  8
寸法線
100
AcDbCircle
 10
798.490590341128
 20
896.777733895096
 30
0.0
 40
5.0
  0
LINE
  5
33D0
330
1A
100
AcDbEntity
  8
寸法線
100
AcDbLine
 10
658.290590341128
 20
885.777733895096
 30
0.0
 11
658.290590341128
 21
939.777733895096
 31
0.0
  0
LINE
  5
33D1
330
1A
100
AcDbEntity
  8
寸法線
100
AcDbLine
 10
658.290590341128
 20
939.777733895096
 30
0.0
 11
807.490590341128
 21
939.777733895096
 31
0.0
  0
LINE
  5
33D2
330
1A
100
AcDbEntity
  8
寸法線
100
AcDbLine
 10
807.490590341128
 20
885.777733895096
 30
0.0
 11
807.490590341128
 21
939.777733895096
 31
0.0
  0
LINE
  5
33D3
330
1A
100
AcDbEntity
  8
寸法線
100
AcDbLine
 10
658.290590341128
 20
885.777733895096
 30
0.0
 11
807.490590341128
 21
885.777733895096
 31
0.0
  0
LINE
  5
33D4
330
1A
100
AcDbEntity
  8
寸法線
100
AcDbLine
 10
798.290590341128
 20
902.577733895096
 30
0.0
 11
798.290590341128
 21
930.977733895096
 31
0.0
  0
LINE
  5
33D5
330
1A
100
AcDbEntity
  8
寸法線
100
AcDbLine
 10
772.130590341128
 20
902.777733895096
 30
0.0
 11
772.130590341128
 21
912.177733895096
 31
0.0
  0
LINE
  5
33D6
330
1A
100
AcDbEntity
  8
寸法線
100
AcDbLine
 10
745.970590341128
 20
902.777733895096
 30
0.0
 11
745.970590341128
 21
930.977733895096
 31
0.0
  0
CIRCLE
  5
33D7
330
1A
100
AcDbEntity
  8
寸法線
100
AcDbCircle
 10
772.130590341128
 20
914.177733895096
 30
0.0
 40
2.0
  0
LINE
  5
33D8
330
1A
100
AcDbEntity
  8
寸法線
100
AcDbLine
 10
763.19993792727
 20
930.977733895096
 30
0.0
 11
745.970590341128
 21
930.977733895096
 31
0.0
  0
LINE
  5
33D9
330
1A
100
AcDbEntity
  8
寸法線
100
AcDbLine
 10
771.971099896562
 20
916.171364452168
 30
0.0
 11
786.33065621721
 21
932.377733895096
 31
0.0
  0
LINE
  5
33DB
330
1A
100
AcDbEntity
  8
寸法線
100
AcDbLine
 10
785.170590341128
 20
930.977733895096
 30
0.0
 11
798.290590341128
 21
930.977733895096
 31
0.0
  0
POINT
  5
33DC
330
1A
100
AcDbEntity
  8
寸法線
100
AcDbPoint
 10
732.890590341128
 20
887.777733895096
 30
0.0
  0
LINE
  5
33DD
330
1A
100
AcDbEntity
  8
寸法線
100
AcDbLine
 10
732.890590341128
 20
879.357733895096
 30
0.0
 11
732.890590341128
 21
875.817733895096
 31
0.0
  0
CIRCLE
  5
33DE
330
1A
100
AcDbEntity
  8
寸法線
100
AcDbCircle
 10
732.890590341128
 20
874.357733895096
 30
0.0
 40
5.0
  0
LINE
  5
33DF
330
1A
100
AcDbEntity
  8
寸法線
100
AcDbLine
 10
729.230590341128
 20
875.817733895096
 30
0.0
 11
736.750590341128
 21
875.817733895096
 31
0.0
  0
LINE
  5
33E0
330
1A
100
AcDbEntity
  8
寸法線
100
AcDbLine
 10
730.770590341128
 20
874.017733895096
 30
0.0
 11
735.190590341128
 21
874.017733895096
 31
0.0
  0
LINE
  5
33E1
330
1A
100
AcDbEntity
  8
寸法線
100
AcDbLine
 10
731.990590341128
 20
872.277733895096
 30
0.0
 11
734.070590341128
 21
872.277733895096
 31
0.0
  0
LINE
  5
33E2
330
1A
100
AcDbEntity
  8
寸法線
100
AcDbLine
 10
728.490590341128
 20
896.577733895096
 30
0.0
 11
737.290590341129
 21
896.577733895096
 31
0.0
  0
POINT
  5
33E3
330
1A
100
AcDbEntity
  8
寸法線
100
AcDbPoint
 10
732.890590341128
 20
892.177733895096
 30
0.0
  0
CIRCLE
  5
33E4
330
1A
100
AcDbEntity
  8
寸法線
100
AcDbCircle
 10
732.890590341128
 20
892.177733895096
 30
0.0
 40
4.40000000000004
  0
LINE
  5
33E5
330
1A
100
AcDbEntity
  8
寸法線
100
AcDbLine
 10
728.490590341128
 20
887.777733895096
 30
0.0
 11
728.490590341128
 21
896.577733895096
 31
0.0
  0
LINE
  5
33E6
330
1A
100
AcDbEntity
  8
寸法線
100
AcDbLine
 10
737.290590341129
 20
887.777733895096
 30
0.0
 11
737.290590341129
 21
896.577733895096
 31
0.0
  0
LINE
  5
33E7
330
1A
100
AcDbEntity
  8
寸法線
100
AcDbLine
 10
734.890590341128
 20
892.177733895096
 30
0.0
 11
730.890590341128
 21
892.177733895096
 31
0.0
  0
LINE
  5
33E8
330
1A
100
AcDbEntity
  8
寸法線
100
AcDbLine
 10
732.890590341128
 20
890.177733895096
 30
0.0
 11
732.890590341128
 21
894.177733895096
 31
0.0
  0
LINE
  5
33E9
330
1A
100
AcDbEntity
  8
寸法線
100
AcDbLine
 10
732.890590341128
 20
887.777733895096
 30
0.0
 11
732.890590341128
 21
879.357733895096
 31
0.0
  0
MTEXT
  5
3454
330
1A
100
AcDbEntity
  8
寸法線
 48
10.0
100
AcDbMText
 10
662.87381129184
 20
934.649168340119
 30
0.0
 40
8.0
 41
95.557777777778
 71
     1
 72
     5
  1
{\C1;RFM-4□□}
  0
MTEXT
  5
3455
330
1A
100
AcDbEntity
  8
寸法線
 48
10.0
100
AcDbMText
 10
666.090957454037
 20
899.984295583758
 30
0.0
 40
7.0
 41
95.557777777778
 71
     1
 72
     5
  1
{\C1;1}
  0
MTEXT
  5
3456
330
1A
100
AcDbEntity
  8
寸法線
 48
10.0
100
AcDbMText
 10
692.11067824606
 20
899.984295583758
 30
0.0
 40
7.0
 41
95.557777777778
 71
     1
 72
     5
  1
{\C1;2}
  0
MTEXT
  5
3457
330
1A
100
AcDbEntity
  8
寸法線
 48
10.0
100
AcDbMText
 10
718.533766431934
 20
899.984295583758
 30
0.0
 40
7.0
 41
95.557777777778
 71
     1
 72
     5
  1
{\C1;3}
  0
MTEXT
  5
3458
330
1A
100
AcDbEntity
  8
寸法線
 48
10.0
100
AcDbMText
 10
744.518577502901
 20
899.984295583758
 30
0.0
 40
7.0
 41
95.557777777778
 71
     1
 72
     5
  1
{\C1;7}
  0
MTEXT
  5
3459
330
1A
100
AcDbEntity
  8
寸法線
 48
10.0
100
AcDbMText
 10
771.100913101722
 20
899.984295583758
 30
0.0
 40
7.0
 41
95.557777777778
 71
     1
 72
     5
  1
{\C1;8}
  0
MTEXT
  5
345A
330
1A
100
AcDbEntity
  8
寸法線
 48
10.0
100
AcDbMText
 10
796.701715361773
 20
899.984295583758
 30
0.0
 40
7.0
 41
95.557777777778
 71
     1
 72
     5
  1
{\C1;9}
  0
MTEXT
  5
345B
330
1A
100
AcDbEntity
  8
寸法線
 48
10.0
100
AcDbMText
 10
663.503355190246
 20
845.131997963549
 30
0.0
 40
8.0
 41
95.557777777778
 71
     1
 72
     5
  1
{\C1;PE}
  0
MTEXT
  5
345C
330
1A
100
AcDbEntity
  8
寸法線
 48
10.0
100
AcDbMText
 10
691.264196440682
 20
845.131997963549
 30
0.0
 40
8.0
 41
95.557777777778
 71
     1
 72
     5
  1
{\C1;N}
  0
MTEXT
  5
345D
330
1A
100
AcDbEntity
  8
寸法線
 48
10.0
100
AcDbMText
 10
717.157873144028
 20
845.131997963549
 30
0.0
 40
8.0
 41
95.557777777778
 71
     1
 72
     5
  1
{\C1;L1}
  0
MTEXT
  5
345E
330
1A
100
AcDbEntity
  8
寸法線
 48
10.0
100
AcDbMText
 10
741.420651721524
 20
845.131997963549
 30
0.0
 40
8.0
 41
95.557777777778
 71
     1
 72
     5
  1
{\C1;NO}
  0
MTEXT
  5
345F
330
1A
100
AcDbEntity
  8
寸法線
 48
10.0
100
AcDbMText
 10
769.919626098516
 20
845.131997963549
 30
0.0
 40
8.0
 41
95.557777777778
 71
     1
 72
     5
  1
{\C1;C}
  0
MTEXT
  5
3460
330
1A
100
AcDbEntity
  8
寸法線
 48
10.0
100
AcDbMText
 10
792.537327294921
 20
845.131997963549
 30
0.0
 40
8.0
 41
95.557777777778
 71
     1
 72
     5
  1
{\C1;NC}
  0
LINE
  5
40F4
330
1A
100
AcDbEntity
  8
下書線
 48
10.0
100
AcDbLine
 10
1235.586037514462
 20
1167.614151625807
 30
0.0
 11
776.566795936725
 21
1167.614151625807
 31
0.0
  0
MTEXT
  5
40F9
330
1A
100
AcDbEntity
  8
寸法線
 48
10.0
100
AcDbMText
 10
1014.316074982428
 20
1177.238427570288
 30
0.0
 40
8.0
 41
49.592740337165
 71
     1
 72
     5
  1
ガスケット
  0
MTEXT
  5
40FD
330
1A
100
AcDbEntity
  8
寸法線
 48
10.0
100
AcDbMText
 10
1091.905709159752
 20
1178.408596536757
 30
0.0
 40
8.0
 41
49.592740337165
 71
     1
 72
     5
  1
平径41
  0
MTEXT
  5
4158
330
1A
100
AcDbEntity
  8
寸法線
 48
10.0
100
AcDbMText
 10
910.098403771294
 20
1169.013569230715
 30
0.0
 40
8.0
 41
0.0
 71
     9
 72
     1
  1
振動部（検知部）\PDIN1.4571（SUS316相当）
  0
MTEXT
  5
415A
102
{ACAD_XDICTIONARY
360
547F
102
}
330
1A
100
AcDbEntity
  8
寸法線
 48
10.0
100
AcDbMText
 10
987.35608199365
 20
1190.159656333932
 30
0.0
 40
8.0
 41
91.054545454545
 71
     3
 72
     5
  1
取付ねじ\PG1"
1001
ACADANNOTATIVE
1000
AnnotativeData
1002
{
1070
     1
1070
     0
1002
}
  0
MTEXT
  5
4197
330
1A
100
AcDbEntity
  8
寸法線
 48
10.0
100
AcDbMText
 10
1153.919570591285
 20
1178.408596536757
 30
0.0
 40
8.0
 41
49.592740337165
 71
     1
 72
     5
  1
アルミ鋳物
  0
MTEXT
  5
4198
102
{ACAD_XDICTIONARY
360
5482
102
}
330
1A
100
AcDbEntity
  8
寸法線
 48
10.0
100
AcDbMText
 10
1085.802745479943
 20
1012.648027309772
 30
0.0
 40
8.0
 41
42.299427293917
 71
     3
 72
     5
  1
2×NPT 1/2"
1001
ACADANNOTATIVE
1000
AnnotativeData
1002
{
1070
     1
1070
     0
1002
}
  0
MTEXT
  5
4199
330
1A
100
AcDbEntity
  8
寸法線
 48
10.0
100
AcDbMText
 10
1185.353140958726
 20
988.355713060005
 30
0.0
 40
8.0
 41
60.129060420842
 71
     1
 72
     5
  1
コードロック\P2×M20
  0
LINE
  5
4A04
330
1A
100
AcDbEntity
  8
外形線
100
AcDbLine
 10
1051.876420590054
 20
1103.399336209789
 30
0.0
 11
1049.876420590054
 21
1103.399336209789
 31
0.0
  0
CIRCLE
  5
4A05
330
1A
100
AcDbEntity
  8
外形線
100
AcDbCircle
 10
1058.376420590054
 20
1084.410567201735
 30
0.0
 40
2.39999999999998
  0
LINE
  5
4A06
330
1A
100
AcDbEntity
  8
外形線
100
AcDbLine
 10
1051.876420590054
 20
1065.421798193681
 30
0.0
 11
1049.876420590054
 21
1065.421798193681
 31
0.0
  0
LINE
  5
4A07
330
1A
100
AcDbEntity
  8
外形線
100
AcDbLine
 10
925.875019750646
 20
1070.410567201736
 30
0.0
 11
925.875019750646
 21
1098.410567201736
 31
0.0
  0
LINE
  5
4A08
330
1A
100
AcDbEntity
  8
外形線
100
AcDbLine
 10
1064.876420590054
 20
1103.910567201735
 30
0.0
 11
1062.468084172584
 21
1108.081928238508
 31
0.0
  0
LINE
  5
4A09
330
1A
100
AcDbEntity
  8
外形線
100
AcDbLine
 10
1051.876420590054
 20
1104.410567201735
 30
0.0
 11
1053.996081872928
 21
1108.081928238508
 31
0.0
  0
LINE
  5
4A0A
330
1A
100
AcDbEntity
  8
外形線
100
AcDbLine
 10
1062.468084172584
 20
1108.081928238508
 30
0.0
 11
1053.996081872928
 21
1108.081928238508
 31
0.0
  0
LINE
  5
4A0B
330
1A
100
AcDbEntity
  8
細線
100
AcDbLine
 10
1062.532842505826
 20
1096.260567201735
 30
0.0
 11
1054.219998674282
 21
1096.260567201735
 31
0.0
  0
ARC
  5
4A0C
330
1A
100
AcDbEntity
  8
細線
100
AcDbCircle
 10
1053.678158562198
 20
1102.124979156473
 30
0.0
 40
10.62058168446546
100
AcDbArc
 50
325.983093941251
 51
34.293717569534
  0
ARC
  5
4A0D
330
1A
100
AcDbEntity
  8
細線
100
AcDbCircle
 10
1062.159546250296
 20
1102.318501545113
 30
0.0
 40
9.99295941604506
100
AcDbArc
 50
144.777810678596
 51
217.874914084167
  0
LINE
  5
4A0E
330
1A
100
AcDbEntity
  8
外形線
100
AcDbLine
 10
1036.876420590054
 20
1098.410567201735
 30
0.0
 11
987.52858868734
 21
1098.410567201735
 31
0.0
  0
LINE
  5
4A0F
330
1A
100
AcDbEntity
  8
細線
100
AcDbLine
 10
1062.532842505826
 20
1072.560567201735
 30
0.0
 11
1054.219998674282
 21
1072.560567201735
 31
0.0
  0
LINE
  5
4A10
330
1A
100
AcDbEntity
  8
外形線
100
AcDbLine
 10
1064.876420590054
 20
1064.910567201735
 30
0.0
 11
1062.468084172584
 21
1060.73920616496
 31
0.0
  0
LINE
  5
4A11
330
1A
100
AcDbEntity
  8
外形線
100
AcDbLine
 10
1051.876420590054
 20
1064.410567201735
 30
0.0
 11
1053.996081872928
 21
1060.73920616496
 31
0.0
  0
LINE
  5
4A12
330
1A
100
AcDbEntity
  8
外形線
100
AcDbLine
 10
1062.468084172584
 20
1060.73920616496
 30
0.0
 11
1053.996081872928
 21
1060.73920616496
 31
0.0
  0
ARC
  5
4A13
330
1A
100
AcDbEntity
  8
細線
100
AcDbCircle
 10
1062.159546250296
 20
1066.502632858357
 30
0.0
 40
9.99295941604506
100
AcDbArc
 50
142.125085915835
 51
215.222189321404
  0
ARC
  5
4A14
330
1A
100
AcDbEntity
  8
細線
100
AcDbCircle
 10
1053.678158562198
 20
1066.696155246997
 30
0.0
 40
10.62058168446546
100
AcDbArc
 50
325.706282430466
 51
34.016906058746
  0
LINE
  5
4A15
330
1A
100
AcDbEntity
  8
外形線
100
AcDbLine
 10
1051.876420590054
 20
1064.410567201735
 30
0.0
 11
1051.876420590054
 21
1104.410567201735
 31
0.0
  0
ARC
  5
4A16
330
1A
100
AcDbEntity
  8
細線
100
AcDbCircle
 10
1086.012413126788
 20
1083.894326633839
 30
0.0
 40
33.677772310861
100
AcDbArc
 50
179.121688811341
 51
199.526620176634
  0
ARC
  5
4A17
330
1A
100
AcDbEntity
  8
細線
100
AcDbCircle
 10
1030.74042805332
 20
1083.894326633839
 30
0.0
 40
33.677772310861
100
AcDbArc
 50
340.473379823369
 51
0.878311188659
  0
LINE
  5
4A18
330
1A
100
AcDbEntity
  8
外形線
100
AcDbLine
 10
1036.876420590054
 20
1070.410567201735
 30
0.0
 11
987.528588687341
 21
1070.410567201736
 31
0.0
  0
LINE
  5
4A19
330
1A
100
AcDbEntity
  8
外形線
100
AcDbLine
 10
1064.876420590054
 20
1103.910567201735
 30
0.0
 11
1064.876420590054
 21
1064.910567201735
 31
0.0
  0
ARC
  5
4A1A
330
1A
100
AcDbEntity
  8
細線
100
AcDbCircle
 10
1030.74042805332
 20
1084.926807769631
 30
0.0
 40
33.677772310861
100
AcDbArc
 50
359.121688811341
 51
19.526620176631
  0
ARC
  5
4A1B
330
1A
100
AcDbEntity
  8
細線
100
AcDbCircle
 10
1086.012413126788
 20
1084.926807769631
 30
0.0
 40
33.677772310861
100
AcDbArc
 50
160.473379823369
 51
180.878311188659
  0
LINE
  5
4A1C
330
1A
100
AcDbEntity
  8
外形線
100
AcDbLine
 10
1049.876420590054
 20
1103.399336209789
 30
0.0
 11
1049.876420590054
 21
1065.421798193681
 31
0.0
  0
LINE
  5
4A1D
330
1A
100
AcDbEntity
  8
中心線
 48
10.0
100
AcDbLine
 10
883.063192612714
 20
1084.410567201736
 30
0.0
 11
1165.992143792532
 21
1084.410567201734
 31
0.0
  0
LINE
  5
4A1E
330
1A
100
AcDbEntity
  8
中心線
 48
10.0
100
AcDbLine
 10
1114.815988759687
 20
1029.253139201734
 30
0.0
 11
1114.815988759687
 21
991.853139201734
 31
0.0
  0
DIMENSION
  5
4A1F
330
1A
100
AcDbEntity
  8
寸法線
 48
10.0
100
AcDbDimension
  2
*D10
 10
1207.070084596346
 20
1134.578830875442
 30
0.0
 11
1202.445084596346
 21
1084.29507887353
 31
0.0
 70
    32
  1
φ100
  3
ISO-25
100
AcDbAlignedDimension
 13
1138.275690108962
 23
1034.011326871618
 33
0.0
 14
1138.275690108962
 24
1134.578830875442
 34
0.0
 50
90.0
100
AcDbRotatedDimension
1001
ACAD
1000
DSTYLE
1002
{
1070
     5
1000
OPEN30
1070
    41
1040
6.0
1070
    47
1040
0.1
1070
    48
1040
0.1
1070
    73
1070
     0
1070
   140
1040
8.0
1070
   271
1070
     1
1070
   272
1070
     1
1070
   341
1005
2AF4
1002
}
  0
DIMENSION
  5
4A20
330
1A
100
AcDbEntity
  8
寸法線
 48
10.0
100
AcDbDimension
  2
*D9
 10
1187.16447788935
 20
995.410567201734
 30
0.0
 11
1187.16447788935
 21
1054.925830226037
 31
0.0
 70
   160
  3
ISO-25
100
AcDbAlignedDimension
 13
1165.992143792532
 23
1084.410567201734
 33
0.0
 14
1123.419581758043
 24
995.410567201734
 34
0.0
 50
90.0
100
AcDbRotatedDimension
1001
ACAD
1000
DSTYLE
1002
{
1070
     5
1000
OPEN30
1070
    41
1040
6.0
1070
    47
1040
0.1
1070
    48
1040
0.1
1070
    73
1070
     0
1070
   140
1040
8.0
1070
   271
1070
     1
1070
   272
1070
     1
1070
   341
1005
2AF4
1002
}
  0
ARC
  5
4A21
330
1A
100
AcDbEntity
  8
外形線
100
AcDbCircle
 10
1086.852767151477
 20
1130.431717308275
 30
0.0
 40
1.036778391792
100
AcDbArc
 50
90.0
 51
180.0
  0
ARC
  5
4A22
330
1A
100
AcDbEntity
  8
外形線
100
AcDbCircle
 10
1084.779210367893
 20
1129.267450654903
 30
0.0
 40
1.036778391792
100
AcDbArc
 50
304.999999999999
 51
0.0
  0
ARC
  5
4A23
330
1A
100
AcDbEntity
  8
外形線
100
AcDbCircle
 10
1086.852767151476
 20
1038.158440438787
 30
0.0
 40
1.036778391792
100
AcDbArc
 50
180.0
 51
270.0
  0
ARC
  5
4A24
330
1A
100
AcDbEntity
  8
外形線
100
AcDbCircle
 10
1084.779210367892
 20
1039.32270709216
 30
0.0
 40
1.036778391792
100
AcDbArc
 50
0.0
 51
55.000000000001
  0
LINE
  5
4A25
330
1A
100
AcDbEntity
  8
外形線
100
AcDbLine
 10
1064.876420590054
 20
1117.160567201735
 30
0.0
 11
1064.876420590053
 21
1051.660567201735
 31
0.0
  0
ARC
  5
4A26
330
1A
100
AcDbEntity
  8
外形線
100
AcDbCircle
 10
1079.127028953182
 20
1040.749061696317
 30
0.0
 40
3.110335175376
100
AcDbArc
 50
0.0
 51
55.000000000001
  0
LINE
  5
4A27
330
1A
100
AcDbEntity
  8
外形線
100
AcDbLine
 10
1082.237364128557
 20
1040.749061696317
 30
0.0
 11
1082.237364128557
 21
1039.517818663443
 31
0.0
  0
LINE
  5
4A28
330
1A
100
AcDbEntity
  8
外形線
100
AcDbLine
 10
1165.992897297035
 20
1065.334550794604
 30
0.0
 11
1165.992897297035
 21
1078.07440852278
 31
0.0
  0
LINE
  5
4A29
330
1A
100
AcDbEntity
  8
外形線
100
AcDbLine
 10
1138.414592075367
 20
1034.529716067514
 30
0.0
 11
1138.414592075368
 21
1084.295078873532
 31
0.0
  0
LINE
  5
4A2A
330
1A
100
AcDbEntity
  8
外形線
100
AcDbLine
 10
1085.815988759684
 20
1129.267450654903
 30
0.0
 11
1085.815988759683
 21
1039.32270709216
 31
0.0
  0
LINE
  5
4A2B
330
1A
100
AcDbEntity
  8
外形線
100
AcDbLine
 10
1127.632096800731
 20
1053.42056101412
 30
0.0
 11
1127.632096800732
 21
1131.989051520628
 31
0.0
  0
LINE
  5
4A2C
330
1A
100
AcDbEntity
  8
外形線
100
AcDbLine
 10
1132.815988759691
 20
1024.197345593526
 30
0.0
 11
1132.815988759692
 21
1133.621517912016
 31
0.0
  0
ARC
  5
4A2D
330
1A
100
AcDbEntity
  8
外形線
100
AcDbCircle
 10
1131.779210367899
 20
1024.197345593526
 30
0.0
 40
1.036778391792
100
AcDbArc
 50
270.0
 51
0.0
  0
LINE
  5
4A2E
330
1A
100
AcDbEntity
  8
外形線
100
AcDbLine
 10
1097.520730744301
 20
1023.160567201734
 30
0.0
 11
1131.779210367899
 21
1023.160567201734
 31
0.0
  0
LINE
  5
4A2F
330
1A
100
AcDbEntity
  8
外形線
100
AcDbLine
 10
1096.815988759683
 20
1057.58367309925
 30
0.0
 11
1124.257478031454
 21
1057.58367309925
 31
0.0
  0
ARC
  5
4A30
330
1A
100
AcDbEntity
  8
外形線
100
AcDbCircle
 10
1094.7424319761
 20
1035.04810526341
 30
0.0
 40
2.073556783584
100
AcDbArc
 50
0.0
 51
90.0
  0
LINE
  5
4A31
330
1A
100
AcDbEntity
  8
外形線
100
AcDbLine
 10
1096.815988759683
 20
1024.197345593527
 30
0.0
 11
1096.815988759683
 21
1057.58367309925
 31
0.0
  0
ARC
  5
4A32
330
1A
100
AcDbEntity
  8
外形線
100
AcDbCircle
 10
1097.852767151475
 20
1024.197345593526
 30
0.0
 40
1.036778391792
100
AcDbArc
 50
180.0
 51
270.0
  0
ARC
  5
4A33
330
1A
100
AcDbEntity
  8
外形線
100
AcDbCircle
 10
1098.100996465816
 20
1026.27090237711
 30
0.0
 40
3.110335175376
100
AcDbArc
 50
224.999999999993
 51
259.247872764006
  0
LINE
  5
4A34
330
1A
100
AcDbEntity
  8
外形線
100
AcDbLine
 10
1086.852767151475
 20
1037.121662046995
 30
0.0
 11
1094.742431976099
 21
1037.121662046994
 31
0.0
  0
LINE
  5
4A35
330
1A
100
AcDbEntity
  8
外形線
100
AcDbLine
 10
1085.815988759683
 20
1039.32270709216
 30
0.0
 11
1085.815988759683
 21
1038.158440438787
 31
0.0
  0
LINE
  5
4A36
330
1A
100
AcDbEntity
  8
外形線
100
AcDbLine
 10
1143.598484034329
 20
1064.297772402812
 30
0.0
 11
1164.956118905243
 21
1064.297772402812
 31
0.0
  0
LINE
  5
4A37
330
1A
100
AcDbEntity
  8
外形線
100
AcDbLine
 10
1138.414592075367
 20
1034.529716067514
 30
0.0
 11
1162.062826884051
 21
1035.736466385928
 31
0.0
  0
LINE
  5
4A38
330
1A
100
AcDbEntity
  8
外形線
100
AcDbLine
 10
1143.598484034327
 20
1040.108122896882
 30
0.0
 11
1160.809005338076
 21
1040.108122896882
 31
0.0
  0
LINE
  5
4A39
330
1A
100
AcDbEntity
  8
外形線
100
AcDbLine
 10
1143.598484034327
 20
1039.290944133798
 30
0.0
 11
1162.882562121659
 21
1039.290944133798
 31
0.0
  0
LINE
  5
4A3A
330
1A
100
AcDbEntity
  8
外形線
100
AcDbLine
 10
1143.598484034329
 20
1045.377837431906
 30
0.0
 11
1162.882562121659
 21
1045.377837431906
 31
0.0
  0
LINE
  5
4A3B
330
1A
100
AcDbEntity
  8
外形線
100
AcDbLine
 10
1143.598484034327
 20
1055.884747021296
 30
0.0
 11
1161.327394533972
 21
1055.884747021296
 31
0.0
  0
LINE
  5
4A3C
330
1A
100
AcDbEntity
  8
外形線
100
AcDbLine
 10
1143.598484034327
 20
1055.319008148944
 30
0.0
 11
1162.882562121659
 21
1055.319008148944
 31
0.0
  0
LINE
  5
4A3D
330
1A
100
AcDbEntity
  8
外形線
100
AcDbLine
 10
1133.334377955585
 20
1034.011326871618
 30
0.0
 11
1138.275690108961
 21
1034.011326871618
 31
0.0
  0
LINE
  5
4A3E
330
1A
100
AcDbEntity
  8
外形線
100
AcDbLine
 10
1132.815988759691
 20
1034.529716067514
 30
0.0
 11
1133.334377955585
 21
1034.011326871618
 31
0.0
  0
ARC
  5
4A3F
330
1A
100
AcDbEntity
  8
外形線
100
AcDbCircle
 10
1137.377813683576
 20
1034.529716067514
 30
0.0
 40
1.036778391792
100
AcDbArc
 50
330.0
 51
0.0
  0
LWPOLYLINE
  5
4A40
330
1A
100
AcDbEntity
  8
外形線
100
AcDbPolyline
 90
       18
 70
     0
 43
0.0
 10
1143.598484034327
 20
1039.290944133798
 10
1142.645061437923
 20
1039.34276459651
 10
1141.724106504535
 20
1039.496461300936
 10
1140.866981249857
 20
1039.746800290148
 10
1140.102874046425
 20
1040.085256570116
 10
1139.457805648611
 20
1040.50030441816
 10
1138.953743087027
 20
1040.97780987761
 10
1138.60785160765
 20
1041.501512072748
 10
1138.431910129957
 20
1042.05357695343
 10
1138.431910129957
 20
1042.615204612276
 10
1138.60785160765
 20
1043.167269492958
 10
1138.953743087027
 20
1043.690971688096
 10
1139.457805648611
 20
1044.168477147546
 10
1140.102874046425
 20
1044.58352499559
 10
1140.866981249857
 20
1044.921981275558
 10
1141.724106504535
 20
1045.17232026477
 10
1142.645061437923
 20
1045.326016969196
 10
1143.598484034327
 20
1045.377837431906
  0
LWPOLYLINE
  5
4A41
330
1A
100
AcDbEntity
  8
外形線
100
AcDbPolyline
 90
        8
 70
     0
 43
0.0
 10
1143.598484034327
 20
1040.108122896882
 10
1142.589628287985
 20
1040.166204601422
 10
1141.619278924795
 20
1040.338232830842
 10
1140.724472601885
 20
1040.61764154739
 10
1139.939362621389
 20
1040.993766174752
 10
1139.293915354449
 20
1041.452250647592
 10
1138.812766473568
 20
1041.975595359202
 10
1138.514280649039
 20
1042.543825093052
  0
LWPOLYLINE
  5
4A42
330
1A
100
AcDbEntity
  8
外形線
100
AcDbPolyline
 90
        8
 70
     0
 43
0.0
 10
1143.598484034327
 20
1055.884747021296
 10
1142.608025361079
 20
1055.961215883698
 10
1141.651308189829
 20
1056.188017441192
 10
1140.760924566277
 20
1056.55742534899
 10
1139.967206781535
 20
1057.056855157086
 10
1139.297194055857
 20
1057.669293018946
 10
1138.773711405905
 20
1058.373875294418
 10
1138.414592075367
 20
1059.146599301824
  0
LWPOLYLINE
  5
4A43
330
1A
100
AcDbEntity
  8
外形線
100
AcDbPolyline
 90
       18
 70
     0
 43
0.0
 10
1143.598484034327
 20
1055.319008148944
 10
1142.645104116586
 20
1055.3954484109
 10
1141.724190408491
 20
1055.622166115328
 10
1140.867103521855
 20
1055.991440662722
 10
1140.103030522643
 20
1056.490696851264
 10
1139.457991000437
 20
1057.102933110246
 10
1138.953951002525
 20
1057.807300468166
 10
1138.608075006509
 20
1058.579812539446
 10
1138.432141404597
 20
1059.394162352022
 10
1138.432141404597
 20
1060.222618199734
 10
1138.608075006509
 20
1061.03696801231
 10
1138.953951002525
 20
1061.80948008359
 10
1139.457991000437
 20
1062.51384744151
 10
1140.103030522643
 20
1063.126083700492
 10
1140.867103521855
 20
1063.625339889036
 10
1141.724190408491
 20
1063.994614436428
 10
1142.645104116586
 20
1064.221332140856
 10
1143.598484034327
 20
1064.297772402812
  0
ARC
  5
4A44
330
1A
100
AcDbEntity
  8
外形線
100
AcDbCircle
 10
1161.845783729868
 20
1039.877896478084
 30
0.0
 40
4.147113567168
100
AcDbArc
 50
273.000000000006
 51
0.0
  0
LINE
  5
4A45
330
1A
100
AcDbEntity
  8
外形線
100
AcDbLine
 10
1165.992897297035
 20
1059.501347060514
 30
0.0
 11
1165.992897297035
 21
1039.877896478084
 31
0.0
  0
ARC
  5
4A46
330
1A
100
AcDbEntity
  8
外形線
100
AcDbCircle
 10
1160.809005338076
 20
1042.181679680466
 30
0.0
 40
2.073556783584
100
AcDbArc
 50
270.0
 51
0.0
  0
LINE
  5
4A47
330
1A
100
AcDbEntity
  8
外形線
100
AcDbLine
 10
1162.882562121659
 20
1042.181679680466
 30
0.0
 11
1162.882562121659
 21
1045.377837431906
 31
0.0
  0
ARC
  5
4A48
330
1A
100
AcDbEntity
  8
外形線
100
AcDbCircle
 10
1162.88256212166
 20
1042.401279309174
 30
0.0
 40
3.110335175376
100
AcDbArc
 50
270.0
 51
0.0
  0
ARC
  5
4A49
330
1A
100
AcDbEntity
  8
外形線
100
AcDbCircle
 10
1162.88256212166
 20
1048.488172607282
 30
0.0
 40
3.110335175376
100
AcDbArc
 50
270.0
 51
0.0
  0
ARC
  5
4A4A
330
1A
100
AcDbEntity
  8
外形線
100
AcDbCircle
 10
1161.327394533972
 20
1057.439914608984
 30
0.0
 40
1.555167587688
100
AcDbArc
 50
270.0
 51
0.0
  0
LINE
  5
4A4B
330
1A
100
AcDbEntity
  8
外形線
100
AcDbLine
 10
1162.882562121659
 20
1057.439914608984
 30
0.0
 11
1162.882562121659
 21
1064.297772402812
 31
0.0
  0
ARC
  5
4A4C
330
1A
100
AcDbEntity
  8
外形線
100
AcDbCircle
 10
1162.88256212166
 20
1058.42934332432
 30
0.0
 40
3.110335175376
100
AcDbArc
 50
270.0
 51
0.0
  0
ARC
  5
4A4D
330
1A
100
AcDbEntity
  8
外形線
100
AcDbCircle
 10
1164.956118905244
 20
1065.334550794604
 30
0.0
 40
1.036778391792
100
AcDbArc
 50
270.0
 51
0.0
  0
ARC
  5
4A4E
330
1A
100
AcDbEntity
  8
外形線
100
AcDbCircle
 10
1164.956118905244
 20
1059.501347060514
 30
0.0
 40
1.036778391792
100
AcDbArc
 50
0.0
 51
52.864563529749
  0
LINE
  5
4A4F
330
1A
100
AcDbEntity
  8
外形線
100
AcDbLine
 10
1165.582023227706
 20
1060.327877890434
 30
0.0
 11
1162.882562121659
 21
1062.3720900522
 31
0.0
  0
LINE
  5
4A50
330
1A
100
AcDbEntity
  8
外形線
100
AcDbLine
 10
1086.852767151476
 20
1131.468495700067
 30
0.0
 11
1124.67746644639
 21
1131.468495700066
 31
0.0
  0
LINE
  5
4A51
330
1A
100
AcDbEntity
  8
外形線
100
AcDbLine
 10
1085.815988759684
 20
1129.267450654903
 30
0.0
 11
1085.815988759684
 21
1130.431717308275
 31
0.0
  0
LINE
  5
4A52
330
1A
100
AcDbEntity
  8
外形線
100
AcDbLine
 10
1162.88256212166
 20
1126.408478066596
 30
0.0
 11
1162.88256212166
 21
1123.212320315156
 31
0.0
  0
LINE
  5
4A53
330
1A
100
AcDbEntity
  8
外形線
100
AcDbLine
 10
1165.992897297036
 20
1109.088810686548
 30
0.0
 11
1165.992897297036
 21
1128.712261268978
 31
0.0
  0
LINE
  5
4A54
330
1A
100
AcDbEntity
  8
外形線
100
AcDbLine
 10
1138.414592075368
 20
1134.060441679546
 30
0.0
 11
1138.414592075368
 21
1084.295078873532
 31
0.0
  0
LINE
  5
4A55
330
1A
100
AcDbEntity
  8
外形線
100
AcDbLine
 10
1143.59848403433
 20
1104.29238534425
 30
0.0
 11
1164.956118905244
 21
1104.29238534425
 31
0.0
  0
LINE
  5
4A56
330
1A
100
AcDbEntity
  8
外形線
100
AcDbLine
 10
1143.598484034328
 20
1112.705410725766
 30
0.0
 11
1161.327394533972
 21
1112.705410725766
 31
0.0
  0
LINE
  5
4A57
330
1A
100
AcDbEntity
  8
外形線
100
AcDbLine
 10
1143.598484034328
 20
1113.271149598118
 30
0.0
 11
1162.88256212166
 21
1113.271149598118
 31
0.0
  0
LINE
  5
4A58
330
1A
100
AcDbEntity
  8
外形線
100
AcDbLine
 10
1143.59848403433
 20
1123.212320315156
 30
0.0
 11
1162.88256212166
 21
1123.212320315156
 31
0.0
  0
LINE
  5
4A59
330
1A
100
AcDbEntity
  8
外形線
100
AcDbLine
 10
1143.598484034328
 20
1089.47897083249
 30
0.0
 11
1164.956118905244
 21
1089.47897083249
 31
0.0
  0
LINE
  5
4A5A
330
1A
100
AcDbEntity
  8
外形線
100
AcDbLine
 10
1143.598484034327
 20
1079.11118691457
 30
0.0
 11
1164.956118905243
 21
1079.11118691457
 31
0.0
  0
ARC
  5
4A5B
330
1A
100
AcDbEntity
  8
外形線
100
AcDbCircle
 10
1143.598484034328
 20
1084.295078873532
 30
0.0
 40
5.183891958959999
100
AcDbArc
 50
180.0
 51
270.0
  0
ARC
  5
4A5C
330
1A
100
AcDbEntity
  8
外形線
100
AcDbCircle
 10
1143.598484034328
 20
1084.295078873532
 30
0.0
 40
5.183891958959999
100
AcDbArc
 50
90.0
 51
180.0
  0
LINE
  5
4A5D
330
1A
100
AcDbEntity
  8
外形線
100
AcDbLine
 10
1165.992897297036
 20
1103.255606952458
 30
0.0
 11
1165.992897297036
 21
1090.515749224282
 31
0.0
  0
LINE
  5
4A5E
330
1A
100
AcDbEntity
  8
外形線
100
AcDbLine
 10
1162.882562121659
 20
1079.11118691457
 30
0.0
 11
1162.88256212166
 21
1084.295078873532
 31
0.0
  0
ARC
  5
4A5F
330
1A
100
AcDbEntity
  8
外形線
100
AcDbCircle
 10
1164.956118905244
 20
1078.07440852278
 30
0.0
 40
1.036778391792
100
AcDbArc
 50
0.0
 51
90.0
  0
LINE
  5
4A60
330
1A
100
AcDbEntity
  8
外形線
100
AcDbLine
 10
1162.88256212166
 20
1089.47897083249
 30
0.0
 11
1162.88256212166
 21
1084.295078873532
 31
0.0
  0
ARC
  5
4A61
330
1A
100
AcDbEntity
  8
外形線
100
AcDbCircle
 10
1164.956118905244
 20
1090.515749224282
 30
0.0
 40
1.036778391792
100
AcDbArc
 50
270.0
 51
0.0
  0
ARC
  5
4A62
330
1A
100
AcDbEntity
  8
外形線
100
AcDbCircle
 10
1162.882562121661
 20
1110.160814422742
 30
0.0
 40
3.110335175376
100
AcDbArc
 50
0.0
 51
90.0
  0
LINE
  5
4A63
330
1A
100
AcDbEntity
  8
外形線
100
AcDbLine
 10
1162.88256212166
 20
1111.150243138078
 30
0.0
 11
1162.88256212166
 21
1104.29238534425
 31
0.0
  0
ARC
  5
4A64
330
1A
100
AcDbEntity
  8
外形線
100
AcDbCircle
 10
1164.956118905244
 20
1109.088810686548
 30
0.0
 40
1.036778391792
100
AcDbArc
 50
307.13543647028
 51
0.0
  0
ARC
  5
4A65
330
1A
100
AcDbEntity
  8
外形線
100
AcDbCircle
 10
1164.956118905244
 20
1103.255606952458
 30
0.0
 40
1.036778391792
100
AcDbArc
 50
0.0
 51
90.0
  0
LINE
  5
4A66
330
1A
100
AcDbEntity
  8
外形線
100
AcDbLine
 10
1165.582023227706
 20
1108.262279856628
 30
0.0
 11
1162.88256212166
 21
1106.218067694862
 31
0.0
  0
ARC
  5
4A67
330
1A
100
AcDbEntity
  8
外形線
100
AcDbCircle
 10
1161.327394533972
 20
1111.150243138078
 30
0.0
 40
1.555167587688
100
AcDbArc
 50
0.0
 51
90.0
  0
ARC
  5
4A68
330
1A
100
AcDbEntity
  8
外形線
100
AcDbCircle
 10
1162.882562121661
 20
1120.10198513978
 30
0.0
 40
3.110335175376
100
AcDbArc
 50
0.0
 51
90.0
  0
LINE
  5
4A69
330
1A
100
AcDbEntity
  8
外形線
100
AcDbLine
 10
1138.414592075368
 20
1134.060441679546
 30
0.0
 11
1162.062826884052
 21
1132.853691361134
 31
0.0
  0
LINE
  5
4A6A
330
1A
100
AcDbEntity
  8
外形線
100
AcDbLine
 10
1143.598484034328
 20
1128.48203485018
 30
0.0
 11
1160.809005338076
 21
1128.48203485018
 31
0.0
  0
LINE
  5
4A6B
330
1A
100
AcDbEntity
  8
外形線
100
AcDbLine
 10
1143.598484034328
 20
1129.299213613264
 30
0.0
 11
1162.88256212166
 21
1129.299213613264
 31
0.0
  0
LINE
  5
4A6C
330
1A
100
AcDbEntity
  8
外形線
100
AcDbLine
 10
1133.334377955588
 20
1134.578830875442
 30
0.0
 11
1138.275690108962
 21
1134.578830875442
 31
0.0
  0
LINE
  5
4A6D
330
1A
100
AcDbEntity
  8
外形線
100
AcDbLine
 10
1132.815988759692
 20
1134.060441679546
 30
0.0
 11
1133.334377955588
 21
1134.578830875442
 31
0.0
  0
ARC
  5
4A6E
330
1A
100
AcDbEntity
  8
外形線
100
AcDbCircle
 10
1137.377813683577
 20
1134.060441679546
 30
0.0
 40
1.036778391792
100
AcDbArc
 50
0.0
 51
30.000000000007
  0
ARC
  5
4A6F
330
1A
100
AcDbEntity
  8
外形線
100
AcDbCircle
 10
1161.845783729869
 20
1128.712261268978
 30
0.0
 40
4.147113567168
100
AcDbArc
 50
0.0
 51
86.999999999994
  0
ARC
  5
4A70
330
1A
100
AcDbEntity
  8
外形線
100
AcDbCircle
 10
1160.809005338077
 20
1126.408478066596
 30
0.0
 40
2.073556783584
100
AcDbArc
 50
0.0
 51
90.0
  0
ARC
  5
4A71
330
1A
100
AcDbEntity
  8
外形線
100
AcDbCircle
 10
1162.882562121661
 20
1126.188878437888
 30
0.0
 40
3.110335175376
100
AcDbArc
 50
0.0
 51
90.0
  0
LWPOLYLINE
  5
4A72
330
1A
100
AcDbEntity
  8
外形線
100
AcDbPolyline
 90
       18
 70
     0
 43
0.0
 10
1143.598484034328
 20
1129.299213613264
 10
1142.645061437924
 20
1129.247393150552
 10
1141.724106504536
 20
1129.093696446126
 10
1140.866981249858
 20
1128.843357456914
 10
1140.102874046426
 20
1128.504901176946
 10
1139.457805648612
 20
1128.089853328902
 10
1138.953743087028
 20
1127.612347869452
 10
1138.60785160765
 20
1127.088645674314
 10
1138.431910129958
 20
1126.536580793632
 10
1138.431910129958
 20
1125.974953134786
 10
1138.60785160765
 20
1125.422888254104
 10
1138.953743087028
 20
1124.899186058966
 10
1139.457805648612
 20
1124.421680599516
 10
1140.102874046426
 20
1124.006632751474
 10
1140.866981249858
 20
1123.668176471504
 10
1141.724106504536
 20
1123.417837482292
 10
1142.645061437924
 20
1123.264140777866
 10
1143.598484034328
 20
1123.212320315156
  0
LWPOLYLINE
  5
4A73
330
1A
100
AcDbEntity
  8
外形線
100
AcDbPolyline
 90
        8
 70
     0
 43
0.0
 10
1143.598484034328
 20
1128.48203485018
 10
1142.589628287986
 20
1128.42395314564
 10
1141.619278924796
 20
1128.25192491622
 10
1140.724472601886
 20
1127.972516199672
 10
1139.93936262139
 20
1127.59639157231
 10
1139.29391535445
 20
1127.137907099472
 10
1138.812766473568
 20
1126.61456238786
 10
1138.51428064904
 20
1126.04633265401
  0
LWPOLYLINE
  5
4A74
330
1A
100
AcDbEntity
  8
外形線
100
AcDbPolyline
 90
        8
 70
     0
 43
0.0
 10
1143.598484034328
 20
1112.705410725766
 10
1142.60802536108
 20
1112.628941863364
 10
1141.65130818983
 20
1112.40214030587
 10
1140.760924566278
 20
1112.032732398072
 10
1139.967206781536
 20
1111.533302589976
 10
1139.297194055858
 20
1110.920864728116
 10
1138.773711405906
 20
1110.216282452644
 10
1138.414592075368
 20
1109.443558445238
  0
LWPOLYLINE
  5
4A75
330
1A
100
AcDbEntity
  8
外形線
100
AcDbPolyline
 90
       18
 70
     0
 43
0.0
 10
1143.598484034328
 20
1113.271149598118
 10
1142.645104116586
 20
1113.194709336162
 10
1141.724190408492
 20
1112.967991631734
 10
1140.867103521856
 20
1112.59871708434
 10
1140.103030522644
 20
1112.099460895798
 10
1139.457991000438
 20
1111.487224636816
 10
1138.953951002526
 20
1110.782857278896
 10
1138.60807500651
 20
1110.010345207616
 10
1138.432141404598
 20
1109.19599539504
 10
1138.432141404598
 20
1108.367539547328
 10
1138.60807500651
 20
1107.553189734752
 10
1138.953951002526
 20
1106.780677663472
 10
1139.457991000438
 20
1106.076310305552
 10
1140.103030522644
 20
1105.46407404657
 10
1140.867103521856
 20
1104.964817858026
 10
1141.724190408492
 20
1104.595543310634
 10
1142.645104116586
 20
1104.368825606206
 10
1143.598484034328
 20
1104.29238534425
  0
ARC
  5
4A76
330
1A
100
AcDbEntity
  8
外形線
100
AcDbCircle
 10
1084.237364128558
 20
1039.517818663443
 30
0.0
 40
2.0
100
AcDbArc
 50
180.0
 51
225.000000000005
  0
LINE
  5
4A77
330
1A
100
AcDbEntity
  8
外形線
100
AcDbLine
 10
1125.248061335549
 20
1057.092276899912
 30
0.0
 11
1127.258687994741
 21
1052.646344927316
 31
0.0
  0
LINE
  5
4A78
330
1A
100
AcDbEntity
  8
外形線
100
AcDbLine
 10
1064.876420590054
 20
1105.253139201735
 30
0.0
 11
1064.876420590054
 21
1116.760567201735
 31
0.0
  0
LINE
  5
4A79
330
1A
100
AcDbEntity
  8
外形線
100
AcDbLine
 10
1070.376420590044
 20
1117.760567201735
 30
0.0
 11
1070.376420590043
 21
1051.060567201735
 31
0.0
  0
LINE
  5
4A7A
330
1A
100
AcDbEntity
  8
外形線
100
AcDbLine
 10
1065.476420590053
 20
1051.060567201735
 30
0.0
 11
1070.376420590043
 21
1051.060567201735
 31
0.0
  0
LINE
  5
4A7B
330
1A
100
AcDbEntity
  8
外形線
100
AcDbLine
 10
1065.476420590054
 20
1117.760567201735
 30
0.0
 11
1070.376420590044
 21
1117.760567201735
 31
0.0
  0
LINE
  5
4A7C
330
1A
100
AcDbEntity
  8
外形線
100
AcDbLine
 10
1109.615078114181
 20
1039.770300025928
 30
0.0
 11
1110.933094395609
 21
1038.394471283118
 31
0.0
  0
LINE
  5
4A7D
330
1A
100
AcDbEntity
  8
外形線
100
AcDbLine
 10
1109.615078114181
 20
1039.770300025928
 30
0.0
 11
1118.695547816727
 21
1048.469207483362
 31
0.0
  0
CIRCLE
  5
4A7E
330
1A
100
AcDbEntity
  8
細線
100
AcDbCircle
 10
1114.81432110617
 20
1043.43183938324
 30
0.0
 40
9.90742839250458
  0
CIRCLE
  5
4A7F
330
1A
100
AcDbEntity
  8
外形線
100
AcDbCircle
 10
1114.81432110617
 20
1043.43183938324
 30
0.0
 40
10.51872781849356
  0
LINE
  5
4A80
330
1A
100
AcDbEntity
  8
外形線
100
AcDbLine
 10
1110.933094395609
 20
1038.394471283118
 30
0.0
 11
1120.013564098158
 21
1047.093378740552
 31
0.0
  0
LINE
  5
4A81
330
1A
100
AcDbEntity
  8
外形線
100
AcDbLine
 10
1118.695547816727
 20
1048.469207483362
 30
0.0
 11
1120.013564098158
 21
1047.093378740552
 31
0.0
  0
CIRCLE
  5
4A82
330
1A
100
AcDbEntity
  8
細線
100
AcDbCircle
 10
1114.815988759688
 20
1043.43183938324
 30
0.0
 40
13.76127218150634
  0
LINE
  5
4A83
330
1A
100
AcDbEntity
  8
外形線
100
AcDbLine
 10
1085.373882023142
 20
1128.418171515793
 30
0.0
 11
1070.376420590044
 21
1117.760567201735
 31
0.0
  0
LINE
  5
4A84
330
1A
100
AcDbEntity
  8
外形線
100
AcDbLine
 10
1085.373882023142
 20
1040.17198623127
 30
0.0
 11
1070.376420590043
 21
1051.060567201735
 31
0.0
  0
LINE
  5
4A85
330
1A
100
AcDbEntity
  8
外形線
100
AcDbLine
 10
1095.901657371543
 20
1024.07156328284
 30
0.0
 11
1082.823150566183
 21
1038.103605101069
 31
0.0
  0
LINE
  5
4A86
330
1A
100
AcDbEntity
  8
外形線
100
AcDbLine
 10
1064.876420590054
 20
1117.276592605519
 30
0.0
 11
1064.876420590053
 21
1051.544541797951
 31
0.0
  0
ARC
  5
4A87
330
1A
100
AcDbEntity
  8
外形線
100
AcDbCircle
 10
1065.476420590055
 20
1117.160567201735
 30
0.0
 40
0.6
100
AcDbArc
 50
90.0
 51
180.0
  0
ARC
  5
4A88
330
1A
100
AcDbEntity
  8
外形線
100
AcDbCircle
 10
1065.476420590054
 20
1051.660567201735
 30
0.0
 40
0.6
100
AcDbArc
 50
180.0
 51
270.0
  0
LINE
  5
4A89
330
1A
100
AcDbEntity
  8
外形線
100
AcDbLine
 10
1064.876420590053
 20
1058.454264680727
 30
0.0
 11
1064.876420590054
 21
1110.366869722743
 31
0.0
  0
LINE
  5
4A8A
330
1A
100
AcDbEntity
  8
外形線
100
AcDbLine
 10
1124.145326632297
 20
1001.859412628602
 30
0.0
 11
1124.145326632297
 21
1012.750567201734
 31
0.0
  0
LINE
  5
4A8B
330
1A
100
AcDbEntity
  8
外形線
100
AcDbLine
 10
1130.365996983049
 20
1012.750567201734
 30
0.0
 11
1130.365996983049
 21
1001.8594126286
 31
0.0
  0
LINE
  5
4A8C
330
1A
100
AcDbEntity
  8
外形線
100
AcDbLine
 10
1121.553380652817
 20
1001.859412628602
 30
0.0
 11
1121.553380652817
 21
1012.750567201734
 31
0.0
  0
LINE
  5
4A8D
330
1A
100
AcDbEntity
  8
外形線
100
AcDbLine
 10
1105.483315580041
 20
1001.859412628602
 30
0.0
 11
1105.483315580041
 21
1012.750567201734
 31
0.0
  0
LINE
  5
4A8E
330
1A
100
AcDbEntity
  8
外形線
100
AcDbLine
 10
1108.075261559521
 20
1001.859412628602
 30
0.0
 11
1108.075261559521
 21
1012.750567201734
 31
0.0
  0
LINE
  5
4A8F
330
1A
100
AcDbEntity
  8
外形線
100
AcDbLine
 10
1099.262645229289
 20
1012.750567201734
 30
0.0
 11
1099.262645229289
 21
1001.859412628599
 31
0.0
  0
ARC
  5
4A90
330
1A
100
AcDbEntity
  8
外形線
100
AcDbCircle
 10
1114.81432110617
 20
1018.14350233184
 30
0.0
 40
17.62346450152246
100
AcDbArc
 50
247.518115682491
 51
292.481884317508
  0
LINE
  5
4A91
330
1A
100
AcDbEntity
  8
外形線
100
AcDbLine
 10
1128.603473717003
 20
1000.200567201734
 30
0.0
 11
1101.025168495335
 21
1000.200567201734
 31
0.0
  0
LINE
  5
4A92
330
1A
100
AcDbEntity
  8
外形線
100
AcDbLine
 10
1123.419581758043
 20
995.410567201734
 30
0.0
 11
1106.209060454295
 21
995.410567201734
 31
0.0
  0
ARC
  5
4A93
330
1A
100
AcDbEntity
  8
外形線
100
AcDbCircle
 10
1106.209060454295
 20
1000.594459160694
 30
0.0
 40
5.183891958959999
100
AcDbArc
 50
184.357752857952
 51
270.0
  0
ARC
  5
4A94
330
1A
100
AcDbEntity
  8
外形線
100
AcDbCircle
 10
1102.372980404665
 20
1004.785987658855
 30
0.0
 40
4.2707173063642
100
AcDbArc
 50
223.256487111674
 51
316.743512888335
  0
LINE
  5
4A95
330
1A
100
AcDbEntity
  8
外形線
100
AcDbLine
 10
1101.025168495335
 20
1000.200567201734
 30
0.0
 11
1099.262645229289
 21
1001.859412628602
 31
0.0
  0
LINE
  5
4A96
330
1A
100
AcDbEntity
  8
外形線
100
AcDbLine
 10
1108.075261559521
 20
1001.859412628602
 30
0.0
 11
1105.483315580041
 21
1001.859412628602
 31
0.0
  0
ARC
  5
4A97
330
1A
100
AcDbEntity
  8
外形線
100
AcDbCircle
 10
1123.419581758043
 20
1000.594459160694
 30
0.0
 40
5.183891958959999
100
AcDbArc
 50
270.0
 51
355.642247142048
  0
ARC
  5
4A98
330
1A
100
AcDbEntity
  8
外形線
100
AcDbCircle
 10
1127.255661807673
 20
1004.785987658854
 30
0.0
 40
4.2707173063642
100
AcDbArc
 50
223.256487111676
 51
316.743512888324
  0
LINE
  5
4A99
330
1A
100
AcDbEntity
  8
外形線
100
AcDbLine
 10
1121.553380652817
 20
1001.859412628602
 30
0.0
 11
1124.145326632297
 21
1001.859412628602
 31
0.0
  0
LINE
  5
4A9A
330
1A
100
AcDbEntity
  8
外形線
100
AcDbLine
 10
1128.603473717003
 20
1000.200567201734
 30
0.0
 11
1130.365996983049
 21
1001.859412628602
 31
0.0
  0
LINE
  5
4A9B
330
1A
100
AcDbEntity
  8
外形線
100
AcDbLine
 10
1130.365996983049
 20
1012.750567201734
 30
0.0
 11
1099.262645229289
 21
1012.750567201734
 31
0.0
  0
LINE
  5
4A9C
330
1A
100
AcDbEntity
  8
外形線
100
AcDbLine
 10
1130.365996983049
 20
1021.480567201734
 30
0.0
 11
1099.262645229289
 21
1021.480567201734
 31
0.0
  0
LINE
  5
4A9D
330
1A
100
AcDbEntity
  8
外形線
100
AcDbLine
 10
1130.365996983049
 20
1015.550567201734
 30
0.0
 11
1099.262645229289
 21
1015.550567201735
 31
0.0
  0
LINE
  5
4A9E
330
1A
100
AcDbEntity
  8
細線
100
AcDbLine
 10
1103.928147992353
 20
1013.582704394776
 30
0.0
 11
1125.700494219985
 21
1013.582704394776
 31
0.0
  0
LINE
  5
4A9F
330
1A
100
AcDbEntity
  8
外形線
100
AcDbLine
 10
1101.336202012873
 20
1021.480567201734
 30
0.0
 11
1101.336202012873
 21
1023.160567201734
 31
0.0
  0
LINE
  5
4AA0
330
1A
100
AcDbEntity
  8
外形線
100
AcDbLine
 10
1101.336202012873
 20
1021.480567201734
 30
0.0
 11
1101.336202012873
 21
1021.99895639763
 31
0.0
  0
LINE
  5
4AA1
330
1A
100
AcDbEntity
  8
外形線
100
AcDbLine
 10
1099.262645229289
 20
1015.550567201735
 30
0.0
 11
1099.262645229289
 21
1021.480567201734
 31
0.0
  0
LINE
  5
4AA2
330
1A
100
AcDbEntity
  8
外形線
100
AcDbLine
 10
1103.928147992353
 20
1012.750567201734
 30
0.0
 11
1103.928147992353
 21
1015.550567201735
 31
0.0
  0
LINE
  5
4AA3
330
1A
100
AcDbEntity
  8
外形線
100
AcDbLine
 10
1103.928147992353
 20
1013.582704394776
 30
0.0
 11
1103.064488727921
 21
1012.750567201734
 31
0.0
  0
LINE
  5
4AA4
330
1A
100
AcDbEntity
  8
外形線
100
AcDbLine
 10
1103.928147992353
 20
1013.582704394776
 30
0.0
 11
1103.928147992353
 21
1012.750567201734
 31
0.0
  0
LINE
  5
4AA5
330
1A
100
AcDbEntity
  8
外形線
100
AcDbLine
 10
1105.483315580041
 20
1015.550567201734
 30
0.0
 11
1105.483315580041
 21
1021.480567201734
 31
0.0
  0
LINE
  5
4AA6
330
1A
100
AcDbEntity
  8
外形線
100
AcDbLine
 10
1108.075261559521
 20
1015.550567201734
 30
0.0
 11
1108.075261559521
 21
1021.480567201734
 31
0.0
  0
LINE
  5
4AA7
330
1A
100
AcDbEntity
  8
外形線
100
AcDbLine
 10
1125.700494219985
 20
1012.750567201734
 30
0.0
 11
1125.700494219985
 21
1015.550567201734
 31
0.0
  0
LINE
  5
4AA8
330
1A
100
AcDbEntity
  8
外形線
100
AcDbLine
 10
1125.700494219985
 20
1013.582704394776
 30
0.0
 11
1125.700494219985
 21
1012.750567201734
 31
0.0
  0
LINE
  5
4AA9
330
1A
100
AcDbEntity
  8
外形線
100
AcDbLine
 10
1125.700494219985
 20
1013.582704394776
 30
0.0
 11
1126.564153484417
 21
1012.750567201734
 31
0.0
  0
LINE
  5
4AAA
330
1A
100
AcDbEntity
  8
外形線
100
AcDbLine
 10
1124.145326632297
 20
1015.550567201734
 30
0.0
 11
1124.145326632297
 21
1021.480567201734
 31
0.0
  0
LINE
  5
4AAB
330
1A
100
AcDbEntity
  8
外形線
100
AcDbLine
 10
1121.553380652817
 20
1015.550567201734
 30
0.0
 11
1121.553380652817
 21
1021.480567201734
 31
0.0
  0
LINE
  5
4AAC
330
1A
100
AcDbEntity
  8
外形線
100
AcDbLine
 10
1128.292440199465
 20
1021.480567201734
 30
0.0
 11
1128.292440199465
 21
1023.160567201734
 31
0.0
  0
LINE
  5
4AAD
330
1A
100
AcDbEntity
  8
外形線
100
AcDbLine
 10
1130.365996983049
 20
1015.550567201734
 30
0.0
 11
1130.365996983049
 21
1021.480567201734
 31
0.0
  0
LINE
  5
4AAE
330
1A
100
AcDbEntity
  8
細線
100
AcDbLine
 10
1124.67746644639
 20
1131.468495700066
 30
0.0
 11
1124.677466446389
 21
1058.253139201734
 31
0.0
  0
LINE
  5
4AAF
330
1A
100
AcDbEntity
  8
外形線
100
AcDbLine
 10
1132.815988759691
 20
1052.154948727978
 30
0.0
 11
1128.249271298837
 21
1052.154948727978
 31
0.0
  0
ARC
  5
4AB0
330
1A
100
AcDbEntity
  8
外形線
100
AcDbCircle
 10
1124.257478031454
 20
1056.3395390291
 30
0.0
 40
1.2441340701504
100
AcDbArc
 50
37.23096796567
 51
90.0
  0
ARC
  5
4AB1
330
1A
100
AcDbEntity
  8
外形線
100
AcDbCircle
 10
1128.249271298838
 20
1053.39908279813
 30
0.0
 40
1.2441340701504
100
AcDbArc
 50
217.230967965675
 51
270.0
  0
LINE
  5
4AB2
330
1A
100
AcDbEntity
  8
外形線
100
AcDbLine
 10
1132.815988759692
 20
1133.621517912016
 30
0.0
 11
1128.51422908871
 21
1133.621517912016
 31
0.0
  0
ARC
  5
4AB3
330
1A
100
AcDbEntity
  8
外形線
100
AcDbCircle
 10
1124.677466446391
 20
1133.542052483652
 30
0.0
 40
2.073556783584
100
AcDbArc
 50
270.0
 51
316.091731908441
  0
LINE
  5
4AB4
330
1A
100
AcDbEntity
  8
外形線
100
AcDbLine
 10
1127.02033294222
 20
1132.985984785486
 30
0.0
 11
1126.17136259288
 21
1132.104028826596
 31
0.0
  0
ARC
  5
4AB5
330
1A
100
AcDbEntity
  8
外形線
100
AcDbCircle
 10
1128.514229088711
 20
1131.547961128432
 30
0.0
 40
2.073556783584
100
AcDbArc
 50
90.0
 51
136.091731908427
  0
DIMENSION
  5
4ABD
330
1A
100
AcDbEntity
  8
寸法線
 48
10.0
100
AcDbDimension
  2
*D8
 10
1000.917685459575
 20
1098.410567201735
 30
0.0
 11
1000.917685459575
 21
1112.335567201735
 31
0.0
 70
   160
  1
φ<>
  3
ISO-25
100
AcDbAlignedDimension
 13
1000.917685459575
 23
1070.410567201735
 33
0.0
 14
1000.917685459575
 24
1098.410567201735
 34
0.0
 50
90.0
100
AcDbRotatedDimension
1001
ACAD
1000
DSTYLE
1002
{
1070
     5
1000
OPEN30
1070
    41
1040
4.3
1070
    47
1040
0.1
1070
    48
1040
0.1
1070
    73
1070
     0
1070
   140
1040
8.0
1070
   271
1070
     1
1070
   272
1070
     1
1070
   341
1005
2AF4
1002
}
  0
DIMENSION
  5
4AC0
330
1A
100
AcDbEntity
  8
寸法線
 48
10.0
100
AcDbDimension
  2
*D7
 10
869.190613025691
 20
1092.410567201735
 30
0.0
 11
869.190613025691
 21
1084.410567201735
 31
0.0
 70
   160
  1
15.6
  3
ISO-25
100
AcDbAlignedDimension
 13
885.875019750646
 23
1076.410567201735
 33
0.0
 14
885.875019750646
 24
1092.410567201735
 34
0.0
 50
90.0
100
AcDbRotatedDimension
1001
ACAD
1000
DSTYLE
1002
{
1070
     5
1000
OPEN30
1070
    41
1040
4.3
1070
    47
1040
0.1
1070
    48
1040
0.1
1070
    73
1070
     0
1070
   140
1040
8.0
1070
   271
1070
     1
1070
   272
1070
     1
1070
   341
1005
2AF4
1002
}
  0
DIMENSION
  5
4AC1
330
1A
100
AcDbEntity
  8
寸法線
 48
10.0
100
AcDbDimension
  2
*D6
 10
847.689864152243
 20
1097.410567201735
 30
0.0
 11
843.064076750668
 21
1084.410567201735
 31
0.0
 70
    32
  3
ISO-25
100
AcDbAlignedDimension
 13
898.875019750646
 23
1071.410567201735
 33
0.0
 14
898.875019750646
 24
1097.410567201735
 34
0.0
 50
90.0
100
AcDbRotatedDimension
1001
ACAD
1000
DSTYLE
1002
{
1070
     5
1000
OPEN30
1070
    41
1040
4.3
1070
    47
1040
0.1
1070
    48
1040
0.1
1070
    73
1070
     0
1070
   140
1040
8.0
1070
   271
1070
     1
1070
   272
1070
     1
1070
   341
1005
2AF4
1002
}
  0
LINE
  5
4AC4
330
1A
100
AcDbEntity
  8
細線
 48
10.0
100
AcDbLine
 10
922.375019750646
 20
1071.410567201736
 30
0.0
 11
922.375019750646
 21
1075.410567201736
 31
0.0
  0
LINE
  5
4AC5
330
1A
100
AcDbEntity
  8
外形線
 48
10.0
100
AcDbLine
 10
922.375019750646
 20
1071.410567201736
 30
0.0
 11
925.875019750646
 21
1072.910567201736
 31
0.0
  0
LINE
  5
4AC6
330
1A
100
AcDbEntity
  8
外形線
100
AcDbLine
 10
898.875019750646
 20
1071.410567201736
 30
0.0
 11
922.375019750646
 21
1071.410567201736
 31
0.0
  0
LINE
  5
4AC7
330
1A
100
AcDbEntity
  8
外形線
 48
10.0
100
AcDbLine
 10
922.375019750646
 20
1075.410567201736
 30
0.0
 11
925.875019750646
 21
1076.910567201736
 31
0.0
  0
LINE
  5
4AC8
330
1A
100
AcDbEntity
  8
外形線
100
AcDbLine
 10
885.875019750646
 20
1076.410567201736
 30
0.0
 11
920.875019750646
 21
1076.410567201736
 31
0.0
  0
ARC
  5
4AC9
330
1A
100
AcDbEntity
  8
外形線
100
AcDbCircle
 10
920.875019750646
 20
1081.410567201736
 30
0.0
 40
5.0
100
AcDbArc
 50
270.0
 51
0.0
  0
LINE
  5
4ACA
330
1A
100
AcDbEntity
  8
外形線
100
AcDbLine
 10
922.375019750646
 20
1075.410567201736
 30
0.0
 11
885.875019750646
 21
1075.410567201736
 31
0.0
  0
LINE
  5
4ACB
330
1A
100
AcDbEntity
  8
外形線
 48
10.0
100
AcDbLine
 10
925.875019750646
 20
1091.910567201736
 30
0.0
 11
922.375019750646
 21
1093.410567201736
 31
0.0
  0
LINE
  5
4ACC
330
1A
100
AcDbEntity
  8
細線
 48
10.0
100
AcDbLine
 10
922.375019750646
 20
1093.410567201736
 30
0.0
 11
922.375019750646
 21
1097.410567201736
 31
0.0
  0
ARC
  5
4ACD
330
1A
100
AcDbEntity
  8
外形線
100
AcDbCircle
 10
920.875019750646
 20
1087.410567201736
 30
0.0
 40
5.0
100
AcDbArc
 50
0.0
 51
90.0
  0
LINE
  5
4ACE
330
1A
100
AcDbEntity
  8
外形線
100
AcDbLine
 10
922.375019750646
 20
1093.410567201736
 30
0.0
 11
885.875019750646
 21
1093.410567201736
 31
0.0
  0
LINE
  5
4ACF
330
1A
100
AcDbEntity
  8
外形線
 48
10.0
100
AcDbLine
 10
925.875019750646
 20
1095.910567201736
 30
0.0
 11
922.375019750646
 21
1097.410567201736
 31
0.0
  0
LINE
  5
4AD0
330
1A
100
AcDbEntity
  8
外形線
100
AcDbLine
 10
898.875019750646
 20
1097.410567201736
 30
0.0
 11
922.375019750646
 21
1097.410567201736
 31
0.0
  0
LINE
  5
4AD1
330
1A
100
AcDbEntity
  8
外形線
100
AcDbLine
 10
885.875019750646
 20
1092.410567201736
 30
0.0
 11
920.875019750646
 21
1092.410567201736
 31
0.0
  0
LINE
  5
4AD2
330
1A
100
AcDbEntity
  8
外形線
100
AcDbLine
 10
885.875019750646
 20
1093.410567201736
 30
0.0
 11
898.875019750646
 21
1097.410567201736
 31
0.0
  0
LINE
  5
4AD3
330
1A
100
AcDbEntity
  8
外形線
100
AcDbLine
 10
885.875019750646
 20
1092.410567201736
 30
0.0
 11
885.875019750646
 21
1093.410567201736
 31
0.0
  0
LINE
  5
4AD4
330
1A
100
AcDbEntity
  8
外形線
100
AcDbLine
 10
885.875019750646
 20
1075.410567201736
 30
0.0
 11
898.875019750646
 21
1071.410567201736
 31
0.0
  0
LINE
  5
4AD5
330
1A
100
AcDbEntity
  8
外形線
100
AcDbLine
 10
885.875019750646
 20
1076.410567201736
 30
0.0
 11
885.875019750646
 21
1075.410567201736
 31
0.0
  0
ARC
  5
4AD8
330
1A
100
AcDbEntity
  8
細線
 48
10.0
100
AcDbCircle
 10
982.195255354008
 20
1091.410567201736
 30
0.0
 40
9.66666666666672
100
AcDbArc
 50
133.602818972701
 51
226.397181027299
  0
ARC
  5
4AD9
330
1A
100
AcDbEntity
  8
細線
 48
10.0
100
AcDbCircle
 10
968.861922020674
 20
1091.410567201736
 30
0.0
 40
9.66666666666672
100
AcDbArc
 50
313.602818972701
 51
46.397181027299
  0
ARC
  5
4ADA
330
1A
100
AcDbEntity
  8
細線
 48
10.0
100
AcDbCircle
 10
994.195255354008
 20
1091.410567201736
 30
0.0
 40
9.66666666666672
100
AcDbArc
 50
133.602818972701
 51
226.397181027299
  0
ARC
  5
4ADB
330
1A
100
AcDbEntity
  8
細線
 48
10.0
100
AcDbCircle
 10
968.861922020674
 20
1077.410567201736
 30
0.0
 40
9.66666666666672
100
AcDbArc
 50
313.602818972701
 51
46.397181027299
  0
ARC
  5
4ADC
330
1A
100
AcDbEntity
  8
細線
 48
10.0
100
AcDbCircle
 10
994.195255354008
 20
1077.410567201736
 30
0.0
 40
9.66666666666672
100
AcDbArc
 50
133.602818972701
 51
226.397181027299
  0
ARC
  5
4ADD
330
1A
100
AcDbEntity
  8
細線
 48
10.0
100
AcDbCircle
 10
980.861922020674
 20
1077.410567201736
 30
0.0
 40
9.66666666666672
100
AcDbArc
 50
313.602818972701
 51
46.397181027299
  0
LINE
  5
4ADE
330
1A
100
AcDbEntity
  8
外形線
100
AcDbLine
 10
975.528588687341
 20
1070.410567201736
 30
0.0
 11
925.875019750646
 21
1070.410567201736
 31
0.0
  0
LINE
  5
4ADF
330
1A
100
AcDbEntity
  8
外形線
100
AcDbLine
 10
975.52858868734
 20
1098.410567201735
 30
0.0
 11
925.875019750646
 21
1098.410567201735
 31
0.0
  0
LINE
  5
4AE2
330
1A
100
AcDbEntity
  8
外形線
100
AcDbLine
 10
1049.876420590054
 20
1099.160567201735
 30
0.0
 11
1049.876420590054
 21
1069.660567201735
 31
0.0
  0
LINE
  5
4AE3
330
1A
100
AcDbEntity
  8
外形線
100
AcDbLine
 10
1036.876420590054
 20
1099.160567201735
 30
0.0
 11
1036.876420590054
 21
1084.410567201735
 31
0.0
  0
LINE
  5
4AE4
330
1A
100
AcDbEntity
  8
外形線
100
AcDbLine
 10
1045.3522714013
 20
1067.910567201735
 30
0.0
 11
1037.934728624198
 21
1067.910567201735
 31
0.0
  0
LINE
  5
4AE5
330
1A
100
AcDbEntity
  8
細線
100
AcDbLine
 10
1048.076420590054
 20
1069.660567201735
 30
0.0
 11
1036.876420590054
 21
1069.660567201735
 31
0.0
  0
LINE
  5
4AE6
330
1A
100
AcDbEntity
  8
外形線
100
AcDbLine
 10
1036.876420590054
 20
1069.660567201735
 30
0.0
 11
1036.876420590054
 21
1084.410567201735
 31
0.0
  0
LINE
  5
4AE7
330
1A
100
AcDbEntity
  8
外形線
100
AcDbLine
 10
1036.876420590054
 20
1069.660567201735
 30
0.0
 11
1037.934728624198
 21
1067.910567201735
 31
0.0
  0
LINE
  5
4AE8
330
1A
100
AcDbEntity
  8
外形線
100
AcDbLine
 10
1049.876420590054
 20
1069.660567201735
 30
0.0
 11
1048.076420590054
 21
1069.660567201735
 31
0.0
  0
LINE
  5
4AE9
330
1A
100
AcDbEntity
  8
外形線
100
AcDbLine
 10
1048.076420590054
 20
1069.660567201735
 30
0.0
 11
1045.3522714013
 21
1067.910567201735
 31
0.0
  0
LINE
  5
4AEA
330
1A
100
AcDbEntity
  8
外形線
100
AcDbLine
 10
1045.3522714013
 20
1100.910567201735
 30
0.0
 11
1037.934728624198
 21
1100.910567201735
 31
0.0
  0
LINE
  5
4AEB
330
1A
100
AcDbEntity
  8
細線
100
AcDbLine
 10
1048.076420590054
 20
1099.160567201735
 30
0.0
 11
1036.876420590054
 21
1099.160567201735
 31
0.0
  0
LINE
  5
4AEC
330
1A
100
AcDbEntity
  8
外形線
100
AcDbLine
 10
1036.876420590054
 20
1099.160567201735
 30
0.0
 11
1037.934728624198
 21
1100.910567201735
 31
0.0
  0
LINE
  5
4AED
330
1A
100
AcDbEntity
  8
外形線
100
AcDbLine
 10
1048.076420590054
 20
1099.160567201735
 30
0.0
 11
1045.3522714013
 21
1100.910567201735
 31
0.0
  0
LINE
  5
4AEE
330
1A
100
AcDbEntity
  8
外形線
100
AcDbLine
 10
1049.876420590054
 20
1099.160567201735
 30
0.0
 11
1048.076420590054
 21
1099.160567201735
 31
0.0
  0
LINE
  5
4AEF
330
1A
100
AcDbEntity
  8
外形線
100
AcDbLine
 10
1038.184728624198
 20
1100.910567201735
 30
0.0
 11
1041.671616841964
 21
1100.910567201735
 31
0.0
  0
LINE
  5
4AF0
330
1A
100
AcDbEntity
  8
外形線
100
AcDbLine
 10
1038.184728624198
 20
1067.910567201735
 30
0.0
 11
1041.671616841964
 21
1067.910567201735
 31
0.0
  0
LINE
  5
4AF1
330
1A
100
AcDbEntity
  8
外形線
100
AcDbLine
 10
1048.076420590054
 20
1069.660567201735
 30
0.0
 11
1048.076420590054
 21
1099.160567201735
 31
0.0
  0
LINE
  5
4AF2
330
1A
100
AcDbEntity
  8
外形線
100
AcDbLine
 10
1037.934728624198
 20
1100.910567201735
 30
0.0
 11
1037.934728624198
 21
1067.910567201735
 31
0.0
  0
LINE
  5
4AF3
330
1A
100
AcDbEntity
  8
外形線
100
AcDbLine
 10
1045.3522714013
 20
1067.910567201735
 30
0.0
 11
1045.3522714013
 21
1100.910567201735
 31
0.0
  0
DIMENSION
  5
4C84
330
1A
100
AcDbEntity
  8
寸法線
 48
10.0
100
AcDbDimension
  2
*D11
 10
1165.992897297036
 20
966.910567201736
 30
0.0
 11
1108.934658943545
 21
971.535567201736
 31
0.0
 70
    32
  1
111
  3
ISO-25
100
AcDbAlignedDimension
 13
1051.876420590054
 23
1064.410567201735
 33
0.0
 14
1165.992897297036
 24
1039.877896478084
 34
0.0
100
AcDbRotatedDimension
1001
ACAD
1000
DSTYLE
1002
{
1070
     5
1000
OPEN30
1070
    41
1040
6.0
1070
    47
1040
0.1
1070
    48
1040
0.1
1070
    73
1070
     0
1070
   140
1040
8.0
1070
   271
1070
     1
1070
   272
1070
     1
1070
   341
1005
2AF4
1002
}
  0
DIMENSION
  5
4C91
330
1A
100
AcDbEntity
  8
寸法線
 48
10.0
100
AcDbDimension
  2
*D12
 10
1051.876420590054
 20
966.910567201736
 30
0.0
 11
968.87572017035
 21
966.910567201736
 31
0.0
 70
    32
  1
 
  3
ISO-25
100
AcDbAlignedDimension
 13
885.875019750646
 23
1075.410567201736
 33
0.0
 14
1051.876420590054
 24
1064.410567201735
 34
0.0
100
AcDbRotatedDimension
1001
ACAD
1000
DSTYLE
1002
{
1070
     5
1000
OPEN30
1070
    41
1040
6.0
1070
    47
1040
0.1
1070
    48
1040
0.1
1070
    73
1070
     0
1070
   140
1040
5.0
1070
   271
1070
     1
1070
   272
1070
     1
1070
   341
1005
2AF4
1002
}
  0
DIMENSION
  5
4CB9
330
1A
100
AcDbEntity
  8
寸法線
 48
10.0
100
AcDbDimension
  2
*D13
 10
885.875019750646
 20
1039.082739329584
 30
0.0
 11
905.875019750646
 21
1043.707739329584
 31
0.0
 70
    32
  3
ISO-25
100
AcDbAlignedDimension
 13
925.875019750646
 23
1070.410567201736
 33
0.0
 14
885.875019750646
 24
1075.410567201736
 34
0.0
100
AcDbRotatedDimension
1001
ACAD
1000
DSTYLE
1002
{
1070
     5
1000
OPEN30
1070
    41
1040
6.0
1070
    47
1040
0.1
1070
    48
1040
0.1
1070
    73
1070
     0
1070
   140
1040
8.0
1070
   271
1070
     1
1070
   272
1070
     1
1070
   341
1005
2AF4
1002
}
  0
LEADER
  5
4CD8
330
1A
100
AcDbEntity
  8
寸法線
 48
10.0
100
AcDbLeader
  3
ISO-25
 76
     3
 10
1105.765116798933
 20
1131.468495700066
 30
0.0
 10
1153.98623276407
 20
1167.614151625807
 30
0.0
 10
1166.078698333135
 20
1167.614151625807
 30
0.0
213
-37.15355035907555
223
0.0
233
0.0
1001
ACAD
1000
DSTYLE
1002
{
1070
     5
1000
OPEN30
1070
   147
1040
0.625
1070
    77
1070
     0
1070
    41
1040
6.0
1070
    47
1040
0.1
1070
    48
1040
0.1
1070
    73
1070
     0
1070
   140
1040
5.0
1070
   271
1070
     1
1070
   272
1070
     1
1070
   341
1005
2AF4
1070
   342
1005
2AF4
1002
}
  0
LEADER
  5
4CD9
330
1A
100
AcDbEntity
  8
寸法線
 48
10.0
100
AcDbLeader
  3
ISO-25
 76
     3
 10
1058.232083022756
 20
1108.081928238508
 30
0.0
 10
1088.892912210913
 20
1167.614151625807
 30
0.0
 10
1106.060149511287
 20
1167.614151625807
 30
0.0
213
-17.16723730037438
223
0.0
233
0.0
1001
ACAD
1000
DSTYLE
1002
{
1070
     5
1000
OPEN30
1070
   147
1040
0.625
1070
    77
1070
     0
1070
    41
1040
6.0
1070
    47
1040
0.1
1070
    48
1040
0.1
1070
    73
1070
     0
1070
   140
1040
5.0
1070
   271
1070
     1
1070
   272
1070
     1
1070
   341
1005
2AF4
1070
   342
1005
2AF4
1002
}
  0
LEADER
  5
4CDB
330
1A
100
AcDbEntity
  8
寸法線
 48
10.0
100
AcDbLeader
  3
ISO-25
 76
     3
 10
1050.876420590054
 20
1103.399336209789
 30
0.0
 10
1058.831760076155
 20
1167.614151625807
 30
0.0
 10
1044.24452406483
 20
1167.614151625807
 30
0.0
213
32.30439012526563
223
0.0
233
0.0
1001
ACAD
1000
DSTYLE
1002
{
1070
     5
1000
OPEN30
1070
   147
1040
0.625
1070
    77
1070
     0
1070
    41
1040
6.0
1070
    47
1040
0.1
1070
    48
1040
0.1
1070
    73
1070
     0
1070
   140
1040
5.0
1070
   271
1070
     1
1070
   272
1070
     1
1070
   341
1005
2AF4
1070
   342
1005
2AF4
1002
}
  0
DIMENSION
  5
4CDD
330
1A
100
AcDbEntity
  8
寸法線
 48
10.0
100
AcDbDimension
  2
*D14
 10
1051.876420590054
 20
1039.082739329584
 30
0.0
 11
1044.376420590054
 21
1043.707739329584
 31
0.0
 70
    32
  3
ISO-25
100
AcDbAlignedDimension
 13
1036.876420590054
 23
1069.660567201735
 33
0.0
 14
1051.876420590054
 24
1064.410567201735
 34
0.0
100
AcDbRotatedDimension
1001
ACAD
1000
DSTYLE
1002
{
1070
     5
1000
OPEN30
1070
    41
1040
6.0
1070
    47
1040
0.1
1070
    48
1040
0.1
1070
    73
1070
     0
1070
   140
1040
8.0
1070
   271
1070
     1
1070
   272
1070
     1
1070
   341
1005
2AF4
1002
}
  0
LEADER
  5
4CF3
330
1A
100
AcDbEntity
  8
寸法線
 48
10.0
100
AcDbLeader
  3
ISO-25
 76
     3
 10
1041.671616841964
 20
1100.910567201735
 30
0.0
 10
988.670643634998
 20
1167.614151625807
 30
0.0
 10
977.990505850749
 20
1167.614151625807
 30
0.0
213
27.05307844441677
223
0.0
233
0.0
1001
ACAD
1000
DSTYLE
1002
{
1070
     5
1000
OPEN30
1070
   147
1040
0.625
1070
    77
1070
     0
1070
    41
1040
6.0
1070
    47
1040
0.1
1070
    48
1040
0.1
1070
    73
1070
     0
1070
   140
1040
5.0
1070
   271
1070
     1
1070
   272
1070
     1
1070
   341
1005
2AF4
1070
   342
1005
2AF4
1002
}
  0
LEADER
  5
4CF4
330
1A
100
AcDbEntity
  8
寸法線
 48
10.0
100
AcDbLeader
  3
ISO-25
 76
     3
 10
910.625019750646
 20
1097.410567201736
 30
0.0
 10
910.625019750646
 20
1167.614151625807
 30
0.0
 10
900.877715172563
 20
1167.614151625807
 30
0.0
213
101.7622721781809
223
0.0
233
0.0
1001
ACAD
1000
DSTYLE
1002
{
1070
     5
1000
OPEN30
1070
   147
1040
0.625
1070
    77
1070
     0
1070
    41
1040
6.0
1070
    47
1040
0.1
1070
    48
1040
0.1
1070
    73
1070
     0
1070
   140
1040
5.0
1070
   271
1070
     1
1070
   272
1070
     1
1070
   341
1005
2AF4
1070
   342
1005
2AF4
1002
}
  0
LEADER
  5
4CF5
330
1A
100
AcDbEntity
  8
寸法線
 48
10.0
100
AcDbLeader
  3
ISO-25
 76
     3
 10
1105.619300551246
 20
1038.32349014752
 30
0.0
 10
1085.322538602254
 20
990.367547351906
 30
0.0
 10
1074.309561807706
 20
990.367547351906
 30
0.0
213
16.08865537970519
223
0.0
233
0.0
1001
ACAD
1000
DSTYLE
1002
{
1070
     5
1000
OPEN30
1070
   147
1040
0.625
1070
    77
1070
     0
1070
    41
1040
6.0
1070
    47
1040
0.1
1070
    48
1040
0.1
1070
    73
1070
     0
1070
   140
1040
5.0
1070
   271
1070
     1
1070
   272
1070
     1
1070
   341
1005
2AF4
1070
   342
1005
2AF4
1002
}
  0
LEADER
  5
4CF7
330
1A
100
AcDbEntity
  8
寸法線
 48
10.0
100
AcDbLeader
  3
ISO-25
 76
     3
 10
1114.815988759687
 20
995.410567201734
 30
0.0
 10
1181.995747567564
 20
966.910567201736
 30
0.0
 10
1194.025024686858
 20
966.910567201736
 30
0.0
213
-50.30573528037189
223
0.0
233
0.0
1001
ACAD
1000
DSTYLE
1002
{
1070
     5
1000
OPEN30
1070
   147
1040
0.625
1070
    77
1070
     0
1070
    41
1040
6.0
1070
    47
1040
0.1
1070
    48
1040
0.1
1070
    73
1070
     0
1070
   140
1040
5.0
1070
   271
1070
     1
1070
   272
1070
     1
1070
   341
1005
2AF4
1070
   342
1005
2AF4
1002
}
  0
SPLINE
  5
4CF9
330
1A
100
AcDbEntity
  8
寸法線
 48
10.0
100
AcDbSpline
210
0.0
220
0.0
230
1.0
 70
  1064
 71
     3
 72
    13
 73
     9
 74
     7
 42
0.000000001
 43
0.0000000001
 44
0.0000000001
 40
0.0
 40
0.0
 40
0.0
 40
0.0
 40
3.86842211421227
 40
10.12254119268954
 40
15.16331027423529
 40
18.64952359630841
 40
20.50331406220848
 40
21.8476876304271
 40
21.8476876304271
 40
21.8476876304271
 40
21.8476876304271
 10
968.942977627453
 20
967.8815943600566
 30
0.0
 10
970.0933721028111
 20
968.413007524643
 30
0.0
 10
973.1036215329009
 20
969.8035619910489
 30
0.0
 10
973.8290072489306
 20
979.5109694886695
 30
0.0
 10
969.538131228043
 20
972.5290565898235
 30
0.0
 10
969.7260252602631
 20
968.984673798658
 30
0.0
 10
971.9866962031529
 20
967.5961438966838
 30
0.0
 10
972.986627924865
 20
968.096344351814
 30
0.0
 10
973.4069571394868
 20
968.3066075726852
 30
0.0
 11
968.942977627453
 21
967.8815943600566
 31
0.0
 11
972.0252490088517
 21
970.2191770399072
 31
0.0
 11
972.716103074169
 21
976.4350218021425
 31
0.0
 11
970.0058306379599
 21
972.1848716571485
 31
0.0
 11
970.4841146231918
 21
968.7316227873926
 31
0.0
 11
972.1315340488945
 21
967.8815943600566
 31
0.0
 11
973.4069571394868
 21
968.3066075726852
 31
0.0
  0
MTEXT
  5
4DA3
330
1A
100
AcDbEntity
  8
寸法線
 48
10.0
100
AcDbMText
 10
839.154845722997
 20
892.834344822515
 30
0.0
 40
7.0
 41
125.633939393939
 71
     1
 72
     5
  1
{\C1;：グランド\P：電源\P：電源\P：コモン\P：オープン（クローズ）\P：クローズ（オープン）}
  0
MTEXT
  5
4DA4
330
1A
100
AcDbEntity
  8
寸法線
 48
10.0
100
AcDbMText
 10
827.264652923261
 20
892.834344822515
 30
0.0
 40
7.0
 41
125.633939393939
 71
     1
 72
     5
  1
{\C1;PE\PN\PL1\PC\PNO\PNC}
  0
MTEXT
  5
4DA5
102
{ACAD_XDICTIONARY
360
4DA6
102
}
330
1A
100
AcDbEntity
  8
寸法線
 48
10.0
100
AcDbMText
 10
824.948862874495
 20
925.338208475258
 30
0.0
 40
8.0
 41
124.815667100994
 71
     1
 72
     5
  1
電源電圧：AC20～255V　　　　　　：DC20～60V
1001
ACADANNOTATIVE
1000
AnnotativeData
1002
{
1070
     1
1070
     0
1002
}
  0
MTEXT
  5
4DA9
330
1A
100
AcDbEntity
  8
寸法線
 48
10.0
100
AcDbMText
 10
788.370965731545
 20
833.220516802172
 30
0.0
 40
8.0
 41
95.557777777778
 71
     1
 72
     5
  1
{\C1;（NO）}
  0
MTEXT
  5
4DAA
330
1A
100
AcDbEntity
  8
寸法線
 48
10.0
100
AcDbMText
 10
737.32138650671
 20
833.220516802172
 30
0.0
 40
8.0
 41
95.557777777778
 71
     1
 72
     5
  1
{\C1;（NC）}
  0
LINE
  5
4E35
330
1A
100
AcDbEntity
  8
寸法線
 48
10.0
100
AcDbLine
 10
1095.223638895074
 20
942.561937555018
 30
0.0
 11
1095.223638895074
 21
789.659006197142
 31
0.0
  0
LINE
  5
4E36
330
1A
100
AcDbEntity
  8
寸法線
 48
10.0
100
AcDbLine
 10
964.991777228483
 20
912.926943057156
 30
0.0
 11
1062.352307797903
 21
912.926943057156
 31
0.0
  0
MTEXT
  5
4E37
102
{ACAD_XDICTIONARY
360
4E38
102
}
330
1A
100
AcDbEntity
  8
寸法線
 48
10.0
100
AcDbMText
 10
1029.249322060744
 20
923.747247831586
 30
0.0
 40
8.0
 41
66.205971474318
 71
     2
 72
     5
  1
RFM-402-0
1001
ACADANNOTATIVE
1000
AnnotativeData
1002
{
1070
     1
1070
     0
1002
}
1001
ACAD
1000
MTEXTBEGIN
1070
    44
1040
1.1475
1000
MTEXTEND
  0
MTEXT
  5
4E3B
330
1A
100
AcDbEntity
  8
寸法線
 48
10.0
100
AcDbMText
 10
1021.187224636917
 20
939.680112527524
 30
0.0
 40
8.0
 41
19.77375149039
 71
     1
 72
     5
  1
型式
  0
LINE
  5
4E3C
330
1A
100
AcDbEntity
  8
寸法線
 48
10.0
100
AcDbLine
 10
964.991777228483
 20
928.360911487163
 30
0.0
 11
1062.352307797903
 21
928.360911487163
 31
0.0
  0
LINE
  5
4E3D
330
1A
100
AcDbEntity
  8
寸法線
 48
10.0
100
AcDbLine
 10
964.991777228483
 20
942.561937555018
 30
0.0
 11
1062.352307797903
 21
942.561937555018
 31
0.0
  0
LINE
  5
4E3E
330
1A
100
AcDbEntity
  8
寸法線
 48
10.0
100
AcDbLine
 10
996.146336323586
 20
942.561937555018
 30
0.0
 11
996.146336323586
 21
789.659006197142
 31
0.0
  0
LINE
  5
4E3F
330
1A
100
AcDbEntity
  8
寸法線
 48
10.0
100
AcDbLine
 10
1062.352307797903
 20
942.561937555018
 30
0.0
 11
1062.352307797903
 21
789.659006197142
 31
0.0
  0
LINE
  5
4E40
330
1A
100
AcDbEntity
  8
寸法線
 48
10.0
100
AcDbLine
 10
1062.352307797903
 20
942.561937555018
 30
0.0
 11
1062.352307797903
 21
789.659006197142
 31
0.0
  0
LINE
  5
4E41
330
1A
100
AcDbEntity
  8
寸法線
 48
10.0
100
AcDbLine
 10
964.991777228483
 20
942.561937555018
 30
0.0
 11
964.991777228483
 21
789.659006197142
 31
0.0
  0
MTEXT
  5
4E42
330
1A
100
AcDbEntity
  8
寸法線
 48
10.0
100
AcDbMText
 10
1254.118113167804
 20
801.160027303192
 30
0.0
 40
8.0
 41
165.013333333333
 71
     1
 72
     5
  1
○印が今回の貴社の御仕様です。
  0
SPLINE
  5
4E43
330
1A
100
AcDbEntity
  8
寸法線
 48
10.0
100
AcDbSpline
210
0.0
220
0.0
230
1.0
 70
  1064
 71
     3
 72
    13
 73
     9
 74
     7
 42
0.000000001
 43
0.0000000001
 44
0.0000000001
 40
0.0
 40
0.0
 40
0.0
 40
0.0
 40
3.86842211421227
 40
10.12254119268954
 40
15.16331027423529
 40
18.64952359630841
 40
20.50331406220848
 40
21.8476876304271
 40
21.8476876304271
 40
21.8476876304271
 40
21.8476876304271
 10
1076.558093651704
 20
931.0157334487509
 30
0.0
 10
1077.708488127062
 20
931.5471466133372
 30
0.0
 10
1080.718737557152
 20
932.9377010797434
 30
0.0
 10
1081.444123273182
 20
942.6451085773638
 30
0.0
 10
1077.153247252294
 20
935.6631956785179
 30
0.0
 10
1077.341141284514
 20
932.1188128873522
 30
0.0
 10
1079.601812227404
 20
930.730282985378
 30
0.0
 10
1080.601743949116
 20
931.2304834405084
 30
0.0
 10
1081.022073163738
 20
931.4407466613794
 30
0.0
 11
1076.558093651704
 21
931.0157334487509
 31
0.0
 11
1079.640365033102
 21
933.3533161286015
 31
0.0
 11
1080.33121909842
 21
939.5691608908368
 31
0.0
 11
1077.620946662211
 21
935.3190107458428
 31
0.0
 11
1078.099230647442
 21
931.8657618760868
 31
0.0
 11
1079.746650073145
 21
931.0157334487509
 31
0.0
 11
1081.022073163738
 21
931.4407466613794
 31
0.0
  0
LINE
  5
4E44
330
1A
100
AcDbEntity
  8
寸法線
 48
10.0
100
AcDbLine
 10
964.991777228483
 20
897.492974627149
 30
0.0
 11
996.146336323586
 21
897.492974627149
 31
0.0
  0
MTEXT
  5
4E45
102
{ACAD_XDICTIONARY
360
4E46
102
}
330
1A
100
AcDbEntity
  8
寸法線
 48
10.0
100
AcDbMText
 10
1070.864766776164
 20
924.277580241724
 30
0.0
 40
8.0
 41
25.186395132728
 71
     1
 72
     5
  1
200\P250\P300\P350\P400\P450\P500\P550\P600
1001
ACADANNOTATIVE
1000
AnnotativeData
1002
{
1070
     1
1070
     0
1002
}
1001
ACAD
1000
MTEXTBEGIN
1070
    44
1040
1.1475
1000
MTEXTEND
  0
LINE
  5
4E49
330
1A
100
AcDbEntity
  8
寸法線
 48
10.0
100
AcDbLine
 10
964.991777228483
 20
882.059006197142
 30
0.0
 11
1062.352307797903
 21
882.059006197142
 31
0.0
  0
LINE
  5
4E4A
330
1A
100
AcDbEntity
  8
寸法線
 48
10.0
100
AcDbLine
 10
1062.352307797903
 20
912.926943057156
 30
0.0
 11
1175.223638895074
 21
912.926943057156
 31
0.0
  0
LINE
  5
4E4B
330
1A
100
AcDbEntity
  8
寸法線
 48
10.0
100
AcDbLine
 10
1062.352307797903
 20
897.492974627149
 30
0.0
 11
1175.223638895074
 21
897.492974627149
 31
0.0
  0
LINE
  5
4E4C
330
1A
100
AcDbEntity
  8
寸法線
 48
10.0
100
AcDbLine
 10
1062.352307797903
 20
928.360911487163
 30
0.0
 11
1175.223638895074
 21
928.360911487163
 31
0.0
  0
LINE
  5
4E4D
330
1A
100
AcDbEntity
  8
寸法線
 48
10.0
100
AcDbLine
 10
1062.352307797903
 20
942.561937555018
 30
0.0
 11
1175.223638895074
 21
942.561937555018
 31
0.0
  0
LINE
  5
4E4E
330
1A
100
AcDbEntity
  8
寸法線
 48
10.0
100
AcDbLine
 10
1062.352307797903
 20
882.059006197142
 30
0.0
 11
1175.223638895074
 21
882.059006197142
 31
0.0
  0
MTEXT
  5
4E4F
102
{ACAD_XDICTIONARY
360
4E50
102
}
330
1A
100
AcDbEntity
  8
寸法線
 48
10.0
100
AcDbMText
 10
966.458702094143
 20
939.088207836715
 30
0.0
 40
8.0
 41
32.516763780405
 71
     1
 72
     5
  1
御仕様
1001
ACADANNOTATIVE
1000
AnnotativeData
1002
{
1070
     1
1070
     0
1002
}
  0
LINE
  5
4E53
330
1A
100
AcDbEntity
  8
寸法線
 48
10.0
100
AcDbLine
 10
964.991777228483
 20
866.659006197142
 30
0.0
 11
996.146336323586
 21
866.659006197142
 31
0.0
  0
LINE
  5
4E54
330
1A
100
AcDbEntity
  8
寸法線
 48
10.0
100
AcDbLine
 10
964.991777228483
 20
851.259006197142
 30
0.0
 11
1175.223638895074
 21
851.259006197142
 31
0.0
  0
LINE
  5
4E55
330
1A
100
AcDbEntity
  8
寸法線
 48
10.0
100
AcDbLine
 10
964.991777228483
 20
835.859006197142
 30
0.0
 11
996.146336323586
 21
835.859006197142
 31
0.0
  0
LINE
  5
4E56
330
1A
100
AcDbEntity
  8
寸法線
 48
10.0
100
AcDbLine
 10
964.991777228483
 20
820.459006197142
 30
0.0
 11
1175.223638895074
 21
820.459006197142
 31
0.0
  0
MTEXT
  5
4E57
102
{ACAD_XDICTIONARY
360
4E58
102
}
330
1A
100
AcDbEntity
  8
寸法線
 48
10.0
100
AcDbMText
 10
1151.438974450652
 20
939.335396469777
 30
0.0
 40
8.0
 41
19.77375149039
 71
     1
 72
     5
  1
台数
1001
ACADANNOTATIVE
1000
AnnotativeData
1002
{
1070
     1
1070
     0
1002
}
  0
LINE
  5
4E5B
330
1A
100
AcDbEntity
  8
寸法線
 48
10.0
100
AcDbLine
 10
1176.723638895074
 20
942.561937555018
 30
0.0
 11
1176.723638895074
 21
805.059006197142
 31
0.0
  0
LINE
  5
4E5C
330
1A
100
AcDbEntity
  8
寸法線
 48
10.0
100
AcDbLine
 10
1306.955500561664
 20
942.561937555018
 30
0.0
 11
1306.955500561664
 21
805.059006197142
 31
0.0
  0
LINE
  5
4E5D
330
1A
100
AcDbEntity
  8
寸法線
 48
10.0
100
AcDbLine
 10
1175.223638895074
 20
912.926943057156
 30
0.0
 11
1207.878197990176
 21
912.926943057156
 31
0.0
  0
MTEXT
  5
4E5E
102
{ACAD_XDICTIONARY
360
4E5F
102
}
330
1A
100
AcDbEntity
  8
寸法線
 48
10.0
100
AcDbMText
 10
1240.981183727335
 20
939.680112527524
 30
0.0
 40
8.0
 41
66.205971474318
 71
     2
 72
     5
  1
型式
1001
ACADANNOTATIVE
1000
AnnotativeData
1002
{
1070
     1
1070
     0
1002
}
  0
LINE
  5
4E62
330
1A
100
AcDbEntity
  8
寸法線
 48
10.0
100
AcDbLine
 10
1175.223638895074
 20
928.360911487163
 30
0.0
 11
1274.084169464494
 21
928.360911487163
 31
0.0
  0
LINE
  5
4E63
330
1A
100
AcDbEntity
  8
寸法線
 48
10.0
100
AcDbLine
 10
1175.223638895074
 20
942.561937555018
 30
0.0
 11
1274.084169464494
 21
942.561937555018
 31
0.0
  0
LINE
  5
4E64
330
1A
100
AcDbEntity
  8
寸法線
 48
10.0
100
AcDbLine
 10
1207.878197990176
 20
942.561937555018
 30
0.0
 11
1207.878197990176
 21
805.059006197142
 31
0.0
  0
LINE
  5
4E65
330
1A
100
AcDbEntity
  8
寸法線
 48
10.0
100
AcDbLine
 10
1274.084169464494
 20
942.561937555018
 30
0.0
 11
1274.084169464494
 21
805.059006197142
 31
0.0
  0
LINE
  5
4E66
330
1A
100
AcDbEntity
  8
寸法線
 48
10.0
100
AcDbLine
 10
1274.084169464494
 20
942.561937555018
 30
0.0
 11
1274.084169464494
 21
805.059006197142
 31
0.0
  0
LINE
  5
4E67
330
1A
100
AcDbEntity
  8
寸法線
 48
10.0
100
AcDbLine
 10
1176.723638895074
 20
942.561937555018
 30
0.0
 11
1176.723638895074
 21
805.059006197142
 31
0.0
  0
SPLINE
  5
4E68
330
1A
100
AcDbEntity
  8
寸法線
 48
10.0
100
AcDbSpline
210
0.0
220
0.0
230
1.0
 70
  1064
 71
     3
 72
    13
 73
     9
 74
     7
 42
0.000000001
 43
0.0000000001
 44
0.0000000001
 40
0.0
 40
0.0
 40
0.0
 40
0.0
 40
3.86842211421227
 40
10.12254119268952
 40
15.16331027423514
 40
18.64952359630826
 40
20.50331406220813
 40
21.84768763042697
 40
21.84768763042697
 40
21.84768763042697
 40
21.84768763042697
 10
1288.289955318294
 20
931.0157334487509
 30
0.0
 10
1289.440349793652
 20
931.5471466133372
 30
0.0
 10
1292.450599223743
 20
932.9377010797434
 30
0.0
 10
1293.175984939771
 20
942.6451085773638
 30
0.0
 10
1288.885108918884
 20
935.6631956785179
 30
0.0
 10
1289.073002951104
 20
932.1188128873517
 30
0.0
 10
1291.333673893994
 20
930.7302829853785
 30
0.0
 10
1292.333605615706
 20
931.2304834405082
 30
0.0
 10
1292.753934830328
 20
931.4407466613794
 30
0.0
 11
1288.289955318294
 21
931.0157334487509
 31
0.0
 11
1291.372226699693
 21
933.3533161286015
 31
0.0
 11
1292.06308076501
 21
939.5691608908368
 31
0.0
 11
1289.352808328801
 21
935.3190107458428
 31
0.0
 11
1289.831092314033
 21
931.8657618760868
 31
0.0
 11
1291.478511739735
 21
931.0157334487509
 31
0.0
 11
1292.753934830328
 21
931.4407466613794
 31
0.0
  0
LINE
  5
4E69
330
1A
100
AcDbEntity
  8
寸法線
 48
10.0
100
AcDbLine
 10
1175.223638895074
 20
897.492974627149
 30
0.0
 11
1274.084169464494
 21
897.492974627149
 31
0.0
  0
MTEXT
  5
4E6A
102
{ACAD_XDICTIONARY
360
4E6B
102
}
330
1A
100
AcDbEntity
  8
寸法線
 48
10.0
100
AcDbMText
 10
1282.596628442754
 20
924.277580241724
 30
0.0
 40
8.0
 41
25.186395132728
 71
     1
 72
     5
  1
650\P700\P750\P800\P850\P900\P950\P1000\P
1001
ACADANNOTATIVE
1000
AnnotativeData
1002
{
1070
     1
1070
     0
1002
}
1001
ACAD
1000
MTEXTBEGIN
1070
    44
1040
1.1475
1000
MTEXTEND
  0
LINE
  5
4E6E
330
1A
100
AcDbEntity
  8
寸法線
 48
10.0
100
AcDbLine
 10
1175.223638895074
 20
882.059006197142
 30
0.0
 11
1207.878197990176
 21
882.059006197142
 31
0.0
  0
LINE
  5
4E6F
330
1A
100
AcDbEntity
  8
寸法線
 48
10.0
100
AcDbLine
 10
1274.084169464494
 20
912.926943057156
 30
0.0
 11
1386.955500561664
 21
912.926943057156
 31
0.0
  0
LINE
  5
4E70
330
1A
100
AcDbEntity
  8
寸法線
 48
10.0
100
AcDbLine
 10
1274.084169464494
 20
897.492974627149
 30
0.0
 11
1386.955500561664
 21
897.492974627149
 31
0.0
  0
LINE
  5
4E71
330
1A
100
AcDbEntity
  8
寸法線
 48
10.0
100
AcDbLine
 10
1274.084169464494
 20
928.360911487163
 30
0.0
 11
1386.955500561664
 21
928.360911487163
 31
0.0
  0
LINE
  5
4E72
330
1A
100
AcDbEntity
  8
寸法線
 48
10.0
100
AcDbLine
 10
1274.084169464494
 20
942.561937555018
 30
0.0
 11
1386.955500561664
 21
942.561937555018
 31
0.0
  0
LINE
  5
4E73
330
1A
100
AcDbEntity
  8
寸法線
 48
10.0
100
AcDbLine
 10
1274.084169464494
 20
882.059006197142
 30
0.0
 11
1386.955500561664
 21
882.059006197142
 31
0.0
  0
MTEXT
  5
4E74
102
{ACAD_XDICTIONARY
360
4E75
102
}
330
1A
100
AcDbEntity
  8
寸法線
 48
10.0
100
AcDbMText
 10
1178.190563760733
 20
939.088207836715
 30
0.0
 40
8.0
 41
32.516763780405
 71
     1
 72
     5
  1
御仕様
1001
ACADANNOTATIVE
1000
AnnotativeData
1002
{
1070
     1
1070
     0
1002
}
  0
LINE
  5
4E78
330
1A
100
AcDbEntity
  8
寸法線
 48
10.0
100
AcDbLine
 10
1175.223638895074
 20
866.659006197142
 30
0.0
 11
1386.955500561664
 21
866.659006197142
 31
0.0
  0
LINE
  5
4E79
330
1A
100
AcDbEntity
  8
寸法線
 48
10.0
100
AcDbLine
 10
1175.223638895074
 20
851.259006197142
 30
0.0
 11
1207.878197990176
 21
851.259006197142
 31
0.0
  0
LINE
  5
4E7A
330
1A
100
AcDbEntity
  8
寸法線
 48
10.0
100
AcDbLine
 10
1175.223638895074
 20
835.859006197142
 30
0.0
 11
1386.955500561664
 21
835.859006197142
 31
0.0
  0
LINE
  5
4E7B
330
1A
100
AcDbEntity
  8
寸法線
 48
10.0
100
AcDbLine
 10
1145.223638895074
 20
942.561937555018
 30
0.0
 11
1145.223638895074
 21
789.659006197142
 31
0.0
  0
LINE
  5
4E7C
330
1A
100
AcDbEntity
  8
寸法線
 48
10.0
100
AcDbLine
 10
1175.223638895074
 20
942.561937555018
 30
0.0
 11
1175.223638895074
 21
789.659006197142
 31
0.0
  0
LINE
  5
4E7D
330
1A
100
AcDbEntity
  8
寸法線
 48
10.0
100
AcDbLine
 10
1356.955500561664
 20
942.561937555018
 30
0.0
 11
1356.955500561664
 21
805.059006197142
 31
0.0
  0
LINE
  5
4E7E
330
1A
100
AcDbEntity
  8
寸法線
 48
10.0
100
AcDbLine
 10
1386.955500561664
 20
942.561937555018
 30
0.0
 11
1386.955500561664
 21
805.059006197142
 31
0.0
  0
MTEXT
  5
4E7F
102
{ACAD_XDICTIONARY
360
4E80
102
}
330
1A
100
AcDbEntity
  8
寸法線
 48
10.0
100
AcDbMText
 10
1363.170836117243
 20
939.335396469777
 30
0.0
 40
8.0
 41
19.77375149039
 71
     1
 72
     5
  1
台数
1001
ACADANNOTATIVE
1000
AnnotativeData
1002
{
1070
     1
1070
     0
1002
}
  0
MTEXT
  5
4E83
102
{ACAD_XDICTIONARY
360
4E84
102
}
330
1A
100
AcDbEntity
  8
寸法線
 48
10.0
100
AcDbMText
 10
1112.301427553998
 20
939.493559290609
 30
0.0
 40
8.0
 41
19.77375149039
 71
     1
 72
     5
  1
記事
1001
ACADANNOTATIVE
1000
AnnotativeData
1002
{
1070
     1
1070
     0
1002
}
  0
MTEXT
  5
4E87
102
{ACAD_XDICTIONARY
360
4E88
102
}
330
1A
100
AcDbEntity
  8
寸法線
 48
10.0
100
AcDbMText
 10
1324.033289220588
 20
939.493559290609
 30
0.0
 40
8.0
 41
19.77375149039
 71
     1
 72
     5
  1
記事
1001
ACADANNOTATIVE
1000
AnnotativeData
1002
{
1070
     1
1070
     0
1002
}
  0
LINE
  5
4E8F
330
1A
100
AcDbEntity
  8
寸法線
 48
10.0
100
AcDbLine
 10
1175.223638895074
 20
820.459006197142
 30
0.0
 11
1207.878197990176
 21
820.459006197142
 31
0.0
  0
LINE
  5
4E90
330
1A
100
AcDbEntity
  8
寸法線
 48
10.0
100
AcDbLine
 10
1175.223638895074
 20
805.059006197142
 30
0.0
 11
1386.955500561664
 21
805.059006197142
 31
0.0
  0
LINE
  5
4E91
330
1A
100
AcDbEntity
  8
寸法線
 48
10.0
100
AcDbLine
 10
964.991777228483
 20
805.059006197142
 30
0.0
 11
996.146336323586
 21
805.059006197142
 31
0.0
  0
LINE
  5
4E92
330
1A
100
AcDbEntity
  8
寸法線
 48
10.0
100
AcDbLine
 10
964.991777228483
 20
789.659006197142
 30
0.0
 11
1175.223638895074
 21
789.659006197142
 31
0.0
  0
LINE
  5
51A6
330
1A
100
AcDbEntity
  8
寸法線
 48
10.0
100
AcDbLine
 10
1062.352307797903
 20
866.659006197142
 30
0.0
 11
1175.223638895074
 21
866.659006197142
 31
0.0
  0
LINE
  5
51A7
330
1A
100
AcDbEntity
  8
寸法線
 48
10.0
100
AcDbLine
 10
1062.352307797903
 20
835.859006197142
 30
0.0
 11
1175.223638895074
 21
835.859006197142
 31
0.0
  0
LINE
  5
51A8
330
1A
100
AcDbEntity
  8
寸法線
 48
10.0
100
AcDbLine
 10
1062.352307797903
 20
805.059006197142
 30
0.0
 11
1175.223638895074
 21
805.059006197142
 31
0.0
  0
LINE
  5
51A9
330
1A
100
AcDbEntity
  8
寸法線
 48
10.0
100
AcDbLine
 10
1274.084169464494
 20
851.259006197142
 30
0.0
 11
1386.955500561664
 21
851.259006197142
 31
0.0
  0
LINE
  5
51AA
330
1A
100
AcDbEntity
  8
寸法線
 48
10.0
100
AcDbLine
 10
1274.084169464494
 20
820.459006197142
 30
0.0
 11
1386.955500561664
 21
820.459006197142
 31
0.0
  0
MTEXT
  5
51DC
102
{ACAD_XDICTIONARY
360
51DD
102
}
330
1A
100
AcDbEntity
  8
寸法線
 48
10.0
100
AcDbMText
 10
1029.753187244529
 20
897.718705213741
 30
0.0
 40
8.0
 41
66.205971474318
 71
     5
 72
     5
  1
RFM-403-0
1001
ACADANNOTATIVE
1000
AnnotativeData
1002
{
1070
     1
1070
     0
1002
}
1001
ACAD
1000
MTEXTBEGIN
1070
    44
1040
1.1475
1000
MTEXTEND
  0
MTEXT
  5
5211
102
{ACAD_XDICTIONARY
360
5212
102
}
330
1A
100
AcDbEntity
  8
寸法線
 48
10.0
100
AcDbMText
 10
1029.75318724453
 20
866.850768353727
 30
0.0
 40
8.0
 41
66.205971474318
 71
     5
 72
     5
  1
RFM-404-0
1001
ACADANNOTATIVE
1000
AnnotativeData
1002
{
1070
     1
1070
     0
1002
}
1001
ACAD
1000
MTEXTBEGIN
1070
    44
1040
1.1475
1000
MTEXTEND
  0
MTEXT
  5
5246
102
{ACAD_XDICTIONARY
360
5247
102
}
330
1A
100
AcDbEntity
  8
寸法線
 48
10.0
100
AcDbMText
 10
1029.753187244529
 20
836.050768353727
 30
0.0
 40
8.0
 41
66.205971474318
 71
     5
 72
     5
  1
RFM-405-0
1001
ACADANNOTATIVE
1000
AnnotativeData
1002
{
1070
     1
1070
     0
1002
}
1001
ACAD
1000
MTEXTBEGIN
1070
    44
1040
1.1475
1000
MTEXTEND
  0
MTEXT
  5
527B
102
{ACAD_XDICTIONARY
360
527C
102
}
330
1A
100
AcDbEntity
  8
寸法線
 48
10.0
100
AcDbMText
 10
1029.753187244529
 20
805.250768353727
 30
0.0
 40
8.0
 41
66.205971474318
 71
     5
 72
     5
  1
RFM-406-0
1001
ACADANNOTATIVE
1000
AnnotativeData
1002
{
1070
     1
1070
     0
1002
}
1001
ACAD
1000
MTEXTBEGIN
1070
    44
1040
1.1475
1000
MTEXTEND
  0
MTEXT
  5
52B0
102
{ACAD_XDICTIONARY
360
52B1
102
}
330
1A
100
AcDbEntity
  8
寸法線
 48
10.0
100
AcDbMText
 10
1241.48504891112
 20
913.152673643748
 30
0.0
 40
8.0
 41
66.205971474318
 71
     5
 72
     5
  1
RFM-407-0
1001
ACADANNOTATIVE
1000
AnnotativeData
1002
{
1070
     1
1070
     0
1002
}
1001
ACAD
1000
MTEXTBEGIN
1070
    44
1040
1.1475
1000
MTEXTEND
  0
MTEXT
  5
52E5
102
{ACAD_XDICTIONARY
360
52E6
102
}
330
1A
100
AcDbEntity
  8
寸法線
 48
10.0
100
AcDbMText
 10
1241.48504891112
 20
882.284736783734
 30
0.0
 40
8.0
 41
66.205971474318
 71
     5
 72
     5
  1
RFM-408-0
1001
ACADANNOTATIVE
1000
AnnotativeData
1002
{
1070
     1
1070
     0
1002
}
1001
ACAD
1000
MTEXTBEGIN
1070
    44
1040
1.1475
1000
MTEXTEND
  0
MTEXT
  5
531A
102
{ACAD_XDICTIONARY
360
531B
102
}
330
1A
100
AcDbEntity
  8
寸法線
 48
10.0
100
AcDbMText
 10
1241.48504891112
 20
851.450768353727
 30
0.0
 40
8.0
 41
66.205971474318
 71
     5
 72
     5
  1
RFM-409-0
1001
ACADANNOTATIVE
1000
AnnotativeData
1002
{
1070
     1
1070
     0
1002
}
1001
ACAD
1000
MTEXTBEGIN
1070
    44
1040
1.1475
1000
MTEXTEND
  0
MTEXT
  5
534F
102
{ACAD_XDICTIONARY
360
5350
102
}
330
1A
100
AcDbEntity
  8
寸法線
 48
10.0
100
AcDbMText
 10
1241.48504891112
 20
820.650768353727
 30
0.0
 40
8.0
 41
66.205971474318
 71
     5
 72
     5
  1
RFM-410-0
1001
ACADANNOTATIVE
1000
AnnotativeData
1002
{
1070
     1
1070
     0
1002
}
1001
ACAD
1000
MTEXTBEGIN
1070
    44
1040
1.1475
1000
MTEXTEND
  0
VIEWPORT
  5
2902
330
28FB
100
AcDbEntity
 67
     1
  8
0
 48
10.0
100
AcDbViewport
 10
0.0
 20
0.0
 30
0.0
 40
552.319156214367
 41
300.3
 68
     1
 69
     1
1001
ACAD
1000
MVIEW
1002
{
1070
    16
1010
0.0
1020
0.0
1030
0.0
1010
0.0
1020
0.0
1030
1.0
1040
0.0
1040
300.3
1040
205.756503333333
1040
143.551503333333
1040
50.0
1040
0.0
1040
0.0
1070
    16
1070
   100
1070
     0
1070
     1
1070
     0
1070
     0
1070
     0
1070
     0
1040
0.0
1040
0.0
1040
0.0
1040
10.0
1040
10.0
1040
10.0
1040
10.0
1070
     0
1002
{
1002
}
1002
}
  0
VIEWPORT
  5
2904
330
28FB
100
AcDbEntity
 67
     1
  8
図枠太線
 48
10.0
100
AcDbViewport
 10
204.746305129083
 20
161.396645458131
 30
0.0
 40
400.0
 41
240.0
 68
     2
 69
     2
1001
ACAD
1000
MVIEW
1002
{
1070
    16
1010
0.0
1020
0.0
1030
0.0
1010
0.0
1020
0.0
1030
1.0
1040
0.0
1040
480.000000000001
1040
1012.613598328049
1040
989.907341325902
1040
50.0
1040
0.0
1040
0.0
1070
    16
1070
   100
1070
     0
1070
     0
1070
     0
1070
     0
1070
     0
1070
     0
1040
0.0
1040
0.0
1040
0.0
1040
1.0
1040
1.0
1040
0.0
1040
0.0
1070
     0
1002
{
1002
}
1002
}
  0
INSERT
  5
2A59
330
28FB
100
AcDbEntity
 67
     1
  8
図枠太線
100
AcDbBlockReference
  2
A3横用_タイトル
 10
-0.352109406709
 20
-2.129314295396
 30
0.0
  0
MTEXT
  5
2FE3
330
28FB
100
AcDbEntity
 67
     1
  8
寸法線
 48
10.0
100
AcDbMText
 10
149.281561913196
 20
13.738838105692
 30
0.0
 40
7.0
 41
10.579051054442
 71
     1
 72
     5
  1
1:2
  0
MTEXT
  5
2FE7
330
28FB
100
AcDbEntity
 67
     1
  8
寸法線
 48
10.0
100
AcDbMText
 10
312.502621362913
 20
33.107736922225
 30
0.0
 40
6.0
 41
53.647044270833
 71
     1
 72
     5
  1
RFM-4□□-0
  0
MTEXT
  5
2FE8
330
28FB
100
AcDbEntity
 67
     1
  8
寸法線
 48
10.0
100
AcDbMText
 10
363.257693177112
 20
37.807266065601
 30
0.0
 40
6.0
 41
50.761524795071
 71
     1
 72
     5
  1
{\H0.8333x;振動式\Pレベルスイッチ}
  0
MTEXT
  5
3100
330
28FB
100
AcDbEntity
 67
     1
  8
寸法線
 48
10.0
100
AcDbMText
 10
272.300488718679
 20
48.787921847374
 30
0.0
 40
5.0
 41
58.550841599714
 71
     1
 72
     5
  1
A3縮小図
  0
LINE
  5
3101
330
28FB
100
AcDbEntity
 67
     1
  8
寸法線
 48
10.0
100
AcDbLine
 10
272.300488718679
 20
42.916202519738
 30
0.0
 11
296.843718665885
 21
42.916202519738
 31
0.0
  0
MTEXT
  5
342E
330
28FB
100
AcDbEntity
 67
     1
  8
寸法線
 48
10.0
100
AcDbMText
 10
376.730127672352
 20
48.224963581677
 30
0.0
 40
5.0
 41
54.683098362957
 71
     1
 72
     5
  1
{\C1;台数   台}
  0
MTEXT
  5
4D28
102
{ACAD_XDICTIONARY
360
5076
102
}
330
28FB
100
AcDbEntity
 67
     1
  8
寸法線
 48
10.0
100
AcDbMText
 10
340.986899122563
 20
14.353464829356
 30
0.0
 40
7.0
 41
68.56
 71
     1
 72
     5
  1
HVR-2010
1001
ACADANNOTATIVE
1000
AnnotativeData
1002
{
1070
     1
1070
     0
1002
}
  0
MTEXT
  5
5009
102
{ACAD_XDICTIONARY
360
500A
102
}
330
28FB
100
AcDbEntity
 67
     1
  8
寸法線
 48
10.0
100
AcDbMText
 10
175.506541278264
 20
12.819600893732
 30
0.0
 40
5.0
 41
60.244444444444
 71
     1
 72
     5
  1
2015.8.25
1001
ACADANNOTATIVE
1000
AnnotativeData
1002
{
1070
     1
1070
     0
1002
}
  0
MTEXT
  5
500D
102
{ACAD_XDICTIONARY
360
500E
102
}
330
28FB
100
AcDbEntity
 67
     1
  8
寸法線
 48
10.0
100
AcDbMText
 10
173.953401409015
 20
32.625226751426
 30
0.0
 40
5.0
 41
24.595673902063
 71
     1
 72
     5
  1
takahashi
1001
ACADANNOTATIVE
1000
AnnotativeData
1002
{
1070
     1
1070
     0
1002
}
  0
MTEXT
  5
5710
102
{ACAD_XDICTIONARY
360
5711
102
}
330
28FB
100
AcDbEntity
 67
     1
  8
下書線
 48
10.0
100
AcDbMText
 10
65.626941311831
 20
173.718018053649
 30
0.0
 40
10.0
 41
174.128675272846
 71
     5
 72
     5
  1
HP掲載図面\P変更・追記不可
1001
ACADANNOTATIVE
1000
AnnotativeData
1002
{
1070
     1
1070
     0
1002
}
  0
LWPOLYLINE
  5
5714
330
28FB
100
AcDbEntity
 67
     1
  8
下書線
 48
10.0
100
AcDbPolyline
 90
        4
 70
     1
 43
0.0
 10
23.39679605826
 20
192.144622885049
 10
107.230959822016
 20
192.144622885049
 10
107.230959822016
 20
155.022483949069
 10
23.39679605826
 20
155.022483949069
  0
MTEXT
  5
58DB
102
{ACAD_XDICTIONARY
360
58DC
102
}
330
28FB
100
AcDbEntity
 67
     1
  8
寸法線
 48
10.0
100
AcDbMText
 10
154.696305129083
 20
29.396646458131
 30
0.0
 40
4.5
 41
29.906507692735
 71
     5
 72
     5
  1
tahara
1001
ACADANNOTATIVE
1000
AnnotativeData
1002
{
1070
     1
1070
     0
1002
}
  0
MTEXT
  5
58DF
102
{ACAD_XDICTIONARY
360
58E0
102
}
330
28FB
100
AcDbEntity
 67
     1
  8
寸法線
 48
10.0
100
AcDbMText
 10
121.396304528483
 20
29.396646458131
 30
0.0
 40
4.5
 41
16.097226867587
 71
     5
 72
     5
  1
konishi
1001
ACADANNOTATIVE
1000
AnnotativeData
1002
{
1070
     1
1070
     0
1002
}
  0
ENDSEC
  0
SECTION
  2
OBJECTS
  0
DICTIONARY
  5
C
330
0
100
AcDbDictionary
  3
ACAD_COLOR
350
2948
  3
ACAD_GROUP
350
D
  3
ACAD_LAYOUT
350
2816
  3
ACAD_MATERIAL
350
2947
  3
ACAD_MLEADERSTYLE
350
4D69
  3
ACAD_MLINESTYLE
350
E
  3
ACAD_PLOTSETTINGS
350
2817
  3
ACAD_SCALELIST
350
4D42
  3
ACAD_VISUALSTYLE
350
4D29
  3
ACADDIM
350
30EB
  3
ACDBHEADERROUNDTRIPXREC
350
59AB
  3
ACDBVARIABLEDICTIONARY
350
4F58
  3
DWGPROPS
350
59D0
  0
DICTIONARY
  5
59D1
330
8
100
AcDbDictionary
280
     1
  3
ACAD_XREC_ROUNDTRIP
360
59D2
  0
DICTIONARY
  5
29EA
330
2
100
AcDbDictionary
280
     1
  3
ACAD_LAYERFILTERS
360
2B0C
  3
ACAD_LAYERSTATES
360
29EB
  0
DICTIONARY
  5
547F
330
415A
100
AcDbDictionary
280
     1
  3
ACDBCONTEXTDATAMANAGER
360
5480
  0
DICTIONARY
  5
5482
330
4198
100
AcDbDictionary
280
     1
  3
ACDBCONTEXTDATAMANAGER
360
5483
  0
DICTIONARY
  5
4DA6
330
4DA5
100
AcDbDictionary
280
     1
  3
ACDBCONTEXTDATAMANAGER
360
4DA7
  0
DICTIONARY
  5
4E38
330
4E37
100
AcDbDictionary
280
     1
  3
ACDBCONTEXTDATAMANAGER
360
4E39
  0
DICTIONARY
  5
4E46
330
4E45
100
AcDbDictionary
280
     1
  3
ACDBCONTEXTDATAMANAGER
360
4E47
  0
DICTIONARY
  5
4E50
330
4E4F
100
AcDbDictionary
280
     1
  3
ACDBCONTEXTDATAMANAGER
360
4E51
  0
DICTIONARY
  5
4E58
330
4E57
100
AcDbDictionary
280
     1
  3
ACDBCONTEXTDATAMANAGER
360
4E59
  0
DICTIONARY
  5
4E5F
330
4E5E
100
AcDbDictionary
280
     1
  3
ACDBCONTEXTDATAMANAGER
360
4E60
  0
DICTIONARY
  5
4E6B
330
4E6A
100
AcDbDictionary
280
     1
  3
ACDBCONTEXTDATAMANAGER
360
4E6C
  0
DICTIONARY
  5
4E75
330
4E74
100
AcDbDictionary
280
     1
  3
ACDBCONTEXTDATAMANAGER
360
4E76
  0
DICTIONARY
  5
4E80
330
4E7F
100
AcDbDictionary
280
     1
  3
ACDBCONTEXTDATAMANAGER
360
4E81
  0
DICTIONARY
  5
4E84
330
4E83
100
AcDbDictionary
280
     1
  3
ACDBCONTEXTDATAMANAGER
360
4E85
  0
DICTIONARY
  5
4E88
330
4E87
100
AcDbDictionary
280
     1
  3
ACDBCONTEXTDATAMANAGER
360
4E89
  0
DICTIONARY
  5
51DD
330
51DC
100
AcDbDictionary
280
     1
  3
ACDBCONTEXTDATAMANAGER
360
51DE
  0
DICTIONARY
  5
5212
330
5211
100
AcDbDictionary
280
     1
  3
ACDBCONTEXTDATAMANAGER
360
5213
  0
DICTIONARY
  5
5247
330
5246
100
AcDbDictionary
280
     1
  3
ACDBCONTEXTDATAMANAGER
360
5248
  0
DICTIONARY
  5
527C
330
527B
100
AcDbDictionary
280
     1
  3
ACDBCONTEXTDATAMANAGER
360
527D
  0
DICTIONARY
  5
52B1
330
52B0
100
AcDbDictionary
280
     1
  3
ACDBCONTEXTDATAMANAGER
360
52B2
  0
DICTIONARY
  5
52E6
330
52E5
100
AcDbDictionary
280
     1
  3
ACDBCONTEXTDATAMANAGER
360
52E7
  0
DICTIONARY
  5
531B
330
531A
100
AcDbDictionary
280
     1
  3
ACDBCONTEXTDATAMANAGER
360
531C
  0
DICTIONARY
  5
5350
330
534F
100
AcDbDictionary
280
     1
  3
ACDBCONTEXTDATAMANAGER
360
5351
  0
DICTIONARY
  5
5076
330
4D28
100
AcDbDictionary
280
     1
  3
ACDBCONTEXTDATAMANAGER
360
5077
  0
DICTIONARY
  5
500A
330
5009
100
AcDbDictionary
280
     1
  3
ACDBCONTEXTDATAMANAGER
360
500B
  0
DICTIONARY
  5
500E
330
500D
100
AcDbDictionary
280
     1
  3
ACDBCONTEXTDATAMANAGER
360
500F
  0
DICTIONARY
  5
5711
330
5710
100
AcDbDictionary
280
     1
  3
ACDBCONTEXTDATAMANAGER
360
5712
  0
DICTIONARY
  5
58DC
330
58DB
100
AcDbDictionary
280
     1
  3
ACDBCONTEXTDATAMANAGER
360
58DD
  0
DICTIONARY
  5
58E0
330
58DF
100
AcDbDictionary
280
     1
  3
ACDBCONTEXTDATAMANAGER
360
58E1
  0
DICTIONARY
  5
2948
102
{ACAD_REACTORS
330
C
102
}
330
C
100
AcDbDictionary
  0
DICTIONARY
  5
D
102
{ACAD_REACTORS
330
C
102
}
330
C
100
AcDbDictionary
  0
DICTIONARY
  5
2816
102
{ACAD_REACTORS
330
C
102
}
330
C
100
AcDbDictionary
  0
DICTIONARY
  5
2947
102
{ACAD_REACTORS
330
C
102
}
330
C
100
AcDbDictionary
  3
BYBLOCK
350
4D65
  3
BYLAYER
350
4D64
  3
GLOBAL
350
4D66
  0
DICTIONARY
  5
4D69
102
{ACAD_REACTORS
330
C
102
}
330
C
100
AcDbDictionary
  3
STANDARD
350
4D6A
  0
DICTIONARY
  5
E
102
{ACAD_REACTORS
330
C
102
}
330
C
100
AcDbDictionary
  3
STANDARD
350
13
  0
DICTIONARY
  5
2817
102
{ACAD_REACTORS
330
C
102
}
330
C
100
AcDbDictionary
  0
DICTIONARY
  5
4D42
102
{ACAD_REACTORS
330
C
102
}
330
C
100
AcDbDictionary
  3
A0
350
4D43
  3
A1
350
4D44
  3
A2
350
4D45
  3
A3
350
4D46
  3
A4
350
4D47
  3
A5
350
4D48
  3
A6
350
4D49
  3
A7
350
4D4A
  3
A8
350
4D4B
  3
A9
350
4D4C
  3
B0
350
4D4D
  3
B1
350
4D4E
  3
B2
350
4D4F
  3
B3
350
4D50
  3
B4
350
4D51
  3
B5
350
4D52
  3
B6
350
4D53
  3
B7
350
4D54
  3
B8
350
4D55
  3
B9
350
4D56
  3
C0
350
4D57
  3
C1
350
4D58
  3
C2
350
4D59
  3
C3
350
4D5A
  3
C4
350
4D5B
  3
C5
350
4D5C
  3
C6
350
4D5D
  3
C7
350
4D5E
  3
C8
350
4D5F
  3
C9
350
4D60
  3
D0
350
4D61
  3
D1
350
4D62
  3
D2
350
4D63
  0
DICTIONARY
  5
4D29
102
{ACAD_REACTORS
330
C
102
}
330
C
100
AcDbDictionary
  3
2DWIREFRAME
350
4D2E
  3
BASIC
350
4D31
  3
BRIGHTEN
350
4D35
  3
COLORCHANGE
350
4D39
  3
CONCEPTUAL
350
4D33
  3
DIM
350
4D34
  3
EDGECOLOROFF
350
4D3C
  3
FACEPATTERN
350
4D38
  3
FLAT
350
4D2A
  3
FLATWITHEDGES
350
4D2B
  3
GOURAUD
350
4D2C
  3
GOURAUDWITHEDGES
350
4D2D
  3
HIDDEN
350
4D30
  3
JITTEROFF
350
4D3A
  3
LINEPATTERN
350
4D37
  3
MODELING
350
4D6B
  3
OVERHANGOFF
350
4D3B
  3
REALISTIC
350
4D32
  3
SHADED
350
4D41
  3
SHADED_WITH_EDGES
350
4D40
  3
SHADES_OF_GRAY
350
4D3D
  3
SKETCHY
350
4D3E
  3
THICKEN
350
4D36
  3
WIREFRAME
350
4D2F
  3
X-RAY
350
4D3F
  0
XRECORD
  5
30EB
102
{ACAD_REACTORS
330
C
102
}
330
C
100
AcDbXrecord
 90
   990106
  3

 60
     0
 61
     0
 62
     1
 63
     3
 64
     0
 65
     0
 66
     0
 67
     3
 68
     1
 69
     0
 70
     0
 71
     0
 72
     0
 40
0.0
170
     0
  0
DICTIONARY
  5
59AB
102
{ACAD_REACTORS
330
C
102
}
330
C
100
AcDbDictionary
  3
CEPSNID
350
59B5
  3
CEPSNTYPE
350
59B4
  3
COLORDICT
350
59CE
  3
DIMSTYLEDATA
350
59CB
  3
FINGERPRINTGUID
350
59B6
  3
HYPERLINKBASE
350
59AE
  3
INSUNITS
350
59B3
  3
LAYOUTDICT
350
59B0
  3
LWETCUNION
350
59B2
  3
MATERIALDICT
350
59CF
  3
PLOTSETDICT
350
59B1
  3
PSVPSCALE
350
59B8
  3
PUCSBASE
350
59BB
  3
PUCSORGBACK
350
59C1
  3
PUCSORGBOTTOM
350
59BD
  3
PUCSORGFRONT
350
59C0
  3
PUCSORGLEFT
350
59BE
  3
PUCSORGRIGHT
350
59BF
  3
PUCSORGTOP
350
59BC
  3
PUCSORTHOREF
350
59B9
  3
PUCSORTHOVIEW
350
59BA
  3
STYLESHEET
350
59AF
  3
TSTACKALIGN
350
59AC
  3
TSTACKSIZE
350
59AD
  3
UCSBASE
350
59C4
  3
UCSORGBACK
350
59CA
  3
UCSORGBOTTOM
350
59C6
  3
UCSORGFRONT
350
59C9
  3
UCSORGLEFT
350
59C7
  3
UCSORGRIGHT
350
59C8
  3
UCSORGTOP
350
59C5
  3
UCSORTHOREF
350
59C2
  3
UCSORTHOVIEW
350
59C3
  3
VERSIONGUID
350
59B7
  0
DICTIONARY
  5
4F58
102
{ACAD_REACTORS
330
C
102
}
330
C
100
AcDbDictionary
  3
CANNOSCALE
350
4F59
  3
CMLEADERSTYLE
350
4F9A
  3
CTABLESTYLE
350
4F99
  3
DIMASSOC
350
59CC
  3
HIDETEXT
350
59CD
  3
MSLTSCALE
350
4F9B
  3
XCLIPFRAME
350
4F9C
  0
XRECORD
  5
59D0
102
{ACAD_REACTORS
330
C
102
}
330
C
100
AcDbXrecord
  1
DWGPROPS COOKIE
  2

  3

  4

  6

  7

  8
takahashi
  9

300
=
301
=
302
=
303
=
304
=
305
=
306
=
307
=
308
=
309
=
 40
0.0
 41
2450576.222302431
 42
2457268.998497685
  1

 90
        0
  0
XRECORD
  5
59D2
102
{ACAD_REACTORS
330
59D1
102
}
330
59D1
100
AcDbXrecord
102
VTR_0.000_0.000_1.000_1.000_VISUALSTYLE
340
4D2E
102
VTR_0.000_0.000_1.000_1.000_GRIDDISPLAY
 70
     3
102
VTR_0.000_0.000_1.000_1.000_GRIDMAJOR
 70
     5
102
VTR_0.000_0.000_1.000_1.000_DEFAULTLIGHTING
280
     1
102
VTR_0.000_0.000_1.000_1.000_DEFAULTLIGHTINGTYPE
 70
     1
102
VTR_0.000_0.000_1.000_1.000_BRIGHTNESS
141
0.0
102
VTR_0.000_0.000_1.000_1.000_CONTRAST
142
0.0
  0
DICTIONARY
  5
2B0C
102
{ACAD_REACTORS
330
29EA
102
}
330
29EA
100
AcDbDictionary
  0
DICTIONARY
  5
29EB
102
{ACAD_REACTORS
330
29EA
102
}
330
29EA
100
AcDbDictionary
  0
DICTIONARY
  5
5480
102
{ACAD_REACTORS
330
547F
102
}
330
547F
100
AcDbDictionary
  3
ACDB_ANNOTATIONSCALES
350
5481
  0
DICTIONARY
  5
5483
102
{ACAD_REACTORS
330
5482
102
}
330
5482
100
AcDbDictionary
  3
ACDB_ANNOTATIONSCALES
350
5484
  0
DICTIONARY
  5
4DA7
102
{ACAD_REACTORS
330
4DA6
102
}
330
4DA6
100
AcDbDictionary
  3
ACDB_ANNOTATIONSCALES
350
4DA8
  0
DICTIONARY
  5
4E39
102
{ACAD_REACTORS
330
4E38
102
}
330
4E38
100
AcDbDictionary
  3
ACDB_ANNOTATIONSCALES
350
4E3A
  0
DICTIONARY
  5
4E47
102
{ACAD_REACTORS
330
4E46
102
}
330
4E46
100
AcDbDictionary
  3
ACDB_ANNOTATIONSCALES
350
4E48
  0
DICTIONARY
  5
4E51
102
{ACAD_REACTORS
330
4E50
102
}
330
4E50
100
AcDbDictionary
  3
ACDB_ANNOTATIONSCALES
350
4E52
  0
DICTIONARY
  5
4E59
102
{ACAD_REACTORS
330
4E58
102
}
330
4E58
100
AcDbDictionary
  3
ACDB_ANNOTATIONSCALES
350
4E5A
  0
DICTIONARY
  5
4E60
102
{ACAD_REACTORS
330
4E5F
102
}
330
4E5F
100
AcDbDictionary
  3
ACDB_ANNOTATIONSCALES
350
4E61
  0
DICTIONARY
  5
4E6C
102
{ACAD_REACTORS
330
4E6B
102
}
330
4E6B
100
AcDbDictionary
  3
ACDB_ANNOTATIONSCALES
350
4E6D
  0
DICTIONARY
  5
4E76
102
{ACAD_REACTORS
330
4E75
102
}
330
4E75
100
AcDbDictionary
  3
ACDB_ANNOTATIONSCALES
350
4E77
  0
DICTIONARY
  5
4E81
102
{ACAD_REACTORS
330
4E80
102
}
330
4E80
100
AcDbDictionary
  3
ACDB_ANNOTATIONSCALES
350
4E82
  0
DICTIONARY
  5
4E85
102
{ACAD_REACTORS
330
4E84
102
}
330
4E84
100
AcDbDictionary
  3
ACDB_ANNOTATIONSCALES
350
4E86
  0
DICTIONARY
  5
4E89
102
{ACAD_REACTORS
330
4E88
102
}
330
4E88
100
AcDbDictionary
  3
ACDB_ANNOTATIONSCALES
350
4E8A
  0
DICTIONARY
  5
51DE
102
{ACAD_REACTORS
330
51DD
102
}
330
51DD
100
AcDbDictionary
  3
ACDB_ANNOTATIONSCALES
350
51DF
  0
DICTIONARY
  5
5213
102
{ACAD_REACTORS
330
5212
102
}
330
5212
100
AcDbDictionary
  3
ACDB_ANNOTATIONSCALES
350
5214
  0
DICTIONARY
  5
5248
102
{ACAD_REACTORS
330
5247
102
}
330
5247
100
AcDbDictionary
  3
ACDB_ANNOTATIONSCALES
350
5249
  0
DICTIONARY
  5
527D
102
{ACAD_REACTORS
330
527C
102
}
330
527C
100
AcDbDictionary
  3
ACDB_ANNOTATIONSCALES
350
527E
  0
DICTIONARY
  5
52B2
102
{ACAD_REACTORS
330
52B1
102
}
330
52B1
100
AcDbDictionary
  3
ACDB_ANNOTATIONSCALES
350
52B3
  0
DICTIONARY
  5
52E7
102
{ACAD_REACTORS
330
52E6
102
}
330
52E6
100
AcDbDictionary
  3
ACDB_ANNOTATIONSCALES
350
52E8
  0
DICTIONARY
  5
531C
102
{ACAD_REACTORS
330
531B
102
}
330
531B
100
AcDbDictionary
  3
ACDB_ANNOTATIONSCALES
350
531D
  0
DICTIONARY
  5
5351
102
{ACAD_REACTORS
330
5350
102
}
330
5350
100
AcDbDictionary
  3
ACDB_ANNOTATIONSCALES
350
5352
  0
DICTIONARY
  5
5077
102
{ACAD_REACTORS
330
5076
102
}
330
5076
100
AcDbDictionary
  3
ACDB_ANNOTATIONSCALES
350
5078
  0
DICTIONARY
  5
500B
102
{ACAD_REACTORS
330
500A
102
}
330
500A
100
AcDbDictionary
  3
ACDB_ANNOTATIONSCALES
350
500C
  0
DICTIONARY
  5
500F
102
{ACAD_REACTORS
330
500E
102
}
330
500E
100
AcDbDictionary
  3
ACDB_ANNOTATIONSCALES
350
5010
  0
DICTIONARY
  5
5712
102
{ACAD_REACTORS
330
5711
102
}
330
5711
100
AcDbDictionary
  3
ACDB_ANNOTATIONSCALES
350
5713
  0
DICTIONARY
  5
58DD
102
{ACAD_REACTORS
330
58DC
102
}
330
58DC
100
AcDbDictionary
  3
ACDB_ANNOTATIONSCALES
350
58DE
  0
DICTIONARY
  5
58E1
102
{ACAD_REACTORS
330
58E0
102
}
330
58E0
100
AcDbDictionary
  3
ACDB_ANNOTATIONSCALES
350
58E2
  0
MATERIAL
  5
4D65
102
{ACAD_REACTORS
330
2947
102
}
102
{ACAD_XDICTIONARY
360
59D5
102
}
330
2947
100
AcDbMaterial
  1
BYBLOCK
  0
MATERIAL
  5
4D64
102
{ACAD_REACTORS
330
2947
102
}
102
{ACAD_XDICTIONARY
360
59D3
102
}
330
2947
100
AcDbMaterial
  1
BYLAYER
  0
MATERIAL
  5
4D66
102
{ACAD_REACTORS
330
2947
102
}
102
{ACAD_XDICTIONARY
360
59D7
102
}
330
2947
100
AcDbMaterial
  1
GLOBAL
  0
ACAD_PROXY_OBJECT
  5
4D6A
102
{ACAD_REACTORS
330
4D69
102
}
330
4D69
100
AcDbProxyObject
 90
      499
 91
      508
 93
      610
310
40901902A4063FBFFFFFE0000000000000020400000000000020404214DD185B99185C990000000000000104090141901A00000000000004100000000000000041025764000000000000039000
340
14
340
0
340
10
340
0
 94
        0
1001
ACAD_MLEADERVER
1070
     2
  0
MLINESTYLE
  5
13
102
{ACAD_REACTORS
330
E
102
}
330
E
100
AcDbMlineStyle
  2
STANDARD
 70
     0
  3

 62
     0
 51
90.0
 52
90.0
 71
     2
 49
0.5
 62
   256
  6
BYLAYER
 49
-0.5
 62
   256
  6
BYLAYER
  0
ACAD_PROXY_OBJECT
  5
4D43
102
{ACAD_REACTORS
330
4D42
102
}
330
4D42
100
AcDbProxyObject
 90
      499
 91
      505
 93
       41
310
903313A31580
  0
ACAD_PROXY_OBJECT
  5
4D44
102
{ACAD_REACTORS
330
4D42
102
}
330
4D42
100
AcDbProxyObject
 90
      499
 91
      505
 93
      105
310
903313A324000000000000004000
  0
ACAD_PROXY_OBJECT
  5
4D45
102
{ACAD_REACTORS
330
4D42
102
}
330
4D42
100
AcDbProxyObject
 90
      499
 91
      505
 93
      105
310
903313A344000000000000104000
  0
ACAD_PROXY_OBJECT
  5
4D46
102
{ACAD_REACTORS
330
4D42
102
}
330
4D42
100
AcDbProxyObject
 90
      499
 91
      505
 93
      105
310
903313A354000000000000144000
  0
ACAD_PROXY_OBJECT
  5
4D47
102
{ACAD_REACTORS
330
4D42
102
}
330
4D42
100
AcDbProxyObject
 90
      499
 91
      505
 93
      105
310
903313A384000000000000204000
  0
ACAD_PROXY_OBJECT
  5
4D48
102
{ACAD_REACTORS
330
4D42
102
}
330
4D42
100
AcDbProxyObject
 90
      499
 91
      505
 93
      113
310
904313A31304000000000000244000
  0
ACAD_PROXY_OBJECT
  5
4D49
102
{ACAD_REACTORS
330
4D42
102
}
330
4D42
100
AcDbProxyObject
 90
      499
 91
      505
 93
      113
310
904313A31364000000000000304000
  0
ACAD_PROXY_OBJECT
  5
4D4A
102
{ACAD_REACTORS
330
4D42
102
}
330
4D42
100
AcDbProxyObject
 90
      499
 91
      505
 93
      113
310
904313A32304000000000000344000
  0
ACAD_PROXY_OBJECT
  5
4D4B
102
{ACAD_REACTORS
330
4D42
102
}
330
4D42
100
AcDbProxyObject
 90
      499
 91
      505
 93
      113
310
904313A333040000000000003E4000
  0
ACAD_PROXY_OBJECT
  5
4D4C
102
{ACAD_REACTORS
330
4D42
102
}
330
4D42
100
AcDbProxyObject
 90
      499
 91
      505
 93
      113
310
904313A34304000000000000444000
  0
ACAD_PROXY_OBJECT
  5
4D4D
102
{ACAD_REACTORS
330
4D42
102
}
330
4D42
100
AcDbProxyObject
 90
      499
 91
      505
 93
      113
310
904313A35304000000000000494000
  0
ACAD_PROXY_OBJECT
  5
4D4E
102
{ACAD_REACTORS
330
4D42
102
}
330
4D42
100
AcDbProxyObject
 90
      499
 91
      505
 93
      121
310
905313A3130304000000000000594000
  0
ACAD_PROXY_OBJECT
  5
4D4F
102
{ACAD_REACTORS
330
4D42
102
}
330
4D42
100
AcDbProxyObject
 90
      499
 91
      505
 93
      105
310
903323A310000000000000010100
  0
ACAD_PROXY_OBJECT
  5
4D50
102
{ACAD_REACTORS
330
4D42
102
}
330
4D42
100
AcDbProxyObject
 90
      499
 91
      505
 93
      105
310
903343A310000000000000410100
  0
ACAD_PROXY_OBJECT
  5
4D51
102
{ACAD_REACTORS
330
4D42
102
}
330
4D42
100
AcDbProxyObject
 90
      499
 91
      505
 93
      105
310
903383A310000000000000810100
  0
ACAD_PROXY_OBJECT
  5
4D52
102
{ACAD_REACTORS
330
4D42
102
}
330
4D42
100
AcDbProxyObject
 90
      499
 91
      505
 93
      113
310
90431303A310000000000000910100
  0
ACAD_PROXY_OBJECT
  5
4D53
102
{ACAD_REACTORS
330
4D42
102
}
330
4D42
100
AcDbProxyObject
 90
      499
 91
      505
 93
      121
310
9053130303A310000000000001650100
  0
ACAD_PROXY_OBJECT
  5
4D54
102
{ACAD_REACTORS
330
4D42
102
}
330
4D42
100
AcDbProxyObject
 90
      499
 91
      505
 93
      257
310
90E312F31323822203D2031272D3022000000000000200FC000000000000284000
  0
ACAD_PROXY_OBJECT
  5
4D55
102
{ACAD_REACTORS
330
4D42
102
}
330
4D42
100
AcDbProxyObject
 90
      499
 91
      505
 93
      249
310
90D312F363422203D2031272D3022000000000000240FC000000000000284000
  0
ACAD_PROXY_OBJECT
  5
4D56
102
{ACAD_REACTORS
330
4D42
102
}
330
4D42
100
AcDbProxyObject
 90
      499
 91
      505
 93
      249
310
90D312F333222203D2031272D3022000000000000280FC000000000000284000
  0
ACAD_PROXY_OBJECT
  5
4D57
102
{ACAD_REACTORS
330
4D42
102
}
330
4D42
100
AcDbProxyObject
 90
      499
 91
      505
 93
      249
310
90D312F313622203D2031272D30220000000000002C0FC000000000000284000
  0
ACAD_PROXY_OBJECT
  5
4D58
102
{ACAD_REACTORS
330
4D42
102
}
330
4D42
100
AcDbProxyObject
 90
      499
 91
      505
 93
      249
310
90D332F333222203D2031272D30220000000000002E0FC000000000000284000
  0
ACAD_PROXY_OBJECT
  5
4D59
102
{ACAD_REACTORS
330
4D42
102
}
330
4D42
100
AcDbProxyObject
 90
      499
 91
      505
 93
      241
310
90C312F3822203D2031272D3022000000000000300FC000000000000284000
  0
ACAD_PROXY_OBJECT
  5
4D5A
102
{ACAD_REACTORS
330
4D42
102
}
330
4D42
100
AcDbProxyObject
 90
      499
 91
      505
 93
      249
310
90D332F313622203D2031272D3022000000000000320FC000000000000284000
  0
ACAD_PROXY_OBJECT
  5
4D5B
102
{ACAD_REACTORS
330
4D42
102
}
330
4D42
100
AcDbProxyObject
 90
      499
 91
      505
 93
      241
310
90C312F3422203D2031272D3022000000000000340FC000000000000284000
  0
ACAD_PROXY_OBJECT
  5
4D5C
102
{ACAD_REACTORS
330
4D42
102
}
330
4D42
100
AcDbProxyObject
 90
      499
 91
      505
 93
      241
310
90C332F3822203D2031272D3022000000000000360FC000000000000284000
  0
ACAD_PROXY_OBJECT
  5
4D5D
102
{ACAD_REACTORS
330
4D42
102
}
330
4D42
100
AcDbProxyObject
 90
      499
 91
      505
 93
      241
310
90C312F3222203D2031272D3022000000000000380FC000000000000284000
  0
ACAD_PROXY_OBJECT
  5
4D5E
102
{ACAD_REACTORS
330
4D42
102
}
330
4D42
100
AcDbProxyObject
 90
      499
 91
      505
 93
      241
310
90C332F3422203D2031272D30220000000000003A0FC000000000000284000
  0
ACAD_PROXY_OBJECT
  5
4D5F
102
{ACAD_REACTORS
330
4D42
102
}
330
4D42
100
AcDbProxyObject
 90
      499
 91
      505
 93
      161
310
90A3122203D2031272D30224000000000000284000
  0
ACAD_PROXY_OBJECT
  5
4D60
102
{ACAD_REACTORS
330
4D42
102
}
330
4D42
100
AcDbProxyObject
 90
      499
 91
      505
 93
      257
310
90E312D312F3222203D2031272D30220000000000003E0FC000000000000284000
  0
ACAD_PROXY_OBJECT
  5
4D61
102
{ACAD_REACTORS
330
4D42
102
}
330
4D42
100
AcDbProxyObject
 90
      499
 91
      505
 93
      225
310
90A3322203D2031272D302200000000000002100000000000000284000
  0
ACAD_PROXY_OBJECT
  5
4D62
102
{ACAD_REACTORS
330
4D42
102
}
330
4D42
100
AcDbProxyObject
 90
      499
 91
      505
 93
      225
310
90A3622203D2031272D302200000000000006100000000000000284000
  0
ACAD_PROXY_OBJECT
  5
4D63
102
{ACAD_REACTORS
330
4D42
102
}
330
4D42
100
AcDbProxyObject
 90
      499
 91
      505
 93
      249
310
90D31272D3022203D2031272D30220000000000000A100000000000000284000
  0
ACAD_PROXY_OBJECT
  5
4D2E
102
{ACAD_REACTORS
330
4D29
102
}
330
4D29
100
AcDbProxyObject
 90
      499
 91
      504
 93
      436
310
42CC9915DA5C99599C985B595049028333333333333E33F0000000000000F90107901411070040501600405405064090741402480A0340
1001
ACAD
1000
AcDbSavedByObjectVersion
1070
     0
  0
ACAD_PROXY_OBJECT
  5
4D31
102
{ACAD_REACTORS
330
4D29
102
}
330
4D29
100
AcDbProxyObject
 90
      499
 91
      504
 93
      388
310
4150985CDA58D07406404333333333333E33F0000000000000F90107A41107004050150841D405064090741402480A0350
1001
ACAD
1000
AcDbSavedByObjectVersion
1070
     0
  0
ACAD_PROXY_OBJECT
  5
4D35
102
{ACAD_REACTORS
330
4D29
102
}
330
4D29
100
AcDbProxyObject
 90
      499
 91
      504
 93
      428
310
42109C9A59DA1D195B90C409028333333333333E33F0000000000000F9010790141107004050150841D405064090741402480A029950
1001
ACAD
1000
AcDbSavedByObjectVersion
1070
     0
  0
ACAD_PROXY_OBJECT
  5
4D39
102
{ACAD_REACTORS
330
4D29
102
}
330
4D29
100
AcDbProxyObject
 90
      499
 91
      504
 93
      452
310
42D0DBDB1BDC90DA185B99D95104090240C333333333333E33F0000000000000F90108901411070040501508421405064090741402480A0350
1001
ACAD
1000
AcDbSavedByObjectVersion
1070
     0
  0
ACAD_PROXY_OBJECT
  5
4D33
102
{ACAD_REACTORS
330
4D29
102
}
330
4D29
100
AcDbProxyObject
 90
      499
 91
      504
 93
      500
310
4290DBDB98D95C1D1D585B10940D028333333333333E33F0000000000000F90107902409070040501000000000018199010841D405064090740C02480A0340
1001
ACAD
1000
AcDbSavedByObjectVersion
1070
     0
  0
ACAD_PROXY_OBJECT
  5
4D34
102
{ACAD_REACTORS
330
4D29
102
}
330
4D29
100
AcDbProxyObject
 90
      499
 91
      504
 93
      412
310
40D11A5B50B409028333333333333E33F0000000000000F9010790141107004050150841D405064090741402480A02677FFFFFD0
1001
ACAD
1000
AcDbSavedByObjectVersion
1070
     0
  0
ACAD_PROXY_OBJECT
  5
4D3C
102
{ACAD_REACTORS
330
4D29
102
}
330
4D29
100
AcDbProxyObject
 90
      499
 91
      504
 93
      452
310
43115919D950DBDB1BDC93D999916409028333333333333E33F0000000000000F9010790141107004050150841D405064090741402480A0350
1001
ACAD
1000
AcDbSavedByObjectVersion
1070
     0
  0
ACAD_PROXY_OBJECT
  5
4D38
102
{ACAD_REACTORS
330
4D29
102
}
330
4D29
100
AcDbProxyObject
 90
      499
 91
      504
 93
      444
310
42D19858D95C185D1D195C9B90F409028333333333333E33F0000000000000F9010790141107004050150841D405064090741402480A0350
1001
ACAD
1000
AcDbSavedByObjectVersion
1070
     0
  0
ACAD_PROXY_OBJECT
  5
4D2A
102
{ACAD_REACTORS
330
4D29
102
}
330
4D29
100
AcDbProxyObject
 90
      499
 91
      504
 93
      380
310
41119B185D240901404333333333333E33F0000000000000F9010740A907004050150841D405064090741402480A1B50
1001
ACAD
1000
AcDbSavedByObjectVersion
1070
     0
  0
ACAD_PROXY_OBJECT
  5
4D2B
102
{ACAD_REACTORS
330
4D29
102
}
330
4D29
100
AcDbProxyObject
 90
      499
 91
      504
 93
      468
310
43519B185D15DA5D1A115919D95CD0140901404333333333333E33F0000000000000F90107409019070040501600405405064090741402480A1B50
1001
ACAD
1000
AcDbSavedByObjectVersion
1070
     0
  0
ACAD_PROXY_OBJECT
  5
4D2C
102
{ACAD_REACTORS
330
4D29
102
}
330
4D29
100
AcDbProxyObject
 90
      499
 91
      504
 93
      404
310
41D1DBDD5C985D5910240902404333333333333E33F0000000000000F9010740A9070040501641D405064090741402480A1B50
1001
ACAD
1000
AcDbSavedByObjectVersion
1070
     0
  0
ACAD_PROXY_OBJECT
  5
4D2D
102
{ACAD_REACTORS
330
4D29
102
}
330
4D29
100
AcDbProxyObject
 90
      499
 91
      504
 93
      492
310
4411DBDD5C985D5915DA5D1A115919D95CD0340902404333333333333E33F0000000000000F90107409019070040501600405405064090741402480A1B50
1001
ACAD
1000
AcDbSavedByObjectVersion
1070
     0
  0
ACAD_PROXY_OBJECT
  5
4D30
102
{ACAD_REACTORS
330
4D29
102
}
330
4D29
100
AcDbProxyObject
 90
      499
 91
      504
 93
      476
310
41921A5919195B90640502408333333333333E33F0000000000000F901079024090700405020000000000001110200405405064090740C02480A0340
1001
ACAD
1000
AcDbSavedByObjectVersion
1070
     0
  0
ACAD_PROXY_OBJECT
  5
4D3A
102
{ACAD_REACTORS
330
4D29
102
}
330
4D29
100
AcDbProxyObject
 90
      499
 91
      504
 93
      428
310
42529A5D1D195C93D999914409028333333333333E33F0000000000000F9010790141107004050150A41D405064090741402480A0350
1001
ACAD
1000
AcDbSavedByObjectVersion
1070
     0
  0
ACAD_PROXY_OBJECT
  5
4D37
102
{ACAD_REACTORS
330
4D29
102
}
330
4D29
100
AcDbProxyObject
 90
      499
 91
      504
 93
      444
310
42D31A5B995C185D1D195C9B90E409028333333333333E33F0000000000000F9010790141107004050750841D405064090741402483A0350
1001
ACAD
1000
AcDbSavedByObjectVersion
1070
     0
  0
ACAD_PROXY_OBJECT
  5
4D6B
102
{ACAD_REACTORS
330
4D29
102
}
330
4D29
100
AcDbProxyObject
 90
      499
 91
      504
 93
      412
310
90A409038333333333333E33F0000000000000F901074090290700405010000000000201990108421405064090741402480A1B40
1001
ACAD
1000
AcDbSavedByObjectVersion
1070
     0
  0
ACAD_PROXY_OBJECT
  5
4D3B
102
{ACAD_REACTORS
330
4D29
102
}
330
4D29
100
AcDbProxyObject
 90
      499
 91
      504
 93
      444
310
42D3DD995C9A185B99D3D999915409028333333333333E33F0000000000000F9010790141107004050150941D405064090741402480A0350
1001
ACAD
1000
AcDbSavedByObjectVersion
1070
     0
  0
ACAD_PROXY_OBJECT
  5
4D32
102
{ACAD_REACTORS
330
4D29
102
}
330
4D29
100
AcDbProxyObject
 90
      499
 91
      504
 93
      428
310
425499585B1A5CDD1A58D08409038333333333333E33F0000000000000F9010740A907004050150800405405064090740C02480A1B40
1001
ACAD
1000
AcDbSavedByObjectVersion
1070
     0
  0
ACAD_PROXY_OBJECT
  5
4D41
102
{ACAD_REACTORS
330
4D29
102
}
330
4D29
100
AcDbProxyObject
 90
      499
 91
      504
 93
      420
310
4194DA1859195911B40902404333333333333E33F0000000000000F9010740A41107004050150800405405064090840C02480A0B40
1001
ACAD
1000
AcDbSavedByObjectVersion
1070
     0
  0
ACAD_PROXY_OBJECT
  5
4D40
102
{ACAD_REACTORS
330
4D29
102
}
330
4D29
100
AcDbProxyObject
 90
      499
 91
      504
 93
      516
310
4454DA18591959081DDA5D1A08195919D95CD1A40902404333333333333E33F0000000000000F901074090142907004050250800405405064090740C02480A0B40
1001
ACAD
1000
AcDbSavedByObjectVersion
1070
     0
  0
ACAD_PROXY_OBJECT
  5
4D3D
102
{ACAD_REACTORS
330
4D29
102
}
330
4D29
100
AcDbProxyObject
 90
      499
 91
      504
 93
      532
310
4394DA1859195CC81BD98811DC985E5174090240C333333333333E33F0000000000000F901079024090741D01000000000000111010841D405064090740C02480A0340
1001
ACAD
1000
AcDbSavedByObjectVersion
1070
     0
  0
ACAD_PROXY_OBJECT
  5
4D3E
102
{ACAD_REACTORS
330
4D29
102
}
330
4D29
100
AcDbProxyObject
 90
      499
 91
      504
 93
      476
310
41D4DAD95D18DA1E51840502408333333333333E33F0000000000000F901079024090741D01000000000000111010B41D405064090741802480A0340
1001
ACAD
1000
AcDbSavedByObjectVersion
1070
     0
  0
ACAD_PROXY_OBJECT
  5
4D36
102
{ACAD_REACTORS
330
4D29
102
}
330
4D29
100
AcDbProxyObject
 90
      499
 91
      504
 93
      412
310
41D51A1A58DAD95B90D409028333333333333E33F0000000000000F9010790141107004050150C41D405064090741402480A0350
1001
ACAD
1000
AcDbSavedByObjectVersion
1070
     0
  0
ACAD_PROXY_OBJECT
  5
4D2F
102
{ACAD_REACTORS
330
4D29
102
}
330
4D29
100
AcDbProxyObject
 90
      499
 91
      504
 93
      420
310
4255DA5C99599C985B595059028333333333333E33F0000000000000F90107901411070040501600405405064090740C02480A0340
1001
ACAD
1000
AcDbSavedByObjectVersion
1070
     0
  0
ACAD_PROXY_OBJECT
  5
4D3F
102
{ACAD_REACTORS
330
4D29
102
}
330
4D29
100
AcDbProxyObject
 90
      499
 91
      504
 93
      404
310
41560B54985E51940902404000000000000E03F0000000000000F9010740501907004050150841D405064090740C02480A1B40
1001
ACAD
1000
AcDbSavedByObjectVersion
1070
     0
  0
XRECORD
  5
59B5
102
{ACAD_REACTORS
330
59AB
102
}
330
59AB
100
AcDbXrecord
340
0
  0
XRECORD
  5
59B4
102
{ACAD_REACTORS
330
59AB
102
}
330
59AB
100
AcDbXrecord
 90
        0
  0
XRECORD
  5
59CE
102
{ACAD_REACTORS
330
59AB
102
}
330
59AB
100
AcDbXrecord
340
2948
  0
XRECORD
  5
59CB
102
{ACAD_REACTORS
330
59AB
102
}
330
59AB
100
AcDbXrecord
1000
DSTYLE
1002
{
1070
   171
 70
     2
1070
   143
 40
0.0394
1070
   274
 70
     2
1070
    41
 40
6.0
1070
   342
340
2AF4
1070
   271
 70
     1
1070
   278
 70
    46
1070
   341
340
2AF4
1070
   272
 70
     1
1070
    48
 40
0.1
1070
   283
 70
     1
1070
    47
 40
0.1
1070
   145
 40
1.0
1070
   340
340
10
1070
   140
 40
5.0
1070
   284
 70
     0
1002
}
  0
XRECORD
  5
59B6
102
{ACAD_REACTORS
330
59AB
102
}
330
59AB
100
AcDbXrecord
  1
{23698909-1D67-4744-B0E2-8DE11E3ED422}
  0
XRECORD
  5
59AE
102
{ACAD_REACTORS
330
59AB
102
}
330
59AB
100
AcDbXrecord
  1

  0
XRECORD
  5
59B3
102
{ACAD_REACTORS
330
59AB
102
}
330
59AB
100
AcDbXrecord
 90
        0
  0
XRECORD
  5
59B0
102
{ACAD_REACTORS
330
59AB
102
}
330
59AB
100
AcDbXrecord
340
2816
  0
XRECORD
  5
59B2
102
{ACAD_REACTORS
330
59AB
102
}
330
59AB
100
AcDbXrecord
 90
    10781
  0
XRECORD
  5
59CF
102
{ACAD_REACTORS
330
59AB
102
}
330
59AB
100
AcDbXrecord
340
2947
  0
XRECORD
  5
59B1
102
{ACAD_REACTORS
330
59AB
102
}
330
59AB
100
AcDbXrecord
340
2817
  0
XRECORD
  5
59B8
102
{ACAD_REACTORS
330
59AB
102
}
330
59AB
100
AcDbXrecord
 40
0.25
  0
XRECORD
  5
59BB
102
{ACAD_REACTORS
330
59AB
102
}
330
59AB
100
AcDbXrecord
340
0
  0
XRECORD
  5
59C1
102
{ACAD_REACTORS
330
59AB
102
}
330
59AB
100
AcDbXrecord
 10
0.0
 20
0.0
 30
0.0
  0
XRECORD
  5
59BD
102
{ACAD_REACTORS
330
59AB
102
}
330
59AB
100
AcDbXrecord
 10
0.0
 20
0.0
 30
0.0
  0
XRECORD
  5
59C0
102
{ACAD_REACTORS
330
59AB
102
}
330
59AB
100
AcDbXrecord
 10
0.0
 20
0.0
 30
0.0
  0
XRECORD
  5
59BE
102
{ACAD_REACTORS
330
59AB
102
}
330
59AB
100
AcDbXrecord
 10
0.0
 20
0.0
 30
0.0
  0
XRECORD
  5
59BF
102
{ACAD_REACTORS
330
59AB
102
}
330
59AB
100
AcDbXrecord
 10
0.0
 20
0.0
 30
0.0
  0
XRECORD
  5
59BC
102
{ACAD_REACTORS
330
59AB
102
}
330
59AB
100
AcDbXrecord
 10
0.0
 20
0.0
 30
0.0
  0
XRECORD
  5
59B9
102
{ACAD_REACTORS
330
59AB
102
}
330
59AB
100
AcDbXrecord
340
0
  0
XRECORD
  5
59BA
102
{ACAD_REACTORS
330
59AB
102
}
330
59AB
100
AcDbXrecord
 70
     0
  0
XRECORD
  5
59AF
102
{ACAD_REACTORS
330
59AB
102
}
330
59AB
100
AcDbXrecord
  1

  0
XRECORD
  5
59AC
102
{ACAD_REACTORS
330
59AB
102
}
330
59AB
100
AcDbXrecord
 90
        1
  0
XRECORD
  5
59AD
102
{ACAD_REACTORS
330
59AB
102
}
330
59AB
100
AcDbXrecord
 90
       70
  0
XRECORD
  5
59C4
102
{ACAD_REACTORS
330
59AB
102
}
330
59AB
100
AcDbXrecord
340
0
  0
XRECORD
  5
59CA
102
{ACAD_REACTORS
330
59AB
102
}
330
59AB
100
AcDbXrecord
 10
0.0
 20
0.0
 30
0.0
  0
XRECORD
  5
59C6
102
{ACAD_REACTORS
330
59AB
102
}
330
59AB
100
AcDbXrecord
 10
0.0
 20
0.0
 30
0.0
  0
XRECORD
  5
59C9
102
{ACAD_REACTORS
330
59AB
102
}
330
59AB
100
AcDbXrecord
 10
0.0
 20
0.0
 30
0.0
  0
XRECORD
  5
59C7
102
{ACAD_REACTORS
330
59AB
102
}
330
59AB
100
AcDbXrecord
 10
0.0
 20
0.0
 30
0.0
  0
XRECORD
  5
59C8
102
{ACAD_REACTORS
330
59AB
102
}
330
59AB
100
AcDbXrecord
 10
0.0
 20
0.0
 30
0.0
  0
XRECORD
  5
59C5
102
{ACAD_REACTORS
330
59AB
102
}
330
59AB
100
AcDbXrecord
 10
0.0
 20
0.0
 30
0.0
  0
XRECORD
  5
59C2
102
{ACAD_REACTORS
330
59AB
102
}
330
59AB
100
AcDbXrecord
340
0
  0
XRECORD
  5
59C3
102
{ACAD_REACTORS
330
59AB
102
}
330
59AB
100
AcDbXrecord
 70
     0
  0
XRECORD
  5
59B7
102
{ACAD_REACTORS
330
59AB
102
}
330
59AB
100
AcDbXrecord
  1
{62E54B18-33B0-4052-8A93-669C61360EBE}
  0
DICTIONARYVAR
  5
4F59
102
{ACAD_REACTORS
330
4F58
102
}
330
4F58
100
DictionaryVariables
280
     0
  1
1:1
  0
DICTIONARYVAR
  5
4F9A
102
{ACAD_REACTORS
330
4F58
102
}
330
4F58
100
DictionaryVariables
280
     0
  1
Standard
  0
DICTIONARYVAR
  5
4F99
102
{ACAD_REACTORS
330
4F58
102
}
330
4F58
100
DictionaryVariables
280
     0
  1
Standard
  0
DICTIONARYVAR
  5
59CC
102
{ACAD_REACTORS
330
4F58
102
}
330
4F58
100
DictionaryVariables
280
     0
  1
1
  0
DICTIONARYVAR
  5
59CD
102
{ACAD_REACTORS
330
4F58
102
}
330
4F58
100
DictionaryVariables
280
     0
  1
0
  0
DICTIONARYVAR
  5
4F9B
102
{ACAD_REACTORS
330
4F58
102
}
330
4F58
100
DictionaryVariables
280
     0
  1
0
  0
DICTIONARYVAR
  5
4F9C
102
{ACAD_REACTORS
330
4F58
102
}
330
4F58
100
DictionaryVariables
280
     0
  1
0
  0
DICTIONARY
  5
5481
102
{ACAD_REACTORS
330
5480
102
}
330
5480
100
AcDbDictionary
  0
DICTIONARY
  5
5484
102
{ACAD_REACTORS
330
5483
102
}
330
5483
100
AcDbDictionary
  0
DICTIONARY
  5
4DA8
102
{ACAD_REACTORS
330
4DA7
102
}
330
4DA7
100
AcDbDictionary
  0
DICTIONARY
  5
4E3A
102
{ACAD_REACTORS
330
4E39
102
}
330
4E39
100
AcDbDictionary
  0
DICTIONARY
  5
4E48
102
{ACAD_REACTORS
330
4E47
102
}
330
4E47
100
AcDbDictionary
  0
DICTIONARY
  5
4E52
102
{ACAD_REACTORS
330
4E51
102
}
330
4E51
100
AcDbDictionary
  0
DICTIONARY
  5
4E5A
102
{ACAD_REACTORS
330
4E59
102
}
330
4E59
100
AcDbDictionary
  0
DICTIONARY
  5
4E61
102
{ACAD_REACTORS
330
4E60
102
}
330
4E60
100
AcDbDictionary
  0
DICTIONARY
  5
4E6D
102
{ACAD_REACTORS
330
4E6C
102
}
330
4E6C
100
AcDbDictionary
  0
DICTIONARY
  5
4E77
102
{ACAD_REACTORS
330
4E76
102
}
330
4E76
100
AcDbDictionary
  0
DICTIONARY
  5
4E82
102
{ACAD_REACTORS
330
4E81
102
}
330
4E81
100
AcDbDictionary
  0
DICTIONARY
  5
4E86
102
{ACAD_REACTORS
330
4E85
102
}
330
4E85
100
AcDbDictionary
  0
DICTIONARY
  5
4E8A
102
{ACAD_REACTORS
330
4E89
102
}
330
4E89
100
AcDbDictionary
  0
DICTIONARY
  5
51DF
102
{ACAD_REACTORS
330
51DE
102
}
330
51DE
100
AcDbDictionary
  0
DICTIONARY
  5
5214
102
{ACAD_REACTORS
330
5213
102
}
330
5213
100
AcDbDictionary
  0
DICTIONARY
  5
5249
102
{ACAD_REACTORS
330
5248
102
}
330
5248
100
AcDbDictionary
  0
DICTIONARY
  5
527E
102
{ACAD_REACTORS
330
527D
102
}
330
527D
100
AcDbDictionary
  0
DICTIONARY
  5
52B3
102
{ACAD_REACTORS
330
52B2
102
}
330
52B2
100
AcDbDictionary
  0
DICTIONARY
  5
52E8
102
{ACAD_REACTORS
330
52E7
102
}
330
52E7
100
AcDbDictionary
  0
DICTIONARY
  5
531D
102
{ACAD_REACTORS
330
531C
102
}
330
531C
100
AcDbDictionary
  0
DICTIONARY
  5
5352
102
{ACAD_REACTORS
330
5351
102
}
330
5351
100
AcDbDictionary
  0
DICTIONARY
  5
5078
102
{ACAD_REACTORS
330
5077
102
}
330
5077
100
AcDbDictionary
  0
DICTIONARY
  5
500C
102
{ACAD_REACTORS
330
500B
102
}
330
500B
100
AcDbDictionary
  0
DICTIONARY
  5
5010
102
{ACAD_REACTORS
330
500F
102
}
330
500F
100
AcDbDictionary
  0
DICTIONARY
  5
5713
102
{ACAD_REACTORS
330
5712
102
}
330
5712
100
AcDbDictionary
  0
DICTIONARY
  5
58DE
102
{ACAD_REACTORS
330
58DD
102
}
330
58DD
100
AcDbDictionary
  0
DICTIONARY
  5
58E2
102
{ACAD_REACTORS
330
58E1
102
}
330
58E1
100
AcDbDictionary
  0
DICTIONARY
  5
59D5
330
4D65
100
AcDbDictionary
280
     1
  3
ACAD_XREC_ROUNDTRIP
360
59D6
  0
DICTIONARY
  5
59D3
330
4D64
100
AcDbDictionary
280
     1
  3
ACAD_XREC_ROUNDTRIP
360
59D4
  0
DICTIONARY
  5
59D7
330
4D66
100
AcDbDictionary
280
     1
  3
ACAD_XREC_ROUNDTRIP
360
59D8
  0
XRECORD
  5
59D6
102
{ACAD_REACTORS
330
59D5
102
}
330
59D5
100
AcDbXrecord
102
MATERIAL
148
0.0
149
0.0
149
0.0
 93
        0
 94
      127
282
     0
 72
     1
 77
     1
171
     1
175
     1
179
     1
273
     0
  0
XRECORD
  5
59D4
102
{ACAD_REACTORS
330
59D3
102
}
330
59D3
100
AcDbXrecord
102
MATERIAL
148
0.0
149
0.0
149
0.0
 93
        0
 94
      127
282
     0
 72
     1
 77
     1
171
     1
175
     1
179
     1
273
     0
  0
XRECORD
  5
59D8
102
{ACAD_REACTORS
330
59D7
102
}
330
59D7
100
AcDbXrecord
102
MATERIAL
148
0.0
149
0.0
149
0.0
 93
        0
 94
      127
282
     0
 72
     1
 77
     1
171
     1
175
     1
179
     1
273
     0
  0
ENDSEC
  0
EOF
