  0
SECTION
  2
HEADER
  9
$ACADVER
  1
AC1014
  9
$ACADMAINTVER
 70
     9
  9
$DWGCODEPAGE
  3
ANSI_932
  9
$INSBASE
 10
0.0
 20
0.0
 30
0.0
  9
$EXTMIN
 10
3.851745505765
 20
204.022462377817
 30
0.0
  9
$EXTMAX
 10
542.087163678091
 20
587.94217724702
 30
0.0
  9
$LIMMIN
 10
-360.747566795242
 20
4.457354754526
  9
$LIMMAX
 10
-162.153696144267
 20
287.675440264018
  9
$ORTHOMODE
 70
     0
  9
$REGENMODE
 70
     1
  9
$FILLMODE
 70
     1
  9
$QTEXTMODE
 70
     0
  9
$MIRRTEXT
 70
     1
  9
$DRAGMODE
 70
     2
  9
$LTSCALE
 40
1.0
  9
$OSMODE
 70
   935
  9
$ATTMODE
 70
     1
  9
$TEXTSIZE
 40
2.333873885063
  9
$TRACEWID
 40
1.0
  9
$TEXTSTYLE
  7
STANDARD
  9
$CLAYER
  8
寸法線
  9
$CELTYPE
  6
BYLAYER
  9
$CECOLOR
 62
   256
  9
$CELTSCALE
 40
10.0
  9
$DELOBJ
 70
     1
  9
$DISPSILH
 70
     0
  9
$DIMSCALE
 40
1.0
  9
$DIMASZ
 40
6.0
  9
$DIMEXO
 40
0.625
  9
$DIMDLI
 40
3.75
  9
$DIMRND
 40
0.0
  9
$DIMDLE
 40
0.0
  9
$DIMEXE
 40
1.25
  9
$DIMTP
 40
0.1
  9
$DIMTM
 40
0.1
  9
$DIMTXT
 40
5.0
  9
$DIMCEN
 40
2.5
  9
$DIMTSZ
 40
0.0
  9
$DIMTOL
 70
     0
  9
$DIMLIM
 70
     0
  9
$DIMTIH
 70
     0
  9
$DIMTOH
 70
     0
  9
$DIMSE1
 70
     0
  9
$DIMSE2
 70
     0
  9
$DIMTAD
 70
     1
  9
$DIMZIN
 70
     8
  9
$DIMBLK
  1
OPEN30
  9
$DIMASO
 70
     1
  9
$DIMSHO
 70
     1
  9
$DIMPOST
  1

  9
$DIMAPOST
  1

  9
$DIMALT
 70
     0
  9
$DIMALTD
 70
     2
  9
$DIMALTF
 40
0.0394
  9
$DIMLFAC
 40
1.0
  9
$DIMTOFL
 70
     1
  9
$DIMTVP
 40
1.0
  9
$DIMTIX
 70
     0
  9
$DIMSOXD
 70
     0
  9
$DIMSAH
 70
     0
  9
$DIMBLK1
  1

  9
$DIMBLK2
  1

  9
$DIMSTYLE
  2
ISO-25
  9
$DIMCLRD
 70
     0
  9
$DIMCLRE
 70
     0
  9
$DIMCLRT
 70
     0
  9
$DIMTFAC
 40
1.0
  9
$DIMGAP
 40
0.625
  9
$DIMJUST
 70
     0
  9
$DIMSD1
 70
     0
  9
$DIMSD2
 70
     0
  9
$DIMTOLJ
 70
     1
  9
$DIMTZIN
 70
     0
  9
$DIMALTZ
 70
     0
  9
$DIMALTTZ
 70
     0
  9
$DIMFIT
 70
     3
  9
$DIMUPT
 70
     0
  9
$DIMUNIT
 70
     2
  9
$DIMDEC
 70
     1
  9
$DIMTDEC
 70
     1
  9
$DIMALTU
 70
     2
  9
$DIMALTTD
 70
     2
  9
$DIMTXSTY
  7
STANDARD
  9
$DIMAUNIT
 70
     0
  9
$LUNITS
 70
     2
  9
$LUPREC
 70
     4
  9
$SKETCHINC
 40
1.0
  9
$FILLETRAD
 40
6.5
  9
$AUNITS
 70
     0
  9
$AUPREC
 70
     0
  9
$MENU
  1
.
  9
$ELEVATION
 40
0.0
  9
$PELEVATION
 40
0.0
  9
$THICKNESS
 40
0.0
  9
$LIMCHECK
 70
     0
  9
$CHAMFERA
 40
10.0
  9
$CHAMFERB
 40
10.0
  9
$CHAMFERC
 40
20.0
  9
$CHAMFERD
 40
0.0
  9
$SKPOLY
 70
     0
  9
$TDCREATE
 40
2450576.597302431
  9
$TDUPDATE
 40
2457269.372518264
  9
$TDINDWG
 40
1.3682165162
  9
$TDUSRTIMER
 40
1.3682165162
  9
$USRTIMER
 70
     1
  9
$ANGBASE
 50
0.0
  9
$ANGDIR
 70
     0
  9
$PDMODE
 70
     0
  9
$PDSIZE
 40
0.0
  9
$PLINEWID
 40
0.0
  9
$COORDS
 70
     0
  9
$SPLFRAME
 70
     0
  9
$SPLINETYPE
 70
     6
  9
$SPLINESEGS
 70
     8
  9
$ATTDIA
 70
     0
  9
$ATTREQ
 70
     1
  9
$HANDLING
 70
     1
  9
$HANDSEED
  5
457C
  9
$SURFTAB1
 70
     6
  9
$SURFTAB2
 70
     6
  9
$SURFTYPE
 70
     6
  9
$SURFU
 70
     6
  9
$SURFV
 70
     6
  9
$UCSNAME
  2

  9
$UCSORG
 10
0.0
 20
0.0
 30
0.0
  9
$UCSXDIR
 10
1.0
 20
0.0
 30
0.0
  9
$UCSYDIR
 10
0.0
 20
1.0
 30
0.0
  9
$PUCSNAME
  2

  9
$PUCSORG
 10
0.0
 20
0.0
 30
0.0
  9
$PUCSXDIR
 10
1.0
 20
0.0
 30
0.0
  9
$PUCSYDIR
 10
0.0
 20
1.0
 30
0.0
  9
$USERI1
 70
     0
  9
$USERI2
 70
     0
  9
$USERI3
 70
     0
  9
$USERI4
 70
     0
  9
$USERI5
 70
     0
  9
$USERR1
 40
0.0
  9
$USERR2
 40
0.0
  9
$USERR3
 40
0.0
  9
$USERR4
 40
0.0
  9
$USERR5
 40
0.0
  9
$WORLDVIEW
 70
     1
  9
$SHADEDGE
 70
     3
  9
$SHADEDIF
 70
    70
  9
$TILEMODE
 70
     0
  9
$MAXACTVP
 70
    16
  9
$PINSBASE
 10
0.0
 20
0.0
 30
0.0
  9
$PLIMCHECK
 70
     0
  9
$PEXTMIN
 10
4.746305129083
 20
4.103050303491
 30
0.0
  9
$PEXTMAX
 10
404.746305129083
 20
284.103050303491
 30
0.0
  9
$PLIMMIN
 10
-7.007122192383
 20
-7.007118782997
  9
$PLIMMAX
 10
417.718108215332
 20
293.315290427208
  9
$UNITMODE
 70
     0
  9
$VISRETAIN
 70
     0
  9
$PLINEGEN
 70
     0
  9
$PSLTSCALE
 70
     1
  9
$TREEDEPTH
 70
  3020
  9
$PICKSTYLE
 70
     1
  9
$CMLSTYLE
  2
STANDARD
  9
$CMLJUST
 70
     0
  9
$CMLSCALE
 40
1.0
  9
$PROXYGRAPHICS
 70
     1
  9
$MEASUREMENT
 70
     1
  0
ENDSEC
  0
SECTION
  2
CLASSES
  0
CLASS
  1
ACDBDICTIONARYWDFLT
  2
AcDbDictionaryWithDefault
  3
ObjectDBX Classes
 90
        0
280
     0
281
     0
  0
CLASS
  1
ACDBPLACEHOLDER
  2
AcDbPlaceHolder
  3
ObjectDBX Classes
 90
        0
280
     0
281
     0
  0
CLASS
  1
LAYOUT
  2
AcDbLayout
  3
ObjectDBX Classes
 90
        0
280
     0
281
     0
  0
CLASS
  1
VISUALSTYLE
  2
AcDbVisualStyle
  3
ObjectDBX Classes
 90
     4095
280
     0
281
     0
  0
CLASS
  1
SCALE
  2
AcDbScale
  3
ObjectDBX Classes
 90
     1153
280
     0
281
     0
  0
CLASS
  1
MATERIAL
  2
AcDbMaterial
  3
ObjectDBX Classes
 90
     1153
280
     0
281
     0
  0
CLASS
  1
TABLESTYLE
  2
AcDbTableStyle
  3
ObjectDBX Classes
 90
     4095
280
     0
281
     0
  0
CLASS
  1
MLEADERSTYLE
  2
AcDbMLeaderStyle
  3
ACDB_MLEADERSTYLE_CLASS
 90
     4095
280
     0
281
     0
  0
CLASS
  1
SUN
  2
AcDbSun
  3
SCENEOE
 90
     1153
280
     0
281
     0
  0
CLASS
  1
DICTIONARYVAR
  2
AcDbDictionaryVar
  3
ObjectDBX Classes
 90
        0
280
     0
281
     0
  0
CLASS
  1
CELLSTYLEMAP
  2
AcDbCellStyleMap
  3
ObjectDBX Classes
 90
     1152
280
     0
281
     0
  0
CLASS
  1
XRECORD
  2
AcDbXrecord
  3
ObjectDBX Classes
 90
        0
280
     0
281
     0
  0
CLASS
  1
LWPOLYLINE
  2
AcDbPolyline
  3
ObjectDBX Classes
 90
        0
280
     0
281
     1
  0
CLASS
  1
HATCH
  2
AcDbHatch
  3
ObjectDBX Classes
 90
        0
280
     0
281
     1
  0
ENDSEC
  0
SECTION
  2
TABLES
  0
TABLE
  2
VPORT
  5
8
102
{ACAD_XDICTIONARY
360
4574
102
}
330
0
100
AcDbSymbolTable
 70
     2
  0
VPORT
  5
36B2
330
8
100
AcDbSymbolTableRecord
100
AcDbViewportTableRecord
  2
*ACTIVE
 70
     0
 10
0.0
 20
0.0
 11
1.0
 21
1.0
 12
272.969454591928
 22
395.982319812418
 13
0.0
 23
0.0
 14
1.0
 24
1.0
 15
0.0
 25
0.0
 16
0.0
 26
0.0
 36
1.0
 17
0.0
 27
0.0
 37
0.0
 40
391.598109166587
 41
1.839224629418
 42
50.0
 43
0.0
 44
0.0
 50
0.0
 51
0.0
 71
    16
 72
   100
 73
     1
 74
     0
 75
     0
 76
     0
 77
     0
 78
     0
  0
ENDTAB
  0
TABLE
  2
LTYPE
  5
5
330
0
100
AcDbSymbolTable
 70
     4
  0
LTYPE
  5
14
330
5
100
AcDbSymbolTableRecord
100
AcDbLinetypeTableRecord
  2
BYBLOCK
 70
     0
  3

 72
    65
 73
     0
 40
0.0
  0
LTYPE
  5
15
330
5
100
AcDbSymbolTableRecord
100
AcDbLinetypeTableRecord
  2
BYLAYER
 70
     0
  3

 72
    65
 73
     0
 40
0.0
  0
LTYPE
  5
16
330
5
100
AcDbSymbolTableRecord
100
AcDbLinetypeTableRecord
  2
CONTINUOUS
 70
     0
  3
Solid line
 72
    65
 73
     0
 40
0.0
  0
LTYPE
  5
1EC
330
5
100
AcDbSymbolTableRecord
100
AcDbLinetypeTableRecord
  2
CENTER
 70
     0
  3
____ _ ____ _ ____ _ ____ _ ____ _ ____ _ ____ 
 72
    65
 73
     4
 40
2.0
 49
1.25
 74
     0
 49
-0.25
 74
     0
 49
0.25
 74
     0
 49
-0.25
 74
     0
  0
LTYPE
  5
1ED
330
5
100
AcDbSymbolTableRecord
100
AcDbLinetypeTableRecord
  2
DASHED
 70
     0
  3
__ __ __ __ __ __ __ __ __ __ __ __ __ __ __ __
 72
    65
 73
     2
 40
0.75
 49
0.5
 74
     0
 49
-0.25
 74
     0
  0
LTYPE
  5
2B1F
330
5
100
AcDbSymbolTableRecord
100
AcDbLinetypeTableRecord
  2
DASHDOT
 70
     0
  3
一点鎖線
 72
    65
 73
     4
 40
25.6
 49
20.0
 74
     0
 49
-2.0
 74
     0
 49
1.6
 74
     0
 49
-2.0
 74
     0
  0
ENDTAB
  0
TABLE
  2
LAYER
  5
2
102
{ACAD_XDICTIONARY
360
29EA
102
}
330
0
100
AcDbSymbolTable
 70
    16
  0
LAYER
  5
F
330
2
100
AcDbSymbolTableRecord
100
AcDbLayerTableRecord
  2
0
 70
     0
 62
     7
  6
CONTINUOUS
  0
LAYER
  5
61
330
2
100
AcDbSymbolTableRecord
100
AcDbLayerTableRecord
  2
図枠太線
 70
     0
 62
   251
  6
CONTINUOUS
  0
LAYER
  5
62
330
2
100
AcDbSymbolTableRecord
100
AcDbLayerTableRecord
  2
図枠細線
 70
     0
 62
   252
  6
CONTINUOUS
  0
LAYER
  5
63
330
2
100
AcDbSymbolTableRecord
100
AcDbLayerTableRecord
  2
図枠ロゴマーク
 70
     0
 62
   253
  6
CONTINUOUS
  0
LAYER
  5
1EF
330
2
100
AcDbSymbolTableRecord
100
AcDbLayerTableRecord
  2
外形線
 70
     0
 62
     7
  6
CONTINUOUS
  0
LAYER
  5
1F0
330
2
100
AcDbSymbolTableRecord
100
AcDbLayerTableRecord
  2
寸法線
 70
     0
 62
     1
  6
CONTINUOUS
  0
LAYER
  5
1F1
330
2
100
AcDbSymbolTableRecord
100
AcDbLayerTableRecord
  2
中心線
 70
     0
 62
     4
  6
CENTER
  0
LAYER
  5
1F4
330
2
100
AcDbSymbolTableRecord
100
AcDbLayerTableRecord
  2
DEFPOINTS
 70
     0
 62
     7
  6
CONTINUOUS
  0
LAYER
  5
2AA2
330
2
100
AcDbSymbolTableRecord
100
AcDbLayerTableRecord
  2
下書線
 70
     0
 62
     2
  6
CONTINUOUS
  0
LAYER
  5
2AA3
330
2
100
AcDbSymbolTableRecord
100
AcDbLayerTableRecord
  2
隠れ線
 70
     0
 62
     3
  6
DASHED
  0
LAYER
  5
2AA4
330
2
100
AcDbSymbolTableRecord
100
AcDbLayerTableRecord
  2
細線
 70
     0
 62
     6
  6
CONTINUOUS
  0
LAYER
  5
2AA5
330
2
100
AcDbSymbolTableRecord
100
AcDbLayerTableRecord
  2
太線
 70
     0
 62
   190
  6
CONTINUOUS
  0
LAYER
  5
2B20
330
2
100
AcDbSymbolTableRecord
100
AcDbLayerTableRecord
  2
LAY-1
 70
     0
 62
     7
  6
CONTINUOUS
  0
LAYER
  5
2B21
330
2
100
AcDbSymbolTableRecord
100
AcDbLayerTableRecord
  2
LAY-2
 70
     0
 62
     7
  6
CONTINUOUS
  0
LAYER
  5
2B22
330
2
100
AcDbSymbolTableRecord
100
AcDbLayerTableRecord
  2
LAY-5
 70
     0
 62
     7
  6
CONTINUOUS
  0
LAYER
  5
2B23
330
2
100
AcDbSymbolTableRecord
100
AcDbLayerTableRecord
  2
LAY-6
 70
     0
 62
     7
  6
CONTINUOUS
  0
ENDTAB
  0
TABLE
  2
STYLE
  5
3
330
0
100
AcDbSymbolTable
 70
     2
  0
STYLE
  5
10
330
3
100
AcDbSymbolTableRecord
100
AcDbTextStyleTableRecord
  2
STANDARD
 70
     0
 40
0.0
 41
1.0
 50
0.0
 71
     0
 42
2.333873885063
  3
ISOCP
  4
bigfont.shx
  0
STYLE
  5
64
330
3
100
AcDbSymbolTableRecord
100
AcDbTextStyleTableRecord
  2
EXCADSTD
 70
     0
 40
0.0
 41
1.0
 50
0.0
 71
     0
 42
0.2
  3
monotxt
  4
bigfont
  0
ENDTAB
  0
TABLE
  2
VIEW
  5
6
330
0
100
AcDbSymbolTable
 70
     0
  0
ENDTAB
  0
TABLE
  2
UCS
  5
7
330
0
100
AcDbSymbolTable
 70
     0
  0
ENDTAB
  0
TABLE
  2
APPID
  5
9
330
0
100
AcDbSymbolTable
 70
     3
  0
APPID
  5
11
330
9
100
AcDbSymbolTableRecord
100
AcDbRegAppTableRecord
  2
ACAD
 70
     0
  0
APPID
  5
3716
330
9
100
AcDbSymbolTableRecord
100
AcDbRegAppTableRecord
  2
ACADANNOTATIVE
 70
     0
  0
APPID
  5
37D1
330
9
100
AcDbSymbolTableRecord
100
AcDbRegAppTableRecord
  2
ACAD_MLEADERVER
 70
     0
  0
ENDTAB
  0
TABLE
  2
DIMSTYLE
  5
A
330
0
100
AcDbSymbolTable
 70
     2
  0
DIMSTYLE
105
1D
330
A
100
AcDbSymbolTableRecord
100
AcDbDimStyleTableRecord
  2
STANDARD
 70
     0
  3

  4

  5

  6

  7

 40
1.0
 41
0.18
 42
0.0625
 43
0.38
 44
0.18
 45
0.0
 46
0.0
 47
0.0
 48
0.0
140
0.18
141
0.09
142
0.0
143
25.4
144
1.0
145
0.0
146
1.0
147
0.09
 71
     0
 72
     0
 73
     1
 74
     1
 75
     0
 76
     0
 77
     0
 78
     0
170
     0
171
     2
172
     0
173
     0
174
     0
175
     0
176
     0
177
     0
178
     0
270
     2
271
     4
272
     4
273
     2
274
     2
340
10
275
     0
280
     0
281
     0
282
     0
283
     1
284
     0
285
     0
286
     0
287
     3
288
     0
  0
DIMSTYLE
105
24
102
{ACAD_REACTORS
330
3002
330
300F
330
3043
330
3082
330
3099
330
30AF
330
30BC
330
30D2
102
}
330
A
100
AcDbSymbolTableRecord
100
AcDbDimStyleTableRecord
  2
ISO-25
 70
     0
  3

  4

  5

  6

  7

 40
1.0
 41
2.5
 42
0.625
 43
3.75
 44
1.25
 45
0.0
 46
0.0
 47
0.0
 48
0.0
140
2.5
141
2.5
142
0.0
143
0.0394
144
1.0
145
1.0
146
1.0
147
0.625
 71
     0
 72
     0
 73
     1
 74
     0
 75
     0
 76
     0
 77
     1
 78
     8
170
     0
171
     2
172
     1
173
     0
174
     0
175
     0
176
     0
177
     0
178
     0
270
     2
271
     4
272
     4
273
     2
274
     2
340
10
275
     0
280
     0
281
     0
282
     0
283
     1
284
     0
285
     0
286
     0
287
     3
288
     0
  0
ENDTAB
  0
TABLE
  2
BLOCK_RECORD
  5
1
330
0
100
AcDbSymbolTable
 70
    14
  0
BLOCK_RECORD
  5
1A
330
1
100
AcDbSymbolTableRecord
100
AcDbBlockTableRecord
  2
*MODEL_SPACE
  0
BLOCK_RECORD
  5
28FB
330
1
100
AcDbSymbolTableRecord
100
AcDbBlockTableRecord
  2
*PAPER_SPACE
  0
BLOCK_RECORD
  5
65
330
1
100
AcDbSymbolTableRecord
100
AcDbBlockTableRecord
  2
A$C3392
  0
BLOCK_RECORD
  5
29BF
330
1
100
AcDbSymbolTableRecord
100
AcDbBlockTableRecord
  2
A4横用_タイトル
1001
ACAD
1000
DesignCenter Data
1002
{
1070
     1
1070
     4
1002
}
  0
BLOCK_RECORD
  5
29F4
330
1
100
AcDbSymbolTableRecord
100
AcDbBlockTableRecord
  2
A4縦用_タイトル
1001
ACAD
1000
DesignCenter Data
1002
{
1070
     1
1070
     4
1002
}
  0
BLOCK_RECORD
  5
2A32
330
1
100
AcDbSymbolTableRecord
100
AcDbBlockTableRecord
  2
A3横用_タイトル
1001
ACAD
1000
DesignCenter Data
1002
{
1070
     1
1070
     4
1002
}
  0
BLOCK_RECORD
  5
2A6C
330
1
100
AcDbSymbolTableRecord
100
AcDbBlockTableRecord
  2
A3縦用_タイトル
1001
ACAD
1000
DesignCenter Data
1002
{
1070
     1
1070
     4
1002
}
  0
BLOCK_RECORD
  5
2AF4
330
1
100
AcDbSymbolTableRecord
100
AcDbBlockTableRecord
  2
_OPEN30
  0
BLOCK_RECORD
  5
3003
330
1
100
AcDbSymbolTableRecord
100
AcDbBlockTableRecord
  2
*D6
  0
BLOCK_RECORD
  5
3010
330
1
100
AcDbSymbolTableRecord
100
AcDbBlockTableRecord
  2
*D7
  0
BLOCK_RECORD
  5
3044
330
1
100
AcDbSymbolTableRecord
100
AcDbBlockTableRecord
  2
*D8
  0
BLOCK_RECORD
  5
3083
330
1
100
AcDbSymbolTableRecord
100
AcDbBlockTableRecord
  2
*D9
  0
BLOCK_RECORD
  5
309A
330
1
100
AcDbSymbolTableRecord
100
AcDbBlockTableRecord
  2
*D10
  0
BLOCK_RECORD
  5
30B0
330
1
100
AcDbSymbolTableRecord
100
AcDbBlockTableRecord
  2
*D11
  0
BLOCK_RECORD
  5
30BD
330
1
100
AcDbSymbolTableRecord
100
AcDbBlockTableRecord
  2
*D12
  0
BLOCK_RECORD
  5
30D3
330
1
100
AcDbSymbolTableRecord
100
AcDbBlockTableRecord
  2
*D13
  0
ENDTAB
  0
ENDSEC
  0
SECTION
  2
BLOCKS
  0
BLOCK
  5
1B
330
1A
100
AcDbEntity
  8
0
100
AcDbBlockBegin
  2
*MODEL_SPACE
 70
     0
 10
0.0
 20
0.0
 30
0.0
  3
*MODEL_SPACE
  1

  0
ENDBLK
  5
1C
330
1A
100
AcDbEntity
  8
0
100
AcDbBlockEnd
  0
BLOCK
  5
28FD
330
28FB
100
AcDbEntity
 67
     1
  8
0
 48
10.0
100
AcDbBlockBegin
  2
*PAPER_SPACE
 70
     0
 10
0.0
 20
0.0
 30
0.0
  3
*PAPER_SPACE
  1

  0
ENDBLK
  5
28FE
330
28FB
100
AcDbEntity
 67
     1
  8
0
 48
10.0
100
AcDbBlockEnd
  0
BLOCK
  5
93
330
65
100
AcDbEntity
  8
0
100
AcDbBlockBegin
  2
A$C3392
 70
     0
 10
0.0
 20
0.0
 30
0.0
  3
A$C3392
  1

  0
LINE
  5
66
330
65
100
AcDbEntity
  8
図枠太線
  6
CONTINUOUS
100
AcDbLine
 10
211.858584505185
 20
30.927375675439
 30
0.0
 11
211.858584505185
 21
0.927375675439
 31
0.0
  0
LINE
  5
67
330
65
100
AcDbEntity
  8
図枠細線
  6
CONTINUOUS
100
AcDbLine
 10
231.858592505185
 20
15.927377675439
 30
0.0
 11
287.858592505185
 21
15.927375675439
 31
0.0
  0
LINE
  5
68
330
65
100
AcDbEntity
  8
図枠細線
  6
CONTINUOUS
100
AcDbLine
 10
211.858592505185
 20
15.927377675439
 30
0.0
 11
231.858592505185
 21
15.927377675439
 31
0.0
  0
LINE
  5
69
330
65
100
AcDbEntity
  8
図枠太線
  6
CONTINUOUS
 62
   251
100
AcDbLine
 10
1.858584505185
 20
0.927375675439
 30
0.0
 11
1.858584505185
 21
275.927375675439
 31
0.0
  0
TEXT
  5
6A
330
65
100
AcDbEntity
  8
図枠細線
  6
CONTINUOUS
 62
   252
100
AcDbText
 10
351.358592505185
 20
28.427377675439
 30
0.0
 40
2.0
  1
ＴＩＴＬＥ
 41
0.903614457831
  7
EXCADSTD
 72
     5
 11
361.358592505185
 21
28.427377675439
 31
0.0
100
AcDbText
  0
TEXT
  5
6B
330
65
100
AcDbEntity
  8
図枠細線
  6
CONTINUOUS
 62
   252
100
AcDbText
 10
345.358592505185
 20
28.427377675439
 30
0.0
 40
2.0
  1
名称
 41
1.171875
  7
EXCADSTD
 72
     5
 11
350.358592505185
 21
28.427377675439
 31
0.0
100
AcDbText
  0
TEXT
  5
6C
330
65
100
AcDbEntity
  8
図枠細線
  6
CONTINUOUS
 62
   252
100
AcDbText
 10
274.358592505185
 20
25.927377675439
 30
0.0
 40
2.0
  1
ＤＲＡＷＮ
 41
0.882352941176
  7
EXCADSTD
 72
     5
 11
284.358592505185
 21
25.927377675439
 31
0.0
100
AcDbText
  0
TEXT
  5
6D
330
65
100
AcDbEntity
  8
図枠細線
  6
CONTINUOUS
 62
   252
100
AcDbText
 10
260.358592505185
 20
25.927377675439
 30
0.0
 40
2.0
  1
ＤＥＳＩＧＮＥＤ
 41
0.713043472041
  7
EXCADSTD
 72
     5
 11
273.478592390744
 21
25.927377675439
 31
0.0
100
AcDbText
  0
TEXT
  5
6E
330
65
100
AcDbEntity
  8
図枠細線
  6
CONTINUOUS
 62
   252
100
AcDbText
 10
246.358592505185
 20
25.927377675439
 30
0.0
 40
2.0
  1
ＣＨＥＣＫＥＤ
 41
0.831249989569
  7
EXCADSTD
 72
     5
 11
259.658592338292
 21
25.927377675439
 31
0.0
100
AcDbText
  0
TEXT
  5
6F
330
65
100
AcDbEntity
  8
図枠細線
  6
CONTINUOUS
 62
   252
100
AcDbText
 10
274.358592505185
 20
28.427377675439
 30
0.0
 40
2.0
  1
製図
 41
1.209677419355
  7
EXCADSTD
 72
     5
 11
279.358592505185
 21
28.427377675439
 31
0.0
100
AcDbText
  0
TEXT
  5
70
330
65
100
AcDbEntity
  8
図枠細線
  6
CONTINUOUS
 62
   252
100
AcDbText
 10
260.358592505185
 20
28.427377675439
 30
0.0
 40
2.0
  1
設計
 41
1.171875
  7
EXCADSTD
 72
     5
 11
265.358592505185
 21
28.427377675439
 31
0.0
100
AcDbText
  0
TEXT
  5
71
330
65
100
AcDbEntity
  8
図枠細線
  6
CONTINUOUS
 62
   252
100
AcDbText
 10
246.358592505185
 20
28.427377675439
 30
0.0
 40
2.0
  1
検図
 41
1.209677419355
  7
EXCADSTD
 72
     5
 11
251.358592505185
 21
28.427377675439
 31
0.0
100
AcDbText
  0
TEXT
  5
72
330
65
100
AcDbEntity
  8
図枠細線
  6
CONTINUOUS
 62
   252
100
AcDbText
 10
232.358592505185
 20
25.927377675439
 30
0.0
 40
2.0
  1
ＡＰＰＲＯＶＥＤ
 41
0.695652184279
  7
EXCADSTD
 72
     5
 11
245.15859269592
 21
25.927377675439
 31
0.0
100
AcDbText
  0
TEXT
  5
73
330
65
100
AcDbEntity
  8
図枠細線
  6
CONTINUOUS
 62
   252
100
AcDbText
 10
232.358592505185
 20
28.427377675439
 30
0.0
 40
2.0
  1
承認
 41
1.171875
  7
EXCADSTD
 72
     5
 11
237.358592505185
 21
28.427377675439
 31
0.0
100
AcDbText
  0
TEXT
  5
74
330
65
100
AcDbEntity
  8
図枠細線
  6
CONTINUOUS
 62
   252
100
AcDbText
 10
290.069888505185
 20
2.574868675439
 30
0.0
 40
3.5
  1
ＴＯＷＡ　ＳＥＩＤＥＮ　ＩＮＤＵＳＴＲＩＡＬ　ＣＯ．，ＬＴＤ．
 41
0.414568012377
  7
EXCADSTD
 72
     5
 11
342.692388209546
 21
2.574868675439
 31
0.0
100
AcDbText
  0
TEXT
  5
75
330
65
100
AcDbEntity
  8
図枠ロゴマーク
  6
CONTINUOUS
 62
   253
100
AcDbText
 10
290.107348505185
 20
7.519769675439
 30
0.0
 40
7.0
  1
東和制電工業株式会社
 41
0.639204545455
  7
EXCADSTD
 72
     5
 11
342.607348505185
 21
7.519769675439
 31
0.0
100
AcDbText
  0
TEXT
  5
76
330
65
100
AcDbEntity
  8
図枠細線
  6
CONTINUOUS
 62
   252
100
AcDbText
 10
232.499705505185
 20
5.759088675439
 30
0.0
 40
2.0
  1
ＰＲＯＪＥＣＴＩＯＮ
 41
0.754285710199
  7
EXCADSTD
 72
     5
 11
250.099705409817
 21
5.759088675439
 31
0.0
100
AcDbText
  0
TEXT
  5
77
330
65
100
AcDbEntity
  8
図枠細線
  6
CONTINUOUS
 62
   252
100
AcDbText
 10
232.574629505185
 20
8.681077675439
 30
0.0
 40
2.0
  1
ＴＨＩＲＤ　ＡＮＧＬＥ
 41
0.691099486738
  7
EXCADSTD
 72
     5
 11
250.174629767445
 21
8.681077675439
 31
0.0
100
AcDbText
  0
TEXT
  5
78
330
65
100
AcDbEntity
  8
図枠細線
  6
CONTINUOUS
 62
   252
100
AcDbText
 10
256.823999505185
 20
13.427377675439
 30
0.0
 40
2.0
  1
ＳＣＡＬＥ
 41
0.903614457831
  7
EXCADSTD
 72
     5
 11
266.823999505185
 21
13.427377675439
 31
0.0
100
AcDbText
  0
TEXT
  5
79
330
65
100
AcDbEntity
  8
図枠細線
  6
CONTINUOUS
 62
   252
100
AcDbText
 10
274.858592505185
 20
13.427377675439
 30
0.0
 40
2.0
  1
ＤＡＴＥ
 41
0.923076923077
  7
EXCADSTD
 72
     5
 11
282.858592505185
 21
13.427377675439
 31
0.0
100
AcDbText
  0
TEXT
  5
7A
330
65
100
AcDbEntity
  8
図枠細線
  6
CONTINUOUS
 62
   252
100
AcDbText
 10
356.358592505185
 20
13.427377675439
 30
0.0
 40
2.0
  1
ＤＲＧ．ＮＯ．
 41
0.9375
  7
EXCADSTD
 72
     5
 11
370.358592505185
 21
13.427377675439
 31
0.0
100
AcDbText
  0
TEXT
  5
7B
330
65
100
AcDbEntity
  8
図枠細線
  6
CONTINUOUS
 62
   252
100
AcDbText
 10
345.358592505185
 20
13.427377675439
 30
0.0
 40
2.0
  1
図面番号
 41
1.102941176471
  7
EXCADSTD
 72
     5
 11
355.358592505185
 21
13.427377675439
 31
0.0
100
AcDbText
  0
TEXT
  5
7C
330
65
100
AcDbEntity
  8
図枠細線
  6
CONTINUOUS
 62
   252
100
AcDbText
 10
269.358592505185
 20
13.427377675439
 30
0.0
 40
2.0
  1
日付
 41
1.171875
  7
EXCADSTD
 72
     5
 11
274.358592505185
 21
13.427377675439
 31
0.0
100
AcDbText
  0
TEXT
  5
7D
330
65
100
AcDbEntity
  8
図枠細線
  6
CONTINUOUS
 62
   252
100
AcDbText
 10
251.451512505185
 20
13.427377675439
 30
0.0
 40
2.0
  1
尺度
 41
1.171875
  7
EXCADSTD
 72
     5
 11
256.451512505185
 21
13.427377675439
 31
0.0
100
AcDbText
  0
TEXT
  5
7E
330
65
100
AcDbEntity
  8
図枠細線
  6
CONTINUOUS
 62
   252
100
AcDbText
 10
232.358592505185
 20
13.427377675439
 30
0.0
 40
2.0
  1
第三角法
 41
1.102941176471
  7
EXCADSTD
 72
     5
 11
242.358592505185
 21
13.427377675439
 31
0.0
100
AcDbText
  0
TEXT
  5
7F
330
65
100
AcDbEntity
  8
図枠細線
  6
CONTINUOUS
 62
   252
100
AcDbText
 10
212.358592505185
 20
28.427377675439
 30
0.0
 40
2.0
  1
ＮＯＴＥ
 41
0.923076923077
  7
EXCADSTD
 72
     5
 11
220.358592505185
 21
28.427377675439
 31
0.0
100
AcDbText
  0
LINE
  5
80
330
65
100
AcDbEntity
  8
図枠細線
  6
CONTINUOUS
 62
   252
100
AcDbLine
 10
287.858592505185
 20
23.427375675439
 30
0.0
 11
344.858592505185
 21
23.427375675439
 31
0.0
  0
LINE
  5
81
330
65
100
AcDbEntity
  8
図枠太線
  6
CONTINUOUS
 62
   251
100
AcDbLine
 10
287.858584505185
 20
15.927375675439
 30
0.0
 11
344.858592505185
 21
15.927375675439
 31
0.0
  0
LINE
  5
82
330
65
100
AcDbEntity
  8
図枠細線
  6
CONTINUOUS
 62
   252
100
AcDbLine
 10
344.858592505185
 20
15.927375675439
 30
0.0
 11
401.858584505185
 21
15.927375675439
 31
0.0
  0
LINE
  5
83
330
65
100
AcDbEntity
  8
図枠太線
  6
CONTINUOUS
 62
   251
100
AcDbLine
 10
344.858592505185
 20
0.927377675439
 30
0.0
 11
344.858592505185
 21
30.927375675439
 31
0.0
  0
LINE
  5
84
330
65
100
AcDbEntity
  8
図枠太線
  6
CONTINUOUS
 62
   251
100
AcDbLine
 10
287.858592505185
 20
0.927377675439
 30
0.0
 11
287.858592505185
 21
30.927375675439
 31
0.0
  0
LINE
  5
85
330
65
100
AcDbEntity
  8
図枠細線
  6
CONTINUOUS
 62
   252
100
AcDbLine
 10
268.858592505185
 20
0.927377675439
 30
0.0
 11
268.858592505185
 21
15.927375675439
 31
0.0
  0
LINE
  5
86
330
65
100
AcDbEntity
  8
図枠細線
  6
CONTINUOUS
 62
   252
100
AcDbLine
 10
250.858592505185
 20
0.927377675439
 30
0.0
 11
250.858592505185
 21
15.927375675439
 31
0.0
  0
LINE
  5
87
330
65
100
AcDbEntity
  8
図枠細線
  6
CONTINUOUS
 62
   252
100
AcDbLine
 10
273.858592505185
 20
30.927375675439
 30
0.0
 11
273.858592505185
 21
15.927375675439
 31
0.0
  0
LINE
  5
88
330
65
100
AcDbEntity
  8
図枠細線
  6
CONTINUOUS
 62
   252
100
AcDbLine
 10
259.858592505185
 20
30.927375675439
 30
0.0
 11
259.858592505185
 21
15.927375675439
 31
0.0
  0
LINE
  5
89
330
65
100
AcDbEntity
  8
図枠細線
  6
CONTINUOUS
 62
   252
100
AcDbLine
 10
245.858592505185
 20
30.927375675439
 30
0.0
 11
245.858592505185
 21
15.927375675439
 31
0.0
  0
LINE
  5
8A
330
65
100
AcDbEntity
  8
図枠太線
  6
CONTINUOUS
 62
   251
100
AcDbLine
 10
231.858592505185
 20
0.927377675439
 30
0.0
 11
231.858592505185
 21
30.927375675439
 31
0.0
  0
LINE
  5
8B
330
65
100
AcDbEntity
  8
図枠細線
  6
CONTINUOUS
 62
   252
100
AcDbLine
 10
211.858592505185
 20
25.927375675439
 30
0.0
 11
231.858592505185
 21
25.927375675439
 31
0.0
  0
LINE
  5
8C
330
65
100
AcDbEntity
  8
図枠細線
  6
CONTINUOUS
 62
   252
100
AcDbLine
 10
211.858592505185
 20
20.927375675439
 30
0.0
 11
231.858592505185
 21
20.927375675439
 31
0.0
  0
LINE
  5
8D
330
65
100
AcDbEntity
  8
図枠細線
  6
CONTINUOUS
 62
   252
100
AcDbLine
 10
211.858592505185
 20
10.927375675439
 30
0.0
 11
231.858592505185
 21
10.927375675439
 31
0.0
  0
LINE
  5
8E
330
65
100
AcDbEntity
  8
図枠細線
  6
CONTINUOUS
 62
   252
100
AcDbLine
 10
211.858592505185
 20
5.927377675439
 30
0.0
 11
231.858592505185
 21
5.927377675439
 31
0.0
  0
LINE
  5
8F
330
65
100
AcDbEntity
  8
図枠太線
  6
CONTINUOUS
 62
   251
100
AcDbLine
 10
211.858592505185
 20
30.927375675439
 30
0.0
 11
401.858584505185
 21
30.927375675439
 31
0.0
  0
LINE
  5
90
330
65
100
AcDbEntity
  8
図枠太線
  6
CONTINUOUS
 62
   251
100
AcDbLine
 10
1.858584505185
 20
275.927375675439
 30
0.0
 11
401.858584505185
 21
275.927375675439
 31
0.0
  0
LINE
  5
91
330
65
100
AcDbEntity
  8
図枠太線
  6
CONTINUOUS
 62
   251
100
AcDbLine
 10
401.858584505185
 20
0.927375675439
 30
0.0
 11
401.858584505185
 21
275.927375675439
 31
0.0
  0
LINE
  5
92
330
65
100
AcDbEntity
  8
図枠太線
  6
CONTINUOUS
 62
   251
100
AcDbLine
 10
1.858584505185
 20
0.927375675439
 30
0.0
 11
401.858584505185
 21
0.927375675439
 31
0.0
  0
ENDBLK
  5
94
330
65
100
AcDbEntity
  8
0
100
AcDbBlockEnd
  0
BLOCK
  5
29C0
330
29BF
100
AcDbEntity
  8
0
100
AcDbBlockBegin
  2
A4横用_タイトル
 70
     0
 10
0.0
 20
0.0
 30
0.0
  3
A4横用_タイトル
  1

  0
LINE
  5
29C1
330
29BF
100
AcDbEntity
  8
図枠細線
  6
CONTINUOUS
100
AcDbLine
 10
75.061011071051
 20
16.806607253358
 30
0.0
 11
144.061011071051
 21
16.806604789072
 31
0.0
  0
LINE
  5
29C2
330
29BF
100
AcDbEntity
  8
図枠細線
  6
CONTINUOUS
 62
   252
100
AcDbLine
 10
4.061011071051
 20
11.806606253358
 30
0.0
 11
75.061011071051
 21
11.806606253358
 31
0.0
  0
LINE
  5
29C3
330
29BF
100
AcDbEntity
  8
図枠細線
  6
CONTINUOUS
 62
   252
100
AcDbLine
 10
4.061011071051
 20
21.806606253358
 30
0.0
 11
75.061011071051
 21
21.806606253358
 31
0.0
  0
LINE
  5
29C4
330
29BF
100
AcDbEntity
  8
図枠細線
  6
CONTINUOUS
 62
   252
100
AcDbLine
 10
4.061011071051
 20
26.806606253358
 30
0.0
 11
75.061011071051
 21
26.806606253358
 31
0.0
  0
LINE
  5
29C5
330
29BF
100
AcDbEntity
  8
図枠細線
  6
CONTINUOUS
100
AcDbLine
 10
4.061011071051
 20
16.806608253358
 30
0.0
 11
75.061011071051
 21
16.806608253358
 31
0.0
  0
TEXT
  5
29C6
330
29BF
100
AcDbEntity
  8
図枠細線
  6
CONTINUOUS
 62
   252
100
AcDbText
 10
76.405475827713
 20
9.560308253358
 30
0.0
 40
2.0
  1
ＴＨＩＲＤ　ＡＮＧＬＥ
 41
0.691099486738
  7
EXCADSTD
 72
     5
 11
94.005476089973
 21
9.560308253358
 31
0.0
100
AcDbText
  0
TEXT
  5
29C7
330
29BF
100
AcDbEntity
  8
図枠細線
  6
CONTINUOUS
 62
   252
100
AcDbText
 10
76.705775880921
 20
14.306608253358
 30
0.0
 40
2.0
  1
第三角法
 41
1.102941176471
  7
EXCADSTD
 72
     5
 11
86.705775880921
 21
14.306608253358
 31
0.0
100
AcDbText
  0
TEXT
  5
29C8
330
29BF
100
AcDbEntity
  8
図枠細線
  6
CONTINUOUS
 62
   252
100
AcDbText
 10
76.705775880921
 20
26.806608253358
 30
0.0
 40
2.0
  1
ＡＰＰＲＯＶＥＤ
 41
0.695652184279
  7
EXCADSTD
 72
     5
 11
89.505776071656
 21
26.806608253358
 31
0.0
100
AcDbText
  0
TEXT
  5
29C9
330
29BF
100
AcDbEntity
  8
図枠細線
  6
CONTINUOUS
 62
   252
100
AcDbText
 10
76.705775880921
 20
29.306608253358
 30
0.0
 40
2.0
  1
承認
 41
1.171875
  7
EXCADSTD
 72
     5
 11
81.705775880921
 21
29.306608253358
 31
0.0
100
AcDbText
  0
LINE
  5
29CA
330
29BF
100
AcDbEntity
  8
図枠細線
  6
CONTINUOUS
 62
   252
100
AcDbLine
 10
98.061011071051
 20
31.806606253358
 30
0.0
 11
98.061011071051
 21
16.806606253358
 31
0.0
  0
TEXT
  5
29CB
330
29BF
100
AcDbEntity
  8
図枠細線
  6
CONTINUOUS
 62
   252
100
AcDbText
 10
104.216531119804
 20
14.306608253358
 30
0.0
 40
2.0
  1
ＳＣＡＬＥ
 41
0.903614457831
  7
EXCADSTD
 72
     5
 11
114.216531119804
 21
14.306608253358
 31
0.0
100
AcDbText
  0
TEXT
  5
29CC
330
29BF
100
AcDbEntity
  8
図枠細線
  6
CONTINUOUS
 62
   252
100
AcDbText
 10
98.844044119804
 20
14.306608253358
 30
0.0
 40
2.0
  1
尺度
 41
1.171875
  7
EXCADSTD
 72
     5
 11
103.844044119804
 21
14.306608253358
 31
0.0
100
AcDbText
  0
TEXT
  5
29CD
330
29BF
100
AcDbEntity
  8
図枠細線
  6
CONTINUOUS
 62
   252
100
AcDbText
 10
98.968727707497
 20
26.806608253358
 30
0.0
 40
2.0
  1
ＣＨＥＣＫＥＤ
 41
0.831249989569
  7
EXCADSTD
 72
     5
 11
112.268727540604
 21
26.806608253358
 31
0.0
100
AcDbText
  0
TEXT
  5
29CE
330
29BF
100
AcDbEntity
  8
図枠細線
  6
CONTINUOUS
 62
   252
100
AcDbText
 10
98.968727707497
 20
29.306608253358
 30
0.0
 40
2.0
  1
検図
 41
1.209677419355
  7
EXCADSTD
 72
     5
 11
103.968727707497
 21
29.306608253358
 31
0.0
100
AcDbText
  0
LINE
  5
29CF
330
29BF
100
AcDbEntity
  8
図枠細線
  6
CONTINUOUS
 62
   252
100
AcDbLine
 10
121.061011071051
 20
31.806606253358
 30
0.0
 11
121.061011071051
 21
16.806606253358
 31
0.0
  0
TEXT
  5
29D0
330
29BF
100
AcDbEntity
  8
図枠細線
  6
CONTINUOUS
 62
   252
100
AcDbText
 10
128.001465247253
 20
14.306608253358
 30
0.0
 40
2.0
  1
ＤＡＴＥ
 41
0.923076923077
  7
EXCADSTD
 72
     5
 11
136.001465247253
 21
14.306608253358
 31
0.0
100
AcDbText
  0
TEXT
  5
29D1
330
29BF
100
AcDbEntity
  8
図枠細線
  6
CONTINUOUS
 62
   252
100
AcDbText
 10
122.066415498841
 20
14.306608253358
 30
0.0
 40
2.0
  1
日付
 41
1.171875
  7
EXCADSTD
 72
     5
 11
127.066415498841
 21
14.306608253358
 31
0.0
100
AcDbText
  0
TEXT
  5
29D2
330
29BF
100
AcDbEntity
  8
図枠細線
  6
CONTINUOUS
 62
   252
100
AcDbText
 10
121.59429406571
 20
29.306608253358
 30
0.0
 40
2.0
  1
製図
 41
1.209677419355
  7
EXCADSTD
 72
     5
 11
126.59429406571
 21
29.306608253358
 31
0.0
100
AcDbText
  0
TEXT
  5
29D3
330
29BF
100
AcDbEntity
  8
図枠細線
  6
CONTINUOUS
 62
   252
100
AcDbText
 10
121.59429406571
 20
26.806608253358
 30
0.0
 40
2.0
  1
ＤＲＡＷＮ
 41
0.882352941176
  7
EXCADSTD
 72
     5
 11
131.59429406571
 21
26.806608253358
 31
0.0
100
AcDbText
  0
TEXT
  5
29D4
330
29BF
100
AcDbEntity
  8
図枠細線
  6
CONTINUOUS
 62
   252
100
AcDbText
 10
226.591229661348
 20
14.306608253358
 30
0.0
 40
2.0
  1
ＤＲＧ．ＮＯ．
 41
0.9375
  7
EXCADSTD
 72
     5
 11
240.591229661348
 21
14.306608253358
 31
0.0
100
AcDbText
  0
LINE
  5
29D5
330
29BF
100
AcDbEntity
  8
図枠太線
  6
CONTINUOUS
 62
   251
100
AcDbLine
 10
144.061003071051
 20
16.806606253358
 30
0.0
 11
214.061011071051
 21
16.806606253358
 31
0.0
  0
LINE
  5
29D6
330
29BF
100
AcDbEntity
  8
図枠細線
  6
CONTINUOUS
 62
   252
100
AcDbLine
 10
144.061011071051
 20
24.306606253358
 30
0.0
 11
214.061011071051
 21
24.306606253358
 31
0.0
  0
TEXT
  5
29D7
330
29BF
100
AcDbEntity
  8
図枠ロゴマーク
  6
CONTINUOUS
 62
   253
100
AcDbText
 10
146.433776781596
 20
8.399000253358
 30
0.0
 40
7.0
  1
東和制電工業株式会社
 41
0.80361088462
  7
EXCADSTD
 72
     5
 11
212.437017438349
 21
8.399000253358
 31
0.0
100
AcDbText
  0
TEXT
  5
29D8
330
29BF
100
AcDbEntity
  8
図枠細線
  6
CONTINUOUS
 62
   252
100
AcDbText
 10
215.156179912936
 20
14.306608253358
 30
0.0
 40
2.0
  1
図面番号
 41
1.102941176471
  7
EXCADSTD
 72
     5
 11
225.156179912936
 21
14.306608253358
 31
0.0
100
AcDbText
  0
TEXT
  5
29D9
330
29BF
100
AcDbEntity
  8
図枠細線
  6
CONTINUOUS
 62
   252
100
AcDbText
 10
221.591229661348
 20
29.306608253358
 30
0.0
 40
2.0
  1
ＴＩＴＬＥ
 41
0.903614457831
  7
EXCADSTD
 72
     5
 11
231.591229661348
 21
29.306608253358
 31
0.0
100
AcDbText
  0
TEXT
  5
29DA
330
29BF
100
AcDbEntity
  8
図枠細線
  6
CONTINUOUS
 62
   252
100
AcDbText
 10
215.156179912936
 20
29.306608253358
 30
0.0
 40
2.0
  1
名称
 41
1.171875
  7
EXCADSTD
 72
     5
 11
220.156179912936
 21
29.306608253358
 31
0.0
100
AcDbText
  0
LINE
  5
29DB
330
29BF
100
AcDbEntity
  8
図枠太線
  6
CONTINUOUS
 62
   251
100
AcDbLine
 10
4.061011071051
 20
1.806608253358
 30
0.0
 11
284.061011071051
 21
1.806608253358
 31
0.0
  0
LINE
  5
29DC
330
29BF
100
AcDbEntity
  8
図枠細線
  6
CONTINUOUS
 62
   252
100
AcDbLine
 10
4.061011071051
 20
6.806608253358
 30
0.0
 11
75.061011071051
 21
6.806608253358
 31
0.0
  0
LINE
  5
29DD
330
29BF
100
AcDbEntity
  8
図枠太線
  6
CONTINUOUS
 62
   251
100
AcDbLine
 10
75.061011071051
 20
1.806608253358
 30
0.0
 11
75.061011071051
 21
31.806606253358
 31
0.0
  0
TEXT
  5
29DE
330
29BF
100
AcDbEntity
  8
図枠細線
  6
CONTINUOUS
 62
   252
100
AcDbText
 10
76.330551827713
 20
6.638319253358
 30
0.0
 40
2.0
  1
ＰＲＯＪＥＣＴＩＯＮ
 41
0.754285710199
  7
EXCADSTD
 72
     5
 11
93.930551732346
 21
6.638319253358
 31
0.0
100
AcDbText
  0
LINE
  5
29DF
330
29BF
100
AcDbEntity
  8
図枠細線
  6
CONTINUOUS
 62
   252
100
AcDbLine
 10
98.061011071051
 20
1.806606931929
 30
0.0
 11
98.061011071051
 21
16.806604931929
 31
0.0
  0
LINE
  5
29E0
330
29BF
100
AcDbEntity
  8
図枠細線
  6
CONTINUOUS
 62
   252
100
AcDbLine
 10
121.061011071051
 20
1.806607574787
 30
0.0
 11
121.061011071051
 21
16.806605574787
 31
0.0
  0
LINE
  5
29E1
330
29BF
100
AcDbEntity
  8
図枠太線
  6
CONTINUOUS
 62
   251
100
AcDbLine
 10
284.061011071051
 20
1.806608253358
 30
0.0
 11
284.061011071051
 21
31.806606253358
 31
0.0
  0
LINE
  5
29E2
330
29BF
100
AcDbEntity
  8
図枠細線
  6
CONTINUOUS
 62
   252
100
AcDbLine
 10
214.061011071051
 20
16.806606253358
 30
0.0
 11
284.061011071051
 21
16.806606253358
 31
0.0
  0
TEXT
  5
29E3
330
29BF
100
AcDbEntity
  8
図枠細線
  6
CONTINUOUS
 62
   252
100
AcDbText
 10
146.199593676182
 20
3.454099253358
 30
0.0
 40
3.5
  1
ＴＯＷＡ　ＳＥＩＤＥＮ　ＩＮＤＵＳＴＲＩＡＬ　ＣＯ．，ＬＴＤ．
 41
0.528937826907
  7
EXCADSTD
 72
     5
 11
213.339435171588
 21
3.454099253358
 31
0.0
100
AcDbText
  0
LINE
  5
29E4
330
29BF
100
AcDbEntity
  8
図枠太線
  6
CONTINUOUS
 62
   251
100
AcDbLine
 10
144.061011071051
 20
1.806608253358
 30
0.0
 11
144.061011071051
 21
31.806606253358
 31
0.0
  0
LINE
  5
29E5
330
29BF
100
AcDbEntity
  8
図枠太線
  6
CONTINUOUS
 62
   251
100
AcDbLine
 10
214.061011071051
 20
1.806608253358
 30
0.0
 11
214.061011071051
 21
31.806606253358
 31
0.0
  0
MTEXT
  5
29E6
330
29BF
100
AcDbEntity
  8
図枠太線
100
AcDbMText
 10
5.064337346478
 20
31.010982137407
 30
0.0
 40
2.5
 41
8.67856098472
 71
     1
 72
     5
  1
{\Fmonotxt.shx,bigfont.shx|c128;図暦}
  0
LINE
  5
29E7
330
29BF
100
AcDbEntity
  8
図枠太線
  6
CONTINUOUS
 62
   251
100
AcDbLine
 10
4.061011071051
 20
1.806608253358
 30
0.0
 11
4.061011071051
 21
31.806606253358
 31
0.0
  0
TEXT
  5
29E8
330
29BF
100
AcDbEntity
  8
図枠細線
 48
10.0
100
AcDbText
 10
12.260817420402
 20
28.625419626495
 30
0.0
 40
2.0
  1
CHANGE NOTICE
100
AcDbText
  0
ENDBLK
  5
29E9
330
29BF
100
AcDbEntity
  8
0
100
AcDbBlockEnd
  0
BLOCK
  5
29F5
330
29F4
100
AcDbEntity
  8
0
100
AcDbBlockBegin
  2
A4縦用_タイトル
 70
     0
 10
0.0
 20
0.0
 30
0.0
  3
A4縦用_タイトル
  1

  0
LINE
  5
29F6
330
29F4
100
AcDbEntity
  8
図枠太線
  6
CONTINUOUS
 62
   251
100
AcDbLine
 10
2.368253864267
 20
4.525433224584
 30
0.0
 11
192.368245864267
 21
4.525433224584
 31
0.0
  0
LINE
  5
29F7
330
29F4
100
AcDbEntity
  8
図枠太線
  6
CONTINUOUS
 62
   251
100
AcDbLine
 10
78.368245864267
 20
19.525431224584
 30
0.0
 11
135.368253864267
 21
19.525431224584
 31
0.0
  0
LINE
  5
29F8
330
29F4
100
AcDbEntity
  8
図枠細線
  6
CONTINUOUS
 62
   252
100
AcDbLine
 10
78.368253864267
 20
27.025431224584
 30
0.0
 11
135.368253864267
 21
27.025431224584
 31
0.0
  0
TEXT
  5
29F9
330
29F4
100
AcDbEntity
  8
図枠ロゴマーク
  6
CONTINUOUS
 62
   253
100
AcDbText
 10
80.617009864267
 20
11.117825224584
 30
0.0
 40
7.0
  1
東和制電工業株式会社
 41
0.639204545455
  7
EXCADSTD
 72
     5
 11
133.117009864267
 21
11.117825224584
 31
0.0
100
AcDbText
  0
TEXT
  5
29FA
330
29F4
100
AcDbEntity
  8
図枠細線
  6
CONTINUOUS
 62
   252
100
AcDbText
 10
80.579549864267
 20
6.172924224584
 30
0.0
 40
3.5
  1
ＴＯＷＡ　ＳＥＩＤＥＮ　ＩＮＤＵＳＴＲＩＡＬ　ＣＯ．，ＬＴＤ．
 41
0.414568012377
  7
EXCADSTD
 72
     5
 11
133.202049568628
 21
6.172924224584
 31
0.0
100
AcDbText
  0
LINE
  5
29FB
330
29F4
100
AcDbEntity
  8
図枠太線
  6
CONTINUOUS
 62
   251
100
AcDbLine
 10
2.368253864267
 20
4.525433224584
 30
0.0
 11
2.368253864267
 21
34.525431224584
 31
0.0
  0
TEXT
  5
29FC
330
29F4
100
AcDbEntity
  8
図枠細線
  6
CONTINUOUS
 62
   252
100
AcDbText
 10
22.504308136501
 20
12.279133224584
 30
0.0
 40
2.0
  1
ＴＨＩＲＤ　ＡＮＧＬＥ
 41
0.691099486738
  7
EXCADSTD
 72
     5
 11
40.104308398762
 21
12.279133224584
 31
0.0
100
AcDbText
  0
TEXT
  5
29FD
330
29F4
100
AcDbEntity
  8
図枠細線
  6
CONTINUOUS
 62
   252
100
AcDbText
 10
22.429384136501
 20
9.357144224584
 30
0.0
 40
2.0
  1
ＰＲＯＪＥＣＴＩＯＮ
 41
0.754285710199
  7
EXCADSTD
 72
     5
 11
40.029384041134
 21
9.357144224584
 31
0.0
100
AcDbText
  0
LINE
  5
29FE
330
29F4
100
AcDbEntity
  8
図枠細線
  6
CONTINUOUS
100
AcDbLine
 10
22.368253864267
 20
19.525433224584
 30
0.0
 11
78.368253864267
 21
19.525431224584
 31
0.0
  0
TEXT
  5
29FF
330
29F4
100
AcDbEntity
  8
図枠細線
  6
CONTINUOUS
 62
   252
100
AcDbText
 10
22.868253864267
 20
17.025433224584
 30
0.0
 40
2.0
  1
第三角法
 41
1.102941176471
  7
EXCADSTD
 72
     5
 11
32.868253864267
 21
17.025433224584
 31
0.0
100
AcDbText
  0
TEXT
  5
2A00
330
29F4
100
AcDbEntity
  8
図枠細線
  6
CONTINUOUS
 62
   252
100
AcDbText
 10
22.868253864267
 20
29.525433224584
 30
0.0
 40
2.0
  1
ＡＰＰＲＯＶＥＤ
 41
0.695652184279
  7
EXCADSTD
 72
     5
 11
35.668254055002
 21
29.525433224584
 31
0.0
100
AcDbText
  0
LINE
  5
2A01
330
29F4
100
AcDbEntity
  8
図枠細線
  6
CONTINUOUS
 62
   252
100
AcDbLine
 10
2.368253864267
 20
9.525433224584
 30
0.0
 11
22.368253864267
 21
9.525433224584
 31
0.0
  0
LINE
  5
2A02
330
29F4
100
AcDbEntity
  8
図枠細線
  6
CONTINUOUS
 62
   252
100
AcDbLine
 10
2.368253864267
 20
14.525431224584
 30
0.0
 11
22.368253864267
 21
14.525431224584
 31
0.0
  0
LINE
  5
2A03
330
29F4
100
AcDbEntity
  8
図枠細線
  6
CONTINUOUS
 62
   252
100
AcDbLine
 10
2.368253864267
 20
24.525431224584
 30
0.0
 11
22.368253864267
 21
24.525431224584
 31
0.0
  0
LINE
  5
2A04
330
29F4
100
AcDbEntity
  8
図枠細線
  6
CONTINUOUS
 62
   252
100
AcDbLine
 10
2.368253864267
 20
29.525431224584
 30
0.0
 11
22.368253864267
 21
29.525431224584
 31
0.0
  0
LINE
  5
2A05
330
29F4
100
AcDbEntity
  8
図枠細線
  6
CONTINUOUS
100
AcDbLine
 10
2.368253864267
 20
19.525433224584
 30
0.0
 11
22.368253864267
 21
19.525433224584
 31
0.0
  0
TEXT
  5
2A06
330
29F4
100
AcDbEntity
  8
図枠細線
  6
CONTINUOUS
 62
   252
100
AcDbText
 10
2.868253864267
 20
32.025433224584
 30
0.0
 40
2.0
  1
ＮＯＴＥ
 41
0.923076923077
  7
EXCADSTD
 72
     5
 11
10.868253864267
 21
32.025433224584
 31
0.0
100
AcDbText
  0
LINE
  5
2A07
330
29F4
100
AcDbEntity
  8
図枠太線
  6
CONTINUOUS
 62
   251
100
AcDbLine
 10
22.368253864267
 20
4.525433224584
 30
0.0
 11
22.368253864267
 21
34.525431224584
 31
0.0
  0
TEXT
  5
2A08
330
29F4
100
AcDbEntity
  8
図枠細線
  6
CONTINUOUS
 62
   252
100
AcDbText
 10
22.868253864267
 20
32.025433224584
 30
0.0
 40
2.0
  1
承認
 41
1.171875
  7
EXCADSTD
 72
     5
 11
27.868253864267
 21
32.025433224584
 31
0.0
100
AcDbText
  0
TEXT
  5
2A09
330
29F4
100
AcDbEntity
  8
図枠細線
  6
CONTINUOUS
 62
   252
100
AcDbText
 10
60.711709035982
 20
32.025433224584
 30
0.0
 40
2.0
  1
製図
 41
1.209677419355
  7
EXCADSTD
 72
     5
 11
65.711709035982
 21
32.025433224584
 31
0.0
100
AcDbText
  0
TEXT
  5
2A0A
330
29F4
100
AcDbEntity
  8
図枠細線
  6
CONTINUOUS
 62
   252
100
AcDbText
 10
60.711709035982
 20
29.525433224584
 30
0.0
 40
2.0
  1
ＤＲＡＷＮ
 41
0.882352941176
  7
EXCADSTD
 72
     5
 11
70.711709035982
 21
29.525433224584
 31
0.0
100
AcDbText
  0
TEXT
  5
2A0B
330
29F4
100
AcDbEntity
  8
図枠細線
  6
CONTINUOUS
 62
   252
100
AcDbText
 10
60.834891743877
 20
17.025433224584
 30
0.0
 40
2.0
  1
日付
 41
1.171875
  7
EXCADSTD
 72
     5
 11
65.834891743877
 21
17.025433224584
 31
0.0
100
AcDbText
  0
TEXT
  5
2A0C
330
29F4
100
AcDbEntity
  8
図枠細線
  6
CONTINUOUS
 62
   252
100
AcDbText
 10
47.333660864267
 20
17.025433224584
 30
0.0
 40
2.0
  1
ＳＣＡＬＥ
 41
0.903614457831
  7
EXCADSTD
 72
     5
 11
57.333660864267
 21
17.025433224584
 31
0.0
100
AcDbText
  0
TEXT
  5
2A0D
330
29F4
100
AcDbEntity
  8
図枠細線
  6
CONTINUOUS
 62
   252
100
AcDbText
 10
42.281425990082
 20
29.525433224584
 30
0.0
 40
2.0
  1
ＣＨＥＣＫＥＤ
 41
0.831249989569
  7
EXCADSTD
 72
     5
 11
55.581425823189
 21
29.525433224584
 31
0.0
100
AcDbText
  0
LINE
  5
2A0E
330
29F4
100
AcDbEntity
  8
図枠細線
  6
CONTINUOUS
 62
   252
100
AcDbLine
 10
40.968253864267
 20
34.525431224584
 30
0.0
 11
40.968253864267
 21
19.525431224584
 31
0.0
  0
LINE
  5
2A0F
330
29F4
100
AcDbEntity
  8
図枠細線
  6
CONTINUOUS
 62
   252
100
AcDbLine
 10
40.968253864267
 20
4.525433224584
 30
0.0
 11
40.968253864267
 21
19.525431224584
 31
0.0
  0
TEXT
  5
2A10
330
29F4
100
AcDbEntity
  8
図枠細線
  6
CONTINUOUS
 62
   252
100
AcDbText
 10
41.961173864267
 20
17.025433224584
 30
0.0
 40
2.0
  1
尺度
 41
1.171875
  7
EXCADSTD
 72
     5
 11
46.961173864267
 21
17.025433224584
 31
0.0
100
AcDbText
  0
TEXT
  5
2A11
330
29F4
100
AcDbEntity
  8
図枠細線
  6
CONTINUOUS
 62
   252
100
AcDbText
 10
42.281425990082
 20
32.025433224584
 30
0.0
 40
2.0
  1
検図
 41
1.209677419355
  7
EXCADSTD
 72
     5
 11
47.281425990082
 21
32.025433224584
 31
0.0
100
AcDbText
  0
LINE
  5
2A12
330
29F4
100
AcDbEntity
  8
図枠細線
  6
CONTINUOUS
 62
   252
100
AcDbLine
 10
59.768253864267
 20
34.525431224584
 30
0.0
 11
59.768253864267
 21
19.525431224584
 31
0.0
  0
LINE
  5
2A13
330
29F4
100
AcDbEntity
  8
図枠細線
  6
CONTINUOUS
 62
   252
100
AcDbLine
 10
59.768253864267
 20
4.525433224584
 30
0.0
 11
59.768253864267
 21
19.525431224584
 31
0.0
  0
LINE
  5
2A14
330
29F4
100
AcDbEntity
  8
図枠太線
  6
CONTINUOUS
 62
   251
100
AcDbLine
 10
78.368253864267
 20
4.525433224584
 30
0.0
 11
78.368253864267
 21
34.525431224584
 31
0.0
  0
TEXT
  5
2A15
330
29F4
100
AcDbEntity
  8
図枠細線
  6
CONTINUOUS
 62
   252
100
AcDbText
 10
66.334891743877
 20
17.025433224584
 30
0.0
 40
2.0
  1
ＤＡＴＥ
 41
0.923076923077
  7
EXCADSTD
 72
     5
 11
74.334891743877
 21
17.025433224584
 31
0.0
100
AcDbText
  0
LINE
  5
2A16
330
29F4
100
AcDbEntity
  8
図枠細線
  6
CONTINUOUS
 62
   252
100
AcDbLine
 10
135.368253864267
 20
19.525431224584
 30
0.0
 11
192.368245864267
 21
19.525431224584
 31
0.0
  0
TEXT
  5
2A17
330
29F4
100
AcDbEntity
  8
図枠細線
  6
CONTINUOUS
 62
   252
100
AcDbText
 10
141.868253864267
 20
32.025433224584
 30
0.0
 40
2.0
  1
ＴＩＴＬＥ
 41
0.903614457831
  7
EXCADSTD
 72
     5
 11
151.868253864267
 21
32.025433224584
 31
0.0
100
AcDbText
  0
LINE
  5
2A18
330
29F4
100
AcDbEntity
  8
図枠太線
  6
CONTINUOUS
 62
   251
100
AcDbLine
 10
135.368253864267
 20
4.525433224584
 30
0.0
 11
135.368253864267
 21
34.525431224584
 31
0.0
  0
TEXT
  5
2A19
330
29F4
100
AcDbEntity
  8
図枠細線
  6
CONTINUOUS
 62
   252
100
AcDbText
 10
135.868253864267
 20
17.025433224584
 30
0.0
 40
2.0
  1
図面番号
 41
1.102941176471
  7
EXCADSTD
 72
     5
 11
145.868253864267
 21
17.025433224584
 31
0.0
100
AcDbText
  0
TEXT
  5
2A1A
330
29F4
100
AcDbEntity
  8
図枠細線
  6
CONTINUOUS
 62
   252
100
AcDbText
 10
135.868253864267
 20
32.025433224584
 30
0.0
 40
2.0
  1
名称
 41
1.171875
  7
EXCADSTD
 72
     5
 11
140.868253864267
 21
32.025433224584
 31
0.0
100
AcDbText
  0
TEXT
  5
2A1B
330
29F4
100
AcDbEntity
  8
図枠細線
  6
CONTINUOUS
 62
   252
100
AcDbText
 10
146.868253864267
 20
17.025433224584
 30
0.0
 40
2.0
  1
ＤＲＧ．ＮＯ．
 41
0.9375
  7
EXCADSTD
 72
     5
 11
160.868253864267
 21
17.025433224584
 31
0.0
100
AcDbText
  0
LINE
  5
2A1C
330
29F4
100
AcDbEntity
  8
図枠太線
  6
CONTINUOUS
 62
   251
100
AcDbLine
 10
192.368245864267
 20
4.525433224584
 30
0.0
 11
192.368245864267
 21
34.525431224584
 31
0.0
  0
ENDBLK
  5
2A1D
330
29F4
100
AcDbEntity
  8
0
100
AcDbBlockEnd
  0
BLOCK
  5
2A33
330
2A32
100
AcDbEntity
  8
0
100
AcDbBlockBegin
  2
A3横用_タイトル
 70
     0
 10
0.0
 20
0.0
 30
0.0
  3
A3横用_タイトル
  1

  0
LINE
  5
2A34
330
2A32
100
AcDbEntity
  8
図枠細線
  6
CONTINUOUS
 62
   252
100
AcDbLine
 10
205.098414535793
 20
33.525959753527
 30
0.0
 11
305.098414535793
 21
33.525959753527
 31
0.0
  0
LINE
  5
2A35
330
2A32
100
AcDbEntity
  8
図枠太線
  6
CONTINUOUS
 62
   251
100
AcDbLine
 10
205.098414535793
 20
23.525959753527
 30
0.0
 11
305.098414535793
 21
23.525959753527
 31
0.0
  0
LINE
  5
2A36
330
2A32
100
AcDbEntity
  8
図枠細線
  6
CONTINUOUS
100
AcDbLine
 10
5.098414535793
 20
23.525959753527
 30
0.0
 11
105.098414535793
 21
23.525959753527
 31
0.0
  0
LINE
  5
2A37
330
2A32
100
AcDbEntity
  8
図枠細線
  6
CONTINUOUS
 62
   252
100
AcDbLine
 10
5.098414535793
 20
36.725957753527
 30
0.0
 11
105.098414535793
 21
36.725957753527
 31
0.0
  0
LINE
  5
2A38
330
2A32
100
AcDbEntity
  8
図枠細線
  6
CONTINUOUS
 62
   252
100
AcDbLine
 10
5.098414535793
 20
30.125957753527
 30
0.0
 11
105.098414535793
 21
30.125957753527
 31
0.0
  0
LINE
  5
2A39
330
2A32
100
AcDbEntity
  8
図枠細線
  6
CONTINUOUS
 62
   252
100
AcDbLine
 10
5.098414535793
 20
16.725959753527
 30
0.0
 11
105.098414535793
 21
16.725959753527
 31
0.0
  0
LINE
  5
2A3A
330
2A32
100
AcDbEntity
  8
図枠細線
  6
CONTINUOUS
 62
   252
100
AcDbLine
 10
5.098414535793
 20
10.125959753527
 30
0.0
 11
105.098414535793
 21
10.125959753527
 31
0.0
  0
LINE
  5
2A3B
330
2A32
100
AcDbEntity
  8
図枠細線
  6
CONTINUOUS
100
AcDbLine
 10
105.098414535793
 20
23.525961753527
 30
0.0
 11
205.098414535793
 21
23.525959753527
 31
0.0
  0
LINE
  5
2A3C
330
2A32
100
AcDbEntity
  8
図枠細線
  6
CONTINUOUS
 62
   252
100
AcDbLine
 10
138.398414535793
 20
43.525959753527
 30
0.0
 11
138.398414535793
 21
18.525957753527
 31
0.0
  0
LINE
  5
2A3D
330
2A32
100
AcDbEntity
  8
図枠細線
  6
CONTINUOUS
 62
   252
100
AcDbLine
 10
171.698414535793
 20
43.525959753527
 30
0.0
 11
171.698414535793
 21
18.525957753527
 31
0.0
  0
LINE
  5
2A3E
330
2A32
100
AcDbEntity
  8
図枠細線
  6
CONTINUOUS
 62
   252
100
AcDbLine
 10
305.098414535793
 20
23.525959753527
 30
0.0
 11
405.098414535793
 21
23.525959753527
 31
0.0
  0
TEXT
  5
2A3F
330
2A32
100
AcDbEntity
  8
図枠ロゴマーク
  6
CONTINUOUS
 62
   253
100
AcDbText
 10
206.102509212755
 20
13.294257570546
 30
0.0
 40
7.0
  1
東和制電工業株式会社
 50
0.016555220185
 41
1.186384129432
  7
EXCADSTD
 72
     5
 11
303.544188309143
 21
13.322412672217
 31
0.0
100
AcDbText
  0
MTEXT
  5
2A40
330
2A32
100
AcDbEntity
  8
図枠細線
100
AcDbMText
 10
6.356764112375
 20
41.976594175478
 30
0.0
 40
2.5
 41
49.938282706292
 71
     1
 72
     5
  1
{\Fmonotxt.shx,bigfont.shx|c128;図暦　CHANGE　NOTICE}
  0
MTEXT
  5
2A41
330
2A32
100
AcDbEntity
  8
図枠細線
 48
10.0
100
AcDbMText
 10
306.544114926828
 20
41.701835800934
 30
0.0
 40
2.5
 41
28.002809618823
 71
     1
 72
     5
  1
{\Fmonotxt.shx,bigfont.shx|c128;名称　TITLE}
  0
MTEXT
  5
2A42
330
2A32
100
AcDbEntity
  8
図枠細線
 48
10.0
100
AcDbMText
 10
307.329617114284
 20
21.606206797226
 30
0.0
 40
2.5
 41
24.385612216707
 71
     1
 72
     5
  1
{\Fmonotxt.shx,bigfont.shx|c128;図面番号\PDRG.　No.}
  0
MTEXT
  5
2A43
330
2A32
100
AcDbEntity
  8
図枠細線
 48
10.0
100
AcDbMText
 10
173.726349404609
 20
21.73680662198
 30
0.0
 40
2.5
 41
25.735090160813
 71
     1
 72
     5
  1
{\Fmonotxt.shx,bigfont.shx|c128;日付 DATE}
  0
MTEXT
  5
2A44
330
2A32
100
AcDbEntity
  8
図枠細線
 48
10.0
100
AcDbMText
 10
173.48708833982
 20
41.621592044998
 30
0.0
 40
2.5
 41
24.983741184205
 71
     1
 72
     5
  1
{\Fmonotxt.shx,bigfont.shx|c128;製図　DRAWN}
  0
MTEXT
  5
2A45
330
2A32
100
AcDbEntity
  8
図枠細線
 48
10.0
100
AcDbMText
 10
139.28009927741
 20
21.866713069868
 30
0.0
 40
2.5
 41
22.629632913243
 71
     1
 72
     5
  1
{\Fmonotxt.shx,bigfont.shx|c128;尺度　SCALE}
  0
MTEXT
  5
2A46
330
2A32
100
AcDbEntity
  8
図枠細線
 48
10.0
100
AcDbMText
 10
139.910091179835
 20
41.311840415554
 30
0.0
 40
2.5
 41
28.998753428368
 71
     1
 72
     5
  1
{\Fmonotxt.shx,bigfont.shx|c128;検図  CHECKED}
  0
MTEXT
  5
2A47
330
2A32
100
AcDbEntity
  8
図枠細線
 48
10.0
100
AcDbMText
 10
114.253294667728
 20
21.916124850174
 30
0.0
 40
3.0
 41
19.692400475383
 71
     1
 72
     5
  1
{\Fmonotxt.shx,bigfont.shx|c128;第三角法}
  0
MTEXT
  5
2A48
330
2A32
100
AcDbEntity
  8
図枠細線
 48
10.0
100
AcDbMText
 10
108.986959929915
 20
15.282880185837
 30
0.0
 40
2.5
 41
27.954882823547
 71
     1
 72
     5
  1
{\Fmonotxt.shx,bigfont.shx|c128;THIRD ANGLE\PPROJECTION}
  0
MTEXT
  5
2A49
330
2A32
100
AcDbEntity
  8
図枠細線
 48
10.0
100
AcDbMText
 10
106.319432640184
 20
41.511437145487
 30
0.0
 40
2.5
 41
28.233595265074
 71
     1
 72
     5
  1
{\Fmonotxt.shx,bigfont.shx|c128;承認 APPROVED}
  0
LINE
  5
2A4A
330
2A32
100
AcDbEntity
  8
図枠太線
  6
CONTINUOUS
 62
   251
100
AcDbLine
 10
5.098414535793
 20
3.525959753527
 30
0.0
 11
405.098414535793
 21
3.525959753527
 31
0.0
  0
LINE
  5
2A4B
330
2A32
100
AcDbEntity
  8
図枠太線
 48
10.0
100
AcDbLine
 10
5.098414535793
 20
3.525959753527
 30
0.0
 11
5.098414535793
 21
43.525959753527
 31
0.0
  0
LINE
  5
2A4C
330
2A32
100
AcDbEntity
  8
図枠太線
  6
CONTINUOUS
 62
   251
100
AcDbLine
 10
105.098414535793
 20
3.525959753527
 30
0.0
 11
105.098414535793
 21
43.525959753527
 31
0.0
  0
LINE
  5
2A4D
330
2A32
100
AcDbEntity
  8
図枠細線
  6
CONTINUOUS
 62
   252
100
AcDbLine
 10
138.398414535793
 20
3.525959753527
 30
0.0
 11
138.398414535793
 21
18.525957753527
 31
0.0
  0
LINE
  5
2A4E
330
2A32
100
AcDbEntity
  8
図枠細線
  6
CONTINUOUS
 62
   252
100
AcDbLine
 10
171.698414535793
 20
3.525959753527
 30
0.0
 11
171.698414535793
 21
18.525957753527
 31
0.0
  0
LINE
  5
2A4F
330
2A32
100
AcDbEntity
  8
図枠太線
  6
CONTINUOUS
 62
   251
100
AcDbLine
 10
205.098414535793
 20
3.525959753527
 30
0.0
 11
205.098414535793
 21
43.525959753527
 31
0.0
  0
LINE
  5
2A50
330
2A32
100
AcDbEntity
  8
図枠太線
 48
10.0
100
AcDbLine
 10
405.098414535793
 20
43.525959753527
 30
0.0
 11
405.098414535793
 21
3.525959753527
 31
0.0
  0
TEXT
  5
2A51
330
2A32
100
AcDbEntity
  8
図枠細線
  6
CONTINUOUS
 62
   252
100
AcDbText
 10
208.519754474572
 20
6.482358407285
 30
0.0
 40
3.5
  1
ＴＯＷＡ　ＳＥＩＤＥＮ　ＩＮＤＵＳＴＲＩＡＬ　ＣＯ．，ＬＴＤ．
 41
0.746656297509
  7
EXCADSTD
 72
     5
 11
303.295327171727
 21
6.482358407285
 31
0.0
100
AcDbText
  0
LINE
  5
2A52
330
2A32
100
AcDbEntity
  8
図枠太線
  6
CONTINUOUS
 62
   251
100
AcDbLine
 10
305.098414535793
 20
3.525959753527
 30
0.0
 11
305.098414535793
 21
43.525959753527
 31
0.0
  0
ENDBLK
  5
2A53
330
2A32
100
AcDbEntity
  8
0
100
AcDbBlockEnd
  0
BLOCK
  5
2A6D
330
2A6C
100
AcDbEntity
  8
0
100
AcDbBlockBegin
  2
A3縦用_タイトル
 70
     0
 10
0.0
 20
0.0
 30
0.0
  3
A3縦用_タイトル
  1

  0
MTEXT
  5
2A6E
330
2A6C
100
AcDbEntity
  8
図枠細線
100
AcDbMText
 10
5.040804501593
 20
31.626098649005
 30
0.0
 40
2.5
 41
49.938282706292
 71
     1
 72
     5
  1
{\Fmonotxt.shx,bigfont.shx|c128;図暦　CHANGE　NOTICE}
  0
LINE
  5
2A6F
330
2A6C
100
AcDbEntity
  8
図枠太線
  6
CONTINUOUS
 62
   251
100
AcDbLine
 10
283.577871882961
 20
2.820844689254
 30
0.0
 11
283.577871882961
 21
32.820842689254
 31
0.0
  0
MTEXT
  5
2A70
330
2A6C
100
AcDbEntity
  8
図枠細線
 48
10.0
100
AcDbMText
 10
214.912458947454
 20
31.621488632308
 30
0.0
 40
2.5
 41
28.002809618823
 71
     1
 72
     5
  1
{\Fmonotxt.shx,bigfont.shx|c128;名称　TITLE}
  0
MTEXT
  5
2A71
330
2A6C
100
AcDbEntity
  8
図枠細線
 48
10.0
100
AcDbMText
 10
214.740030458938
 20
16.310225796722
 30
0.0
 40
2.5
 41
24.385612216707
 71
     1
 72
     5
  1
{\Fmonotxt.shx,bigfont.shx|c128;図面番号\PDRG.　No.}
  0
LINE
  5
2A72
330
2A6C
100
AcDbEntity
  8
図枠太線
  6
CONTINUOUS
 62
   251
100
AcDbLine
 10
213.577871882961
 20
2.820844689254
 30
0.0
 11
213.577871882961
 21
32.820842689254
 31
0.0
  0
LINE
  5
2A73
330
2A6C
100
AcDbEntity
  8
図枠太線
  6
CONTINUOUS
 62
   251
100
AcDbLine
 10
143.577871882961
 20
2.820844689254
 30
0.0
 11
143.577871882961
 21
32.820842689254
 31
0.0
  0
TEXT
  5
2A74
330
2A6C
100
AcDbEntity
  8
図枠細線
  6
CONTINUOUS
 62
   252
100
AcDbText
 10
145.716454488093
 20
4.468335689254
 30
0.0
 40
3.5
  1
ＴＯＷＡ　ＳＥＩＤＥＮ　ＩＮＤＵＳＴＲＩＡＬ　ＣＯ．，ＬＴＤ．
 41
0.528937826907
  7
EXCADSTD
 72
     5
 11
212.856295983498
 21
4.468335689254
 31
0.0
100
AcDbText
  0
TEXT
  5
2A75
330
2A6C
100
AcDbEntity
  8
図枠ロゴマーク
  6
CONTINUOUS
 62
   253
100
AcDbText
 10
145.950637593507
 20
9.413236689254
 30
0.0
 40
7.0
  1
東和制電工業株式会社
 41
0.80361088462
  7
EXCADSTD
 72
     5
 11
211.953878250259
 21
9.413236689254
 31
0.0
100
AcDbText
  0
LINE
  5
2A76
330
2A6C
100
AcDbEntity
  8
図枠細線
  6
CONTINUOUS
 62
   252
100
AcDbLine
 10
143.577871882961
 20
25.320842689254
 30
0.0
 11
213.577871882961
 21
25.320842689254
 31
0.0
  0
LINE
  5
2A77
330
2A6C
100
AcDbEntity
  8
図枠太線
  6
CONTINUOUS
 62
   251
100
AcDbLine
 10
143.577863882961
 20
17.820842689254
 30
0.0
 11
213.577871882961
 21
17.820842689254
 31
0.0
  0
LINE
  5
2A78
330
2A6C
100
AcDbEntity
  8
図枠細線
  6
CONTINUOUS
 62
   252
100
AcDbLine
 10
213.577871882961
 20
17.820842689254
 30
0.0
 11
283.577871882961
 21
17.820842689254
 31
0.0
  0
LINE
  5
2A79
330
2A6C
100
AcDbEntity
  8
図枠細線
  6
CONTINUOUS
 62
   252
100
AcDbLine
 10
120.577871882961
 20
32.820842689254
 30
0.0
 11
120.577871882961
 21
17.820842689254
 31
0.0
  0
MTEXT
  5
2A7A
330
2A6C
100
AcDbEntity
  8
図枠細線
 48
10.0
100
AcDbMText
 10
121.100885670352
 20
16.33785922638
 30
0.0
 40
2.0
 41
17.705978285068
 71
     1
 72
     5
  1
{\Fmonotxt.shx,bigfont.shx|c128;日付 DATE}
  0
MTEXT
  5
2A7B
330
2A6C
100
AcDbEntity
  8
図枠細線
 48
10.0
100
AcDbMText
 10
121.254842273491
 20
31.208993514037
 30
0.0
 40
2.0
 41
18.363799568758
 71
     1
 72
     5
  1
{\Fmonotxt.shx,bigfont.shx|c128;製図　DRAWN}
  0
LINE
  5
2A7C
330
2A6C
100
AcDbEntity
  8
図枠細線
  6
CONTINUOUS
 62
   252
100
AcDbLine
 10
97.577871882961
 20
32.820842689254
 30
0.0
 11
97.577871882961
 21
17.820842689254
 31
0.0
  0
MTEXT
  5
2A7D
330
2A6C
100
AcDbEntity
  8
図枠細線
 48
10.0
100
AcDbMText
 10
98.239734796872
 20
16.467764839281
 30
0.0
 40
2.0
 41
17.757791689903
 71
     1
 72
     5
  1
{\Fmonotxt.shx,bigfont.shx|c128;尺度　SCALE}
  0
MTEXT
  5
2A7E
330
2A6C
100
AcDbEntity
  8
図枠細線
 48
10.0
100
AcDbMText
 10
97.864744625154
 20
31.298433377664
 30
0.0
 40
2.0
 41
23.162655920976
 71
     1
 72
     5
  1
{\Fmonotxt.shx,bigfont.shx|c128;検図  CHECKED}
  0
LINE
  5
2A7F
330
2A6C
100
AcDbEntity
  8
図枠細線
  6
CONTINUOUS
 62
   252
100
AcDbLine
 10
97.577871882961
 20
2.820843367826
 30
0.0
 11
97.577871882961
 21
17.820841367826
 31
0.0
  0
LINE
  5
2A80
330
2A6C
100
AcDbEntity
  8
図枠細線
  6
CONTINUOUS
 62
   252
100
AcDbLine
 10
120.577871882961
 20
2.820844010683
 30
0.0
 11
120.577871882961
 21
17.820842010683
 31
0.0
  0
MTEXT
  5
2A81
330
2A6C
100
AcDbEntity
  8
図枠細線
 48
10.0
100
AcDbMText
 10
81.402399084102
 20
16.316484117426
 30
0.0
 40
2.0
 41
12.920322819369
 71
     1
 72
     5
  1
{\Fmonotxt.shx,bigfont.shx|c128;第三角法}
  0
MTEXT
  5
2A82
330
2A6C
100
AcDbEntity
  8
図枠細線
 48
10.0
100
AcDbMText
 10
75.736576535096
 20
11.080410931319
 30
0.0
 40
2.0
 41
21.072870671471
 71
     1
 72
     5
  1
{\Fmonotxt.shx,bigfont.shx|c128;THIRD ANGLE\PPROJECTION}
  0
LINE
  5
2A83
330
2A6C
100
AcDbEntity
  8
図枠太線
  6
CONTINUOUS
 62
   251
100
AcDbLine
 10
74.577871882961
 20
2.820844689254
 30
0.0
 11
74.577871882961
 21
32.820842689254
 31
0.0
  0
MTEXT
  5
2A84
330
2A6C
100
AcDbEntity
  8
図枠細線
 48
10.0
100
AcDbMText
 10
75.060214781573
 20
31.298434778555
 30
0.0
 40
2.0
 41
22.240928805967
 71
     1
 72
     5
  1
{\Fmonotxt.shx,bigfont.shx|c128;承認 APPROVED}
  0
LINE
  5
2A85
330
2A6C
100
AcDbEntity
  8
図枠細線
  6
CONTINUOUS
100
AcDbLine
 10
3.577871882961
 20
17.820844689254
 30
0.0
 11
74.577871882961
 21
17.820844689254
 31
0.0
  0
LINE
  5
2A86
330
2A6C
100
AcDbEntity
  8
図枠細線
  6
CONTINUOUS
 62
   252
100
AcDbLine
 10
3.577871882961
 20
27.820842689254
 30
0.0
 11
74.577871882961
 21
27.820842689254
 31
0.0
  0
LINE
  5
2A87
330
2A6C
100
AcDbEntity
  8
図枠細線
  6
CONTINUOUS
 62
   252
100
AcDbLine
 10
3.577871882961
 20
22.820842689254
 30
0.0
 11
74.577871882961
 21
22.820842689254
 31
0.0
  0
LINE
  5
2A88
330
2A6C
100
AcDbEntity
  8
図枠細線
  6
CONTINUOUS
 62
   252
100
AcDbLine
 10
3.577871882961
 20
12.820842689254
 30
0.0
 11
74.577871882961
 21
12.820842689254
 31
0.0
  0
LINE
  5
2A89
330
2A6C
100
AcDbEntity
  8
図枠細線
  6
CONTINUOUS
 62
   252
100
AcDbLine
 10
3.577871882961
 20
7.820844689254
 30
0.0
 11
74.577871882961
 21
7.820844689254
 31
0.0
  0
LINE
  5
2A8A
330
2A6C
100
AcDbEntity
  8
図枠細線
  6
CONTINUOUS
100
AcDbLine
 10
74.577871882961
 20
17.820843689254
 30
0.0
 11
143.577871882961
 21
17.820841224969
 31
0.0
  0
LINE
  5
2A8B
330
2A6C
100
AcDbEntity
  8
図枠太線
  6
CONTINUOUS
 62
   251
100
AcDbLine
 10
3.577871882961
 20
2.820844689254
 30
0.0
 11
283.577871882961
 21
2.820844689254
 31
0.0
  0
LINE
  5
2A8C
330
2A6C
100
AcDbEntity
  8
図枠太線
  6
CONTINUOUS
 62
   251
100
AcDbLine
 10
3.577871882961
 20
2.820844689254
 30
0.0
 11
3.577871882961
 21
32.820842689254
 31
0.0
  0
ENDBLK
  5
2A8D
330
2A6C
100
AcDbEntity
  8
0
100
AcDbBlockEnd
  0
BLOCK
  5
2AF8
330
2AF4
100
AcDbEntity
  8
0
 48
10.0
100
AcDbBlockBegin
  2
_OPEN30
 70
     0
 10
0.0
 20
0.0
 30
0.0
  3
_OPEN30
  1

  0
LINE
  5
2AF5
330
2AF4
100
AcDbEntity
  8
0
  6
BYBLOCK
 62
     0
100
AcDbLine
 10
-1.0
 20
0.26794919
 30
0.0
 11
0.0
 21
0.0
 31
0.0
  0
LINE
  5
2AF6
330
2AF4
100
AcDbEntity
  8
0
  6
BYBLOCK
 62
     0
100
AcDbLine
 10
0.0
 20
0.0
 30
0.0
 11
-1.0
 21
-0.26794919
 31
0.0
  0
LINE
  5
2AF7
330
2AF4
100
AcDbEntity
  8
0
  6
BYBLOCK
 62
     0
100
AcDbLine
 10
0.0
 20
0.0
 30
0.0
 11
-1.0
 21
0.0
 31
0.0
  0
ENDBLK
  5
2AF9
330
2AF4
100
AcDbEntity
  8
0
 48
10.0
100
AcDbBlockEnd
  0
BLOCK
  5
300D
330
3003
100
AcDbEntity
  8
0
 48
10.0
100
AcDbBlockBegin
  2
*D6
 70
     1
 10
0.0
 20
0.0
 30
0.0
  3
*D6
  1

  0
LINE
  5
366E
330
3003
100
AcDbEntity
  8
寸法線
 62
     0
 48
10.0
100
AcDbLine
 10
469.289081678798
 20
484.910182994724
 30
0.0
 11
489.308988652513
 21
484.910182994724
 31
0.0
  0
LINE
  5
366F
330
3003
100
AcDbEntity
  8
寸法線
 62
     0
 48
10.0
100
AcDbLine
 10
426.553908442367
 20
398.633342994724
 30
0.0
 11
489.308988652513
 21
398.633342994724
 31
0.0
  0
LINE
  5
3670
330
3003
100
AcDbEntity
  8
寸法線
 62
     0
 48
10.0
100
AcDbLine
 10
488.058988652513
 20
478.910182994724
 30
0.0
 11
488.058988652513
 21
404.633342994724
 31
0.0
  0
INSERT
  5
3671
330
3003
100
AcDbEntity
  8
寸法線
 62
     0
100
AcDbBlockReference
  2
_OPEN30
 10
488.058988652513
 20
484.910182994724
 30
0.0
 41
6.0
 42
6.0
 43
6.0
 50
90.0
  0
INSERT
  5
3672
330
3003
100
AcDbEntity
  8
寸法線
 62
     0
100
AcDbBlockReference
  2
_OPEN30
 10
488.058988652513
 20
398.633342994724
 30
0.0
 41
6.0
 42
6.0
 43
6.0
 50
270.0
  0
MTEXT
  5
3673
330
3003
100
AcDbEntity
  8
寸法線
 62
     0
 48
10.0
100
AcDbMText
 10
483.42565531918
 20
446.846675342168
 30
0.0
 40
8.0
 41
0.0
 71
     5
 72
     1
  1
\A1;89
 11
0.0
 21
1.0
 31
0.0
  0
POINT
  5
3674
330
3003
100
AcDbEntity
  8
DEFPOINTS
 62
     0
100
AcDbPoint
 10
468.664081678798
 20
484.910182994724
 30
0.0
  0
POINT
  5
3675
330
3003
100
AcDbEntity
  8
DEFPOINTS
 62
     0
100
AcDbPoint
 10
425.928908442367
 20
398.633342994724
 30
0.0
  0
POINT
  5
3676
330
3003
100
AcDbEntity
  8
DEFPOINTS
 62
     0
100
AcDbPoint
 10
488.058988652513
 20
398.633342994724
 30
0.0
  0
ENDBLK
  5
300E
330
3003
100
AcDbEntity
  8
0
 48
10.0
100
AcDbBlockEnd
  0
BLOCK
  5
301A
330
3010
100
AcDbEntity
  8
0
 48
10.0
100
AcDbBlockBegin
  2
*D7
 70
     1
 10
0.0
 20
0.0
 30
0.0
  3
*D7
  1

  0
LINE
  5
3665
330
3010
100
AcDbEntity
  8
寸法線
 62
     0
 48
10.0
100
AcDbLine
 10
441.572627995228
 20
434.510942664608
 30
0.0
 11
510.992022482611
 21
434.510942664608
 31
0.0
  0
LINE
  5
3666
330
3010
100
AcDbEntity
  8
寸法線
 62
     0
 48
10.0
100
AcDbLine
 10
441.572627995228
 20
535.078446668432
 30
0.0
 11
510.992022482611
 21
535.078446668432
 31
0.0
  0
LINE
  5
3667
330
3010
100
AcDbEntity
  8
寸法線
 62
     0
 48
10.0
100
AcDbLine
 10
509.742022482611
 20
440.510942664608
 30
0.0
 11
509.742022482611
 21
529.078446668432
 31
0.0
  0
INSERT
  5
3668
330
3010
100
AcDbEntity
  8
寸法線
 62
     0
 48
10.0
100
AcDbBlockReference
  2
_OPEN30
 10
509.742022482611
 20
434.510942664608
 30
0.0
 41
6.0
 42
6.0
 43
6.0
 50
270.0
  0
INSERT
  5
3669
330
3010
100
AcDbEntity
  8
寸法線
 62
     0
 48
10.0
100
AcDbBlockReference
  2
_OPEN30
 10
509.742022482611
 20
535.078446668432
 30
0.0
 41
6.0
 42
6.0
 43
6.0
 50
90.0
  0
MTEXT
  5
366A
330
3010
100
AcDbEntity
  8
寸法線
 62
     0
 48
10.0
100
AcDbMText
 10
505.117022482611
 20
484.79469466652
 30
0.0
 40
8.0
 41
0.0
 71
     5
 72
     1
  1
\A1;φ100
 11
6.123031769111886E-17
 21
1.0
 31
0.0
  0
POINT
  5
366B
330
3010
100
AcDbEntity
  8
DEFPOINTS
 62
     0
 48
10.0
100
AcDbPoint
 10
440.947627995228
 20
434.510942664608
 30
0.0
  0
POINT
  5
366C
330
3010
100
AcDbEntity
  8
DEFPOINTS
 62
     0
 48
10.0
100
AcDbPoint
 10
440.947627995228
 20
535.078446668432
 30
0.0
  0
POINT
  5
366D
330
3010
100
AcDbEntity
  8
DEFPOINTS
 62
     0
 48
10.0
100
AcDbPoint
 10
509.742022482611
 20
535.078446668432
 30
0.0
  0
ENDBLK
  5
301B
330
3010
100
AcDbEntity
  8
0
 48
10.0
100
AcDbBlockEnd
  0
BLOCK
  5
304E
330
3044
100
AcDbEntity
  8
0
 48
10.0
100
AcDbBlockBegin
  2
*D8
 70
     1
 10
0.0
 20
0.0
 30
0.0
  3
*D8
  1

  0
LINE
  5
365B
330
3044
100
AcDbEntity
  8
寸法線
 62
     0
 48
10.0
100
AcDbLine
 10
308.82547583131
 20
506.110182994724
 30
0.0
 11
308.20047583131
 21
506.110182994724
 31
0.0
  0
LINE
  5
365C
330
3044
100
AcDbEntity
  8
寸法線
 62
     0
 48
10.0
100
AcDbLine
 10
309.03983518331
 20
463.710182994724
 30
0.0
 11
308.20047583131
 21
463.710182994724
 31
0.0
  0
LINE
  5
365D
330
3044
100
AcDbEntity
  8
寸法線
 62
     0
 48
10.0
100
AcDbLine
 10
309.45047583131
 20
469.710182994724
 30
0.0
 11
309.45047583131
 21
500.110182994724
 31
0.0
  0
LINE
  5
365E
330
3044
100
AcDbEntity
  8
寸法線
 62
     0
 48
10.0
100
AcDbLine
 10
309.45047583131
 20
506.110182994724
 30
0.0
 11
309.45047583131
 21
540.960182994724
 31
0.0
  0
INSERT
  5
365F
330
3044
100
AcDbEntity
  8
寸法線
 62
     0
 48
10.0
100
AcDbBlockReference
  2
_OPEN30
 10
309.45047583131
 20
463.710182994724
 30
0.0
 41
6.0
 42
6.0
 43
6.0
 50
270.0
  0
INSERT
  5
3660
330
3044
100
AcDbEntity
  8
寸法線
 62
     0
 48
10.0
100
AcDbBlockReference
  2
_OPEN30
 10
309.45047583131
 20
506.110182994724
 30
0.0
 41
6.0
 42
6.0
 43
6.0
 50
90.0
  0
MTEXT
  5
3661
330
3044
100
AcDbEntity
  8
寸法線
 62
     0
 48
10.0
100
AcDbMText
 10
304.824688429735
 20
526.535182994724
 30
0.0
 40
8.0
 41
0.0
 71
     5
 72
     1
  1
\A1;φ42.4
 11
6.123031769111886E-17
 21
1.0
 31
0.0
  0
POINT
  5
3662
330
3044
100
AcDbEntity
  8
DEFPOINTS
 62
     0
 48
10.0
100
AcDbPoint
 10
309.45047583131
 20
506.110182994724
 30
0.0
  0
POINT
  5
3663
330
3044
100
AcDbEntity
  8
DEFPOINTS
 62
     0
 48
10.0
100
AcDbPoint
 10
309.66483518331
 20
463.710182994724
 30
0.0
  0
POINT
  5
3664
330
3044
100
AcDbEntity
  8
DEFPOINTS
 62
     0
 48
10.0
100
AcDbPoint
 10
309.45047583131
 20
463.710182994724
 30
0.0
  0
ENDBLK
  5
304F
330
3044
100
AcDbEntity
  8
0
 48
10.0
100
AcDbBlockEnd
  0
BLOCK
  5
308D
330
3083
100
AcDbEntity
  8
0
 48
10.0
100
AcDbBlockBegin
  2
*D9
 70
     1
 10
0.0
 20
0.0
 30
0.0
  3
*D9
  1

  0
LINE
  5
3652
330
3083
100
AcDbEntity
  8
寸法線
 62
     0
 48
10.0
100
AcDbLine
 10
145.53983518331
 20
494.910182994724
 30
0.0
 11
127.947380730515
 21
494.910182994724
 31
0.0
  0
LINE
  5
3653
330
3083
100
AcDbEntity
  8
寸法線
 62
     0
 48
10.0
100
AcDbLine
 10
145.53983518331
 20
474.910182994724
 30
0.0
 11
127.947380730515
 21
474.910182994724
 31
0.0
  0
LINE
  5
3654
330
3083
100
AcDbEntity
  8
寸法線
 62
     0
 48
10.0
100
AcDbLine
 10
129.197380730515
 20
488.910182994724
 30
0.0
 11
129.197380730515
 21
480.910182994724
 31
0.0
  0
MTEXT
  5
3655
330
3083
100
AcDbEntity
  8
寸法線
 62
     0
 48
10.0
100
AcDbMText
 10
122.292115866543
 20
482.920493506349
 30
0.0
 40
8.0
 41
0.0
 71
     5
 72
     1
  1
\A1;φ20
 11
6.123031769111886E-17
 21
1.0
 31
0.0
  0
INSERT
  5
3656
330
3083
100
AcDbEntity
  8
寸法線
 62
     0
 48
10.0
100
AcDbBlockReference
  2
_OPEN30
 10
129.197380730515
 20
494.910182994724
 30
0.0
 41
6.0
 42
6.0
 43
6.0
 50
90.0
  0
INSERT
  5
3657
330
3083
100
AcDbEntity
  8
寸法線
 62
     0
 48
10.0
100
AcDbBlockReference
  2
_OPEN30
 10
129.197380730515
 20
474.910182994724
 30
0.0
 41
6.0
 42
6.0
 43
6.0
 50
270.0
  0
POINT
  5
3658
330
3083
100
AcDbEntity
  8
DEFPOINTS
 62
     0
 48
10.0
100
AcDbPoint
 10
146.16483518331
 20
494.910182994724
 30
0.0
  0
POINT
  5
3659
330
3083
100
AcDbEntity
  8
DEFPOINTS
 62
     0
 48
10.0
100
AcDbPoint
 10
146.16483518331
 20
474.910182994724
 30
0.0
  0
POINT
  5
365A
330
3083
100
AcDbEntity
  8
DEFPOINTS
 62
     0
 48
10.0
100
AcDbPoint
 10
129.197380730515
 20
474.910182994724
 30
0.0
  0
ENDBLK
  5
308E
330
3083
100
AcDbEntity
  8
0
 48
10.0
100
AcDbBlockEnd
  0
BLOCK
  5
30A4
330
309A
100
AcDbEntity
  8
0
 48
10.0
100
AcDbBlockBegin
  2
*D10
 70
     1
 10
0.0
 20
0.0
 30
0.0
  3
*D10
  1

  0
LINE
  5
3649
330
309A
100
AcDbEntity
  8
寸法線
 62
     0
 48
10.0
100
AcDbLine
 10
146.16483518331
 20
474.285182994724
 30
0.0
 11
146.16483518331
 21
386.160182994724
 31
0.0
  0
LINE
  5
364A
330
309A
100
AcDbEntity
  8
寸法線
 62
     0
 48
10.0
100
AcDbLine
 10
279.16483518331
 20
462.285182994724
 30
0.0
 11
279.16483518331
 21
386.160182994724
 31
0.0
  0
LINE
  5
364B
330
309A
100
AcDbEntity
  8
寸法線
 62
     0
 48
10.0
100
AcDbLine
 10
152.16483518331
 20
387.410182994724
 30
0.0
 11
273.16483518331
 21
387.410182994724
 31
0.0
  0
INSERT
  5
364C
330
309A
100
AcDbEntity
  8
寸法線
 62
     0
 48
10.0
100
AcDbBlockReference
  2
_OPEN30
 10
146.16483518331
 20
387.410182994724
 30
0.0
 41
6.0
 42
6.0
 43
6.0
 50
180.0
  0
INSERT
  5
364D
330
309A
100
AcDbEntity
  8
寸法線
 62
     0
 48
10.0
100
AcDbBlockReference
  2
_OPEN30
 10
279.16483518331
 20
387.410182994724
 30
0.0
 41
6.0
 42
6.0
 43
6.0
  0
MTEXT
  5
364E
330
309A
100
AcDbEntity
  8
寸法線
 62
     0
 48
10.0
100
AcDbMText
 10
212.66483518331
 20
392.035182994724
 30
0.0
 40
8.0
 41
0.0
 71
     5
 72
     1
  1
\A1;133
  0
POINT
  5
364F
330
309A
100
AcDbEntity
  8
DEFPOINTS
 62
     0
 48
10.0
100
AcDbPoint
 10
146.16483518331
 20
474.910182994724
 30
0.0
  0
POINT
  5
3650
330
309A
100
AcDbEntity
  8
DEFPOINTS
 62
     0
 48
10.0
100
AcDbPoint
 10
279.16483518331
 20
462.910182994724
 30
0.0
  0
POINT
  5
3651
330
309A
100
AcDbEntity
  8
DEFPOINTS
 62
     0
 48
10.0
100
AcDbPoint
 10
279.16483518331
 20
387.410182994724
 30
0.0
  0
ENDBLK
  5
30A5
330
309A
100
AcDbEntity
  8
0
 48
10.0
100
AcDbBlockEnd
  0
BLOCK
  5
30BA
330
30B0
100
AcDbEntity
  8
0
 48
10.0
100
AcDbBlockBegin
  2
*D11
 70
     1
 10
0.0
 20
0.0
 30
0.0
  3
*D11
  1

  0
LINE
  5
3640
330
30B0
100
AcDbEntity
  8
寸法線
 62
     0
 48
10.0
100
AcDbLine
 10
353.16480518331
 20
456.785182994724
 30
0.0
 11
353.16480518331
 21
386.160182994724
 31
0.0
  0
LINE
  5
3641
330
30B0
100
AcDbEntity
  8
寸法線
 62
     0
 48
10.0
100
AcDbLine
 10
332.16483518331
 20
462.285182994724
 30
0.0
 11
332.16483518331
 21
386.160182994724
 31
0.0
  0
LINE
  5
3642
330
30B0
100
AcDbEntity
  8
寸法線
 62
     0
 48
10.0
100
AcDbLine
 10
347.16480518331
 20
387.410182994724
 30
0.0
 11
338.16483518331
 21
387.410182994724
 31
0.0
  0
INSERT
  5
3643
330
30B0
100
AcDbEntity
  8
寸法線
 62
     0
 48
10.0
100
AcDbBlockReference
  2
_OPEN30
 10
353.16480518331
 20
387.410182994724
 30
0.0
 41
6.0
 42
6.0
 43
6.0
  0
INSERT
  5
3644
330
30B0
100
AcDbEntity
  8
寸法線
 62
     0
 48
10.0
100
AcDbBlockReference
  2
_OPEN30
 10
332.16483518331
 20
387.410182994724
 30
0.0
 41
6.0
 42
6.0
 43
6.0
 50
180.0
  0
MTEXT
  5
3645
330
30B0
100
AcDbEntity
  8
寸法線
 62
     0
 48
10.0
100
AcDbMText
 10
342.66482018331
 20
392.035970396299
 30
0.0
 40
8.0
 41
0.0
 71
     5
 72
     1
  1
\A1;21
  0
POINT
  5
3646
330
30B0
100
AcDbEntity
  8
DEFPOINTS
 62
     0
 48
10.0
100
AcDbPoint
 10
353.16480518331
 20
457.410182994724
 30
0.0
  0
POINT
  5
3647
330
30B0
100
AcDbEntity
  8
DEFPOINTS
 62
     0
 48
10.0
100
AcDbPoint
 10
332.16483518331
 20
462.910182994724
 30
0.0
  0
POINT
  5
3648
330
30B0
100
AcDbEntity
  8
DEFPOINTS
 62
     0
 48
10.0
100
AcDbPoint
 10
332.16483518331
 20
387.410182994724
 30
0.0
  0
ENDBLK
  5
30BB
330
30B0
100
AcDbEntity
  8
0
 48
10.0
100
AcDbBlockEnd
  0
BLOCK
  5
30C7
330
30BD
100
AcDbEntity
  8
0
 48
10.0
100
AcDbBlockBegin
  2
*D12
 70
     1
 10
0.0
 20
0.0
 30
0.0
  3
*D12
  1

  0
LINE
  5
3637
330
30BD
100
AcDbEntity
  8
寸法線
 62
     0
 48
10.0
100
AcDbLine
 10
146.16483518331
 20
385.535182994724
 30
0.0
 11
146.16483518331
 21
366.160182994724
 31
0.0
  0
LINE
  5
3638
330
30BD
100
AcDbEntity
  8
寸法線
 62
     0
 48
10.0
100
AcDbLine
 10
353.16480518331
 20
385.535182994724
 30
0.0
 11
353.16480518331
 21
366.160182994724
 31
0.0
  0
LINE
  5
3639
330
30BD
100
AcDbEntity
  8
寸法線
 62
     0
 48
10.0
100
AcDbLine
 10
152.16483518331
 20
367.410182994724
 30
0.0
 11
347.16480518331
 21
367.410182994724
 31
0.0
  0
INSERT
  5
363A
330
30BD
100
AcDbEntity
  8
寸法線
 62
     0
 48
10.0
100
AcDbBlockReference
  2
_OPEN30
 10
146.16483518331
 20
367.410182994724
 30
0.0
 41
6.0
 42
6.0
 43
6.0
 50
180.0
  0
INSERT
  5
363B
330
30BD
100
AcDbEntity
  8
寸法線
 62
     0
 48
10.0
100
AcDbBlockReference
  2
_OPEN30
 10
353.16480518331
 20
367.410182994724
 30
0.0
 41
6.0
 42
6.0
 43
6.0
  0
MTEXT
  5
363C
330
30BD
100
AcDbEntity
  8
寸法線
 62
     0
 48
10.0
100
AcDbMText
 10
249.66482018331
 20
372.035970396299
 30
0.0
 40
8.0
 41
0.0
 71
     5
 72
     1
  1
\A1;207
  0
POINT
  5
363D
330
30BD
100
AcDbEntity
  8
DEFPOINTS
 62
     0
 48
10.0
100
AcDbPoint
 10
146.16483518331
 20
386.160182994724
 30
0.0
  0
POINT
  5
363E
330
30BD
100
AcDbEntity
  8
DEFPOINTS
 62
     0
 48
10.0
100
AcDbPoint
 10
353.16480518331
 20
386.160182994724
 30
0.0
  0
POINT
  5
363F
330
30BD
100
AcDbEntity
  8
DEFPOINTS
 62
     0
 48
10.0
100
AcDbPoint
 10
353.16480518331
 20
367.410182994724
 30
0.0
  0
ENDBLK
  5
30C8
330
30BD
100
AcDbEntity
  8
0
 48
10.0
100
AcDbBlockEnd
  0
BLOCK
  5
30DD
330
30D3
100
AcDbEntity
  8
0
 48
10.0
100
AcDbBlockBegin
  2
*D13
 70
     1
 10
0.0
 20
0.0
 30
0.0
  3
*D13
  1

  0
LINE
  5
362E
330
30D3
100
AcDbEntity
  8
寸法線
 62
     0
 48
10.0
100
AcDbLine
 10
468.664835183302
 20
439.752512271074
 30
0.0
 11
468.664835183302
 21
366.160182994724
 31
0.0
  0
LINE
  5
362F
330
30D3
100
AcDbEntity
  8
寸法線
 62
     0
 48
10.0
100
AcDbLine
 10
353.16480518331
 20
385.535182994724
 30
0.0
 11
353.16480518331
 21
366.160182994724
 31
0.0
  0
LINE
  5
3630
330
30D3
100
AcDbEntity
  8
寸法線
 62
     0
 48
10.0
100
AcDbLine
 10
462.664835183302
 20
367.410182994724
 30
0.0
 11
359.16480518331
 21
367.410182994724
 31
0.0
  0
INSERT
  5
3631
330
30D3
100
AcDbEntity
  8
寸法線
 62
     0
 48
10.0
100
AcDbBlockReference
  2
_OPEN30
 10
468.664835183302
 20
367.410182994724
 30
0.0
 41
6.0
 42
6.0
 43
6.0
  0
INSERT
  5
3632
330
30D3
100
AcDbEntity
  8
寸法線
 62
     0
 48
10.0
100
AcDbBlockReference
  2
_OPEN30
 10
353.16480518331
 20
367.410182994724
 30
0.0
 41
6.0
 42
6.0
 43
6.0
 50
180.0
  0
MTEXT
  5
3633
330
30D3
100
AcDbEntity
  8
寸法線
 62
     0
 48
10.0
100
AcDbMText
 10
410.914820183306
 20
372.035970396299
 30
0.0
 40
8.0
 41
0.0
 71
     5
 72
     1
  1
\A1;120
  0
POINT
  5
3634
330
30D3
100
AcDbEntity
  8
DEFPOINTS
 62
     0
 48
10.0
100
AcDbPoint
 10
468.664835183302
 20
440.377512271074
 30
0.0
  0
POINT
  5
3635
330
30D3
100
AcDbEntity
  8
DEFPOINTS
 62
     0
 48
10.0
100
AcDbPoint
 10
353.16480518331
 20
386.160182994724
 30
0.0
  0
POINT
  5
3636
330
30D3
100
AcDbEntity
  8
DEFPOINTS
 62
     0
 48
10.0
100
AcDbPoint
 10
353.16480518331
 20
367.410182994724
 30
0.0
  0
ENDBLK
  5
30DE
330
30D3
100
AcDbEntity
  8
0
 48
10.0
100
AcDbBlockEnd
  0
ENDSEC
  0
SECTION
  2
ENTITIES
  0
ARC
  5
2D85
330
1A
100
AcDbEntity
  8
外形線
100
AcDbCircle
 10
431.186166974976
 20
532.047576921422
 30
0.0
 40
2.073556783584
100
AcDbArc
 50
90.0
 51
136.091731908436
  0
LINE
  5
2D86
330
1A
100
AcDbEntity
  8
外形線
100
AcDbLine
 10
429.692270828486
 20
533.485600578476
 30
0.0
 11
428.843300479146
 21
532.603644619586
 31
0.0
  0
ARC
  5
2D87
330
1A
100
AcDbEntity
  8
外形線
100
AcDbCircle
 10
427.349404332656
 20
534.041668276642
 30
0.0
 40
2.073556783584
100
AcDbArc
 50
270.0
 51
316.091731908441
  0
LINE
  5
2D88
330
1A
100
AcDbEntity
  8
外形線
100
AcDbLine
 10
435.487926645958
 20
534.121133705006
 30
0.0
 11
431.186166974976
 21
534.121133705006
 31
0.0
  0
ARC
  5
2D89
330
1A
100
AcDbEntity
  8
外形線
100
AcDbCircle
 10
430.921209185104
 20
453.89869859112
 30
0.0
 40
1.2441340701504
100
AcDbArc
 50
217.230967965681
 51
270.0
  0
ARC
  5
2D8A
330
1A
100
AcDbEntity
  8
外形線
100
AcDbCircle
 10
426.92941591772
 20
456.83915482209
 30
0.0
 40
1.2441340701504
100
AcDbArc
 50
37.230967965672
 51
90.0
  0
LINE
  5
2D8B
330
1A
100
AcDbEntity
  8
外形線
100
AcDbLine
 10
435.487926645958
 20
452.654564520968
 30
0.0
 11
430.921209185104
 21
452.654564520968
 31
0.0
  0
LINE
  5
2D8C
330
1A
100
AcDbEntity
  8
細線
100
AcDbLine
 10
427.349404332656
 20
531.968111493056
 30
0.0
 11
427.349404332656
 21
458.752754994724
 31
0.0
  0
LINE
  5
2DB1
330
1A
100
AcDbEntity
  8
外形線
100
AcDbLine
 10
356.159793166504
 20
511.468295377447
 30
0.0
 11
353.16483518331
 21
505.977539074925
 31
0.0
  0
LINE
  5
2DB3
330
1A
100
AcDbEntity
  8
外形線
100
AcDbLine
 10
355.239031997341
 20
498.189239186086
 30
0.0
 11
365.474161662288
 21
498.189239186086
 31
0.0
  0
ARC
  5
2DB4
330
1A
100
AcDbEntity
  8
外形線
100
AcDbCircle
 10
410.45110938523
 20
484.910182994724
 30
0.0
 40
56.78650211819261
100
AcDbArc
 50
166.476641055109
 51
193.523358944891
  0
LINE
  5
2DB5
330
1A
100
AcDbEntity
  8
外形線
100
AcDbLine
 10
356.159793166504
 20
458.352070612002
 30
0.0
 11
353.16483518331
 21
463.842826914523
 31
0.0
  0
ARC
  5
2DB6
330
1A
100
AcDbEntity
  8
外形線
100
AcDbCircle
 10
364.32326331512
 20
465.78901337123
 30
0.0
 40
10.80062720349224
100
AcDbArc
 50
147.25473150955
 51
201.956277655798
  0
ARC
  5
2DB9
330
1A
100
AcDbEntity
  8
外形線
100
AcDbCircle
 10
310.2620842744
 20
484.910182994724
 30
0.0
 40
56.78650211819261
100
AcDbArc
 50
346.476641055109
 51
13.523358944891
  0
LINE
  5
2DBA
330
1A
100
AcDbEntity
  8
外形線
100
AcDbLine
 10
355.239031997341
 20
471.631126803363
 30
0.0
 11
365.474161662288
 21
471.631126803363
 31
0.0
  0
LINE
  5
2DBB
330
1A
100
AcDbEntity
  8
外形線
100
AcDbLine
 10
353.16483518331
 20
512.410182994724
 30
0.0
 11
353.16483518331
 21
457.410182994724
 31
0.0
  0
LINE
  5
2DBC
330
1A
100
AcDbEntity
  8
外形線
100
AcDbLine
 10
364.553400493126
 20
511.468295377447
 30
0.0
 11
356.159793166502
 21
511.468295377447
 31
0.0
  0
LINE
  5
2DBD
330
1A
100
AcDbEntity
  8
外形線
100
AcDbLine
 10
367.54835847632
 20
505.977539074925
 30
0.0
 11
364.553400493126
 21
511.468295377447
 31
0.0
  0
LINE
  5
2DBE
330
1A
100
AcDbEntity
  8
外形線
100
AcDbLine
 10
367.54835847632
 20
458.953880473716
 30
0.0
 11
367.54835847632
 21
510.866485515732
 31
0.0
  0
LINE
  5
2DBF
330
1A
100
AcDbEntity
  8
外形線
100
AcDbLine
 10
364.553400493126
 20
458.352070612002
 30
0.0
 11
367.54835847632
 21
463.842826914523
 31
0.0
  0
LINE
  5
2DC0
330
1A
100
AcDbEntity
  8
外形線
100
AcDbLine
 10
364.553400493126
 20
458.352070612002
 30
0.0
 11
356.159793166504
 21
458.352070612002
 31
0.0
  0
ARC
  5
2DD1
330
1A
100
AcDbEntity
  8
外形線
100
AcDbCircle
 10
368.14835847632
 20
452.160182994724
 30
0.0
 40
0.6
100
AcDbArc
 50
180.0
 51
270.0
  0
ARC
  5
2DE3
330
1A
100
AcDbEntity
  8
外形線
100
AcDbCircle
 10
368.14835847632
 20
517.660182994724
 30
0.0
 40
0.6
100
AcDbArc
 50
90.0
 51
180.0
  0
LINE
  5
2DE4
330
1A
100
AcDbEntity
  8
外形線
100
AcDbLine
 10
367.54835847632
 20
517.776208398508
 30
0.0
 11
367.54835847632
 21
452.04415759094
 31
0.0
  0
LINE
  5
2DE5
330
1A
100
AcDbEntity
  8
外形線
100
AcDbLine
 10
398.57359525781
 20
424.57117907583
 30
0.0
 11
385.49508845245
 21
438.603220894058
 31
0.0
  0
LINE
  5
2DE6
330
1A
100
AcDbEntity
  8
外形線
100
AcDbLine
 10
388.045819909408
 20
440.67160202426
 30
0.0
 11
373.04835847631
 21
451.560182994724
 31
0.0
  0
LINE
  5
2DE7
330
1A
100
AcDbEntity
  8
外形線
100
AcDbLine
 10
388.045819909408
 20
528.917787308782
 30
0.0
 11
373.04835847631
 21
518.260182994724
 31
0.0
  0
CIRCLE
  5
2DE8
330
1A
100
AcDbEntity
  8
細線
100
AcDbCircle
 10
417.487926645954
 20
443.93145517623
 30
0.0
 40
13.76127218150634
  0
LINE
  5
2DE9
330
1A
100
AcDbEntity
  8
外形線
100
AcDbLine
 10
421.367485702994
 20
448.968823276352
 30
0.0
 11
422.685501984424
 21
447.592994533542
 31
0.0
  0
LINE
  5
2DEA
330
1A
100
AcDbEntity
  8
外形線
100
AcDbLine
 10
413.605032281876
 20
438.894087076108
 30
0.0
 11
422.685501984424
 21
447.592994533542
 31
0.0
  0
CIRCLE
  5
2DEB
330
1A
100
AcDbEntity
  8
外形線
100
AcDbCircle
 10
417.486258992436
 20
443.93145517623
 30
0.0
 40
10.51872781849356
  0
CIRCLE
  5
2DEC
330
1A
100
AcDbEntity
  8
細線
100
AcDbCircle
 10
417.486258992436
 20
443.93145517623
 30
0.0
 40
9.90742839250458
  0
LINE
  5
2DED
330
1A
100
AcDbEntity
  8
外形線
100
AcDbLine
 10
412.287016000448
 20
440.269915818918
 30
0.0
 11
421.367485702994
 21
448.968823276352
 31
0.0
  0
LINE
  5
2DEE
330
1A
100
AcDbEntity
  8
外形線
100
AcDbLine
 10
412.287016000448
 20
440.269915818918
 30
0.0
 11
413.605032281876
 21
438.894087076108
 31
0.0
  0
LINE
  5
2DEF
330
1A
100
AcDbEntity
  8
外形線
100
AcDbLine
 10
368.14835847632
 20
518.260182994724
 30
0.0
 11
373.04835847631
 21
518.260182994724
 31
0.0
  0
LINE
  5
2DF0
330
1A
100
AcDbEntity
  8
外形線
100
AcDbLine
 10
368.14835847632
 20
451.560182994724
 30
0.0
 11
373.04835847631
 21
451.560182994724
 31
0.0
  0
LINE
  5
2DF1
330
1A
100
AcDbEntity
  8
外形線
100
AcDbLine
 10
373.04835847631
 20
518.260182994724
 30
0.0
 11
373.04835847631
 21
451.560182994724
 31
0.0
  0
LINE
  5
2DF2
330
1A
100
AcDbEntity
  8
外形線
100
AcDbLine
 10
367.54835847632
 20
505.752754994724
 30
0.0
 11
367.54835847632
 21
517.260182994724
 31
0.0
  0
LINE
  5
2DF3
330
1A
100
AcDbEntity
  8
外形線
100
AcDbLine
 10
427.919999221816
 20
457.591892692902
 30
0.0
 11
429.930625881008
 21
453.145960720306
 31
0.0
  0
ARC
  5
2DF5
330
1A
100
AcDbEntity
  8
外形線
100
AcDbCircle
 10
386.909302014824
 20
440.017434456432
 30
0.0
 40
2.0
100
AcDbArc
 50
180.0
 51
225.0
  0
LWPOLYLINE
  5
2DF7
330
1A
100
AcDbEntity
  8
外形線
100
AcDbPolyline
 90
       18
 70
     0
 43
0.0
 10
446.270421920594
 20
513.770765391108
 10
445.317042002852
 20
513.694325129152
 10
444.396128294758
 20
513.467607424724
 10
443.539041408122
 20
513.09833287733
 10
442.77496840891
 20
512.599076688788
 10
442.129928886704
 20
511.986840429806
 10
441.625888888792
 20
511.282473071886
 10
441.280012892776
 20
510.509961000606
 10
441.104079290864
 20
509.69561118803
 10
441.104079290864
 20
508.867155340318
 10
441.280012892776
 20
508.052805527742
 10
441.625888888792
 20
507.280293456462
 10
442.129928886704
 20
506.575926098542
 10
442.77496840891
 20
505.96368983956
 10
443.539041408122
 20
505.464433651016
 10
444.396128294758
 20
505.095159103624
 10
445.317042002852
 20
504.868441399196
 10
446.270421920594
 20
504.79200113724
  0
LWPOLYLINE
  5
2DF8
330
1A
100
AcDbEntity
  8
外形線
100
AcDbPolyline
 90
        8
 70
     0
 43
0.0
 10
446.270421920594
 20
513.205026518756
 10
445.279963247346
 20
513.128557656354
 10
444.323246076096
 20
512.90175609886
 10
443.432862452544
 20
512.532348191062
 10
442.639144667802
 20
512.032918382966
 10
441.969131942124
 20
511.420480521106
 10
441.445649292172
 20
510.715898245634
 10
441.086529961634
 20
509.943174238228
  0
LWPOLYLINE
  5
2DF9
330
1A
100
AcDbEntity
  8
外形線
100
AcDbPolyline
 90
        8
 70
     0
 43
0.0
 10
446.270421920594
 20
528.98165064317
 10
445.261566174252
 20
528.92356893863
 10
444.291216811062
 20
528.75154070921
 10
443.396410488152
 20
528.472131992662
 10
442.611300507656
 20
528.0960073653
 10
441.965853240716
 20
527.637522892462
 10
441.484704359834
 20
527.11417818085
 10
441.186218535306
 20
526.545948447
  0
LWPOLYLINE
  5
2DFA
330
1A
100
AcDbEntity
  8
外形線
100
AcDbPolyline
 90
       18
 70
     0
 43
0.0
 10
446.270421920594
 20
529.798829406254
 10
445.31699932419
 20
529.747008943542
 10
444.396044390802
 20
529.593312239116
 10
443.538919136124
 20
529.342973249904
 10
442.774811932692
 20
529.004516969936
 10
442.129743534878
 20
528.589469121892
 10
441.625680973294
 20
528.111963662442
 10
441.279789493916
 20
527.588261467304
 10
441.103848016224
 20
527.036196586622
 10
441.103848016224
 20
526.474568927776
 10
441.279789493916
 20
525.922504047094
 10
441.625680973294
 20
525.398801851956
 10
442.129743534878
 20
524.921296392506
 10
442.774811932692
 20
524.506248544464
 10
443.538919136124
 20
524.167792264494
 10
444.396044390802
 20
523.917453275282
 10
445.31699932419
 20
523.763756570856
 10
446.270421920594
 20
523.711936108146
  0
ARC
  5
2DFB
330
1A
100
AcDbEntity
  8
外形線
100
AcDbCircle
 10
465.554500007926
 20
526.688494230878
 30
0.0
 40
3.110335175376
100
AcDbArc
 50
0.0
 51
90.0
  0
ARC
  5
2DFC
330
1A
100
AcDbEntity
  8
外形線
100
AcDbCircle
 10
463.480943224342
 20
526.908093859586
 30
0.0
 40
2.073556783584
100
AcDbArc
 50
0.0
 51
90.0
  0
ARC
  5
2DFD
330
1A
100
AcDbEntity
  8
外形線
100
AcDbCircle
 10
464.517721616134
 20
529.211877061968
 30
0.0
 40
4.147113567168
100
AcDbArc
 50
0.0
 51
87.000000000002
  0
ARC
  5
2DFE
330
1A
100
AcDbEntity
  8
外形線
100
AcDbCircle
 10
440.049751569842
 20
534.560057472536
 30
0.0
 40
1.036778391792
100
AcDbArc
 50
0.0
 51
30.000000000005
  0
LINE
  5
2DFF
330
1A
100
AcDbEntity
  8
外形線
100
AcDbLine
 10
435.487926645958
 20
534.560057472536
 30
0.0
 11
436.006315841854
 21
535.078446668432
 31
0.0
  0
LINE
  5
2E00
330
1A
100
AcDbEntity
  8
外形線
100
AcDbLine
 10
436.006315841854
 20
535.078446668432
 30
0.0
 11
440.947627995228
 21
535.078446668432
 31
0.0
  0
LINE
  5
2E01
330
1A
100
AcDbEntity
  8
外形線
100
AcDbLine
 10
446.270421920594
 20
529.798829406254
 30
0.0
 11
465.554500007926
 21
529.798829406254
 31
0.0
  0
LINE
  5
2E02
330
1A
100
AcDbEntity
  8
外形線
100
AcDbLine
 10
446.270421920594
 20
528.98165064317
 30
0.0
 11
463.480943224342
 21
528.98165064317
 31
0.0
  0
LINE
  5
2E03
330
1A
100
AcDbEntity
  8
外形線
100
AcDbLine
 10
441.086529961634
 20
534.560057472536
 30
0.0
 11
464.734764770318
 21
533.353307154124
 31
0.0
  0
ARC
  5
2E04
330
1A
100
AcDbEntity
  8
外形線
100
AcDbCircle
 10
465.554500007926
 20
520.60160093277
 30
0.0
 40
3.110335175376
100
AcDbArc
 50
0.0
 51
90.0
  0
ARC
  5
2E05
330
1A
100
AcDbEntity
  8
外形線
100
AcDbCircle
 10
463.999332420238
 20
511.649858931068
 30
0.0
 40
1.555167587688
100
AcDbArc
 50
0.0
 51
90.0
  0
LINE
  5
2E06
330
1A
100
AcDbEntity
  8
外形線
100
AcDbLine
 10
468.253961113972
 20
508.761895649618
 30
0.0
 11
465.554500007926
 21
506.717683487852
 31
0.0
  0
ARC
  5
2E07
330
1A
100
AcDbEntity
  8
外形線
100
AcDbCircle
 10
467.62805679151
 20
503.755222745448
 30
0.0
 40
1.036778391792
100
AcDbArc
 50
0.0
 51
90.0
  0
ARC
  5
2E08
330
1A
100
AcDbEntity
  8
外形線
100
AcDbCircle
 10
467.62805679151
 20
509.588426479538
 30
0.0
 40
1.036778391792
100
AcDbArc
 50
307.135436470274
 51
0.0
  0
LINE
  5
2E09
330
1A
100
AcDbEntity
  8
外形線
100
AcDbLine
 10
465.554500007926
 20
511.649858931068
 30
0.0
 11
465.554500007926
 21
504.79200113724
 31
0.0
  0
ARC
  5
2E0A
330
1A
100
AcDbEntity
  8
外形線
100
AcDbCircle
 10
465.554500007926
 20
510.660430215732
 30
0.0
 40
3.110335175376
100
AcDbArc
 50
0.0
 51
90.0
  0
ARC
  5
2E0B
330
1A
100
AcDbEntity
  8
外形線
100
AcDbCircle
 10
467.62805679151
 20
491.015365017272
 30
0.0
 40
1.036778391792
100
AcDbArc
 50
270.0
 51
0.0
  0
LINE
  5
2E0C
330
1A
100
AcDbEntity
  8
外形線
100
AcDbLine
 10
465.554500007926
 20
489.97858662548
 30
0.0
 11
465.554500007926
 21
484.794694666522
 31
0.0
  0
ARC
  5
2E0D
330
1A
100
AcDbEntity
  8
外形線
100
AcDbCircle
 10
467.62805679151
 20
478.57402431577
 30
0.0
 40
1.036778391792
100
AcDbArc
 50
0.0
 51
90.0
  0
LINE
  5
2E0E
330
1A
100
AcDbEntity
  8
外形線
100
AcDbLine
 10
465.554500007926
 20
479.61080270756
 30
0.0
 11
465.554500007926
 21
484.794694666522
 31
0.0
  0
LINE
  5
2E0F
330
1A
100
AcDbEntity
  8
外形線
100
AcDbLine
 10
468.664835183302
 20
503.755222745448
 30
0.0
 11
468.664835183302
 21
491.015365017272
 31
0.0
  0
ARC
  5
2E10
330
1A
100
AcDbEntity
  8
外形線
100
AcDbCircle
 10
446.270421920594
 20
484.794694666522
 30
0.0
 40
5.183891958959999
100
AcDbArc
 50
90.0
 51
180.0
  0
ARC
  5
2E11
330
1A
100
AcDbEntity
  8
外形線
100
AcDbCircle
 10
446.270421920594
 20
484.794694666522
 30
0.0
 40
5.183891958959999
100
AcDbArc
 50
180.0
 51
270.0
  0
LINE
  5
2E12
330
1A
100
AcDbEntity
  8
外形線
100
AcDbLine
 10
446.270421920594
 20
479.61080270756
 30
0.0
 11
467.62805679151
 21
479.61080270756
 31
0.0
  0
LINE
  5
2E13
330
1A
100
AcDbEntity
  8
外形線
100
AcDbLine
 10
446.270421920594
 20
489.97858662548
 30
0.0
 11
467.62805679151
 21
489.97858662548
 31
0.0
  0
LINE
  5
2E14
330
1A
100
AcDbEntity
  8
外形線
100
AcDbLine
 10
446.270421920596
 20
523.711936108146
 30
0.0
 11
465.554500007926
 21
523.711936108146
 31
0.0
  0
LINE
  5
2E15
330
1A
100
AcDbEntity
  8
外形線
100
AcDbLine
 10
446.270421920594
 20
513.770765391108
 30
0.0
 11
465.554500007926
 21
513.770765391108
 31
0.0
  0
LINE
  5
2E16
330
1A
100
AcDbEntity
  8
外形線
100
AcDbLine
 10
446.270421920594
 20
513.205026518756
 30
0.0
 11
463.999332420238
 21
513.205026518756
 31
0.0
  0
LINE
  5
2E17
330
1A
100
AcDbEntity
  8
外形線
100
AcDbLine
 10
446.270421920596
 20
504.79200113724
 30
0.0
 11
467.62805679151
 21
504.79200113724
 31
0.0
  0
LINE
  5
2E19
330
1A
100
AcDbEntity
  8
外形線
100
AcDbLine
 10
441.086529961634
 20
534.560057472536
 30
0.0
 11
441.086529961634
 21
484.794694666522
 31
0.0
  0
LINE
  5
2E1A
330
1A
100
AcDbEntity
  8
外形線
100
AcDbLine
 10
468.664835183302
 20
509.588426479538
 30
0.0
 11
468.664835183302
 21
529.211877061968
 31
0.0
  0
LINE
  5
2E1B
330
1A
100
AcDbEntity
  8
外形線
100
AcDbLine
 10
465.554500007926
 20
526.908093859586
 30
0.0
 11
465.554500007926
 21
523.711936108146
 31
0.0
  0
LINE
  5
2E1C
330
1A
100
AcDbEntity
  8
外形線
100
AcDbLine
 10
388.48792664595
 20
529.767066447892
 30
0.0
 11
388.48792664595
 21
530.931333101264
 31
0.0
  0
LINE
  5
2E1D
330
1A
100
AcDbEntity
  8
外形線
100
AcDbLine
 10
389.524705037742
 20
531.968111493056
 30
0.0
 11
427.349404332656
 21
531.968111493056
 31
0.0
  0
LINE
  5
2E1E
330
1A
100
AcDbEntity
  8
外形線
100
AcDbLine
 10
468.253961113972
 20
460.827493683424
 30
0.0
 11
465.554500007926
 21
462.87170584519
 31
0.0
  0
ARC
  5
2E1F
330
1A
100
AcDbEntity
  8
外形線
100
AcDbCircle
 10
467.62805679151
 20
460.000962853504
 30
0.0
 40
1.036778391792
100
AcDbArc
 50
0.0
 51
52.864563529744
  0
ARC
  5
2E20
330
1A
100
AcDbEntity
  8
外形線
100
AcDbCircle
 10
467.62805679151
 20
465.834166587594
 30
0.0
 40
1.036778391792
100
AcDbArc
 50
270.0
 51
0.0
  0
ARC
  5
2E21
330
1A
100
AcDbEntity
  8
外形線
100
AcDbCircle
 10
465.554500007926
 20
458.92895911731
 30
0.0
 40
3.110335175376
100
AcDbArc
 50
270.0
 51
0.0
  0
LINE
  5
2E22
330
1A
100
AcDbEntity
  8
外形線
100
AcDbLine
 10
465.554500007926
 20
457.939530401974
 30
0.0
 11
465.554500007926
 21
464.797388195802
 31
0.0
  0
ARC
  5
2E23
330
1A
100
AcDbEntity
  8
外形線
100
AcDbCircle
 10
463.999332420238
 20
457.939530401974
 30
0.0
 40
1.555167587688
100
AcDbArc
 50
270.0
 51
0.0
  0
ARC
  5
2E24
330
1A
100
AcDbEntity
  8
外形線
100
AcDbCircle
 10
465.554500007926
 20
448.987788400272
 30
0.0
 40
3.110335175376
100
AcDbArc
 50
270.0
 51
0.0
  0
ARC
  5
2E25
330
1A
100
AcDbEntity
  8
外形線
100
AcDbCircle
 10
465.554500007926
 20
442.900895102164
 30
0.0
 40
3.110335175376
100
AcDbArc
 50
270.0
 51
0.0
  0
LINE
  5
2E26
330
1A
100
AcDbEntity
  8
外形線
100
AcDbLine
 10
465.554500007926
 20
442.681295473456
 30
0.0
 11
465.554500007926
 21
445.877453224896
 31
0.0
  0
ARC
  5
2E27
330
1A
100
AcDbEntity
  8
外形線
100
AcDbCircle
 10
463.480943224342
 20
442.681295473456
 30
0.0
 40
2.073556783584
100
AcDbArc
 50
270.0
 51
0.0
  0
LINE
  5
2E28
330
1A
100
AcDbEntity
  8
外形線
100
AcDbLine
 10
468.664835183302
 20
460.000962853504
 30
0.0
 11
468.664835183302
 21
440.377512271074
 31
0.0
  0
ARC
  5
2E29
330
1A
100
AcDbEntity
  8
外形線
100
AcDbCircle
 10
464.517721616134
 20
440.377512271074
 30
0.0
 40
4.147113567168
100
AcDbArc
 50
272.999999999999
 51
0.0
  0
LWPOLYLINE
  5
2E2A
330
1A
100
AcDbEntity
  8
外形線
100
AcDbPolyline
 90
       18
 70
     0
 43
0.0
 10
446.270421920594
 20
455.818623941934
 10
445.317042002852
 20
455.89506420389
 10
444.396128294758
 20
456.121781908318
 10
443.539041408122
 20
456.491056455712
 10
442.77496840891
 20
456.990312644254
 10
442.129928886704
 20
457.602548903236
 10
441.625888888792
 20
458.306916261156
 10
441.280012892776
 20
459.079428332436
 10
441.104079290864
 20
459.893778145012
 10
441.104079290864
 20
460.722233992724
 10
441.280012892776
 20
461.5365838053
 10
441.625888888792
 20
462.30909587658
 10
442.129928886704
 20
463.0134632345
 10
442.77496840891
 20
463.625699493482
 10
443.539041408122
 20
464.124955682026
 10
444.396128294758
 20
464.494230229418
 10
445.317042002852
 20
464.720947933846
 10
446.270421920594
 20
464.797388195802
  0
LWPOLYLINE
  5
2E2B
330
1A
100
AcDbEntity
  8
外形線
100
AcDbPolyline
 90
        8
 70
     0
 43
0.0
 10
446.270421920594
 20
456.384362814286
 10
445.279963247346
 20
456.460831676688
 10
444.323246076096
 20
456.687633234182
 10
443.432862452544
 20
457.05704114198
 10
442.639144667802
 20
457.556470950076
 10
441.969131942124
 20
458.168908811936
 10
441.445649292172
 20
458.873491087408
 10
441.086529961634
 20
459.646215094814
  0
LWPOLYLINE
  5
2E2C
330
1A
100
AcDbEntity
  8
外形線
100
AcDbPolyline
 90
        8
 70
     0
 43
0.0
 10
446.270421920594
 20
440.607738689872
 10
445.261566174252
 20
440.665820394412
 10
444.291216811062
 20
440.837848623832
 10
443.396410488152
 20
441.11725734038
 10
442.611300507656
 20
441.493381967742
 10
441.965853240716
 20
441.951866440582
 10
441.484704359834
 20
442.475211152192
 10
441.186218535306
 20
443.043440886042
  0
LWPOLYLINE
  5
2E2D
330
1A
100
AcDbEntity
  8
外形線
100
AcDbPolyline
 90
       18
 70
     0
 43
0.0
 10
446.270421920594
 20
439.790559926788
 10
445.31699932419
 20
439.8423803895
 10
444.396044390802
 20
439.996077093926
 10
443.538919136124
 20
440.246416083138
 10
442.774811932692
 20
440.584872363106
 10
442.129743534878
 20
440.99992021115
 10
441.625680973294
 20
441.4774256706
 10
441.279789493916
 20
442.001127865738
 10
441.103848016224
 20
442.55319274642
 10
441.103848016224
 20
443.114820405266
 10
441.279789493916
 20
443.666885285948
 10
441.625680973294
 20
444.190587481086
 10
442.129743534878
 20
444.668092940536
 10
442.774811932692
 20
445.08314078858
 10
443.538919136124
 20
445.421597068548
 10
444.396044390802
 20
445.67193605776
 10
445.31699932419
 20
445.825632762186
 10
446.270421920594
 20
445.877453224896
  0
ARC
  5
2E2E
330
1A
100
AcDbEntity
  8
外形線
100
AcDbCircle
 10
440.049751569842
 20
435.029331860504
 30
0.0
 40
1.036778391792
100
AcDbArc
 50
330.000000000004
 51
0.0
  0
LINE
  5
2E2F
330
1A
100
AcDbEntity
  8
外形線
100
AcDbLine
 10
435.487926645958
 20
435.029331860504
 30
0.0
 11
436.006315841852
 21
434.510942664608
 31
0.0
  0
LINE
  5
2E30
330
1A
100
AcDbEntity
  8
外形線
100
AcDbLine
 10
436.006315841852
 20
434.510942664608
 30
0.0
 11
440.947627995228
 21
434.510942664608
 31
0.0
  0
LINE
  5
2E31
330
1A
100
AcDbEntity
  8
外形線
100
AcDbLine
 10
446.270421920594
 20
455.818623941934
 30
0.0
 11
465.554500007926
 21
455.818623941934
 31
0.0
  0
LINE
  5
2E32
330
1A
100
AcDbEntity
  8
外形線
100
AcDbLine
 10
446.270421920594
 20
456.384362814286
 30
0.0
 11
463.999332420238
 21
456.384362814286
 31
0.0
  0
LINE
  5
2E33
330
1A
100
AcDbEntity
  8
外形線
100
AcDbLine
 10
446.270421920596
 20
445.877453224896
 30
0.0
 11
465.554500007926
 21
445.877453224896
 31
0.0
  0
LINE
  5
2E34
330
1A
100
AcDbEntity
  8
外形線
100
AcDbLine
 10
446.270421920594
 20
439.790559926788
 30
0.0
 11
465.554500007926
 21
439.790559926788
 31
0.0
  0
LINE
  5
2E35
330
1A
100
AcDbEntity
  8
外形線
100
AcDbLine
 10
446.270421920594
 20
440.607738689872
 30
0.0
 11
463.480943224342
 21
440.607738689872
 31
0.0
  0
LINE
  5
2E36
330
1A
100
AcDbEntity
  8
外形線
100
AcDbLine
 10
441.086529961634
 20
435.029331860504
 30
0.0
 11
464.734764770318
 21
436.236082178918
 31
0.0
  0
LINE
  5
2E37
330
1A
100
AcDbEntity
  8
外形線
100
AcDbLine
 10
446.270421920596
 20
464.797388195802
 30
0.0
 11
467.62805679151
 21
464.797388195802
 31
0.0
  0
LINE
  5
2E38
330
1A
100
AcDbEntity
  8
外形線
100
AcDbLine
 10
388.48792664595
 20
439.82232288515
 30
0.0
 11
388.48792664595
 21
438.658056231776
 31
0.0
  0
LINE
  5
2E39
330
1A
100
AcDbEntity
  8
外形線
100
AcDbLine
 10
389.524705037742
 20
437.621277839984
 30
0.0
 11
397.414369862366
 21
437.621277839984
 31
0.0
  0
ARC
  5
2E3A
330
1A
100
AcDbEntity
  8
外形線
100
AcDbCircle
 10
400.772934352082
 20
426.7705181701
 30
0.0
 40
3.110335175376
100
AcDbArc
 50
224.999999999995
 51
259.247872764004
  0
ARC
  5
2E3B
330
1A
100
AcDbEntity
  8
外形線
100
AcDbCircle
 10
400.524705037742
 20
424.696961386516
 30
0.0
 40
1.036778391792
100
AcDbArc
 50
180.0
 51
270.0
  0
LINE
  5
2E3C
330
1A
100
AcDbEntity
  8
外形線
100
AcDbLine
 10
399.48792664595
 20
424.696961386516
 30
0.0
 11
399.48792664595
 21
458.08328889224
 31
0.0
  0
ARC
  5
2E3D
330
1A
100
AcDbEntity
  8
外形線
100
AcDbCircle
 10
397.414369862366
 20
435.5477210564
 30
0.0
 40
2.073556783584
100
AcDbArc
 50
0.0
 51
90.0
  0
LINE
  5
2E3E
330
1A
100
AcDbEntity
  8
外形線
100
AcDbLine
 10
399.48792664595
 20
458.08328889224
 30
0.0
 11
426.92941591772
 21
458.08328889224
 31
0.0
  0
LINE
  5
2E3F
330
1A
100
AcDbEntity
  8
外形線
100
AcDbLine
 10
400.192668630568
 20
423.660182994724
 30
0.0
 11
434.451148254166
 21
423.660182994724
 31
0.0
  0
ARC
  5
2E40
330
1A
100
AcDbEntity
  8
外形線
100
AcDbCircle
 10
434.451148254166
 20
424.696961386516
 30
0.0
 40
1.036778391792
100
AcDbArc
 50
270.0
 51
0.0
  0
LINE
  5
2E42
330
1A
100
AcDbEntity
  8
外形線
100
AcDbLine
 10
435.487926645958
 20
424.696961386516
 30
0.0
 11
435.487926645958
 21
534.121133705006
 31
0.0
  0
LINE
  5
2E43
330
1A
100
AcDbEntity
  8
外形線
100
AcDbLine
 10
430.304034686998
 20
453.92017680711
 30
0.0
 11
430.304034686998
 21
532.488667313618
 31
0.0
  0
LINE
  5
2E44
330
1A
100
AcDbEntity
  8
外形線
100
AcDbLine
 10
388.48792664595
 20
529.767066447892
 30
0.0
 11
388.48792664595
 21
439.82232288515
 31
0.0
  0
LINE
  5
2E46
330
1A
100
AcDbEntity
  8
外形線
100
AcDbLine
 10
441.086529961634
 20
435.029331860504
 30
0.0
 11
441.086529961634
 21
484.794694666522
 31
0.0
  0
LINE
  5
2E47
330
1A
100
AcDbEntity
  8
外形線
100
AcDbLine
 10
468.664835183302
 20
465.834166587594
 30
0.0
 11
468.664835183302
 21
478.57402431577
 31
0.0
  0
LINE
  5
2E48
330
1A
100
AcDbEntity
  8
外形線
100
AcDbLine
 10
384.909302014824
 20
441.248677489306
 30
0.0
 11
384.909302014824
 21
440.017434456432
 31
0.0
  0
ARC
  5
2E49
330
1A
100
AcDbEntity
  8
外形線
100
AcDbCircle
 10
381.798966839448
 20
441.248677489306
 30
0.0
 40
3.110335175376
100
AcDbArc
 50
0.0
 51
54.999999999999
  0
LINE
  5
2E4A
330
1A
100
AcDbEntity
  8
外形線
100
AcDbLine
 10
367.54835847632
 20
517.660182994724
 30
0.0
 11
367.54835847632
 21
452.160182994724
 31
0.0
  0
ARC
  5
2E4B
330
1A
100
AcDbEntity
  8
外形線
100
AcDbCircle
 10
387.451148254158
 20
439.82232288515
 30
0.0
 40
1.036778391792
100
AcDbArc
 50
0.0
 51
54.999999999999
  0
ARC
  5
2E4C
330
1A
100
AcDbEntity
  8
外形線
100
AcDbCircle
 10
389.524705037742
 20
438.658056231776
 30
0.0
 40
1.036778391792
100
AcDbArc
 50
180.0
 51
270.0
  0
ARC
  5
2E4D
330
1A
100
AcDbEntity
  8
外形線
100
AcDbCircle
 10
387.451148254158
 20
529.767066447892
 30
0.0
 40
1.036778391792
100
AcDbArc
 50
305.000000000002
 51
0.0
  0
ARC
  5
2E4E
330
1A
100
AcDbEntity
  8
外形線
100
AcDbCircle
 10
389.524705037742
 20
530.931333101264
 30
0.0
 40
1.036778391792
100
AcDbArc
 50
90.0
 51
180.0
  0
LINE
  5
2F9C
330
1A
100
AcDbEntity
  8
外形線
100
AcDbLine
 10
279.16483518331
 20
494.910182994724
 30
0.0
 11
146.16483518331
 21
494.910182994724
 31
0.0
  0
LINE
  5
2F9D
330
1A
100
AcDbEntity
  8
外形線
100
AcDbLine
 10
279.16483518331
 20
474.910182994724
 30
0.0
 11
146.16483518331
 21
474.910182994724
 31
0.0
  0
LINE
  5
2F9E
330
1A
100
AcDbEntity
  8
外形線
100
AcDbLine
 10
146.16483518331
 20
494.910182994724
 30
0.0
 11
146.16483518331
 21
474.910182994724
 31
0.0
  0
LINE
  5
2F9F
330
1A
100
AcDbEntity
  8
外形線
100
AcDbLine
 10
279.16483518331
 20
506.110182994724
 30
0.0
 11
279.16483518331
 21
463.710182994724
 31
0.0
  0
LINE
  5
2FA0
330
1A
100
AcDbEntity
  8
外形線
100
AcDbLine
 10
279.16483518331
 20
506.110182994724
 30
0.0
 11
332.16483518331
 21
506.110182994724
 31
0.0
  0
LINE
  5
2FA1
330
1A
100
AcDbEntity
  8
外形線
100
AcDbLine
 10
279.16483518331
 20
463.710182994724
 30
0.0
 11
332.16483518331
 21
463.710182994724
 31
0.0
  0
LINE
  5
2FA3
330
1A
100
AcDbEntity
  8
下書線
100
AcDbLine
 10
102.42675518331
 20
562.277532647651
 30
0.0
 11
501.483151402889
 21
562.277532647651
 31
0.0
  0
LINE
  5
2FA6
330
1A
100
AcDbEntity
  8
外形線
100
AcDbLine
 10
333.66855918331
 20
460.910182994724
 30
0.0
 11
332.16483518331
 21
462.910182994724
 31
0.0
  0
LINE
  5
2FA7
330
1A
100
AcDbEntity
  8
細線
100
AcDbLine
 10
351.16483518331
 20
462.910182994724
 30
0.0
 11
332.16483518331
 21
462.910182994724
 31
0.0
  0
LINE
  5
2FA8
330
1A
100
AcDbEntity
  8
外形線
100
AcDbLine
 10
351.16483518331
 20
460.910182994724
 30
0.0
 11
333.66855918331
 21
460.910182994724
 31
0.0
  0
LINE
  5
2FA9
330
1A
100
AcDbEntity
  8
外形線
100
AcDbLine
 10
333.66855918331
 20
508.910182994724
 30
0.0
 11
332.16483518331
 21
506.910182994724
 31
0.0
  0
LINE
  5
2FAA
330
1A
100
AcDbEntity
  8
細線
100
AcDbLine
 10
351.16483518331
 20
506.910182994724
 30
0.0
 11
332.16483518331
 21
506.910182994724
 31
0.0
  0
LINE
  5
2FAB
330
1A
100
AcDbEntity
  8
外形線
100
AcDbLine
 10
351.16483518331
 20
508.910182994724
 30
0.0
 11
333.66855918331
 21
508.910182994724
 31
0.0
  0
LINE
  5
2FAC
330
1A
100
AcDbEntity
  8
外形線
100
AcDbLine
 10
332.16483518331
 20
462.910182994724
 30
0.0
 11
332.16483518331
 21
506.910182994724
 31
0.0
  0
LINE
  5
2FAD
330
1A
100
AcDbEntity
  8
外形線
100
AcDbLine
 10
351.16483518331
 20
512.410182994724
 30
0.0
 11
353.16480518331
 21
512.410182994724
 31
0.0
  0
LINE
  5
2FAE
330
1A
100
AcDbEntity
  8
外形線
100
AcDbLine
 10
351.16483518331
 20
457.410182994724
 30
0.0
 11
353.16480518331
 21
457.410182994724
 31
0.0
  0
LINE
  5
2FAF
330
1A
100
AcDbEntity
  8
外形線
100
AcDbLine
 10
351.16483518331
 20
512.410182994724
 30
0.0
 11
351.16483518331
 21
457.410182994724
 31
0.0
  0
DIMENSION
  5
3002
330
1A
100
AcDbEntity
  8
寸法線
 48
10.0
100
AcDbDimension
  2
*D6
 10
488.058988652513
 20
398.633342994724
 30
0.0
 11
488.058988652513
 21
446.846675342168
 31
0.0
 70
   160
  1
89
  3
ISO-25
100
AcDbAlignedDimension
 13
468.664081678798
 23
484.910182994724
 33
0.0
 14
425.928908442367
 24
398.633342994724
 34
0.0
 50
90.0
100
AcDbRotatedDimension
1001
ACAD
1000
DSTYLE
1002
{
1070
     5
1000
OPEN30
1070
    41
1040
6.0
1070
    47
1040
0.1
1070
    48
1040
0.1
1070
    73
1070
     0
1070
   140
1040
8.0
1070
   271
1070
     1
1070
   272
1070
     1
1070
   341
1005
2AF4
1002
}
  0
DIMENSION
  5
300F
330
1A
100
AcDbEntity
  8
寸法線
 48
10.0
100
AcDbDimension
  2
*D7
 10
509.742022482611
 20
535.078446668432
 30
0.0
 11
505.117022482611
 21
484.79469466652
 31
0.0
 70
    32
  1
φ100
  3
ISO-25
100
AcDbAlignedDimension
 13
440.947627995228
 23
434.510942664608
 33
0.0
 14
440.947627995228
 24
535.078446668432
 34
0.0
 50
90.0
100
AcDbRotatedDimension
1001
ACAD
1000
DSTYLE
1002
{
1070
     5
1000
OPEN30
1070
    41
1040
6.0
1070
    47
1040
0.1
1070
    48
1040
0.1
1070
    73
1070
     0
1070
   140
1040
8.0
1070
   271
1070
     1
1070
   272
1070
     1
1070
   341
1005
2AF4
1002
}
  0
DIMENSION
  5
3043
330
1A
100
AcDbEntity
  8
寸法線
 48
10.0
100
AcDbDimension
  2
*D8
 10
309.45047583131
 20
463.710182994724
 30
0.0
 11
309.45047583131
 21
526.535182994724
 31
0.0
 70
   160
  1
φ<>
  3
ISO-25
100
AcDbAlignedDimension
 13
309.45047583131
 23
506.110182994724
 33
0.0
 14
309.66483518331
 24
463.710182994724
 34
0.0
 50
90.0
100
AcDbRotatedDimension
1001
ACAD
1000
DSTYLE
1002
{
1070
     5
1000
OPEN30
1070
    41
1040
6.0
1070
    47
1040
0.1
1070
    48
1040
0.1
1070
    73
1070
     0
1070
   140
1040
8.0
1070
   271
1070
     1
1070
   272
1070
     1
1070
   341
1005
2AF4
1002
}
  0
LINE
  5
3081
330
1A
100
AcDbEntity
  8
中心線
 48
10.0
100
AcDbLine
 10
137.428195163067
 20
484.910182994724
 30
0.0
 11
468.664081678798
 21
484.910182994724
 31
0.0
  0
DIMENSION
  5
3082
330
1A
100
AcDbEntity
  8
寸法線
 48
10.0
100
AcDbDimension
  2
*D9
 10
129.197380730515
 20
474.910182994724
 30
0.0
 11
122.292115866543
 21
482.920493506349
 31
0.0
 70
   160
  1
φ<>
  3
ISO-25
100
AcDbAlignedDimension
 13
146.16483518331
 23
494.910182994724
 33
0.0
 14
146.16483518331
 24
474.910182994724
 34
0.0
 50
90.0
100
AcDbRotatedDimension
1001
ACAD
1000
DSTYLE
1002
{
1070
   287
1070
     5
1070
     5
1000
OPEN30
1070
    41
1040
6.0
1070
    47
1040
0.1
1070
    48
1040
0.1
1070
    73
1070
     0
1070
   140
1040
8.0
1070
   271
1070
     1
1070
   272
1070
     1
1070
   279
1070
     2
1070
   341
1005
2AF4
1002
}
  0
LINE
  5
3098
330
1A
100
AcDbEntity
  8
下書線
 48
10.0
100
AcDbLine
 10
272.16483518331
 20
387.410182994724
 30
0.0
 11
333.16483518331
 21
387.410182994724
 31
0.0
  0
DIMENSION
  5
3099
330
1A
100
AcDbEntity
  8
寸法線
 48
10.0
100
AcDbDimension
  2
*D10
 10
279.16483518331
 20
387.410182994724
 30
0.0
 11
212.66483518331
 21
392.035182994724
 31
0.0
 70
    32
  3
ISO-25
100
AcDbAlignedDimension
 13
146.16483518331
 23
474.910182994724
 33
0.0
 14
279.16483518331
 24
462.910182994724
 34
0.0
100
AcDbRotatedDimension
1001
ACAD
1000
DSTYLE
1002
{
1070
     5
1000
OPEN30
1070
    41
1040
6.0
1070
    47
1040
0.1
1070
    48
1040
0.1
1070
    73
1070
     0
1070
   140
1040
8.0
1070
   271
1070
     1
1070
   272
1070
     1
1070
   341
1005
2AF4
1002
}
  0
DIMENSION
  5
30AF
330
1A
100
AcDbEntity
  8
寸法線
 48
10.0
100
AcDbDimension
  2
*D11
 10
332.16483518331
 20
387.410182994724
 30
0.0
 11
342.66482018331
 21
392.035970396299
 31
0.0
 70
    32
  3
ISO-25
100
AcDbAlignedDimension
 13
353.16480518331
 23
457.410182994724
 33
0.0
 14
332.16483518331
 24
462.910182994724
 34
0.0
100
AcDbRotatedDimension
1001
ACAD
1000
DSTYLE
1002
{
1070
     5
1000
OPEN30
1070
    41
1040
6.0
1070
    47
1040
0.1
1070
    48
1040
0.1
1070
    73
1070
     0
1070
   140
1040
8.0
1070
   271
1070
     1
1070
   272
1070
     1
1070
   341
1005
2AF4
1002
}
  0
DIMENSION
  5
30BC
330
1A
100
AcDbEntity
  8
寸法線
 48
10.0
100
AcDbDimension
  2
*D12
 10
353.16480518331
 20
367.410182994724
 30
0.0
 11
249.66482018331
 21
372.035970396299
 31
0.0
 70
    32
  3
ISO-25
100
AcDbAlignedDimension
 13
146.16483518331
 23
386.160182994724
 33
0.0
 14
353.16480518331
 24
386.160182994724
 34
0.0
100
AcDbRotatedDimension
1001
ACAD
1000
DSTYLE
1002
{
1070
     5
1000
OPEN30
1070
    41
1040
6.0
1070
    47
1040
0.1
1070
    48
1040
0.1
1070
    73
1070
     0
1070
   140
1040
8.0
1070
   271
1070
     1
1070
   272
1070
     1
1070
   341
1005
2AF4
1002
}
  0
DIMENSION
  5
30D2
330
1A
100
AcDbEntity
  8
寸法線
 48
10.0
100
AcDbDimension
  2
*D13
 10
353.16480518331
 20
367.410182994724
 30
0.0
 11
410.914820183306
 21
372.035970396299
 31
0.0
 70
    32
  1
120
  3
ISO-25
100
AcDbAlignedDimension
 13
468.664835183302
 23
440.377512271074
 33
0.0
 14
353.16480518331
 24
386.160182994724
 34
0.0
100
AcDbRotatedDimension
1001
ACAD
1000
DSTYLE
1002
{
1070
     5
1000
OPEN30
1070
    41
1040
6.0
1070
    47
1040
0.1
1070
    48
1040
0.1
1070
    73
1070
     0
1070
   140
1040
8.0
1070
   271
1070
     1
1070
   272
1070
     1
1070
   341
1005
2AF4
1002
}
  0
MTEXT
  5
30E8
330
1A
100
AcDbEntity
  8
寸法線
 48
10.0
100
AcDbMText
 10
488.487163678091
 20
388.902207592986
 30
0.0
 40
8.0
 41
54.634281616298
 71
     1
 72
     5
  1
コードロック\P2×M20
  0
LEADER
  5
30EA
330
1A
100
AcDbEntity
  8
寸法線
 48
10.0
100
AcDbLeader
  3
ISO-25
 76
     3
 10
430.633483639795
 20
406.6561808623
 30
0.0
 10
486.956485347852
 20
367.410182994724
 30
0.0
 10
499.017885144494
 20
367.410182994724
 30
0.0
1001
ACAD
1000
DSTYLE
1002
{
1070
     5
1000
OPEN30
1070
   147
1040
0.625
1070
    77
1070
     0
1070
    41
1040
6.0
1070
    47
1040
0.1
1070
    48
1040
0.1
1070
    73
1070
     0
1070
   140
1040
5.0
1070
   271
1070
     1
1070
   272
1070
     1
1070
   341
1005
2AF4
1070
   342
1005
2AF4
1002
}
  0
MTEXT
  5
30ED
330
1A
100
AcDbEntity
  8
寸法線
 48
10.0
100
AcDbMText
 10
389.886799425522
 20
409.057621020004
 30
0.0
 40
8.0
 41
43.585115063315
 71
     3
 72
     5
  1
2×NPT 1/2"
  0
MTEXT
  5
30F0
330
1A
100
AcDbEntity
  8
寸法線
 48
10.0
100
AcDbMText
 10
439.089328331978
 20
572.264060934485
 30
0.0
 40
8.0
 41
52.299095688858
 71
     1
 72
     5
  1
アルミ鋳物
  0
MTEXT
  5
30F2
102
{ACAD_XDICTIONARY
360
3717
102
}
330
1A
100
AcDbEntity
  8
寸法線
 48
10.0
100
AcDbMText
 10
386.777124936983
 20
573.029187605071
 30
0.0
 40
8.0
 41
32.682938326441
 71
     1
 72
     5
  1
平径46
1001
ACADANNOTATIVE
1000
AnnotativeData
1002
{
1070
     1
1070
     0
1002
}
  0
MTEXT
  5
30F5
330
1A
100
AcDbEntity
  8
寸法線
 48
10.0
100
AcDbMText
 10
325.005101801422
 20
571.389107084928
 30
0.0
 40
8.0
 41
133.333333333333
 71
     1
 72
     5
  1
ガスケット
  0
MTEXT
  5
30F7
330
1A
100
AcDbEntity
  8
寸法線
 48
10.0
100
AcDbMText
 10
300.331348612967
 20
587.94217724702
 30
0.0
 40
8.0
 41
47.557441667843
 71
     3
 72
     5
  1
\A1;取付ねじ\PG1 {\H0.7x;\S1#2;}"
  0
MTEXT
  5
30F9
102
{ACAD_XDICTIONARY
360
4219
102
}
330
1A
100
AcDbEntity
  8
寸法線
 48
10.0
100
AcDbMText
 10
206.661549921213
 20
564.453574773926
 30
0.0
 40
8.0
 41
192.477192982456
 71
     9
 72
     5
  1
振動部（検知部）\PDIN1.4571(SUS316相当)
1001
ACADANNOTATIVE
1000
AnnotativeData
1002
{
1070
     1
1070
     0
1002
}
  0
LEADER
  5
30FB
330
1A
100
AcDbEntity
  8
寸法線
 48
10.0
100
AcDbLeader
  3
ISO-25
 76
     3
 10
408.437054685199
 20
531.968111493056
 30
0.0
 10
438.990001880947
 20
562.277532647651
 30
0.0
 10
451.118102493309
 20
562.277532647651
 30
0.0
1001
ACAD
1000
DSTYLE
1002
{
1070
     5
1000
OPEN30
1070
   147
1040
0.625
1070
    77
1070
     0
1070
    41
1040
6.0
1070
    47
1040
0.1
1070
    48
1040
0.1
1070
    73
1070
     0
1070
   140
1040
5.0
1070
   271
1070
     1
1070
   272
1070
     1
1070
   341
1005
2AF4
1070
   342
1005
2AF4
1002
}
  0
LEADER
  5
30FC
330
1A
100
AcDbEntity
  8
寸法線
 48
10.0
100
AcDbLeader
  3
ISO-25
 76
     3
 10
360.024657460617
 20
511.468295377447
 30
0.0
 10
385.703509557515
 20
562.277532647651
 30
0.0
 10
397.976653548963
 20
562.277532647651
 30
0.0
1001
ACAD
1000
DSTYLE
1002
{
1070
     5
1000
OPEN30
1070
   147
1040
0.625
1070
    77
1070
     0
1070
    41
1040
6.0
1070
    47
1040
0.1
1070
    48
1040
0.1
1070
    73
1070
     0
1070
   140
1040
5.0
1070
   271
1070
     1
1070
   272
1070
     1
1070
   341
1005
2AF4
1070
   342
1005
2AF4
1002
}
  0
LEADER
  5
30FD
330
1A
100
AcDbEntity
  8
寸法線
 48
10.0
100
AcDbLeader
  3
ISO-25
 76
     3
 10
352.16482018331
 20
512.410182994724
 30
0.0
 10
324.756003322843
 20
562.277532647651
 30
0.0
 10
337.24357289023
 20
562.277532647651
 30
0.0
1001
ACAD
1000
DSTYLE
1002
{
1070
     5
1000
OPEN30
1070
   147
1040
0.625
1070
    77
1070
     0
1070
    41
1040
6.0
1070
    47
1040
0.1
1070
    48
1040
0.1
1070
    73
1070
     0
1070
   140
1040
5.0
1070
   271
1070
     1
1070
   272
1070
     1
1070
   341
1005
2AF4
1070
   342
1005
2AF4
1002
}
  0
LEADER
  5
30FE
330
1A
100
AcDbEntity
  8
寸法線
 48
10.0
100
AcDbLeader
  3
ISO-25
 76
     3
 10
342.91669718331
 20
508.910182994724
 30
0.0
 10
301.283195002663
 20
562.277532647651
 30
0.0
 10
284.501684573364
 20
562.277532647651
 30
0.0
1001
ACAD
1000
DSTYLE
1002
{
1070
     5
1000
OPEN30
1070
   147
1040
0.625
1070
    77
1070
     0
1070
    41
1040
6.0
1070
    47
1040
0.1
1070
    48
1040
0.1
1070
    73
1070
     0
1070
   140
1040
5.0
1070
   271
1070
     1
1070
   272
1070
     1
1070
   341
1005
2AF4
1070
   342
1005
2AF4
1002
}
  0
LEADER
  5
3104
330
1A
100
AcDbEntity
  8
寸法線
 48
10.0
100
AcDbLeader
  3
ISO-25
 76
     3
 10
223.928703658006
 20
494.910182994724
 30
0.0
 10
207.054144484761
 20
562.277532647651
 30
0.0
 10
193.522498825183
 20
562.277532647651
 30
0.0
1001
ACAD
1000
DSTYLE
1002
{
1070
     5
1000
OPEN30
1070
   147
1040
0.625
1070
    77
1070
     0
1070
    41
1040
6.0
1070
    47
1040
0.1
1070
    48
1040
0.1
1070
    73
1070
     0
1070
   140
1040
5.0
1070
   271
1070
     1
1070
   272
1070
     1
1070
   341
1005
2AF4
1070
   342
1005
2AF4
1002
}
  0
LINE
  5
32A9
330
1A
100
AcDbEntity
  8
細線
100
AcDbLine
 10
424.821908442367
 20
416.880182994724
 30
0.0
 11
424.821908442367
 21
421.980182994724
 31
0.0
  0
LINE
  5
32AA
330
1A
100
AcDbEntity
  8
細線
100
AcDbLine
 10
422.821908442367
 20
416.880182994724
 30
0.0
 11
422.821908442367
 21
421.980182994724
 31
0.0
  0
LINE
  5
32AB
330
1A
100
AcDbEntity
  8
細線
100
AcDbLine
 10
411.821908442367
 20
416.880182994724
 30
0.0
 11
411.821908442367
 21
421.980182994724
 31
0.0
  0
LINE
  5
32AC
330
1A
100
AcDbEntity
  8
細線
100
AcDbLine
 10
409.821908442367
 20
416.880182994724
 30
0.0
 11
409.821908442367
 21
421.980182994724
 31
0.0
  0
LINE
  5
32AD
330
1A
100
AcDbEntity
  8
外形線
100
AcDbLine
 10
430.798658442367
 20
414.343382994724
 30
0.0
 11
430.798658442367
 21
403.96941515356
 31
0.0
  0
LINE
  5
32AE
330
1A
100
AcDbEntity
  8
外形線
100
AcDbLine
 10
429.552908442367
 20
402.973082994724
 30
0.0
 11
430.798658442367
 21
404.042162994724
 31
0.0
  0
ARC
  5
32AF
330
1A
100
AcDbEntity
  8
細線
100
AcDbCircle
 10
427.810283442366
 20
407.568529308687
 30
0.0
 40
4.622298618747672
100
AcDbArc
 50
229.720808613669
 51
310.279191386337
  0
ARC
  5
32B0
330
1A
100
AcDbEntity
  8
外形線
100
AcDbCircle
 10
425.928908442367
 20
402.257342994724
 30
0.0
 40
3.624
100
AcDbArc
 50
270.0
 51
0.0
  0
LINE
  5
32B1
330
1A
100
AcDbEntity
  8
外形線
100
AcDbLine
 10
429.552908442367
 20
402.257342994724
 30
0.0
 11
429.552908442367
 21
402.973082994724
 31
0.0
  0
LINE
  5
32B2
330
1A
100
AcDbEntity
  8
外形線
100
AcDbLine
 10
430.821908442367
 20
421.980182994724
 30
0.0
 11
430.821908442367
 21
416.880182994724
 31
0.0
  0
LINE
  5
32B3
330
1A
100
AcDbEntity
  8
細線
100
AcDbLine
 10
422.821908442367
 20
404.042162994724
 30
0.0
 11
422.821908442367
 21
414.343382994724
 31
0.0
  0
LINE
  5
32B4
330
1A
100
AcDbEntity
  8
細線
100
AcDbLine
 10
424.821908442367
 20
404.042162994724
 30
0.0
 11
424.821908442367
 21
414.343382994724
 31
0.0
  0
LINE
  5
32B5
330
1A
100
AcDbEntity
  8
細線
100
AcDbLine
 10
425.475908442367
 20
414.343382994724
 30
0.0
 11
425.475908442367
 21
416.880182994724
 31
0.0
  0
LINE
  5
32B6
330
1A
100
AcDbEntity
  8
外形線
100
AcDbLine
 10
426.381908442367
 20
414.343382994724
 30
0.0
 11
426.381908442367
 21
416.880182994724
 31
0.0
  0
LINE
  5
32B7
330
1A
100
AcDbEntity
  8
細線
100
AcDbLine
 10
426.321908442367
 20
423.660182994724
 30
0.0
 11
426.321908442367
 21
421.980182994724
 31
0.0
  0
LINE
  5
32B8
330
1A
100
AcDbEntity
  8
外形線
100
AcDbLine
 10
427.321908442367
 20
421.980182994724
 30
0.0
 11
427.321908442367
 21
423.660182994724
 31
0.0
  0
LINE
  5
32B9
330
1A
100
AcDbEntity
  8
細線
100
AcDbLine
 10
408.321908442367
 20
423.660182994724
 30
0.0
 11
408.321908442367
 21
421.980182994724
 31
0.0
  0
LINE
  5
32BA
330
1A
100
AcDbEntity
  8
細線
100
AcDbLine
 10
409.167908442367
 20
414.343382994724
 30
0.0
 11
409.167908442367
 21
416.880182994724
 31
0.0
  0
LINE
  5
32BB
330
1A
100
AcDbEntity
  8
外形線
100
AcDbLine
 10
407.321908442367
 20
421.980182994724
 30
0.0
 11
407.321908442367
 21
423.660182994724
 31
0.0
  0
ARC
  5
32BC
330
1A
100
AcDbEntity
  8
外形線
100
AcDbCircle
 10
408.714908442367
 20
402.257342994724
 30
0.0
 40
3.624
100
AcDbArc
 50
180.0
 51
270.0
  0
ARC
  5
32BD
330
1A
100
AcDbEntity
  8
細線
100
AcDbCircle
 10
406.833533442367
 20
407.568529308687
 30
0.0
 40
4.622298618747632
100
AcDbArc
 50
229.72080861366
 51
310.279191386331
  0
LINE
  5
32BE
330
1A
100
AcDbEntity
  8
外形線
100
AcDbLine
 10
405.090908442367
 20
402.973082994724
 30
0.0
 11
403.845158442367
 21
404.042162994724
 31
0.0
  0
LINE
  5
32BF
330
1A
100
AcDbEntity
  8
外形線
100
AcDbLine
 10
405.090908442367
 20
402.257342994724
 30
0.0
 11
405.090908442367
 21
402.973082994724
 31
0.0
  0
LINE
  5
32C0
330
1A
100
AcDbEntity
  8
外形線
100
AcDbLine
 10
408.261908442367
 20
414.343382994724
 30
0.0
 11
408.261908442367
 21
416.880182994724
 31
0.0
  0
LINE
  5
32C1
330
1A
100
AcDbEntity
  8
外形線
100
AcDbLine
 10
403.845158442367
 20
414.343382994724
 30
0.0
 11
403.845158442367
 21
404.042162994724
 31
0.0
  0
LINE
  5
32C2
330
1A
100
AcDbEntity
  8
外形線
100
AcDbLine
 10
403.845158442367
 20
414.343382994724
 30
0.0
 11
430.798658442367
 21
414.343382994724
 31
0.0
  0
LINE
  5
32C3
330
1A
100
AcDbEntity
  8
外形線
100
AcDbLine
 10
403.821908442367
 20
421.980182994724
 30
0.0
 11
403.821908442367
 21
416.880182994724
 31
0.0
  0
LINE
  5
32C4
330
1A
100
AcDbEntity
  8
細線
100
AcDbLine
 10
411.821908442367
 20
404.042162994724
 30
0.0
 11
411.821908442367
 21
414.343382994724
 31
0.0
  0
LINE
  5
32C5
330
1A
100
AcDbEntity
  8
細線
100
AcDbLine
 10
409.821908442367
 20
404.042162994724
 30
0.0
 11
409.821908442367
 21
414.343382994724
 31
0.0
  0
LINE
  5
32C6
330
1A
100
AcDbEntity
  8
外形線
100
AcDbLine
 10
403.821908442367
 20
416.880182994724
 30
0.0
 11
430.821908442367
 21
416.880182994724
 31
0.0
  0
LINE
  5
32C7
330
1A
100
AcDbEntity
  8
外形線
100
AcDbLine
 10
430.821908442367
 20
421.980182994724
 30
0.0
 11
403.821908442367
 21
421.980182994725
 31
0.0
  0
ARC
  5
32C8
330
1A
100
AcDbEntity
  8
細線
100
AcDbCircle
 10
417.321908442367
 20
417.64031275259
 30
0.0
 40
14.668322222986
100
AcDbArc
 50
247.978303068449
 51
292.021696931551
  0
LINE
  5
32C9
330
1A
100
AcDbEntity
  8
細線
100
AcDbLine
 10
422.821908442367
 20
404.042162994724
 30
0.0
 11
424.821908442367
 21
404.042162994724
 31
0.0
  0
LINE
  5
32CA
330
1A
100
AcDbEntity
  8
細線
100
AcDbLine
 10
409.821908442367
 20
404.042162994724
 30
0.0
 11
411.821908442366
 21
404.042162994724
 31
0.0
  0
LINE
  5
32CB
330
1A
100
AcDbEntity
  8
外形線
100
AcDbLine
 10
408.714908442367
 20
398.633342994724
 30
0.0
 11
425.928908442367
 21
398.633342994724
 31
0.0
  0
LINE
  5
32CC
330
1A
100
AcDbEntity
  8
細線
100
AcDbLine
 10
405.090908442367
 20
402.973082994724
 30
0.0
 11
429.481526104373
 21
402.973082994724
 31
0.0
  0
LINE
  5
32CD
330
1A
100
AcDbEntity
  8
中心線
 48
10.0
100
AcDbLine
 10
417.321908442367
 20
423.660182994724
 30
0.0
 11
417.321908442367
 21
390.552754994725
 31
0.0
  0
LINE
  5
33A8
330
1A
100
AcDbEntity
  8
寸法線
100
AcDbLine
 10
151.051745505765
 20
316.313012804074
 30
0.0
 11
151.051745505765
 21
266.313012804075
 31
0.0
  0
LINE
  5
33A9
330
1A
100
AcDbEntity
  8
寸法線
100
AcDbLine
 10
151.051745505765
 20
316.313012804074
 30
0.0
 11
5.851745505765
 21
316.313012804074
 31
0.0
  0
LINE
  5
33AA
330
1A
100
AcDbEntity
  8
寸法線
100
AcDbLine
 10
5.851745505765
 20
316.313012804074
 30
0.0
 11
5.851745505765
 21
266.313012804075
 31
0.0
  0
LINE
  5
33AB
330
1A
100
AcDbEntity
  8
寸法線
100
AcDbLine
 10
13.051745505765
 20
264.313012804075
 30
0.0
 11
13.051745505765
 21
226.313012804075
 31
0.0
  0
LINE
  5
33AC
330
1A
100
AcDbEntity
  8
寸法線
100
AcDbLine
 10
143.851745505765
 20
264.313012804075
 30
0.0
 11
143.851745505765
 21
226.313012804075
 31
0.0
  0
CIRCLE
  5
33AD
330
1A
100
AcDbEntity
  8
寸法線
100
AcDbCircle
 10
13.051745505765
 20
266.313012804075
 30
0.0
 40
2.0
  0
CIRCLE
  5
33AE
330
1A
100
AcDbEntity
  8
寸法線
100
AcDbCircle
 10
39.211745505765
 20
266.313012804075
 30
0.0
 40
2.0
  0
CIRCLE
  5
33AF
330
1A
100
AcDbEntity
  8
寸法線
100
AcDbCircle
 10
65.371745505765
 20
266.313012804075
 30
0.0
 40
2.0
  0
CIRCLE
  5
33B0
330
1A
100
AcDbEntity
  8
寸法線
100
AcDbCircle
 10
91.531745505765
 20
266.313012804075
 30
0.0
 40
2.0
  0
CIRCLE
  5
33B1
330
1A
100
AcDbEntity
  8
寸法線
100
AcDbCircle
 10
117.691745505765
 20
266.313012804075
 30
0.0
 40
2.0
  0
CIRCLE
  5
33B2
330
1A
100
AcDbEntity
  8
寸法線
100
AcDbCircle
 10
143.851745505765
 20
266.313012804075
 30
0.0
 40
2.0
  0
LINE
  5
33B3
330
1A
100
AcDbEntity
  8
寸法線
100
AcDbLine
 10
39.211745505765
 20
264.313012804075
 30
0.0
 11
39.211745505765
 21
226.313012804075
 31
0.0
  0
LINE
  5
33B4
330
1A
100
AcDbEntity
  8
寸法線
100
AcDbLine
 10
65.371745505765
 20
264.313012804075
 30
0.0
 11
65.371745505765
 21
226.313012804075
 31
0.0
  0
LINE
  5
33B5
330
1A
100
AcDbEntity
  8
寸法線
100
AcDbLine
 10
91.531745505765
 20
264.313012804075
 30
0.0
 11
91.531745505765
 21
226.313012804075
 31
0.0
  0
LINE
  5
33B6
330
1A
100
AcDbEntity
  8
寸法線
100
AcDbLine
 10
117.691745505765
 20
264.313012804075
 30
0.0
 11
117.691745505765
 21
226.313012804075
 31
0.0
  0
LINE
  5
33B7
330
1A
100
AcDbEntity
  8
寸法線
100
AcDbLine
 10
11.051745505765
 20
266.313012804075
 30
0.0
 11
5.851745505765
 21
266.313012804075
 31
0.0
  0
LINE
  5
33B8
330
1A
100
AcDbEntity
  8
寸法線
100
AcDbLine
 10
15.051745505765
 20
266.313012804075
 30
0.0
 11
37.211745505765
 21
266.313012804075
 31
0.0
  0
LINE
  5
33B9
330
1A
100
AcDbEntity
  8
寸法線
100
AcDbLine
 10
41.211745505765
 20
266.313012804075
 30
0.0
 11
63.371745505765
 21
266.313012804075
 31
0.0
  0
LINE
  5
33BA
330
1A
100
AcDbEntity
  8
寸法線
100
AcDbLine
 10
67.371745505765
 20
266.313012804075
 30
0.0
 11
89.531745505765
 21
266.313012804075
 31
0.0
  0
LINE
  5
33BB
330
1A
100
AcDbEntity
  8
寸法線
100
AcDbLine
 10
93.531745505765
 20
266.313012804075
 30
0.0
 11
115.691745505765
 21
266.313012804075
 31
0.0
  0
LINE
  5
33BC
330
1A
100
AcDbEntity
  8
寸法線
100
AcDbLine
 10
119.691745505765
 20
266.313012804075
 30
0.0
 11
141.851745505765
 21
266.313012804075
 31
0.0
  0
LINE
  5
33BD
330
1A
100
AcDbEntity
  8
寸法線
100
AcDbLine
 10
151.051745505765
 20
266.313012804075
 30
0.0
 11
145.851745505765
 21
266.313012804075
 31
0.0
  0
CIRCLE
  5
33BE
330
1A
100
AcDbEntity
  8
寸法線
100
AcDbCircle
 10
12.851745505765
 20
275.313012804075
 30
0.0
 40
5.0
  0
CIRCLE
  5
33C0
330
1A
100
AcDbEntity
  8
寸法線
100
AcDbCircle
 10
39.251745505765
 20
275.313012804075
 30
0.0
 40
5.0
  0
CIRCLE
  5
33C2
330
1A
100
AcDbEntity
  8
寸法線
100
AcDbCircle
 10
65.451745505765
 20
275.313012804075
 30
0.0
 40
5.0
  0
CIRCLE
  5
33C4
330
1A
100
AcDbEntity
  8
寸法線
100
AcDbCircle
 10
91.651745505765
 20
275.313012804075
 30
0.0
 40
5.0
  0
CIRCLE
  5
33C6
330
1A
100
AcDbEntity
  8
寸法線
100
AcDbCircle
 10
117.851745505765
 20
275.313012804075
 30
0.0
 40
5.0
  0
CIRCLE
  5
33C8
330
1A
100
AcDbEntity
  8
寸法線
100
AcDbCircle
 10
144.051745505765
 20
275.313012804075
 30
0.0
 40
5.0
  0
LINE
  5
33D0
330
1A
100
AcDbEntity
  8
寸法線
100
AcDbLine
 10
3.851745505765
 20
264.313012804075
 30
0.0
 11
3.851745505765
 21
318.313012804074
 31
0.0
  0
LINE
  5
33D1
330
1A
100
AcDbEntity
  8
寸法線
100
AcDbLine
 10
3.851745505765
 20
318.313012804074
 30
0.0
 11
153.051745505765
 21
318.313012804074
 31
0.0
  0
LINE
  5
33D2
330
1A
100
AcDbEntity
  8
寸法線
100
AcDbLine
 10
153.051745505765
 20
264.313012804075
 30
0.0
 11
153.051745505765
 21
318.313012804074
 31
0.0
  0
LINE
  5
33D3
330
1A
100
AcDbEntity
  8
寸法線
100
AcDbLine
 10
3.851745505765
 20
264.313012804075
 30
0.0
 11
153.051745505765
 21
264.313012804075
 31
0.0
  0
LINE
  5
33D4
330
1A
100
AcDbEntity
  8
寸法線
100
AcDbLine
 10
143.851745505765
 20
281.113012804075
 30
0.0
 11
143.851745505765
 21
309.513012804074
 31
0.0
  0
LINE
  5
33D5
330
1A
100
AcDbEntity
  8
寸法線
100
AcDbLine
 10
117.691745505765
 20
281.313012804075
 30
0.0
 11
117.691745505765
 21
290.713012804074
 31
0.0
  0
LINE
  5
33D6
330
1A
100
AcDbEntity
  8
寸法線
100
AcDbLine
 10
91.531745505765
 20
281.313012804075
 30
0.0
 11
91.531745505765
 21
309.513012804074
 31
0.0
  0
CIRCLE
  5
33D7
330
1A
100
AcDbEntity
  8
寸法線
100
AcDbCircle
 10
117.691745505765
 20
292.713012804074
 30
0.0
 40
2.0
  0
LINE
  5
33D8
330
1A
100
AcDbEntity
  8
寸法線
100
AcDbLine
 10
108.761093091906
 20
309.513012804074
 30
0.0
 11
91.531745505765
 21
309.513012804074
 31
0.0
  0
LINE
  5
33D9
330
1A
100
AcDbEntity
  8
寸法線
100
AcDbLine
 10
117.532255061199
 20
294.706643361146
 30
0.0
 11
131.891811381847
 21
310.913012804074
 31
0.0
  0
LINE
  5
33DB
330
1A
100
AcDbEntity
  8
寸法線
100
AcDbLine
 10
130.731745505765
 20
309.513012804074
 30
0.0
 11
143.851745505765
 21
309.513012804074
 31
0.0
  0
POINT
  5
33DC
330
1A
100
AcDbEntity
  8
寸法線
100
AcDbPoint
 10
78.451745505765
 20
266.313012804075
 30
0.0
  0
LINE
  5
33DD
330
1A
100
AcDbEntity
  8
寸法線
100
AcDbLine
 10
78.451745505765
 20
257.893012804074
 30
0.0
 11
78.451745505765
 21
254.353012804075
 31
0.0
  0
CIRCLE
  5
33DE
330
1A
100
AcDbEntity
  8
寸法線
100
AcDbCircle
 10
78.451745505765
 20
252.893012804074
 30
0.0
 40
5.0
  0
LINE
  5
33DF
330
1A
100
AcDbEntity
  8
寸法線
100
AcDbLine
 10
74.791745505765
 20
254.353012804075
 30
0.0
 11
82.311745505765
 21
254.353012804075
 31
0.0
  0
LINE
  5
33E0
330
1A
100
AcDbEntity
  8
寸法線
100
AcDbLine
 10
76.331745505765
 20
252.553012804074
 30
0.0
 11
80.751745505765
 21
252.553012804074
 31
0.0
  0
LINE
  5
33E1
330
1A
100
AcDbEntity
  8
寸法線
100
AcDbLine
 10
77.551745505765
 20
250.813012804075
 30
0.0
 11
79.631745505765
 21
250.813012804075
 31
0.0
  0
LINE
  5
33E2
330
1A
100
AcDbEntity
  8
寸法線
100
AcDbLine
 10
74.051745505765
 20
275.113012804075
 30
0.0
 11
82.851745505765
 21
275.113012804075
 31
0.0
  0
POINT
  5
33E3
330
1A
100
AcDbEntity
  8
寸法線
100
AcDbPoint
 10
78.451745505765
 20
270.713012804074
 30
0.0
  0
CIRCLE
  5
33E4
330
1A
100
AcDbEntity
  8
寸法線
100
AcDbCircle
 10
78.451745505765
 20
270.713012804074
 30
0.0
 40
4.40000000000004
  0
LINE
  5
33E5
330
1A
100
AcDbEntity
  8
寸法線
100
AcDbLine
 10
74.051745505765
 20
266.313012804075
 30
0.0
 11
74.051745505765
 21
275.113012804075
 31
0.0
  0
LINE
  5
33E6
330
1A
100
AcDbEntity
  8
寸法線
100
AcDbLine
 10
82.851745505765
 20
266.313012804075
 30
0.0
 11
82.851745505765
 21
275.113012804075
 31
0.0
  0
LINE
  5
33E7
330
1A
100
AcDbEntity
  8
寸法線
100
AcDbLine
 10
80.451745505765
 20
270.713012804074
 30
0.0
 11
76.451745505765
 21
270.713012804074
 31
0.0
  0
LINE
  5
33E8
330
1A
100
AcDbEntity
  8
寸法線
100
AcDbLine
 10
78.451745505765
 20
268.713012804074
 30
0.0
 11
78.451745505765
 21
272.713012804074
 31
0.0
  0
LINE
  5
33E9
330
1A
100
AcDbEntity
  8
寸法線
100
AcDbLine
 10
78.451745505765
 20
266.313012804075
 30
0.0
 11
78.451745505765
 21
257.893012804074
 31
0.0
  0
MTEXT
  5
3454
102
{ACAD_XDICTIONARY
360
3D36
102
}
330
1A
100
AcDbEntity
  8
寸法線
 48
10.0
100
AcDbMText
 10
8.434966456477
 20
313.184447249097
 30
0.0
 40
8.0
 41
95.557777777778
 71
     1
 72
     5
  1
\C1;RKH-502
1001
ACADANNOTATIVE
1000
AnnotativeData
1002
{
1070
     1
1070
     0
1002
}
  0
MTEXT
  5
3455
330
1A
100
AcDbEntity
  8
寸法線
 48
10.0
100
AcDbMText
 10
11.652112618673
 20
278.519574492737
 30
0.0
 40
7.0
 41
95.557777777778
 71
     1
 72
     5
  1
{\C1;1}
  0
MTEXT
  5
3456
330
1A
100
AcDbEntity
  8
寸法線
 48
10.0
100
AcDbMText
 10
37.671833410697
 20
278.519574492737
 30
0.0
 40
7.0
 41
95.557777777778
 71
     1
 72
     5
  1
{\C1;2}
  0
MTEXT
  5
3457
330
1A
100
AcDbEntity
  8
寸法線
 48
10.0
100
AcDbMText
 10
64.094921596571
 20
278.519574492737
 30
0.0
 40
7.0
 41
95.557777777778
 71
     1
 72
     5
  1
{\C1;3}
  0
MTEXT
  5
3458
330
1A
100
AcDbEntity
  8
寸法線
 48
10.0
100
AcDbMText
 10
90.079732667538
 20
278.519574492737
 30
0.0
 40
7.0
 41
95.557777777778
 71
     1
 72
     5
  1
{\C1;4}
  0
MTEXT
  5
3459
330
1A
100
AcDbEntity
  8
寸法線
 48
10.0
100
AcDbMText
 10
116.662068266359
 20
278.519574492737
 30
0.0
 40
7.0
 41
95.557777777778
 71
     1
 72
     5
  1
{\C1;5}
  0
MTEXT
  5
345A
330
1A
100
AcDbEntity
  8
寸法線
 48
10.0
100
AcDbMText
 10
142.26287052641
 20
278.519574492737
 30
0.0
 40
7.0
 41
95.557777777778
 71
     1
 72
     5
  1
{\C1;6}
  0
MTEXT
  5
345B
330
1A
100
AcDbEntity
  8
寸法線
 48
10.0
100
AcDbMText
 10
9.064510354883
 20
223.667276872528
 30
0.0
 40
8.0
 41
95.557777777778
 71
     1
 72
     5
  1
{\C1;PE}
  0
MTEXT
  5
345C
330
1A
100
AcDbEntity
  8
寸法線
 48
10.0
100
AcDbMText
 10
36.825351605319
 20
223.667276872528
 30
0.0
 40
8.0
 41
95.557777777778
 71
     1
 72
     5
  1
{\C1;N}
  0
MTEXT
  5
345D
330
1A
100
AcDbEntity
  8
寸法線
 48
10.0
100
AcDbMText
 10
62.719028308665
 20
223.667276872528
 30
0.0
 40
8.0
 41
95.557777777778
 71
     1
 72
     5
  1
{\C1;L1}
  0
MTEXT
  5
345E
330
1A
100
AcDbEntity
  8
寸法線
 48
10.0
100
AcDbMText
 10
86.981806886161
 20
223.667276872528
 30
0.0
 40
8.0
 41
95.557777777778
 71
     1
 72
     5
  1
{\C1;NO}
  0
MTEXT
  5
345F
330
1A
100
AcDbEntity
  8
寸法線
 48
10.0
100
AcDbMText
 10
115.480781263153
 20
223.667276872528
 30
0.0
 40
8.0
 41
95.557777777778
 71
     1
 72
     5
  1
{\C1;C}
  0
MTEXT
  5
3460
330
1A
100
AcDbEntity
  8
寸法線
 48
10.0
100
AcDbMText
 10
138.098482459558
 20
223.667276872528
 30
0.0
 40
8.0
 41
95.557777777778
 71
     1
 72
     5
  1
{\C1;NC}
  0
MTEXT
  5
346D
330
1A
100
AcDbEntity
  8
寸法線
 48
10.0
100
AcDbMText
 10
184.716000887634
 20
271.369623731494
 30
0.0
 40
7.0
 41
125.633939393939
 71
     1
 72
     5
  1
{\C1;：グランド\P：電源\P：電源\P：コモン\P：オープン（クローズ）\P：クローズ（オープン）}
  0
MTEXT
  5
346E
330
1A
100
AcDbEntity
  8
寸法線
 48
10.0
100
AcDbMText
 10
172.825808087898
 20
271.369623731494
 30
0.0
 40
7.0
 41
125.633939393939
 71
     1
 72
     5
  1
{\C1;PE\PN\PL1\PC\PNO\PNC}
  0
LEADER
  5
34F2
330
1A
100
AcDbEntity
  8
寸法線
 48
10.0
100
AcDbLeader
  3
ISO-25
 76
     2
 10
411.399056782445
 20
435.491313996459
 30
0.0
 10
390.558114223119
 20
387.410182994724
 30
0.0
1001
ACAD
1000
DSTYLE
1002
{
1070
     5
1000
OPEN30
1070
   147
1040
0.625
1070
    77
1070
     0
1070
    41
1040
6.0
1070
    47
1040
0.1
1070
    48
1040
0.1
1070
    73
1070
     0
1070
   140
1040
5.0
1070
   271
1070
     1
1070
   272
1070
     1
1070
   341
1005
2AF4
1070
   342
1005
2AF4
1002
}
  0
LINE
  5
34F3
330
1A
100
AcDbEntity
  8
寸法線
 48
10.0
100
AcDbLine
 10
380.093855739952
 20
387.410182994724
 30
0.0
 11
390.558114223119
 21
387.410182994724
 31
0.0
  0
MTEXT
  5
3608
102
{ACAD_XDICTIONARY
360
396F
102
}
330
1A
100
AcDbEntity
  8
寸法線
 48
10.0
100
AcDbMText
 10
170.510018039132
 20
294.130201505505
 30
0.0
 40
8.0
 41
124.815667100994
 71
     1
 72
     5
  1
電源電圧：AC/DC20～255V
1001
ACADANNOTATIVE
1000
AnnotativeData
1002
{
1070
     1
1070
     0
1002
}
  0
ARC
  5
3706
330
1A
100
AcDbEntity
  8
外形線
100
AcDbCircle
 10
364.32326331512
 20
504.031352618219
 30
0.0
 40
10.80062720349224
100
AcDbArc
 50
158.043722344202
 51
212.74526849045
  0
ARC
  5
3707
330
1A
100
AcDbEntity
  8
外形線
100
AcDbCircle
 10
356.38993034451
 20
504.031352618219
 30
0.0
 40
10.80062720349224
100
AcDbArc
 50
327.25473150955
 51
21.956277655792
  0
ARC
  5
3708
330
1A
100
AcDbEntity
  8
外形線
100
AcDbCircle
 10
356.38993034451
 20
465.789013371229
 30
0.0
 40
10.80062720349224
100
AcDbArc
 50
338.04372234421
 51
32.74526849045
  0
MTEXT
  5
3DCB
330
1A
100
AcDbEntity
  8
寸法線
 48
10.0
100
AcDbMText
 10
133.901063609039
 20
211.75579571115
 30
0.0
 40
8.0
 41
95.557777777778
 71
     1
 72
     5
  1
{\C1;（NO）}
  0
MTEXT
  5
3DCC
330
1A
100
AcDbEntity
  8
寸法線
 48
10.0
100
AcDbMText
 10
82.851484384204
 20
211.75579571115
 30
0.0
 40
8.0
 41
95.557777777778
 71
     1
 72
     5
  1
{\C1;（NC）}
  0
VIEWPORT
  5
2902
330
28FB
100
AcDbEntity
 67
     1
  8
0
 48
10.0
100
AcDbViewport
 10
0.0
 20
0.0
 30
0.0
 40
552.319156214367
 41
300.3
 68
     1
 69
     1
1001
ACAD
1000
MVIEW
1002
{
1070
    16
1010
0.0
1020
0.0
1030
0.0
1010
0.0
1020
0.0
1030
1.0
1040
0.0
1040
300.3
1040
205.756503333333
1040
143.551503333333
1040
50.0
1040
0.0
1040
0.0
1070
    16
1070
   100
1070
     0
1070
     1
1070
     0
1070
     0
1070
     0
1070
     0
1040
0.0
1040
0.0
1040
0.0
1040
10.0
1040
10.0
1040
10.0
1040
10.0
1070
     0
1002
{
1002
}
1002
}
  0
VIEWPORT
  5
2904
330
28FB
100
AcDbEntity
 67
     1
  8
図枠太線
 48
10.0
100
AcDbViewport
 10
204.746305129083
 20
164.103050303491
 30
0.0
 40
400.0
 41
240.0
 68
     2
 69
     2
1001
ACAD
1000
MVIEW
1002
{
1070
    16
1010
0.0
1020
0.0
1030
0.0
1010
0.0
1020
0.0
1030
1.0
1040
0.0
1040
480.0
1040
292.2259994307
1040
409.569265936157
1040
50.0
1040
0.0
1040
0.0
1070
    16
1070
   100
1070
     0
1070
     0
1070
     0
1070
     0
1070
     0
1070
     0
1040
0.0
1040
0.0
1040
0.0
1040
1.0
1040
1.0
1040
0.0
1040
0.0
1070
     0
1002
{
1002
}
1002
}
  0
INSERT
  5
2A59
330
28FB
100
AcDbEntity
 67
     1
  8
図枠太線
100
AcDbBlockReference
  2
A3横用_タイトル
 10
-0.352109406709
 20
0.577090549964
 30
0.0
  0
MTEXT
  5
2FE3
330
28FB
100
AcDbEntity
 67
     1
  8
寸法線
 48
10.0
100
AcDbMText
 10
149.281561913196
 20
16.445242951052
 30
0.0
 40
7.0
 41
10.579051054442
 71
     1
 72
     5
  1
1:2
  0
MTEXT
  5
2FE7
102
{ACAD_XDICTIONARY
360
396C
102
}
330
28FB
100
AcDbEntity
 67
     1
  8
寸法線
 48
10.0
100
AcDbMText
 10
315.374226645493
 20
35.136254764722
 30
0.0
 40
6.0
 41
53.647044270833
 71
     1
 72
     5
  1
RKH-502-1
1001
ACADANNOTATIVE
1000
AnnotativeData
1002
{
1070
     1
1070
     0
1002
}
  0
MTEXT
  5
2FE8
330
28FB
100
AcDbEntity
 67
     1
  8
寸法線
 48
10.0
100
AcDbMText
 10
363.539867762772
 20
40.870211078861
 30
0.0
 40
6.0
 41
50.761524795071
 71
     1
 72
     5
  1
{\H0.8333x;振動式\Pレベルスイッチ}
  0
MTEXT
  5
3100
330
28FB
100
AcDbEntity
 67
     1
  8
寸法線
 48
10.0
100
AcDbMText
 10
272.300488718679
 20
51.494326692734
 30
0.0
 40
5.0
 41
58.550841599714
 71
     1
 72
     5
  1
A3縮小図
  0
LINE
  5
3101
330
28FB
100
AcDbEntity
 67
     1
  8
寸法線
 48
10.0
100
AcDbLine
 10
272.300488718679
 20
45.622607365098
 30
0.0
 11
296.843718665885
 21
45.622607365098
 31
0.0
  0
MTEXT
  5
342E
102
{ACAD_XDICTIONARY
360
371B
102
}
330
28FB
100
AcDbEntity
 67
     1
  8
寸法線
 48
10.0
100
AcDbMText
 10
372.465344924676
 20
54.103326710236
 30
0.0
 40
5.0
 41
54.683098362957
 71
     1
 72
     5
  1
\C1;台数 　 台
1001
ACADANNOTATIVE
1000
AnnotativeData
1002
{
1070
     1
1070
     0
1002
}
  0
MTEXT
  5
3513
102
{ACAD_XDICTIONARY
360
3966
102
}
330
28FB
100
AcDbEntity
 67
     1
  8
寸法線
 48
10.0
100
AcDbMText
 10
340.362463750271
 20
16.430114211962
 30
0.0
 40
7.0
 41
68.56
 71
     1
 72
     5
  1
HVR-2001
1001
ACADANNOTATIVE
1000
AnnotativeData
1002
{
1070
     1
1070
     0
1002
}
  0
MTEXT
  5
3B04
102
{ACAD_XDICTIONARY
360
3B05
102
}
330
28FB
100
AcDbEntity
 67
     1
  8
寸法線
 48
10.0
100
AcDbMText
 10
175.506541278264
 20
15.526005739092
 30
0.0
 40
5.0
 41
60.244444444444
 71
     1
 72
     5
  1
2015.8.25
1001
ACADANNOTATIVE
1000
AnnotativeData
1002
{
1070
     1
1070
     0
1002
}
  0
MTEXT
  5
3B08
102
{ACAD_XDICTIONARY
360
3B09
102
}
330
28FB
100
AcDbEntity
 67
     1
  8
寸法線
 48
10.0
100
AcDbMText
 10
173.953401409015
 20
35.331631596786
 30
0.0
 40
5.0
 41
24.595673902063
 71
     1
 72
     5
  1
takahashi
1001
ACADANNOTATIVE
1000
AnnotativeData
1002
{
1070
     1
1070
     0
1002
}
  0
MTEXT
  5
4317
102
{ACAD_XDICTIONARY
360
4318
102
}
330
28FB
100
AcDbEntity
 67
     1
  8
下書線
 48
10.0
100
AcDbMText
 10
65.284523980018
 20
164.130332762885
 30
0.0
 40
10.0
 41
174.128675272846
 71
     5
 72
     5
  1
HP掲載図面\P変更・追記不可
1001
ACADANNOTATIVE
1000
AnnotativeData
1002
{
1070
     1
1070
     0
1002
}
  0
LWPOLYLINE
  5
431B
330
28FB
100
AcDbEntity
 67
     1
  8
下書線
 48
10.0
100
AcDbPolyline
 90
        4
 70
     1
 43
0.0
 10
23.054378726447
 20
182.556937594285
 10
106.888542490203
 20
182.556937594285
 10
106.888542490203
 20
145.434798658305
 10
23.054378726447
 20
145.434798658305
  0
MTEXT
  5
447E
102
{ACAD_XDICTIONARY
360
447F
102
}
330
28FB
100
AcDbEntity
 67
     1
  8
寸法線
 48
10.0
100
AcDbMText
 10
154.696305129083
 20
32.103051303491
 30
0.0
 40
4.5
 41
29.906507692735
 71
     5
 72
     5
  1
tahara
1001
ACADANNOTATIVE
1000
AnnotativeData
1002
{
1070
     1
1070
     0
1002
}
  0
MTEXT
  5
4482
102
{ACAD_XDICTIONARY
360
4483
102
}
330
28FB
100
AcDbEntity
 67
     1
  8
寸法線
 48
10.0
100
AcDbMText
 10
121.396304528483
 20
32.103051303491
 30
0.0
 40
4.5
 41
16.097226867587
 71
     5
 72
     5
  1
konishi
1001
ACADANNOTATIVE
1000
AnnotativeData
1002
{
1070
     1
1070
     0
1002
}
  0
ENDSEC
  0
SECTION
  2
OBJECTS
  0
DICTIONARY
  5
C
330
0
100
AcDbDictionary
  3
ACAD_COLOR
350
2948
  3
ACAD_GROUP
350
D
  3
ACAD_LAYOUT
350
2816
  3
ACAD_MATERIAL
350
2947
  3
ACAD_MLEADERSTYLE
350
36F3
  3
ACAD_MLINESTYLE
350
E
  3
ACAD_PLOTSETTINGS
350
2817
  3
ACAD_SCALELIST
350
36CC
  3
ACAD_VISUALSTYLE
350
36B3
  3
ACADDIM
350
30EB
  3
ACDBHEADERROUNDTRIPXREC
350
454E
  3
ACDBVARIABLEDICTIONARY
350
3739
  3
DWGPROPS
350
4573
  0
DICTIONARY
  5
4574
330
8
100
AcDbDictionary
280
     1
  3
ACAD_XREC_ROUNDTRIP
360
4575
  0
DICTIONARY
  5
29EA
330
2
100
AcDbDictionary
280
     1
  3
ACAD_LAYERFILTERS
360
2B0C
  3
ACAD_LAYERSTATES
360
29EB
  0
DICTIONARY
  5
3717
330
30F2
100
AcDbDictionary
280
     1
  3
ACDBCONTEXTDATAMANAGER
360
3718
  0
DICTIONARY
  5
4219
330
30F9
100
AcDbDictionary
280
     1
  3
ACDBCONTEXTDATAMANAGER
360
421A
  0
DICTIONARY
  5
3D36
330
3454
100
AcDbDictionary
280
     1
  3
ACDBCONTEXTDATAMANAGER
360
3D37
  0
DICTIONARY
  5
396F
330
3608
100
AcDbDictionary
280
     1
  3
ACDBCONTEXTDATAMANAGER
360
3970
  0
DICTIONARY
  5
396C
330
2FE7
100
AcDbDictionary
280
     1
  3
ACDBCONTEXTDATAMANAGER
360
396D
  0
DICTIONARY
  5
371B
330
342E
100
AcDbDictionary
280
     1
  3
ACDBCONTEXTDATAMANAGER
360
371C
  0
DICTIONARY
  5
3966
330
3513
100
AcDbDictionary
280
     1
  3
ACDBCONTEXTDATAMANAGER
360
3967
  0
DICTIONARY
  5
3B05
330
3B04
100
AcDbDictionary
280
     1
  3
ACDBCONTEXTDATAMANAGER
360
3B06
  0
DICTIONARY
  5
3B09
330
3B08
100
AcDbDictionary
280
     1
  3
ACDBCONTEXTDATAMANAGER
360
3B0A
  0
DICTIONARY
  5
4318
330
4317
100
AcDbDictionary
280
     1
  3
ACDBCONTEXTDATAMANAGER
360
4319
  0
DICTIONARY
  5
447F
330
447E
100
AcDbDictionary
280
     1
  3
ACDBCONTEXTDATAMANAGER
360
4480
  0
DICTIONARY
  5
4483
330
4482
100
AcDbDictionary
280
     1
  3
ACDBCONTEXTDATAMANAGER
360
4484
  0
DICTIONARY
  5
2948
102
{ACAD_REACTORS
330
C
102
}
330
C
100
AcDbDictionary
  0
DICTIONARY
  5
D
102
{ACAD_REACTORS
330
C
102
}
330
C
100
AcDbDictionary
  0
DICTIONARY
  5
2816
102
{ACAD_REACTORS
330
C
102
}
330
C
100
AcDbDictionary
  0
DICTIONARY
  5
2947
102
{ACAD_REACTORS
330
C
102
}
330
C
100
AcDbDictionary
  3
BYBLOCK
350
36EF
  3
BYLAYER
350
36EE
  3
GLOBAL
350
36F0
  0
DICTIONARY
  5
36F3
102
{ACAD_REACTORS
330
C
102
}
330
C
100
AcDbDictionary
  3
STANDARD
350
36F4
  0
DICTIONARY
  5
E
102
{ACAD_REACTORS
330
C
102
}
330
C
100
AcDbDictionary
  3
STANDARD
350
13
  0
DICTIONARY
  5
2817
102
{ACAD_REACTORS
330
C
102
}
330
C
100
AcDbDictionary
  0
DICTIONARY
  5
36CC
102
{ACAD_REACTORS
330
C
102
}
330
C
100
AcDbDictionary
  3
A0
350
36CD
  3
A1
350
36CE
  3
A2
350
36CF
  3
A3
350
36D0
  3
A4
350
36D1
  3
A5
350
36D2
  3
A6
350
36D3
  3
A7
350
36D4
  3
A8
350
36D5
  3
A9
350
36D6
  3
B0
350
36D7
  3
B1
350
36D8
  3
B2
350
36D9
  3
B3
350
36DA
  3
B4
350
36DB
  3
B5
350
36DC
  3
B6
350
36DD
  3
B7
350
36DE
  3
B8
350
36DF
  3
B9
350
36E0
  3
C0
350
36E1
  3
C1
350
36E2
  3
C2
350
36E3
  3
C3
350
36E4
  3
C4
350
36E5
  3
C5
350
36E6
  3
C6
350
36E7
  3
C7
350
36E8
  3
C8
350
36E9
  3
C9
350
36EA
  3
D0
350
36EB
  3
D1
350
36EC
  3
D2
350
36ED
  0
DICTIONARY
  5
36B3
102
{ACAD_REACTORS
330
C
102
}
330
C
100
AcDbDictionary
  3
2DWIREFRAME
350
36B8
  3
BASIC
350
36BB
  3
BRIGHTEN
350
36BF
  3
COLORCHANGE
350
36C3
  3
CONCEPTUAL
350
36BD
  3
DIM
350
36BE
  3
EDGECOLOROFF
350
36C6
  3
FACEPATTERN
350
36C2
  3
FLAT
350
36B4
  3
FLATWITHEDGES
350
36B5
  3
GOURAUD
350
36B6
  3
GOURAUDWITHEDGES
350
36B7
  3
HIDDEN
350
36BA
  3
JITTEROFF
350
36C4
  3
LINEPATTERN
350
36C1
  3
MODELING
350
37D5
  3
OVERHANGOFF
350
36C5
  3
REALISTIC
350
36BC
  3
SHADED
350
36CB
  3
SHADED_WITH_EDGES
350
36CA
  3
SHADES_OF_GRAY
350
36C7
  3
SKETCHY
350
36C8
  3
THICKEN
350
36C0
  3
WIREFRAME
350
36B9
  3
X-RAY
350
36C9
  0
XRECORD
  5
30EB
102
{ACAD_REACTORS
330
C
102
}
330
C
100
AcDbXrecord
 90
   990106
  3

 60
     0
 61
     0
 62
     1
 63
     3
 64
     0
 65
     0
 66
     0
 67
     3
 68
     1
 69
     0
 70
     0
 71
     0
 72
     0
 40
0.0
170
     0
  0
DICTIONARY
  5
454E
102
{ACAD_REACTORS
330
C
102
}
330
C
100
AcDbDictionary
  3
CEPSNID
350
4558
  3
CEPSNTYPE
350
4557
  3
COLORDICT
350
4571
  3
DIMSTYLEDATA
350
456E
  3
FINGERPRINTGUID
350
4559
  3
HYPERLINKBASE
350
4551
  3
INSUNITS
350
4556
  3
LAYOUTDICT
350
4553
  3
LWETCUNION
350
4555
  3
MATERIALDICT
350
4572
  3
PLOTSETDICT
350
4554
  3
PSVPSCALE
350
455B
  3
PUCSBASE
350
455E
  3
PUCSORGBACK
350
4564
  3
PUCSORGBOTTOM
350
4560
  3
PUCSORGFRONT
350
4563
  3
PUCSORGLEFT
350
4561
  3
PUCSORGRIGHT
350
4562
  3
PUCSORGTOP
350
455F
  3
PUCSORTHOREF
350
455C
  3
PUCSORTHOVIEW
350
455D
  3
STYLESHEET
350
4552
  3
TSTACKALIGN
350
454F
  3
TSTACKSIZE
350
4550
  3
UCSBASE
350
4567
  3
UCSORGBACK
350
456D
  3
UCSORGBOTTOM
350
4569
  3
UCSORGFRONT
350
456C
  3
UCSORGLEFT
350
456A
  3
UCSORGRIGHT
350
456B
  3
UCSORGTOP
350
4568
  3
UCSORTHOREF
350
4565
  3
UCSORTHOVIEW
350
4566
  3
VERSIONGUID
350
455A
  0
DICTIONARY
  5
3739
102
{ACAD_REACTORS
330
C
102
}
330
C
100
AcDbDictionary
  3
CANNOSCALE
350
373A
  3
CMLEADERSTYLE
350
3779
  3
CTABLESTYLE
350
3778
  3
DIMASSOC
350
456F
  3
HIDETEXT
350
4570
  3
MSLTSCALE
350
377A
  3
XCLIPFRAME
350
377B
  0
XRECORD
  5
4573
102
{ACAD_REACTORS
330
C
102
}
330
C
100
AcDbXrecord
  1
DWGPROPS COOKIE
  2

  3

  4

  6

  7

  8
takahashi
  9

300
=
301
=
302
=
303
=
304
=
305
=
306
=
307
=
308
=
309
=
 40
0.0
 41
2450576.222302431
 42
2457268.997518264
  1

 90
        0
  0
XRECORD
  5
4575
102
{ACAD_REACTORS
330
4574
102
}
330
4574
100
AcDbXrecord
102
VTR_0.000_0.000_1.000_1.000_VISUALSTYLE
340
36B8
102
VTR_0.000_0.000_1.000_1.000_GRIDDISPLAY
 70
     3
102
VTR_0.000_0.000_1.000_1.000_GRIDMAJOR
 70
     5
102
VTR_0.000_0.000_1.000_1.000_DEFAULTLIGHTING
280
     1
102
VTR_0.000_0.000_1.000_1.000_DEFAULTLIGHTINGTYPE
 70
     1
102
VTR_0.000_0.000_1.000_1.000_BRIGHTNESS
141
0.0
102
VTR_0.000_0.000_1.000_1.000_CONTRAST
142
0.0
  0
DICTIONARY
  5
2B0C
102
{ACAD_REACTORS
330
29EA
102
}
330
29EA
100
AcDbDictionary
  0
DICTIONARY
  5
29EB
102
{ACAD_REACTORS
330
29EA
102
}
330
29EA
100
AcDbDictionary
  0
DICTIONARY
  5
3718
102
{ACAD_REACTORS
330
3717
102
}
330
3717
100
AcDbDictionary
  3
ACDB_ANNOTATIONSCALES
350
3719
  0
DICTIONARY
  5
421A
102
{ACAD_REACTORS
330
4219
102
}
330
4219
100
AcDbDictionary
  3
ACDB_ANNOTATIONSCALES
350
421B
  0
DICTIONARY
  5
3D37
102
{ACAD_REACTORS
330
3D36
102
}
330
3D36
100
AcDbDictionary
  3
ACDB_ANNOTATIONSCALES
350
3D38
  0
DICTIONARY
  5
3970
102
{ACAD_REACTORS
330
396F
102
}
330
396F
100
AcDbDictionary
  3
ACDB_ANNOTATIONSCALES
350
3971
  0
DICTIONARY
  5
396D
102
{ACAD_REACTORS
330
396C
102
}
330
396C
100
AcDbDictionary
  3
ACDB_ANNOTATIONSCALES
350
396E
  0
DICTIONARY
  5
371C
102
{ACAD_REACTORS
330
371B
102
}
330
371B
100
AcDbDictionary
  3
ACDB_ANNOTATIONSCALES
350
371D
  0
DICTIONARY
  5
3967
102
{ACAD_REACTORS
330
3966
102
}
330
3966
100
AcDbDictionary
  3
ACDB_ANNOTATIONSCALES
350
3968
  0
DICTIONARY
  5
3B06
102
{ACAD_REACTORS
330
3B05
102
}
330
3B05
100
AcDbDictionary
  3
ACDB_ANNOTATIONSCALES
350
3B07
  0
DICTIONARY
  5
3B0A
102
{ACAD_REACTORS
330
3B09
102
}
330
3B09
100
AcDbDictionary
  3
ACDB_ANNOTATIONSCALES
350
3B0B
  0
DICTIONARY
  5
4319
102
{ACAD_REACTORS
330
4318
102
}
330
4318
100
AcDbDictionary
  3
ACDB_ANNOTATIONSCALES
350
431A
  0
DICTIONARY
  5
4480
102
{ACAD_REACTORS
330
447F
102
}
330
447F
100
AcDbDictionary
  3
ACDB_ANNOTATIONSCALES
350
4481
  0
DICTIONARY
  5
4484
102
{ACAD_REACTORS
330
4483
102
}
330
4483
100
AcDbDictionary
  3
ACDB_ANNOTATIONSCALES
350
4485
  0
MATERIAL
  5
36EF
102
{ACAD_REACTORS
330
2947
102
}
102
{ACAD_XDICTIONARY
360
4578
102
}
330
2947
100
AcDbMaterial
  1
BYBLOCK
  0
MATERIAL
  5
36EE
102
{ACAD_REACTORS
330
2947
102
}
102
{ACAD_XDICTIONARY
360
4576
102
}
330
2947
100
AcDbMaterial
  1
BYLAYER
  0
MATERIAL
  5
36F0
102
{ACAD_REACTORS
330
2947
102
}
102
{ACAD_XDICTIONARY
360
457A
102
}
330
2947
100
AcDbMaterial
  1
GLOBAL
  0
ACAD_PROXY_OBJECT
  5
36F4
102
{ACAD_REACTORS
330
36F3
102
}
330
36F3
100
AcDbProxyObject
 90
      499
 91
      507
 93
      610
310
40901902A4063FBFFFFFE0000000000000020400000000000020404214DD185B99185C990000000000000104090141901A00000000000004100000000000000041025764000000000000039000
340
14
340
0
340
10
340
0
 94
        0
1001
ACAD_MLEADERVER
1070
     2
  0
MLINESTYLE
  5
13
102
{ACAD_REACTORS
330
E
102
}
330
E
100
AcDbMlineStyle
  2
STANDARD
 70
     0
  3

 62
     0
 51
90.0
 52
90.0
 71
     2
 49
0.5
 62
   256
  6
BYLAYER
 49
-0.5
 62
   256
  6
BYLAYER
  0
ACAD_PROXY_OBJECT
  5
36CD
102
{ACAD_REACTORS
330
36CC
102
}
330
36CC
100
AcDbProxyObject
 90
      499
 91
      504
 93
       41
310
903313A31580
  0
ACAD_PROXY_OBJECT
  5
36CE
102
{ACAD_REACTORS
330
36CC
102
}
330
36CC
100
AcDbProxyObject
 90
      499
 91
      504
 93
      105
310
903313A324000000000000004000
  0
ACAD_PROXY_OBJECT
  5
36CF
102
{ACAD_REACTORS
330
36CC
102
}
330
36CC
100
AcDbProxyObject
 90
      499
 91
      504
 93
      105
310
903313A344000000000000104000
  0
ACAD_PROXY_OBJECT
  5
36D0
102
{ACAD_REACTORS
330
36CC
102
}
330
36CC
100
AcDbProxyObject
 90
      499
 91
      504
 93
      105
310
903313A354000000000000144000
  0
ACAD_PROXY_OBJECT
  5
36D1
102
{ACAD_REACTORS
330
36CC
102
}
330
36CC
100
AcDbProxyObject
 90
      499
 91
      504
 93
      105
310
903313A384000000000000204000
  0
ACAD_PROXY_OBJECT
  5
36D2
102
{ACAD_REACTORS
330
36CC
102
}
330
36CC
100
AcDbProxyObject
 90
      499
 91
      504
 93
      113
310
904313A31304000000000000244000
  0
ACAD_PROXY_OBJECT
  5
36D3
102
{ACAD_REACTORS
330
36CC
102
}
330
36CC
100
AcDbProxyObject
 90
      499
 91
      504
 93
      113
310
904313A31364000000000000304000
  0
ACAD_PROXY_OBJECT
  5
36D4
102
{ACAD_REACTORS
330
36CC
102
}
330
36CC
100
AcDbProxyObject
 90
      499
 91
      504
 93
      113
310
904313A32304000000000000344000
  0
ACAD_PROXY_OBJECT
  5
36D5
102
{ACAD_REACTORS
330
36CC
102
}
330
36CC
100
AcDbProxyObject
 90
      499
 91
      504
 93
      113
310
904313A333040000000000003E4000
  0
ACAD_PROXY_OBJECT
  5
36D6
102
{ACAD_REACTORS
330
36CC
102
}
330
36CC
100
AcDbProxyObject
 90
      499
 91
      504
 93
      113
310
904313A34304000000000000444000
  0
ACAD_PROXY_OBJECT
  5
36D7
102
{ACAD_REACTORS
330
36CC
102
}
330
36CC
100
AcDbProxyObject
 90
      499
 91
      504
 93
      113
310
904313A35304000000000000494000
  0
ACAD_PROXY_OBJECT
  5
36D8
102
{ACAD_REACTORS
330
36CC
102
}
330
36CC
100
AcDbProxyObject
 90
      499
 91
      504
 93
      121
310
905313A3130304000000000000594000
  0
ACAD_PROXY_OBJECT
  5
36D9
102
{ACAD_REACTORS
330
36CC
102
}
330
36CC
100
AcDbProxyObject
 90
      499
 91
      504
 93
      105
310
903323A310000000000000010100
  0
ACAD_PROXY_OBJECT
  5
36DA
102
{ACAD_REACTORS
330
36CC
102
}
330
36CC
100
AcDbProxyObject
 90
      499
 91
      504
 93
      105
310
903343A310000000000000410100
  0
ACAD_PROXY_OBJECT
  5
36DB
102
{ACAD_REACTORS
330
36CC
102
}
330
36CC
100
AcDbProxyObject
 90
      499
 91
      504
 93
      105
310
903383A310000000000000810100
  0
ACAD_PROXY_OBJECT
  5
36DC
102
{ACAD_REACTORS
330
36CC
102
}
330
36CC
100
AcDbProxyObject
 90
      499
 91
      504
 93
      113
310
90431303A310000000000000910100
  0
ACAD_PROXY_OBJECT
  5
36DD
102
{ACAD_REACTORS
330
36CC
102
}
330
36CC
100
AcDbProxyObject
 90
      499
 91
      504
 93
      121
310
9053130303A310000000000001650100
  0
ACAD_PROXY_OBJECT
  5
36DE
102
{ACAD_REACTORS
330
36CC
102
}
330
36CC
100
AcDbProxyObject
 90
      499
 91
      504
 93
      257
310
90E312F31323822203D2031272D3022000000000000200FC000000000000284000
  0
ACAD_PROXY_OBJECT
  5
36DF
102
{ACAD_REACTORS
330
36CC
102
}
330
36CC
100
AcDbProxyObject
 90
      499
 91
      504
 93
      249
310
90D312F363422203D2031272D3022000000000000240FC000000000000284000
  0
ACAD_PROXY_OBJECT
  5
36E0
102
{ACAD_REACTORS
330
36CC
102
}
330
36CC
100
AcDbProxyObject
 90
      499
 91
      504
 93
      249
310
90D312F333222203D2031272D3022000000000000280FC000000000000284000
  0
ACAD_PROXY_OBJECT
  5
36E1
102
{ACAD_REACTORS
330
36CC
102
}
330
36CC
100
AcDbProxyObject
 90
      499
 91
      504
 93
      249
310
90D312F313622203D2031272D30220000000000002C0FC000000000000284000
  0
ACAD_PROXY_OBJECT
  5
36E2
102
{ACAD_REACTORS
330
36CC
102
}
330
36CC
100
AcDbProxyObject
 90
      499
 91
      504
 93
      249
310
90D332F333222203D2031272D30220000000000002E0FC000000000000284000
  0
ACAD_PROXY_OBJECT
  5
36E3
102
{ACAD_REACTORS
330
36CC
102
}
330
36CC
100
AcDbProxyObject
 90
      499
 91
      504
 93
      241
310
90C312F3822203D2031272D3022000000000000300FC000000000000284000
  0
ACAD_PROXY_OBJECT
  5
36E4
102
{ACAD_REACTORS
330
36CC
102
}
330
36CC
100
AcDbProxyObject
 90
      499
 91
      504
 93
      249
310
90D332F313622203D2031272D3022000000000000320FC000000000000284000
  0
ACAD_PROXY_OBJECT
  5
36E5
102
{ACAD_REACTORS
330
36CC
102
}
330
36CC
100
AcDbProxyObject
 90
      499
 91
      504
 93
      241
310
90C312F3422203D2031272D3022000000000000340FC000000000000284000
  0
ACAD_PROXY_OBJECT
  5
36E6
102
{ACAD_REACTORS
330
36CC
102
}
330
36CC
100
AcDbProxyObject
 90
      499
 91
      504
 93
      241
310
90C332F3822203D2031272D3022000000000000360FC000000000000284000
  0
ACAD_PROXY_OBJECT
  5
36E7
102
{ACAD_REACTORS
330
36CC
102
}
330
36CC
100
AcDbProxyObject
 90
      499
 91
      504
 93
      241
310
90C312F3222203D2031272D3022000000000000380FC000000000000284000
  0
ACAD_PROXY_OBJECT
  5
36E8
102
{ACAD_REACTORS
330
36CC
102
}
330
36CC
100
AcDbProxyObject
 90
      499
 91
      504
 93
      241
310
90C332F3422203D2031272D30220000000000003A0FC000000000000284000
  0
ACAD_PROXY_OBJECT
  5
36E9
102
{ACAD_REACTORS
330
36CC
102
}
330
36CC
100
AcDbProxyObject
 90
      499
 91
      504
 93
      161
310
90A3122203D2031272D30224000000000000284000
  0
ACAD_PROXY_OBJECT
  5
36EA
102
{ACAD_REACTORS
330
36CC
102
}
330
36CC
100
AcDbProxyObject
 90
      499
 91
      504
 93
      257
310
90E312D312F3222203D2031272D30220000000000003E0FC000000000000284000
  0
ACAD_PROXY_OBJECT
  5
36EB
102
{ACAD_REACTORS
330
36CC
102
}
330
36CC
100
AcDbProxyObject
 90
      499
 91
      504
 93
      225
310
90A3322203D2031272D302200000000000002100000000000000284000
  0
ACAD_PROXY_OBJECT
  5
36EC
102
{ACAD_REACTORS
330
36CC
102
}
330
36CC
100
AcDbProxyObject
 90
      499
 91
      504
 93
      225
310
90A3622203D2031272D302200000000000006100000000000000284000
  0
ACAD_PROXY_OBJECT
  5
36ED
102
{ACAD_REACTORS
330
36CC
102
}
330
36CC
100
AcDbProxyObject
 90
      499
 91
      504
 93
      249
310
90D31272D3022203D2031272D30220000000000000A100000000000000284000
  0
ACAD_PROXY_OBJECT
  5
36B8
102
{ACAD_REACTORS
330
36B3
102
}
330
36B3
100
AcDbProxyObject
 90
      499
 91
      503
 93
      436
310
42CC9915DA5C99599C985B595049028333333333333E33F0000000000000F90107901411070040501600405405064090741402480A0340
1001
ACAD
1000
AcDbSavedByObjectVersion
1070
     0
  0
ACAD_PROXY_OBJECT
  5
36BB
102
{ACAD_REACTORS
330
36B3
102
}
330
36B3
100
AcDbProxyObject
 90
      499
 91
      503
 93
      388
310
4150985CDA58D07406404333333333333E33F0000000000000F90107A41107004050150841D405064090741402480A0350
1001
ACAD
1000
AcDbSavedByObjectVersion
1070
     0
  0
ACAD_PROXY_OBJECT
  5
36BF
102
{ACAD_REACTORS
330
36B3
102
}
330
36B3
100
AcDbProxyObject
 90
      499
 91
      503
 93
      428
310
42109C9A59DA1D195B90C409028333333333333E33F0000000000000F9010790141107004050150841D405064090741402480A029950
1001
ACAD
1000
AcDbSavedByObjectVersion
1070
     0
  0
ACAD_PROXY_OBJECT
  5
36C3
102
{ACAD_REACTORS
330
36B3
102
}
330
36B3
100
AcDbProxyObject
 90
      499
 91
      503
 93
      452
310
42D0DBDB1BDC90DA185B99D95104090240C333333333333E33F0000000000000F90108901411070040501508421405064090741402480A0350
1001
ACAD
1000
AcDbSavedByObjectVersion
1070
     0
  0
ACAD_PROXY_OBJECT
  5
36BD
102
{ACAD_REACTORS
330
36B3
102
}
330
36B3
100
AcDbProxyObject
 90
      499
 91
      503
 93
      500
310
4290DBDB98D95C1D1D585B10940D028333333333333E33F0000000000000F90107902409070040501000000000018199010841D405064090740C02480A0340
1001
ACAD
1000
AcDbSavedByObjectVersion
1070
     0
  0
ACAD_PROXY_OBJECT
  5
36BE
102
{ACAD_REACTORS
330
36B3
102
}
330
36B3
100
AcDbProxyObject
 90
      499
 91
      503
 93
      412
310
40D11A5B50B409028333333333333E33F0000000000000F9010790141107004050150841D405064090741402480A02677FFFFFD0
1001
ACAD
1000
AcDbSavedByObjectVersion
1070
     0
  0
ACAD_PROXY_OBJECT
  5
36C6
102
{ACAD_REACTORS
330
36B3
102
}
330
36B3
100
AcDbProxyObject
 90
      499
 91
      503
 93
      452
310
43115919D950DBDB1BDC93D999916409028333333333333E33F0000000000000F9010790141107004050150841D405064090741402480A0350
1001
ACAD
1000
AcDbSavedByObjectVersion
1070
     0
  0
ACAD_PROXY_OBJECT
  5
36C2
102
{ACAD_REACTORS
330
36B3
102
}
330
36B3
100
AcDbProxyObject
 90
      499
 91
      503
 93
      444
310
42D19858D95C185D1D195C9B90F409028333333333333E33F0000000000000F9010790141107004050150841D405064090741402480A0350
1001
ACAD
1000
AcDbSavedByObjectVersion
1070
     0
  0
ACAD_PROXY_OBJECT
  5
36B4
102
{ACAD_REACTORS
330
36B3
102
}
330
36B3
100
AcDbProxyObject
 90
      499
 91
      503
 93
      380
310
41119B185D240901404333333333333E33F0000000000000F9010740A907004050150841D405064090741402480A1B50
1001
ACAD
1000
AcDbSavedByObjectVersion
1070
     0
  0
ACAD_PROXY_OBJECT
  5
36B5
102
{ACAD_REACTORS
330
36B3
102
}
330
36B3
100
AcDbProxyObject
 90
      499
 91
      503
 93
      468
310
43519B185D15DA5D1A115919D95CD0140901404333333333333E33F0000000000000F90107409019070040501600405405064090741402480A1B50
1001
ACAD
1000
AcDbSavedByObjectVersion
1070
     0
  0
ACAD_PROXY_OBJECT
  5
36B6
102
{ACAD_REACTORS
330
36B3
102
}
330
36B3
100
AcDbProxyObject
 90
      499
 91
      503
 93
      404
310
41D1DBDD5C985D5910240902404333333333333E33F0000000000000F9010740A9070040501641D405064090741402480A1B50
1001
ACAD
1000
AcDbSavedByObjectVersion
1070
     0
  0
ACAD_PROXY_OBJECT
  5
36B7
102
{ACAD_REACTORS
330
36B3
102
}
330
36B3
100
AcDbProxyObject
 90
      499
 91
      503
 93
      492
310
4411DBDD5C985D5915DA5D1A115919D95CD0340902404333333333333E33F0000000000000F90107409019070040501600405405064090741402480A1B50
1001
ACAD
1000
AcDbSavedByObjectVersion
1070
     0
  0
ACAD_PROXY_OBJECT
  5
36BA
102
{ACAD_REACTORS
330
36B3
102
}
330
36B3
100
AcDbProxyObject
 90
      499
 91
      503
 93
      476
310
41921A5919195B90640502408333333333333E33F0000000000000F901079024090700405020000000000001110200405405064090740C02480A0340
1001
ACAD
1000
AcDbSavedByObjectVersion
1070
     0
  0
ACAD_PROXY_OBJECT
  5
36C4
102
{ACAD_REACTORS
330
36B3
102
}
330
36B3
100
AcDbProxyObject
 90
      499
 91
      503
 93
      428
310
42529A5D1D195C93D999914409028333333333333E33F0000000000000F9010790141107004050150A41D405064090741402480A0350
1001
ACAD
1000
AcDbSavedByObjectVersion
1070
     0
  0
ACAD_PROXY_OBJECT
  5
36C1
102
{ACAD_REACTORS
330
36B3
102
}
330
36B3
100
AcDbProxyObject
 90
      499
 91
      503
 93
      444
310
42D31A5B995C185D1D195C9B90E409028333333333333E33F0000000000000F9010790141107004050750841D405064090741402483A0350
1001
ACAD
1000
AcDbSavedByObjectVersion
1070
     0
  0
ACAD_PROXY_OBJECT
  5
37D5
102
{ACAD_REACTORS
330
36B3
102
}
330
36B3
100
AcDbProxyObject
 90
      499
 91
      503
 93
      412
310
90A409038333333333333E33F0000000000000F901074090290700405010000000000201990108421405064090741402480A1B40
1001
ACAD
1000
AcDbSavedByObjectVersion
1070
     0
  0
ACAD_PROXY_OBJECT
  5
36C5
102
{ACAD_REACTORS
330
36B3
102
}
330
36B3
100
AcDbProxyObject
 90
      499
 91
      503
 93
      444
310
42D3DD995C9A185B99D3D999915409028333333333333E33F0000000000000F9010790141107004050150941D405064090741402480A0350
1001
ACAD
1000
AcDbSavedByObjectVersion
1070
     0
  0
ACAD_PROXY_OBJECT
  5
36BC
102
{ACAD_REACTORS
330
36B3
102
}
330
36B3
100
AcDbProxyObject
 90
      499
 91
      503
 93
      428
310
425499585B1A5CDD1A58D08409038333333333333E33F0000000000000F9010740A907004050150800405405064090740C02480A1B40
1001
ACAD
1000
AcDbSavedByObjectVersion
1070
     0
  0
ACAD_PROXY_OBJECT
  5
36CB
102
{ACAD_REACTORS
330
36B3
102
}
330
36B3
100
AcDbProxyObject
 90
      499
 91
      503
 93
      420
310
4194DA1859195911B40902404333333333333E33F0000000000000F9010740A41107004050150800405405064090840C02480A0B40
1001
ACAD
1000
AcDbSavedByObjectVersion
1070
     0
  0
ACAD_PROXY_OBJECT
  5
36CA
102
{ACAD_REACTORS
330
36B3
102
}
330
36B3
100
AcDbProxyObject
 90
      499
 91
      503
 93
      516
310
4454DA18591959081DDA5D1A08195919D95CD1A40902404333333333333E33F0000000000000F901074090142907004050250800405405064090740C02480A0B40
1001
ACAD
1000
AcDbSavedByObjectVersion
1070
     0
  0
ACAD_PROXY_OBJECT
  5
36C7
102
{ACAD_REACTORS
330
36B3
102
}
330
36B3
100
AcDbProxyObject
 90
      499
 91
      503
 93
      532
310
4394DA1859195CC81BD98811DC985E5174090240C333333333333E33F0000000000000F901079024090741D01000000000000111010841D405064090740C02480A0340
1001
ACAD
1000
AcDbSavedByObjectVersion
1070
     0
  0
ACAD_PROXY_OBJECT
  5
36C8
102
{ACAD_REACTORS
330
36B3
102
}
330
36B3
100
AcDbProxyObject
 90
      499
 91
      503
 93
      476
310
41D4DAD95D18DA1E51840502408333333333333E33F0000000000000F901079024090741D01000000000000111010B41D405064090741802480A0340
1001
ACAD
1000
AcDbSavedByObjectVersion
1070
     0
  0
ACAD_PROXY_OBJECT
  5
36C0
102
{ACAD_REACTORS
330
36B3
102
}
330
36B3
100
AcDbProxyObject
 90
      499
 91
      503
 93
      412
310
41D51A1A58DAD95B90D409028333333333333E33F0000000000000F9010790141107004050150C41D405064090741402480A0350
1001
ACAD
1000
AcDbSavedByObjectVersion
1070
     0
  0
ACAD_PROXY_OBJECT
  5
36B9
102
{ACAD_REACTORS
330
36B3
102
}
330
36B3
100
AcDbProxyObject
 90
      499
 91
      503
 93
      420
310
4255DA5C99599C985B595059028333333333333E33F0000000000000F90107901411070040501600405405064090740C02480A0340
1001
ACAD
1000
AcDbSavedByObjectVersion
1070
     0
  0
ACAD_PROXY_OBJECT
  5
36C9
102
{ACAD_REACTORS
330
36B3
102
}
330
36B3
100
AcDbProxyObject
 90
      499
 91
      503
 93
      404
310
41560B54985E51940902404000000000000E03F0000000000000F9010740501907004050150841D405064090740C02480A1B40
1001
ACAD
1000
AcDbSavedByObjectVersion
1070
     0
  0
XRECORD
  5
4558
102
{ACAD_REACTORS
330
454E
102
}
330
454E
100
AcDbXrecord
340
0
  0
XRECORD
  5
4557
102
{ACAD_REACTORS
330
454E
102
}
330
454E
100
AcDbXrecord
 90
        0
  0
XRECORD
  5
4571
102
{ACAD_REACTORS
330
454E
102
}
330
454E
100
AcDbXrecord
340
2948
  0
XRECORD
  5
456E
102
{ACAD_REACTORS
330
454E
102
}
330
454E
100
AcDbXrecord
1000
DSTYLE
1002
{
1070
   171
 70
     2
1070
   143
 40
0.0394
1070
   274
 70
     2
1070
    41
 40
6.0
1070
   342
340
2AF4
1070
   271
 70
     1
1070
   278
 70
    46
1070
   341
340
2AF4
1070
   272
 70
     1
1070
    48
 40
0.1
1070
   283
 70
     1
1070
    47
 40
0.1
1070
   145
 40
1.0
1070
   340
340
10
1070
   140
 40
5.0
1070
   284
 70
     0
1002
}
  0
XRECORD
  5
4559
102
{ACAD_REACTORS
330
454E
102
}
330
454E
100
AcDbXrecord
  1
{23698909-1D67-4744-B0E2-8DE11E3ED422}
  0
XRECORD
  5
4551
102
{ACAD_REACTORS
330
454E
102
}
330
454E
100
AcDbXrecord
  1

  0
XRECORD
  5
4556
102
{ACAD_REACTORS
330
454E
102
}
330
454E
100
AcDbXrecord
 90
        0
  0
XRECORD
  5
4553
102
{ACAD_REACTORS
330
454E
102
}
330
454E
100
AcDbXrecord
340
2816
  0
XRECORD
  5
4555
102
{ACAD_REACTORS
330
454E
102
}
330
454E
100
AcDbXrecord
 90
    10781
  0
XRECORD
  5
4572
102
{ACAD_REACTORS
330
454E
102
}
330
454E
100
AcDbXrecord
340
2947
  0
XRECORD
  5
4554
102
{ACAD_REACTORS
330
454E
102
}
330
454E
100
AcDbXrecord
340
2817
  0
XRECORD
  5
455B
102
{ACAD_REACTORS
330
454E
102
}
330
454E
100
AcDbXrecord
 40
0.25
  0
XRECORD
  5
455E
102
{ACAD_REACTORS
330
454E
102
}
330
454E
100
AcDbXrecord
340
0
  0
XRECORD
  5
4564
102
{ACAD_REACTORS
330
454E
102
}
330
454E
100
AcDbXrecord
 10
0.0
 20
0.0
 30
0.0
  0
XRECORD
  5
4560
102
{ACAD_REACTORS
330
454E
102
}
330
454E
100
AcDbXrecord
 10
0.0
 20
0.0
 30
0.0
  0
XRECORD
  5
4563
102
{ACAD_REACTORS
330
454E
102
}
330
454E
100
AcDbXrecord
 10
0.0
 20
0.0
 30
0.0
  0
XRECORD
  5
4561
102
{ACAD_REACTORS
330
454E
102
}
330
454E
100
AcDbXrecord
 10
0.0
 20
0.0
 30
0.0
  0
XRECORD
  5
4562
102
{ACAD_REACTORS
330
454E
102
}
330
454E
100
AcDbXrecord
 10
0.0
 20
0.0
 30
0.0
  0
XRECORD
  5
455F
102
{ACAD_REACTORS
330
454E
102
}
330
454E
100
AcDbXrecord
 10
0.0
 20
0.0
 30
0.0
  0
XRECORD
  5
455C
102
{ACAD_REACTORS
330
454E
102
}
330
454E
100
AcDbXrecord
340
0
  0
XRECORD
  5
455D
102
{ACAD_REACTORS
330
454E
102
}
330
454E
100
AcDbXrecord
 70
     0
  0
XRECORD
  5
4552
102
{ACAD_REACTORS
330
454E
102
}
330
454E
100
AcDbXrecord
  1

  0
XRECORD
  5
454F
102
{ACAD_REACTORS
330
454E
102
}
330
454E
100
AcDbXrecord
 90
        1
  0
XRECORD
  5
4550
102
{ACAD_REACTORS
330
454E
102
}
330
454E
100
AcDbXrecord
 90
       70
  0
XRECORD
  5
4567
102
{ACAD_REACTORS
330
454E
102
}
330
454E
100
AcDbXrecord
340
0
  0
XRECORD
  5
456D
102
{ACAD_REACTORS
330
454E
102
}
330
454E
100
AcDbXrecord
 10
0.0
 20
0.0
 30
0.0
  0
XRECORD
  5
4569
102
{ACAD_REACTORS
330
454E
102
}
330
454E
100
AcDbXrecord
 10
0.0
 20
0.0
 30
0.0
  0
XRECORD
  5
456C
102
{ACAD_REACTORS
330
454E
102
}
330
454E
100
AcDbXrecord
 10
0.0
 20
0.0
 30
0.0
  0
XRECORD
  5
456A
102
{ACAD_REACTORS
330
454E
102
}
330
454E
100
AcDbXrecord
 10
0.0
 20
0.0
 30
0.0
  0
XRECORD
  5
456B
102
{ACAD_REACTORS
330
454E
102
}
330
454E
100
AcDbXrecord
 10
0.0
 20
0.0
 30
0.0
  0
XRECORD
  5
4568
102
{ACAD_REACTORS
330
454E
102
}
330
454E
100
AcDbXrecord
 10
0.0
 20
0.0
 30
0.0
  0
XRECORD
  5
4565
102
{ACAD_REACTORS
330
454E
102
}
330
454E
100
AcDbXrecord
340
0
  0
XRECORD
  5
4566
102
{ACAD_REACTORS
330
454E
102
}
330
454E
100
AcDbXrecord
 70
     0
  0
XRECORD
  5
455A
102
{ACAD_REACTORS
330
454E
102
}
330
454E
100
AcDbXrecord
  1
{84B2B44C-DF2E-4668-B170-B0190785185A}
  0
DICTIONARYVAR
  5
373A
102
{ACAD_REACTORS
330
3739
102
}
330
3739
100
DictionaryVariables
280
     0
  1
1:1
  0
DICTIONARYVAR
  5
3779
102
{ACAD_REACTORS
330
3739
102
}
330
3739
100
DictionaryVariables
280
     0
  1
Standard
  0
DICTIONARYVAR
  5
3778
102
{ACAD_REACTORS
330
3739
102
}
330
3739
100
DictionaryVariables
280
     0
  1
Standard
  0
DICTIONARYVAR
  5
456F
102
{ACAD_REACTORS
330
3739
102
}
330
3739
100
DictionaryVariables
280
     0
  1
1
  0
DICTIONARYVAR
  5
4570
102
{ACAD_REACTORS
330
3739
102
}
330
3739
100
DictionaryVariables
280
     0
  1
0
  0
DICTIONARYVAR
  5
377A
102
{ACAD_REACTORS
330
3739
102
}
330
3739
100
DictionaryVariables
280
     0
  1
0
  0
DICTIONARYVAR
  5
377B
102
{ACAD_REACTORS
330
3739
102
}
330
3739
100
DictionaryVariables
280
     0
  1
0
  0
DICTIONARY
  5
3719
102
{ACAD_REACTORS
330
3718
102
}
330
3718
100
AcDbDictionary
  0
DICTIONARY
  5
421B
102
{ACAD_REACTORS
330
421A
102
}
330
421A
100
AcDbDictionary
  0
DICTIONARY
  5
3D38
102
{ACAD_REACTORS
330
3D37
102
}
330
3D37
100
AcDbDictionary
  0
DICTIONARY
  5
3971
102
{ACAD_REACTORS
330
3970
102
}
330
3970
100
AcDbDictionary
  0
DICTIONARY
  5
396E
102
{ACAD_REACTORS
330
396D
102
}
330
396D
100
AcDbDictionary
  0
DICTIONARY
  5
371D
102
{ACAD_REACTORS
330
371C
102
}
330
371C
100
AcDbDictionary
  0
DICTIONARY
  5
3968
102
{ACAD_REACTORS
330
3967
102
}
330
3967
100
AcDbDictionary
  0
DICTIONARY
  5
3B07
102
{ACAD_REACTORS
330
3B06
102
}
330
3B06
100
AcDbDictionary
  0
DICTIONARY
  5
3B0B
102
{ACAD_REACTORS
330
3B0A
102
}
330
3B0A
100
AcDbDictionary
  0
DICTIONARY
  5
431A
102
{ACAD_REACTORS
330
4319
102
}
330
4319
100
AcDbDictionary
  0
DICTIONARY
  5
4481
102
{ACAD_REACTORS
330
4480
102
}
330
4480
100
AcDbDictionary
  0
DICTIONARY
  5
4485
102
{ACAD_REACTORS
330
4484
102
}
330
4484
100
AcDbDictionary
  0
DICTIONARY
  5
4578
330
36EF
100
AcDbDictionary
280
     1
  3
ACAD_XREC_ROUNDTRIP
360
4579
  0
DICTIONARY
  5
4576
330
36EE
100
AcDbDictionary
280
     1
  3
ACAD_XREC_ROUNDTRIP
360
4577
  0
DICTIONARY
  5
457A
330
36F0
100
AcDbDictionary
280
     1
  3
ACAD_XREC_ROUNDTRIP
360
457B
  0
XRECORD
  5
4579
102
{ACAD_REACTORS
330
4578
102
}
330
4578
100
AcDbXrecord
102
MATERIAL
148
0.0
149
0.0
149
0.0
 93
        0
 94
      127
282
     0
 72
     1
 77
     1
171
     1
175
     1
179
     1
273
     0
  0
XRECORD
  5
4577
102
{ACAD_REACTORS
330
4576
102
}
330
4576
100
AcDbXrecord
102
MATERIAL
148
0.0
149
0.0
149
0.0
 93
        0
 94
      127
282
     0
 72
     1
 77
     1
171
     1
175
     1
179
     1
273
     0
  0
XRECORD
  5
457B
102
{ACAD_REACTORS
330
457A
102
}
330
457A
100
AcDbXrecord
102
MATERIAL
148
0.0
149
0.0
149
0.0
 93
        0
 94
      127
282
     0
 72
     1
 77
     1
171
     1
175
     1
179
     1
273
     0
  0
ENDSEC
  0
EOF
