  0
SECTION
  2
HEADER
  9
$ACADVER
  1
AC1014
  9
$ACADMAINTVER
 70
     9
  9
$DWGCODEPAGE
  3
ANSI_932
  9
$INSBASE
 10
0.0
 20
0.0
 30
0.0
  9
$EXTMIN
 10
-127.060059143875
 20
226.618876049997
 30
0.0
  9
$EXTMAX
 10
597.64490573435
 20
612.190293619233
 30
0.0
  9
$LIMMIN
 10
-360.747566795242
 20
4.457354754526
  9
$LIMMAX
 10
-162.153696144267
 20
287.675440264018
  9
$ORTHOMODE
 70
     0
  9
$REGENMODE
 70
     1
  9
$FILLMODE
 70
     1
  9
$QTEXTMODE
 70
     0
  9
$MIRRTEXT
 70
     1
  9
$DRAGMODE
 70
     2
  9
$LTSCALE
 40
1.0
  9
$OSMODE
 70
   935
  9
$ATTMODE
 70
     1
  9
$TEXTSIZE
 40
2.333873885063
  9
$TRACEWID
 40
1.0
  9
$TEXTSTYLE
  7
STANDARD
  9
$CLAYER
  8
外形線
  9
$CELTYPE
  6
BYLAYER
  9
$CECOLOR
 62
   256
  9
$CELTSCALE
 40
10.0
  9
$DELOBJ
 70
     1
  9
$DISPSILH
 70
     0
  9
$DIMSCALE
 40
1.0
  9
$DIMASZ
 40
6.0
  9
$DIMEXO
 40
0.625
  9
$DIMDLI
 40
3.75
  9
$DIMRND
 40
0.0
  9
$DIMDLE
 40
0.0
  9
$DIMEXE
 40
1.25
  9
$DIMTP
 40
0.1
  9
$DIMTM
 40
0.1
  9
$DIMTXT
 40
5.0
  9
$DIMCEN
 40
2.5
  9
$DIMTSZ
 40
0.0
  9
$DIMTOL
 70
     0
  9
$DIMLIM
 70
     0
  9
$DIMTIH
 70
     0
  9
$DIMTOH
 70
     0
  9
$DIMSE1
 70
     0
  9
$DIMSE2
 70
     0
  9
$DIMTAD
 70
     1
  9
$DIMZIN
 70
     8
  9
$DIMBLK
  1
OPEN30
  9
$DIMASO
 70
     1
  9
$DIMSHO
 70
     1
  9
$DIMPOST
  1

  9
$DIMAPOST
  1

  9
$DIMALT
 70
     0
  9
$DIMALTD
 70
     2
  9
$DIMALTF
 40
0.0394
  9
$DIMLFAC
 40
1.0
  9
$DIMTOFL
 70
     1
  9
$DIMTVP
 40
1.0
  9
$DIMTIX
 70
     0
  9
$DIMSOXD
 70
     0
  9
$DIMSAH
 70
     0
  9
$DIMBLK1
  1

  9
$DIMBLK2
  1

  9
$DIMSTYLE
  2
ISO-25
  9
$DIMCLRD
 70
     0
  9
$DIMCLRE
 70
     0
  9
$DIMCLRT
 70
     0
  9
$DIMTFAC
 40
1.0
  9
$DIMGAP
 40
0.625
  9
$DIMJUST
 70
     0
  9
$DIMSD1
 70
     0
  9
$DIMSD2
 70
     0
  9
$DIMTOLJ
 70
     1
  9
$DIMTZIN
 70
     0
  9
$DIMALTZ
 70
     0
  9
$DIMALTTZ
 70
     0
  9
$DIMFIT
 70
     3
  9
$DIMUPT
 70
     0
  9
$DIMUNIT
 70
     2
  9
$DIMDEC
 70
     1
  9
$DIMTDEC
 70
     1
  9
$DIMALTU
 70
     2
  9
$DIMALTTD
 70
     2
  9
$DIMTXSTY
  7
STANDARD
  9
$DIMAUNIT
 70
     0
  9
$LUNITS
 70
     2
  9
$LUPREC
 70
     4
  9
$SKETCHINC
 40
1.0
  9
$FILLETRAD
 40
6.5
  9
$AUNITS
 70
     0
  9
$AUPREC
 70
     0
  9
$MENU
  1
.
  9
$ELEVATION
 40
0.0
  9
$PELEVATION
 40
0.0
  9
$THICKNESS
 40
0.0
  9
$LIMCHECK
 70
     0
  9
$CHAMFERA
 40
10.0
  9
$CHAMFERB
 40
10.0
  9
$CHAMFERC
 40
20.0
  9
$CHAMFERD
 40
0.0
  9
$SKPOLY
 70
     0
  9
$TDCREATE
 40
2450576.597302431
  9
$TDUPDATE
 40
2457269.372947593
  9
$TDINDWG
 40
1.4294070486
  9
$TDUSRTIMER
 40
1.4294070486
  9
$USRTIMER
 70
     1
  9
$ANGBASE
 50
0.0
  9
$ANGDIR
 70
     0
  9
$PDMODE
 70
     0
  9
$PDSIZE
 40
0.0
  9
$PLINEWID
 40
0.0
  9
$COORDS
 70
     0
  9
$SPLFRAME
 70
     0
  9
$SPLINETYPE
 70
     6
  9
$SPLINESEGS
 70
     8
  9
$ATTDIA
 70
     0
  9
$ATTREQ
 70
     1
  9
$HANDLING
 70
     1
  9
$HANDSEED
  5
53DA
  9
$SURFTAB1
 70
     6
  9
$SURFTAB2
 70
     6
  9
$SURFTYPE
 70
     6
  9
$SURFU
 70
     6
  9
$SURFV
 70
     6
  9
$UCSNAME
  2

  9
$UCSORG
 10
0.0
 20
0.0
 30
0.0
  9
$UCSXDIR
 10
1.0
 20
0.0
 30
0.0
  9
$UCSYDIR
 10
0.0
 20
1.0
 30
0.0
  9
$PUCSNAME
  2

  9
$PUCSORG
 10
0.0
 20
0.0
 30
0.0
  9
$PUCSXDIR
 10
1.0
 20
0.0
 30
0.0
  9
$PUCSYDIR
 10
0.0
 20
1.0
 30
0.0
  9
$USERI1
 70
     0
  9
$USERI2
 70
     0
  9
$USERI3
 70
     0
  9
$USERI4
 70
     0
  9
$USERI5
 70
     0
  9
$USERR1
 40
0.0
  9
$USERR2
 40
0.0
  9
$USERR3
 40
0.0
  9
$USERR4
 40
0.0
  9
$USERR5
 40
0.0
  9
$WORLDVIEW
 70
     1
  9
$SHADEDGE
 70
     3
  9
$SHADEDIF
 70
    70
  9
$TILEMODE
 70
     0
  9
$MAXACTVP
 70
    16
  9
$PINSBASE
 10
0.0
 20
0.0
 30
0.0
  9
$PLIMCHECK
 70
     0
  9
$PEXTMIN
 10
4.746305129083
 20
1.396645458131
 30
0.0
  9
$PEXTMAX
 10
404.746305129083
 20
281.396645458131
 30
0.0
  9
$PLIMMIN
 10
-6.946593322754
 20
-6.94658241272
  9
$PLIMMAX
 10
417.718108215332
 20
293.315276107788
  9
$UNITMODE
 70
     0
  9
$VISRETAIN
 70
     0
  9
$PLINEGEN
 70
     0
  9
$PSLTSCALE
 70
     1
  9
$TREEDEPTH
 70
  3020
  9
$PICKSTYLE
 70
     1
  9
$CMLSTYLE
  2
STANDARD
  9
$CMLJUST
 70
     0
  9
$CMLSCALE
 40
1.0
  9
$PROXYGRAPHICS
 70
     1
  9
$MEASUREMENT
 70
     1
  0
ENDSEC
  0
SECTION
  2
CLASSES
  0
CLASS
  1
ACDBDICTIONARYWDFLT
  2
AcDbDictionaryWithDefault
  3
ObjectDBX Classes
 90
        0
280
     0
281
     0
  0
CLASS
  1
ACDBPLACEHOLDER
  2
AcDbPlaceHolder
  3
ObjectDBX Classes
 90
        0
280
     0
281
     0
  0
CLASS
  1
LAYOUT
  2
AcDbLayout
  3
ObjectDBX Classes
 90
        0
280
     0
281
     0
  0
CLASS
  1
VISUALSTYLE
  2
AcDbVisualStyle
  3
ObjectDBX Classes
 90
     4095
280
     0
281
     0
  0
CLASS
  1
SCALE
  2
AcDbScale
  3
ObjectDBX Classes
 90
     1153
280
     0
281
     0
  0
CLASS
  1
MATERIAL
  2
AcDbMaterial
  3
ObjectDBX Classes
 90
     1153
280
     0
281
     0
  0
CLASS
  1
TABLESTYLE
  2
AcDbTableStyle
  3
ObjectDBX Classes
 90
     4095
280
     0
281
     0
  0
CLASS
  1
MLEADERSTYLE
  2
AcDbMLeaderStyle
  3
ACDB_MLEADERSTYLE_CLASS
 90
     4095
280
     0
281
     0
  0
CLASS
  1
SUN
  2
AcDbSun
  3
SCENEOE
 90
     1153
280
     0
281
     0
  0
CLASS
  1
DICTIONARYVAR
  2
AcDbDictionaryVar
  3
ObjectDBX Classes
 90
        0
280
     0
281
     0
  0
CLASS
  1
CELLSTYLEMAP
  2
AcDbCellStyleMap
  3
ObjectDBX Classes
 90
     1152
280
     0
281
     0
  0
CLASS
  1
XRECORD
  2
AcDbXrecord
  3
ObjectDBX Classes
 90
        0
280
     0
281
     0
  0
CLASS
  1
LWPOLYLINE
  2
AcDbPolyline
  3
ObjectDBX Classes
 90
        0
280
     0
281
     1
  0
CLASS
  1
HATCH
  2
AcDbHatch
  3
ObjectDBX Classes
 90
        0
280
     0
281
     1
  0
ENDSEC
  0
SECTION
  2
TABLES
  0
TABLE
  2
VPORT
  5
8
102
{ACAD_XDICTIONARY
360
53D2
102
}
330
0
100
AcDbSymbolTable
 70
     3
  0
VPORT
  5
45A1
330
8
100
AcDbSymbolTableRecord
100
AcDbViewportTableRecord
  2
*ACTIVE
 70
     0
 10
0.0
 20
0.0
 11
1.0
 21
1.0
 12
235.292423295238
 22
419.404584834615
 13
0.0
 23
0.0
 14
1.0
 24
1.0
 15
0.0
 25
0.0
 16
0.0
 26
0.0
 36
1.0
 17
0.0
 27
0.0
 37
0.0
 40
401.907984675863
 41
1.839224629418
 42
50.0
 43
0.0
 44
0.0
 50
0.0
 51
0.0
 71
    16
 72
   100
 73
     1
 74
     0
 75
     0
 76
     0
 77
     0
 78
     0
  0
ENDTAB
  0
TABLE
  2
LTYPE
  5
5
330
0
100
AcDbSymbolTable
 70
     4
  0
LTYPE
  5
14
330
5
100
AcDbSymbolTableRecord
100
AcDbLinetypeTableRecord
  2
BYBLOCK
 70
     0
  3

 72
    65
 73
     0
 40
0.0
  0
LTYPE
  5
15
330
5
100
AcDbSymbolTableRecord
100
AcDbLinetypeTableRecord
  2
BYLAYER
 70
     0
  3

 72
    65
 73
     0
 40
0.0
  0
LTYPE
  5
16
330
5
100
AcDbSymbolTableRecord
100
AcDbLinetypeTableRecord
  2
CONTINUOUS
 70
     0
  3
Solid line
 72
    65
 73
     0
 40
0.0
  0
LTYPE
  5
1EC
330
5
100
AcDbSymbolTableRecord
100
AcDbLinetypeTableRecord
  2
CENTER
 70
     0
  3
____ _ ____ _ ____ _ ____ _ ____ _ ____ _ ____ 
 72
    65
 73
     4
 40
2.0
 49
1.25
 74
     0
 49
-0.25
 74
     0
 49
0.25
 74
     0
 49
-0.25
 74
     0
  0
LTYPE
  5
1ED
330
5
100
AcDbSymbolTableRecord
100
AcDbLinetypeTableRecord
  2
DASHED
 70
     0
  3
__ __ __ __ __ __ __ __ __ __ __ __ __ __ __ __
 72
    65
 73
     2
 40
0.75
 49
0.5
 74
     0
 49
-0.25
 74
     0
  0
LTYPE
  5
2B1F
330
5
100
AcDbSymbolTableRecord
100
AcDbLinetypeTableRecord
  2
DASHDOT
 70
     0
  3
一点鎖線
 72
    65
 73
     4
 40
25.6
 49
20.0
 74
     0
 49
-2.0
 74
     0
 49
1.6
 74
     0
 49
-2.0
 74
     0
  0
ENDTAB
  0
TABLE
  2
LAYER
  5
2
102
{ACAD_XDICTIONARY
360
29EA
102
}
330
0
100
AcDbSymbolTable
 70
    19
  0
LAYER
  5
F
330
2
100
AcDbSymbolTableRecord
100
AcDbLayerTableRecord
  2
0
 70
     0
 62
     7
  6
CONTINUOUS
  0
LAYER
  5
61
330
2
100
AcDbSymbolTableRecord
100
AcDbLayerTableRecord
  2
図枠太線
 70
     0
 62
   251
  6
CONTINUOUS
  0
LAYER
  5
62
330
2
100
AcDbSymbolTableRecord
100
AcDbLayerTableRecord
  2
図枠細線
 70
     0
 62
   252
  6
CONTINUOUS
  0
LAYER
  5
63
330
2
100
AcDbSymbolTableRecord
100
AcDbLayerTableRecord
  2
図枠ロゴマーク
 70
     0
 62
   253
  6
CONTINUOUS
  0
LAYER
  5
1EF
330
2
100
AcDbSymbolTableRecord
100
AcDbLayerTableRecord
  2
外形線
 70
     0
 62
     7
  6
CONTINUOUS
  0
LAYER
  5
1F0
330
2
100
AcDbSymbolTableRecord
100
AcDbLayerTableRecord
  2
寸法線
 70
     0
 62
     1
  6
CONTINUOUS
  0
LAYER
  5
1F1
330
2
100
AcDbSymbolTableRecord
100
AcDbLayerTableRecord
  2
中心線
 70
     0
 62
     4
  6
CENTER
  0
LAYER
  5
1F4
330
2
100
AcDbSymbolTableRecord
100
AcDbLayerTableRecord
  2
DEFPOINTS
 70
     0
 62
     7
  6
CONTINUOUS
  0
LAYER
  5
2AA2
330
2
100
AcDbSymbolTableRecord
100
AcDbLayerTableRecord
  2
下書線
 70
     0
 62
     2
  6
CONTINUOUS
  0
LAYER
  5
2AA3
330
2
100
AcDbSymbolTableRecord
100
AcDbLayerTableRecord
  2
隠れ線
 70
     0
 62
     3
  6
DASHED
  0
LAYER
  5
2AA4
330
2
100
AcDbSymbolTableRecord
100
AcDbLayerTableRecord
  2
細線
 70
     0
 62
     6
  6
CONTINUOUS
  0
LAYER
  5
2AA5
330
2
100
AcDbSymbolTableRecord
100
AcDbLayerTableRecord
  2
太線
 70
     0
 62
   190
  6
CONTINUOUS
  0
LAYER
  5
2B20
330
2
100
AcDbSymbolTableRecord
100
AcDbLayerTableRecord
  2
LAY-1
 70
     0
 62
     7
  6
CONTINUOUS
  0
LAYER
  5
2B21
330
2
100
AcDbSymbolTableRecord
100
AcDbLayerTableRecord
  2
LAY-2
 70
     0
 62
     7
  6
CONTINUOUS
  0
LAYER
  5
2B22
330
2
100
AcDbSymbolTableRecord
100
AcDbLayerTableRecord
  2
LAY-5
 70
     0
 62
     7
  6
CONTINUOUS
  0
LAYER
  5
2B23
330
2
100
AcDbSymbolTableRecord
100
AcDbLayerTableRecord
  2
LAY-6
 70
     0
 62
     7
  6
CONTINUOUS
  0
LAYER
  5
315D
330
2
100
AcDbSymbolTableRecord
100
AcDbLayerTableRecord
  2
1
 70
     0
 62
     7
  6
CONTINUOUS
  0
LAYER
  5
315E
330
2
100
AcDbSymbolTableRecord
100
AcDbLayerTableRecord
  2
TOMSZ
 70
     0
 62
     7
  6
CONTINUOUS
  0
LAYER
  5
315F
330
2
100
AcDbSymbolTableRecord
100
AcDbLayerTableRecord
  2
SORK
 70
     0
 62
     7
  6
CONTINUOUS
  0
ENDTAB
  0
TABLE
  2
STYLE
  5
3
330
0
100
AcDbSymbolTable
 70
     4
  0
STYLE
  5
10
330
3
100
AcDbSymbolTableRecord
100
AcDbTextStyleTableRecord
  2
STANDARD
 70
     0
 40
0.0
 41
1.0
 50
0.0
 71
     0
 42
2.333873885063
  3
ISOCP
  4
bigfont.shx
  0
STYLE
  5
64
330
3
100
AcDbSymbolTableRecord
100
AcDbTextStyleTableRecord
  2
EXCADSTD
 70
     0
 40
0.0
 41
1.0
 50
0.0
 71
     0
 42
0.2
  3
monotxt
  4
bigfont
  0
STYLE
  5
3160
330
3
100
AcDbSymbolTableRecord
100
AcDbTextStyleTableRecord
  2
TXTR3
 70
     0
 40
0.0
 41
1.0
 50
0.0
 71
     0
 42
9.0
  3
romans
  4

  0
STYLE
  5
3161
330
3
100
AcDbSymbolTableRecord
100
AcDbTextStyleTableRecord
  2
ROMANS
 70
     0
 40
0.0
 41
0.7
 50
0.0
 71
     0
 42
30.281113161952
  3
romans
  4

  0
ENDTAB
  0
TABLE
  2
VIEW
  5
6
330
0
100
AcDbSymbolTable
 70
     0
  0
ENDTAB
  0
TABLE
  2
UCS
  5
7
330
0
100
AcDbSymbolTable
 70
     0
  0
ENDTAB
  0
TABLE
  2
APPID
  5
9
330
0
100
AcDbSymbolTable
 70
     3
  0
APPID
  5
11
330
9
100
AcDbSymbolTableRecord
100
AcDbRegAppTableRecord
  2
ACAD
 70
     0
  0
APPID
  5
45EC
330
9
100
AcDbSymbolTableRecord
100
AcDbRegAppTableRecord
  2
ACADANNOTATIVE
 70
     0
  0
APPID
  5
4931
330
9
100
AcDbSymbolTableRecord
100
AcDbRegAppTableRecord
  2
ACAD_MLEADERVER
 70
     0
  0
ENDTAB
  0
TABLE
  2
DIMSTYLE
  5
A
330
0
100
AcDbSymbolTable
 70
     3
  0
DIMSTYLE
105
1D
330
A
100
AcDbSymbolTableRecord
100
AcDbDimStyleTableRecord
  2
STANDARD
 70
     0
  3

  4

  5

  6

  7

 40
1.0
 41
0.18
 42
0.0625
 43
0.38
 44
0.18
 45
0.0
 46
0.0
 47
0.0
 48
0.0
140
0.18
141
0.09
142
0.0
143
25.4
144
1.0
145
0.0
146
1.0
147
0.09
 71
     0
 72
     0
 73
     1
 74
     1
 75
     0
 76
     0
 77
     0
 78
     0
170
     0
171
     2
172
     0
173
     0
174
     0
175
     0
176
     0
177
     0
178
     0
270
     2
271
     4
272
     4
273
     2
274
     2
340
10
275
     0
280
     0
281
     0
282
     0
283
     1
284
     0
285
     0
286
     0
287
     3
288
     0
  0
DIMSTYLE
105
24
102
{ACAD_REACTORS
330
3002
330
300F
330
3082
330
3099
330
30D2
330
369E
330
4449
102
}
330
A
100
AcDbSymbolTableRecord
100
AcDbDimStyleTableRecord
  2
ISO-25
 70
     0
  3

  4

  5

  6

  7

 40
1.0
 41
2.5
 42
0.625
 43
3.75
 44
1.25
 45
0.0
 46
0.0
 47
0.0
 48
0.0
140
2.5
141
2.5
142
0.0
143
0.0394
144
1.0
145
1.0
146
1.0
147
0.625
 71
     0
 72
     0
 73
     1
 74
     0
 75
     0
 76
     0
 77
     1
 78
     8
170
     0
171
     2
172
     1
173
     0
174
     0
175
     0
176
     0
177
     0
178
     0
270
     2
271
     4
272
     4
273
     2
274
     2
340
10
275
     0
280
     0
281
     0
282
     0
283
     1
284
     0
285
     0
286
     0
287
     3
288
     0
  0
DIMSTYLE
105
3162
330
A
100
AcDbSymbolTableRecord
100
AcDbDimStyleTableRecord
  2
NORMAL
 70
     0
  3

  4

  5

  6

  7

 40
1.0
 41
8.0
 42
1.0
 43
0.38
 44
1.0
 45
0.0
 46
0.0
 47
0.0
 48
0.0
140
10.0
141
0.0
142
0.0
143
25.4
144
1.0
145
0.0
146
1.0
147
3.0
 71
     0
 72
     0
 73
     0
 74
     0
 75
     0
 76
     0
 77
     1
 78
     8
170
     0
171
     2
172
     1
173
     0
174
     0
175
     0
176
     7
177
     7
178
     4
270
     2
271
     1
272
     1
273
     2
274
     2
340
3161
275
     0
280
     0
281
     0
282
     0
283
     1
284
     8
285
     8
286
     8
287
     5
288
     0
  0
ENDTAB
  0
TABLE
  2
BLOCK_RECORD
  5
1
330
0
100
AcDbSymbolTable
 70
    14
  0
BLOCK_RECORD
  5
1A
330
1
100
AcDbSymbolTableRecord
100
AcDbBlockTableRecord
  2
*MODEL_SPACE
  0
BLOCK_RECORD
  5
28FB
330
1
100
AcDbSymbolTableRecord
100
AcDbBlockTableRecord
  2
*PAPER_SPACE
  0
BLOCK_RECORD
  5
65
330
1
100
AcDbSymbolTableRecord
100
AcDbBlockTableRecord
  2
A$C3392
  0
BLOCK_RECORD
  5
29BF
330
1
100
AcDbSymbolTableRecord
100
AcDbBlockTableRecord
  2
A4横用_タイトル
1001
ACAD
1000
DesignCenter Data
1002
{
1070
     1
1070
     4
1002
}
  0
BLOCK_RECORD
  5
29F4
330
1
100
AcDbSymbolTableRecord
100
AcDbBlockTableRecord
  2
A4縦用_タイトル
1001
ACAD
1000
DesignCenter Data
1002
{
1070
     1
1070
     4
1002
}
  0
BLOCK_RECORD
  5
2A32
330
1
100
AcDbSymbolTableRecord
100
AcDbBlockTableRecord
  2
A3横用_タイトル
1001
ACAD
1000
DesignCenter Data
1002
{
1070
     1
1070
     4
1002
}
  0
BLOCK_RECORD
  5
2A6C
330
1
100
AcDbSymbolTableRecord
100
AcDbBlockTableRecord
  2
A3縦用_タイトル
1001
ACAD
1000
DesignCenter Data
1002
{
1070
     1
1070
     4
1002
}
  0
BLOCK_RECORD
  5
2AF4
330
1
100
AcDbSymbolTableRecord
100
AcDbBlockTableRecord
  2
_OPEN30
  0
BLOCK_RECORD
  5
3003
330
1
100
AcDbSymbolTableRecord
100
AcDbBlockTableRecord
  2
*D6
  0
BLOCK_RECORD
  5
3010
330
1
100
AcDbSymbolTableRecord
100
AcDbBlockTableRecord
  2
*D7
  0
BLOCK_RECORD
  5
3083
330
1
100
AcDbSymbolTableRecord
100
AcDbBlockTableRecord
  2
*D8
  0
BLOCK_RECORD
  5
309A
330
1
100
AcDbSymbolTableRecord
100
AcDbBlockTableRecord
  2
*D9
  0
BLOCK_RECORD
  5
30D3
330
1
100
AcDbSymbolTableRecord
100
AcDbBlockTableRecord
  2
*D10
  0
BLOCK_RECORD
  5
3494
330
1
100
AcDbSymbolTableRecord
100
AcDbBlockTableRecord
  2
A$C5338004D
  0
BLOCK_RECORD
  5
369F
330
1
100
AcDbSymbolTableRecord
100
AcDbBlockTableRecord
  2
*D12
  0
BLOCK_RECORD
  5
444A
330
1
100
AcDbSymbolTableRecord
100
AcDbBlockTableRecord
  2
*D13
  0
ENDTAB
  0
ENDSEC
  0
SECTION
  2
BLOCKS
  0
BLOCK
  5
1B
330
1A
100
AcDbEntity
  8
0
100
AcDbBlockBegin
  2
*MODEL_SPACE
 70
     0
 10
0.0
 20
0.0
 30
0.0
  3
*MODEL_SPACE
  1

  0
ENDBLK
  5
1C
330
1A
100
AcDbEntity
  8
0
100
AcDbBlockEnd
  0
BLOCK
  5
28FD
330
28FB
100
AcDbEntity
 67
     1
  8
0
 48
10.0
100
AcDbBlockBegin
  2
*PAPER_SPACE
 70
     0
 10
0.0
 20
0.0
 30
0.0
  3
*PAPER_SPACE
  1

  0
ENDBLK
  5
28FE
330
28FB
100
AcDbEntity
 67
     1
  8
0
 48
10.0
100
AcDbBlockEnd
  0
BLOCK
  5
93
330
65
100
AcDbEntity
  8
0
100
AcDbBlockBegin
  2
A$C3392
 70
     0
 10
0.0
 20
0.0
 30
0.0
  3
A$C3392
  1

  0
LINE
  5
66
330
65
100
AcDbEntity
  8
図枠太線
  6
CONTINUOUS
100
AcDbLine
 10
211.858584505185
 20
30.927375675439
 30
0.0
 11
211.858584505185
 21
0.927375675439
 31
0.0
  0
LINE
  5
67
330
65
100
AcDbEntity
  8
図枠細線
  6
CONTINUOUS
100
AcDbLine
 10
231.858592505185
 20
15.927377675439
 30
0.0
 11
287.858592505185
 21
15.927375675439
 31
0.0
  0
LINE
  5
68
330
65
100
AcDbEntity
  8
図枠細線
  6
CONTINUOUS
100
AcDbLine
 10
211.858592505185
 20
15.927377675439
 30
0.0
 11
231.858592505185
 21
15.927377675439
 31
0.0
  0
LINE
  5
69
330
65
100
AcDbEntity
  8
図枠太線
  6
CONTINUOUS
 62
   251
100
AcDbLine
 10
1.858584505185
 20
0.927375675439
 30
0.0
 11
1.858584505185
 21
275.927375675439
 31
0.0
  0
TEXT
  5
6A
330
65
100
AcDbEntity
  8
図枠細線
  6
CONTINUOUS
 62
   252
100
AcDbText
 10
351.358592505185
 20
28.427377675439
 30
0.0
 40
2.0
  1
ＴＩＴＬＥ
 41
0.903614457831
  7
EXCADSTD
 72
     5
 11
361.358592505185
 21
28.427377675439
 31
0.0
100
AcDbText
  0
TEXT
  5
6B
330
65
100
AcDbEntity
  8
図枠細線
  6
CONTINUOUS
 62
   252
100
AcDbText
 10
345.358592505185
 20
28.427377675439
 30
0.0
 40
2.0
  1
名称
 41
1.171875
  7
EXCADSTD
 72
     5
 11
350.358592505185
 21
28.427377675439
 31
0.0
100
AcDbText
  0
TEXT
  5
6C
330
65
100
AcDbEntity
  8
図枠細線
  6
CONTINUOUS
 62
   252
100
AcDbText
 10
274.358592505185
 20
25.927377675439
 30
0.0
 40
2.0
  1
ＤＲＡＷＮ
 41
0.882352941176
  7
EXCADSTD
 72
     5
 11
284.358592505185
 21
25.927377675439
 31
0.0
100
AcDbText
  0
TEXT
  5
6D
330
65
100
AcDbEntity
  8
図枠細線
  6
CONTINUOUS
 62
   252
100
AcDbText
 10
260.358592505185
 20
25.927377675439
 30
0.0
 40
2.0
  1
ＤＥＳＩＧＮＥＤ
 41
0.713043472041
  7
EXCADSTD
 72
     5
 11
273.478592390744
 21
25.927377675439
 31
0.0
100
AcDbText
  0
TEXT
  5
6E
330
65
100
AcDbEntity
  8
図枠細線
  6
CONTINUOUS
 62
   252
100
AcDbText
 10
246.358592505185
 20
25.927377675439
 30
0.0
 40
2.0
  1
ＣＨＥＣＫＥＤ
 41
0.831249989569
  7
EXCADSTD
 72
     5
 11
259.658592338292
 21
25.927377675439
 31
0.0
100
AcDbText
  0
TEXT
  5
6F
330
65
100
AcDbEntity
  8
図枠細線
  6
CONTINUOUS
 62
   252
100
AcDbText
 10
274.358592505185
 20
28.427377675439
 30
0.0
 40
2.0
  1
製図
 41
1.209677419355
  7
EXCADSTD
 72
     5
 11
279.358592505185
 21
28.427377675439
 31
0.0
100
AcDbText
  0
TEXT
  5
70
330
65
100
AcDbEntity
  8
図枠細線
  6
CONTINUOUS
 62
   252
100
AcDbText
 10
260.358592505185
 20
28.427377675439
 30
0.0
 40
2.0
  1
設計
 41
1.171875
  7
EXCADSTD
 72
     5
 11
265.358592505185
 21
28.427377675439
 31
0.0
100
AcDbText
  0
TEXT
  5
71
330
65
100
AcDbEntity
  8
図枠細線
  6
CONTINUOUS
 62
   252
100
AcDbText
 10
246.358592505185
 20
28.427377675439
 30
0.0
 40
2.0
  1
検図
 41
1.209677419355
  7
EXCADSTD
 72
     5
 11
251.358592505185
 21
28.427377675439
 31
0.0
100
AcDbText
  0
TEXT
  5
72
330
65
100
AcDbEntity
  8
図枠細線
  6
CONTINUOUS
 62
   252
100
AcDbText
 10
232.358592505185
 20
25.927377675439
 30
0.0
 40
2.0
  1
ＡＰＰＲＯＶＥＤ
 41
0.695652184279
  7
EXCADSTD
 72
     5
 11
245.15859269592
 21
25.927377675439
 31
0.0
100
AcDbText
  0
TEXT
  5
73
330
65
100
AcDbEntity
  8
図枠細線
  6
CONTINUOUS
 62
   252
100
AcDbText
 10
232.358592505185
 20
28.427377675439
 30
0.0
 40
2.0
  1
承認
 41
1.171875
  7
EXCADSTD
 72
     5
 11
237.358592505185
 21
28.427377675439
 31
0.0
100
AcDbText
  0
TEXT
  5
74
330
65
100
AcDbEntity
  8
図枠細線
  6
CONTINUOUS
 62
   252
100
AcDbText
 10
290.069888505185
 20
2.574868675439
 30
0.0
 40
3.5
  1
ＴＯＷＡ　ＳＥＩＤＥＮ　ＩＮＤＵＳＴＲＩＡＬ　ＣＯ．，ＬＴＤ．
 41
0.414568012377
  7
EXCADSTD
 72
     5
 11
342.692388209546
 21
2.574868675439
 31
0.0
100
AcDbText
  0
TEXT
  5
75
330
65
100
AcDbEntity
  8
図枠ロゴマーク
  6
CONTINUOUS
 62
   253
100
AcDbText
 10
290.107348505185
 20
7.519769675439
 30
0.0
 40
7.0
  1
東和制電工業株式会社
 41
0.639204545455
  7
EXCADSTD
 72
     5
 11
342.607348505185
 21
7.519769675439
 31
0.0
100
AcDbText
  0
TEXT
  5
76
330
65
100
AcDbEntity
  8
図枠細線
  6
CONTINUOUS
 62
   252
100
AcDbText
 10
232.499705505185
 20
5.759088675439
 30
0.0
 40
2.0
  1
ＰＲＯＪＥＣＴＩＯＮ
 41
0.754285710199
  7
EXCADSTD
 72
     5
 11
250.099705409817
 21
5.759088675439
 31
0.0
100
AcDbText
  0
TEXT
  5
77
330
65
100
AcDbEntity
  8
図枠細線
  6
CONTINUOUS
 62
   252
100
AcDbText
 10
232.574629505185
 20
8.681077675439
 30
0.0
 40
2.0
  1
ＴＨＩＲＤ　ＡＮＧＬＥ
 41
0.691099486738
  7
EXCADSTD
 72
     5
 11
250.174629767445
 21
8.681077675439
 31
0.0
100
AcDbText
  0
TEXT
  5
78
330
65
100
AcDbEntity
  8
図枠細線
  6
CONTINUOUS
 62
   252
100
AcDbText
 10
256.823999505185
 20
13.427377675439
 30
0.0
 40
2.0
  1
ＳＣＡＬＥ
 41
0.903614457831
  7
EXCADSTD
 72
     5
 11
266.823999505185
 21
13.427377675439
 31
0.0
100
AcDbText
  0
TEXT
  5
79
330
65
100
AcDbEntity
  8
図枠細線
  6
CONTINUOUS
 62
   252
100
AcDbText
 10
274.858592505185
 20
13.427377675439
 30
0.0
 40
2.0
  1
ＤＡＴＥ
 41
0.923076923077
  7
EXCADSTD
 72
     5
 11
282.858592505185
 21
13.427377675439
 31
0.0
100
AcDbText
  0
TEXT
  5
7A
330
65
100
AcDbEntity
  8
図枠細線
  6
CONTINUOUS
 62
   252
100
AcDbText
 10
356.358592505185
 20
13.427377675439
 30
0.0
 40
2.0
  1
ＤＲＧ．ＮＯ．
 41
0.9375
  7
EXCADSTD
 72
     5
 11
370.358592505185
 21
13.427377675439
 31
0.0
100
AcDbText
  0
TEXT
  5
7B
330
65
100
AcDbEntity
  8
図枠細線
  6
CONTINUOUS
 62
   252
100
AcDbText
 10
345.358592505185
 20
13.427377675439
 30
0.0
 40
2.0
  1
図面番号
 41
1.102941176471
  7
EXCADSTD
 72
     5
 11
355.358592505185
 21
13.427377675439
 31
0.0
100
AcDbText
  0
TEXT
  5
7C
330
65
100
AcDbEntity
  8
図枠細線
  6
CONTINUOUS
 62
   252
100
AcDbText
 10
269.358592505185
 20
13.427377675439
 30
0.0
 40
2.0
  1
日付
 41
1.171875
  7
EXCADSTD
 72
     5
 11
274.358592505185
 21
13.427377675439
 31
0.0
100
AcDbText
  0
TEXT
  5
7D
330
65
100
AcDbEntity
  8
図枠細線
  6
CONTINUOUS
 62
   252
100
AcDbText
 10
251.451512505185
 20
13.427377675439
 30
0.0
 40
2.0
  1
尺度
 41
1.171875
  7
EXCADSTD
 72
     5
 11
256.451512505185
 21
13.427377675439
 31
0.0
100
AcDbText
  0
TEXT
  5
7E
330
65
100
AcDbEntity
  8
図枠細線
  6
CONTINUOUS
 62
   252
100
AcDbText
 10
232.358592505185
 20
13.427377675439
 30
0.0
 40
2.0
  1
第三角法
 41
1.102941176471
  7
EXCADSTD
 72
     5
 11
242.358592505185
 21
13.427377675439
 31
0.0
100
AcDbText
  0
TEXT
  5
7F
330
65
100
AcDbEntity
  8
図枠細線
  6
CONTINUOUS
 62
   252
100
AcDbText
 10
212.358592505185
 20
28.427377675439
 30
0.0
 40
2.0
  1
ＮＯＴＥ
 41
0.923076923077
  7
EXCADSTD
 72
     5
 11
220.358592505185
 21
28.427377675439
 31
0.0
100
AcDbText
  0
LINE
  5
80
330
65
100
AcDbEntity
  8
図枠細線
  6
CONTINUOUS
 62
   252
100
AcDbLine
 10
287.858592505185
 20
23.427375675439
 30
0.0
 11
344.858592505185
 21
23.427375675439
 31
0.0
  0
LINE
  5
81
330
65
100
AcDbEntity
  8
図枠太線
  6
CONTINUOUS
 62
   251
100
AcDbLine
 10
287.858584505185
 20
15.927375675439
 30
0.0
 11
344.858592505185
 21
15.927375675439
 31
0.0
  0
LINE
  5
82
330
65
100
AcDbEntity
  8
図枠細線
  6
CONTINUOUS
 62
   252
100
AcDbLine
 10
344.858592505185
 20
15.927375675439
 30
0.0
 11
401.858584505185
 21
15.927375675439
 31
0.0
  0
LINE
  5
83
330
65
100
AcDbEntity
  8
図枠太線
  6
CONTINUOUS
 62
   251
100
AcDbLine
 10
344.858592505185
 20
0.927377675439
 30
0.0
 11
344.858592505185
 21
30.927375675439
 31
0.0
  0
LINE
  5
84
330
65
100
AcDbEntity
  8
図枠太線
  6
CONTINUOUS
 62
   251
100
AcDbLine
 10
287.858592505185
 20
0.927377675439
 30
0.0
 11
287.858592505185
 21
30.927375675439
 31
0.0
  0
LINE
  5
85
330
65
100
AcDbEntity
  8
図枠細線
  6
CONTINUOUS
 62
   252
100
AcDbLine
 10
268.858592505185
 20
0.927377675439
 30
0.0
 11
268.858592505185
 21
15.927375675439
 31
0.0
  0
LINE
  5
86
330
65
100
AcDbEntity
  8
図枠細線
  6
CONTINUOUS
 62
   252
100
AcDbLine
 10
250.858592505185
 20
0.927377675439
 30
0.0
 11
250.858592505185
 21
15.927375675439
 31
0.0
  0
LINE
  5
87
330
65
100
AcDbEntity
  8
図枠細線
  6
CONTINUOUS
 62
   252
100
AcDbLine
 10
273.858592505185
 20
30.927375675439
 30
0.0
 11
273.858592505185
 21
15.927375675439
 31
0.0
  0
LINE
  5
88
330
65
100
AcDbEntity
  8
図枠細線
  6
CONTINUOUS
 62
   252
100
AcDbLine
 10
259.858592505185
 20
30.927375675439
 30
0.0
 11
259.858592505185
 21
15.927375675439
 31
0.0
  0
LINE
  5
89
330
65
100
AcDbEntity
  8
図枠細線
  6
CONTINUOUS
 62
   252
100
AcDbLine
 10
245.858592505185
 20
30.927375675439
 30
0.0
 11
245.858592505185
 21
15.927375675439
 31
0.0
  0
LINE
  5
8A
330
65
100
AcDbEntity
  8
図枠太線
  6
CONTINUOUS
 62
   251
100
AcDbLine
 10
231.858592505185
 20
0.927377675439
 30
0.0
 11
231.858592505185
 21
30.927375675439
 31
0.0
  0
LINE
  5
8B
330
65
100
AcDbEntity
  8
図枠細線
  6
CONTINUOUS
 62
   252
100
AcDbLine
 10
211.858592505185
 20
25.927375675439
 30
0.0
 11
231.858592505185
 21
25.927375675439
 31
0.0
  0
LINE
  5
8C
330
65
100
AcDbEntity
  8
図枠細線
  6
CONTINUOUS
 62
   252
100
AcDbLine
 10
211.858592505185
 20
20.927375675439
 30
0.0
 11
231.858592505185
 21
20.927375675439
 31
0.0
  0
LINE
  5
8D
330
65
100
AcDbEntity
  8
図枠細線
  6
CONTINUOUS
 62
   252
100
AcDbLine
 10
211.858592505185
 20
10.927375675439
 30
0.0
 11
231.858592505185
 21
10.927375675439
 31
0.0
  0
LINE
  5
8E
330
65
100
AcDbEntity
  8
図枠細線
  6
CONTINUOUS
 62
   252
100
AcDbLine
 10
211.858592505185
 20
5.927377675439
 30
0.0
 11
231.858592505185
 21
5.927377675439
 31
0.0
  0
LINE
  5
8F
330
65
100
AcDbEntity
  8
図枠太線
  6
CONTINUOUS
 62
   251
100
AcDbLine
 10
211.858592505185
 20
30.927375675439
 30
0.0
 11
401.858584505185
 21
30.927375675439
 31
0.0
  0
LINE
  5
90
330
65
100
AcDbEntity
  8
図枠太線
  6
CONTINUOUS
 62
   251
100
AcDbLine
 10
1.858584505185
 20
275.927375675439
 30
0.0
 11
401.858584505185
 21
275.927375675439
 31
0.0
  0
LINE
  5
91
330
65
100
AcDbEntity
  8
図枠太線
  6
CONTINUOUS
 62
   251
100
AcDbLine
 10
401.858584505185
 20
0.927375675439
 30
0.0
 11
401.858584505185
 21
275.927375675439
 31
0.0
  0
LINE
  5
92
330
65
100
AcDbEntity
  8
図枠太線
  6
CONTINUOUS
 62
   251
100
AcDbLine
 10
1.858584505185
 20
0.927375675439
 30
0.0
 11
401.858584505185
 21
0.927375675439
 31
0.0
  0
ENDBLK
  5
94
330
65
100
AcDbEntity
  8
0
100
AcDbBlockEnd
  0
BLOCK
  5
29C0
330
29BF
100
AcDbEntity
  8
0
100
AcDbBlockBegin
  2
A4横用_タイトル
 70
     0
 10
0.0
 20
0.0
 30
0.0
  3
A4横用_タイトル
  1

  0
LINE
  5
29C1
330
29BF
100
AcDbEntity
  8
図枠細線
  6
CONTINUOUS
100
AcDbLine
 10
75.061011071051
 20
16.806607253358
 30
0.0
 11
144.061011071051
 21
16.806604789072
 31
0.0
  0
LINE
  5
29C2
330
29BF
100
AcDbEntity
  8
図枠細線
  6
CONTINUOUS
 62
   252
100
AcDbLine
 10
4.061011071051
 20
11.806606253358
 30
0.0
 11
75.061011071051
 21
11.806606253358
 31
0.0
  0
LINE
  5
29C3
330
29BF
100
AcDbEntity
  8
図枠細線
  6
CONTINUOUS
 62
   252
100
AcDbLine
 10
4.061011071051
 20
21.806606253358
 30
0.0
 11
75.061011071051
 21
21.806606253358
 31
0.0
  0
LINE
  5
29C4
330
29BF
100
AcDbEntity
  8
図枠細線
  6
CONTINUOUS
 62
   252
100
AcDbLine
 10
4.061011071051
 20
26.806606253358
 30
0.0
 11
75.061011071051
 21
26.806606253358
 31
0.0
  0
LINE
  5
29C5
330
29BF
100
AcDbEntity
  8
図枠細線
  6
CONTINUOUS
100
AcDbLine
 10
4.061011071051
 20
16.806608253358
 30
0.0
 11
75.061011071051
 21
16.806608253358
 31
0.0
  0
TEXT
  5
29C6
330
29BF
100
AcDbEntity
  8
図枠細線
  6
CONTINUOUS
 62
   252
100
AcDbText
 10
76.405475827713
 20
9.560308253358
 30
0.0
 40
2.0
  1
ＴＨＩＲＤ　ＡＮＧＬＥ
 41
0.691099486738
  7
EXCADSTD
 72
     5
 11
94.005476089973
 21
9.560308253358
 31
0.0
100
AcDbText
  0
TEXT
  5
29C7
330
29BF
100
AcDbEntity
  8
図枠細線
  6
CONTINUOUS
 62
   252
100
AcDbText
 10
76.705775880921
 20
14.306608253358
 30
0.0
 40
2.0
  1
第三角法
 41
1.102941176471
  7
EXCADSTD
 72
     5
 11
86.705775880921
 21
14.306608253358
 31
0.0
100
AcDbText
  0
TEXT
  5
29C8
330
29BF
100
AcDbEntity
  8
図枠細線
  6
CONTINUOUS
 62
   252
100
AcDbText
 10
76.705775880921
 20
26.806608253358
 30
0.0
 40
2.0
  1
ＡＰＰＲＯＶＥＤ
 41
0.695652184279
  7
EXCADSTD
 72
     5
 11
89.505776071656
 21
26.806608253358
 31
0.0
100
AcDbText
  0
TEXT
  5
29C9
330
29BF
100
AcDbEntity
  8
図枠細線
  6
CONTINUOUS
 62
   252
100
AcDbText
 10
76.705775880921
 20
29.306608253358
 30
0.0
 40
2.0
  1
承認
 41
1.171875
  7
EXCADSTD
 72
     5
 11
81.705775880921
 21
29.306608253358
 31
0.0
100
AcDbText
  0
LINE
  5
29CA
330
29BF
100
AcDbEntity
  8
図枠細線
  6
CONTINUOUS
 62
   252
100
AcDbLine
 10
98.061011071051
 20
31.806606253358
 30
0.0
 11
98.061011071051
 21
16.806606253358
 31
0.0
  0
TEXT
  5
29CB
330
29BF
100
AcDbEntity
  8
図枠細線
  6
CONTINUOUS
 62
   252
100
AcDbText
 10
104.216531119804
 20
14.306608253358
 30
0.0
 40
2.0
  1
ＳＣＡＬＥ
 41
0.903614457831
  7
EXCADSTD
 72
     5
 11
114.216531119804
 21
14.306608253358
 31
0.0
100
AcDbText
  0
TEXT
  5
29CC
330
29BF
100
AcDbEntity
  8
図枠細線
  6
CONTINUOUS
 62
   252
100
AcDbText
 10
98.844044119804
 20
14.306608253358
 30
0.0
 40
2.0
  1
尺度
 41
1.171875
  7
EXCADSTD
 72
     5
 11
103.844044119804
 21
14.306608253358
 31
0.0
100
AcDbText
  0
TEXT
  5
29CD
330
29BF
100
AcDbEntity
  8
図枠細線
  6
CONTINUOUS
 62
   252
100
AcDbText
 10
98.968727707497
 20
26.806608253358
 30
0.0
 40
2.0
  1
ＣＨＥＣＫＥＤ
 41
0.831249989569
  7
EXCADSTD
 72
     5
 11
112.268727540604
 21
26.806608253358
 31
0.0
100
AcDbText
  0
TEXT
  5
29CE
330
29BF
100
AcDbEntity
  8
図枠細線
  6
CONTINUOUS
 62
   252
100
AcDbText
 10
98.968727707497
 20
29.306608253358
 30
0.0
 40
2.0
  1
検図
 41
1.209677419355
  7
EXCADSTD
 72
     5
 11
103.968727707497
 21
29.306608253358
 31
0.0
100
AcDbText
  0
LINE
  5
29CF
330
29BF
100
AcDbEntity
  8
図枠細線
  6
CONTINUOUS
 62
   252
100
AcDbLine
 10
121.061011071051
 20
31.806606253358
 30
0.0
 11
121.061011071051
 21
16.806606253358
 31
0.0
  0
TEXT
  5
29D0
330
29BF
100
AcDbEntity
  8
図枠細線
  6
CONTINUOUS
 62
   252
100
AcDbText
 10
128.001465247253
 20
14.306608253358
 30
0.0
 40
2.0
  1
ＤＡＴＥ
 41
0.923076923077
  7
EXCADSTD
 72
     5
 11
136.001465247253
 21
14.306608253358
 31
0.0
100
AcDbText
  0
TEXT
  5
29D1
330
29BF
100
AcDbEntity
  8
図枠細線
  6
CONTINUOUS
 62
   252
100
AcDbText
 10
122.066415498841
 20
14.306608253358
 30
0.0
 40
2.0
  1
日付
 41
1.171875
  7
EXCADSTD
 72
     5
 11
127.066415498841
 21
14.306608253358
 31
0.0
100
AcDbText
  0
TEXT
  5
29D2
330
29BF
100
AcDbEntity
  8
図枠細線
  6
CONTINUOUS
 62
   252
100
AcDbText
 10
121.59429406571
 20
29.306608253358
 30
0.0
 40
2.0
  1
製図
 41
1.209677419355
  7
EXCADSTD
 72
     5
 11
126.59429406571
 21
29.306608253358
 31
0.0
100
AcDbText
  0
TEXT
  5
29D3
330
29BF
100
AcDbEntity
  8
図枠細線
  6
CONTINUOUS
 62
   252
100
AcDbText
 10
121.59429406571
 20
26.806608253358
 30
0.0
 40
2.0
  1
ＤＲＡＷＮ
 41
0.882352941176
  7
EXCADSTD
 72
     5
 11
131.59429406571
 21
26.806608253358
 31
0.0
100
AcDbText
  0
TEXT
  5
29D4
330
29BF
100
AcDbEntity
  8
図枠細線
  6
CONTINUOUS
 62
   252
100
AcDbText
 10
226.591229661348
 20
14.306608253358
 30
0.0
 40
2.0
  1
ＤＲＧ．ＮＯ．
 41
0.9375
  7
EXCADSTD
 72
     5
 11
240.591229661348
 21
14.306608253358
 31
0.0
100
AcDbText
  0
LINE
  5
29D5
330
29BF
100
AcDbEntity
  8
図枠太線
  6
CONTINUOUS
 62
   251
100
AcDbLine
 10
144.061003071051
 20
16.806606253358
 30
0.0
 11
214.061011071051
 21
16.806606253358
 31
0.0
  0
LINE
  5
29D6
330
29BF
100
AcDbEntity
  8
図枠細線
  6
CONTINUOUS
 62
   252
100
AcDbLine
 10
144.061011071051
 20
24.306606253358
 30
0.0
 11
214.061011071051
 21
24.306606253358
 31
0.0
  0
TEXT
  5
29D7
330
29BF
100
AcDbEntity
  8
図枠ロゴマーク
  6
CONTINUOUS
 62
   253
100
AcDbText
 10
146.433776781596
 20
8.399000253358
 30
0.0
 40
7.0
  1
東和制電工業株式会社
 41
0.80361088462
  7
EXCADSTD
 72
     5
 11
212.437017438349
 21
8.399000253358
 31
0.0
100
AcDbText
  0
TEXT
  5
29D8
330
29BF
100
AcDbEntity
  8
図枠細線
  6
CONTINUOUS
 62
   252
100
AcDbText
 10
215.156179912936
 20
14.306608253358
 30
0.0
 40
2.0
  1
図面番号
 41
1.102941176471
  7
EXCADSTD
 72
     5
 11
225.156179912936
 21
14.306608253358
 31
0.0
100
AcDbText
  0
TEXT
  5
29D9
330
29BF
100
AcDbEntity
  8
図枠細線
  6
CONTINUOUS
 62
   252
100
AcDbText
 10
221.591229661348
 20
29.306608253358
 30
0.0
 40
2.0
  1
ＴＩＴＬＥ
 41
0.903614457831
  7
EXCADSTD
 72
     5
 11
231.591229661348
 21
29.306608253358
 31
0.0
100
AcDbText
  0
TEXT
  5
29DA
330
29BF
100
AcDbEntity
  8
図枠細線
  6
CONTINUOUS
 62
   252
100
AcDbText
 10
215.156179912936
 20
29.306608253358
 30
0.0
 40
2.0
  1
名称
 41
1.171875
  7
EXCADSTD
 72
     5
 11
220.156179912936
 21
29.306608253358
 31
0.0
100
AcDbText
  0
LINE
  5
29DB
330
29BF
100
AcDbEntity
  8
図枠太線
  6
CONTINUOUS
 62
   251
100
AcDbLine
 10
4.061011071051
 20
1.806608253358
 30
0.0
 11
284.061011071051
 21
1.806608253358
 31
0.0
  0
LINE
  5
29DC
330
29BF
100
AcDbEntity
  8
図枠細線
  6
CONTINUOUS
 62
   252
100
AcDbLine
 10
4.061011071051
 20
6.806608253358
 30
0.0
 11
75.061011071051
 21
6.806608253358
 31
0.0
  0
LINE
  5
29DD
330
29BF
100
AcDbEntity
  8
図枠太線
  6
CONTINUOUS
 62
   251
100
AcDbLine
 10
75.061011071051
 20
1.806608253358
 30
0.0
 11
75.061011071051
 21
31.806606253358
 31
0.0
  0
TEXT
  5
29DE
330
29BF
100
AcDbEntity
  8
図枠細線
  6
CONTINUOUS
 62
   252
100
AcDbText
 10
76.330551827713
 20
6.638319253358
 30
0.0
 40
2.0
  1
ＰＲＯＪＥＣＴＩＯＮ
 41
0.754285710199
  7
EXCADSTD
 72
     5
 11
93.930551732346
 21
6.638319253358
 31
0.0
100
AcDbText
  0
LINE
  5
29DF
330
29BF
100
AcDbEntity
  8
図枠細線
  6
CONTINUOUS
 62
   252
100
AcDbLine
 10
98.061011071051
 20
1.806606931929
 30
0.0
 11
98.061011071051
 21
16.806604931929
 31
0.0
  0
LINE
  5
29E0
330
29BF
100
AcDbEntity
  8
図枠細線
  6
CONTINUOUS
 62
   252
100
AcDbLine
 10
121.061011071051
 20
1.806607574787
 30
0.0
 11
121.061011071051
 21
16.806605574787
 31
0.0
  0
LINE
  5
29E1
330
29BF
100
AcDbEntity
  8
図枠太線
  6
CONTINUOUS
 62
   251
100
AcDbLine
 10
284.061011071051
 20
1.806608253358
 30
0.0
 11
284.061011071051
 21
31.806606253358
 31
0.0
  0
LINE
  5
29E2
330
29BF
100
AcDbEntity
  8
図枠細線
  6
CONTINUOUS
 62
   252
100
AcDbLine
 10
214.061011071051
 20
16.806606253358
 30
0.0
 11
284.061011071051
 21
16.806606253358
 31
0.0
  0
TEXT
  5
29E3
330
29BF
100
AcDbEntity
  8
図枠細線
  6
CONTINUOUS
 62
   252
100
AcDbText
 10
146.199593676182
 20
3.454099253358
 30
0.0
 40
3.5
  1
ＴＯＷＡ　ＳＥＩＤＥＮ　ＩＮＤＵＳＴＲＩＡＬ　ＣＯ．，ＬＴＤ．
 41
0.528937826907
  7
EXCADSTD
 72
     5
 11
213.339435171588
 21
3.454099253358
 31
0.0
100
AcDbText
  0
LINE
  5
29E4
330
29BF
100
AcDbEntity
  8
図枠太線
  6
CONTINUOUS
 62
   251
100
AcDbLine
 10
144.061011071051
 20
1.806608253358
 30
0.0
 11
144.061011071051
 21
31.806606253358
 31
0.0
  0
LINE
  5
29E5
330
29BF
100
AcDbEntity
  8
図枠太線
  6
CONTINUOUS
 62
   251
100
AcDbLine
 10
214.061011071051
 20
1.806608253358
 30
0.0
 11
214.061011071051
 21
31.806606253358
 31
0.0
  0
MTEXT
  5
29E6
330
29BF
100
AcDbEntity
  8
図枠太線
100
AcDbMText
 10
5.064337346478
 20
31.010982137407
 30
0.0
 40
2.5
 41
8.67856098472
 71
     1
 72
     5
  1
{\Fmonotxt.shx,bigfont.shx|c128;図暦}
  0
LINE
  5
29E7
330
29BF
100
AcDbEntity
  8
図枠太線
  6
CONTINUOUS
 62
   251
100
AcDbLine
 10
4.061011071051
 20
1.806608253358
 30
0.0
 11
4.061011071051
 21
31.806606253358
 31
0.0
  0
TEXT
  5
29E8
330
29BF
100
AcDbEntity
  8
図枠細線
 48
10.0
100
AcDbText
 10
12.260817420402
 20
28.625419626495
 30
0.0
 40
2.0
  1
CHANGE NOTICE
100
AcDbText
  0
ENDBLK
  5
29E9
330
29BF
100
AcDbEntity
  8
0
100
AcDbBlockEnd
  0
BLOCK
  5
29F5
330
29F4
100
AcDbEntity
  8
0
100
AcDbBlockBegin
  2
A4縦用_タイトル
 70
     0
 10
0.0
 20
0.0
 30
0.0
  3
A4縦用_タイトル
  1

  0
LINE
  5
29F6
330
29F4
100
AcDbEntity
  8
図枠太線
  6
CONTINUOUS
 62
   251
100
AcDbLine
 10
2.368253864267
 20
4.525433224584
 30
0.0
 11
192.368245864267
 21
4.525433224584
 31
0.0
  0
LINE
  5
29F7
330
29F4
100
AcDbEntity
  8
図枠太線
  6
CONTINUOUS
 62
   251
100
AcDbLine
 10
78.368245864267
 20
19.525431224584
 30
0.0
 11
135.368253864267
 21
19.525431224584
 31
0.0
  0
LINE
  5
29F8
330
29F4
100
AcDbEntity
  8
図枠細線
  6
CONTINUOUS
 62
   252
100
AcDbLine
 10
78.368253864267
 20
27.025431224584
 30
0.0
 11
135.368253864267
 21
27.025431224584
 31
0.0
  0
TEXT
  5
29F9
330
29F4
100
AcDbEntity
  8
図枠ロゴマーク
  6
CONTINUOUS
 62
   253
100
AcDbText
 10
80.617009864267
 20
11.117825224584
 30
0.0
 40
7.0
  1
東和制電工業株式会社
 41
0.639204545455
  7
EXCADSTD
 72
     5
 11
133.117009864267
 21
11.117825224584
 31
0.0
100
AcDbText
  0
TEXT
  5
29FA
330
29F4
100
AcDbEntity
  8
図枠細線
  6
CONTINUOUS
 62
   252
100
AcDbText
 10
80.579549864267
 20
6.172924224584
 30
0.0
 40
3.5
  1
ＴＯＷＡ　ＳＥＩＤＥＮ　ＩＮＤＵＳＴＲＩＡＬ　ＣＯ．，ＬＴＤ．
 41
0.414568012377
  7
EXCADSTD
 72
     5
 11
133.202049568628
 21
6.172924224584
 31
0.0
100
AcDbText
  0
LINE
  5
29FB
330
29F4
100
AcDbEntity
  8
図枠太線
  6
CONTINUOUS
 62
   251
100
AcDbLine
 10
2.368253864267
 20
4.525433224584
 30
0.0
 11
2.368253864267
 21
34.525431224584
 31
0.0
  0
TEXT
  5
29FC
330
29F4
100
AcDbEntity
  8
図枠細線
  6
CONTINUOUS
 62
   252
100
AcDbText
 10
22.504308136501
 20
12.279133224584
 30
0.0
 40
2.0
  1
ＴＨＩＲＤ　ＡＮＧＬＥ
 41
0.691099486738
  7
EXCADSTD
 72
     5
 11
40.104308398762
 21
12.279133224584
 31
0.0
100
AcDbText
  0
TEXT
  5
29FD
330
29F4
100
AcDbEntity
  8
図枠細線
  6
CONTINUOUS
 62
   252
100
AcDbText
 10
22.429384136501
 20
9.357144224584
 30
0.0
 40
2.0
  1
ＰＲＯＪＥＣＴＩＯＮ
 41
0.754285710199
  7
EXCADSTD
 72
     5
 11
40.029384041134
 21
9.357144224584
 31
0.0
100
AcDbText
  0
LINE
  5
29FE
330
29F4
100
AcDbEntity
  8
図枠細線
  6
CONTINUOUS
100
AcDbLine
 10
22.368253864267
 20
19.525433224584
 30
0.0
 11
78.368253864267
 21
19.525431224584
 31
0.0
  0
TEXT
  5
29FF
330
29F4
100
AcDbEntity
  8
図枠細線
  6
CONTINUOUS
 62
   252
100
AcDbText
 10
22.868253864267
 20
17.025433224584
 30
0.0
 40
2.0
  1
第三角法
 41
1.102941176471
  7
EXCADSTD
 72
     5
 11
32.868253864267
 21
17.025433224584
 31
0.0
100
AcDbText
  0
TEXT
  5
2A00
330
29F4
100
AcDbEntity
  8
図枠細線
  6
CONTINUOUS
 62
   252
100
AcDbText
 10
22.868253864267
 20
29.525433224584
 30
0.0
 40
2.0
  1
ＡＰＰＲＯＶＥＤ
 41
0.695652184279
  7
EXCADSTD
 72
     5
 11
35.668254055002
 21
29.525433224584
 31
0.0
100
AcDbText
  0
LINE
  5
2A01
330
29F4
100
AcDbEntity
  8
図枠細線
  6
CONTINUOUS
 62
   252
100
AcDbLine
 10
2.368253864267
 20
9.525433224584
 30
0.0
 11
22.368253864267
 21
9.525433224584
 31
0.0
  0
LINE
  5
2A02
330
29F4
100
AcDbEntity
  8
図枠細線
  6
CONTINUOUS
 62
   252
100
AcDbLine
 10
2.368253864267
 20
14.525431224584
 30
0.0
 11
22.368253864267
 21
14.525431224584
 31
0.0
  0
LINE
  5
2A03
330
29F4
100
AcDbEntity
  8
図枠細線
  6
CONTINUOUS
 62
   252
100
AcDbLine
 10
2.368253864267
 20
24.525431224584
 30
0.0
 11
22.368253864267
 21
24.525431224584
 31
0.0
  0
LINE
  5
2A04
330
29F4
100
AcDbEntity
  8
図枠細線
  6
CONTINUOUS
 62
   252
100
AcDbLine
 10
2.368253864267
 20
29.525431224584
 30
0.0
 11
22.368253864267
 21
29.525431224584
 31
0.0
  0
LINE
  5
2A05
330
29F4
100
AcDbEntity
  8
図枠細線
  6
CONTINUOUS
100
AcDbLine
 10
2.368253864267
 20
19.525433224584
 30
0.0
 11
22.368253864267
 21
19.525433224584
 31
0.0
  0
TEXT
  5
2A06
330
29F4
100
AcDbEntity
  8
図枠細線
  6
CONTINUOUS
 62
   252
100
AcDbText
 10
2.868253864267
 20
32.025433224584
 30
0.0
 40
2.0
  1
ＮＯＴＥ
 41
0.923076923077
  7
EXCADSTD
 72
     5
 11
10.868253864267
 21
32.025433224584
 31
0.0
100
AcDbText
  0
LINE
  5
2A07
330
29F4
100
AcDbEntity
  8
図枠太線
  6
CONTINUOUS
 62
   251
100
AcDbLine
 10
22.368253864267
 20
4.525433224584
 30
0.0
 11
22.368253864267
 21
34.525431224584
 31
0.0
  0
TEXT
  5
2A08
330
29F4
100
AcDbEntity
  8
図枠細線
  6
CONTINUOUS
 62
   252
100
AcDbText
 10
22.868253864267
 20
32.025433224584
 30
0.0
 40
2.0
  1
承認
 41
1.171875
  7
EXCADSTD
 72
     5
 11
27.868253864267
 21
32.025433224584
 31
0.0
100
AcDbText
  0
TEXT
  5
2A09
330
29F4
100
AcDbEntity
  8
図枠細線
  6
CONTINUOUS
 62
   252
100
AcDbText
 10
60.711709035982
 20
32.025433224584
 30
0.0
 40
2.0
  1
製図
 41
1.209677419355
  7
EXCADSTD
 72
     5
 11
65.711709035982
 21
32.025433224584
 31
0.0
100
AcDbText
  0
TEXT
  5
2A0A
330
29F4
100
AcDbEntity
  8
図枠細線
  6
CONTINUOUS
 62
   252
100
AcDbText
 10
60.711709035982
 20
29.525433224584
 30
0.0
 40
2.0
  1
ＤＲＡＷＮ
 41
0.882352941176
  7
EXCADSTD
 72
     5
 11
70.711709035982
 21
29.525433224584
 31
0.0
100
AcDbText
  0
TEXT
  5
2A0B
330
29F4
100
AcDbEntity
  8
図枠細線
  6
CONTINUOUS
 62
   252
100
AcDbText
 10
60.834891743877
 20
17.025433224584
 30
0.0
 40
2.0
  1
日付
 41
1.171875
  7
EXCADSTD
 72
     5
 11
65.834891743877
 21
17.025433224584
 31
0.0
100
AcDbText
  0
TEXT
  5
2A0C
330
29F4
100
AcDbEntity
  8
図枠細線
  6
CONTINUOUS
 62
   252
100
AcDbText
 10
47.333660864267
 20
17.025433224584
 30
0.0
 40
2.0
  1
ＳＣＡＬＥ
 41
0.903614457831
  7
EXCADSTD
 72
     5
 11
57.333660864267
 21
17.025433224584
 31
0.0
100
AcDbText
  0
TEXT
  5
2A0D
330
29F4
100
AcDbEntity
  8
図枠細線
  6
CONTINUOUS
 62
   252
100
AcDbText
 10
42.281425990082
 20
29.525433224584
 30
0.0
 40
2.0
  1
ＣＨＥＣＫＥＤ
 41
0.831249989569
  7
EXCADSTD
 72
     5
 11
55.581425823189
 21
29.525433224584
 31
0.0
100
AcDbText
  0
LINE
  5
2A0E
330
29F4
100
AcDbEntity
  8
図枠細線
  6
CONTINUOUS
 62
   252
100
AcDbLine
 10
40.968253864267
 20
34.525431224584
 30
0.0
 11
40.968253864267
 21
19.525431224584
 31
0.0
  0
LINE
  5
2A0F
330
29F4
100
AcDbEntity
  8
図枠細線
  6
CONTINUOUS
 62
   252
100
AcDbLine
 10
40.968253864267
 20
4.525433224584
 30
0.0
 11
40.968253864267
 21
19.525431224584
 31
0.0
  0
TEXT
  5
2A10
330
29F4
100
AcDbEntity
  8
図枠細線
  6
CONTINUOUS
 62
   252
100
AcDbText
 10
41.961173864267
 20
17.025433224584
 30
0.0
 40
2.0
  1
尺度
 41
1.171875
  7
EXCADSTD
 72
     5
 11
46.961173864267
 21
17.025433224584
 31
0.0
100
AcDbText
  0
TEXT
  5
2A11
330
29F4
100
AcDbEntity
  8
図枠細線
  6
CONTINUOUS
 62
   252
100
AcDbText
 10
42.281425990082
 20
32.025433224584
 30
0.0
 40
2.0
  1
検図
 41
1.209677419355
  7
EXCADSTD
 72
     5
 11
47.281425990082
 21
32.025433224584
 31
0.0
100
AcDbText
  0
LINE
  5
2A12
330
29F4
100
AcDbEntity
  8
図枠細線
  6
CONTINUOUS
 62
   252
100
AcDbLine
 10
59.768253864267
 20
34.525431224584
 30
0.0
 11
59.768253864267
 21
19.525431224584
 31
0.0
  0
LINE
  5
2A13
330
29F4
100
AcDbEntity
  8
図枠細線
  6
CONTINUOUS
 62
   252
100
AcDbLine
 10
59.768253864267
 20
4.525433224584
 30
0.0
 11
59.768253864267
 21
19.525431224584
 31
0.0
  0
LINE
  5
2A14
330
29F4
100
AcDbEntity
  8
図枠太線
  6
CONTINUOUS
 62
   251
100
AcDbLine
 10
78.368253864267
 20
4.525433224584
 30
0.0
 11
78.368253864267
 21
34.525431224584
 31
0.0
  0
TEXT
  5
2A15
330
29F4
100
AcDbEntity
  8
図枠細線
  6
CONTINUOUS
 62
   252
100
AcDbText
 10
66.334891743877
 20
17.025433224584
 30
0.0
 40
2.0
  1
ＤＡＴＥ
 41
0.923076923077
  7
EXCADSTD
 72
     5
 11
74.334891743877
 21
17.025433224584
 31
0.0
100
AcDbText
  0
LINE
  5
2A16
330
29F4
100
AcDbEntity
  8
図枠細線
  6
CONTINUOUS
 62
   252
100
AcDbLine
 10
135.368253864267
 20
19.525431224584
 30
0.0
 11
192.368245864267
 21
19.525431224584
 31
0.0
  0
TEXT
  5
2A17
330
29F4
100
AcDbEntity
  8
図枠細線
  6
CONTINUOUS
 62
   252
100
AcDbText
 10
141.868253864267
 20
32.025433224584
 30
0.0
 40
2.0
  1
ＴＩＴＬＥ
 41
0.903614457831
  7
EXCADSTD
 72
     5
 11
151.868253864267
 21
32.025433224584
 31
0.0
100
AcDbText
  0
LINE
  5
2A18
330
29F4
100
AcDbEntity
  8
図枠太線
  6
CONTINUOUS
 62
   251
100
AcDbLine
 10
135.368253864267
 20
4.525433224584
 30
0.0
 11
135.368253864267
 21
34.525431224584
 31
0.0
  0
TEXT
  5
2A19
330
29F4
100
AcDbEntity
  8
図枠細線
  6
CONTINUOUS
 62
   252
100
AcDbText
 10
135.868253864267
 20
17.025433224584
 30
0.0
 40
2.0
  1
図面番号
 41
1.102941176471
  7
EXCADSTD
 72
     5
 11
145.868253864267
 21
17.025433224584
 31
0.0
100
AcDbText
  0
TEXT
  5
2A1A
330
29F4
100
AcDbEntity
  8
図枠細線
  6
CONTINUOUS
 62
   252
100
AcDbText
 10
135.868253864267
 20
32.025433224584
 30
0.0
 40
2.0
  1
名称
 41
1.171875
  7
EXCADSTD
 72
     5
 11
140.868253864267
 21
32.025433224584
 31
0.0
100
AcDbText
  0
TEXT
  5
2A1B
330
29F4
100
AcDbEntity
  8
図枠細線
  6
CONTINUOUS
 62
   252
100
AcDbText
 10
146.868253864267
 20
17.025433224584
 30
0.0
 40
2.0
  1
ＤＲＧ．ＮＯ．
 41
0.9375
  7
EXCADSTD
 72
     5
 11
160.868253864267
 21
17.025433224584
 31
0.0
100
AcDbText
  0
LINE
  5
2A1C
330
29F4
100
AcDbEntity
  8
図枠太線
  6
CONTINUOUS
 62
   251
100
AcDbLine
 10
192.368245864267
 20
4.525433224584
 30
0.0
 11
192.368245864267
 21
34.525431224584
 31
0.0
  0
ENDBLK
  5
2A1D
330
29F4
100
AcDbEntity
  8
0
100
AcDbBlockEnd
  0
BLOCK
  5
2A33
330
2A32
100
AcDbEntity
  8
0
100
AcDbBlockBegin
  2
A3横用_タイトル
 70
     0
 10
0.0
 20
0.0
 30
0.0
  3
A3横用_タイトル
  1

  0
LINE
  5
2A34
330
2A32
100
AcDbEntity
  8
図枠細線
  6
CONTINUOUS
 62
   252
100
AcDbLine
 10
205.098414535793
 20
33.525959753527
 30
0.0
 11
305.098414535793
 21
33.525959753527
 31
0.0
  0
LINE
  5
2A35
330
2A32
100
AcDbEntity
  8
図枠太線
  6
CONTINUOUS
 62
   251
100
AcDbLine
 10
205.098414535793
 20
23.525959753527
 30
0.0
 11
305.098414535793
 21
23.525959753527
 31
0.0
  0
LINE
  5
2A36
330
2A32
100
AcDbEntity
  8
図枠細線
  6
CONTINUOUS
100
AcDbLine
 10
5.098414535793
 20
23.525959753527
 30
0.0
 11
105.098414535793
 21
23.525959753527
 31
0.0
  0
LINE
  5
2A37
330
2A32
100
AcDbEntity
  8
図枠細線
  6
CONTINUOUS
 62
   252
100
AcDbLine
 10
5.098414535793
 20
36.725957753527
 30
0.0
 11
105.098414535793
 21
36.725957753527
 31
0.0
  0
LINE
  5
2A38
330
2A32
100
AcDbEntity
  8
図枠細線
  6
CONTINUOUS
 62
   252
100
AcDbLine
 10
5.098414535793
 20
30.125957753527
 30
0.0
 11
105.098414535793
 21
30.125957753527
 31
0.0
  0
LINE
  5
2A39
330
2A32
100
AcDbEntity
  8
図枠細線
  6
CONTINUOUS
 62
   252
100
AcDbLine
 10
5.098414535793
 20
16.725959753527
 30
0.0
 11
105.098414535793
 21
16.725959753527
 31
0.0
  0
LINE
  5
2A3A
330
2A32
100
AcDbEntity
  8
図枠細線
  6
CONTINUOUS
 62
   252
100
AcDbLine
 10
5.098414535793
 20
10.125959753527
 30
0.0
 11
105.098414535793
 21
10.125959753527
 31
0.0
  0
LINE
  5
2A3B
330
2A32
100
AcDbEntity
  8
図枠細線
  6
CONTINUOUS
100
AcDbLine
 10
105.098414535793
 20
23.525961753527
 30
0.0
 11
205.098414535793
 21
23.525959753527
 31
0.0
  0
LINE
  5
2A3C
330
2A32
100
AcDbEntity
  8
図枠細線
  6
CONTINUOUS
 62
   252
100
AcDbLine
 10
138.398414535793
 20
43.525959753527
 30
0.0
 11
138.398414535793
 21
18.525957753527
 31
0.0
  0
LINE
  5
2A3D
330
2A32
100
AcDbEntity
  8
図枠細線
  6
CONTINUOUS
 62
   252
100
AcDbLine
 10
171.698414535793
 20
43.525959753527
 30
0.0
 11
171.698414535793
 21
18.525957753527
 31
0.0
  0
LINE
  5
2A3E
330
2A32
100
AcDbEntity
  8
図枠細線
  6
CONTINUOUS
 62
   252
100
AcDbLine
 10
305.098414535793
 20
23.525959753527
 30
0.0
 11
405.098414535793
 21
23.525959753527
 31
0.0
  0
TEXT
  5
2A3F
330
2A32
100
AcDbEntity
  8
図枠ロゴマーク
  6
CONTINUOUS
 62
   253
100
AcDbText
 10
206.102509212755
 20
13.294257570546
 30
0.0
 40
7.0
  1
東和制電工業株式会社
 50
0.016555220185
 41
1.186384129432
  7
EXCADSTD
 72
     5
 11
303.544188309143
 21
13.322412672217
 31
0.0
100
AcDbText
  0
MTEXT
  5
2A40
330
2A32
100
AcDbEntity
  8
図枠細線
100
AcDbMText
 10
6.356764112375
 20
41.976594175478
 30
0.0
 40
2.5
 41
49.938282706292
 71
     1
 72
     5
  1
{\Fmonotxt.shx,bigfont.shx|c128;図暦　CHANGE　NOTICE}
  0
MTEXT
  5
2A41
330
2A32
100
AcDbEntity
  8
図枠細線
 48
10.0
100
AcDbMText
 10
306.544114926828
 20
41.701835800934
 30
0.0
 40
2.5
 41
28.002809618823
 71
     1
 72
     5
  1
{\Fmonotxt.shx,bigfont.shx|c128;名称　TITLE}
  0
MTEXT
  5
2A42
330
2A32
100
AcDbEntity
  8
図枠細線
 48
10.0
100
AcDbMText
 10
307.329617114284
 20
21.606206797226
 30
0.0
 40
2.5
 41
24.385612216707
 71
     1
 72
     5
  1
{\Fmonotxt.shx,bigfont.shx|c128;図面番号\PDRG.　No.}
  0
MTEXT
  5
2A43
330
2A32
100
AcDbEntity
  8
図枠細線
 48
10.0
100
AcDbMText
 10
173.726349404609
 20
21.73680662198
 30
0.0
 40
2.5
 41
25.735090160813
 71
     1
 72
     5
  1
{\Fmonotxt.shx,bigfont.shx|c128;日付 DATE}
  0
MTEXT
  5
2A44
330
2A32
100
AcDbEntity
  8
図枠細線
 48
10.0
100
AcDbMText
 10
173.48708833982
 20
41.621592044998
 30
0.0
 40
2.5
 41
24.983741184205
 71
     1
 72
     5
  1
{\Fmonotxt.shx,bigfont.shx|c128;製図　DRAWN}
  0
MTEXT
  5
2A45
330
2A32
100
AcDbEntity
  8
図枠細線
 48
10.0
100
AcDbMText
 10
139.28009927741
 20
21.866713069868
 30
0.0
 40
2.5
 41
22.629632913243
 71
     1
 72
     5
  1
{\Fmonotxt.shx,bigfont.shx|c128;尺度　SCALE}
  0
MTEXT
  5
2A46
330
2A32
100
AcDbEntity
  8
図枠細線
 48
10.0
100
AcDbMText
 10
139.910091179835
 20
41.311840415554
 30
0.0
 40
2.5
 41
28.998753428368
 71
     1
 72
     5
  1
{\Fmonotxt.shx,bigfont.shx|c128;検図  CHECKED}
  0
MTEXT
  5
2A47
330
2A32
100
AcDbEntity
  8
図枠細線
 48
10.0
100
AcDbMText
 10
114.253294667728
 20
21.916124850174
 30
0.0
 40
3.0
 41
19.692400475383
 71
     1
 72
     5
  1
{\Fmonotxt.shx,bigfont.shx|c128;第三角法}
  0
MTEXT
  5
2A48
330
2A32
100
AcDbEntity
  8
図枠細線
 48
10.0
100
AcDbMText
 10
108.986959929915
 20
15.282880185837
 30
0.0
 40
2.5
 41
27.954882823547
 71
     1
 72
     5
  1
{\Fmonotxt.shx,bigfont.shx|c128;THIRD ANGLE\PPROJECTION}
  0
MTEXT
  5
2A49
330
2A32
100
AcDbEntity
  8
図枠細線
 48
10.0
100
AcDbMText
 10
106.319432640184
 20
41.511437145487
 30
0.0
 40
2.5
 41
28.233595265074
 71
     1
 72
     5
  1
{\Fmonotxt.shx,bigfont.shx|c128;承認 APPROVED}
  0
LINE
  5
2A4A
330
2A32
100
AcDbEntity
  8
図枠太線
  6
CONTINUOUS
 62
   251
100
AcDbLine
 10
5.098414535793
 20
3.525959753527
 30
0.0
 11
405.098414535793
 21
3.525959753527
 31
0.0
  0
LINE
  5
2A4B
330
2A32
100
AcDbEntity
  8
図枠太線
 48
10.0
100
AcDbLine
 10
5.098414535793
 20
3.525959753527
 30
0.0
 11
5.098414535793
 21
43.525959753527
 31
0.0
  0
LINE
  5
2A4C
330
2A32
100
AcDbEntity
  8
図枠太線
  6
CONTINUOUS
 62
   251
100
AcDbLine
 10
105.098414535793
 20
3.525959753527
 30
0.0
 11
105.098414535793
 21
43.525959753527
 31
0.0
  0
LINE
  5
2A4D
330
2A32
100
AcDbEntity
  8
図枠細線
  6
CONTINUOUS
 62
   252
100
AcDbLine
 10
138.398414535793
 20
3.525959753527
 30
0.0
 11
138.398414535793
 21
18.525957753527
 31
0.0
  0
LINE
  5
2A4E
330
2A32
100
AcDbEntity
  8
図枠細線
  6
CONTINUOUS
 62
   252
100
AcDbLine
 10
171.698414535793
 20
3.525959753527
 30
0.0
 11
171.698414535793
 21
18.525957753527
 31
0.0
  0
LINE
  5
2A4F
330
2A32
100
AcDbEntity
  8
図枠太線
  6
CONTINUOUS
 62
   251
100
AcDbLine
 10
205.098414535793
 20
3.525959753527
 30
0.0
 11
205.098414535793
 21
43.525959753527
 31
0.0
  0
LINE
  5
2A50
330
2A32
100
AcDbEntity
  8
図枠太線
 48
10.0
100
AcDbLine
 10
405.098414535793
 20
43.525959753527
 30
0.0
 11
405.098414535793
 21
3.525959753527
 31
0.0
  0
TEXT
  5
2A51
330
2A32
100
AcDbEntity
  8
図枠細線
  6
CONTINUOUS
 62
   252
100
AcDbText
 10
208.519754474572
 20
6.482358407285
 30
0.0
 40
3.5
  1
ＴＯＷＡ　ＳＥＩＤＥＮ　ＩＮＤＵＳＴＲＩＡＬ　ＣＯ．，ＬＴＤ．
 41
0.746656297509
  7
EXCADSTD
 72
     5
 11
303.295327171727
 21
6.482358407285
 31
0.0
100
AcDbText
  0
LINE
  5
2A52
330
2A32
100
AcDbEntity
  8
図枠太線
  6
CONTINUOUS
 62
   251
100
AcDbLine
 10
305.098414535793
 20
3.525959753527
 30
0.0
 11
305.098414535793
 21
43.525959753527
 31
0.0
  0
ENDBLK
  5
2A53
330
2A32
100
AcDbEntity
  8
0
100
AcDbBlockEnd
  0
BLOCK
  5
2A6D
330
2A6C
100
AcDbEntity
  8
0
100
AcDbBlockBegin
  2
A3縦用_タイトル
 70
     0
 10
0.0
 20
0.0
 30
0.0
  3
A3縦用_タイトル
  1

  0
MTEXT
  5
2A6E
330
2A6C
100
AcDbEntity
  8
図枠細線
100
AcDbMText
 10
5.040804501593
 20
31.626098649005
 30
0.0
 40
2.5
 41
49.938282706292
 71
     1
 72
     5
  1
{\Fmonotxt.shx,bigfont.shx|c128;図暦　CHANGE　NOTICE}
  0
LINE
  5
2A6F
330
2A6C
100
AcDbEntity
  8
図枠太線
  6
CONTINUOUS
 62
   251
100
AcDbLine
 10
283.577871882961
 20
2.820844689254
 30
0.0
 11
283.577871882961
 21
32.820842689254
 31
0.0
  0
MTEXT
  5
2A70
330
2A6C
100
AcDbEntity
  8
図枠細線
 48
10.0
100
AcDbMText
 10
214.912458947454
 20
31.621488632308
 30
0.0
 40
2.5
 41
28.002809618823
 71
     1
 72
     5
  1
{\Fmonotxt.shx,bigfont.shx|c128;名称　TITLE}
  0
MTEXT
  5
2A71
330
2A6C
100
AcDbEntity
  8
図枠細線
 48
10.0
100
AcDbMText
 10
214.740030458938
 20
16.310225796722
 30
0.0
 40
2.5
 41
24.385612216707
 71
     1
 72
     5
  1
{\Fmonotxt.shx,bigfont.shx|c128;図面番号\PDRG.　No.}
  0
LINE
  5
2A72
330
2A6C
100
AcDbEntity
  8
図枠太線
  6
CONTINUOUS
 62
   251
100
AcDbLine
 10
213.577871882961
 20
2.820844689254
 30
0.0
 11
213.577871882961
 21
32.820842689254
 31
0.0
  0
LINE
  5
2A73
330
2A6C
100
AcDbEntity
  8
図枠太線
  6
CONTINUOUS
 62
   251
100
AcDbLine
 10
143.577871882961
 20
2.820844689254
 30
0.0
 11
143.577871882961
 21
32.820842689254
 31
0.0
  0
TEXT
  5
2A74
330
2A6C
100
AcDbEntity
  8
図枠細線
  6
CONTINUOUS
 62
   252
100
AcDbText
 10
145.716454488093
 20
4.468335689254
 30
0.0
 40
3.5
  1
ＴＯＷＡ　ＳＥＩＤＥＮ　ＩＮＤＵＳＴＲＩＡＬ　ＣＯ．，ＬＴＤ．
 41
0.528937826907
  7
EXCADSTD
 72
     5
 11
212.856295983498
 21
4.468335689254
 31
0.0
100
AcDbText
  0
TEXT
  5
2A75
330
2A6C
100
AcDbEntity
  8
図枠ロゴマーク
  6
CONTINUOUS
 62
   253
100
AcDbText
 10
145.950637593507
 20
9.413236689254
 30
0.0
 40
7.0
  1
東和制電工業株式会社
 41
0.80361088462
  7
EXCADSTD
 72
     5
 11
211.953878250259
 21
9.413236689254
 31
0.0
100
AcDbText
  0
LINE
  5
2A76
330
2A6C
100
AcDbEntity
  8
図枠細線
  6
CONTINUOUS
 62
   252
100
AcDbLine
 10
143.577871882961
 20
25.320842689254
 30
0.0
 11
213.577871882961
 21
25.320842689254
 31
0.0
  0
LINE
  5
2A77
330
2A6C
100
AcDbEntity
  8
図枠太線
  6
CONTINUOUS
 62
   251
100
AcDbLine
 10
143.577863882961
 20
17.820842689254
 30
0.0
 11
213.577871882961
 21
17.820842689254
 31
0.0
  0
LINE
  5
2A78
330
2A6C
100
AcDbEntity
  8
図枠細線
  6
CONTINUOUS
 62
   252
100
AcDbLine
 10
213.577871882961
 20
17.820842689254
 30
0.0
 11
283.577871882961
 21
17.820842689254
 31
0.0
  0
LINE
  5
2A79
330
2A6C
100
AcDbEntity
  8
図枠細線
  6
CONTINUOUS
 62
   252
100
AcDbLine
 10
120.577871882961
 20
32.820842689254
 30
0.0
 11
120.577871882961
 21
17.820842689254
 31
0.0
  0
MTEXT
  5
2A7A
330
2A6C
100
AcDbEntity
  8
図枠細線
 48
10.0
100
AcDbMText
 10
121.100885670352
 20
16.33785922638
 30
0.0
 40
2.0
 41
17.705978285068
 71
     1
 72
     5
  1
{\Fmonotxt.shx,bigfont.shx|c128;日付 DATE}
  0
MTEXT
  5
2A7B
330
2A6C
100
AcDbEntity
  8
図枠細線
 48
10.0
100
AcDbMText
 10
121.254842273491
 20
31.208993514037
 30
0.0
 40
2.0
 41
18.363799568758
 71
     1
 72
     5
  1
{\Fmonotxt.shx,bigfont.shx|c128;製図　DRAWN}
  0
LINE
  5
2A7C
330
2A6C
100
AcDbEntity
  8
図枠細線
  6
CONTINUOUS
 62
   252
100
AcDbLine
 10
97.577871882961
 20
32.820842689254
 30
0.0
 11
97.577871882961
 21
17.820842689254
 31
0.0
  0
MTEXT
  5
2A7D
330
2A6C
100
AcDbEntity
  8
図枠細線
 48
10.0
100
AcDbMText
 10
98.239734796872
 20
16.467764839281
 30
0.0
 40
2.0
 41
17.757791689903
 71
     1
 72
     5
  1
{\Fmonotxt.shx,bigfont.shx|c128;尺度　SCALE}
  0
MTEXT
  5
2A7E
330
2A6C
100
AcDbEntity
  8
図枠細線
 48
10.0
100
AcDbMText
 10
97.864744625154
 20
31.298433377664
 30
0.0
 40
2.0
 41
23.162655920976
 71
     1
 72
     5
  1
{\Fmonotxt.shx,bigfont.shx|c128;検図  CHECKED}
  0
LINE
  5
2A7F
330
2A6C
100
AcDbEntity
  8
図枠細線
  6
CONTINUOUS
 62
   252
100
AcDbLine
 10
97.577871882961
 20
2.820843367826
 30
0.0
 11
97.577871882961
 21
17.820841367826
 31
0.0
  0
LINE
  5
2A80
330
2A6C
100
AcDbEntity
  8
図枠細線
  6
CONTINUOUS
 62
   252
100
AcDbLine
 10
120.577871882961
 20
2.820844010683
 30
0.0
 11
120.577871882961
 21
17.820842010683
 31
0.0
  0
MTEXT
  5
2A81
330
2A6C
100
AcDbEntity
  8
図枠細線
 48
10.0
100
AcDbMText
 10
81.402399084102
 20
16.316484117426
 30
0.0
 40
2.0
 41
12.920322819369
 71
     1
 72
     5
  1
{\Fmonotxt.shx,bigfont.shx|c128;第三角法}
  0
MTEXT
  5
2A82
330
2A6C
100
AcDbEntity
  8
図枠細線
 48
10.0
100
AcDbMText
 10
75.736576535096
 20
11.080410931319
 30
0.0
 40
2.0
 41
21.072870671471
 71
     1
 72
     5
  1
{\Fmonotxt.shx,bigfont.shx|c128;THIRD ANGLE\PPROJECTION}
  0
LINE
  5
2A83
330
2A6C
100
AcDbEntity
  8
図枠太線
  6
CONTINUOUS
 62
   251
100
AcDbLine
 10
74.577871882961
 20
2.820844689254
 30
0.0
 11
74.577871882961
 21
32.820842689254
 31
0.0
  0
MTEXT
  5
2A84
330
2A6C
100
AcDbEntity
  8
図枠細線
 48
10.0
100
AcDbMText
 10
75.060214781573
 20
31.298434778555
 30
0.0
 40
2.0
 41
22.240928805967
 71
     1
 72
     5
  1
{\Fmonotxt.shx,bigfont.shx|c128;承認 APPROVED}
  0
LINE
  5
2A85
330
2A6C
100
AcDbEntity
  8
図枠細線
  6
CONTINUOUS
100
AcDbLine
 10
3.577871882961
 20
17.820844689254
 30
0.0
 11
74.577871882961
 21
17.820844689254
 31
0.0
  0
LINE
  5
2A86
330
2A6C
100
AcDbEntity
  8
図枠細線
  6
CONTINUOUS
 62
   252
100
AcDbLine
 10
3.577871882961
 20
27.820842689254
 30
0.0
 11
74.577871882961
 21
27.820842689254
 31
0.0
  0
LINE
  5
2A87
330
2A6C
100
AcDbEntity
  8
図枠細線
  6
CONTINUOUS
 62
   252
100
AcDbLine
 10
3.577871882961
 20
22.820842689254
 30
0.0
 11
74.577871882961
 21
22.820842689254
 31
0.0
  0
LINE
  5
2A88
330
2A6C
100
AcDbEntity
  8
図枠細線
  6
CONTINUOUS
 62
   252
100
AcDbLine
 10
3.577871882961
 20
12.820842689254
 30
0.0
 11
74.577871882961
 21
12.820842689254
 31
0.0
  0
LINE
  5
2A89
330
2A6C
100
AcDbEntity
  8
図枠細線
  6
CONTINUOUS
 62
   252
100
AcDbLine
 10
3.577871882961
 20
7.820844689254
 30
0.0
 11
74.577871882961
 21
7.820844689254
 31
0.0
  0
LINE
  5
2A8A
330
2A6C
100
AcDbEntity
  8
図枠細線
  6
CONTINUOUS
100
AcDbLine
 10
74.577871882961
 20
17.820843689254
 30
0.0
 11
143.577871882961
 21
17.820841224969
 31
0.0
  0
LINE
  5
2A8B
330
2A6C
100
AcDbEntity
  8
図枠太線
  6
CONTINUOUS
 62
   251
100
AcDbLine
 10
3.577871882961
 20
2.820844689254
 30
0.0
 11
283.577871882961
 21
2.820844689254
 31
0.0
  0
LINE
  5
2A8C
330
2A6C
100
AcDbEntity
  8
図枠太線
  6
CONTINUOUS
 62
   251
100
AcDbLine
 10
3.577871882961
 20
2.820844689254
 30
0.0
 11
3.577871882961
 21
32.820842689254
 31
0.0
  0
ENDBLK
  5
2A8D
330
2A6C
100
AcDbEntity
  8
0
100
AcDbBlockEnd
  0
BLOCK
  5
2AF8
330
2AF4
100
AcDbEntity
  8
0
 48
10.0
100
AcDbBlockBegin
  2
_OPEN30
 70
     0
 10
0.0
 20
0.0
 30
0.0
  3
_OPEN30
  1

  0
LINE
  5
2AF5
330
2AF4
100
AcDbEntity
  8
0
  6
BYBLOCK
 62
     0
100
AcDbLine
 10
-1.0
 20
0.26794919
 30
0.0
 11
0.0
 21
0.0
 31
0.0
  0
LINE
  5
2AF6
330
2AF4
100
AcDbEntity
  8
0
  6
BYBLOCK
 62
     0
100
AcDbLine
 10
0.0
 20
0.0
 30
0.0
 11
-1.0
 21
-0.26794919
 31
0.0
  0
LINE
  5
2AF7
330
2AF4
100
AcDbEntity
  8
0
  6
BYBLOCK
 62
     0
100
AcDbLine
 10
0.0
 20
0.0
 30
0.0
 11
-1.0
 21
0.0
 31
0.0
  0
ENDBLK
  5
2AF9
330
2AF4
100
AcDbEntity
  8
0
 48
10.0
100
AcDbBlockEnd
  0
BLOCK
  5
300D
330
3003
100
AcDbEntity
  8
0
 48
10.0
100
AcDbBlockBegin
  2
*D6
 70
     1
 10
0.0
 20
0.0
 30
0.0
  3
*D6
  1

  0
LINE
  5
44B3
330
3003
100
AcDbEntity
  8
寸法線
 62
     0
 48
10.0
100
AcDbLine
 10
469.289081678798
 20
492.330844094271
 30
0.0
 11
489.308988652513
 21
492.330844094271
 31
0.0
  0
LINE
  5
44B4
330
3003
100
AcDbEntity
  8
寸法線
 62
     0
 48
10.0
100
AcDbLine
 10
426.71651964431
 20
403.330844094271
 30
0.0
 11
489.308988652513
 21
403.330844094271
 31
0.0
  0
LINE
  5
44B5
330
3003
100
AcDbEntity
  8
寸法線
 62
     0
 48
10.0
100
AcDbLine
 10
488.058988652513
 20
486.330844094271
 30
0.0
 11
488.058988652513
 21
409.330844094271
 31
0.0
  0
INSERT
  5
44B6
330
3003
100
AcDbEntity
  8
寸法線
 62
     0
100
AcDbBlockReference
  2
_OPEN30
 10
488.058988652513
 20
492.330844094271
 30
0.0
 41
6.0
 42
6.0
 43
6.0
 50
90.0
  0
INSERT
  5
44B7
330
3003
100
AcDbEntity
  8
寸法線
 62
     0
100
AcDbBlockReference
  2
_OPEN30
 10
488.058988652513
 20
403.330844094271
 30
0.0
 41
6.0
 42
6.0
 43
6.0
 50
270.0
  0
MTEXT
  5
44B8
330
3003
100
AcDbEntity
  8
寸法線
 62
     0
 48
10.0
100
AcDbMText
 10
483.42565531918
 20
455.938551776286
 30
0.0
 40
8.0
 41
0.0
 71
     5
 72
     1
  1
\A1;89
 11
0.0
 21
1.0
 31
0.0
  0
POINT
  5
44B9
330
3003
100
AcDbEntity
  8
DEFPOINTS
 62
     0
100
AcDbPoint
 10
468.664081678798
 20
492.330844094271
 30
0.0
  0
POINT
  5
44BA
330
3003
100
AcDbEntity
  8
DEFPOINTS
 62
     0
100
AcDbPoint
 10
426.09151964431
 20
403.330844094271
 30
0.0
  0
POINT
  5
44BB
330
3003
100
AcDbEntity
  8
DEFPOINTS
 62
     0
100
AcDbPoint
 10
488.058988652513
 20
403.330844094271
 30
0.0
  0
ENDBLK
  5
300E
330
3003
100
AcDbEntity
  8
0
 48
10.0
100
AcDbBlockEnd
  0
BLOCK
  5
301A
330
3010
100
AcDbEntity
  8
0
 48
10.0
100
AcDbBlockBegin
  2
*D7
 70
     1
 10
0.0
 20
0.0
 30
0.0
  3
*D7
  1

  0
LINE
  5
3677
330
3010
100
AcDbEntity
  8
寸法線
 62
     0
 48
10.0
100
AcDbLine
 10
441.572627995228
 20
441.931603764155
 30
0.0
 11
510.992022482611
 21
441.931603764155
 31
0.0
  0
LINE
  5
3678
330
3010
100
AcDbEntity
  8
寸法線
 62
     0
 48
10.0
100
AcDbLine
 10
441.572627995228
 20
542.499107767979
 30
0.0
 11
510.992022482611
 21
542.499107767979
 31
0.0
  0
LINE
  5
3679
330
3010
100
AcDbEntity
  8
寸法線
 62
     0
 48
10.0
100
AcDbLine
 10
509.742022482611
 20
447.931603764155
 30
0.0
 11
509.742022482611
 21
536.499107767979
 31
0.0
  0
INSERT
  5
367A
330
3010
100
AcDbEntity
  8
寸法線
 62
     0
 48
10.0
100
AcDbBlockReference
  2
_OPEN30
 10
509.742022482611
 20
441.931603764155
 30
0.0
 41
6.0
 42
6.0
 43
6.0
 50
270.0
  0
INSERT
  5
367B
330
3010
100
AcDbEntity
  8
寸法線
 62
     0
 48
10.0
100
AcDbBlockReference
  2
_OPEN30
 10
509.742022482611
 20
542.499107767979
 30
0.0
 41
6.0
 42
6.0
 43
6.0
 50
90.0
  0
MTEXT
  5
367C
330
3010
100
AcDbEntity
  8
寸法線
 62
     0
 48
10.0
100
AcDbMText
 10
505.117022482611
 20
492.215355766067
 30
0.0
 40
8.0
 41
0.0
 71
     5
 72
     1
  1
\A1;φ100
 11
6.123031769111886E-17
 21
1.0
 31
0.0
  0
POINT
  5
367D
330
3010
100
AcDbEntity
  8
DEFPOINTS
 62
     0
 48
10.0
100
AcDbPoint
 10
440.947627995228
 20
441.931603764155
 30
0.0
  0
POINT
  5
367E
330
3010
100
AcDbEntity
  8
DEFPOINTS
 62
     0
 48
10.0
100
AcDbPoint
 10
440.947627995228
 20
542.499107767979
 30
0.0
  0
POINT
  5
367F
330
3010
100
AcDbEntity
  8
DEFPOINTS
 62
     0
 48
10.0
100
AcDbPoint
 10
509.742022482611
 20
542.499107767979
 30
0.0
  0
ENDBLK
  5
301B
330
3010
100
AcDbEntity
  8
0
 48
10.0
100
AcDbBlockEnd
  0
BLOCK
  5
308D
330
3083
100
AcDbEntity
  8
0
 48
10.0
100
AcDbBlockBegin
  2
*D8
 70
     1
 10
0.0
 20
0.0
 30
0.0
  3
*D8
  1

  0
LINE
  5
455D
330
3083
100
AcDbEntity
  8
寸法線
 62
     0
 48
10.0
100
AcDbLine
 10
-17.78700476569
 20
502.314037371582
 30
0.0
 11
-36.136925458449
 21
502.314037371582
 31
0.0
  0
LINE
  5
455E
330
3083
100
AcDbEntity
  8
寸法線
 62
     0
 48
10.0
100
AcDbLine
 10
-17.78700476569
 20
482.314037371582
 30
0.0
 11
-36.136925458449
 21
482.314037371582
 31
0.0
  0
LINE
  5
455F
330
3083
100
AcDbEntity
  8
寸法線
 62
     0
 48
10.0
100
AcDbLine
 10
-34.886925458449
 20
496.314037371582
 30
0.0
 11
-34.886925458449
 21
488.314037371582
 31
0.0
  0
MTEXT
  5
4560
330
3083
100
AcDbEntity
  8
寸法線
 62
     0
 48
10.0
100
AcDbMText
 10
-40.740068247388
 20
490.701202102181
 30
0.0
 40
8.0
 41
0.0
 71
     5
 72
     1
  1
\A1;φ20
 11
6.123031769111886E-17
 21
1.0
 31
0.0
  0
INSERT
  5
4561
330
3083
100
AcDbEntity
  8
寸法線
 62
     0
 48
10.0
100
AcDbBlockReference
  2
_OPEN30
 10
-34.886925458449
 20
502.314037371582
 30
0.0
 41
6.0
 42
6.0
 43
6.0
 50
90.0
  0
INSERT
  5
4562
330
3083
100
AcDbEntity
  8
寸法線
 62
     0
 48
10.0
100
AcDbBlockReference
  2
_OPEN30
 10
-34.886925458449
 20
482.314037371582
 30
0.0
 41
6.0
 42
6.0
 43
6.0
 50
270.0
  0
POINT
  5
4563
330
3083
100
AcDbEntity
  8
DEFPOINTS
 62
     0
 48
10.0
100
AcDbPoint
 10
-17.16200476569
 20
502.314037371582
 30
0.0
  0
POINT
  5
4564
330
3083
100
AcDbEntity
  8
DEFPOINTS
 62
     0
 48
10.0
100
AcDbPoint
 10
-17.16200476569
 20
482.314037371582
 30
0.0
  0
POINT
  5
4565
330
3083
100
AcDbEntity
  8
DEFPOINTS
 62
     0
 48
10.0
100
AcDbPoint
 10
-34.886925458449
 20
482.314037371582
 30
0.0
  0
ENDBLK
  5
308E
330
3083
100
AcDbEntity
  8
0
 48
10.0
100
AcDbBlockEnd
  0
BLOCK
  5
30A4
330
309A
100
AcDbEntity
  8
0
 48
10.0
100
AcDbBlockBegin
  2
*D9
 70
     1
 10
0.0
 20
0.0
 30
0.0
  3
*D9
  1

  0
LINE
  5
453A
330
309A
100
AcDbEntity
  8
寸法線
 62
     0
 48
10.0
100
AcDbLine
 10
-17.16200476569
 20
481.873445549273
 30
0.0
 11
-17.16200476569
 21
442.314258954871
 31
0.0
  0
LINE
  5
453B
330
309A
100
AcDbEntity
  8
寸法線
 62
     0
 48
10.0
100
AcDbLine
 10
115.83799523431
 20
471.391932944231
 30
0.0
 11
115.83799523431
 21
442.314258954871
 31
0.0
  0
LINE
  5
453C
330
309A
100
AcDbEntity
  8
寸法線
 62
     0
 48
10.0
100
AcDbLine
 10
-11.16200476569
 20
443.564258954871
 30
0.0
 11
109.83799523431
 21
443.564258954871
 31
0.0
  0
INSERT
  5
453D
330
309A
100
AcDbEntity
  8
寸法線
 62
     0
 48
10.0
100
AcDbBlockReference
  2
_OPEN30
 10
-17.16200476569
 20
443.564258954871
 30
0.0
 41
6.0
 42
6.0
 43
6.0
 50
180.0
  0
INSERT
  5
453E
330
309A
100
AcDbEntity
  8
寸法線
 62
     0
 48
10.0
100
AcDbBlockReference
  2
_OPEN30
 10
115.83799523431
 20
443.564258954871
 30
0.0
 41
6.0
 42
6.0
 43
6.0
  0
MTEXT
  5
453F
330
309A
100
AcDbEntity
  8
寸法線
 62
     0
 48
10.0
100
AcDbMText
 10
49.33799523431
 20
448.189258954871
 30
0.0
 40
8.0
 41
0.0
 71
     5
 72
     1
  1
\A1;133
  0
POINT
  5
4540
330
309A
100
AcDbEntity
  8
DEFPOINTS
 62
     0
 48
10.0
100
AcDbPoint
 10
-17.16200476569
 20
482.498445549273
 30
0.0
  0
POINT
  5
4541
330
309A
100
AcDbEntity
  8
DEFPOINTS
 62
     0
 48
10.0
100
AcDbPoint
 10
115.83799523431
 20
472.016932944231
 30
0.0
  0
POINT
  5
4542
330
309A
100
AcDbEntity
  8
DEFPOINTS
 62
     0
 48
10.0
100
AcDbPoint
 10
115.83799523431
 20
443.564258954871
 30
0.0
  0
ENDBLK
  5
30A5
330
309A
100
AcDbEntity
  8
0
 48
10.0
100
AcDbBlockEnd
  0
BLOCK
  5
30DD
330
30D3
100
AcDbEntity
  8
0
 48
10.0
100
AcDbBlockBegin
  2
*D10
 70
     1
 10
0.0
 20
0.0
 30
0.0
  3
*D10
  1

  0
LINE
  5
450F
330
30D3
100
AcDbEntity
  8
寸法線
 62
     0
 48
10.0
100
AcDbLine
 10
468.664835183302
 20
447.173173370621
 30
0.0
 11
468.664835183302
 21
373.954461481477
 31
0.0
  0
LINE
  5
4510
330
30D3
100
AcDbEntity
  8
寸法線
 62
     0
 48
10.0
100
AcDbLine
 10
353.16477518331
 20
464.205844094271
 30
0.0
 11
353.16477518331
 21
373.954461481477
 31
0.0
  0
LINE
  5
4511
330
30D3
100
AcDbEntity
  8
寸法線
 62
     0
 48
10.0
100
AcDbLine
 10
462.664835183302
 20
375.204461481477
 30
0.0
 11
359.16477518331
 21
375.204461481477
 31
0.0
  0
INSERT
  5
4512
330
30D3
100
AcDbEntity
  8
寸法線
 62
     0
100
AcDbBlockReference
  2
_OPEN30
 10
468.664835183302
 20
375.204461481477
 30
0.0
 41
6.0
 42
6.0
 43
6.0
  0
INSERT
  5
4513
330
30D3
100
AcDbEntity
  8
寸法線
 62
     0
100
AcDbBlockReference
  2
_OPEN30
 10
353.16477518331
 20
375.204461481477
 30
0.0
 41
6.0
 42
6.0
 43
6.0
 50
180.0
  0
MTEXT
  5
4514
330
30D3
100
AcDbEntity
  8
寸法線
 62
     0
 48
10.0
100
AcDbMText
 10
409.121722880231
 20
379.833628148144
 30
0.0
 40
8.0
 41
0.0
 71
     5
 72
     1
  1
\A1;120
  0
POINT
  5
4515
330
30D3
100
AcDbEntity
  8
DEFPOINTS
 62
     0
100
AcDbPoint
 10
468.664835183302
 20
447.798173370621
 30
0.0
  0
POINT
  5
4516
330
30D3
100
AcDbEntity
  8
DEFPOINTS
 62
     0
100
AcDbPoint
 10
353.16477518331
 20
464.830844094271
 30
0.0
  0
POINT
  5
4517
330
30D3
100
AcDbEntity
  8
DEFPOINTS
 62
     0
100
AcDbPoint
 10
353.16477518331
 20
375.204461481477
 30
0.0
  0
ENDBLK
  5
30DE
330
30D3
100
AcDbEntity
  8
0
 48
10.0
100
AcDbBlockEnd
  0
BLOCK
  5
34C0
330
3494
100
AcDbEntity
  8
0
 48
10.0
100
AcDbBlockBegin
  2
A$C5338004D
 70
     0
 10
0.0
 20
0.0
 30
0.0
  3
A$C5338004D
  1

  0
LINE
  5
3495
330
3494
100
AcDbEntity
  8
1
  6
DASHED
 62
     7
100
AcDbLine
 10
290.68260249956
 20
-0.000000034179
 30
0.0
 11
290.68260249956
 21
50.999999965821
 31
0.0
  0
LINE
  5
3496
330
3494
100
AcDbEntity
  8
1
  6
CONTINUOUS
 62
     3
100
AcDbLine
 10
361.162525920228
 20
49.959663831367
 30
0.0
 11
361.162525920227
 21
2.040336100275
 31
0.0
  0
LINE
  5
3497
330
3494
100
AcDbEntity
  8
1
 62
     3
100
AcDbLine
 10
359.233017791272
 20
3.985186870746
 30
0.0
 11
361.162525920227
 21
2.040336100275
 31
0.0
  0
LINE
  5
3498
330
3494
100
AcDbEntity
  8
1
 62
     3
100
AcDbLine
 10
284.682602499561
 20
10.799999965821
 30
0.0
 11
240.444435924806
 21
10.799999965821
 31
0.0
  0
LINE
  5
3499
330
3494
100
AcDbEntity
  8
1
 62
     3
100
AcDbLine
 10
352.01785719409
 20
4.152404332875
 30
0.0
 11
345.286028928414
 21
10.799999965821
 31
0.0
  0
LINE
  5
349A
330
3494
100
AcDbEntity
  8
1
 62
     3
100
AcDbLine
 10
345.4249331518
 20
40.799999965821
 30
0.0
 11
345.46850184005
 21
10.799999965821
 31
0.0
  0
LINE
  5
349B
330
3494
100
AcDbEntity
  8
1
 62
     3
100
AcDbLine
 10
234.344435924806
 20
5.035294083468
 30
0.0
 11
226.644435924806
 21
5.035294083468
 31
0.0
  0
LINE
  5
349C
330
3494
100
AcDbEntity
  8
1
 62
     3
100
AcDbLine
 10
221.744435924806
 20
5.035294083468
 30
0.0
 11
162.977209034049
 21
5.035294083468
 31
0.0
  0
ARC
  5
349D
330
3494
100
AcDbEntity
  8
1
 62
     3
100
AcDbCircle
 10
224.194435924806
 20
4.234647024644
 30
0.0
 40
2.577505715377329
100
AcDbArc
 50
18.097118485446
 51
161.902881514554
  0
LINE
  5
349E
330
3494
100
AcDbEntity
  8
1
 62
     3
100
AcDbLine
 10
234.344435924806
 20
5.035294083468
 30
0.0
 11
240.444435924806
 21
10.799999965821
 31
0.0
  0
LINE
  5
349F
330
3494
100
AcDbEntity
  8
1
 62
     3
100
AcDbLine
 10
345.46850184005
 20
10.799999965821
 30
0.0
 11
290.682602499561
 21
10.799999965821
 31
0.0
  0
LINE
  5
34A0
330
3494
100
AcDbEntity
  8
1
 62
     3
100
AcDbLine
 10
240.444435924806
 20
10.799999965821
 30
0.0
 11
240.444435924806
 21
40.799999965821
 31
0.0
  0
LINE
  5
34A1
330
3494
100
AcDbEntity
  8
1
 62
     3
100
AcDbLine
 10
234.344435924806
 20
5.035294083468
 30
0.0
 11
234.344435924806
 21
46.964705848174
 31
0.0
  0
LINE
  5
34A2
330
3494
100
AcDbEntity
  8
1
 62
     3
100
AcDbLine
 10
226.644435924806
 20
46.964705848174
 30
0.0
 11
226.644435924806
 21
5.035294083468
 31
0.0
  0
LINE
  5
34A3
330
3494
100
AcDbEntity
  8
1
 62
     3
100
AcDbLine
 10
221.744435924806
 20
5.035294083468
 30
0.0
 11
221.744435924806
 21
46.964705848174
 31
0.0
  0
LINE
  5
34A4
330
3494
100
AcDbEntity
  8
1
  6
DASHED
 62
     7
100
AcDbLine
 10
284.68260249956
 20
-0.000000034179
 30
0.0
 11
284.68260249956
 21
50.999999965821
 31
0.0
  0
LINE
  5
34A5
330
3494
100
AcDbEntity
  8
1
 62
     3
100
AcDbLine
 10
359.233017791272
 20
3.985186870746
 30
0.0
 11
359.233017791272
 21
48.014813060896
 31
0.0
  0
LINE
  5
34A6
330
3494
100
AcDbEntity
  8
1
100
AcDbLine
 10
359.673847689512
 20
3.65324466901
 30
0.0
 11
377.278185353633
 21
3.65324466901
 31
0.0
  0
LINE
  5
34A7
330
3494
100
AcDbEntity
  8
1
 62
     3
100
AcDbLine
 10
377.144435924806
 20
2.040336100275
 30
0.0
 11
361.162525920227
 21
2.040336100275
 31
0.0
  0
LINE
  5
34A8
330
3494
100
AcDbEntity
  8
1
 62
     3
100
AcDbLine
 10
352.01785719409
 20
4.152404332875
 30
0.0
 11
352.01785719409
 21
47.963025175905
 31
0.0
  0
LINE
  5
34A9
330
3494
100
AcDbEntity
  8
1
 62
     3
100
AcDbLine
 10
359.232796003305
 20
4.152404332875
 30
0.0
 11
352.01785719409
 21
4.152404332875
 31
0.0
  0
LINE
  5
34AA
330
3494
100
AcDbEntity
  8
1
 62
     3
100
AcDbLine
 10
-0.000000543892
 20
16.01680668851
 30
0.0
 11
-0.000000543892
 21
35.983193243132
 31
0.0
  0
LINE
  5
34AB
330
3494
100
AcDbEntity
  8
1
 62
     3
100
AcDbLine
 10
162.477209034049
 20
46.464705848174
 30
0.0
 11
162.477209034049
 21
5.535294083468
 31
0.0
  0
LINE
  5
34AC
330
3494
100
AcDbEntity
  8
1
 62
     3
100
AcDbLine
 10
162.477209034049
 20
16.01680668851
 30
0.0
 11
-0.000000543892
 21
16.01680668851
 31
0.0
  0
ARC
  5
34AD
330
3494
100
AcDbEntity
  8
1
 62
     3
100
AcDbCircle
 10
162.97720903405
 20
5.535294083468
 30
0.0
 40
0.5
100
AcDbArc
 50
180.0
 51
270.0
  0
LINE
  5
34AE
330
3494
100
AcDbEntity
  8
1
 62
     3
100
AcDbLine
 10
377.144435924806
 20
49.959663831367
 30
0.0
 11
361.162525920228
 21
49.959663831367
 31
0.0
  0
LINE
  5
34AF
330
3494
100
AcDbEntity
  8
1
 62
     3
100
AcDbLine
 10
359.233017791272
 20
48.014813060896
 30
0.0
 11
361.162525920228
 21
49.959663831367
 31
0.0
  0
LINE
  5
34B0
330
3494
100
AcDbEntity
  8
1
 62
     3
100
AcDbLine
 10
290.682602499561
 20
40.799999965821
 30
0.0
 11
345.4249331518
 21
40.799999965821
 31
0.0
  0
LINE
  5
34B1
330
3494
100
AcDbEntity
  8
1
 62
     3
100
AcDbLine
 10
352.01785719409
 20
47.963025175905
 30
0.0
 11
345.4249331518
 21
40.799999965821
 31
0.0
  0
LINE
  5
34B2
330
3494
100
AcDbEntity
  8
1
 62
     3
100
AcDbLine
 10
359.233017791272
 20
47.963025175905
 30
0.0
 11
352.01785719409
 21
47.963025175905
 31
0.0
  0
LINE
  5
34B3
330
3494
100
AcDbEntity
  8
1
100
AcDbLine
 10
359.673847689512
 20
48.462184839771
 30
0.0
 11
377.278185353633
 21
48.462184839771
 31
0.0
  0
LINE
  5
34B4
330
3494
100
AcDbEntity
  8
1
 62
     3
100
AcDbLine
 10
234.344435924806
 20
46.964705848174
 30
0.0
 11
226.644435924806
 21
46.964705848174
 31
0.0
  0
LINE
  5
34B5
330
3494
100
AcDbEntity
  8
1
 62
     3
100
AcDbLine
 10
221.744435924806
 20
46.964705848174
 30
0.0
 11
162.977209034049
 21
46.964705848174
 31
0.0
  0
ARC
  5
34B6
330
3494
100
AcDbEntity
  8
1
 62
     3
100
AcDbCircle
 10
224.194435924806
 20
47.254363776563
 30
0.0
 40
2.467063378893744
100
AcDbArc
 50
186.742650169572
 51
353.257349830428
  0
LINE
  5
34B7
330
3494
100
AcDbEntity
  8
1
 62
     3
100
AcDbLine
 10
234.344435924806
 20
46.964705848174
 30
0.0
 11
240.444435924806
 21
40.799999965821
 31
0.0
  0
LINE
  5
34B8
330
3494
100
AcDbEntity
  8
1
 62
     3
100
AcDbLine
 10
240.444435924806
 20
40.799999965821
 30
0.0
 11
284.682602499561
 21
40.799999965821
 31
0.0
  0
LINE
  5
34B9
330
3494
100
AcDbEntity
  8
1
 62
     3
100
AcDbLine
 10
162.477209034049
 20
35.983193243132
 30
0.0
 11
-0.000000543892
 21
35.983193243132
 31
0.0
  0
LINE
  5
34BA
330
3494
100
AcDbEntity
  8
1
 62
     3
100
AcDbLine
 10
377.144435924806
 20
2.040336100275
 30
0.0
 11
377.144435924806
 21
49.959663831367
 31
0.0
  0
ARC
  5
34BB
330
3494
100
AcDbEntity
  8
1
 62
     3
100
AcDbCircle
 10
378.142755252537
 20
48.961344503636
 30
0.0
 40
0.9983193277310926
100
AcDbArc
 50
180.0
 51
270.0
  0
LINE
  5
34BC
330
3494
100
AcDbEntity
  8
1
 62
     3
100
AcDbLine
 10
379.141074580268
 20
47.963025175905
 30
0.0
 11
378.142755252537
 21
47.963025175905
 31
0.0
  0
ARC
  5
34BD
330
3494
100
AcDbEntity
  8
1
 62
     3
100
AcDbCircle
 10
378.142755252537
 20
3.038655428006
 30
0.0
 40
0.9983193277310926
100
AcDbArc
 50
90.0
 51
180.0
  0
LINE
  5
34BE
330
3494
100
AcDbEntity
  8
1
 62
     3
100
AcDbLine
 10
379.141074580268
 20
4.036974755737
 30
0.0
 11
378.142755252537
 21
4.036974755737
 31
0.0
  0
ARC
  5
34BF
330
3494
100
AcDbEntity
  8
1
 62
     3
100
AcDbCircle
 10
379.141074580268
 20
3.038655428006
 30
0.0
 40
0.9983193277310926
100
AcDbArc
 50
0.0
 51
90.0
  0
ENDBLK
  5
34C1
330
3494
100
AcDbEntity
  8
0
 48
10.0
100
AcDbBlockEnd
  0
BLOCK
  5
36A9
330
369F
100
AcDbEntity
  8
0
 48
10.0
100
AcDbBlockBegin
  2
*D12
 70
     1
 10
0.0
 20
0.0
 30
0.0
  3
*D12
  1

  0
LINE
  5
4598
330
369F
100
AcDbEntity
  8
寸法線
 62
     0
 48
10.0
100
AcDbLine
 10
-17.16200476569
 20
442.939258954871
 30
0.0
 11
-17.16200476569
 21
373.954461481477
 31
0.0
  0
LINE
  5
4599
330
369F
100
AcDbEntity
  8
寸法線
 62
     0
 48
10.0
100
AcDbLine
 10
353.16477518331
 20
390.476401188505
 30
0.0
 11
353.16477518331
 21
373.954461481477
 31
0.0
  0
LINE
  5
459A
330
369F
100
AcDbEntity
  8
寸法線
 62
     0
 48
10.0
100
AcDbLine
 10
-11.16200476569
 20
375.204461481477
 30
0.0
 11
347.16477518331
 21
375.204461481477
 31
0.0
  0
INSERT
  5
459B
330
369F
100
AcDbEntity
  8
寸法線
 62
     0
100
AcDbBlockReference
  2
_OPEN30
 10
-17.16200476569
 20
375.204461481477
 30
0.0
 41
6.0
 42
6.0
 43
6.0
 50
180.0
  0
INSERT
  5
459C
330
369F
100
AcDbEntity
  8
寸法線
 62
     0
100
AcDbBlockReference
  2
_OPEN30
 10
353.16477518331
 20
375.204461481477
 30
0.0
 41
6.0
 42
6.0
 43
6.0
  0
MTEXT
  5
459D
330
369F
100
AcDbEntity
  8
寸法線
 62
     0
 48
10.0
100
AcDbMText
 10
159.508913351215
 20
379.829461481477
 30
0.0
 40
8.0
 41
0.0
 71
     5
 72
     1
  1
\A1;　
  0
POINT
  5
459E
330
369F
100
AcDbEntity
  8
DEFPOINTS
 62
     0
100
AcDbPoint
 10
-17.16200476569
 20
443.564258954871
 30
0.0
  0
POINT
  5
459F
330
369F
100
AcDbEntity
  8
DEFPOINTS
 62
     0
100
AcDbPoint
 10
353.16477518331
 20
391.101401188505
 30
0.0
  0
POINT
  5
45A0
330
369F
100
AcDbEntity
  8
DEFPOINTS
 62
     0
100
AcDbPoint
 10
353.16477518331
 20
375.204461481477
 30
0.0
  0
ENDBLK
  5
36AA
330
369F
100
AcDbEntity
  8
0
 48
10.0
100
AcDbBlockEnd
  0
BLOCK
  5
4454
330
444A
100
AcDbEntity
  8
0
 48
10.0
100
AcDbBlockBegin
  2
*D13
 70
     1
 10
0.0
 20
0.0
 30
0.0
  3
*D13
  1

  0
LINE
  5
4543
330
444A
100
AcDbEntity
  8
寸法線
 62
     0
 48
10.0
100
AcDbLine
 10
332.16483518331
 20
469.800533672757
 30
0.0
 11
332.16483518331
 21
442.314258954871
 31
0.0
  0
LINE
  5
4544
330
444A
100
AcDbEntity
  8
寸法線
 62
     0
 48
10.0
100
AcDbLine
 10
353.16480518331
 20
464.205844094271
 30
0.0
 11
353.16480518331
 21
442.314258954871
 31
0.0
  0
LINE
  5
4545
330
444A
100
AcDbEntity
  8
寸法線
 62
     0
 48
10.0
100
AcDbLine
 10
338.16483518331
 20
443.564258954871
 30
0.0
 11
347.16480518331
 21
443.564258954871
 31
0.0
  0
INSERT
  5
4546
330
444A
100
AcDbEntity
  8
寸法線
 62
     0
100
AcDbBlockReference
  2
_OPEN30
 10
332.16483518331
 20
443.564258954871
 30
0.0
 41
6.0
 42
6.0
 43
6.0
 50
180.0
  0
INSERT
  5
4547
330
444A
100
AcDbEntity
  8
寸法線
 62
     0
100
AcDbBlockReference
  2
_OPEN30
 10
353.16480518331
 20
443.564258954871
 30
0.0
 41
6.0
 42
6.0
 43
6.0
  0
MTEXT
  5
4548
330
444A
100
AcDbEntity
  8
寸法線
 62
     0
 48
10.0
100
AcDbMText
 10
342.66482018331
 20
448.193425621537
 30
0.0
 40
8.0
 41
0.0
 71
     5
 72
     1
  1
\A1;21
  0
POINT
  5
4549
330
444A
100
AcDbEntity
  8
DEFPOINTS
 62
     0
100
AcDbPoint
 10
332.16483518331
 20
470.425533672757
 30
0.0
  0
POINT
  5
454A
330
444A
100
AcDbEntity
  8
DEFPOINTS
 62
     0
100
AcDbPoint
 10
353.16480518331
 20
464.830844094271
 30
0.0
  0
POINT
  5
454B
330
444A
100
AcDbEntity
  8
DEFPOINTS
 62
     0
100
AcDbPoint
 10
353.16480518331
 20
443.564258954871
 30
0.0
  0
ENDBLK
  5
4455
330
444A
100
AcDbEntity
  8
0
 48
10.0
100
AcDbBlockEnd
  0
ENDSEC
  0
SECTION
  2
ENTITIES
  0
ARC
  5
2D85
330
1A
100
AcDbEntity
  8
外形線
100
AcDbCircle
 10
431.186166974976
 20
539.468238020969
 30
0.0
 40
2.073556783584
100
AcDbArc
 50
90.0
 51
136.091731908436
  0
LINE
  5
2D86
330
1A
100
AcDbEntity
  8
外形線
100
AcDbLine
 10
429.692270828486
 20
540.906261678023
 30
0.0
 11
428.843300479146
 21
540.024305719133
 31
0.0
  0
ARC
  5
2D87
330
1A
100
AcDbEntity
  8
外形線
100
AcDbCircle
 10
427.349404332656
 20
541.462329376189
 30
0.0
 40
2.073556783584
100
AcDbArc
 50
270.0
 51
316.091731908441
  0
LINE
  5
2D88
330
1A
100
AcDbEntity
  8
外形線
100
AcDbLine
 10
435.487926645958
 20
541.541794804553
 30
0.0
 11
431.186166974976
 21
541.541794804553
 31
0.0
  0
ARC
  5
2D89
330
1A
100
AcDbEntity
  8
外形線
100
AcDbCircle
 10
430.921209185104
 20
461.319359690667
 30
0.0
 40
1.2441340701504
100
AcDbArc
 50
217.230967965681
 51
270.0
  0
ARC
  5
2D8A
330
1A
100
AcDbEntity
  8
外形線
100
AcDbCircle
 10
426.92941591772
 20
464.259815921637
 30
0.0
 40
1.2441340701504
100
AcDbArc
 50
37.230967965672
 51
90.0
  0
LINE
  5
2D8B
330
1A
100
AcDbEntity
  8
外形線
100
AcDbLine
 10
435.487926645958
 20
460.075225620515
 30
0.0
 11
430.921209185104
 21
460.075225620515
 31
0.0
  0
LINE
  5
2D8C
330
1A
100
AcDbEntity
  8
細線
100
AcDbLine
 10
427.349404332656
 20
539.388772592603
 30
0.0
 11
427.349404332656
 21
466.173416094271
 31
0.0
  0
LINE
  5
2D8D
330
1A
100
AcDbEntity
  8
外形線
100
AcDbLine
 10
433.037934869316
 20
423.470844094271
 30
0.0
 11
433.037934869316
 21
429.400844094271
 31
0.0
  0
LINE
  5
2D8E
330
1A
100
AcDbEntity
  8
外形線
100
AcDbLine
 10
430.964378085732
 20
429.400844094271
 30
0.0
 11
430.964378085732
 21
431.080844094271
 31
0.0
  0
LINE
  5
2D8F
330
1A
100
AcDbEntity
  8
外形線
100
AcDbLine
 10
424.225318539084
 20
423.470844094271
 30
0.0
 11
424.225318539084
 21
429.400844094271
 31
0.0
  0
LINE
  5
2D90
330
1A
100
AcDbEntity
  8
外形線
100
AcDbLine
 10
426.817264518564
 20
423.470844094271
 30
0.0
 11
426.817264518564
 21
429.400844094271
 31
0.0
  0
LINE
  5
2D91
330
1A
100
AcDbEntity
  8
外形線
100
AcDbLine
 10
428.372432106252
 20
421.502981287313
 30
0.0
 11
429.236091370684
 21
420.670844094271
 31
0.0
  0
LINE
  5
2D92
330
1A
100
AcDbEntity
  8
外形線
100
AcDbLine
 10
428.372432106252
 20
421.502981287313
 30
0.0
 11
428.372432106252
 21
420.670844094271
 31
0.0
  0
LINE
  5
2D93
330
1A
100
AcDbEntity
  8
外形線
100
AcDbLine
 10
428.372432106252
 20
420.670844094271
 30
0.0
 11
428.372432106252
 21
423.470844094271
 31
0.0
  0
LINE
  5
2D94
330
1A
100
AcDbEntity
  8
外形線
100
AcDbLine
 10
410.747199445788
 20
423.470844094271
 30
0.0
 11
410.747199445788
 21
429.400844094271
 31
0.0
  0
LINE
  5
2D95
330
1A
100
AcDbEntity
  8
外形線
100
AcDbLine
 10
408.155253466308
 20
423.470844094271
 30
0.0
 11
408.155253466308
 21
429.400844094271
 31
0.0
  0
LINE
  5
2D96
330
1A
100
AcDbEntity
  8
外形線
100
AcDbLine
 10
406.60008587862
 20
421.502981287313
 30
0.0
 11
406.60008587862
 21
420.670844094271
 31
0.0
  0
LINE
  5
2D97
330
1A
100
AcDbEntity
  8
外形線
100
AcDbLine
 10
406.60008587862
 20
421.502981287313
 30
0.0
 11
405.736426614188
 21
420.670844094271
 31
0.0
  0
LINE
  5
2D98
330
1A
100
AcDbEntity
  8
外形線
100
AcDbLine
 10
406.60008587862
 20
420.670844094271
 30
0.0
 11
406.60008587862
 21
423.470844094271
 31
0.0
  0
LINE
  5
2D99
330
1A
100
AcDbEntity
  8
外形線
100
AcDbLine
 10
401.934583115556
 20
423.470844094271
 30
0.0
 11
401.934583115556
 21
429.400844094271
 31
0.0
  0
LINE
  5
2D9A
330
1A
100
AcDbEntity
  8
外形線
100
AcDbLine
 10
404.00813989914
 20
429.400844094271
 30
0.0
 11
404.00813989914
 21
429.919233290167
 31
0.0
  0
LINE
  5
2D9B
330
1A
100
AcDbEntity
  8
外形線
100
AcDbLine
 10
404.00813989914
 20
429.400844094271
 30
0.0
 11
404.00813989914
 21
431.080844094271
 31
0.0
  0
LINE
  5
2D9C
330
1A
100
AcDbEntity
  8
細線
100
AcDbLine
 10
406.60008587862
 20
421.502981287313
 30
0.0
 11
428.372432106252
 21
421.502981287313
 31
0.0
  0
LINE
  5
2D9D
330
1A
100
AcDbEntity
  8
外形線
100
AcDbLine
 10
433.037934869316
 20
423.470844094271
 30
0.0
 11
401.934583115556
 21
423.470844094271
 31
0.0
  0
LINE
  5
2D9E
330
1A
100
AcDbEntity
  8
外形線
100
AcDbLine
 10
433.037934869316
 20
429.400844094271
 30
0.0
 11
401.934583115556
 21
429.400844094271
 31
0.0
  0
LINE
  5
2D9F
330
1A
100
AcDbEntity
  8
外形線
100
AcDbLine
 10
433.037934869316
 20
420.670844094271
 30
0.0
 11
401.934583115556
 21
420.670844094271
 31
0.0
  0
LINE
  5
2DA0
330
1A
100
AcDbEntity
  8
外形線
100
AcDbLine
 10
431.27541160327
 20
408.120844094271
 30
0.0
 11
433.037934869316
 21
409.779689521139
 31
0.0
  0
LINE
  5
2DA1
330
1A
100
AcDbEntity
  8
外形線
100
AcDbLine
 10
424.225318539084
 20
409.779689521139
 30
0.0
 11
426.817264518564
 21
409.779689521139
 31
0.0
  0
ARC
  5
2DA2
330
1A
100
AcDbEntity
  8
外形線
100
AcDbCircle
 10
429.92759969394
 20
412.706264551391
 30
0.0
 40
4.2707173063642
100
AcDbArc
 50
223.256487111673
 51
316.743512888327
  0
ARC
  5
2DA3
330
1A
100
AcDbEntity
  8
外形線
100
AcDbCircle
 10
426.09151964431
 20
408.514736053231
 30
0.0
 40
5.183891958959999
100
AcDbArc
 50
270.0
 51
355.642247142051
  0
LINE
  5
2DA4
330
1A
100
AcDbEntity
  8
外形線
100
AcDbLine
 10
410.747199445788
 20
409.779689521139
 30
0.0
 11
408.155253466308
 21
409.779689521139
 31
0.0
  0
LINE
  5
2DA5
330
1A
100
AcDbEntity
  8
外形線
100
AcDbLine
 10
403.697106381602
 20
408.120844094271
 30
0.0
 11
401.934583115556
 21
409.779689521139
 31
0.0
  0
ARC
  5
2DA6
330
1A
100
AcDbEntity
  8
外形線
100
AcDbCircle
 10
405.044918290932
 20
412.706264551391
 30
0.0
 40
4.2707173063642
100
AcDbArc
 50
223.25648711167
 51
316.743512888332
  0
ARC
  5
2DA7
330
1A
100
AcDbEntity
  8
外形線
100
AcDbCircle
 10
408.880998340562
 20
408.514736053231
 30
0.0
 40
5.183891958959999
100
AcDbArc
 50
184.357752857949
 51
270.0
  0
LINE
  5
2DA8
330
1A
100
AcDbEntity
  8
外形線
100
AcDbLine
 10
426.09151964431
 20
403.330844094271
 30
0.0
 11
408.880998340562
 21
403.330844094271
 31
0.0
  0
LINE
  5
2DA9
330
1A
100
AcDbEntity
  8
外形線
100
AcDbLine
 10
431.27541160327
 20
408.120844094271
 30
0.0
 11
403.697106381602
 21
408.120844094271
 31
0.0
  0
ARC
  5
2DAA
330
1A
100
AcDbEntity
  8
外形線
100
AcDbCircle
 10
417.486258992436
 20
426.063779224377
 30
0.0
 40
17.62346450152246
100
AcDbArc
 50
247.518115682491
 51
292.481884317508
  0
LINE
  5
2DAB
330
1A
100
AcDbEntity
  8
外形線
100
AcDbLine
 10
401.934583115556
 20
420.670844094271
 30
0.0
 11
401.934583115556
 21
409.779689521135
 31
0.0
  0
LINE
  5
2DAC
330
1A
100
AcDbEntity
  8
外形線
100
AcDbLine
 10
410.747199445788
 20
409.779689521139
 30
0.0
 11
410.747199445788
 21
420.670844094271
 31
0.0
  0
LINE
  5
2DAD
330
1A
100
AcDbEntity
  8
外形線
100
AcDbLine
 10
408.155253466308
 20
409.779689521139
 30
0.0
 11
408.155253466308
 21
420.670844094271
 31
0.0
  0
LINE
  5
2DAE
330
1A
100
AcDbEntity
  8
外形線
100
AcDbLine
 10
424.225318539084
 20
409.779689521139
 30
0.0
 11
424.225318539084
 21
420.670844094271
 31
0.0
  0
LINE
  5
2DAF
330
1A
100
AcDbEntity
  8
外形線
100
AcDbLine
 10
433.037934869316
 20
420.670844094271
 30
0.0
 11
433.037934869316
 21
409.779689521137
 31
0.0
  0
LINE
  5
2DB0
330
1A
100
AcDbEntity
  8
外形線
100
AcDbLine
 10
426.817264518564
 20
409.779689521139
 30
0.0
 11
426.817264518564
 21
420.670844094271
 31
0.0
  0
LINE
  5
2DBE
330
1A
100
AcDbEntity
  8
外形線
100
AcDbLine
 10
367.54835847632
 20
466.374541573263
 30
0.0
 11
367.54835847632
 21
518.287146615279
 31
0.0
  0
ARC
  5
2DD1
330
1A
100
AcDbEntity
  8
外形線
100
AcDbCircle
 10
368.14835847632
 20
459.580844094271
 30
0.0
 40
0.6
100
AcDbArc
 50
180.0
 51
270.0
  0
ARC
  5
2DE3
330
1A
100
AcDbEntity
  8
外形線
100
AcDbCircle
 10
368.14835847632
 20
525.080844094271
 30
0.0
 40
0.6
100
AcDbArc
 50
90.0
 51
180.0
  0
LINE
  5
2DE4
330
1A
100
AcDbEntity
  8
外形線
100
AcDbLine
 10
367.54835847632
 20
525.196869498055
 30
0.0
 11
367.54835847632
 21
459.464818690487
 31
0.0
  0
LINE
  5
2DE5
330
1A
100
AcDbEntity
  8
外形線
100
AcDbLine
 10
398.57359525781
 20
431.991840175377
 30
0.0
 11
385.49508845245
 21
446.023881993605
 31
0.0
  0
LINE
  5
2DE6
330
1A
100
AcDbEntity
  8
外形線
100
AcDbLine
 10
388.045819909408
 20
448.092263123807
 30
0.0
 11
373.04835847631
 21
458.980844094271
 31
0.0
  0
LINE
  5
2DE7
330
1A
100
AcDbEntity
  8
外形線
100
AcDbLine
 10
388.045819909408
 20
536.338448408329
 30
0.0
 11
373.04835847631
 21
525.680844094271
 31
0.0
  0
CIRCLE
  5
2DE8
330
1A
100
AcDbEntity
  8
細線
100
AcDbCircle
 10
417.487926645954
 20
451.352116275777
 30
0.0
 40
13.76127218150634
  0
LINE
  5
2DE9
330
1A
100
AcDbEntity
  8
外形線
100
AcDbLine
 10
421.367485702994
 20
456.389484375899
 30
0.0
 11
422.685501984424
 21
455.013655633089
 31
0.0
  0
LINE
  5
2DEA
330
1A
100
AcDbEntity
  8
外形線
100
AcDbLine
 10
413.605032281876
 20
446.314748175655
 30
0.0
 11
422.685501984424
 21
455.013655633089
 31
0.0
  0
CIRCLE
  5
2DEB
330
1A
100
AcDbEntity
  8
外形線
100
AcDbCircle
 10
417.486258992436
 20
451.352116275777
 30
0.0
 40
10.51872781849356
  0
CIRCLE
  5
2DEC
330
1A
100
AcDbEntity
  8
細線
100
AcDbCircle
 10
417.486258992436
 20
451.352116275777
 30
0.0
 40
9.90742839250458
  0
LINE
  5
2DED
330
1A
100
AcDbEntity
  8
外形線
100
AcDbLine
 10
412.287016000448
 20
447.690576918465
 30
0.0
 11
421.367485702994
 21
456.389484375899
 31
0.0
  0
LINE
  5
2DEE
330
1A
100
AcDbEntity
  8
外形線
100
AcDbLine
 10
412.287016000448
 20
447.690576918465
 30
0.0
 11
413.605032281876
 21
446.314748175655
 31
0.0
  0
LINE
  5
2DEF
330
1A
100
AcDbEntity
  8
外形線
100
AcDbLine
 10
368.14835847632
 20
525.680844094271
 30
0.0
 11
373.04835847631
 21
525.680844094271
 31
0.0
  0
LINE
  5
2DF0
330
1A
100
AcDbEntity
  8
外形線
100
AcDbLine
 10
368.14835847632
 20
458.980844094271
 30
0.0
 11
373.04835847631
 21
458.980844094271
 31
0.0
  0
LINE
  5
2DF1
330
1A
100
AcDbEntity
  8
外形線
100
AcDbLine
 10
373.04835847631
 20
525.680844094271
 30
0.0
 11
373.04835847631
 21
458.980844094271
 31
0.0
  0
LINE
  5
2DF2
330
1A
100
AcDbEntity
  8
外形線
100
AcDbLine
 10
367.54835847632
 20
513.173416094271
 30
0.0
 11
367.54835847632
 21
524.680844094271
 31
0.0
  0
LINE
  5
2DF3
330
1A
100
AcDbEntity
  8
外形線
100
AcDbLine
 10
427.919999221816
 20
465.012553792449
 30
0.0
 11
429.930625881008
 21
460.566621819853
 31
0.0
  0
ARC
  5
2DF5
330
1A
100
AcDbEntity
  8
外形線
100
AcDbCircle
 10
386.909302014824
 20
447.438095555979
 30
0.0
 40
2.0
100
AcDbArc
 50
180.0
 51
225.0
  0
LWPOLYLINE
  5
2DF7
330
1A
100
AcDbEntity
  8
外形線
100
AcDbPolyline
 90
       18
 70
     0
 43
0.0
 10
446.270421920594
 20
521.191426490655
 10
445.317042002852
 20
521.114986228699
 10
444.396128294758
 20
520.888268524271
 10
443.539041408122
 20
520.518993976877
 10
442.77496840891
 20
520.019737788335
 10
442.129928886704
 20
519.407501529353
 10
441.625888888792
 20
518.703134171433
 10
441.280012892776
 20
517.930622100153
 10
441.104079290864
 20
517.116272287577
 10
441.104079290864
 20
516.287816439865
 10
441.280012892776
 20
515.473466627289
 10
441.625888888792
 20
514.700954556009
 10
442.129928886704
 20
513.996587198089
 10
442.77496840891
 20
513.384350939107
 10
443.539041408122
 20
512.885094750563
 10
444.396128294758
 20
512.515820203171
 10
445.317042002852
 20
512.289102498743
 10
446.270421920594
 20
512.212662236787
  0
LWPOLYLINE
  5
2DF8
330
1A
100
AcDbEntity
  8
外形線
100
AcDbPolyline
 90
        8
 70
     0
 43
0.0
 10
446.270421920594
 20
520.625687618303
 10
445.279963247346
 20
520.549218755901
 10
444.323246076096
 20
520.322417198407
 10
443.432862452544
 20
519.953009290609
 10
442.639144667802
 20
519.453579482513
 10
441.969131942124
 20
518.841141620653
 10
441.445649292172
 20
518.136559345181
 10
441.086529961634
 20
517.363835337775
  0
LWPOLYLINE
  5
2DF9
330
1A
100
AcDbEntity
  8
外形線
100
AcDbPolyline
 90
        8
 70
     0
 43
0.0
 10
446.270421920594
 20
536.402311742717
 10
445.261566174252
 20
536.344230038177
 10
444.291216811062
 20
536.172201808757
 10
443.396410488152
 20
535.892793092209
 10
442.611300507656
 20
535.516668464847
 10
441.965853240716
 20
535.058183992009
 10
441.484704359834
 20
534.534839280397
 10
441.186218535306
 20
533.966609546547
  0
LWPOLYLINE
  5
2DFA
330
1A
100
AcDbEntity
  8
外形線
100
AcDbPolyline
 90
       18
 70
     0
 43
0.0
 10
446.270421920594
 20
537.219490505801
 10
445.31699932419
 20
537.167670043089
 10
444.396044390802
 20
537.013973338663
 10
443.538919136124
 20
536.763634349451
 10
442.774811932692
 20
536.425178069483
 10
442.129743534878
 20
536.010130221439
 10
441.625680973294
 20
535.532624761989
 10
441.279789493916
 20
535.008922566851
 10
441.103848016224
 20
534.456857686169
 10
441.103848016224
 20
533.895230027323
 10
441.279789493916
 20
533.343165146641
 10
441.625680973294
 20
532.819462951503
 10
442.129743534878
 20
532.341957492053
 10
442.774811932692
 20
531.926909644011
 10
443.538919136124
 20
531.588453364041
 10
444.396044390802
 20
531.338114374829
 10
445.31699932419
 20
531.184417670403
 10
446.270421920594
 20
531.132597207693
  0
ARC
  5
2DFB
330
1A
100
AcDbEntity
  8
外形線
100
AcDbCircle
 10
465.554500007926
 20
534.109155330425
 30
0.0
 40
3.110335175376
100
AcDbArc
 50
0.0
 51
90.0
  0
ARC
  5
2DFC
330
1A
100
AcDbEntity
  8
外形線
100
AcDbCircle
 10
463.480943224342
 20
534.328754959133
 30
0.0
 40
2.073556783584
100
AcDbArc
 50
0.0
 51
90.0
  0
ARC
  5
2DFD
330
1A
100
AcDbEntity
  8
外形線
100
AcDbCircle
 10
464.517721616134
 20
536.632538161515
 30
0.0
 40
4.147113567168
100
AcDbArc
 50
0.0
 51
87.000000000002
  0
ARC
  5
2DFE
330
1A
100
AcDbEntity
  8
外形線
100
AcDbCircle
 10
440.049751569842
 20
541.980718572083
 30
0.0
 40
1.036778391792
100
AcDbArc
 50
0.0
 51
30.000000000005
  0
LINE
  5
2DFF
330
1A
100
AcDbEntity
  8
外形線
100
AcDbLine
 10
435.487926645958
 20
541.980718572083
 30
0.0
 11
436.006315841854
 21
542.499107767979
 31
0.0
  0
LINE
  5
2E00
330
1A
100
AcDbEntity
  8
外形線
100
AcDbLine
 10
436.006315841854
 20
542.499107767979
 30
0.0
 11
440.947627995228
 21
542.499107767979
 31
0.0
  0
LINE
  5
2E01
330
1A
100
AcDbEntity
  8
外形線
100
AcDbLine
 10
446.270421920594
 20
537.219490505801
 30
0.0
 11
465.554500007926
 21
537.219490505801
 31
0.0
  0
LINE
  5
2E02
330
1A
100
AcDbEntity
  8
外形線
100
AcDbLine
 10
446.270421920594
 20
536.402311742717
 30
0.0
 11
463.480943224342
 21
536.402311742717
 31
0.0
  0
LINE
  5
2E03
330
1A
100
AcDbEntity
  8
外形線
100
AcDbLine
 10
441.086529961634
 20
541.980718572083
 30
0.0
 11
464.734764770318
 21
540.773968253671
 31
0.0
  0
ARC
  5
2E04
330
1A
100
AcDbEntity
  8
外形線
100
AcDbCircle
 10
465.554500007926
 20
528.022262032317
 30
0.0
 40
3.110335175376
100
AcDbArc
 50
0.0
 51
90.0
  0
ARC
  5
2E05
330
1A
100
AcDbEntity
  8
外形線
100
AcDbCircle
 10
463.999332420238
 20
519.070520030615
 30
0.0
 40
1.555167587688
100
AcDbArc
 50
0.0
 51
90.0
  0
LINE
  5
2E06
330
1A
100
AcDbEntity
  8
外形線
100
AcDbLine
 10
468.253961113972
 20
516.182556749165
 30
0.0
 11
465.554500007926
 21
514.138344587399
 31
0.0
  0
ARC
  5
2E07
330
1A
100
AcDbEntity
  8
外形線
100
AcDbCircle
 10
467.62805679151
 20
511.175883844995
 30
0.0
 40
1.036778391792
100
AcDbArc
 50
0.0
 51
90.0
  0
ARC
  5
2E08
330
1A
100
AcDbEntity
  8
外形線
100
AcDbCircle
 10
467.62805679151
 20
517.009087579085
 30
0.0
 40
1.036778391792
100
AcDbArc
 50
307.135436470274
 51
0.0
  0
LINE
  5
2E09
330
1A
100
AcDbEntity
  8
外形線
100
AcDbLine
 10
465.554500007926
 20
519.070520030615
 30
0.0
 11
465.554500007926
 21
512.212662236787
 31
0.0
  0
ARC
  5
2E0A
330
1A
100
AcDbEntity
  8
外形線
100
AcDbCircle
 10
465.554500007926
 20
518.081091315279
 30
0.0
 40
3.110335175376
100
AcDbArc
 50
0.0
 51
90.0
  0
ARC
  5
2E0B
330
1A
100
AcDbEntity
  8
外形線
100
AcDbCircle
 10
467.62805679151
 20
498.436026116819
 30
0.0
 40
1.036778391792
100
AcDbArc
 50
270.0
 51
0.0
  0
LINE
  5
2E0C
330
1A
100
AcDbEntity
  8
外形線
100
AcDbLine
 10
465.554500007926
 20
497.399247725027
 30
0.0
 11
465.554500007926
 21
492.215355766069
 31
0.0
  0
ARC
  5
2E0D
330
1A
100
AcDbEntity
  8
外形線
100
AcDbCircle
 10
467.62805679151
 20
485.994685415317
 30
0.0
 40
1.036778391792
100
AcDbArc
 50
0.0
 51
90.0
  0
LINE
  5
2E0E
330
1A
100
AcDbEntity
  8
外形線
100
AcDbLine
 10
465.554500007926
 20
487.031463807107
 30
0.0
 11
465.554500007926
 21
492.215355766069
 31
0.0
  0
LINE
  5
2E0F
330
1A
100
AcDbEntity
  8
外形線
100
AcDbLine
 10
468.664835183302
 20
511.175883844995
 30
0.0
 11
468.664835183302
 21
498.436026116819
 31
0.0
  0
ARC
  5
2E10
330
1A
100
AcDbEntity
  8
外形線
100
AcDbCircle
 10
446.270421920594
 20
492.215355766069
 30
0.0
 40
5.183891958959999
100
AcDbArc
 50
90.0
 51
180.0
  0
ARC
  5
2E11
330
1A
100
AcDbEntity
  8
外形線
100
AcDbCircle
 10
446.270421920594
 20
492.215355766069
 30
0.0
 40
5.183891958959999
100
AcDbArc
 50
180.0
 51
270.0
  0
LINE
  5
2E12
330
1A
100
AcDbEntity
  8
外形線
100
AcDbLine
 10
446.270421920594
 20
487.031463807107
 30
0.0
 11
467.62805679151
 21
487.031463807107
 31
0.0
  0
LINE
  5
2E13
330
1A
100
AcDbEntity
  8
外形線
100
AcDbLine
 10
446.270421920594
 20
497.399247725027
 30
0.0
 11
467.62805679151
 21
497.399247725027
 31
0.0
  0
LINE
  5
2E14
330
1A
100
AcDbEntity
  8
外形線
100
AcDbLine
 10
446.270421920596
 20
531.132597207693
 30
0.0
 11
465.554500007926
 21
531.132597207693
 31
0.0
  0
LINE
  5
2E15
330
1A
100
AcDbEntity
  8
外形線
100
AcDbLine
 10
446.270421920594
 20
521.191426490655
 30
0.0
 11
465.554500007926
 21
521.191426490655
 31
0.0
  0
LINE
  5
2E16
330
1A
100
AcDbEntity
  8
外形線
100
AcDbLine
 10
446.270421920594
 20
520.625687618303
 30
0.0
 11
463.999332420238
 21
520.625687618303
 31
0.0
  0
LINE
  5
2E17
330
1A
100
AcDbEntity
  8
外形線
100
AcDbLine
 10
446.270421920596
 20
512.212662236787
 30
0.0
 11
467.62805679151
 21
512.212662236787
 31
0.0
  0
LINE
  5
2E19
330
1A
100
AcDbEntity
  8
外形線
100
AcDbLine
 10
441.086529961634
 20
541.980718572083
 30
0.0
 11
441.086529961634
 21
492.215355766069
 31
0.0
  0
LINE
  5
2E1A
330
1A
100
AcDbEntity
  8
外形線
100
AcDbLine
 10
468.664835183302
 20
517.009087579085
 30
0.0
 11
468.664835183302
 21
536.632538161515
 31
0.0
  0
LINE
  5
2E1B
330
1A
100
AcDbEntity
  8
外形線
100
AcDbLine
 10
465.554500007926
 20
534.328754959133
 30
0.0
 11
465.554500007926
 21
531.132597207693
 31
0.0
  0
LINE
  5
2E1C
330
1A
100
AcDbEntity
  8
外形線
100
AcDbLine
 10
388.48792664595
 20
537.187727547439
 30
0.0
 11
388.48792664595
 21
538.351994200811
 31
0.0
  0
LINE
  5
2E1D
330
1A
100
AcDbEntity
  8
外形線
100
AcDbLine
 10
389.524705037742
 20
539.388772592603
 30
0.0
 11
427.349404332656
 21
539.388772592603
 31
0.0
  0
LINE
  5
2E1E
330
1A
100
AcDbEntity
  8
外形線
100
AcDbLine
 10
468.253961113972
 20
468.248154782971
 30
0.0
 11
465.554500007926
 21
470.292366944737
 31
0.0
  0
ARC
  5
2E1F
330
1A
100
AcDbEntity
  8
外形線
100
AcDbCircle
 10
467.62805679151
 20
467.421623953051
 30
0.0
 40
1.036778391792
100
AcDbArc
 50
0.0
 51
52.864563529744
  0
ARC
  5
2E20
330
1A
100
AcDbEntity
  8
外形線
100
AcDbCircle
 10
467.62805679151
 20
473.254827687141
 30
0.0
 40
1.036778391792
100
AcDbArc
 50
270.0
 51
0.0
  0
ARC
  5
2E21
330
1A
100
AcDbEntity
  8
外形線
100
AcDbCircle
 10
465.554500007926
 20
466.349620216857
 30
0.0
 40
3.110335175376
100
AcDbArc
 50
270.0
 51
0.0
  0
LINE
  5
2E22
330
1A
100
AcDbEntity
  8
外形線
100
AcDbLine
 10
465.554500007926
 20
465.360191501521
 30
0.0
 11
465.554500007926
 21
472.218049295349
 31
0.0
  0
ARC
  5
2E23
330
1A
100
AcDbEntity
  8
外形線
100
AcDbCircle
 10
463.999332420238
 20
465.360191501521
 30
0.0
 40
1.555167587688
100
AcDbArc
 50
270.0
 51
0.0
  0
ARC
  5
2E24
330
1A
100
AcDbEntity
  8
外形線
100
AcDbCircle
 10
465.554500007926
 20
456.408449499819
 30
0.0
 40
3.110335175376
100
AcDbArc
 50
270.0
 51
0.0
  0
ARC
  5
2E25
330
1A
100
AcDbEntity
  8
外形線
100
AcDbCircle
 10
465.554500007926
 20
450.321556201711
 30
0.0
 40
3.110335175376
100
AcDbArc
 50
270.0
 51
0.0
  0
LINE
  5
2E26
330
1A
100
AcDbEntity
  8
外形線
100
AcDbLine
 10
465.554500007926
 20
450.101956573003
 30
0.0
 11
465.554500007926
 21
453.298114324443
 31
0.0
  0
ARC
  5
2E27
330
1A
100
AcDbEntity
  8
外形線
100
AcDbCircle
 10
463.480943224342
 20
450.101956573003
 30
0.0
 40
2.073556783584
100
AcDbArc
 50
270.0
 51
0.0
  0
LINE
  5
2E28
330
1A
100
AcDbEntity
  8
外形線
100
AcDbLine
 10
468.664835183302
 20
467.421623953051
 30
0.0
 11
468.664835183302
 21
447.798173370621
 31
0.0
  0
ARC
  5
2E29
330
1A
100
AcDbEntity
  8
外形線
100
AcDbCircle
 10
464.517721616134
 20
447.798173370621
 30
0.0
 40
4.147113567168
100
AcDbArc
 50
272.999999999999
 51
0.0
  0
LWPOLYLINE
  5
2E2A
330
1A
100
AcDbEntity
  8
外形線
100
AcDbPolyline
 90
       18
 70
     0
 43
0.0
 10
446.270421920594
 20
463.239285041481
 10
445.317042002852
 20
463.315725303437
 10
444.396128294758
 20
463.542443007865
 10
443.539041408122
 20
463.911717555259
 10
442.77496840891
 20
464.410973743801
 10
442.129928886704
 20
465.023210002783
 10
441.625888888792
 20
465.727577360703
 10
441.280012892776
 20
466.500089431983
 10
441.104079290864
 20
467.314439244559
 10
441.104079290864
 20
468.142895092271
 10
441.280012892776
 20
468.957244904847
 10
441.625888888792
 20
469.729756976127
 10
442.129928886704
 20
470.434124334047
 10
442.77496840891
 20
471.046360593029
 10
443.539041408122
 20
471.545616781573
 10
444.396128294758
 20
471.914891328965
 10
445.317042002852
 20
472.141609033393
 10
446.270421920594
 20
472.218049295349
  0
LWPOLYLINE
  5
2E2B
330
1A
100
AcDbEntity
  8
外形線
100
AcDbPolyline
 90
        8
 70
     0
 43
0.0
 10
446.270421920594
 20
463.805023913833
 10
445.279963247346
 20
463.881492776235
 10
444.323246076096
 20
464.108294333729
 10
443.432862452544
 20
464.477702241527
 10
442.639144667802
 20
464.977132049623
 10
441.969131942124
 20
465.589569911483
 10
441.445649292172
 20
466.294152186955
 10
441.086529961634
 20
467.066876194361
  0
LWPOLYLINE
  5
2E2C
330
1A
100
AcDbEntity
  8
外形線
100
AcDbPolyline
 90
        8
 70
     0
 43
0.0
 10
446.270421920594
 20
448.028399789419
 10
445.261566174252
 20
448.086481493959
 10
444.291216811062
 20
448.258509723379
 10
443.396410488152
 20
448.537918439927
 10
442.611300507656
 20
448.914043067289
 10
441.965853240716
 20
449.372527540129
 10
441.484704359834
 20
449.895872251739
 10
441.186218535306
 20
450.464101985589
  0
LWPOLYLINE
  5
2E2D
330
1A
100
AcDbEntity
  8
外形線
100
AcDbPolyline
 90
       18
 70
     0
 43
0.0
 10
446.270421920594
 20
447.211221026335
 10
445.31699932419
 20
447.263041489047
 10
444.396044390802
 20
447.416738193473
 10
443.538919136124
 20
447.667077182685
 10
442.774811932692
 20
448.005533462653
 10
442.129743534878
 20
448.420581310697
 10
441.625680973294
 20
448.898086770147
 10
441.279789493916
 20
449.421788965285
 10
441.103848016224
 20
449.973853845967
 10
441.103848016224
 20
450.535481504813
 10
441.279789493916
 20
451.087546385495
 10
441.625680973294
 20
451.611248580633
 10
442.129743534878
 20
452.088754040083
 10
442.774811932692
 20
452.503801888127
 10
443.538919136124
 20
452.842258168095
 10
444.396044390802
 20
453.092597157307
 10
445.31699932419
 20
453.246293861733
 10
446.270421920594
 20
453.298114324443
  0
ARC
  5
2E2E
330
1A
100
AcDbEntity
  8
外形線
100
AcDbCircle
 10
440.049751569842
 20
442.449992960051
 30
0.0
 40
1.036778391792
100
AcDbArc
 50
330.000000000004
 51
0.0
  0
LINE
  5
2E2F
330
1A
100
AcDbEntity
  8
外形線
100
AcDbLine
 10
435.487926645958
 20
442.449992960051
 30
0.0
 11
436.006315841852
 21
441.931603764155
 31
0.0
  0
LINE
  5
2E30
330
1A
100
AcDbEntity
  8
外形線
100
AcDbLine
 10
436.006315841852
 20
441.931603764155
 30
0.0
 11
440.947627995228
 21
441.931603764155
 31
0.0
  0
LINE
  5
2E31
330
1A
100
AcDbEntity
  8
外形線
100
AcDbLine
 10
446.270421920594
 20
463.239285041481
 30
0.0
 11
465.554500007926
 21
463.239285041481
 31
0.0
  0
LINE
  5
2E32
330
1A
100
AcDbEntity
  8
外形線
100
AcDbLine
 10
446.270421920594
 20
463.805023913833
 30
0.0
 11
463.999332420238
 21
463.805023913833
 31
0.0
  0
LINE
  5
2E33
330
1A
100
AcDbEntity
  8
外形線
100
AcDbLine
 10
446.270421920596
 20
453.298114324443
 30
0.0
 11
465.554500007926
 21
453.298114324443
 31
0.0
  0
LINE
  5
2E34
330
1A
100
AcDbEntity
  8
外形線
100
AcDbLine
 10
446.270421920594
 20
447.211221026335
 30
0.0
 11
465.554500007926
 21
447.211221026335
 31
0.0
  0
LINE
  5
2E35
330
1A
100
AcDbEntity
  8
外形線
100
AcDbLine
 10
446.270421920594
 20
448.028399789419
 30
0.0
 11
463.480943224342
 21
448.028399789419
 31
0.0
  0
LINE
  5
2E36
330
1A
100
AcDbEntity
  8
外形線
100
AcDbLine
 10
441.086529961634
 20
442.449992960051
 30
0.0
 11
464.734764770318
 21
443.656743278465
 31
0.0
  0
LINE
  5
2E37
330
1A
100
AcDbEntity
  8
外形線
100
AcDbLine
 10
446.270421920596
 20
472.218049295349
 30
0.0
 11
467.62805679151
 21
472.218049295349
 31
0.0
  0
LINE
  5
2E38
330
1A
100
AcDbEntity
  8
外形線
100
AcDbLine
 10
388.48792664595
 20
447.242983984697
 30
0.0
 11
388.48792664595
 21
446.078717331323
 31
0.0
  0
LINE
  5
2E39
330
1A
100
AcDbEntity
  8
外形線
100
AcDbLine
 10
389.524705037742
 20
445.041938939531
 30
0.0
 11
397.414369862366
 21
445.041938939531
 31
0.0
  0
ARC
  5
2E3A
330
1A
100
AcDbEntity
  8
外形線
100
AcDbCircle
 10
400.772934352082
 20
434.191179269647
 30
0.0
 40
3.110335175376
100
AcDbArc
 50
224.999999999995
 51
259.247872764004
  0
ARC
  5
2E3B
330
1A
100
AcDbEntity
  8
外形線
100
AcDbCircle
 10
400.524705037742
 20
432.117622486063
 30
0.0
 40
1.036778391792
100
AcDbArc
 50
180.0
 51
270.0
  0
LINE
  5
2E3C
330
1A
100
AcDbEntity
  8
外形線
100
AcDbLine
 10
399.48792664595
 20
432.117622486063
 30
0.0
 11
399.48792664595
 21
465.503949991787
 31
0.0
  0
ARC
  5
2E3D
330
1A
100
AcDbEntity
  8
外形線
100
AcDbCircle
 10
397.414369862366
 20
442.968382155947
 30
0.0
 40
2.073556783584
100
AcDbArc
 50
0.0
 51
90.0
  0
LINE
  5
2E3E
330
1A
100
AcDbEntity
  8
外形線
100
AcDbLine
 10
399.48792664595
 20
465.503949991787
 30
0.0
 11
426.92941591772
 21
465.503949991787
 31
0.0
  0
LINE
  5
2E3F
330
1A
100
AcDbEntity
  8
外形線
100
AcDbLine
 10
400.192668630568
 20
431.080844094271
 30
0.0
 11
434.451148254166
 21
431.080844094271
 31
0.0
  0
ARC
  5
2E40
330
1A
100
AcDbEntity
  8
外形線
100
AcDbCircle
 10
434.451148254166
 20
432.117622486063
 30
0.0
 40
1.036778391792
100
AcDbArc
 50
270.0
 51
0.0
  0
LINE
  5
2E42
330
1A
100
AcDbEntity
  8
外形線
100
AcDbLine
 10
435.487926645958
 20
432.117622486063
 30
0.0
 11
435.487926645958
 21
541.541794804553
 31
0.0
  0
LINE
  5
2E43
330
1A
100
AcDbEntity
  8
外形線
100
AcDbLine
 10
430.304034686998
 20
461.340837906657
 30
0.0
 11
430.304034686998
 21
539.909328413165
 31
0.0
  0
LINE
  5
2E44
330
1A
100
AcDbEntity
  8
外形線
100
AcDbLine
 10
388.48792664595
 20
537.187727547439
 30
0.0
 11
388.48792664595
 21
447.242983984697
 31
0.0
  0
LINE
  5
2E46
330
1A
100
AcDbEntity
  8
外形線
100
AcDbLine
 10
441.086529961634
 20
442.449992960051
 30
0.0
 11
441.086529961634
 21
492.215355766069
 31
0.0
  0
LINE
  5
2E47
330
1A
100
AcDbEntity
  8
外形線
100
AcDbLine
 10
468.664835183302
 20
473.254827687141
 30
0.0
 11
468.664835183302
 21
485.994685415317
 31
0.0
  0
LINE
  5
2E48
330
1A
100
AcDbEntity
  8
外形線
100
AcDbLine
 10
384.909302014824
 20
448.669338588853
 30
0.0
 11
384.909302014824
 21
447.438095555979
 31
0.0
  0
ARC
  5
2E49
330
1A
100
AcDbEntity
  8
外形線
100
AcDbCircle
 10
381.798966839448
 20
448.669338588853
 30
0.0
 40
3.110335175376
100
AcDbArc
 50
0.0
 51
54.999999999999
  0
LINE
  5
2E4A
330
1A
100
AcDbEntity
  8
外形線
100
AcDbLine
 10
367.54835847632
 20
525.080844094271
 30
0.0
 11
367.54835847632
 21
459.580844094271
 31
0.0
  0
ARC
  5
2E4B
330
1A
100
AcDbEntity
  8
外形線
100
AcDbCircle
 10
387.451148254158
 20
447.242983984697
 30
0.0
 40
1.036778391792
100
AcDbArc
 50
0.0
 51
54.999999999999
  0
ARC
  5
2E4C
330
1A
100
AcDbEntity
  8
外形線
100
AcDbCircle
 10
389.524705037742
 20
446.078717331323
 30
0.0
 40
1.036778391792
100
AcDbArc
 50
180.0
 51
270.0
  0
ARC
  5
2E4D
330
1A
100
AcDbEntity
  8
外形線
100
AcDbCircle
 10
387.451148254158
 20
537.187727547439
 30
0.0
 40
1.036778391792
100
AcDbArc
 50
305.000000000002
 51
0.0
  0
ARC
  5
2E4E
330
1A
100
AcDbEntity
  8
外形線
100
AcDbCircle
 10
389.524705037742
 20
538.351994200811
 30
0.0
 40
1.036778391792
100
AcDbArc
 50
90.0
 51
180.0
  0
LINE
  5
2FA3
330
1A
100
AcDbEntity
  8
下書線
100
AcDbLine
 10
-75.985313170463
 20
586.306644406272
 30
0.0
 11
502.075085732968
 21
586.306644406272
 31
0.0
  0
DIMENSION
  5
3002
330
1A
100
AcDbEntity
  8
寸法線
 48
10.0
100
AcDbDimension
  2
*D6
 10
488.058988652513
 20
403.330844094271
 30
0.0
 11
488.058988652513
 21
455.938551776286
 31
0.0
 70
   160
  1
89
  3
ISO-25
100
AcDbAlignedDimension
 13
468.664081678798
 23
492.330844094271
 33
0.0
 14
426.09151964431
 24
403.330844094271
 34
0.0
 50
90.0
100
AcDbRotatedDimension
1001
ACAD
1000
DSTYLE
1002
{
1070
     5
1000
OPEN30
1070
    41
1040
6.0
1070
    47
1040
0.1
1070
    48
1040
0.1
1070
    73
1070
     0
1070
   140
1040
8.0
1070
   271
1070
     1
1070
   272
1070
     1
1070
   341
1005
2AF4
1002
}
  0
DIMENSION
  5
300F
330
1A
100
AcDbEntity
  8
寸法線
 48
10.0
100
AcDbDimension
  2
*D7
 10
509.742022482611
 20
542.499107767979
 30
0.0
 11
505.117022482611
 21
492.215355766067
 31
0.0
 70
    32
  1
φ100
  3
ISO-25
100
AcDbAlignedDimension
 13
440.947627995228
 23
441.931603764155
 33
0.0
 14
440.947627995228
 24
542.499107767979
 34
0.0
 50
90.0
100
AcDbRotatedDimension
1001
ACAD
1000
DSTYLE
1002
{
1070
     5
1000
OPEN30
1070
    41
1040
6.0
1070
    47
1040
0.1
1070
    48
1040
0.1
1070
    73
1070
     0
1070
   140
1040
8.0
1070
   271
1070
     1
1070
   272
1070
     1
1070
   341
1005
2AF4
1002
}
  0
LINE
  5
3042
330
1A
100
AcDbEntity
  8
中心線
 48
10.0
100
AcDbLine
 10
417.487926645954
 20
437.173416094271
 30
0.0
 11
417.487926645954
 21
399.773416094271
 31
0.0
  0
LINE
  5
3081
330
1A
100
AcDbEntity
  8
中心線
 48
10.0
100
AcDbLine
 10
-23.873487307342
 20
492.330844094271
 30
0.0
 11
468.664081678798
 21
492.330844094271
 31
0.0
  0
DIMENSION
  5
3082
330
1A
100
AcDbEntity
  8
寸法線
 48
10.0
100
AcDbDimension
  2
*D8
 10
-34.886925458449
 20
482.314037371582
 30
0.0
 11
-40.740068247388
 21
490.701202102181
 31
0.0
 70
   160
  1
φ<>
  3
ISO-25
100
AcDbAlignedDimension
 13
-17.16200476569
 23
502.314037371582
 33
0.0
 14
-17.16200476569
 24
482.314037371582
 34
0.0
 50
90.0
100
AcDbRotatedDimension
1001
ACAD
1000
DSTYLE
1002
{
1070
   287
1070
     5
1070
     5
1000
OPEN30
1070
    41
1040
6.0
1070
    47
1040
0.1
1070
    48
1040
0.1
1070
    73
1070
     0
1070
   140
1040
8.0
1070
   271
1070
     1
1070
   272
1070
     1
1070
   279
1070
     2
1070
   341
1005
2AF4
1002
}
  0
DIMENSION
  5
3099
330
1A
100
AcDbEntity
  8
寸法線
 48
10.0
100
AcDbDimension
  2
*D9
 10
115.83799523431
 20
443.564258954871
 30
0.0
 11
49.33799523431
 21
443.564258954871
 31
0.0
 70
   160
  3
ISO-25
100
AcDbAlignedDimension
 13
-17.16200476569
 23
482.498445549273
 33
0.0
 14
115.83799523431
 24
472.016932944231
 34
0.0
100
AcDbRotatedDimension
1001
ACAD
1000
DSTYLE
1002
{
1070
     5
1000
OPEN30
1070
    41
1040
6.0
1070
    47
1040
0.1
1070
    48
1040
0.1
1070
    73
1070
     0
1070
   140
1040
8.0
1070
   271
1070
     1
1070
   272
1070
     1
1070
   341
1005
2AF4
1002
}
  0
DIMENSION
  5
30D2
330
1A
100
AcDbEntity
  8
寸法線
 48
10.0
100
AcDbDimension
  2
*D10
 10
353.16477518331
 20
375.204461481477
 30
0.0
 11
409.121722880231
 21
375.204461481477
 31
0.0
 70
   160
  1
120
  3
ISO-25
100
AcDbAlignedDimension
 13
468.664835183302
 23
447.798173370621
 33
0.0
 14
353.16477518331
 24
464.830844094271
 34
0.0
100
AcDbRotatedDimension
1001
ACAD
1000
DSTYLE
1002
{
1070
     5
1000
OPEN30
1070
    41
1040
6.0
1070
    47
1040
0.1
1070
    48
1040
0.1
1070
    73
1070
     0
1070
   140
1040
8.0
1070
   271
1070
     1
1070
   272
1070
     1
1070
   341
1005
2AF4
1002
}
  0
MTEXT
  5
30E8
330
1A
100
AcDbEntity
  8
寸法線
 48
10.0
100
AcDbMText
 10
483.00214091433
 20
397.106298878514
 30
0.0
 40
8.0
 41
60.129060420842
 71
     1
 72
     5
  1
コードロック\P2×M20
  0
LEADER
  5
30EA
330
1A
100
AcDbEntity
  8
寸法線
 48
10.0
100
AcDbLeader
  3
ISO-25
 76
     3
 10
432.867693360511
 20
414.684523394212
 30
0.0
 10
480.906978781065
 20
375.204461481477
 30
0.0
 10
492.278706080968
 20
375.204461481477
 30
0.0
1001
ACAD
1000
DSTYLE
1002
{
1070
     5
1000
OPEN30
1070
   147
1040
0.625
1070
    77
1070
     0
1070
    41
1040
6.0
1070
    47
1040
0.1
1070
    48
1040
0.1
1070
    73
1070
     0
1070
   140
1040
5.0
1070
   271
1070
     1
1070
   272
1070
     1
1070
   341
1005
2AF4
1070
   342
1005
2AF4
1002
}
  0
LEADER
  5
30EC
330
1A
100
AcDbEntity
  8
寸法線
 48
10.0
100
AcDbLeader
  3
ISO-25
 76
     3
 10
410.221075748836
 20
444.616075169198
 30
0.0
 10
389.801567120775
 20
413.001341867114
 30
0.0
 10
381.267240395723
 20
413.001341867114
 30
0.0
1001
ACAD
1000
DSTYLE
1002
{
1070
     5
1000
OPEN30
1070
   147
1040
0.625
1070
    77
1070
     0
1070
    41
1040
6.0
1070
    47
1040
0.1
1070
    48
1040
0.1
1070
    73
1070
     0
1070
   140
1040
5.0
1070
   271
1070
     1
1070
   272
1070
     1
1070
   341
1005
2AF4
1070
   342
1005
2AF4
1002
}
  0
MTEXT
  5
30ED
330
1A
100
AcDbEntity
  8
寸法線
 48
10.0
100
AcDbMText
 10
388.470051583526
 20
434.723844377492
 30
0.0
 40
8.0
 41
42.299427293917
 71
     3
 72
     5
  1
2×NPT\P 1/2"
  0
MTEXT
  5
30F0
330
1A
100
AcDbEntity
  8
寸法線
 48
10.0
100
AcDbMText
 10
439.541045880083
 20
595.353228667497
 30
0.0
 40
8.0
 41
49.592740337165
 71
     1
 72
     5
  1
アルミ鋳物
  0
MTEXT
  5
30F2
102
{ACAD_XDICTIONARY
360
501B
102
}
330
1A
100
AcDbEntity
  8
寸法線
 48
10.0
100
AcDbMText
 10
385.881854156307
 20
595.406049956404
 30
0.0
 40
8.0
 41
32.947694142829
 71
     1
 72
     5
  1
平径46
1001
ACADANNOTATIVE
1000
AnnotativeData
1002
{
1070
     1
1070
     0
1002
}
  0
MTEXT
  5
30F9
330
1A
100
AcDbEntity
  8
寸法線
 48
10.0
100
AcDbMText
 10
-46.344534784744
 20
610.498147382804
 30
0.0
 40
8.0
 41
230.650980392157
 71
     1
 72
     5
  1
振動部（検知部）\PDIN1.4571(SUS316相当)
  0
LEADER
  5
30FB
330
1A
100
AcDbEntity
  8
寸法線
 48
10.0
100
AcDbLeader
  3
ISO-25
 76
     3
 10
408.437054685199
 20
539.388772592603
 30
0.0
 10
438.094731100271
 20
586.306644406272
 30
0.0
 10
448.810430683956
 20
586.306644406272
 30
0.0
1001
ACAD
1000
DSTYLE
1002
{
1070
     5
1000
OPEN30
1070
   147
1040
0.625
1070
    77
1070
     0
1070
    41
1040
6.0
1070
    47
1040
0.1
1070
    48
1040
0.1
1070
    73
1070
     0
1070
   140
1040
5.0
1070
   271
1070
     1
1070
   272
1070
     1
1070
   341
1005
2AF4
1070
   342
1005
2AF4
1002
}
  0
LEADER
  5
30FC
330
1A
100
AcDbEntity
  8
寸法線
 48
10.0
100
AcDbLeader
  3
ISO-25
 76
     3
 10
360.356596829814
 20
518.888956476994
 30
0.0
 10
384.808238776839
 20
586.306644406272
 30
0.0
 10
396.736231283806
 20
586.306644406272
 30
0.0
1001
ACAD
1000
DSTYLE
1002
{
1070
     5
1000
OPEN30
1070
   147
1040
0.625
1070
    77
1070
     0
1070
    41
1040
6.0
1070
    47
1040
0.1
1070
    48
1040
0.1
1070
    73
1070
     0
1070
   140
1040
5.0
1070
   271
1070
     1
1070
   272
1070
     1
1070
   341
1005
2AF4
1070
   342
1005
2AF4
1002
}
  0
LEADER
  5
3104
330
1A
100
AcDbEntity
  8
寸法線
 48
10.0
100
AcDbLeader
  3
ISO-25
 76
     3
 10
60.492939977246
 20
502.521558430862
 30
0.0
 10
55.376079471603
 20
586.306644406272
 30
0.0
 10
43.575970551527
 20
586.306644406272
 30
0.0
1001
ACAD
1000
DSTYLE
1002
{
1070
     5
1000
OPEN30
1070
   147
1040
0.625
1070
    77
1070
     0
1070
    41
1040
6.0
1070
    47
1040
0.1
1070
    48
1040
0.1
1070
    73
1070
     0
1070
   140
1040
5.0
1070
   271
1070
     1
1070
   272
1070
     1
1070
   341
1005
2AF4
1070
   342
1005
2AF4
1002
}
  0
LINE
  5
347A
330
1A
100
AcDbEntity
  8
細線
100
AcDbLine
 10
342.587687846371
 20
469.98408879746
 30
0.0
 11
350.303626628943
 21
469.98408879746
 31
0.0
  0
LINE
  5
347B
330
1A
100
AcDbEntity
  8
外形線
100
AcDbLine
 10
350.169877200116
 20
468.371180228725
 30
0.0
 11
342.587687846371
 21
468.371180228725
 31
0.0
  0
LINE
  5
347C
330
1A
100
AcDbEntity
  8
外形線
100
AcDbLine
 10
303.071255453278
 20
470.425533672756
 30
0.0
 11
303.071255453278
 21
514.236154515786
 31
0.0
  0
LINE
  5
347D
330
1A
100
AcDbEntity
  8
外形線
100
AcDbLine
 10
332.16483518331
 20
470.425533672757
 30
0.0
 11
303.071255453278
 21
470.425533672756
 31
0.0
  0
LINE
  5
3482
330
1A
100
AcDbEntity
  8
外形線
100
AcDbLine
 10
350.169877200116
 20
516.290507959817
 30
0.0
 11
342.587687846371
 21
516.290507959818
 31
0.0
  0
LINE
  5
3486
330
1A
100
AcDbEntity
  8
外形線
100
AcDbLine
 10
328.247517687869
 20
514.236154515786
 30
0.0
 11
303.071255453278
 21
514.236154515786
 31
0.0
  0
LINE
  5
3487
330
1A
100
AcDbEntity
  8
細線
100
AcDbLine
 10
342.587687846371
 20
514.793028968221
 30
0.0
 11
350.303626628943
 21
514.793028968221
 31
0.0
  0
LINE
  5
35EF
330
1A
100
AcDbEntity
  8
外形線
100
AcDbLine
 10
353.16483518331
 20
466.374541573263
 30
0.0
 11
353.16483518331
 21
518.28714661528
 31
0.0
  0
DIMENSION
  5
369E
330
1A
100
AcDbEntity
  8
寸法線
 48
10.0
100
AcDbDimension
  2
*D12
 10
353.16477518331
 20
375.204461481477
 30
0.0
 11
159.508913351215
 21
375.204461481477
 31
0.0
 70
   160
  1
　
  3
ISO-25
100
AcDbAlignedDimension
 13
-17.16200476569
 23
443.564258954871
 33
0.0
 14
353.16477518331
 24
391.101401188505
 34
0.0
100
AcDbRotatedDimension
1001
ACAD
1000
DSTYLE
1002
{
1070
     5
1000
OPEN30
1070
    41
1040
6.0
1070
    47
1040
0.1
1070
    48
1040
0.1
1070
    73
1070
     0
1070
   140
1040
8.0
1070
   271
1070
     1
1070
   272
1070
     1
1070
   341
1005
2AF4
1002
}
  0
LINE
  5
3ED6
330
1A
100
AcDbEntity
  8
外形線
100
AcDbLine
 10
220.968791236869
 20
484.570149154702
 30
0.0
 11
229.568777041325
 21
484.570149154702
 31
0.0
  0
LINE
  5
3ED7
330
1A
100
AcDbEntity
  8
外形線
100
AcDbLine
 10
229.568777041325
 20
500.09153903384
 30
0.0
 11
229.568777041325
 21
484.570149154702
 31
0.0
  0
LINE
  5
3ED9
330
1A
100
AcDbEntity
  8
外形線
100
AcDbLine
 10
220.968791236869
 20
500.09153903384
 30
0.0
 11
229.568777041325
 21
500.09153903384
 31
0.0
  0
LINE
  5
3EDA
330
1A
100
AcDbEntity
  8
外形線
100
AcDbLine
 10
229.568777041325
 20
498.636408732671
 30
0.0
 11
243.149993185571
 21
498.636408732671
 31
0.0
  0
LINE
  5
3EDB
330
1A
100
AcDbEntity
  8
外形線
100
AcDbLine
 10
243.149993185571
 20
486.025279455871
 30
0.0
 11
229.568777041325
 21
486.025279455871
 31
0.0
  0
LINE
  5
3EDC
330
1A
100
AcDbEntity
  8
外形線
100
AcDbLine
 10
243.149993185571
 20
498.636408732671
 30
0.0
 11
243.149993185571
 21
486.025279455871
 31
0.0
  0
LINE
  5
3EE1
330
1A
100
AcDbEntity
  8
外形線
100
AcDbLine
 10
270.890053504577
 20
486.025279455871
 30
0.0
 11
284.471269648822
 21
486.025279455871
 31
0.0
  0
LINE
  5
3EE2
330
1A
100
AcDbEntity
  8
外形線
100
AcDbLine
 10
270.890053504577
 20
498.636408732671
 30
0.0
 11
270.890053504577
 21
486.025279455871
 31
0.0
  0
LINE
  5
3EE4
330
1A
100
AcDbEntity
  8
外形線
100
AcDbLine
 10
284.471269648822
 20
500.09153903384
 30
0.0
 11
284.471269648822
 21
484.570149154702
 31
0.0
  0
LINE
  5
3EE5
330
1A
100
AcDbEntity
  8
外形線
100
AcDbLine
 10
284.471269648822
 20
498.636408732671
 30
0.0
 11
270.890053504577
 21
498.636408732671
 31
0.0
  0
LINE
  5
3EE9
330
1A
100
AcDbEntity
  8
外形線
100
AcDbLine
 10
293.071255453278
 20
500.09153903384
 30
0.0
 11
284.471269648822
 21
500.09153903384
 31
0.0
  0
LINE
  5
3EEB
330
1A
100
AcDbEntity
  8
外形線
100
AcDbLine
 10
293.071255453278
 20
484.570149154702
 30
0.0
 11
284.471269648822
 21
484.570149154702
 31
0.0
  0
ARC
  5
3F24
330
1A
100
AcDbEntity
  8
外形線
100
AcDbCircle
 10
116.33799523431
 20
512.795549976624
 30
0.0
 40
0.5
100
AcDbArc
 50
90.0
 51
180.0
  0
LINE
  5
3F25
330
1A
100
AcDbEntity
  8
外形線
100
AcDbLine
 10
115.83799523431
 20
502.314037371582
 30
0.0
 11
-17.16200476569
 21
502.314037371582
 31
0.0
  0
LINE
  5
3F26
330
1A
100
AcDbEntity
  8
外形線
100
AcDbLine
 10
210.83799523431
 20
513.295549976624
 30
0.0
 11
116.33799523431
 21
513.295549976624
 31
0.0
  0
LINE
  5
3F27
330
1A
100
AcDbEntity
  8
外形線
100
AcDbLine
 10
115.83799523431
 20
512.795549976624
 30
0.0
 11
115.83799523431
 21
471.866138211918
 31
0.0
  0
ARC
  5
3F28
330
1A
100
AcDbEntity
  8
外形線
100
AcDbCircle
 10
116.33799523431
 20
471.866138211918
 30
0.0
 40
0.5
100
AcDbArc
 50
180.0
 51
270.0
  0
LINE
  5
3F29
330
1A
100
AcDbEntity
  8
外形線
100
AcDbLine
 10
210.83799523431
 20
471.366138211918
 30
0.0
 11
116.33799523431
 21
471.366138211918
 31
0.0
  0
LINE
  5
3F2A
330
1A
100
AcDbEntity
  8
外形線
100
AcDbLine
 10
115.83799523431
 20
482.34765081696
 30
0.0
 11
-17.16200476569
 21
482.34765081696
 31
0.0
  0
LINE
  5
3F2B
330
1A
100
AcDbEntity
  8
外形線
100
AcDbLine
 10
-17.16200476569
 20
482.34765081696
 30
0.0
 11
-17.16200476569
 21
502.314037371582
 31
0.0
  0
LINE
  5
3F2D
330
1A
100
AcDbEntity
  8
外形線
 48
10.0
100
AcDbLine
 10
210.83799523431
 20
471.366138211918
 30
0.0
 11
210.83799523431
 21
513.295549976624
 31
0.0
  0
LINE
  5
3F30
330
1A
100
AcDbEntity
  8
外形線
 48
10.0
100
AcDbLine
 10
210.83799523431
 20
513.295549976624
 30
0.0
 11
220.83799523431
 21
504.330844094271
 31
0.0
  0
LINE
  5
3F31
330
1A
100
AcDbEntity
  8
外形線
 48
10.0
100
AcDbLine
 10
220.83799523431
 20
504.330844094271
 30
0.0
 11
220.83799523431
 21
480.330844094271
 31
0.0
  0
LINE
  5
3F32
330
1A
100
AcDbEntity
  8
外形線
 48
10.0
100
AcDbLine
 10
220.83799523431
 20
480.330844094271
 30
0.0
 11
210.83799523431
 21
471.366138211918
 31
0.0
  0
ARC
  5
3F96
330
1A
100
AcDbEntity
  8
細線
100
AcDbCircle
 10
250.098597341405
 20
495.043529010332
 30
0.0
 40
4.69454886737746
100
AcDbArc
 50
324.701434699944
 51
32.012398236748
  0
ARC
  5
3F97
330
1A
100
AcDbEntity
  8
細線
100
AcDbCircle
 10
254.635914401882
 20
494.830915459884
 30
0.0
 40
4.366980026728
100
AcDbArc
 50
325.075652251193
 51
38.210514812107
  0
ARC
  5
3F98
330
1A
100
AcDbEntity
  8
細線
100
AcDbCircle
 10
260.29029307447
 20
494.9931117719
 30
0.0
 40
3.37469097004054
100
AcDbArc
 50
131.204052888542
 51
232.082114174772
  0
ARC
  5
3F99
330
1A
100
AcDbEntity
  8
細線
100
AcDbCircle
 10
257.510587850879
 20
489.830772728628
 30
0.0
 40
4.366980026728
100
AcDbArc
 50
145.075652251192
 51
218.210514812107
  0
ARC
  5
3F9A
330
1A
100
AcDbEntity
  8
細線
100
AcDbCircle
 10
251.856209178291
 20
489.668576416612
 30
0.0
 40
3.37469097004054
100
AcDbArc
 50
311.204052888543
 51
52.082114174772
  0
ARC
  5
3F9B
330
1A
100
AcDbEntity
  8
細線
100
AcDbCircle
 10
262.047904911356
 20
489.61815917818
 30
0.0
 40
4.69454886737746
100
AcDbArc
 50
144.701434699944
 51
212.012398236748
  0
LINE
  5
3FBB
330
1A
100
AcDbEntity
  8
外形線
 48
10.0
100
AcDbLine
 10
258.067240095701
 20
497.532122326596
 30
0.0
 11
270.890053504577
 21
497.532122326596
 31
0.0
  0
LINE
  5
3FBC
330
1A
100
AcDbEntity
  8
外形線
 48
10.0
100
AcDbLine
 10
258.067240095701
 20
487.129565861946
 30
0.0
 11
270.890053504577
 21
487.129565861946
 31
0.0
  0
LINE
  5
3FBD
330
1A
100
AcDbEntity
  8
外形線
 48
10.0
100
AcDbLine
 10
254.07926215706
 20
497.532122326566
 30
0.0
 11
243.149993185571
 21
497.532122326566
 31
0.0
  0
LINE
  5
3FBE
330
1A
100
AcDbEntity
  8
外形線
 48
10.0
100
AcDbLine
 10
254.07926215706
 20
487.129565861915
 30
0.0
 11
243.149993185571
 21
487.129565861915
 31
0.0
  0
LINE
  5
3FC0
330
1A
100
AcDbEntity
  8
外形線
 48
10.0
100
AcDbLine
 10
293.071255453278
 20
504.264396203159
 30
0.0
 11
303.071255453278
 21
514.236154515786
 31
0.0
  0
LINE
  5
3FC1
330
1A
100
AcDbEntity
  8
外形線
 48
10.0
100
AcDbLine
 10
293.071255453278
 20
480.264396203159
 30
0.0
 11
293.071255453278
 21
504.264396203159
 31
0.0
  0
LINE
  5
3FC4
330
1A
100
AcDbEntity
  8
外形線
 48
10.0
100
AcDbLine
 10
303.071255453278
 20
470.425533672756
 30
0.0
 11
293.071255453278
 21
480.264396203159
 31
0.0
  0
LEADER
  5
421F
330
1A
100
AcDbEntity
  8
寸法線
 48
10.0
100
AcDbLeader
  3
ISO-25
 76
     3
 10
352.16482018331
 20
519.830844094271
 30
0.0
 10
367.73409498166
 20
586.306644406272
 30
0.0
 10
356.791680736225
 20
586.306644406272
 30
0.0
1001
ACAD
1000
DSTYLE
1002
{
1070
     5
1000
OPEN30
1070
   147
1040
0.625
1070
    77
1070
     0
1070
    41
1040
6.0
1070
    47
1040
0.1
1070
    48
1040
0.1
1070
    73
1070
     0
1070
   140
1040
5.0
1070
   271
1070
     1
1070
   272
1070
     1
1070
   341
1005
2AF4
1070
   342
1005
2AF4
1002
}
  0
MTEXT
  5
4220
330
1A
100
AcDbEntity
  8
寸法線
 48
10.0
100
AcDbMText
 10
322.741185301541
 20
595.474652275183
 30
0.0
 40
8.0
 41
49.592740337165
 71
     1
 72
     5
  1
ガスケット
  0
LINE
  5
4225
330
1A
100
AcDbEntity
  8
外形線
100
AcDbLine
 10
353.16483518331
 20
519.830844094271
 30
0.0
 11
353.16483518331
 21
464.830844094271
 31
0.0
  0
LINE
  5
4226
330
1A
100
AcDbEntity
  8
外形線
100
AcDbLine
 10
351.16483518331
 20
519.830844094271
 30
0.0
 11
353.16480518331
 21
519.830844094271
 31
0.0
  0
LINE
  5
4227
330
1A
100
AcDbEntity
  8
外形線
100
AcDbLine
 10
351.16483518331
 20
464.830844094271
 30
0.0
 11
353.16480518331
 21
464.830844094271
 31
0.0
  0
LINE
  5
4228
330
1A
100
AcDbEntity
  8
外形線
100
AcDbLine
 10
351.16483518331
 20
519.830844094271
 30
0.0
 11
351.16483518331
 21
464.830844094271
 31
0.0
  0
LINE
  5
4229
330
1A
100
AcDbEntity
  8
寸法線
100
AcDbLine
 10
20.139940856125
 20
338.909426476255
 30
0.0
 11
20.139940856125
 21
288.909426476255
 31
0.0
  0
LINE
  5
422A
330
1A
100
AcDbEntity
  8
寸法線
100
AcDbLine
 10
20.139940856125
 20
338.909426476255
 30
0.0
 11
-125.060059143875
 21
338.909426476255
 31
0.0
  0
LINE
  5
422B
330
1A
100
AcDbEntity
  8
寸法線
100
AcDbLine
 10
-125.060059143875
 20
338.909426476255
 30
0.0
 11
-125.060059143875
 21
288.909426476255
 31
0.0
  0
LINE
  5
422C
330
1A
100
AcDbEntity
  8
寸法線
100
AcDbLine
 10
-117.860059143875
 20
286.909426476255
 30
0.0
 11
-117.860059143875
 21
248.909426476255
 31
0.0
  0
LINE
  5
422D
330
1A
100
AcDbEntity
  8
寸法線
100
AcDbLine
 10
12.939940856125
 20
286.909426476255
 30
0.0
 11
12.939940856125
 21
248.909426476255
 31
0.0
  0
CIRCLE
  5
422E
330
1A
100
AcDbEntity
  8
寸法線
100
AcDbCircle
 10
-117.860059143875
 20
288.909426476255
 30
0.0
 40
2.0
  0
CIRCLE
  5
422F
330
1A
100
AcDbEntity
  8
寸法線
100
AcDbCircle
 10
-91.700059143875
 20
288.909426476255
 30
0.0
 40
2.0
  0
CIRCLE
  5
4230
330
1A
100
AcDbEntity
  8
寸法線
100
AcDbCircle
 10
-65.540059143875
 20
288.909426476255
 30
0.0
 40
2.0
  0
CIRCLE
  5
4231
330
1A
100
AcDbEntity
  8
寸法線
100
AcDbCircle
 10
-39.380059143875
 20
288.909426476255
 30
0.0
 40
2.0
  0
CIRCLE
  5
4232
330
1A
100
AcDbEntity
  8
寸法線
100
AcDbCircle
 10
-13.220059143875
 20
288.909426476255
 30
0.0
 40
2.0
  0
CIRCLE
  5
4233
330
1A
100
AcDbEntity
  8
寸法線
100
AcDbCircle
 10
12.939940856125
 20
288.909426476255
 30
0.0
 40
2.0
  0
LINE
  5
4234
330
1A
100
AcDbEntity
  8
寸法線
100
AcDbLine
 10
-91.700059143875
 20
286.909426476255
 30
0.0
 11
-91.700059143875
 21
248.909426476255
 31
0.0
  0
LINE
  5
4235
330
1A
100
AcDbEntity
  8
寸法線
100
AcDbLine
 10
-65.540059143875
 20
286.909426476255
 30
0.0
 11
-65.540059143875
 21
248.909426476255
 31
0.0
  0
LINE
  5
4236
330
1A
100
AcDbEntity
  8
寸法線
100
AcDbLine
 10
-39.380059143875
 20
286.909426476255
 30
0.0
 11
-39.380059143875
 21
248.909426476255
 31
0.0
  0
LINE
  5
4237
330
1A
100
AcDbEntity
  8
寸法線
100
AcDbLine
 10
-13.220059143875
 20
286.909426476255
 30
0.0
 11
-13.220059143875
 21
248.909426476255
 31
0.0
  0
LINE
  5
4238
330
1A
100
AcDbEntity
  8
寸法線
100
AcDbLine
 10
-119.860059143875
 20
288.909426476255
 30
0.0
 11
-125.060059143875
 21
288.909426476255
 31
0.0
  0
LINE
  5
4239
330
1A
100
AcDbEntity
  8
寸法線
100
AcDbLine
 10
-115.860059143875
 20
288.909426476255
 30
0.0
 11
-93.700059143875
 21
288.909426476255
 31
0.0
  0
LINE
  5
423A
330
1A
100
AcDbEntity
  8
寸法線
100
AcDbLine
 10
-89.700059143875
 20
288.909426476255
 30
0.0
 11
-67.540059143875
 21
288.909426476255
 31
0.0
  0
LINE
  5
423B
330
1A
100
AcDbEntity
  8
寸法線
100
AcDbLine
 10
-63.540059143875
 20
288.909426476255
 30
0.0
 11
-41.380059143875
 21
288.909426476255
 31
0.0
  0
LINE
  5
423C
330
1A
100
AcDbEntity
  8
寸法線
100
AcDbLine
 10
-37.380059143875
 20
288.909426476255
 30
0.0
 11
-15.220059143875
 21
288.909426476255
 31
0.0
  0
LINE
  5
423D
330
1A
100
AcDbEntity
  8
寸法線
100
AcDbLine
 10
-11.220059143875
 20
288.909426476255
 30
0.0
 11
10.939940856125
 21
288.909426476255
 31
0.0
  0
LINE
  5
423E
330
1A
100
AcDbEntity
  8
寸法線
100
AcDbLine
 10
20.139940856125
 20
288.909426476255
 30
0.0
 11
14.939940856125
 21
288.909426476255
 31
0.0
  0
CIRCLE
  5
423F
330
1A
100
AcDbEntity
  8
寸法線
100
AcDbCircle
 10
-118.060059143875
 20
297.909426476255
 30
0.0
 40
5.0
  0
CIRCLE
  5
4240
330
1A
100
AcDbEntity
  8
寸法線
100
AcDbCircle
 10
-91.660059143875
 20
297.909426476255
 30
0.0
 40
5.0
  0
CIRCLE
  5
4241
330
1A
100
AcDbEntity
  8
寸法線
100
AcDbCircle
 10
-65.460059143875
 20
297.909426476255
 30
0.0
 40
5.0
  0
CIRCLE
  5
4242
330
1A
100
AcDbEntity
  8
寸法線
100
AcDbCircle
 10
-39.260059143875
 20
297.909426476255
 30
0.0
 40
5.0
  0
CIRCLE
  5
4243
330
1A
100
AcDbEntity
  8
寸法線
100
AcDbCircle
 10
-13.060059143875
 20
297.909426476255
 30
0.0
 40
5.0
  0
CIRCLE
  5
4244
330
1A
100
AcDbEntity
  8
寸法線
100
AcDbCircle
 10
13.139940856125
 20
297.909426476255
 30
0.0
 40
5.0
  0
LINE
  5
4245
330
1A
100
AcDbEntity
  8
寸法線
100
AcDbLine
 10
-127.060059143875
 20
286.909426476255
 30
0.0
 11
-127.060059143875
 21
340.909426476255
 31
0.0
  0
LINE
  5
4246
330
1A
100
AcDbEntity
  8
寸法線
100
AcDbLine
 10
-127.060059143875
 20
340.909426476255
 30
0.0
 11
22.139940856125
 21
340.909426476255
 31
0.0
  0
LINE
  5
4247
330
1A
100
AcDbEntity
  8
寸法線
100
AcDbLine
 10
22.139940856125
 20
286.909426476255
 30
0.0
 11
22.139940856125
 21
340.909426476255
 31
0.0
  0
LINE
  5
4248
330
1A
100
AcDbEntity
  8
寸法線
100
AcDbLine
 10
-127.060059143875
 20
286.909426476255
 30
0.0
 11
22.139940856125
 21
286.909426476255
 31
0.0
  0
LINE
  5
4249
330
1A
100
AcDbEntity
  8
寸法線
100
AcDbLine
 10
12.939940856125
 20
303.709426476255
 30
0.0
 11
12.939940856125
 21
332.109426476255
 31
0.0
  0
LINE
  5
424A
330
1A
100
AcDbEntity
  8
寸法線
100
AcDbLine
 10
-13.220059143875
 20
303.909426476255
 30
0.0
 11
-13.220059143875
 21
313.309426476255
 31
0.0
  0
LINE
  5
424B
330
1A
100
AcDbEntity
  8
寸法線
100
AcDbLine
 10
-39.380059143875
 20
303.909426476255
 30
0.0
 11
-39.380059143875
 21
332.109426476255
 31
0.0
  0
CIRCLE
  5
424C
330
1A
100
AcDbEntity
  8
寸法線
100
AcDbCircle
 10
-13.220059143875
 20
315.309426476255
 30
0.0
 40
2.0
  0
LINE
  5
424D
330
1A
100
AcDbEntity
  8
寸法線
100
AcDbLine
 10
-22.150711557734
 20
332.109426476255
 30
0.0
 11
-39.380059143875
 21
332.109426476255
 31
0.0
  0
LINE
  5
424E
330
1A
100
AcDbEntity
  8
寸法線
100
AcDbLine
 10
-13.379549588441
 20
317.303057033327
 30
0.0
 11
0.980006732207
 21
333.509426476255
 31
0.0
  0
LINE
  5
424F
330
1A
100
AcDbEntity
  8
寸法線
100
AcDbLine
 10
-0.180059143875
 20
332.109426476255
 30
0.0
 11
12.939940856125
 21
332.109426476255
 31
0.0
  0
POINT
  5
4250
330
1A
100
AcDbEntity
  8
寸法線
100
AcDbPoint
 10
-52.460059143875
 20
288.909426476255
 30
0.0
  0
LINE
  5
4251
330
1A
100
AcDbEntity
  8
寸法線
100
AcDbLine
 10
-52.460059143875
 20
280.489426476255
 30
0.0
 11
-52.460059143875
 21
276.949426476255
 31
0.0
  0
CIRCLE
  5
4252
330
1A
100
AcDbEntity
  8
寸法線
100
AcDbCircle
 10
-52.460059143875
 20
275.489426476255
 30
0.0
 40
5.0
  0
LINE
  5
4253
330
1A
100
AcDbEntity
  8
寸法線
100
AcDbLine
 10
-56.120059143875
 20
276.949426476255
 30
0.0
 11
-48.600059143875
 21
276.949426476255
 31
0.0
  0
LINE
  5
4254
330
1A
100
AcDbEntity
  8
寸法線
100
AcDbLine
 10
-54.580059143875
 20
275.149426476255
 30
0.0
 11
-50.160059143875
 21
275.149426476255
 31
0.0
  0
LINE
  5
4255
330
1A
100
AcDbEntity
  8
寸法線
100
AcDbLine
 10
-53.360059143875
 20
273.409426476255
 30
0.0
 11
-51.280059143875
 21
273.409426476255
 31
0.0
  0
LINE
  5
4256
330
1A
100
AcDbEntity
  8
寸法線
100
AcDbLine
 10
-56.860059143875
 20
297.709426476255
 30
0.0
 11
-48.060059143875
 21
297.709426476255
 31
0.0
  0
POINT
  5
4257
330
1A
100
AcDbEntity
  8
寸法線
100
AcDbPoint
 10
-52.460059143875
 20
293.309426476255
 30
0.0
  0
CIRCLE
  5
4258
330
1A
100
AcDbEntity
  8
寸法線
100
AcDbCircle
 10
-52.460059143875
 20
293.309426476255
 30
0.0
 40
4.40000000000004
  0
LINE
  5
4259
330
1A
100
AcDbEntity
  8
寸法線
100
AcDbLine
 10
-56.860059143875
 20
288.909426476255
 30
0.0
 11
-56.860059143875
 21
297.709426476255
 31
0.0
  0
LINE
  5
425A
330
1A
100
AcDbEntity
  8
寸法線
100
AcDbLine
 10
-48.060059143875
 20
288.909426476255
 30
0.0
 11
-48.060059143875
 21
297.709426476255
 31
0.0
  0
LINE
  5
425B
330
1A
100
AcDbEntity
  8
寸法線
100
AcDbLine
 10
-50.460059143875
 20
293.309426476255
 30
0.0
 11
-54.460059143875
 21
293.309426476255
 31
0.0
  0
LINE
  5
425C
330
1A
100
AcDbEntity
  8
寸法線
100
AcDbLine
 10
-52.460059143875
 20
291.309426476255
 30
0.0
 11
-52.460059143875
 21
295.309426476255
 31
0.0
  0
LINE
  5
425D
330
1A
100
AcDbEntity
  8
寸法線
100
AcDbLine
 10
-52.460059143875
 20
288.909426476255
 30
0.0
 11
-52.460059143875
 21
280.489426476255
 31
0.0
  0
MTEXT
  5
425E
330
1A
100
AcDbEntity
  8
寸法線
 48
10.0
100
AcDbMText
 10
-122.476838193163
 20
335.780860921278
 30
0.0
 40
8.0
 41
95.557777777778
 71
     1
 72
     5
  1
{\C1;RKK-5□□}
  0
MTEXT
  5
425F
330
1A
100
AcDbEntity
  8
寸法線
 48
10.0
100
AcDbMText
 10
-119.259692030967
 20
301.115988164917
 30
0.0
 40
7.0
 41
95.557777777778
 71
     1
 72
     5
  1
{\C1;1}
  0
MTEXT
  5
4260
330
1A
100
AcDbEntity
  8
寸法線
 48
10.0
100
AcDbMText
 10
-93.239971238943
 20
301.115988164917
 30
0.0
 40
7.0
 41
95.557777777778
 71
     1
 72
     5
  1
{\C1;2}
  0
MTEXT
  5
4261
330
1A
100
AcDbEntity
  8
寸法線
 48
10.0
100
AcDbMText
 10
-66.816883053069
 20
301.115988164917
 30
0.0
 40
7.0
 41
95.557777777778
 71
     1
 72
     5
  1
{\C1;3}
  0
MTEXT
  5
4262
330
1A
100
AcDbEntity
  8
寸法線
 48
10.0
100
AcDbMText
 10
-40.832071982102
 20
301.115988164917
 30
0.0
 40
7.0
 41
95.557777777778
 71
     1
 72
     5
  1
{\C1;4}
  0
MTEXT
  5
4263
330
1A
100
AcDbEntity
  8
寸法線
 48
10.0
100
AcDbMText
 10
-14.249736383281
 20
301.115988164917
 30
0.0
 40
7.0
 41
95.557777777778
 71
     1
 72
     5
  1
{\C1;5}
  0
MTEXT
  5
4264
330
1A
100
AcDbEntity
  8
寸法線
 48
10.0
100
AcDbMText
 10
11.35106587677
 20
301.115988164917
 30
0.0
 40
7.0
 41
95.557777777778
 71
     1
 72
     5
  1
{\C1;6}
  0
MTEXT
  5
4265
330
1A
100
AcDbEntity
  8
寸法線
 48
10.0
100
AcDbMText
 10
-121.847294294757
 20
246.263690544708
 30
0.0
 40
8.0
 41
95.557777777778
 71
     1
 72
     5
  1
{\C1;PE}
  0
MTEXT
  5
4266
330
1A
100
AcDbEntity
  8
寸法線
 48
10.0
100
AcDbMText
 10
-94.086453044321
 20
246.263690544708
 30
0.0
 40
8.0
 41
95.557777777778
 71
     1
 72
     5
  1
{\C1;N}
  0
MTEXT
  5
4267
330
1A
100
AcDbEntity
  8
寸法線
 48
10.0
100
AcDbMText
 10
-68.192776340975
 20
246.263690544708
 30
0.0
 40
8.0
 41
95.557777777778
 71
     1
 72
     5
  1
{\C1;L1}
  0
MTEXT
  5
4268
330
1A
100
AcDbEntity
  8
寸法線
 48
10.0
100
AcDbMText
 10
-43.929997763479
 20
246.263690544708
 30
0.0
 40
8.0
 41
95.557777777778
 71
     1
 72
     5
  1
{\C1;NO}
  0
MTEXT
  5
4269
330
1A
100
AcDbEntity
  8
寸法線
 48
10.0
100
AcDbMText
 10
-15.431023386487
 20
246.263690544708
 30
0.0
 40
8.0
 41
95.557777777778
 71
     1
 72
     5
  1
{\C1;C}
  0
MTEXT
  5
426A
330
1A
100
AcDbEntity
  8
寸法線
 48
10.0
100
AcDbMText
 10
7.186677809918
 20
246.263690544708
 30
0.0
 40
8.0
 41
95.557777777778
 71
     1
 72
     5
  1
{\C1;NC}
  0
LEADER
  5
4281
330
1A
100
AcDbEntity
  8
寸法線
 48
10.0
100
AcDbLeader
  3
ISO-25
 76
     3
 10
342.178922197827
 20
516.290507959817
 30
0.0
 10
295.53894277083
 20
586.306644406272
 30
0.0
 10
283.562341727932
 20
586.306644406272
 30
0.0
1001
ACAD
1000
DSTYLE
1002
{
1070
     5
1000
OPEN30
1070
   147
1040
0.625
1070
    77
1070
     0
1070
    41
1040
6.0
1070
    47
1040
0.1
1070
    48
1040
0.1
1070
    73
1070
     0
1070
   140
1040
5.0
1070
   271
1070
     1
1070
   272
1070
     1
1070
   341
1005
2AF4
1070
   342
1005
2AF4
1002
}
  0
MTEXT
  5
4282
330
1A
100
AcDbEntity
  8
寸法線
 48
10.0
100
AcDbMText
 10
295.24175003135
 20
612.190293619233
 30
0.0
 40
8.0
 41
39.44464816509
 71
     3
 72
     5
  1
\A1;取付ねじ\PG1 {\H0.7x;\S1#2;}"
  0
LINE
  5
4286
330
1A
100
AcDbEntity
  8
外形線
100
AcDbLine
 10
353.16483518331
 20
466.374541573262
 30
0.0
 11
353.16483518331
 21
518.28714661528
 31
0.0
  0
LINE
  5
4435
330
1A
100
AcDbEntity
  8
外形線
100
AcDbLine
 10
334.094343312265
 20
516.290507959817
 30
0.0
 11
334.094343312265
 21
468.371180228725
 31
0.0
  0
LINE
  5
4436
330
1A
100
AcDbEntity
  8
外形線
100
AcDbLine
 10
332.16483518331
 20
470.316030999196
 30
0.0
 11
334.094343312265
 21
468.371180228725
 31
0.0
  0
LINE
  5
4439
330
1A
100
AcDbEntity
  8
外形線
100
AcDbLine
 10
332.16483518331
 20
470.316030999196
 30
0.0
 11
332.16483518331
 21
514.345657189346
 31
0.0
  0
LINE
  5
443A
330
1A
100
AcDbEntity
  8
外形線
100
AcDbLine
 10
351.16483518331
 20
468.371180228725
 30
0.0
 11
334.094343312265
 21
468.371180228725
 31
0.0
  0
LINE
  5
443D
330
1A
100
AcDbEntity
  8
外形線
100
AcDbLine
 10
351.16483518331
 20
516.290507959817
 30
0.0
 11
334.094343312265
 21
516.290507959818
 31
0.0
  0
LINE
  5
443E
330
1A
100
AcDbEntity
  8
外形線
100
AcDbLine
 10
332.16483518331
 20
514.345657189346
 30
0.0
 11
334.094343312265
 21
516.290507959817
 31
0.0
  0
LINE
  5
4440
330
1A
100
AcDbEntity
  8
外形線
100
AcDbLine
 10
332.16483518331
 20
514.236154515786
 30
0.0
 11
324.949674586127
 21
514.236154515786
 31
0.0
  0
LINE
  5
4441
330
1A
100
AcDbEntity
  8
細線
100
AcDbLine
 10
334.094343312265
 20
514.793028968221
 30
0.0
 11
351.16483518331
 21
514.793028968221
 31
0.0
  0
LINE
  5
4445
330
1A
100
AcDbEntity
  8
細線
100
AcDbLine
 10
334.094343312265
 20
469.98408879746
 30
0.0
 11
351.16483518331
 21
469.98408879746
 31
0.0
  0
DIMENSION
  5
4449
330
1A
100
AcDbEntity
  8
寸法線
 48
10.0
100
AcDbDimension
  2
*D13
 10
353.16480518331
 20
443.564258954871
 30
0.0
 11
342.66482018331
 21
448.193425621537
 31
0.0
 70
    32
  3
ISO-25
100
AcDbAlignedDimension
 13
332.16483518331
 23
470.425533672757
 33
0.0
 14
353.16480518331
 24
464.830844094271
 34
0.0
100
AcDbRotatedDimension
1001
ACAD
1000
DSTYLE
1002
{
1070
     5
1000
OPEN30
1070
    41
1040
6.0
1070
    47
1040
0.1
1070
    48
1040
0.1
1070
    73
1070
     0
1070
   140
1040
8.0
1070
   271
1070
     1
1070
   272
1070
     1
1070
   341
1005
2AF4
1002
}
  0
MTEXT
  5
461C
330
1A
100
AcDbEntity
  8
寸法線
 48
10.0
100
AcDbMText
 10
3.020316246542
 20
234.352209383331
 30
0.0
 40
8.0
 41
95.557777777778
 71
     1
 72
     5
  1
{\C1;（NO）}
  0
MTEXT
  5
461D
330
1A
100
AcDbEntity
  8
寸法線
 48
10.0
100
AcDbMText
 10
-48.029262978293
 20
234.352209383331
 30
0.0
 40
8.0
 41
95.557777777778
 71
     1
 72
     5
  1
{\C1;（NC）}
  0
MTEXT
  5
461E
330
1A
100
AcDbEntity
  8
寸法線
 48
10.0
100
AcDbMText
 10
53.804196237994
 20
293.966037403674
 30
0.0
 40
7.0
 41
125.633939393939
 71
     1
 72
     5
  1
{\C1;：グランド\P：電源\P：電源\P：コモン\P：オープン（クローズ）\P：クローズ（オープン）}
  0
MTEXT
  5
461F
330
1A
100
AcDbEntity
  8
寸法線
 48
10.0
100
AcDbMText
 10
41.914003438258
 20
293.966037403674
 30
0.0
 40
7.0
 41
125.633939393939
 71
     1
 72
     5
  1
{\C1;PE\PN\PL1\PC\PNO\PNC}
  0
MTEXT
  5
4620
102
{ACAD_XDICTIONARY
360
4621
102
}
330
1A
100
AcDbEntity
  8
寸法線
 48
10.0
100
AcDbMText
 10
39.598213389492
 20
314.779767423671
 30
0.0
 40
8.0
 41
124.815667100994
 71
     1
 72
     5
  1
電源電圧：AC/DC20～255V
1001
ACADANNOTATIVE
1000
AnnotativeData
1002
{
1070
     1
1070
     0
1002
}
  0
LINE
  5
46A8
330
1A
100
AcDbEntity
  8
寸法線
 48
10.0
100
AcDbLine
 10
303.836246005087
 20
357.016349225412
 30
0.0
 11
303.836246005087
 21
250.313417867535
 31
0.0
  0
LINE
  5
46A9
330
1A
100
AcDbEntity
  8
寸法線
 48
10.0
100
AcDbLine
 10
173.604384338497
 20
327.381354727549
 30
0.0
 11
270.964914907916
 21
327.381354727549
 31
0.0
  0
MTEXT
  5
46AA
102
{ACAD_XDICTIONARY
360
46AB
102
}
330
1A
100
AcDbEntity
  8
寸法線
 48
10.0
100
AcDbMText
 10
237.861929170758
 20
338.20165950198
 30
0.0
 40
8.0
 41
66.205971474318
 71
     2
 72
     5
  1
RKK-501-1
1001
ACADANNOTATIVE
1000
AnnotativeData
1002
{
1070
     1
1070
     0
1002
}
1001
ACAD
1000
MTEXTBEGIN
1070
    44
1040
1.1475
1000
MTEXTEND
  0
MTEXT
  5
46AE
330
1A
100
AcDbEntity
  8
寸法線
 48
10.0
100
AcDbMText
 10
229.79983174693
 20
354.134524197918
 30
0.0
 40
8.0
 41
19.77375149039
 71
     1
 72
     5
  1
型式
  0
LINE
  5
46AF
330
1A
100
AcDbEntity
  8
寸法線
 48
10.0
100
AcDbLine
 10
173.604384338497
 20
342.815323157556
 30
0.0
 11
270.964914907916
 21
342.815323157556
 31
0.0
  0
LINE
  5
46B0
330
1A
100
AcDbEntity
  8
寸法線
 48
10.0
100
AcDbLine
 10
173.604384338497
 20
357.016349225412
 30
0.0
 11
270.964914907916
 21
357.016349225412
 31
0.0
  0
LINE
  5
46B1
330
1A
100
AcDbEntity
  8
寸法線
 48
10.0
100
AcDbLine
 10
204.758943433599
 20
357.016349225412
 30
0.0
 11
204.758943433599
 21
250.313417867535
 31
0.0
  0
LINE
  5
46B2
330
1A
100
AcDbEntity
  8
寸法線
 48
10.0
100
AcDbLine
 10
270.964914907916
 20
357.016349225412
 30
0.0
 11
270.964914907916
 21
250.313417867535
 31
0.0
  0
LINE
  5
46B3
330
1A
100
AcDbEntity
  8
寸法線
 48
10.0
100
AcDbLine
 10
270.964914907916
 20
357.016349225412
 30
0.0
 11
270.964914907917
 21
250.313417867535
 31
0.0
  0
LINE
  5
46B4
330
1A
100
AcDbEntity
  8
寸法線
 48
10.0
100
AcDbLine
 10
173.604384338497
 20
357.016349225412
 30
0.0
 11
173.604384338497
 21
250.313417867535
 31
0.0
  0
MTEXT
  5
46B5
330
1A
100
AcDbEntity
  8
寸法線
 48
10.0
100
AcDbMText
 10
461.64490573435
 20
261.507124658188
 30
0.0
 40
8.0
 41
165.013333333333
 71
     1
 72
     5
  1
○印が今回の貴社の御仕様です。
  0
SPLINE
  5
46B6
330
1A
100
AcDbEntity
  8
寸法線
 48
10.0
100
AcDbSpline
210
0.0
220
0.0
230
1.0
 70
  1064
 71
     3
 72
    13
 73
     9
 74
     7
 42
0.000000001
 43
0.0000000001
 44
0.0000000001
 40
0.0
 40
0.0
 40
0.0
 40
0.0
 40
3.86842211421227
 40
10.12254119268954
 40
15.16331027423529
 40
18.64952359630841
 40
20.50331406220848
 40
21.8476876304271
 40
21.8476876304271
 40
21.8476876304271
 40
21.8476876304271
 10
285.1707007617169
 20
345.4701451191441
 30
0.0
 10
286.3210952370751
 20
346.0015582837305
 30
0.0
 10
289.3313446671651
 20
347.3921127501367
 30
0.0
 10
290.0567303831943
 20
357.0995202477569
 30
0.0
 10
285.7658543623069
 20
350.1176073489111
 30
0.0
 10
285.9537483945268
 20
346.5732245577456
 30
0.0
 10
288.2144193374169
 20
345.1846946557712
 30
0.0
 10
289.2143510591289
 20
345.6848951109016
 30
0.0
 10
289.6346802737507
 20
345.8951583317727
 30
0.0
 11
285.1707007617169
 21
345.4701451191441
 31
0.0
 11
288.2529721431156
 21
347.8077277989947
 31
0.0
 11
288.9438262084329
 21
354.02357256123
 31
0.0
 11
286.2335537722238
 21
349.773422416236
 31
0.0
 11
286.7118377574557
 21
346.3201735464801
 31
0.0
 11
288.3592571831584
 21
345.4701451191441
 31
0.0
 11
289.6346802737507
 21
345.8951583317727
 31
0.0
  0
LINE
  5
46B7
330
1A
100
AcDbEntity
  8
寸法線
 48
10.0
100
AcDbLine
 10
173.604384338497
 20
311.947386297542
 30
0.0
 11
204.758943433599
 21
311.947386297542
 31
0.0
  0
MTEXT
  5
46B8
102
{ACAD_XDICTIONARY
360
46B9
102
}
330
1A
100
AcDbEntity
  8
寸法線
 48
10.0
100
AcDbMText
 10
287.400580456502
 20
338.731991912117
 30
0.0
 40
8.0
 41
32.87133109717
 71
     2
 72
     5
  1
1000\P1100\P1200\P1300\P1400\P1500
1001
ACADANNOTATIVE
1000
AnnotativeData
1002
{
1070
     1
1070
     0
1002
}
1001
ACAD
1000
MTEXTBEGIN
1070
    44
1040
1.1475
1000
MTEXTEND
  0
LINE
  5
46BC
330
1A
100
AcDbEntity
  8
寸法線
 48
10.0
100
AcDbLine
 10
173.604384338497
 20
296.513417867535
 30
0.0
 11
204.758943433599
 21
296.513417867535
 31
0.0
  0
LINE
  5
46BD
330
1A
100
AcDbEntity
  8
寸法線
 48
10.0
100
AcDbLine
 10
270.964914907916
 20
327.381354727549
 30
0.0
 11
383.836246005087
 21
327.381354727549
 31
0.0
  0
LINE
  5
46BE
330
1A
100
AcDbEntity
  8
寸法線
 48
10.0
100
AcDbLine
 10
270.964914907916
 20
311.947386297542
 30
0.0
 11
383.836246005087
 21
311.947386297542
 31
0.0
  0
LINE
  5
46BF
330
1A
100
AcDbEntity
  8
寸法線
 48
10.0
100
AcDbLine
 10
270.964914907916
 20
342.815323157556
 30
0.0
 11
383.836246005087
 21
342.815323157556
 31
0.0
  0
LINE
  5
46C0
330
1A
100
AcDbEntity
  8
寸法線
 48
10.0
100
AcDbLine
 10
270.964914907916
 20
357.016349225412
 30
0.0
 11
383.836246005087
 21
357.016349225412
 31
0.0
  0
LINE
  5
46C1
330
1A
100
AcDbEntity
  8
寸法線
 48
10.0
100
AcDbLine
 10
270.964914907917
 20
296.513417867535
 30
0.0
 11
383.836246005087
 21
296.513417867535
 31
0.0
  0
MTEXT
  5
46C2
102
{ACAD_XDICTIONARY
360
46C3
102
}
330
1A
100
AcDbEntity
  8
寸法線
 48
10.0
100
AcDbMText
 10
175.071309204156
 20
353.542619507108
 30
0.0
 40
8.0
 41
32.516763780405
 71
     1
 72
     5
  1
御仕様
1001
ACADANNOTATIVE
1000
AnnotativeData
1002
{
1070
     1
1070
     0
1002
}
  0
LINE
  5
46C6
330
1A
100
AcDbEntity
  8
寸法線
 48
10.0
100
AcDbLine
 10
173.604384338497
 20
281.113417867535
 30
0.0
 11
204.758943433599
 21
281.113417867535
 31
0.0
  0
LINE
  5
46C7
330
1A
100
AcDbEntity
  8
寸法線
 48
10.0
100
AcDbLine
 10
173.604384338497
 20
265.713417867535
 30
0.0
 11
204.758943433599
 21
265.713417867535
 31
0.0
  0
LINE
  5
46C8
330
1A
100
AcDbEntity
  8
寸法線
 48
10.0
100
AcDbLine
 10
173.604384338497
 20
250.313417867535
 30
0.0
 11
383.836246005087
 21
250.313417867535
 31
0.0
  0
MTEXT
  5
46CA
102
{ACAD_XDICTIONARY
360
46CB
102
}
330
1A
100
AcDbEntity
  8
寸法線
 48
10.0
100
AcDbMText
 10
360.051581560666
 20
353.78980814017
 30
0.0
 40
8.0
 41
19.77375149039
 71
     1
 72
     5
  1
台数
1001
ACADANNOTATIVE
1000
AnnotativeData
1002
{
1070
     1
1070
     0
1002
}
  0
LINE
  5
46CE
330
1A
100
AcDbEntity
  8
寸法線
 48
10.0
100
AcDbLine
 10
385.336246005087
 20
357.016349225412
 30
0.0
 11
385.336246005087
 21
265.713417867535
 31
0.0
  0
LINE
  5
46CF
330
1A
100
AcDbEntity
  8
寸法線
 48
10.0
100
AcDbLine
 10
515.568107671677
 20
357.016349225412
 30
0.0
 11
515.568107671677
 21
265.713417867535
 31
0.0
  0
LINE
  5
46D0
330
1A
100
AcDbEntity
  8
寸法線
 48
10.0
100
AcDbLine
 10
383.836246005087
 20
327.381354727549
 30
0.0
 11
416.490805100189
 21
327.381354727549
 31
0.0
  0
MTEXT
  5
46D5
330
1A
100
AcDbEntity
  8
寸法線
 48
10.0
100
AcDbMText
 10
441.531693413521
 20
354.134524197918
 30
0.0
 40
8.0
 41
19.77375149039
 71
     1
 72
     5
  1
型式
  0
LINE
  5
46D6
330
1A
100
AcDbEntity
  8
寸法線
 48
10.0
100
AcDbLine
 10
383.836246005087
 20
342.815323157556
 30
0.0
 11
482.696776574507
 21
342.815323157556
 31
0.0
  0
LINE
  5
46D7
330
1A
100
AcDbEntity
  8
寸法線
 48
10.0
100
AcDbLine
 10
383.836246005087
 20
357.016349225412
 30
0.0
 11
482.696776574507
 21
357.016349225412
 31
0.0
  0
LINE
  5
46D8
330
1A
100
AcDbEntity
  8
寸法線
 48
10.0
100
AcDbLine
 10
416.490805100189
 20
357.016349225412
 30
0.0
 11
416.490805100189
 21
265.713417867535
 31
0.0
  0
LINE
  5
46D9
330
1A
100
AcDbEntity
  8
寸法線
 48
10.0
100
AcDbLine
 10
482.696776574507
 20
357.016349225412
 30
0.0
 11
482.696776574507
 21
265.713417867535
 31
0.0
  0
LINE
  5
46DA
330
1A
100
AcDbEntity
  8
寸法線
 48
10.0
100
AcDbLine
 10
482.696776574507
 20
357.016349225412
 30
0.0
 11
482.696776574507
 21
265.713417867535
 31
0.0
  0
LINE
  5
46DB
330
1A
100
AcDbEntity
  8
寸法線
 48
10.0
100
AcDbLine
 10
385.336246005087
 20
357.016349225412
 30
0.0
 11
385.336246005087
 21
265.713417867535
 31
0.0
  0
SPLINE
  5
46DC
330
1A
100
AcDbEntity
  8
寸法線
 48
10.0
100
AcDbSpline
210
0.0
220
0.0
230
1.0
 70
  1064
 71
     3
 72
    13
 73
     9
 74
     7
 42
0.000000001
 43
0.0000000001
 44
0.0000000001
 40
0.0
 40
0.0
 40
0.0
 40
0.0
 40
3.86842211421227
 40
10.12254119268954
 40
15.16331027423529
 40
18.64952359630841
 40
20.50331406220848
 40
21.8476876304271
 40
21.8476876304271
 40
21.8476876304271
 40
21.8476876304271
 10
496.9025624283073
 20
345.4701451191441
 30
0.0
 10
498.0529569036655
 20
346.0015582837305
 30
0.0
 10
501.0632063337554
 20
347.3921127501367
 30
0.0
 10
501.7885920497848
 20
357.0995202477569
 30
0.0
 10
497.4977160288972
 20
350.1176073489111
 30
0.0
 10
497.6856100611171
 20
346.5732245577456
 30
0.0
 10
499.9462810040072
 20
345.1846946557712
 30
0.0
 10
500.9462127257192
 20
345.6848951109016
 30
0.0
 10
501.3665419403411
 20
345.8951583317727
 30
0.0
 11
496.9025624283073
 21
345.4701451191441
 31
0.0
 11
499.9848338097059
 21
347.8077277989947
 31
0.0
 11
500.6756878750233
 21
354.02357256123
 31
0.0
 11
497.9654154388141
 21
349.773422416236
 31
0.0
 11
498.443699424046
 21
346.3201735464801
 31
0.0
 11
500.0911188497488
 21
345.4701451191441
 31
0.0
 11
501.3665419403411
 21
345.8951583317727
 31
0.0
  0
LINE
  5
46DD
330
1A
100
AcDbEntity
  8
寸法線
 48
10.0
100
AcDbLine
 10
383.836246005087
 20
311.947386297542
 30
0.0
 11
416.490805100189
 21
311.947386297542
 31
0.0
  0
MTEXT
  5
46DE
102
{ACAD_XDICTIONARY
360
46DF
102
}
330
1A
100
AcDbEntity
  8
寸法線
 48
10.0
100
AcDbMText
 10
499.132442123092
 20
338.731991912117
 30
0.0
 40
8.0
 41
32.87133109717
 71
     2
 72
     5
  1
1600\P1700\P1800\P1900\P2000
1001
ACADANNOTATIVE
1000
AnnotativeData
1002
{
1070
     1
1070
     0
1002
}
1001
ACAD
1000
MTEXTBEGIN
1070
    44
1040
1.1475
1000
MTEXTEND
  0
LINE
  5
46E2
330
1A
100
AcDbEntity
  8
寸法線
 48
10.0
100
AcDbLine
 10
383.836246005087
 20
296.513417867535
 30
0.0
 11
416.490805100189
 21
296.513417867535
 31
0.0
  0
LINE
  5
46E3
330
1A
100
AcDbEntity
  8
寸法線
 48
10.0
100
AcDbLine
 10
482.696776574507
 20
327.381354727549
 30
0.0
 11
595.568107671677
 21
327.381354727549
 31
0.0
  0
LINE
  5
46E4
330
1A
100
AcDbEntity
  8
寸法線
 48
10.0
100
AcDbLine
 10
482.696776574507
 20
311.947386297542
 30
0.0
 11
595.568107671677
 21
311.947386297542
 31
0.0
  0
LINE
  5
46E5
330
1A
100
AcDbEntity
  8
寸法線
 48
10.0
100
AcDbLine
 10
482.696776574507
 20
342.815323157556
 30
0.0
 11
595.568107671677
 21
342.815323157556
 31
0.0
  0
LINE
  5
46E6
330
1A
100
AcDbEntity
  8
寸法線
 48
10.0
100
AcDbLine
 10
482.696776574507
 20
357.016349225412
 30
0.0
 11
595.568107671677
 21
357.016349225412
 31
0.0
  0
LINE
  5
46E7
330
1A
100
AcDbEntity
  8
寸法線
 48
10.0
100
AcDbLine
 10
482.696776574507
 20
296.513417867535
 30
0.0
 11
595.568107671677
 21
296.513417867535
 31
0.0
  0
MTEXT
  5
46E8
102
{ACAD_XDICTIONARY
360
46E9
102
}
330
1A
100
AcDbEntity
  8
寸法線
 48
10.0
100
AcDbMText
 10
386.803170870746
 20
353.542619507108
 30
0.0
 40
8.0
 41
32.516763780405
 71
     1
 72
     5
  1
御仕様
1001
ACADANNOTATIVE
1000
AnnotativeData
1002
{
1070
     1
1070
     0
1002
}
  0
LINE
  5
46EC
330
1A
100
AcDbEntity
  8
寸法線
 48
10.0
100
AcDbLine
 10
383.836246005087
 20
281.113417867535
 30
0.0
 11
416.490805100189
 21
281.113417867535
 31
0.0
  0
LINE
  5
46ED
330
1A
100
AcDbEntity
  8
寸法線
 48
10.0
100
AcDbLine
 10
383.836246005087
 20
265.713417867535
 30
0.0
 11
416.490805100189
 21
265.713417867535
 31
0.0
  0
LINE
  5
46EF
330
1A
100
AcDbEntity
  8
寸法線
 48
10.0
100
AcDbLine
 10
353.836246005087
 20
357.016349225412
 30
0.0
 11
353.836246005087
 21
250.313417867535
 31
0.0
  0
LINE
  5
46F0
330
1A
100
AcDbEntity
  8
寸法線
 48
10.0
100
AcDbLine
 10
383.836246005087
 20
357.016349225412
 30
0.0
 11
383.836246005087
 21
250.313417867535
 31
0.0
  0
LINE
  5
46F1
330
1A
100
AcDbEntity
  8
寸法線
 48
10.0
100
AcDbLine
 10
565.568107671677
 20
357.016349225412
 30
0.0
 11
565.568107671677
 21
265.713417867535
 31
0.0
  0
LINE
  5
46F2
330
1A
100
AcDbEntity
  8
寸法線
 48
10.0
100
AcDbLine
 10
595.568107671677
 20
357.016349225412
 30
0.0
 11
595.568107671677
 21
265.713417867535
 31
0.0
  0
MTEXT
  5
46F3
102
{ACAD_XDICTIONARY
360
46F4
102
}
330
1A
100
AcDbEntity
  8
寸法線
 48
10.0
100
AcDbMText
 10
571.783443227256
 20
353.78980814017
 30
0.0
 40
8.0
 41
19.77375149039
 71
     1
 72
     5
  1
台数
1001
ACADANNOTATIVE
1000
AnnotativeData
1002
{
1070
     1
1070
     0
1002
}
  0
MTEXT
  5
46F7
102
{ACAD_XDICTIONARY
360
46F8
102
}
330
1A
100
AcDbEntity
  8
寸法線
 48
10.0
100
AcDbMText
 10
320.914034664011
 20
353.947970961002
 30
0.0
 40
8.0
 41
19.77375149039
 71
     1
 72
     5
  1
記事
1001
ACADANNOTATIVE
1000
AnnotativeData
1002
{
1070
     1
1070
     0
1002
}
  0
MTEXT
  5
46FB
102
{ACAD_XDICTIONARY
360
46FC
102
}
330
1A
100
AcDbEntity
  8
寸法線
 48
10.0
100
AcDbMText
 10
532.645896330601
 20
353.947970961002
 30
0.0
 40
8.0
 41
19.77375149039
 71
     1
 72
     5
  1
記事
1001
ACADANNOTATIVE
1000
AnnotativeData
1002
{
1070
     1
1070
     0
1002
}
  0
LINE
  5
476A
330
1A
100
AcDbEntity
  8
寸法線
 48
10.0
100
AcDbLine
 10
270.964914907916
 20
281.113417867535
 30
0.0
 11
383.836246005087
 21
281.113417867535
 31
0.0
  0
LINE
  5
476C
330
1A
100
AcDbEntity
  8
寸法線
 48
10.0
100
AcDbLine
 10
270.964914907916
 20
265.713417867535
 30
0.0
 11
383.836246005087
 21
265.713417867535
 31
0.0
  0
MTEXT
  5
479E
102
{ACAD_XDICTIONARY
360
479F
102
}
330
1A
100
AcDbEntity
  8
寸法線
 48
10.0
100
AcDbMText
 10
237.861929170758
 20
296.430469501335
 30
0.0
 40
8.0
 41
66.205971474318
 71
     2
 72
     5
  1
RKK-502-1
1001
ACADANNOTATIVE
1000
AnnotativeData
1002
{
1070
     1
1070
     0
1002
}
1001
ACAD
1000
MTEXTBEGIN
1070
    44
1040
1.1475
1000
MTEXTEND
  0
LINE
  5
47A2
330
1A
100
AcDbEntity
  8
寸法線
 48
10.0
100
AcDbLine
 10
416.490805100189
 20
265.713417867535
 30
0.0
 11
595.568107671677
 21
265.713417867535
 31
0.0
  0
LINE
  5
47A4
330
1A
100
AcDbEntity
  8
寸法線
 48
10.0
100
AcDbLine
 10
482.696776574507
 20
281.113417867535
 30
0.0
 11
595.568107671677
 21
281.113417867535
 31
0.0
  0
MTEXT
  5
47D8
102
{ACAD_XDICTIONARY
360
47D9
102
}
330
1A
100
AcDbEntity
  8
寸法線
 48
10.0
100
AcDbMText
 10
449.593790837348
 20
307.620335046512
 30
0.0
 40
8.0
 41
66.205971474318
 71
     2
 72
     5
  1
RKK-502-1
1001
ACADANNOTATIVE
1000
AnnotativeData
1002
{
1070
     1
1070
     0
1002
}
1001
ACAD
1000
MTEXTBEGIN
1070
    44
1040
1.1475
1000
MTEXTEND
  0
SPLINE
  5
4962
330
1A
100
AcDbEntity
  8
寸法線
 48
10.0
100
AcDbSpline
210
0.0
220
0.0
230
1.0
 70
  1064
 71
     3
 72
    13
 73
     9
 74
     7
 42
0.000000001
 43
0.0000000001
 44
0.0000000001
 40
0.0
 40
0.0
 40
0.0
 40
0.0
 40
3.86842211421227
 40
10.12254119268954
 40
15.16331027423529
 40
18.64952359630841
 40
20.50331406220848
 40
21.8476876304271
 40
21.8476876304271
 40
21.8476876304271
 40
21.8476876304271
 10
164.5900733903341
 20
376.3516569798488
 30
0.0
 10
165.7404678656922
 20
376.8830701444352
 30
0.0
 10
168.7507172957822
 20
378.2736246108414
 30
0.0
 10
169.4761030118115
 20
387.9810321084617
 30
0.0
 10
165.185226990924
 20
380.9991192096156
 30
0.0
 10
165.3731210231439
 20
377.4547364184502
 30
0.0
 10
167.6337919660339
 20
376.0662065164759
 30
0.0
 10
168.633723687746
 20
376.5664069716062
 30
0.0
 10
169.0540529023679
 20
376.7766701924774
 30
0.0
 11
164.5900733903341
 21
376.3516569798488
 31
0.0
 11
167.6723447717327
 21
378.6892396596994
 31
0.0
 11
168.36319883705
 21
384.9050844219347
 31
0.0
 11
165.6529264008409
 21
380.6549342769407
 31
0.0
 11
166.1312103860728
 21
377.2016854071848
 31
0.0
 11
167.7786298117755
 21
376.3516569798488
 31
0.0
 11
169.0540529023679
 21
376.7766701924774
 31
0.0
  0
LINE
  5
500C
330
1A
100
AcDbEntity
  8
外形線
100
AcDbLine
 10
356.159793166504
 20
518.888956476994
 30
0.0
 11
353.16483518331
 21
513.398200174472
 31
0.0
  0
LINE
  5
500D
330
1A
100
AcDbEntity
  8
外形線
100
AcDbLine
 10
355.239031997341
 20
505.609900285633
 30
0.0
 11
365.474161662288
 21
505.609900285633
 31
0.0
  0
ARC
  5
500E
330
1A
100
AcDbEntity
  8
外形線
100
AcDbCircle
 10
410.45110938523
 20
492.330844094271
 30
0.0
 40
56.78650211819261
100
AcDbArc
 50
166.476641055109
 51
193.523358944891
  0
LINE
  5
500F
330
1A
100
AcDbEntity
  8
外形線
100
AcDbLine
 10
356.159793166504
 20
465.772731711548
 30
0.0
 11
353.16483518331
 21
471.26348801407
 31
0.0
  0
ARC
  5
5010
330
1A
100
AcDbEntity
  8
外形線
100
AcDbCircle
 10
364.32326331512
 20
473.209674470776
 30
0.0
 40
10.80062720349224
100
AcDbArc
 50
147.25473150955
 51
201.956277655799
  0
ARC
  5
5011
330
1A
100
AcDbEntity
  8
外形線
100
AcDbCircle
 10
310.2620842744
 20
492.330844094271
 30
0.0
 40
56.78650211819261
100
AcDbArc
 50
346.476641055109
 51
13.523358944891
  0
LINE
  5
5012
330
1A
100
AcDbEntity
  8
外形線
100
AcDbLine
 10
355.239031997341
 20
479.05178790291
 30
0.0
 11
365.474161662288
 21
479.05178790291
 31
0.0
  0
LINE
  5
5013
330
1A
100
AcDbEntity
  8
外形線
100
AcDbLine
 10
364.553400493126
 20
518.888956476994
 30
0.0
 11
356.159793166502
 21
518.888956476994
 31
0.0
  0
LINE
  5
5014
330
1A
100
AcDbEntity
  8
外形線
100
AcDbLine
 10
367.54835847632
 20
513.398200174472
 30
0.0
 11
364.553400493126
 21
518.888956476994
 31
0.0
  0
LINE
  5
5015
330
1A
100
AcDbEntity
  8
外形線
100
AcDbLine
 10
364.553400493126
 20
465.772731711548
 30
0.0
 11
367.54835847632
 21
471.26348801407
 31
0.0
  0
LINE
  5
5016
330
1A
100
AcDbEntity
  8
外形線
100
AcDbLine
 10
364.553400493126
 20
465.772731711548
 30
0.0
 11
356.159793166504
 21
465.772731711548
 31
0.0
  0
ARC
  5
5017
330
1A
100
AcDbEntity
  8
外形線
100
AcDbCircle
 10
364.32326331512
 20
511.452013717766
 30
0.0
 40
10.80062720349224
100
AcDbArc
 50
158.043722344201
 51
212.74526849045
  0
ARC
  5
5018
330
1A
100
AcDbEntity
  8
外形線
100
AcDbCircle
 10
356.38993034451
 20
511.452013717766
 30
0.0
 40
10.80062720349224
100
AcDbArc
 50
327.25473150955
 51
21.956277655792
  0
ARC
  5
5019
330
1A
100
AcDbEntity
  8
外形線
100
AcDbCircle
 10
356.38993034451
 20
473.209674470776
 30
0.0
 40
10.80062720349224
100
AcDbArc
 50
338.04372234421
 51
32.74526849045
  0
LINE
  5
501A
330
1A
100
AcDbEntity
  8
外形線
 48
10.0
100
AcDbLine
 10
353.16483518331
 20
513.398200174472
 30
0.0
 11
353.16483518331
 21
471.26348801407
 31
0.0
  0
VIEWPORT
  5
2902
330
28FB
100
AcDbEntity
 67
     1
  8
0
 48
10.0
100
AcDbViewport
 10
0.0
 20
0.0
 30
0.0
 40
552.319156214367
 41
300.3
 68
     1
 69
     1
1001
ACAD
1000
MVIEW
1002
{
1070
    16
1010
0.0
1020
0.0
1030
0.0
1010
0.0
1020
0.0
1030
1.0
1040
0.0
1040
300.3
1040
205.756503333333
1040
143.551503333333
1040
50.0
1040
0.0
1040
0.0
1070
    16
1070
   100
1070
     0
1070
     1
1070
     0
1070
     0
1070
     0
1070
     0
1040
0.0
1040
0.0
1040
0.0
1040
10.0
1040
10.0
1040
10.0
1040
10.0
1070
     0
1002
{
1002
}
1002
}
  0
VIEWPORT
  5
2904
330
28FB
100
AcDbEntity
 67
     1
  8
図枠太線
 48
10.0
100
AcDbViewport
 10
204.746305129083
 20
161.396645458131
 30
0.0
 40
400.0
 41
240.0
 68
     2
 69
     2
1001
ACAD
1000
MVIEW
1002
{
1070
    16
1010
0.0
1020
0.0
1030
0.0
1010
0.0
1020
0.0
1030
1.0
1040
0.0
1040
480.0
1040
220.939078729464
1040
419.681324345434
1040
50.0
1040
0.0
1040
0.0
1070
    16
1070
   100
1070
     0
1070
     0
1070
     0
1070
     0
1070
     0
1070
     0
1040
0.0
1040
0.0
1040
0.0
1040
1.0
1040
1.0
1040
0.0
1040
0.0
1070
     0
1002
{
1002
}
1002
}
  0
INSERT
  5
2A59
330
28FB
100
AcDbEntity
 67
     1
  8
図枠太線
100
AcDbBlockReference
  2
A3横用_タイトル
 10
-0.352109406709
 20
-2.129314295396
 30
0.0
  0
MTEXT
  5
2FE3
330
28FB
100
AcDbEntity
 67
     1
  8
寸法線
 48
10.0
100
AcDbMText
 10
149.281561913196
 20
13.738838105692
 30
0.0
 40
7.0
 41
10.579051054442
 71
     1
 72
     5
  1
1:2
  0
MTEXT
  5
2FE7
330
28FB
100
AcDbEntity
 67
     1
  8
寸法線
 48
10.0
100
AcDbMText
 10
310.820088207327
 20
33.538456506654
 30
0.0
 40
6.0
 41
50.444470326786
 71
     1
 72
     5
  1
RKK-5□□-1
  0
MTEXT
  5
2FE8
330
28FB
100
AcDbEntity
 67
     1
  8
寸法線
 48
10.0
100
AcDbMText
 10
363.257693177112
 20
37.807266065601
 30
0.0
 40
6.0
 41
50.761524795071
 71
     1
 72
     5
  1
{\H0.8333x;振動式\Pレベルスイッチ}
  0
MTEXT
  5
3100
330
28FB
100
AcDbEntity
 67
     1
  8
寸法線
 48
10.0
100
AcDbMText
 10
272.300488718679
 20
50.696653557005
 30
0.0
 40
5.0
 41
58.550841599714
 71
     1
 72
     5
  1
A3縮小図
  0
LINE
  5
3101
330
28FB
100
AcDbEntity
 67
     1
  8
寸法線
 48
10.0
100
AcDbLine
 10
272.300488718679
 20
44.82493422937
 30
0.0
 11
296.843718665885
 21
44.82493422937
 31
0.0
  0
MTEXT
  5
36BA
330
28FB
100
AcDbEntity
 67
     1
  8
寸法線
 48
10.0
100
AcDbMText
 10
373.753857416705
 20
50.416964775703
 30
0.0
 40
5.0
 41
58.550841599714
 71
     1
 72
     5
  1
台数   台
  0
MTEXT
  5
4474
102
{ACAD_XDICTIONARY
360
4856
102
}
330
28FB
100
AcDbEntity
 67
     1
  8
寸法線
 48
10.0
100
AcDbMText
 10
188.046305129083
 20
31.926341542085
 30
0.0
 40
5.0
 41
33.4
 71
     2
 72
     5
  1
takahashi
1001
ACADANNOTATIVE
1000
AnnotativeData
1002
{
1070
     1
1070
     0
1002
}
  0
MTEXT
  5
4475
102
{ACAD_XDICTIONARY
360
4859
102
}
330
28FB
100
AcDbEntity
 67
     1
  8
寸法線
 48
10.0
100
AcDbMText
 10
175.926140975372
 20
12.58249481613
 30
0.0
 40
5.0
 41
26.317357973135
 71
     1
 72
     5
  1
2015.8.25
1001
ACADANNOTATIVE
1000
AnnotativeData
1002
{
1070
     1
1070
     0
1002
}
  0
MTEXT
  5
44A8
102
{ACAD_XDICTIONARY
360
485C
102
}
330
28FB
100
AcDbEntity
 67
     1
  8
寸法線
 48
10.0
100
AcDbMText
 10
339.054277101384
 20
14.152099085336
 30
0.0
 40
7.0
 41
68.56
 71
     1
 72
     5
  1
HVR-2007
1001
ACADANNOTATIVE
1000
AnnotativeData
1002
{
1070
     1
1070
     0
1002
}
  0
MTEXT
  5
4F62
102
{ACAD_XDICTIONARY
360
4F63
102
}
330
28FB
100
AcDbEntity
 67
     1
  8
下書線
 48
10.0
100
AcDbMText
 10
48.848492052994
 20
154.885064803934
 30
0.0
 40
10.0
 41
174.128675272846
 71
     5
 72
     5
  1
HP掲載図面\P変更・追記不可
1001
ACADANNOTATIVE
1000
AnnotativeData
1002
{
1070
     1
1070
     0
1002
}
  0
LWPOLYLINE
  5
4F66
330
28FB
100
AcDbEntity
 67
     1
  8
下書線
 48
10.0
100
AcDbPolyline
 90
        4
 70
     1
 43
0.0
 10
6.618346799423
 20
173.311669635334
 10
90.452510563179
 20
173.311669635334
 10
90.452510563179
 20
136.189530699354
 10
6.618346799423
 20
136.189530699354
  0
MTEXT
  5
52D0
102
{ACAD_XDICTIONARY
360
52D1
102
}
330
28FB
100
AcDbEntity
 67
     1
  8
寸法線
 48
10.0
100
AcDbMText
 10
154.696305129083
 20
29.396646458131
 30
0.0
 40
4.5
 41
29.906507692735
 71
     5
 72
     5
  1
tahara
1001
ACADANNOTATIVE
1000
AnnotativeData
1002
{
1070
     1
1070
     0
1002
}
  0
MTEXT
  5
52D4
102
{ACAD_XDICTIONARY
360
52D5
102
}
330
28FB
100
AcDbEntity
 67
     1
  8
寸法線
 48
10.0
100
AcDbMText
 10
121.396304528483
 20
29.396646458131
 30
0.0
 40
4.5
 41
16.097226867587
 71
     5
 72
     5
  1
konishi
1001
ACADANNOTATIVE
1000
AnnotativeData
1002
{
1070
     1
1070
     0
1002
}
  0
ENDSEC
  0
SECTION
  2
OBJECTS
  0
DICTIONARY
  5
C
330
0
100
AcDbDictionary
  3
ACAD_COLOR
350
2948
  3
ACAD_GROUP
350
D
  3
ACAD_LAYOUT
350
2816
  3
ACAD_MATERIAL
350
2947
  3
ACAD_MLEADERSTYLE
350
45E2
  3
ACAD_MLINESTYLE
350
E
  3
ACAD_PLOTSETTINGS
350
2817
  3
ACAD_SCALELIST
350
45BB
  3
ACAD_VISUALSTYLE
350
45A2
  3
ACADDIM
350
36CC
  3
ACDBHEADERROUNDTRIPXREC
350
53AC
  3
ACDBVARIABLEDICTIONARY
350
480E
  3
DWGPROPS
350
53D1
  0
DICTIONARY
  5
53D2
330
8
100
AcDbDictionary
280
     1
  3
ACAD_XREC_ROUNDTRIP
360
53D3
  0
DICTIONARY
  5
29EA
330
2
100
AcDbDictionary
280
     1
  3
ACAD_LAYERFILTERS
360
2B0C
  3
ACAD_LAYERSTATES
360
29EB
  0
DICTIONARY
  5
501B
330
30F2
100
AcDbDictionary
280
     1
  3
ACDBCONTEXTDATAMANAGER
360
501C
  0
DICTIONARY
  5
4621
330
4620
100
AcDbDictionary
280
     1
  3
ACDBCONTEXTDATAMANAGER
360
4622
  0
DICTIONARY
  5
46AB
330
46AA
100
AcDbDictionary
280
     1
  3
ACDBCONTEXTDATAMANAGER
360
46AC
  0
DICTIONARY
  5
46B9
330
46B8
100
AcDbDictionary
280
     1
  3
ACDBCONTEXTDATAMANAGER
360
46BA
  0
DICTIONARY
  5
46C3
330
46C2
100
AcDbDictionary
280
     1
  3
ACDBCONTEXTDATAMANAGER
360
46C4
  0
DICTIONARY
  5
46CB
330
46CA
100
AcDbDictionary
280
     1
  3
ACDBCONTEXTDATAMANAGER
360
46CC
  0
DICTIONARY
  5
46DF
330
46DE
100
AcDbDictionary
280
     1
  3
ACDBCONTEXTDATAMANAGER
360
46E0
  0
DICTIONARY
  5
46E9
330
46E8
100
AcDbDictionary
280
     1
  3
ACDBCONTEXTDATAMANAGER
360
46EA
  0
DICTIONARY
  5
46F4
330
46F3
100
AcDbDictionary
280
     1
  3
ACDBCONTEXTDATAMANAGER
360
46F5
  0
DICTIONARY
  5
46F8
330
46F7
100
AcDbDictionary
280
     1
  3
ACDBCONTEXTDATAMANAGER
360
46F9
  0
DICTIONARY
  5
46FC
330
46FB
100
AcDbDictionary
280
     1
  3
ACDBCONTEXTDATAMANAGER
360
46FD
  0
DICTIONARY
  5
479F
330
479E
100
AcDbDictionary
280
     1
  3
ACDBCONTEXTDATAMANAGER
360
47A0
  0
DICTIONARY
  5
47D9
330
47D8
100
AcDbDictionary
280
     1
  3
ACDBCONTEXTDATAMANAGER
360
47DA
  0
DICTIONARY
  5
4856
330
4474
100
AcDbDictionary
280
     1
  3
ACDBCONTEXTDATAMANAGER
360
4857
  0
DICTIONARY
  5
4859
330
4475
100
AcDbDictionary
280
     1
  3
ACDBCONTEXTDATAMANAGER
360
485A
  0
DICTIONARY
  5
485C
330
44A8
100
AcDbDictionary
280
     1
  3
ACDBCONTEXTDATAMANAGER
360
485D
  0
DICTIONARY
  5
4F63
330
4F62
100
AcDbDictionary
280
     1
  3
ACDBCONTEXTDATAMANAGER
360
4F64
  0
DICTIONARY
  5
52D1
330
52D0
100
AcDbDictionary
280
     1
  3
ACDBCONTEXTDATAMANAGER
360
52D2
  0
DICTIONARY
  5
52D5
330
52D4
100
AcDbDictionary
280
     1
  3
ACDBCONTEXTDATAMANAGER
360
52D6
  0
DICTIONARY
  5
2948
102
{ACAD_REACTORS
330
C
102
}
330
C
100
AcDbDictionary
  0
DICTIONARY
  5
D
102
{ACAD_REACTORS
330
C
102
}
330
C
100
AcDbDictionary
  0
DICTIONARY
  5
2816
102
{ACAD_REACTORS
330
C
102
}
330
C
100
AcDbDictionary
  0
DICTIONARY
  5
2947
102
{ACAD_REACTORS
330
C
102
}
330
C
100
AcDbDictionary
  3
BYBLOCK
350
45DE
  3
BYLAYER
350
45DD
  3
GLOBAL
350
45DF
  0
DICTIONARY
  5
45E2
102
{ACAD_REACTORS
330
C
102
}
330
C
100
AcDbDictionary
  3
STANDARD
350
45E3
  0
DICTIONARY
  5
E
102
{ACAD_REACTORS
330
C
102
}
330
C
100
AcDbDictionary
  3
STANDARD
350
13
  0
DICTIONARY
  5
2817
102
{ACAD_REACTORS
330
C
102
}
330
C
100
AcDbDictionary
  0
DICTIONARY
  5
45BB
102
{ACAD_REACTORS
330
C
102
}
330
C
100
AcDbDictionary
  3
A0
350
45BC
  3
A1
350
45BD
  3
A2
350
45BE
  3
A3
350
45BF
  3
A4
350
45C0
  3
A5
350
45C1
  3
A6
350
45C2
  3
A7
350
45C3
  3
A8
350
45C4
  3
A9
350
45C5
  3
B0
350
45C6
  3
B1
350
45C7
  3
B2
350
45C8
  3
B3
350
45C9
  3
B4
350
45CA
  3
B5
350
45CB
  3
B6
350
45CC
  3
B7
350
45CD
  3
B8
350
45CE
  3
B9
350
45CF
  3
C0
350
45D0
  3
C1
350
45D1
  3
C2
350
45D2
  3
C3
350
45D3
  3
C4
350
45D4
  3
C5
350
45D5
  3
C6
350
45D6
  3
C7
350
45D7
  3
C8
350
45D8
  3
C9
350
45D9
  3
D0
350
45DA
  3
D1
350
45DB
  3
D2
350
45DC
  0
DICTIONARY
  5
45A2
102
{ACAD_REACTORS
330
C
102
}
330
C
100
AcDbDictionary
  3
2DWIREFRAME
350
45A7
  3
BASIC
350
45AA
  3
BRIGHTEN
350
45AE
  3
COLORCHANGE
350
45B2
  3
CONCEPTUAL
350
45AC
  3
DIM
350
45AD
  3
EDGECOLOROFF
350
45B5
  3
FACEPATTERN
350
45B1
  3
FLAT
350
45A3
  3
FLATWITHEDGES
350
45A4
  3
GOURAUD
350
45A5
  3
GOURAUDWITHEDGES
350
45A6
  3
HIDDEN
350
45A9
  3
JITTEROFF
350
45B3
  3
LINEPATTERN
350
45B0
  3
MODELING
350
45E4
  3
OVERHANGOFF
350
45B4
  3
REALISTIC
350
45AB
  3
SHADED
350
45BA
  3
SHADED_WITH_EDGES
350
45B9
  3
SHADES_OF_GRAY
350
45B6
  3
SKETCHY
350
45B7
  3
THICKEN
350
45AF
  3
WIREFRAME
350
45A8
  3
X-RAY
350
45B8
  0
XRECORD
  5
36CC
102
{ACAD_REACTORS
330
C
102
}
330
C
100
AcDbXrecord
 90
   990106
  3

 60
     0
 61
     0
 62
     1
 63
     3
 64
     0
 65
     0
 66
     0
 67
     3
 68
     1
 69
     0
 70
     0
 71
     0
 72
     0
 40
0.0
170
     0
  0
DICTIONARY
  5
53AC
102
{ACAD_REACTORS
330
C
102
}
330
C
100
AcDbDictionary
  3
CEPSNID
350
53B6
  3
CEPSNTYPE
350
53B5
  3
COLORDICT
350
53CF
  3
DIMSTYLEDATA
350
53CC
  3
FINGERPRINTGUID
350
53B7
  3
HYPERLINKBASE
350
53AF
  3
INSUNITS
350
53B4
  3
LAYOUTDICT
350
53B1
  3
LWETCUNION
350
53B3
  3
MATERIALDICT
350
53D0
  3
PLOTSETDICT
350
53B2
  3
PSVPSCALE
350
53B9
  3
PUCSBASE
350
53BC
  3
PUCSORGBACK
350
53C2
  3
PUCSORGBOTTOM
350
53BE
  3
PUCSORGFRONT
350
53C1
  3
PUCSORGLEFT
350
53BF
  3
PUCSORGRIGHT
350
53C0
  3
PUCSORGTOP
350
53BD
  3
PUCSORTHOREF
350
53BA
  3
PUCSORTHOVIEW
350
53BB
  3
STYLESHEET
350
53B0
  3
TSTACKALIGN
350
53AD
  3
TSTACKSIZE
350
53AE
  3
UCSBASE
350
53C5
  3
UCSORGBACK
350
53CB
  3
UCSORGBOTTOM
350
53C7
  3
UCSORGFRONT
350
53CA
  3
UCSORGLEFT
350
53C8
  3
UCSORGRIGHT
350
53C9
  3
UCSORGTOP
350
53C6
  3
UCSORTHOREF
350
53C3
  3
UCSORTHOVIEW
350
53C4
  3
VERSIONGUID
350
53B8
  0
DICTIONARY
  5
480E
102
{ACAD_REACTORS
330
C
102
}
330
C
100
AcDbDictionary
  3
CANNOSCALE
350
480F
  3
CMLEADERSTYLE
350
4850
  3
CTABLESTYLE
350
484F
  3
DIMASSOC
350
53CD
  3
HIDETEXT
350
53CE
  3
MSLTSCALE
350
4851
  3
XCLIPFRAME
350
4852
  0
XRECORD
  5
53D1
102
{ACAD_REACTORS
330
C
102
}
330
C
100
AcDbXrecord
  1
DWGPROPS COOKIE
  2

  3

  4

  6

  7

  8
takahashi
  9

300
=
301
=
302
=
303
=
304
=
305
=
306
=
307
=
308
=
309
=
 40
0.0
 41
2450576.222302431
 42
2457268.997947593
  1

 90
        0
  0
XRECORD
  5
53D3
102
{ACAD_REACTORS
330
53D2
102
}
330
53D2
100
AcDbXrecord
102
VTR_0.000_0.000_1.000_1.000_VISUALSTYLE
340
45A7
102
VTR_0.000_0.000_1.000_1.000_GRIDDISPLAY
 70
     3
102
VTR_0.000_0.000_1.000_1.000_GRIDMAJOR
 70
     5
102
VTR_0.000_0.000_1.000_1.000_DEFAULTLIGHTING
280
     1
102
VTR_0.000_0.000_1.000_1.000_DEFAULTLIGHTINGTYPE
 70
     1
102
VTR_0.000_0.000_1.000_1.000_BRIGHTNESS
141
0.0
102
VTR_0.000_0.000_1.000_1.000_CONTRAST
142
0.0
  0
DICTIONARY
  5
2B0C
102
{ACAD_REACTORS
330
29EA
102
}
330
29EA
100
AcDbDictionary
  0
DICTIONARY
  5
29EB
102
{ACAD_REACTORS
330
29EA
102
}
330
29EA
100
AcDbDictionary
  0
DICTIONARY
  5
501C
102
{ACAD_REACTORS
330
501B
102
}
330
501B
100
AcDbDictionary
  3
ACDB_ANNOTATIONSCALES
350
501D
  0
DICTIONARY
  5
4622
102
{ACAD_REACTORS
330
4621
102
}
330
4621
100
AcDbDictionary
  3
ACDB_ANNOTATIONSCALES
350
4623
  0
DICTIONARY
  5
46AC
102
{ACAD_REACTORS
330
46AB
102
}
330
46AB
100
AcDbDictionary
  3
ACDB_ANNOTATIONSCALES
350
46AD
  0
DICTIONARY
  5
46BA
102
{ACAD_REACTORS
330
46B9
102
}
330
46B9
100
AcDbDictionary
  3
ACDB_ANNOTATIONSCALES
350
46BB
  0
DICTIONARY
  5
46C4
102
{ACAD_REACTORS
330
46C3
102
}
330
46C3
100
AcDbDictionary
  3
ACDB_ANNOTATIONSCALES
350
46C5
  0
DICTIONARY
  5
46CC
102
{ACAD_REACTORS
330
46CB
102
}
330
46CB
100
AcDbDictionary
  3
ACDB_ANNOTATIONSCALES
350
46CD
  0
DICTIONARY
  5
46E0
102
{ACAD_REACTORS
330
46DF
102
}
330
46DF
100
AcDbDictionary
  3
ACDB_ANNOTATIONSCALES
350
46E1
  0
DICTIONARY
  5
46EA
102
{ACAD_REACTORS
330
46E9
102
}
330
46E9
100
AcDbDictionary
  3
ACDB_ANNOTATIONSCALES
350
46EB
  0
DICTIONARY
  5
46F5
102
{ACAD_REACTORS
330
46F4
102
}
330
46F4
100
AcDbDictionary
  3
ACDB_ANNOTATIONSCALES
350
46F6
  0
DICTIONARY
  5
46F9
102
{ACAD_REACTORS
330
46F8
102
}
330
46F8
100
AcDbDictionary
  3
ACDB_ANNOTATIONSCALES
350
46FA
  0
DICTIONARY
  5
46FD
102
{ACAD_REACTORS
330
46FC
102
}
330
46FC
100
AcDbDictionary
  3
ACDB_ANNOTATIONSCALES
350
46FE
  0
DICTIONARY
  5
47A0
102
{ACAD_REACTORS
330
479F
102
}
330
479F
100
AcDbDictionary
  3
ACDB_ANNOTATIONSCALES
350
47A1
  0
DICTIONARY
  5
47DA
102
{ACAD_REACTORS
330
47D9
102
}
330
47D9
100
AcDbDictionary
  3
ACDB_ANNOTATIONSCALES
350
47DB
  0
DICTIONARY
  5
4857
102
{ACAD_REACTORS
330
4856
102
}
330
4856
100
AcDbDictionary
  3
ACDB_ANNOTATIONSCALES
350
4858
  0
DICTIONARY
  5
485A
102
{ACAD_REACTORS
330
4859
102
}
330
4859
100
AcDbDictionary
  3
ACDB_ANNOTATIONSCALES
350
485B
  0
DICTIONARY
  5
485D
102
{ACAD_REACTORS
330
485C
102
}
330
485C
100
AcDbDictionary
  3
ACDB_ANNOTATIONSCALES
350
485E
  0
DICTIONARY
  5
4F64
102
{ACAD_REACTORS
330
4F63
102
}
330
4F63
100
AcDbDictionary
  3
ACDB_ANNOTATIONSCALES
350
4F65
  0
DICTIONARY
  5
52D2
102
{ACAD_REACTORS
330
52D1
102
}
330
52D1
100
AcDbDictionary
  3
ACDB_ANNOTATIONSCALES
350
52D3
  0
DICTIONARY
  5
52D6
102
{ACAD_REACTORS
330
52D5
102
}
330
52D5
100
AcDbDictionary
  3
ACDB_ANNOTATIONSCALES
350
52D7
  0
MATERIAL
  5
45DE
102
{ACAD_REACTORS
330
2947
102
}
102
{ACAD_XDICTIONARY
360
53D6
102
}
330
2947
100
AcDbMaterial
  1
BYBLOCK
  0
MATERIAL
  5
45DD
102
{ACAD_REACTORS
330
2947
102
}
102
{ACAD_XDICTIONARY
360
53D4
102
}
330
2947
100
AcDbMaterial
  1
BYLAYER
  0
MATERIAL
  5
45DF
102
{ACAD_REACTORS
330
2947
102
}
102
{ACAD_XDICTIONARY
360
53D8
102
}
330
2947
100
AcDbMaterial
  1
GLOBAL
  0
ACAD_PROXY_OBJECT
  5
45E3
102
{ACAD_REACTORS
330
45E2
102
}
330
45E2
100
AcDbProxyObject
 90
      499
 91
      507
 93
      610
310
40901902A4063FBFFFFFE0000000000000020400000000000020404214DD185B99185C990000000000000104090141901A00000000000004100000000000000041025764000000000000039000
340
14
340
0
340
10
340
0
 94
        0
1001
ACAD_MLEADERVER
1070
     2
  0
MLINESTYLE
  5
13
102
{ACAD_REACTORS
330
E
102
}
330
E
100
AcDbMlineStyle
  2
STANDARD
 70
     0
  3

 62
     0
 51
90.0
 52
90.0
 71
     2
 49
0.5
 62
   256
  6
BYLAYER
 49
-0.5
 62
   256
  6
BYLAYER
  0
ACAD_PROXY_OBJECT
  5
45BC
102
{ACAD_REACTORS
330
45BB
102
}
330
45BB
100
AcDbProxyObject
 90
      499
 91
      504
 93
       41
310
903313A31580
  0
ACAD_PROXY_OBJECT
  5
45BD
102
{ACAD_REACTORS
330
45BB
102
}
330
45BB
100
AcDbProxyObject
 90
      499
 91
      504
 93
      105
310
903313A324000000000000004000
  0
ACAD_PROXY_OBJECT
  5
45BE
102
{ACAD_REACTORS
330
45BB
102
}
330
45BB
100
AcDbProxyObject
 90
      499
 91
      504
 93
      105
310
903313A344000000000000104000
  0
ACAD_PROXY_OBJECT
  5
45BF
102
{ACAD_REACTORS
330
45BB
102
}
330
45BB
100
AcDbProxyObject
 90
      499
 91
      504
 93
      105
310
903313A354000000000000144000
  0
ACAD_PROXY_OBJECT
  5
45C0
102
{ACAD_REACTORS
330
45BB
102
}
330
45BB
100
AcDbProxyObject
 90
      499
 91
      504
 93
      105
310
903313A384000000000000204000
  0
ACAD_PROXY_OBJECT
  5
45C1
102
{ACAD_REACTORS
330
45BB
102
}
330
45BB
100
AcDbProxyObject
 90
      499
 91
      504
 93
      113
310
904313A31304000000000000244000
  0
ACAD_PROXY_OBJECT
  5
45C2
102
{ACAD_REACTORS
330
45BB
102
}
330
45BB
100
AcDbProxyObject
 90
      499
 91
      504
 93
      113
310
904313A31364000000000000304000
  0
ACAD_PROXY_OBJECT
  5
45C3
102
{ACAD_REACTORS
330
45BB
102
}
330
45BB
100
AcDbProxyObject
 90
      499
 91
      504
 93
      113
310
904313A32304000000000000344000
  0
ACAD_PROXY_OBJECT
  5
45C4
102
{ACAD_REACTORS
330
45BB
102
}
330
45BB
100
AcDbProxyObject
 90
      499
 91
      504
 93
      113
310
904313A333040000000000003E4000
  0
ACAD_PROXY_OBJECT
  5
45C5
102
{ACAD_REACTORS
330
45BB
102
}
330
45BB
100
AcDbProxyObject
 90
      499
 91
      504
 93
      113
310
904313A34304000000000000444000
  0
ACAD_PROXY_OBJECT
  5
45C6
102
{ACAD_REACTORS
330
45BB
102
}
330
45BB
100
AcDbProxyObject
 90
      499
 91
      504
 93
      113
310
904313A35304000000000000494000
  0
ACAD_PROXY_OBJECT
  5
45C7
102
{ACAD_REACTORS
330
45BB
102
}
330
45BB
100
AcDbProxyObject
 90
      499
 91
      504
 93
      121
310
905313A3130304000000000000594000
  0
ACAD_PROXY_OBJECT
  5
45C8
102
{ACAD_REACTORS
330
45BB
102
}
330
45BB
100
AcDbProxyObject
 90
      499
 91
      504
 93
      105
310
903323A310000000000000010100
  0
ACAD_PROXY_OBJECT
  5
45C9
102
{ACAD_REACTORS
330
45BB
102
}
330
45BB
100
AcDbProxyObject
 90
      499
 91
      504
 93
      105
310
903343A310000000000000410100
  0
ACAD_PROXY_OBJECT
  5
45CA
102
{ACAD_REACTORS
330
45BB
102
}
330
45BB
100
AcDbProxyObject
 90
      499
 91
      504
 93
      105
310
903383A310000000000000810100
  0
ACAD_PROXY_OBJECT
  5
45CB
102
{ACAD_REACTORS
330
45BB
102
}
330
45BB
100
AcDbProxyObject
 90
      499
 91
      504
 93
      113
310
90431303A310000000000000910100
  0
ACAD_PROXY_OBJECT
  5
45CC
102
{ACAD_REACTORS
330
45BB
102
}
330
45BB
100
AcDbProxyObject
 90
      499
 91
      504
 93
      121
310
9053130303A310000000000001650100
  0
ACAD_PROXY_OBJECT
  5
45CD
102
{ACAD_REACTORS
330
45BB
102
}
330
45BB
100
AcDbProxyObject
 90
      499
 91
      504
 93
      257
310
90E312F31323822203D2031272D3022000000000000200FC000000000000284000
  0
ACAD_PROXY_OBJECT
  5
45CE
102
{ACAD_REACTORS
330
45BB
102
}
330
45BB
100
AcDbProxyObject
 90
      499
 91
      504
 93
      249
310
90D312F363422203D2031272D3022000000000000240FC000000000000284000
  0
ACAD_PROXY_OBJECT
  5
45CF
102
{ACAD_REACTORS
330
45BB
102
}
330
45BB
100
AcDbProxyObject
 90
      499
 91
      504
 93
      249
310
90D312F333222203D2031272D3022000000000000280FC000000000000284000
  0
ACAD_PROXY_OBJECT
  5
45D0
102
{ACAD_REACTORS
330
45BB
102
}
330
45BB
100
AcDbProxyObject
 90
      499
 91
      504
 93
      249
310
90D312F313622203D2031272D30220000000000002C0FC000000000000284000
  0
ACAD_PROXY_OBJECT
  5
45D1
102
{ACAD_REACTORS
330
45BB
102
}
330
45BB
100
AcDbProxyObject
 90
      499
 91
      504
 93
      249
310
90D332F333222203D2031272D30220000000000002E0FC000000000000284000
  0
ACAD_PROXY_OBJECT
  5
45D2
102
{ACAD_REACTORS
330
45BB
102
}
330
45BB
100
AcDbProxyObject
 90
      499
 91
      504
 93
      241
310
90C312F3822203D2031272D3022000000000000300FC000000000000284000
  0
ACAD_PROXY_OBJECT
  5
45D3
102
{ACAD_REACTORS
330
45BB
102
}
330
45BB
100
AcDbProxyObject
 90
      499
 91
      504
 93
      249
310
90D332F313622203D2031272D3022000000000000320FC000000000000284000
  0
ACAD_PROXY_OBJECT
  5
45D4
102
{ACAD_REACTORS
330
45BB
102
}
330
45BB
100
AcDbProxyObject
 90
      499
 91
      504
 93
      241
310
90C312F3422203D2031272D3022000000000000340FC000000000000284000
  0
ACAD_PROXY_OBJECT
  5
45D5
102
{ACAD_REACTORS
330
45BB
102
}
330
45BB
100
AcDbProxyObject
 90
      499
 91
      504
 93
      241
310
90C332F3822203D2031272D3022000000000000360FC000000000000284000
  0
ACAD_PROXY_OBJECT
  5
45D6
102
{ACAD_REACTORS
330
45BB
102
}
330
45BB
100
AcDbProxyObject
 90
      499
 91
      504
 93
      241
310
90C312F3222203D2031272D3022000000000000380FC000000000000284000
  0
ACAD_PROXY_OBJECT
  5
45D7
102
{ACAD_REACTORS
330
45BB
102
}
330
45BB
100
AcDbProxyObject
 90
      499
 91
      504
 93
      241
310
90C332F3422203D2031272D30220000000000003A0FC000000000000284000
  0
ACAD_PROXY_OBJECT
  5
45D8
102
{ACAD_REACTORS
330
45BB
102
}
330
45BB
100
AcDbProxyObject
 90
      499
 91
      504
 93
      161
310
90A3122203D2031272D30224000000000000284000
  0
ACAD_PROXY_OBJECT
  5
45D9
102
{ACAD_REACTORS
330
45BB
102
}
330
45BB
100
AcDbProxyObject
 90
      499
 91
      504
 93
      257
310
90E312D312F3222203D2031272D30220000000000003E0FC000000000000284000
  0
ACAD_PROXY_OBJECT
  5
45DA
102
{ACAD_REACTORS
330
45BB
102
}
330
45BB
100
AcDbProxyObject
 90
      499
 91
      504
 93
      225
310
90A3322203D2031272D302200000000000002100000000000000284000
  0
ACAD_PROXY_OBJECT
  5
45DB
102
{ACAD_REACTORS
330
45BB
102
}
330
45BB
100
AcDbProxyObject
 90
      499
 91
      504
 93
      225
310
90A3622203D2031272D302200000000000006100000000000000284000
  0
ACAD_PROXY_OBJECT
  5
45DC
102
{ACAD_REACTORS
330
45BB
102
}
330
45BB
100
AcDbProxyObject
 90
      499
 91
      504
 93
      249
310
90D31272D3022203D2031272D30220000000000000A100000000000000284000
  0
ACAD_PROXY_OBJECT
  5
45A7
102
{ACAD_REACTORS
330
45A2
102
}
330
45A2
100
AcDbProxyObject
 90
      499
 91
      503
 93
      436
310
42CC9915DA5C99599C985B595049028333333333333E33F0000000000000F90107901411070040501600405405064090741402480A0340
1001
ACAD
1000
AcDbSavedByObjectVersion
1070
     0
  0
ACAD_PROXY_OBJECT
  5
45AA
102
{ACAD_REACTORS
330
45A2
102
}
330
45A2
100
AcDbProxyObject
 90
      499
 91
      503
 93
      388
310
4150985CDA58D07406404333333333333E33F0000000000000F90107A41107004050150841D405064090741402480A0350
1001
ACAD
1000
AcDbSavedByObjectVersion
1070
     0
  0
ACAD_PROXY_OBJECT
  5
45AE
102
{ACAD_REACTORS
330
45A2
102
}
330
45A2
100
AcDbProxyObject
 90
      499
 91
      503
 93
      428
310
42109C9A59DA1D195B90C409028333333333333E33F0000000000000F9010790141107004050150841D405064090741402480A029950
1001
ACAD
1000
AcDbSavedByObjectVersion
1070
     0
  0
ACAD_PROXY_OBJECT
  5
45B2
102
{ACAD_REACTORS
330
45A2
102
}
330
45A2
100
AcDbProxyObject
 90
      499
 91
      503
 93
      452
310
42D0DBDB1BDC90DA185B99D95104090240C333333333333E33F0000000000000F90108901411070040501508421405064090741402480A0350
1001
ACAD
1000
AcDbSavedByObjectVersion
1070
     0
  0
ACAD_PROXY_OBJECT
  5
45AC
102
{ACAD_REACTORS
330
45A2
102
}
330
45A2
100
AcDbProxyObject
 90
      499
 91
      503
 93
      500
310
4290DBDB98D95C1D1D585B10940D028333333333333E33F0000000000000F90107902409070040501000000000018199010841D405064090740C02480A0340
1001
ACAD
1000
AcDbSavedByObjectVersion
1070
     0
  0
ACAD_PROXY_OBJECT
  5
45AD
102
{ACAD_REACTORS
330
45A2
102
}
330
45A2
100
AcDbProxyObject
 90
      499
 91
      503
 93
      412
310
40D11A5B50B409028333333333333E33F0000000000000F9010790141107004050150841D405064090741402480A02677FFFFFD0
1001
ACAD
1000
AcDbSavedByObjectVersion
1070
     0
  0
ACAD_PROXY_OBJECT
  5
45B5
102
{ACAD_REACTORS
330
45A2
102
}
330
45A2
100
AcDbProxyObject
 90
      499
 91
      503
 93
      452
310
43115919D950DBDB1BDC93D999916409028333333333333E33F0000000000000F9010790141107004050150841D405064090741402480A0350
1001
ACAD
1000
AcDbSavedByObjectVersion
1070
     0
  0
ACAD_PROXY_OBJECT
  5
45B1
102
{ACAD_REACTORS
330
45A2
102
}
330
45A2
100
AcDbProxyObject
 90
      499
 91
      503
 93
      444
310
42D19858D95C185D1D195C9B90F409028333333333333E33F0000000000000F9010790141107004050150841D405064090741402480A0350
1001
ACAD
1000
AcDbSavedByObjectVersion
1070
     0
  0
ACAD_PROXY_OBJECT
  5
45A3
102
{ACAD_REACTORS
330
45A2
102
}
330
45A2
100
AcDbProxyObject
 90
      499
 91
      503
 93
      380
310
41119B185D240901404333333333333E33F0000000000000F9010740A907004050150841D405064090741402480A1B50
1001
ACAD
1000
AcDbSavedByObjectVersion
1070
     0
  0
ACAD_PROXY_OBJECT
  5
45A4
102
{ACAD_REACTORS
330
45A2
102
}
330
45A2
100
AcDbProxyObject
 90
      499
 91
      503
 93
      468
310
43519B185D15DA5D1A115919D95CD0140901404333333333333E33F0000000000000F90107409019070040501600405405064090741402480A1B50
1001
ACAD
1000
AcDbSavedByObjectVersion
1070
     0
  0
ACAD_PROXY_OBJECT
  5
45A5
102
{ACAD_REACTORS
330
45A2
102
}
330
45A2
100
AcDbProxyObject
 90
      499
 91
      503
 93
      404
310
41D1DBDD5C985D5910240902404333333333333E33F0000000000000F9010740A9070040501641D405064090741402480A1B50
1001
ACAD
1000
AcDbSavedByObjectVersion
1070
     0
  0
ACAD_PROXY_OBJECT
  5
45A6
102
{ACAD_REACTORS
330
45A2
102
}
330
45A2
100
AcDbProxyObject
 90
      499
 91
      503
 93
      492
310
4411DBDD5C985D5915DA5D1A115919D95CD0340902404333333333333E33F0000000000000F90107409019070040501600405405064090741402480A1B50
1001
ACAD
1000
AcDbSavedByObjectVersion
1070
     0
  0
ACAD_PROXY_OBJECT
  5
45A9
102
{ACAD_REACTORS
330
45A2
102
}
330
45A2
100
AcDbProxyObject
 90
      499
 91
      503
 93
      476
310
41921A5919195B90640502408333333333333E33F0000000000000F901079024090700405020000000000001110200405405064090740C02480A0340
1001
ACAD
1000
AcDbSavedByObjectVersion
1070
     0
  0
ACAD_PROXY_OBJECT
  5
45B3
102
{ACAD_REACTORS
330
45A2
102
}
330
45A2
100
AcDbProxyObject
 90
      499
 91
      503
 93
      428
310
42529A5D1D195C93D999914409028333333333333E33F0000000000000F9010790141107004050150A41D405064090741402480A0350
1001
ACAD
1000
AcDbSavedByObjectVersion
1070
     0
  0
ACAD_PROXY_OBJECT
  5
45B0
102
{ACAD_REACTORS
330
45A2
102
}
330
45A2
100
AcDbProxyObject
 90
      499
 91
      503
 93
      444
310
42D31A5B995C185D1D195C9B90E409028333333333333E33F0000000000000F9010790141107004050750841D405064090741402483A0350
1001
ACAD
1000
AcDbSavedByObjectVersion
1070
     0
  0
ACAD_PROXY_OBJECT
  5
45E4
102
{ACAD_REACTORS
330
45A2
102
}
330
45A2
100
AcDbProxyObject
 90
      499
 91
      503
 93
      412
310
90A409038333333333333E33F0000000000000F901074090290700405010000000000201990108421405064090741402480A1B40
1001
ACAD
1000
AcDbSavedByObjectVersion
1070
     0
  0
ACAD_PROXY_OBJECT
  5
45B4
102
{ACAD_REACTORS
330
45A2
102
}
330
45A2
100
AcDbProxyObject
 90
      499
 91
      503
 93
      444
310
42D3DD995C9A185B99D3D999915409028333333333333E33F0000000000000F9010790141107004050150941D405064090741402480A0350
1001
ACAD
1000
AcDbSavedByObjectVersion
1070
     0
  0
ACAD_PROXY_OBJECT
  5
45AB
102
{ACAD_REACTORS
330
45A2
102
}
330
45A2
100
AcDbProxyObject
 90
      499
 91
      503
 93
      428
310
425499585B1A5CDD1A58D08409038333333333333E33F0000000000000F9010740A907004050150800405405064090740C02480A1B40
1001
ACAD
1000
AcDbSavedByObjectVersion
1070
     0
  0
ACAD_PROXY_OBJECT
  5
45BA
102
{ACAD_REACTORS
330
45A2
102
}
330
45A2
100
AcDbProxyObject
 90
      499
 91
      503
 93
      420
310
4194DA1859195911B40902404333333333333E33F0000000000000F9010740A41107004050150800405405064090840C02480A0B40
1001
ACAD
1000
AcDbSavedByObjectVersion
1070
     0
  0
ACAD_PROXY_OBJECT
  5
45B9
102
{ACAD_REACTORS
330
45A2
102
}
330
45A2
100
AcDbProxyObject
 90
      499
 91
      503
 93
      516
310
4454DA18591959081DDA5D1A08195919D95CD1A40902404333333333333E33F0000000000000F901074090142907004050250800405405064090740C02480A0B40
1001
ACAD
1000
AcDbSavedByObjectVersion
1070
     0
  0
ACAD_PROXY_OBJECT
  5
45B6
102
{ACAD_REACTORS
330
45A2
102
}
330
45A2
100
AcDbProxyObject
 90
      499
 91
      503
 93
      532
310
4394DA1859195CC81BD98811DC985E5174090240C333333333333E33F0000000000000F901079024090741D01000000000000111010841D405064090740C02480A0340
1001
ACAD
1000
AcDbSavedByObjectVersion
1070
     0
  0
ACAD_PROXY_OBJECT
  5
45B7
102
{ACAD_REACTORS
330
45A2
102
}
330
45A2
100
AcDbProxyObject
 90
      499
 91
      503
 93
      476
310
41D4DAD95D18DA1E51840502408333333333333E33F0000000000000F901079024090741D01000000000000111010B41D405064090741802480A0340
1001
ACAD
1000
AcDbSavedByObjectVersion
1070
     0
  0
ACAD_PROXY_OBJECT
  5
45AF
102
{ACAD_REACTORS
330
45A2
102
}
330
45A2
100
AcDbProxyObject
 90
      499
 91
      503
 93
      412
310
41D51A1A58DAD95B90D409028333333333333E33F0000000000000F9010790141107004050150C41D405064090741402480A0350
1001
ACAD
1000
AcDbSavedByObjectVersion
1070
     0
  0
ACAD_PROXY_OBJECT
  5
45A8
102
{ACAD_REACTORS
330
45A2
102
}
330
45A2
100
AcDbProxyObject
 90
      499
 91
      503
 93
      420
310
4255DA5C99599C985B595059028333333333333E33F0000000000000F90107901411070040501600405405064090740C02480A0340
1001
ACAD
1000
AcDbSavedByObjectVersion
1070
     0
  0
ACAD_PROXY_OBJECT
  5
45B8
102
{ACAD_REACTORS
330
45A2
102
}
330
45A2
100
AcDbProxyObject
 90
      499
 91
      503
 93
      404
310
41560B54985E51940902404000000000000E03F0000000000000F9010740501907004050150841D405064090740C02480A1B40
1001
ACAD
1000
AcDbSavedByObjectVersion
1070
     0
  0
XRECORD
  5
53B6
102
{ACAD_REACTORS
330
53AC
102
}
330
53AC
100
AcDbXrecord
340
0
  0
XRECORD
  5
53B5
102
{ACAD_REACTORS
330
53AC
102
}
330
53AC
100
AcDbXrecord
 90
        0
  0
XRECORD
  5
53CF
102
{ACAD_REACTORS
330
53AC
102
}
330
53AC
100
AcDbXrecord
340
2948
  0
XRECORD
  5
53CC
102
{ACAD_REACTORS
330
53AC
102
}
330
53AC
100
AcDbXrecord
1000
DSTYLE
1002
{
1070
   171
 70
     2
1070
   143
 40
0.0394
1070
   274
 70
     2
1070
    41
 40
6.0
1070
   342
340
2AF4
1070
   271
 70
     1
1070
   278
 70
    46
1070
   341
340
2AF4
1070
   272
 70
     1
1070
    48
 40
0.1
1070
   283
 70
     1
1070
    47
 40
0.1
1070
   145
 40
1.0
1070
   340
340
10
1070
   140
 40
5.0
1070
   284
 70
     0
1002
}
  0
XRECORD
  5
53B7
102
{ACAD_REACTORS
330
53AC
102
}
330
53AC
100
AcDbXrecord
  1
{23698909-1D67-4744-B0E2-8DE11E3ED422}
  0
XRECORD
  5
53AF
102
{ACAD_REACTORS
330
53AC
102
}
330
53AC
100
AcDbXrecord
  1

  0
XRECORD
  5
53B4
102
{ACAD_REACTORS
330
53AC
102
}
330
53AC
100
AcDbXrecord
 90
        0
  0
XRECORD
  5
53B1
102
{ACAD_REACTORS
330
53AC
102
}
330
53AC
100
AcDbXrecord
340
2816
  0
XRECORD
  5
53B3
102
{ACAD_REACTORS
330
53AC
102
}
330
53AC
100
AcDbXrecord
 90
    10781
  0
XRECORD
  5
53D0
102
{ACAD_REACTORS
330
53AC
102
}
330
53AC
100
AcDbXrecord
340
2947
  0
XRECORD
  5
53B2
102
{ACAD_REACTORS
330
53AC
102
}
330
53AC
100
AcDbXrecord
340
2817
  0
XRECORD
  5
53B9
102
{ACAD_REACTORS
330
53AC
102
}
330
53AC
100
AcDbXrecord
 40
0.25
  0
XRECORD
  5
53BC
102
{ACAD_REACTORS
330
53AC
102
}
330
53AC
100
AcDbXrecord
340
0
  0
XRECORD
  5
53C2
102
{ACAD_REACTORS
330
53AC
102
}
330
53AC
100
AcDbXrecord
 10
0.0
 20
0.0
 30
0.0
  0
XRECORD
  5
53BE
102
{ACAD_REACTORS
330
53AC
102
}
330
53AC
100
AcDbXrecord
 10
0.0
 20
0.0
 30
0.0
  0
XRECORD
  5
53C1
102
{ACAD_REACTORS
330
53AC
102
}
330
53AC
100
AcDbXrecord
 10
0.0
 20
0.0
 30
0.0
  0
XRECORD
  5
53BF
102
{ACAD_REACTORS
330
53AC
102
}
330
53AC
100
AcDbXrecord
 10
0.0
 20
0.0
 30
0.0
  0
XRECORD
  5
53C0
102
{ACAD_REACTORS
330
53AC
102
}
330
53AC
100
AcDbXrecord
 10
0.0
 20
0.0
 30
0.0
  0
XRECORD
  5
53BD
102
{ACAD_REACTORS
330
53AC
102
}
330
53AC
100
AcDbXrecord
 10
0.0
 20
0.0
 30
0.0
  0
XRECORD
  5
53BA
102
{ACAD_REACTORS
330
53AC
102
}
330
53AC
100
AcDbXrecord
340
0
  0
XRECORD
  5
53BB
102
{ACAD_REACTORS
330
53AC
102
}
330
53AC
100
AcDbXrecord
 70
     0
  0
XRECORD
  5
53B0
102
{ACAD_REACTORS
330
53AC
102
}
330
53AC
100
AcDbXrecord
  1

  0
XRECORD
  5
53AD
102
{ACAD_REACTORS
330
53AC
102
}
330
53AC
100
AcDbXrecord
 90
        1
  0
XRECORD
  5
53AE
102
{ACAD_REACTORS
330
53AC
102
}
330
53AC
100
AcDbXrecord
 90
       70
  0
XRECORD
  5
53C5
102
{ACAD_REACTORS
330
53AC
102
}
330
53AC
100
AcDbXrecord
340
0
  0
XRECORD
  5
53CB
102
{ACAD_REACTORS
330
53AC
102
}
330
53AC
100
AcDbXrecord
 10
0.0
 20
0.0
 30
0.0
  0
XRECORD
  5
53C7
102
{ACAD_REACTORS
330
53AC
102
}
330
53AC
100
AcDbXrecord
 10
0.0
 20
0.0
 30
0.0
  0
XRECORD
  5
53CA
102
{ACAD_REACTORS
330
53AC
102
}
330
53AC
100
AcDbXrecord
 10
0.0
 20
0.0
 30
0.0
  0
XRECORD
  5
53C8
102
{ACAD_REACTORS
330
53AC
102
}
330
53AC
100
AcDbXrecord
 10
0.0
 20
0.0
 30
0.0
  0
XRECORD
  5
53C9
102
{ACAD_REACTORS
330
53AC
102
}
330
53AC
100
AcDbXrecord
 10
0.0
 20
0.0
 30
0.0
  0
XRECORD
  5
53C6
102
{ACAD_REACTORS
330
53AC
102
}
330
53AC
100
AcDbXrecord
 10
0.0
 20
0.0
 30
0.0
  0
XRECORD
  5
53C3
102
{ACAD_REACTORS
330
53AC
102
}
330
53AC
100
AcDbXrecord
340
0
  0
XRECORD
  5
53C4
102
{ACAD_REACTORS
330
53AC
102
}
330
53AC
100
AcDbXrecord
 70
     0
  0
XRECORD
  5
53B8
102
{ACAD_REACTORS
330
53AC
102
}
330
53AC
100
AcDbXrecord
  1
{1AC5B1A5-E283-43A1-835E-47A2524E1537}
  0
DICTIONARYVAR
  5
480F
102
{ACAD_REACTORS
330
480E
102
}
330
480E
100
DictionaryVariables
280
     0
  1
1:1
  0
DICTIONARYVAR
  5
4850
102
{ACAD_REACTORS
330
480E
102
}
330
480E
100
DictionaryVariables
280
     0
  1
Standard
  0
DICTIONARYVAR
  5
484F
102
{ACAD_REACTORS
330
480E
102
}
330
480E
100
DictionaryVariables
280
     0
  1
Standard
  0
DICTIONARYVAR
  5
53CD
102
{ACAD_REACTORS
330
480E
102
}
330
480E
100
DictionaryVariables
280
     0
  1
1
  0
DICTIONARYVAR
  5
53CE
102
{ACAD_REACTORS
330
480E
102
}
330
480E
100
DictionaryVariables
280
     0
  1
0
  0
DICTIONARYVAR
  5
4851
102
{ACAD_REACTORS
330
480E
102
}
330
480E
100
DictionaryVariables
280
     0
  1
0
  0
DICTIONARYVAR
  5
4852
102
{ACAD_REACTORS
330
480E
102
}
330
480E
100
DictionaryVariables
280
     0
  1
0
  0
DICTIONARY
  5
501D
102
{ACAD_REACTORS
330
501C
102
}
330
501C
100
AcDbDictionary
  0
DICTIONARY
  5
4623
102
{ACAD_REACTORS
330
4622
102
}
330
4622
100
AcDbDictionary
  0
DICTIONARY
  5
46AD
102
{ACAD_REACTORS
330
46AC
102
}
330
46AC
100
AcDbDictionary
  0
DICTIONARY
  5
46BB
102
{ACAD_REACTORS
330
46BA
102
}
330
46BA
100
AcDbDictionary
  0
DICTIONARY
  5
46C5
102
{ACAD_REACTORS
330
46C4
102
}
330
46C4
100
AcDbDictionary
  0
DICTIONARY
  5
46CD
102
{ACAD_REACTORS
330
46CC
102
}
330
46CC
100
AcDbDictionary
  0
DICTIONARY
  5
46E1
102
{ACAD_REACTORS
330
46E0
102
}
330
46E0
100
AcDbDictionary
  0
DICTIONARY
  5
46EB
102
{ACAD_REACTORS
330
46EA
102
}
330
46EA
100
AcDbDictionary
  0
DICTIONARY
  5
46F6
102
{ACAD_REACTORS
330
46F5
102
}
330
46F5
100
AcDbDictionary
  0
DICTIONARY
  5
46FA
102
{ACAD_REACTORS
330
46F9
102
}
330
46F9
100
AcDbDictionary
  0
DICTIONARY
  5
46FE
102
{ACAD_REACTORS
330
46FD
102
}
330
46FD
100
AcDbDictionary
  0
DICTIONARY
  5
47A1
102
{ACAD_REACTORS
330
47A0
102
}
330
47A0
100
AcDbDictionary
  0
DICTIONARY
  5
47DB
102
{ACAD_REACTORS
330
47DA
102
}
330
47DA
100
AcDbDictionary
  0
DICTIONARY
  5
4858
102
{ACAD_REACTORS
330
4857
102
}
330
4857
100
AcDbDictionary
  0
DICTIONARY
  5
485B
102
{ACAD_REACTORS
330
485A
102
}
330
485A
100
AcDbDictionary
  0
DICTIONARY
  5
485E
102
{ACAD_REACTORS
330
485D
102
}
330
485D
100
AcDbDictionary
  0
DICTIONARY
  5
4F65
102
{ACAD_REACTORS
330
4F64
102
}
330
4F64
100
AcDbDictionary
  0
DICTIONARY
  5
52D3
102
{ACAD_REACTORS
330
52D2
102
}
330
52D2
100
AcDbDictionary
  0
DICTIONARY
  5
52D7
102
{ACAD_REACTORS
330
52D6
102
}
330
52D6
100
AcDbDictionary
  0
DICTIONARY
  5
53D6
330
45DE
100
AcDbDictionary
280
     1
  3
ACAD_XREC_ROUNDTRIP
360
53D7
  0
DICTIONARY
  5
53D4
330
45DD
100
AcDbDictionary
280
     1
  3
ACAD_XREC_ROUNDTRIP
360
53D5
  0
DICTIONARY
  5
53D8
330
45DF
100
AcDbDictionary
280
     1
  3
ACAD_XREC_ROUNDTRIP
360
53D9
  0
XRECORD
  5
53D7
102
{ACAD_REACTORS
330
53D6
102
}
330
53D6
100
AcDbXrecord
102
MATERIAL
148
0.0
149
0.0
149
0.0
 93
        0
 94
      127
282
     0
 72
     1
 77
     1
171
     1
175
     1
179
     1
273
     0
  0
XRECORD
  5
53D5
102
{ACAD_REACTORS
330
53D4
102
}
330
53D4
100
AcDbXrecord
102
MATERIAL
148
0.0
149
0.0
149
0.0
 93
        0
 94
      127
282
     0
 72
     1
 77
     1
171
     1
175
     1
179
     1
273
     0
  0
XRECORD
  5
53D9
102
{ACAD_REACTORS
330
53D8
102
}
330
53D8
100
AcDbXrecord
102
MATERIAL
148
0.0
149
0.0
149
0.0
 93
        0
 94
      127
282
     0
 72
     1
 77
     1
171
     1
175
     1
179
     1
273
     0
  0
ENDSEC
  0
EOF
