  0
SECTION
  2
HEADER
  9
$ACADVER
  1
AC1014
  9
$ACADMAINTVER
 70
     9
  9
$DWGCODEPAGE
  3
ANSI_932
  9
$INSBASE
 10
0.0
 20
0.0
 30
0.0
  9
$EXTMIN
 10
-118.886935392832
 20
220.342015747747
 30
0.0
  9
$EXTMAX
 10
608.009790573173
 20
601.418077731302
 30
0.0
  9
$LIMMIN
 10
-360.747566795242
 20
4.457354754526
  9
$LIMMAX
 10
-162.153696144267
 20
287.675440264018
  9
$ORTHOMODE
 70
     0
  9
$REGENMODE
 70
     1
  9
$FILLMODE
 70
     1
  9
$QTEXTMODE
 70
     0
  9
$MIRRTEXT
 70
     1
  9
$DRAGMODE
 70
     2
  9
$LTSCALE
 40
1.0
  9
$OSMODE
 70
   935
  9
$ATTMODE
 70
     1
  9
$TEXTSIZE
 40
2.333873885063
  9
$TRACEWID
 40
1.0
  9
$TEXTSTYLE
  7
STANDARD
  9
$CLAYER
  8
外形線
  9
$CELTYPE
  6
BYLAYER
  9
$CECOLOR
 62
   256
  9
$CELTSCALE
 40
10.0
  9
$DELOBJ
 70
     1
  9
$DISPSILH
 70
     0
  9
$DIMSCALE
 40
1.0
  9
$DIMASZ
 40
6.0
  9
$DIMEXO
 40
0.625
  9
$DIMDLI
 40
3.75
  9
$DIMRND
 40
0.0
  9
$DIMDLE
 40
0.0
  9
$DIMEXE
 40
1.25
  9
$DIMTP
 40
0.1
  9
$DIMTM
 40
0.1
  9
$DIMTXT
 40
5.0
  9
$DIMCEN
 40
2.5
  9
$DIMTSZ
 40
0.0
  9
$DIMTOL
 70
     0
  9
$DIMLIM
 70
     0
  9
$DIMTIH
 70
     0
  9
$DIMTOH
 70
     0
  9
$DIMSE1
 70
     0
  9
$DIMSE2
 70
     0
  9
$DIMTAD
 70
     1
  9
$DIMZIN
 70
     8
  9
$DIMBLK
  1
OPEN30
  9
$DIMASO
 70
     1
  9
$DIMSHO
 70
     1
  9
$DIMPOST
  1

  9
$DIMAPOST
  1

  9
$DIMALT
 70
     0
  9
$DIMALTD
 70
     2
  9
$DIMALTF
 40
0.0394
  9
$DIMLFAC
 40
1.0
  9
$DIMTOFL
 70
     1
  9
$DIMTVP
 40
1.0
  9
$DIMTIX
 70
     0
  9
$DIMSOXD
 70
     0
  9
$DIMSAH
 70
     0
  9
$DIMBLK1
  1

  9
$DIMBLK2
  1

  9
$DIMSTYLE
  2
ISO-25
  9
$DIMCLRD
 70
     0
  9
$DIMCLRE
 70
     0
  9
$DIMCLRT
 70
     0
  9
$DIMTFAC
 40
1.0
  9
$DIMGAP
 40
0.625
  9
$DIMJUST
 70
     0
  9
$DIMSD1
 70
     0
  9
$DIMSD2
 70
     0
  9
$DIMTOLJ
 70
     1
  9
$DIMTZIN
 70
     0
  9
$DIMALTZ
 70
     0
  9
$DIMALTTZ
 70
     0
  9
$DIMFIT
 70
     3
  9
$DIMUPT
 70
     0
  9
$DIMUNIT
 70
     2
  9
$DIMDEC
 70
     1
  9
$DIMTDEC
 70
     1
  9
$DIMALTU
 70
     2
  9
$DIMALTTD
 70
     2
  9
$DIMTXSTY
  7
STANDARD
  9
$DIMAUNIT
 70
     0
  9
$LUNITS
 70
     2
  9
$LUPREC
 70
     4
  9
$SKETCHINC
 40
1.0
  9
$FILLETRAD
 40
6.5
  9
$AUNITS
 70
     0
  9
$AUPREC
 70
     0
  9
$MENU
  1
.
  9
$ELEVATION
 40
0.0
  9
$PELEVATION
 40
0.0
  9
$THICKNESS
 40
0.0
  9
$LIMCHECK
 70
     0
  9
$CHAMFERA
 40
10.0
  9
$CHAMFERB
 40
10.0
  9
$CHAMFERC
 40
20.0
  9
$CHAMFERD
 40
0.0
  9
$SKPOLY
 70
     0
  9
$TDCREATE
 40
2450576.597302431
  9
$TDUPDATE
 40
2457269.372844329
  9
$TDINDWG
 40
1.2897785069
  9
$TDUSRTIMER
 40
1.2897785069
  9
$USRTIMER
 70
     1
  9
$ANGBASE
 50
0.0
  9
$ANGDIR
 70
     0
  9
$PDMODE
 70
     0
  9
$PDSIZE
 40
0.0
  9
$PLINEWID
 40
0.0
  9
$COORDS
 70
     0
  9
$SPLFRAME
 70
     0
  9
$SPLINETYPE
 70
     6
  9
$SPLINESEGS
 70
     8
  9
$ATTDIA
 70
     0
  9
$ATTREQ
 70
     1
  9
$HANDLING
 70
     1
  9
$HANDSEED
  5
4F8A
  9
$SURFTAB1
 70
     6
  9
$SURFTAB2
 70
     6
  9
$SURFTYPE
 70
     6
  9
$SURFU
 70
     6
  9
$SURFV
 70
     6
  9
$UCSNAME
  2

  9
$UCSORG
 10
0.0
 20
0.0
 30
0.0
  9
$UCSXDIR
 10
1.0
 20
0.0
 30
0.0
  9
$UCSYDIR
 10
0.0
 20
1.0
 30
0.0
  9
$PUCSNAME
  2

  9
$PUCSORG
 10
0.0
 20
0.0
 30
0.0
  9
$PUCSXDIR
 10
1.0
 20
0.0
 30
0.0
  9
$PUCSYDIR
 10
0.0
 20
1.0
 30
0.0
  9
$USERI1
 70
     0
  9
$USERI2
 70
     0
  9
$USERI3
 70
     0
  9
$USERI4
 70
     0
  9
$USERI5
 70
     0
  9
$USERR1
 40
0.0
  9
$USERR2
 40
0.0
  9
$USERR3
 40
0.0
  9
$USERR4
 40
0.0
  9
$USERR5
 40
0.0
  9
$WORLDVIEW
 70
     1
  9
$SHADEDGE
 70
     3
  9
$SHADEDIF
 70
    70
  9
$TILEMODE
 70
     0
  9
$MAXACTVP
 70
    16
  9
$PINSBASE
 10
0.0
 20
0.0
 30
0.0
  9
$PLIMCHECK
 70
     0
  9
$PEXTMIN
 10
4.746305129083
 20
1.396645458131
 30
0.0
  9
$PEXTMAX
 10
404.746305129083
 20
281.396645458131
 30
0.0
  9
$PLIMMIN
 10
-7.733555908203
 20
-7.733559317589
  9
$PLIMMAX
 10
416.991674499512
 20
292.588849892616
  9
$UNITMODE
 70
     0
  9
$VISRETAIN
 70
     0
  9
$PLINEGEN
 70
     0
  9
$PSLTSCALE
 70
     1
  9
$TREEDEPTH
 70
  3020
  9
$PICKSTYLE
 70
     1
  9
$CMLSTYLE
  2
STANDARD
  9
$CMLJUST
 70
     0
  9
$CMLSCALE
 40
1.0
  9
$PROXYGRAPHICS
 70
     1
  9
$MEASUREMENT
 70
     1
  0
ENDSEC
  0
SECTION
  2
CLASSES
  0
CLASS
  1
ACDBDICTIONARYWDFLT
  2
AcDbDictionaryWithDefault
  3
ObjectDBX Classes
 90
        0
280
     0
281
     0
  0
CLASS
  1
ACDBPLACEHOLDER
  2
AcDbPlaceHolder
  3
ObjectDBX Classes
 90
        0
280
     0
281
     0
  0
CLASS
  1
LAYOUT
  2
AcDbLayout
  3
ObjectDBX Classes
 90
        0
280
     0
281
     0
  0
CLASS
  1
VISUALSTYLE
  2
AcDbVisualStyle
  3
ObjectDBX Classes
 90
     4095
280
     0
281
     0
  0
CLASS
  1
SCALE
  2
AcDbScale
  3
ObjectDBX Classes
 90
     1153
280
     0
281
     0
  0
CLASS
  1
MATERIAL
  2
AcDbMaterial
  3
ObjectDBX Classes
 90
     1153
280
     0
281
     0
  0
CLASS
  1
TABLESTYLE
  2
AcDbTableStyle
  3
ObjectDBX Classes
 90
     4095
280
     0
281
     0
  0
CLASS
  1
MLEADERSTYLE
  2
AcDbMLeaderStyle
  3
ACDB_MLEADERSTYLE_CLASS
 90
     4095
280
     0
281
     0
  0
CLASS
  1
SUN
  2
AcDbSun
  3
SCENEOE
 90
     1153
280
     0
281
     0
  0
CLASS
  1
DICTIONARYVAR
  2
AcDbDictionaryVar
  3
ObjectDBX Classes
 90
        0
280
     0
281
     0
  0
CLASS
  1
CELLSTYLEMAP
  2
AcDbCellStyleMap
  3
ObjectDBX Classes
 90
     1152
280
     0
281
     0
  0
CLASS
  1
XRECORD
  2
AcDbXrecord
  3
ObjectDBX Classes
 90
        0
280
     0
281
     0
  0
CLASS
  1
LWPOLYLINE
  2
AcDbPolyline
  3
ObjectDBX Classes
 90
        0
280
     0
281
     1
  0
CLASS
  1
HATCH
  2
AcDbHatch
  3
ObjectDBX Classes
 90
        0
280
     0
281
     1
  0
ENDSEC
  0
SECTION
  2
TABLES
  0
TABLE
  2
VPORT
  5
8
102
{ACAD_XDICTIONARY
360
4F82
102
}
330
0
100
AcDbSymbolTable
 70
     4
  0
VPORT
  5
403F
330
8
100
AcDbSymbolTableRecord
100
AcDbViewportTableRecord
  2
*ACTIVE
 70
     0
 10
0.0
 20
0.0
 11
1.0
 21
1.0
 12
244.561427590171
 22
410.880046739525
 13
0.0
 23
0.0
 14
1.0
 24
1.0
 15
0.0
 25
0.0
 16
0.0
 26
0.0
 36
1.0
 17
0.0
 27
0.0
 37
0.0
 40
403.123494882598
 41
1.839224629418
 42
50.0
 43
0.0
 44
0.0
 50
0.0
 51
0.0
 71
    16
 72
   100
 73
     1
 74
     0
 75
     0
 76
     0
 77
     0
 78
     0
  0
ENDTAB
  0
TABLE
  2
LTYPE
  5
5
330
0
100
AcDbSymbolTable
 70
     4
  0
LTYPE
  5
14
330
5
100
AcDbSymbolTableRecord
100
AcDbLinetypeTableRecord
  2
BYBLOCK
 70
     0
  3

 72
    65
 73
     0
 40
0.0
  0
LTYPE
  5
15
330
5
100
AcDbSymbolTableRecord
100
AcDbLinetypeTableRecord
  2
BYLAYER
 70
     0
  3

 72
    65
 73
     0
 40
0.0
  0
LTYPE
  5
16
330
5
100
AcDbSymbolTableRecord
100
AcDbLinetypeTableRecord
  2
CONTINUOUS
 70
     0
  3
Solid line
 72
    65
 73
     0
 40
0.0
  0
LTYPE
  5
1EC
330
5
100
AcDbSymbolTableRecord
100
AcDbLinetypeTableRecord
  2
CENTER
 70
     0
  3
____ _ ____ _ ____ _ ____ _ ____ _ ____ _ ____ 
 72
    65
 73
     4
 40
2.0
 49
1.25
 74
     0
 49
-0.25
 74
     0
 49
0.25
 74
     0
 49
-0.25
 74
     0
  0
LTYPE
  5
1ED
330
5
100
AcDbSymbolTableRecord
100
AcDbLinetypeTableRecord
  2
DASHED
 70
     0
  3
__ __ __ __ __ __ __ __ __ __ __ __ __ __ __ __
 72
    65
 73
     2
 40
0.75
 49
0.5
 74
     0
 49
-0.25
 74
     0
  0
LTYPE
  5
2B1F
330
5
100
AcDbSymbolTableRecord
100
AcDbLinetypeTableRecord
  2
DASHDOT
 70
     0
  3
一点鎖線
 72
    65
 73
     4
 40
25.6
 49
20.0
 74
     0
 49
-2.0
 74
     0
 49
1.6
 74
     0
 49
-2.0
 74
     0
  0
ENDTAB
  0
TABLE
  2
LAYER
  5
2
102
{ACAD_XDICTIONARY
360
29EA
102
}
330
0
100
AcDbSymbolTable
 70
    19
  0
LAYER
  5
F
330
2
100
AcDbSymbolTableRecord
100
AcDbLayerTableRecord
  2
0
 70
     0
 62
     7
  6
CONTINUOUS
  0
LAYER
  5
61
330
2
100
AcDbSymbolTableRecord
100
AcDbLayerTableRecord
  2
図枠太線
 70
     0
 62
   251
  6
CONTINUOUS
  0
LAYER
  5
62
330
2
100
AcDbSymbolTableRecord
100
AcDbLayerTableRecord
  2
図枠細線
 70
     0
 62
   252
  6
CONTINUOUS
  0
LAYER
  5
63
330
2
100
AcDbSymbolTableRecord
100
AcDbLayerTableRecord
  2
図枠ロゴマーク
 70
     0
 62
   253
  6
CONTINUOUS
  0
LAYER
  5
1EF
330
2
100
AcDbSymbolTableRecord
100
AcDbLayerTableRecord
  2
外形線
 70
     0
 62
     7
  6
CONTINUOUS
  0
LAYER
  5
1F0
330
2
100
AcDbSymbolTableRecord
100
AcDbLayerTableRecord
  2
寸法線
 70
     0
 62
     1
  6
CONTINUOUS
  0
LAYER
  5
1F1
330
2
100
AcDbSymbolTableRecord
100
AcDbLayerTableRecord
  2
中心線
 70
     0
 62
     4
  6
CENTER
  0
LAYER
  5
1F4
330
2
100
AcDbSymbolTableRecord
100
AcDbLayerTableRecord
  2
DEFPOINTS
 70
     0
 62
     7
  6
CONTINUOUS
  0
LAYER
  5
2AA2
330
2
100
AcDbSymbolTableRecord
100
AcDbLayerTableRecord
  2
下書線
 70
     0
 62
     2
  6
CONTINUOUS
  0
LAYER
  5
2AA3
330
2
100
AcDbSymbolTableRecord
100
AcDbLayerTableRecord
  2
隠れ線
 70
     0
 62
     3
  6
DASHED
  0
LAYER
  5
2AA4
330
2
100
AcDbSymbolTableRecord
100
AcDbLayerTableRecord
  2
細線
 70
     0
 62
     6
  6
CONTINUOUS
  0
LAYER
  5
2AA5
330
2
100
AcDbSymbolTableRecord
100
AcDbLayerTableRecord
  2
太線
 70
     0
 62
   190
  6
CONTINUOUS
  0
LAYER
  5
2B20
330
2
100
AcDbSymbolTableRecord
100
AcDbLayerTableRecord
  2
LAY-1
 70
     0
 62
     7
  6
CONTINUOUS
  0
LAYER
  5
2B21
330
2
100
AcDbSymbolTableRecord
100
AcDbLayerTableRecord
  2
LAY-2
 70
     0
 62
     7
  6
CONTINUOUS
  0
LAYER
  5
2B22
330
2
100
AcDbSymbolTableRecord
100
AcDbLayerTableRecord
  2
LAY-5
 70
     0
 62
     7
  6
CONTINUOUS
  0
LAYER
  5
2B23
330
2
100
AcDbSymbolTableRecord
100
AcDbLayerTableRecord
  2
LAY-6
 70
     0
 62
     7
  6
CONTINUOUS
  0
LAYER
  5
315D
330
2
100
AcDbSymbolTableRecord
100
AcDbLayerTableRecord
  2
1
 70
     0
 62
     7
  6
CONTINUOUS
  0
LAYER
  5
315E
330
2
100
AcDbSymbolTableRecord
100
AcDbLayerTableRecord
  2
TOMSZ
 70
     0
 62
     7
  6
CONTINUOUS
  0
LAYER
  5
315F
330
2
100
AcDbSymbolTableRecord
100
AcDbLayerTableRecord
  2
SORK
 70
     0
 62
     7
  6
CONTINUOUS
  0
ENDTAB
  0
TABLE
  2
STYLE
  5
3
330
0
100
AcDbSymbolTable
 70
     4
  0
STYLE
  5
10
330
3
100
AcDbSymbolTableRecord
100
AcDbTextStyleTableRecord
  2
STANDARD
 70
     0
 40
0.0
 41
1.0
 50
0.0
 71
     0
 42
2.333873885063
  3
ISOCP
  4
bigfont.shx
  0
STYLE
  5
64
330
3
100
AcDbSymbolTableRecord
100
AcDbTextStyleTableRecord
  2
EXCADSTD
 70
     0
 40
0.0
 41
1.0
 50
0.0
 71
     0
 42
0.2
  3
monotxt
  4
bigfont
  0
STYLE
  5
3160
330
3
100
AcDbSymbolTableRecord
100
AcDbTextStyleTableRecord
  2
TXTR3
 70
     0
 40
0.0
 41
1.0
 50
0.0
 71
     0
 42
9.0
  3
romans
  4

  0
STYLE
  5
3161
330
3
100
AcDbSymbolTableRecord
100
AcDbTextStyleTableRecord
  2
ROMANS
 70
     0
 40
0.0
 41
0.7
 50
0.0
 71
     0
 42
30.281113161952
  3
romans
  4

  0
ENDTAB
  0
TABLE
  2
VIEW
  5
6
330
0
100
AcDbSymbolTable
 70
     0
  0
ENDTAB
  0
TABLE
  2
UCS
  5
7
330
0
100
AcDbSymbolTable
 70
     0
  0
ENDTAB
  0
TABLE
  2
APPID
  5
9
330
0
100
AcDbSymbolTable
 70
     3
  0
APPID
  5
11
330
9
100
AcDbSymbolTableRecord
100
AcDbRegAppTableRecord
  2
ACAD
 70
     0
  0
APPID
  5
4104
330
9
100
AcDbSymbolTableRecord
100
AcDbRegAppTableRecord
  2
ACAD_MLEADERVER
 70
     0
  0
APPID
  5
4115
330
9
100
AcDbSymbolTableRecord
100
AcDbRegAppTableRecord
  2
ACADANNOTATIVE
 70
     0
  0
ENDTAB
  0
TABLE
  2
DIMSTYLE
  5
A
330
0
100
AcDbSymbolTable
 70
     3
  0
DIMSTYLE
105
1D
330
A
100
AcDbSymbolTableRecord
100
AcDbDimStyleTableRecord
  2
STANDARD
 70
     0
  3

  4

  5

  6

  7

 40
1.0
 41
0.18
 42
0.0625
 43
0.38
 44
0.18
 45
0.0
 46
0.0
 47
0.0
 48
0.0
140
0.18
141
0.09
142
0.0
143
25.4
144
1.0
145
0.0
146
1.0
147
0.09
 71
     0
 72
     0
 73
     1
 74
     1
 75
     0
 76
     0
 77
     0
 78
     0
170
     0
171
     2
172
     0
173
     0
174
     0
175
     0
176
     0
177
     0
178
     0
270
     2
271
     4
272
     4
273
     2
274
     2
340
10
275
     0
280
     0
281
     0
282
     0
283
     1
284
     0
285
     0
286
     0
287
     3
288
     0
  0
DIMSTYLE
105
24
102
{ACAD_REACTORS
330
3002
330
300F
330
3082
330
3099
330
30D2
330
358B
330
369E
330
3E9F
102
}
330
A
100
AcDbSymbolTableRecord
100
AcDbDimStyleTableRecord
  2
ISO-25
 70
     0
  3

  4

  5

  6

  7

 40
1.0
 41
2.5
 42
0.625
 43
3.75
 44
1.25
 45
0.0
 46
0.0
 47
0.0
 48
0.0
140
2.5
141
2.5
142
0.0
143
0.0394
144
1.0
145
1.0
146
1.0
147
0.625
 71
     0
 72
     0
 73
     1
 74
     0
 75
     0
 76
     0
 77
     1
 78
     8
170
     0
171
     2
172
     1
173
     0
174
     0
175
     0
176
     0
177
     0
178
     0
270
     2
271
     4
272
     4
273
     2
274
     2
340
10
275
     0
280
     0
281
     0
282
     0
283
     1
284
     0
285
     0
286
     0
287
     3
288
     0
  0
DIMSTYLE
105
3162
330
A
100
AcDbSymbolTableRecord
100
AcDbDimStyleTableRecord
  2
NORMAL
 70
     0
  3

  4

  5

  6

  7

 40
1.0
 41
8.0
 42
1.0
 43
0.38
 44
1.0
 45
0.0
 46
0.0
 47
0.0
 48
0.0
140
10.0
141
0.0
142
0.0
143
25.4
144
1.0
145
0.0
146
1.0
147
3.0
 71
     0
 72
     0
 73
     0
 74
     0
 75
     0
 76
     0
 77
     1
 78
     8
170
     0
171
     2
172
     1
173
     0
174
     0
175
     0
176
     7
177
     7
178
     4
270
     2
271
     1
272
     1
273
     2
274
     2
340
3161
275
     0
280
     0
281
     0
282
     0
283
     1
284
     8
285
     8
286
     8
287
     5
288
     0
  0
ENDTAB
  0
TABLE
  2
BLOCK_RECORD
  5
1
330
0
100
AcDbSymbolTable
 70
    18
  0
BLOCK_RECORD
  5
1A
330
1
100
AcDbSymbolTableRecord
100
AcDbBlockTableRecord
  2
*MODEL_SPACE
  0
BLOCK_RECORD
  5
28FB
330
1
100
AcDbSymbolTableRecord
100
AcDbBlockTableRecord
  2
*PAPER_SPACE
  0
BLOCK_RECORD
  5
65
330
1
100
AcDbSymbolTableRecord
100
AcDbBlockTableRecord
  2
A$C3392
  0
BLOCK_RECORD
  5
29BF
330
1
100
AcDbSymbolTableRecord
100
AcDbBlockTableRecord
  2
A4横用_タイトル
1001
ACAD
1000
DesignCenter Data
1002
{
1070
     1
1070
     4
1002
}
  0
BLOCK_RECORD
  5
29F4
330
1
100
AcDbSymbolTableRecord
100
AcDbBlockTableRecord
  2
A4縦用_タイトル
1001
ACAD
1000
DesignCenter Data
1002
{
1070
     1
1070
     4
1002
}
  0
BLOCK_RECORD
  5
2A32
330
1
100
AcDbSymbolTableRecord
100
AcDbBlockTableRecord
  2
A3横用_タイトル
1001
ACAD
1000
DesignCenter Data
1002
{
1070
     1
1070
     4
1002
}
  0
BLOCK_RECORD
  5
2A6C
330
1
100
AcDbSymbolTableRecord
100
AcDbBlockTableRecord
  2
A3縦用_タイトル
1001
ACAD
1000
DesignCenter Data
1002
{
1070
     1
1070
     4
1002
}
  0
BLOCK_RECORD
  5
2AF4
330
1
100
AcDbSymbolTableRecord
100
AcDbBlockTableRecord
  2
_OPEN30
  0
BLOCK_RECORD
  5
3003
330
1
100
AcDbSymbolTableRecord
100
AcDbBlockTableRecord
  2
*D6
  0
BLOCK_RECORD
  5
3010
330
1
100
AcDbSymbolTableRecord
100
AcDbBlockTableRecord
  2
*D7
  0
BLOCK_RECORD
  5
3083
330
1
100
AcDbSymbolTableRecord
100
AcDbBlockTableRecord
  2
*D8
  0
BLOCK_RECORD
  5
309A
330
1
100
AcDbSymbolTableRecord
100
AcDbBlockTableRecord
  2
*D9
  0
BLOCK_RECORD
  5
30D3
330
1
100
AcDbSymbolTableRecord
100
AcDbBlockTableRecord
  2
*D10
  0
BLOCK_RECORD
  5
3494
330
1
100
AcDbSymbolTableRecord
100
AcDbBlockTableRecord
  2
A$C5338004D
  0
BLOCK_RECORD
  5
358C
330
1
100
AcDbSymbolTableRecord
100
AcDbBlockTableRecord
  2
*D13
  0
BLOCK_RECORD
  5
369F
330
1
100
AcDbSymbolTableRecord
100
AcDbBlockTableRecord
  2
*D15
  0
BLOCK_RECORD
  5
380B
330
1
100
AcDbSymbolTableRecord
100
AcDbBlockTableRecord
  2
A$C6CF77348
  0
BLOCK_RECORD
  5
3EA0
330
1
100
AcDbSymbolTableRecord
100
AcDbBlockTableRecord
  2
*D17
  0
ENDTAB
  0
ENDSEC
  0
SECTION
  2
BLOCKS
  0
BLOCK
  5
1B
330
1A
100
AcDbEntity
  8
0
100
AcDbBlockBegin
  2
*MODEL_SPACE
 70
     0
 10
0.0
 20
0.0
 30
0.0
  3
*MODEL_SPACE
  1

  0
ENDBLK
  5
1C
330
1A
100
AcDbEntity
  8
0
100
AcDbBlockEnd
  0
BLOCK
  5
28FD
330
28FB
100
AcDbEntity
 67
     1
  8
0
 48
10.0
100
AcDbBlockBegin
  2
*PAPER_SPACE
 70
     0
 10
0.0
 20
0.0
 30
0.0
  3
*PAPER_SPACE
  1

  0
ENDBLK
  5
28FE
330
28FB
100
AcDbEntity
 67
     1
  8
0
 48
10.0
100
AcDbBlockEnd
  0
BLOCK
  5
93
330
65
100
AcDbEntity
  8
0
100
AcDbBlockBegin
  2
A$C3392
 70
     0
 10
0.0
 20
0.0
 30
0.0
  3
A$C3392
  1

  0
LINE
  5
66
330
65
100
AcDbEntity
  8
図枠太線
  6
CONTINUOUS
100
AcDbLine
 10
211.858584505185
 20
30.927375675439
 30
0.0
 11
211.858584505185
 21
0.927375675439
 31
0.0
  0
LINE
  5
67
330
65
100
AcDbEntity
  8
図枠細線
  6
CONTINUOUS
100
AcDbLine
 10
231.858592505185
 20
15.927377675439
 30
0.0
 11
287.858592505185
 21
15.927375675439
 31
0.0
  0
LINE
  5
68
330
65
100
AcDbEntity
  8
図枠細線
  6
CONTINUOUS
100
AcDbLine
 10
211.858592505185
 20
15.927377675439
 30
0.0
 11
231.858592505185
 21
15.927377675439
 31
0.0
  0
LINE
  5
69
330
65
100
AcDbEntity
  8
図枠太線
  6
CONTINUOUS
 62
   251
100
AcDbLine
 10
1.858584505185
 20
0.927375675439
 30
0.0
 11
1.858584505185
 21
275.927375675439
 31
0.0
  0
TEXT
  5
6A
330
65
100
AcDbEntity
  8
図枠細線
  6
CONTINUOUS
 62
   252
100
AcDbText
 10
351.358592505185
 20
28.427377675439
 30
0.0
 40
2.0
  1
ＴＩＴＬＥ
 41
0.903614457831
  7
EXCADSTD
 72
     5
 11
361.358592505185
 21
28.427377675439
 31
0.0
100
AcDbText
  0
TEXT
  5
6B
330
65
100
AcDbEntity
  8
図枠細線
  6
CONTINUOUS
 62
   252
100
AcDbText
 10
345.358592505185
 20
28.427377675439
 30
0.0
 40
2.0
  1
名称
 41
1.171875
  7
EXCADSTD
 72
     5
 11
350.358592505185
 21
28.427377675439
 31
0.0
100
AcDbText
  0
TEXT
  5
6C
330
65
100
AcDbEntity
  8
図枠細線
  6
CONTINUOUS
 62
   252
100
AcDbText
 10
274.358592505185
 20
25.927377675439
 30
0.0
 40
2.0
  1
ＤＲＡＷＮ
 41
0.882352941176
  7
EXCADSTD
 72
     5
 11
284.358592505185
 21
25.927377675439
 31
0.0
100
AcDbText
  0
TEXT
  5
6D
330
65
100
AcDbEntity
  8
図枠細線
  6
CONTINUOUS
 62
   252
100
AcDbText
 10
260.358592505185
 20
25.927377675439
 30
0.0
 40
2.0
  1
ＤＥＳＩＧＮＥＤ
 41
0.713043472041
  7
EXCADSTD
 72
     5
 11
273.478592390744
 21
25.927377675439
 31
0.0
100
AcDbText
  0
TEXT
  5
6E
330
65
100
AcDbEntity
  8
図枠細線
  6
CONTINUOUS
 62
   252
100
AcDbText
 10
246.358592505185
 20
25.927377675439
 30
0.0
 40
2.0
  1
ＣＨＥＣＫＥＤ
 41
0.831249989569
  7
EXCADSTD
 72
     5
 11
259.658592338292
 21
25.927377675439
 31
0.0
100
AcDbText
  0
TEXT
  5
6F
330
65
100
AcDbEntity
  8
図枠細線
  6
CONTINUOUS
 62
   252
100
AcDbText
 10
274.358592505185
 20
28.427377675439
 30
0.0
 40
2.0
  1
製図
 41
1.209677419355
  7
EXCADSTD
 72
     5
 11
279.358592505185
 21
28.427377675439
 31
0.0
100
AcDbText
  0
TEXT
  5
70
330
65
100
AcDbEntity
  8
図枠細線
  6
CONTINUOUS
 62
   252
100
AcDbText
 10
260.358592505185
 20
28.427377675439
 30
0.0
 40
2.0
  1
設計
 41
1.171875
  7
EXCADSTD
 72
     5
 11
265.358592505185
 21
28.427377675439
 31
0.0
100
AcDbText
  0
TEXT
  5
71
330
65
100
AcDbEntity
  8
図枠細線
  6
CONTINUOUS
 62
   252
100
AcDbText
 10
246.358592505185
 20
28.427377675439
 30
0.0
 40
2.0
  1
検図
 41
1.209677419355
  7
EXCADSTD
 72
     5
 11
251.358592505185
 21
28.427377675439
 31
0.0
100
AcDbText
  0
TEXT
  5
72
330
65
100
AcDbEntity
  8
図枠細線
  6
CONTINUOUS
 62
   252
100
AcDbText
 10
232.358592505185
 20
25.927377675439
 30
0.0
 40
2.0
  1
ＡＰＰＲＯＶＥＤ
 41
0.695652184279
  7
EXCADSTD
 72
     5
 11
245.15859269592
 21
25.927377675439
 31
0.0
100
AcDbText
  0
TEXT
  5
73
330
65
100
AcDbEntity
  8
図枠細線
  6
CONTINUOUS
 62
   252
100
AcDbText
 10
232.358592505185
 20
28.427377675439
 30
0.0
 40
2.0
  1
承認
 41
1.171875
  7
EXCADSTD
 72
     5
 11
237.358592505185
 21
28.427377675439
 31
0.0
100
AcDbText
  0
TEXT
  5
74
330
65
100
AcDbEntity
  8
図枠細線
  6
CONTINUOUS
 62
   252
100
AcDbText
 10
290.069888505185
 20
2.574868675439
 30
0.0
 40
3.5
  1
ＴＯＷＡ　ＳＥＩＤＥＮ　ＩＮＤＵＳＴＲＩＡＬ　ＣＯ．，ＬＴＤ．
 41
0.414568012377
  7
EXCADSTD
 72
     5
 11
342.692388209546
 21
2.574868675439
 31
0.0
100
AcDbText
  0
TEXT
  5
75
330
65
100
AcDbEntity
  8
図枠ロゴマーク
  6
CONTINUOUS
 62
   253
100
AcDbText
 10
290.107348505185
 20
7.519769675439
 30
0.0
 40
7.0
  1
東和制電工業株式会社
 41
0.639204545455
  7
EXCADSTD
 72
     5
 11
342.607348505185
 21
7.519769675439
 31
0.0
100
AcDbText
  0
TEXT
  5
76
330
65
100
AcDbEntity
  8
図枠細線
  6
CONTINUOUS
 62
   252
100
AcDbText
 10
232.499705505185
 20
5.759088675439
 30
0.0
 40
2.0
  1
ＰＲＯＪＥＣＴＩＯＮ
 41
0.754285710199
  7
EXCADSTD
 72
     5
 11
250.099705409817
 21
5.759088675439
 31
0.0
100
AcDbText
  0
TEXT
  5
77
330
65
100
AcDbEntity
  8
図枠細線
  6
CONTINUOUS
 62
   252
100
AcDbText
 10
232.574629505185
 20
8.681077675439
 30
0.0
 40
2.0
  1
ＴＨＩＲＤ　ＡＮＧＬＥ
 41
0.691099486738
  7
EXCADSTD
 72
     5
 11
250.174629767445
 21
8.681077675439
 31
0.0
100
AcDbText
  0
TEXT
  5
78
330
65
100
AcDbEntity
  8
図枠細線
  6
CONTINUOUS
 62
   252
100
AcDbText
 10
256.823999505185
 20
13.427377675439
 30
0.0
 40
2.0
  1
ＳＣＡＬＥ
 41
0.903614457831
  7
EXCADSTD
 72
     5
 11
266.823999505185
 21
13.427377675439
 31
0.0
100
AcDbText
  0
TEXT
  5
79
330
65
100
AcDbEntity
  8
図枠細線
  6
CONTINUOUS
 62
   252
100
AcDbText
 10
274.858592505185
 20
13.427377675439
 30
0.0
 40
2.0
  1
ＤＡＴＥ
 41
0.923076923077
  7
EXCADSTD
 72
     5
 11
282.858592505185
 21
13.427377675439
 31
0.0
100
AcDbText
  0
TEXT
  5
7A
330
65
100
AcDbEntity
  8
図枠細線
  6
CONTINUOUS
 62
   252
100
AcDbText
 10
356.358592505185
 20
13.427377675439
 30
0.0
 40
2.0
  1
ＤＲＧ．ＮＯ．
 41
0.9375
  7
EXCADSTD
 72
     5
 11
370.358592505185
 21
13.427377675439
 31
0.0
100
AcDbText
  0
TEXT
  5
7B
330
65
100
AcDbEntity
  8
図枠細線
  6
CONTINUOUS
 62
   252
100
AcDbText
 10
345.358592505185
 20
13.427377675439
 30
0.0
 40
2.0
  1
図面番号
 41
1.102941176471
  7
EXCADSTD
 72
     5
 11
355.358592505185
 21
13.427377675439
 31
0.0
100
AcDbText
  0
TEXT
  5
7C
330
65
100
AcDbEntity
  8
図枠細線
  6
CONTINUOUS
 62
   252
100
AcDbText
 10
269.358592505185
 20
13.427377675439
 30
0.0
 40
2.0
  1
日付
 41
1.171875
  7
EXCADSTD
 72
     5
 11
274.358592505185
 21
13.427377675439
 31
0.0
100
AcDbText
  0
TEXT
  5
7D
330
65
100
AcDbEntity
  8
図枠細線
  6
CONTINUOUS
 62
   252
100
AcDbText
 10
251.451512505185
 20
13.427377675439
 30
0.0
 40
2.0
  1
尺度
 41
1.171875
  7
EXCADSTD
 72
     5
 11
256.451512505185
 21
13.427377675439
 31
0.0
100
AcDbText
  0
TEXT
  5
7E
330
65
100
AcDbEntity
  8
図枠細線
  6
CONTINUOUS
 62
   252
100
AcDbText
 10
232.358592505185
 20
13.427377675439
 30
0.0
 40
2.0
  1
第三角法
 41
1.102941176471
  7
EXCADSTD
 72
     5
 11
242.358592505185
 21
13.427377675439
 31
0.0
100
AcDbText
  0
TEXT
  5
7F
330
65
100
AcDbEntity
  8
図枠細線
  6
CONTINUOUS
 62
   252
100
AcDbText
 10
212.358592505185
 20
28.427377675439
 30
0.0
 40
2.0
  1
ＮＯＴＥ
 41
0.923076923077
  7
EXCADSTD
 72
     5
 11
220.358592505185
 21
28.427377675439
 31
0.0
100
AcDbText
  0
LINE
  5
80
330
65
100
AcDbEntity
  8
図枠細線
  6
CONTINUOUS
 62
   252
100
AcDbLine
 10
287.858592505185
 20
23.427375675439
 30
0.0
 11
344.858592505185
 21
23.427375675439
 31
0.0
  0
LINE
  5
81
330
65
100
AcDbEntity
  8
図枠太線
  6
CONTINUOUS
 62
   251
100
AcDbLine
 10
287.858584505185
 20
15.927375675439
 30
0.0
 11
344.858592505185
 21
15.927375675439
 31
0.0
  0
LINE
  5
82
330
65
100
AcDbEntity
  8
図枠細線
  6
CONTINUOUS
 62
   252
100
AcDbLine
 10
344.858592505185
 20
15.927375675439
 30
0.0
 11
401.858584505185
 21
15.927375675439
 31
0.0
  0
LINE
  5
83
330
65
100
AcDbEntity
  8
図枠太線
  6
CONTINUOUS
 62
   251
100
AcDbLine
 10
344.858592505185
 20
0.927377675439
 30
0.0
 11
344.858592505185
 21
30.927375675439
 31
0.0
  0
LINE
  5
84
330
65
100
AcDbEntity
  8
図枠太線
  6
CONTINUOUS
 62
   251
100
AcDbLine
 10
287.858592505185
 20
0.927377675439
 30
0.0
 11
287.858592505185
 21
30.927375675439
 31
0.0
  0
LINE
  5
85
330
65
100
AcDbEntity
  8
図枠細線
  6
CONTINUOUS
 62
   252
100
AcDbLine
 10
268.858592505185
 20
0.927377675439
 30
0.0
 11
268.858592505185
 21
15.927375675439
 31
0.0
  0
LINE
  5
86
330
65
100
AcDbEntity
  8
図枠細線
  6
CONTINUOUS
 62
   252
100
AcDbLine
 10
250.858592505185
 20
0.927377675439
 30
0.0
 11
250.858592505185
 21
15.927375675439
 31
0.0
  0
LINE
  5
87
330
65
100
AcDbEntity
  8
図枠細線
  6
CONTINUOUS
 62
   252
100
AcDbLine
 10
273.858592505185
 20
30.927375675439
 30
0.0
 11
273.858592505185
 21
15.927375675439
 31
0.0
  0
LINE
  5
88
330
65
100
AcDbEntity
  8
図枠細線
  6
CONTINUOUS
 62
   252
100
AcDbLine
 10
259.858592505185
 20
30.927375675439
 30
0.0
 11
259.858592505185
 21
15.927375675439
 31
0.0
  0
LINE
  5
89
330
65
100
AcDbEntity
  8
図枠細線
  6
CONTINUOUS
 62
   252
100
AcDbLine
 10
245.858592505185
 20
30.927375675439
 30
0.0
 11
245.858592505185
 21
15.927375675439
 31
0.0
  0
LINE
  5
8A
330
65
100
AcDbEntity
  8
図枠太線
  6
CONTINUOUS
 62
   251
100
AcDbLine
 10
231.858592505185
 20
0.927377675439
 30
0.0
 11
231.858592505185
 21
30.927375675439
 31
0.0
  0
LINE
  5
8B
330
65
100
AcDbEntity
  8
図枠細線
  6
CONTINUOUS
 62
   252
100
AcDbLine
 10
211.858592505185
 20
25.927375675439
 30
0.0
 11
231.858592505185
 21
25.927375675439
 31
0.0
  0
LINE
  5
8C
330
65
100
AcDbEntity
  8
図枠細線
  6
CONTINUOUS
 62
   252
100
AcDbLine
 10
211.858592505185
 20
20.927375675439
 30
0.0
 11
231.858592505185
 21
20.927375675439
 31
0.0
  0
LINE
  5
8D
330
65
100
AcDbEntity
  8
図枠細線
  6
CONTINUOUS
 62
   252
100
AcDbLine
 10
211.858592505185
 20
10.927375675439
 30
0.0
 11
231.858592505185
 21
10.927375675439
 31
0.0
  0
LINE
  5
8E
330
65
100
AcDbEntity
  8
図枠細線
  6
CONTINUOUS
 62
   252
100
AcDbLine
 10
211.858592505185
 20
5.927377675439
 30
0.0
 11
231.858592505185
 21
5.927377675439
 31
0.0
  0
LINE
  5
8F
330
65
100
AcDbEntity
  8
図枠太線
  6
CONTINUOUS
 62
   251
100
AcDbLine
 10
211.858592505185
 20
30.927375675439
 30
0.0
 11
401.858584505185
 21
30.927375675439
 31
0.0
  0
LINE
  5
90
330
65
100
AcDbEntity
  8
図枠太線
  6
CONTINUOUS
 62
   251
100
AcDbLine
 10
1.858584505185
 20
275.927375675439
 30
0.0
 11
401.858584505185
 21
275.927375675439
 31
0.0
  0
LINE
  5
91
330
65
100
AcDbEntity
  8
図枠太線
  6
CONTINUOUS
 62
   251
100
AcDbLine
 10
401.858584505185
 20
0.927375675439
 30
0.0
 11
401.858584505185
 21
275.927375675439
 31
0.0
  0
LINE
  5
92
330
65
100
AcDbEntity
  8
図枠太線
  6
CONTINUOUS
 62
   251
100
AcDbLine
 10
1.858584505185
 20
0.927375675439
 30
0.0
 11
401.858584505185
 21
0.927375675439
 31
0.0
  0
ENDBLK
  5
94
330
65
100
AcDbEntity
  8
0
100
AcDbBlockEnd
  0
BLOCK
  5
29C0
330
29BF
100
AcDbEntity
  8
0
100
AcDbBlockBegin
  2
A4横用_タイトル
 70
     0
 10
0.0
 20
0.0
 30
0.0
  3
A4横用_タイトル
  1

  0
LINE
  5
29C1
330
29BF
100
AcDbEntity
  8
図枠細線
  6
CONTINUOUS
100
AcDbLine
 10
75.061011071051
 20
16.806607253358
 30
0.0
 11
144.061011071051
 21
16.806604789072
 31
0.0
  0
LINE
  5
29C2
330
29BF
100
AcDbEntity
  8
図枠細線
  6
CONTINUOUS
 62
   252
100
AcDbLine
 10
4.061011071051
 20
11.806606253358
 30
0.0
 11
75.061011071051
 21
11.806606253358
 31
0.0
  0
LINE
  5
29C3
330
29BF
100
AcDbEntity
  8
図枠細線
  6
CONTINUOUS
 62
   252
100
AcDbLine
 10
4.061011071051
 20
21.806606253358
 30
0.0
 11
75.061011071051
 21
21.806606253358
 31
0.0
  0
LINE
  5
29C4
330
29BF
100
AcDbEntity
  8
図枠細線
  6
CONTINUOUS
 62
   252
100
AcDbLine
 10
4.061011071051
 20
26.806606253358
 30
0.0
 11
75.061011071051
 21
26.806606253358
 31
0.0
  0
LINE
  5
29C5
330
29BF
100
AcDbEntity
  8
図枠細線
  6
CONTINUOUS
100
AcDbLine
 10
4.061011071051
 20
16.806608253358
 30
0.0
 11
75.061011071051
 21
16.806608253358
 31
0.0
  0
TEXT
  5
29C6
330
29BF
100
AcDbEntity
  8
図枠細線
  6
CONTINUOUS
 62
   252
100
AcDbText
 10
76.405475827713
 20
9.560308253358
 30
0.0
 40
2.0
  1
ＴＨＩＲＤ　ＡＮＧＬＥ
 41
0.691099486738
  7
EXCADSTD
 72
     5
 11
94.005476089973
 21
9.560308253358
 31
0.0
100
AcDbText
  0
TEXT
  5
29C7
330
29BF
100
AcDbEntity
  8
図枠細線
  6
CONTINUOUS
 62
   252
100
AcDbText
 10
76.705775880921
 20
14.306608253358
 30
0.0
 40
2.0
  1
第三角法
 41
1.102941176471
  7
EXCADSTD
 72
     5
 11
86.705775880921
 21
14.306608253358
 31
0.0
100
AcDbText
  0
TEXT
  5
29C8
330
29BF
100
AcDbEntity
  8
図枠細線
  6
CONTINUOUS
 62
   252
100
AcDbText
 10
76.705775880921
 20
26.806608253358
 30
0.0
 40
2.0
  1
ＡＰＰＲＯＶＥＤ
 41
0.695652184279
  7
EXCADSTD
 72
     5
 11
89.505776071656
 21
26.806608253358
 31
0.0
100
AcDbText
  0
TEXT
  5
29C9
330
29BF
100
AcDbEntity
  8
図枠細線
  6
CONTINUOUS
 62
   252
100
AcDbText
 10
76.705775880921
 20
29.306608253358
 30
0.0
 40
2.0
  1
承認
 41
1.171875
  7
EXCADSTD
 72
     5
 11
81.705775880921
 21
29.306608253358
 31
0.0
100
AcDbText
  0
LINE
  5
29CA
330
29BF
100
AcDbEntity
  8
図枠細線
  6
CONTINUOUS
 62
   252
100
AcDbLine
 10
98.061011071051
 20
31.806606253358
 30
0.0
 11
98.061011071051
 21
16.806606253358
 31
0.0
  0
TEXT
  5
29CB
330
29BF
100
AcDbEntity
  8
図枠細線
  6
CONTINUOUS
 62
   252
100
AcDbText
 10
104.216531119804
 20
14.306608253358
 30
0.0
 40
2.0
  1
ＳＣＡＬＥ
 41
0.903614457831
  7
EXCADSTD
 72
     5
 11
114.216531119804
 21
14.306608253358
 31
0.0
100
AcDbText
  0
TEXT
  5
29CC
330
29BF
100
AcDbEntity
  8
図枠細線
  6
CONTINUOUS
 62
   252
100
AcDbText
 10
98.844044119804
 20
14.306608253358
 30
0.0
 40
2.0
  1
尺度
 41
1.171875
  7
EXCADSTD
 72
     5
 11
103.844044119804
 21
14.306608253358
 31
0.0
100
AcDbText
  0
TEXT
  5
29CD
330
29BF
100
AcDbEntity
  8
図枠細線
  6
CONTINUOUS
 62
   252
100
AcDbText
 10
98.968727707497
 20
26.806608253358
 30
0.0
 40
2.0
  1
ＣＨＥＣＫＥＤ
 41
0.831249989569
  7
EXCADSTD
 72
     5
 11
112.268727540604
 21
26.806608253358
 31
0.0
100
AcDbText
  0
TEXT
  5
29CE
330
29BF
100
AcDbEntity
  8
図枠細線
  6
CONTINUOUS
 62
   252
100
AcDbText
 10
98.968727707497
 20
29.306608253358
 30
0.0
 40
2.0
  1
検図
 41
1.209677419355
  7
EXCADSTD
 72
     5
 11
103.968727707497
 21
29.306608253358
 31
0.0
100
AcDbText
  0
LINE
  5
29CF
330
29BF
100
AcDbEntity
  8
図枠細線
  6
CONTINUOUS
 62
   252
100
AcDbLine
 10
121.061011071051
 20
31.806606253358
 30
0.0
 11
121.061011071051
 21
16.806606253358
 31
0.0
  0
TEXT
  5
29D0
330
29BF
100
AcDbEntity
  8
図枠細線
  6
CONTINUOUS
 62
   252
100
AcDbText
 10
128.001465247253
 20
14.306608253358
 30
0.0
 40
2.0
  1
ＤＡＴＥ
 41
0.923076923077
  7
EXCADSTD
 72
     5
 11
136.001465247253
 21
14.306608253358
 31
0.0
100
AcDbText
  0
TEXT
  5
29D1
330
29BF
100
AcDbEntity
  8
図枠細線
  6
CONTINUOUS
 62
   252
100
AcDbText
 10
122.066415498841
 20
14.306608253358
 30
0.0
 40
2.0
  1
日付
 41
1.171875
  7
EXCADSTD
 72
     5
 11
127.066415498841
 21
14.306608253358
 31
0.0
100
AcDbText
  0
TEXT
  5
29D2
330
29BF
100
AcDbEntity
  8
図枠細線
  6
CONTINUOUS
 62
   252
100
AcDbText
 10
121.59429406571
 20
29.306608253358
 30
0.0
 40
2.0
  1
製図
 41
1.209677419355
  7
EXCADSTD
 72
     5
 11
126.59429406571
 21
29.306608253358
 31
0.0
100
AcDbText
  0
TEXT
  5
29D3
330
29BF
100
AcDbEntity
  8
図枠細線
  6
CONTINUOUS
 62
   252
100
AcDbText
 10
121.59429406571
 20
26.806608253358
 30
0.0
 40
2.0
  1
ＤＲＡＷＮ
 41
0.882352941176
  7
EXCADSTD
 72
     5
 11
131.59429406571
 21
26.806608253358
 31
0.0
100
AcDbText
  0
TEXT
  5
29D4
330
29BF
100
AcDbEntity
  8
図枠細線
  6
CONTINUOUS
 62
   252
100
AcDbText
 10
226.591229661348
 20
14.306608253358
 30
0.0
 40
2.0
  1
ＤＲＧ．ＮＯ．
 41
0.9375
  7
EXCADSTD
 72
     5
 11
240.591229661348
 21
14.306608253358
 31
0.0
100
AcDbText
  0
LINE
  5
29D5
330
29BF
100
AcDbEntity
  8
図枠太線
  6
CONTINUOUS
 62
   251
100
AcDbLine
 10
144.061003071051
 20
16.806606253358
 30
0.0
 11
214.061011071051
 21
16.806606253358
 31
0.0
  0
LINE
  5
29D6
330
29BF
100
AcDbEntity
  8
図枠細線
  6
CONTINUOUS
 62
   252
100
AcDbLine
 10
144.061011071051
 20
24.306606253358
 30
0.0
 11
214.061011071051
 21
24.306606253358
 31
0.0
  0
TEXT
  5
29D7
330
29BF
100
AcDbEntity
  8
図枠ロゴマーク
  6
CONTINUOUS
 62
   253
100
AcDbText
 10
146.433776781596
 20
8.399000253358
 30
0.0
 40
7.0
  1
東和制電工業株式会社
 41
0.80361088462
  7
EXCADSTD
 72
     5
 11
212.437017438349
 21
8.399000253358
 31
0.0
100
AcDbText
  0
TEXT
  5
29D8
330
29BF
100
AcDbEntity
  8
図枠細線
  6
CONTINUOUS
 62
   252
100
AcDbText
 10
215.156179912936
 20
14.306608253358
 30
0.0
 40
2.0
  1
図面番号
 41
1.102941176471
  7
EXCADSTD
 72
     5
 11
225.156179912936
 21
14.306608253358
 31
0.0
100
AcDbText
  0
TEXT
  5
29D9
330
29BF
100
AcDbEntity
  8
図枠細線
  6
CONTINUOUS
 62
   252
100
AcDbText
 10
221.591229661348
 20
29.306608253358
 30
0.0
 40
2.0
  1
ＴＩＴＬＥ
 41
0.903614457831
  7
EXCADSTD
 72
     5
 11
231.591229661348
 21
29.306608253358
 31
0.0
100
AcDbText
  0
TEXT
  5
29DA
330
29BF
100
AcDbEntity
  8
図枠細線
  6
CONTINUOUS
 62
   252
100
AcDbText
 10
215.156179912936
 20
29.306608253358
 30
0.0
 40
2.0
  1
名称
 41
1.171875
  7
EXCADSTD
 72
     5
 11
220.156179912936
 21
29.306608253358
 31
0.0
100
AcDbText
  0
LINE
  5
29DB
330
29BF
100
AcDbEntity
  8
図枠太線
  6
CONTINUOUS
 62
   251
100
AcDbLine
 10
4.061011071051
 20
1.806608253358
 30
0.0
 11
284.061011071051
 21
1.806608253358
 31
0.0
  0
LINE
  5
29DC
330
29BF
100
AcDbEntity
  8
図枠細線
  6
CONTINUOUS
 62
   252
100
AcDbLine
 10
4.061011071051
 20
6.806608253358
 30
0.0
 11
75.061011071051
 21
6.806608253358
 31
0.0
  0
LINE
  5
29DD
330
29BF
100
AcDbEntity
  8
図枠太線
  6
CONTINUOUS
 62
   251
100
AcDbLine
 10
75.061011071051
 20
1.806608253358
 30
0.0
 11
75.061011071051
 21
31.806606253358
 31
0.0
  0
TEXT
  5
29DE
330
29BF
100
AcDbEntity
  8
図枠細線
  6
CONTINUOUS
 62
   252
100
AcDbText
 10
76.330551827713
 20
6.638319253358
 30
0.0
 40
2.0
  1
ＰＲＯＪＥＣＴＩＯＮ
 41
0.754285710199
  7
EXCADSTD
 72
     5
 11
93.930551732346
 21
6.638319253358
 31
0.0
100
AcDbText
  0
LINE
  5
29DF
330
29BF
100
AcDbEntity
  8
図枠細線
  6
CONTINUOUS
 62
   252
100
AcDbLine
 10
98.061011071051
 20
1.806606931929
 30
0.0
 11
98.061011071051
 21
16.806604931929
 31
0.0
  0
LINE
  5
29E0
330
29BF
100
AcDbEntity
  8
図枠細線
  6
CONTINUOUS
 62
   252
100
AcDbLine
 10
121.061011071051
 20
1.806607574787
 30
0.0
 11
121.061011071051
 21
16.806605574787
 31
0.0
  0
LINE
  5
29E1
330
29BF
100
AcDbEntity
  8
図枠太線
  6
CONTINUOUS
 62
   251
100
AcDbLine
 10
284.061011071051
 20
1.806608253358
 30
0.0
 11
284.061011071051
 21
31.806606253358
 31
0.0
  0
LINE
  5
29E2
330
29BF
100
AcDbEntity
  8
図枠細線
  6
CONTINUOUS
 62
   252
100
AcDbLine
 10
214.061011071051
 20
16.806606253358
 30
0.0
 11
284.061011071051
 21
16.806606253358
 31
0.0
  0
TEXT
  5
29E3
330
29BF
100
AcDbEntity
  8
図枠細線
  6
CONTINUOUS
 62
   252
100
AcDbText
 10
146.199593676182
 20
3.454099253358
 30
0.0
 40
3.5
  1
ＴＯＷＡ　ＳＥＩＤＥＮ　ＩＮＤＵＳＴＲＩＡＬ　ＣＯ．，ＬＴＤ．
 41
0.528937826907
  7
EXCADSTD
 72
     5
 11
213.339435171588
 21
3.454099253358
 31
0.0
100
AcDbText
  0
LINE
  5
29E4
330
29BF
100
AcDbEntity
  8
図枠太線
  6
CONTINUOUS
 62
   251
100
AcDbLine
 10
144.061011071051
 20
1.806608253358
 30
0.0
 11
144.061011071051
 21
31.806606253358
 31
0.0
  0
LINE
  5
29E5
330
29BF
100
AcDbEntity
  8
図枠太線
  6
CONTINUOUS
 62
   251
100
AcDbLine
 10
214.061011071051
 20
1.806608253358
 30
0.0
 11
214.061011071051
 21
31.806606253358
 31
0.0
  0
MTEXT
  5
29E6
330
29BF
100
AcDbEntity
  8
図枠太線
100
AcDbMText
 10
5.064337346478
 20
31.010982137407
 30
0.0
 40
2.5
 41
8.67856098472
 71
     1
 72
     5
  1
{\Fmonotxt.shx,bigfont.shx|c128;図暦}
  0
LINE
  5
29E7
330
29BF
100
AcDbEntity
  8
図枠太線
  6
CONTINUOUS
 62
   251
100
AcDbLine
 10
4.061011071051
 20
1.806608253358
 30
0.0
 11
4.061011071051
 21
31.806606253358
 31
0.0
  0
TEXT
  5
29E8
330
29BF
100
AcDbEntity
  8
図枠細線
 48
10.0
100
AcDbText
 10
12.260817420402
 20
28.625419626495
 30
0.0
 40
2.0
  1
CHANGE NOTICE
100
AcDbText
  0
ENDBLK
  5
29E9
330
29BF
100
AcDbEntity
  8
0
100
AcDbBlockEnd
  0
BLOCK
  5
29F5
330
29F4
100
AcDbEntity
  8
0
100
AcDbBlockBegin
  2
A4縦用_タイトル
 70
     0
 10
0.0
 20
0.0
 30
0.0
  3
A4縦用_タイトル
  1

  0
LINE
  5
29F6
330
29F4
100
AcDbEntity
  8
図枠太線
  6
CONTINUOUS
 62
   251
100
AcDbLine
 10
2.368253864267
 20
4.525433224584
 30
0.0
 11
192.368245864267
 21
4.525433224584
 31
0.0
  0
LINE
  5
29F7
330
29F4
100
AcDbEntity
  8
図枠太線
  6
CONTINUOUS
 62
   251
100
AcDbLine
 10
78.368245864267
 20
19.525431224584
 30
0.0
 11
135.368253864267
 21
19.525431224584
 31
0.0
  0
LINE
  5
29F8
330
29F4
100
AcDbEntity
  8
図枠細線
  6
CONTINUOUS
 62
   252
100
AcDbLine
 10
78.368253864267
 20
27.025431224584
 30
0.0
 11
135.368253864267
 21
27.025431224584
 31
0.0
  0
TEXT
  5
29F9
330
29F4
100
AcDbEntity
  8
図枠ロゴマーク
  6
CONTINUOUS
 62
   253
100
AcDbText
 10
80.617009864267
 20
11.117825224584
 30
0.0
 40
7.0
  1
東和制電工業株式会社
 41
0.639204545455
  7
EXCADSTD
 72
     5
 11
133.117009864267
 21
11.117825224584
 31
0.0
100
AcDbText
  0
TEXT
  5
29FA
330
29F4
100
AcDbEntity
  8
図枠細線
  6
CONTINUOUS
 62
   252
100
AcDbText
 10
80.579549864267
 20
6.172924224584
 30
0.0
 40
3.5
  1
ＴＯＷＡ　ＳＥＩＤＥＮ　ＩＮＤＵＳＴＲＩＡＬ　ＣＯ．，ＬＴＤ．
 41
0.414568012377
  7
EXCADSTD
 72
     5
 11
133.202049568628
 21
6.172924224584
 31
0.0
100
AcDbText
  0
LINE
  5
29FB
330
29F4
100
AcDbEntity
  8
図枠太線
  6
CONTINUOUS
 62
   251
100
AcDbLine
 10
2.368253864267
 20
4.525433224584
 30
0.0
 11
2.368253864267
 21
34.525431224584
 31
0.0
  0
TEXT
  5
29FC
330
29F4
100
AcDbEntity
  8
図枠細線
  6
CONTINUOUS
 62
   252
100
AcDbText
 10
22.504308136501
 20
12.279133224584
 30
0.0
 40
2.0
  1
ＴＨＩＲＤ　ＡＮＧＬＥ
 41
0.691099486738
  7
EXCADSTD
 72
     5
 11
40.104308398762
 21
12.279133224584
 31
0.0
100
AcDbText
  0
TEXT
  5
29FD
330
29F4
100
AcDbEntity
  8
図枠細線
  6
CONTINUOUS
 62
   252
100
AcDbText
 10
22.429384136501
 20
9.357144224584
 30
0.0
 40
2.0
  1
ＰＲＯＪＥＣＴＩＯＮ
 41
0.754285710199
  7
EXCADSTD
 72
     5
 11
40.029384041134
 21
9.357144224584
 31
0.0
100
AcDbText
  0
LINE
  5
29FE
330
29F4
100
AcDbEntity
  8
図枠細線
  6
CONTINUOUS
100
AcDbLine
 10
22.368253864267
 20
19.525433224584
 30
0.0
 11
78.368253864267
 21
19.525431224584
 31
0.0
  0
TEXT
  5
29FF
330
29F4
100
AcDbEntity
  8
図枠細線
  6
CONTINUOUS
 62
   252
100
AcDbText
 10
22.868253864267
 20
17.025433224584
 30
0.0
 40
2.0
  1
第三角法
 41
1.102941176471
  7
EXCADSTD
 72
     5
 11
32.868253864267
 21
17.025433224584
 31
0.0
100
AcDbText
  0
TEXT
  5
2A00
330
29F4
100
AcDbEntity
  8
図枠細線
  6
CONTINUOUS
 62
   252
100
AcDbText
 10
22.868253864267
 20
29.525433224584
 30
0.0
 40
2.0
  1
ＡＰＰＲＯＶＥＤ
 41
0.695652184279
  7
EXCADSTD
 72
     5
 11
35.668254055002
 21
29.525433224584
 31
0.0
100
AcDbText
  0
LINE
  5
2A01
330
29F4
100
AcDbEntity
  8
図枠細線
  6
CONTINUOUS
 62
   252
100
AcDbLine
 10
2.368253864267
 20
9.525433224584
 30
0.0
 11
22.368253864267
 21
9.525433224584
 31
0.0
  0
LINE
  5
2A02
330
29F4
100
AcDbEntity
  8
図枠細線
  6
CONTINUOUS
 62
   252
100
AcDbLine
 10
2.368253864267
 20
14.525431224584
 30
0.0
 11
22.368253864267
 21
14.525431224584
 31
0.0
  0
LINE
  5
2A03
330
29F4
100
AcDbEntity
  8
図枠細線
  6
CONTINUOUS
 62
   252
100
AcDbLine
 10
2.368253864267
 20
24.525431224584
 30
0.0
 11
22.368253864267
 21
24.525431224584
 31
0.0
  0
LINE
  5
2A04
330
29F4
100
AcDbEntity
  8
図枠細線
  6
CONTINUOUS
 62
   252
100
AcDbLine
 10
2.368253864267
 20
29.525431224584
 30
0.0
 11
22.368253864267
 21
29.525431224584
 31
0.0
  0
LINE
  5
2A05
330
29F4
100
AcDbEntity
  8
図枠細線
  6
CONTINUOUS
100
AcDbLine
 10
2.368253864267
 20
19.525433224584
 30
0.0
 11
22.368253864267
 21
19.525433224584
 31
0.0
  0
TEXT
  5
2A06
330
29F4
100
AcDbEntity
  8
図枠細線
  6
CONTINUOUS
 62
   252
100
AcDbText
 10
2.868253864267
 20
32.025433224584
 30
0.0
 40
2.0
  1
ＮＯＴＥ
 41
0.923076923077
  7
EXCADSTD
 72
     5
 11
10.868253864267
 21
32.025433224584
 31
0.0
100
AcDbText
  0
LINE
  5
2A07
330
29F4
100
AcDbEntity
  8
図枠太線
  6
CONTINUOUS
 62
   251
100
AcDbLine
 10
22.368253864267
 20
4.525433224584
 30
0.0
 11
22.368253864267
 21
34.525431224584
 31
0.0
  0
TEXT
  5
2A08
330
29F4
100
AcDbEntity
  8
図枠細線
  6
CONTINUOUS
 62
   252
100
AcDbText
 10
22.868253864267
 20
32.025433224584
 30
0.0
 40
2.0
  1
承認
 41
1.171875
  7
EXCADSTD
 72
     5
 11
27.868253864267
 21
32.025433224584
 31
0.0
100
AcDbText
  0
TEXT
  5
2A09
330
29F4
100
AcDbEntity
  8
図枠細線
  6
CONTINUOUS
 62
   252
100
AcDbText
 10
60.711709035982
 20
32.025433224584
 30
0.0
 40
2.0
  1
製図
 41
1.209677419355
  7
EXCADSTD
 72
     5
 11
65.711709035982
 21
32.025433224584
 31
0.0
100
AcDbText
  0
TEXT
  5
2A0A
330
29F4
100
AcDbEntity
  8
図枠細線
  6
CONTINUOUS
 62
   252
100
AcDbText
 10
60.711709035982
 20
29.525433224584
 30
0.0
 40
2.0
  1
ＤＲＡＷＮ
 41
0.882352941176
  7
EXCADSTD
 72
     5
 11
70.711709035982
 21
29.525433224584
 31
0.0
100
AcDbText
  0
TEXT
  5
2A0B
330
29F4
100
AcDbEntity
  8
図枠細線
  6
CONTINUOUS
 62
   252
100
AcDbText
 10
60.834891743877
 20
17.025433224584
 30
0.0
 40
2.0
  1
日付
 41
1.171875
  7
EXCADSTD
 72
     5
 11
65.834891743877
 21
17.025433224584
 31
0.0
100
AcDbText
  0
TEXT
  5
2A0C
330
29F4
100
AcDbEntity
  8
図枠細線
  6
CONTINUOUS
 62
   252
100
AcDbText
 10
47.333660864267
 20
17.025433224584
 30
0.0
 40
2.0
  1
ＳＣＡＬＥ
 41
0.903614457831
  7
EXCADSTD
 72
     5
 11
57.333660864267
 21
17.025433224584
 31
0.0
100
AcDbText
  0
TEXT
  5
2A0D
330
29F4
100
AcDbEntity
  8
図枠細線
  6
CONTINUOUS
 62
   252
100
AcDbText
 10
42.281425990082
 20
29.525433224584
 30
0.0
 40
2.0
  1
ＣＨＥＣＫＥＤ
 41
0.831249989569
  7
EXCADSTD
 72
     5
 11
55.581425823189
 21
29.525433224584
 31
0.0
100
AcDbText
  0
LINE
  5
2A0E
330
29F4
100
AcDbEntity
  8
図枠細線
  6
CONTINUOUS
 62
   252
100
AcDbLine
 10
40.968253864267
 20
34.525431224584
 30
0.0
 11
40.968253864267
 21
19.525431224584
 31
0.0
  0
LINE
  5
2A0F
330
29F4
100
AcDbEntity
  8
図枠細線
  6
CONTINUOUS
 62
   252
100
AcDbLine
 10
40.968253864267
 20
4.525433224584
 30
0.0
 11
40.968253864267
 21
19.525431224584
 31
0.0
  0
TEXT
  5
2A10
330
29F4
100
AcDbEntity
  8
図枠細線
  6
CONTINUOUS
 62
   252
100
AcDbText
 10
41.961173864267
 20
17.025433224584
 30
0.0
 40
2.0
  1
尺度
 41
1.171875
  7
EXCADSTD
 72
     5
 11
46.961173864267
 21
17.025433224584
 31
0.0
100
AcDbText
  0
TEXT
  5
2A11
330
29F4
100
AcDbEntity
  8
図枠細線
  6
CONTINUOUS
 62
   252
100
AcDbText
 10
42.281425990082
 20
32.025433224584
 30
0.0
 40
2.0
  1
検図
 41
1.209677419355
  7
EXCADSTD
 72
     5
 11
47.281425990082
 21
32.025433224584
 31
0.0
100
AcDbText
  0
LINE
  5
2A12
330
29F4
100
AcDbEntity
  8
図枠細線
  6
CONTINUOUS
 62
   252
100
AcDbLine
 10
59.768253864267
 20
34.525431224584
 30
0.0
 11
59.768253864267
 21
19.525431224584
 31
0.0
  0
LINE
  5
2A13
330
29F4
100
AcDbEntity
  8
図枠細線
  6
CONTINUOUS
 62
   252
100
AcDbLine
 10
59.768253864267
 20
4.525433224584
 30
0.0
 11
59.768253864267
 21
19.525431224584
 31
0.0
  0
LINE
  5
2A14
330
29F4
100
AcDbEntity
  8
図枠太線
  6
CONTINUOUS
 62
   251
100
AcDbLine
 10
78.368253864267
 20
4.525433224584
 30
0.0
 11
78.368253864267
 21
34.525431224584
 31
0.0
  0
TEXT
  5
2A15
330
29F4
100
AcDbEntity
  8
図枠細線
  6
CONTINUOUS
 62
   252
100
AcDbText
 10
66.334891743877
 20
17.025433224584
 30
0.0
 40
2.0
  1
ＤＡＴＥ
 41
0.923076923077
  7
EXCADSTD
 72
     5
 11
74.334891743877
 21
17.025433224584
 31
0.0
100
AcDbText
  0
LINE
  5
2A16
330
29F4
100
AcDbEntity
  8
図枠細線
  6
CONTINUOUS
 62
   252
100
AcDbLine
 10
135.368253864267
 20
19.525431224584
 30
0.0
 11
192.368245864267
 21
19.525431224584
 31
0.0
  0
TEXT
  5
2A17
330
29F4
100
AcDbEntity
  8
図枠細線
  6
CONTINUOUS
 62
   252
100
AcDbText
 10
141.868253864267
 20
32.025433224584
 30
0.0
 40
2.0
  1
ＴＩＴＬＥ
 41
0.903614457831
  7
EXCADSTD
 72
     5
 11
151.868253864267
 21
32.025433224584
 31
0.0
100
AcDbText
  0
LINE
  5
2A18
330
29F4
100
AcDbEntity
  8
図枠太線
  6
CONTINUOUS
 62
   251
100
AcDbLine
 10
135.368253864267
 20
4.525433224584
 30
0.0
 11
135.368253864267
 21
34.525431224584
 31
0.0
  0
TEXT
  5
2A19
330
29F4
100
AcDbEntity
  8
図枠細線
  6
CONTINUOUS
 62
   252
100
AcDbText
 10
135.868253864267
 20
17.025433224584
 30
0.0
 40
2.0
  1
図面番号
 41
1.102941176471
  7
EXCADSTD
 72
     5
 11
145.868253864267
 21
17.025433224584
 31
0.0
100
AcDbText
  0
TEXT
  5
2A1A
330
29F4
100
AcDbEntity
  8
図枠細線
  6
CONTINUOUS
 62
   252
100
AcDbText
 10
135.868253864267
 20
32.025433224584
 30
0.0
 40
2.0
  1
名称
 41
1.171875
  7
EXCADSTD
 72
     5
 11
140.868253864267
 21
32.025433224584
 31
0.0
100
AcDbText
  0
TEXT
  5
2A1B
330
29F4
100
AcDbEntity
  8
図枠細線
  6
CONTINUOUS
 62
   252
100
AcDbText
 10
146.868253864267
 20
17.025433224584
 30
0.0
 40
2.0
  1
ＤＲＧ．ＮＯ．
 41
0.9375
  7
EXCADSTD
 72
     5
 11
160.868253864267
 21
17.025433224584
 31
0.0
100
AcDbText
  0
LINE
  5
2A1C
330
29F4
100
AcDbEntity
  8
図枠太線
  6
CONTINUOUS
 62
   251
100
AcDbLine
 10
192.368245864267
 20
4.525433224584
 30
0.0
 11
192.368245864267
 21
34.525431224584
 31
0.0
  0
ENDBLK
  5
2A1D
330
29F4
100
AcDbEntity
  8
0
100
AcDbBlockEnd
  0
BLOCK
  5
2A33
330
2A32
100
AcDbEntity
  8
0
100
AcDbBlockBegin
  2
A3横用_タイトル
 70
     0
 10
0.0
 20
0.0
 30
0.0
  3
A3横用_タイトル
  1

  0
LINE
  5
2A34
330
2A32
100
AcDbEntity
  8
図枠細線
  6
CONTINUOUS
 62
   252
100
AcDbLine
 10
205.098414535793
 20
33.525959753527
 30
0.0
 11
305.098414535793
 21
33.525959753527
 31
0.0
  0
LINE
  5
2A35
330
2A32
100
AcDbEntity
  8
図枠太線
  6
CONTINUOUS
 62
   251
100
AcDbLine
 10
205.098414535793
 20
23.525959753527
 30
0.0
 11
305.098414535793
 21
23.525959753527
 31
0.0
  0
LINE
  5
2A36
330
2A32
100
AcDbEntity
  8
図枠細線
  6
CONTINUOUS
100
AcDbLine
 10
5.098414535793
 20
23.525959753527
 30
0.0
 11
105.098414535793
 21
23.525959753527
 31
0.0
  0
LINE
  5
2A37
330
2A32
100
AcDbEntity
  8
図枠細線
  6
CONTINUOUS
 62
   252
100
AcDbLine
 10
5.098414535793
 20
36.725957753527
 30
0.0
 11
105.098414535793
 21
36.725957753527
 31
0.0
  0
LINE
  5
2A38
330
2A32
100
AcDbEntity
  8
図枠細線
  6
CONTINUOUS
 62
   252
100
AcDbLine
 10
5.098414535793
 20
30.125957753527
 30
0.0
 11
105.098414535793
 21
30.125957753527
 31
0.0
  0
LINE
  5
2A39
330
2A32
100
AcDbEntity
  8
図枠細線
  6
CONTINUOUS
 62
   252
100
AcDbLine
 10
5.098414535793
 20
16.725959753527
 30
0.0
 11
105.098414535793
 21
16.725959753527
 31
0.0
  0
LINE
  5
2A3A
330
2A32
100
AcDbEntity
  8
図枠細線
  6
CONTINUOUS
 62
   252
100
AcDbLine
 10
5.098414535793
 20
10.125959753527
 30
0.0
 11
105.098414535793
 21
10.125959753527
 31
0.0
  0
LINE
  5
2A3B
330
2A32
100
AcDbEntity
  8
図枠細線
  6
CONTINUOUS
100
AcDbLine
 10
105.098414535793
 20
23.525961753527
 30
0.0
 11
205.098414535793
 21
23.525959753527
 31
0.0
  0
LINE
  5
2A3C
330
2A32
100
AcDbEntity
  8
図枠細線
  6
CONTINUOUS
 62
   252
100
AcDbLine
 10
138.398414535793
 20
43.525959753527
 30
0.0
 11
138.398414535793
 21
18.525957753527
 31
0.0
  0
LINE
  5
2A3D
330
2A32
100
AcDbEntity
  8
図枠細線
  6
CONTINUOUS
 62
   252
100
AcDbLine
 10
171.698414535793
 20
43.525959753527
 30
0.0
 11
171.698414535793
 21
18.525957753527
 31
0.0
  0
LINE
  5
2A3E
330
2A32
100
AcDbEntity
  8
図枠細線
  6
CONTINUOUS
 62
   252
100
AcDbLine
 10
305.098414535793
 20
23.525959753527
 30
0.0
 11
405.098414535793
 21
23.525959753527
 31
0.0
  0
TEXT
  5
2A3F
330
2A32
100
AcDbEntity
  8
図枠ロゴマーク
  6
CONTINUOUS
 62
   253
100
AcDbText
 10
206.102509212755
 20
13.294257570546
 30
0.0
 40
7.0
  1
東和制電工業株式会社
 50
0.016555220185
 41
1.186384129432
  7
EXCADSTD
 72
     5
 11
303.544188309143
 21
13.322412672217
 31
0.0
100
AcDbText
  0
MTEXT
  5
2A40
330
2A32
100
AcDbEntity
  8
図枠細線
100
AcDbMText
 10
6.356764112375
 20
41.976594175478
 30
0.0
 40
2.5
 41
49.938282706292
 71
     1
 72
     5
  1
{\Fmonotxt.shx,bigfont.shx|c128;図暦　CHANGE　NOTICE}
  0
MTEXT
  5
2A41
330
2A32
100
AcDbEntity
  8
図枠細線
 48
10.0
100
AcDbMText
 10
306.544114926828
 20
41.701835800934
 30
0.0
 40
2.5
 41
28.002809618823
 71
     1
 72
     5
  1
{\Fmonotxt.shx,bigfont.shx|c128;名称　TITLE}
  0
MTEXT
  5
2A42
330
2A32
100
AcDbEntity
  8
図枠細線
 48
10.0
100
AcDbMText
 10
307.329617114284
 20
21.606206797226
 30
0.0
 40
2.5
 41
24.385612216707
 71
     1
 72
     5
  1
{\Fmonotxt.shx,bigfont.shx|c128;図面番号\PDRG.　No.}
  0
MTEXT
  5
2A43
330
2A32
100
AcDbEntity
  8
図枠細線
 48
10.0
100
AcDbMText
 10
173.726349404609
 20
21.73680662198
 30
0.0
 40
2.5
 41
25.735090160813
 71
     1
 72
     5
  1
{\Fmonotxt.shx,bigfont.shx|c128;日付 DATE}
  0
MTEXT
  5
2A44
330
2A32
100
AcDbEntity
  8
図枠細線
 48
10.0
100
AcDbMText
 10
173.48708833982
 20
41.621592044998
 30
0.0
 40
2.5
 41
24.983741184205
 71
     1
 72
     5
  1
{\Fmonotxt.shx,bigfont.shx|c128;製図　DRAWN}
  0
MTEXT
  5
2A45
330
2A32
100
AcDbEntity
  8
図枠細線
 48
10.0
100
AcDbMText
 10
139.28009927741
 20
21.866713069868
 30
0.0
 40
2.5
 41
22.629632913243
 71
     1
 72
     5
  1
{\Fmonotxt.shx,bigfont.shx|c128;尺度　SCALE}
  0
MTEXT
  5
2A46
330
2A32
100
AcDbEntity
  8
図枠細線
 48
10.0
100
AcDbMText
 10
139.910091179835
 20
41.311840415554
 30
0.0
 40
2.5
 41
28.998753428368
 71
     1
 72
     5
  1
{\Fmonotxt.shx,bigfont.shx|c128;検図  CHECKED}
  0
MTEXT
  5
2A47
330
2A32
100
AcDbEntity
  8
図枠細線
 48
10.0
100
AcDbMText
 10
114.253294667728
 20
21.916124850174
 30
0.0
 40
3.0
 41
19.692400475383
 71
     1
 72
     5
  1
{\Fmonotxt.shx,bigfont.shx|c128;第三角法}
  0
MTEXT
  5
2A48
330
2A32
100
AcDbEntity
  8
図枠細線
 48
10.0
100
AcDbMText
 10
108.986959929915
 20
15.282880185837
 30
0.0
 40
2.5
 41
27.954882823547
 71
     1
 72
     5
  1
{\Fmonotxt.shx,bigfont.shx|c128;THIRD ANGLE\PPROJECTION}
  0
MTEXT
  5
2A49
330
2A32
100
AcDbEntity
  8
図枠細線
 48
10.0
100
AcDbMText
 10
106.319432640184
 20
41.511437145487
 30
0.0
 40
2.5
 41
28.233595265074
 71
     1
 72
     5
  1
{\Fmonotxt.shx,bigfont.shx|c128;承認 APPROVED}
  0
LINE
  5
2A4A
330
2A32
100
AcDbEntity
  8
図枠太線
  6
CONTINUOUS
 62
   251
100
AcDbLine
 10
5.098414535793
 20
3.525959753527
 30
0.0
 11
405.098414535793
 21
3.525959753527
 31
0.0
  0
LINE
  5
2A4B
330
2A32
100
AcDbEntity
  8
図枠太線
 48
10.0
100
AcDbLine
 10
5.098414535793
 20
3.525959753527
 30
0.0
 11
5.098414535793
 21
43.525959753527
 31
0.0
  0
LINE
  5
2A4C
330
2A32
100
AcDbEntity
  8
図枠太線
  6
CONTINUOUS
 62
   251
100
AcDbLine
 10
105.098414535793
 20
3.525959753527
 30
0.0
 11
105.098414535793
 21
43.525959753527
 31
0.0
  0
LINE
  5
2A4D
330
2A32
100
AcDbEntity
  8
図枠細線
  6
CONTINUOUS
 62
   252
100
AcDbLine
 10
138.398414535793
 20
3.525959753527
 30
0.0
 11
138.398414535793
 21
18.525957753527
 31
0.0
  0
LINE
  5
2A4E
330
2A32
100
AcDbEntity
  8
図枠細線
  6
CONTINUOUS
 62
   252
100
AcDbLine
 10
171.698414535793
 20
3.525959753527
 30
0.0
 11
171.698414535793
 21
18.525957753527
 31
0.0
  0
LINE
  5
2A4F
330
2A32
100
AcDbEntity
  8
図枠太線
  6
CONTINUOUS
 62
   251
100
AcDbLine
 10
205.098414535793
 20
3.525959753527
 30
0.0
 11
205.098414535793
 21
43.525959753527
 31
0.0
  0
LINE
  5
2A50
330
2A32
100
AcDbEntity
  8
図枠太線
 48
10.0
100
AcDbLine
 10
405.098414535793
 20
43.525959753527
 30
0.0
 11
405.098414535793
 21
3.525959753527
 31
0.0
  0
TEXT
  5
2A51
330
2A32
100
AcDbEntity
  8
図枠細線
  6
CONTINUOUS
 62
   252
100
AcDbText
 10
208.519754474572
 20
6.482358407285
 30
0.0
 40
3.5
  1
ＴＯＷＡ　ＳＥＩＤＥＮ　ＩＮＤＵＳＴＲＩＡＬ　ＣＯ．，ＬＴＤ．
 41
0.746656297509
  7
EXCADSTD
 72
     5
 11
303.295327171727
 21
6.482358407285
 31
0.0
100
AcDbText
  0
LINE
  5
2A52
330
2A32
100
AcDbEntity
  8
図枠太線
  6
CONTINUOUS
 62
   251
100
AcDbLine
 10
305.098414535793
 20
3.525959753527
 30
0.0
 11
305.098414535793
 21
43.525959753527
 31
0.0
  0
ENDBLK
  5
2A53
330
2A32
100
AcDbEntity
  8
0
100
AcDbBlockEnd
  0
BLOCK
  5
2A6D
330
2A6C
100
AcDbEntity
  8
0
100
AcDbBlockBegin
  2
A3縦用_タイトル
 70
     0
 10
0.0
 20
0.0
 30
0.0
  3
A3縦用_タイトル
  1

  0
MTEXT
  5
2A6E
330
2A6C
100
AcDbEntity
  8
図枠細線
100
AcDbMText
 10
5.040804501593
 20
31.626098649005
 30
0.0
 40
2.5
 41
49.938282706292
 71
     1
 72
     5
  1
{\Fmonotxt.shx,bigfont.shx|c128;図暦　CHANGE　NOTICE}
  0
LINE
  5
2A6F
330
2A6C
100
AcDbEntity
  8
図枠太線
  6
CONTINUOUS
 62
   251
100
AcDbLine
 10
283.577871882961
 20
2.820844689254
 30
0.0
 11
283.577871882961
 21
32.820842689254
 31
0.0
  0
MTEXT
  5
2A70
330
2A6C
100
AcDbEntity
  8
図枠細線
 48
10.0
100
AcDbMText
 10
214.912458947454
 20
31.621488632308
 30
0.0
 40
2.5
 41
28.002809618823
 71
     1
 72
     5
  1
{\Fmonotxt.shx,bigfont.shx|c128;名称　TITLE}
  0
MTEXT
  5
2A71
330
2A6C
100
AcDbEntity
  8
図枠細線
 48
10.0
100
AcDbMText
 10
214.740030458938
 20
16.310225796722
 30
0.0
 40
2.5
 41
24.385612216707
 71
     1
 72
     5
  1
{\Fmonotxt.shx,bigfont.shx|c128;図面番号\PDRG.　No.}
  0
LINE
  5
2A72
330
2A6C
100
AcDbEntity
  8
図枠太線
  6
CONTINUOUS
 62
   251
100
AcDbLine
 10
213.577871882961
 20
2.820844689254
 30
0.0
 11
213.577871882961
 21
32.820842689254
 31
0.0
  0
LINE
  5
2A73
330
2A6C
100
AcDbEntity
  8
図枠太線
  6
CONTINUOUS
 62
   251
100
AcDbLine
 10
143.577871882961
 20
2.820844689254
 30
0.0
 11
143.577871882961
 21
32.820842689254
 31
0.0
  0
TEXT
  5
2A74
330
2A6C
100
AcDbEntity
  8
図枠細線
  6
CONTINUOUS
 62
   252
100
AcDbText
 10
145.716454488093
 20
4.468335689254
 30
0.0
 40
3.5
  1
ＴＯＷＡ　ＳＥＩＤＥＮ　ＩＮＤＵＳＴＲＩＡＬ　ＣＯ．，ＬＴＤ．
 41
0.528937826907
  7
EXCADSTD
 72
     5
 11
212.856295983498
 21
4.468335689254
 31
0.0
100
AcDbText
  0
TEXT
  5
2A75
330
2A6C
100
AcDbEntity
  8
図枠ロゴマーク
  6
CONTINUOUS
 62
   253
100
AcDbText
 10
145.950637593507
 20
9.413236689254
 30
0.0
 40
7.0
  1
東和制電工業株式会社
 41
0.80361088462
  7
EXCADSTD
 72
     5
 11
211.953878250259
 21
9.413236689254
 31
0.0
100
AcDbText
  0
LINE
  5
2A76
330
2A6C
100
AcDbEntity
  8
図枠細線
  6
CONTINUOUS
 62
   252
100
AcDbLine
 10
143.577871882961
 20
25.320842689254
 30
0.0
 11
213.577871882961
 21
25.320842689254
 31
0.0
  0
LINE
  5
2A77
330
2A6C
100
AcDbEntity
  8
図枠太線
  6
CONTINUOUS
 62
   251
100
AcDbLine
 10
143.577863882961
 20
17.820842689254
 30
0.0
 11
213.577871882961
 21
17.820842689254
 31
0.0
  0
LINE
  5
2A78
330
2A6C
100
AcDbEntity
  8
図枠細線
  6
CONTINUOUS
 62
   252
100
AcDbLine
 10
213.577871882961
 20
17.820842689254
 30
0.0
 11
283.577871882961
 21
17.820842689254
 31
0.0
  0
LINE
  5
2A79
330
2A6C
100
AcDbEntity
  8
図枠細線
  6
CONTINUOUS
 62
   252
100
AcDbLine
 10
120.577871882961
 20
32.820842689254
 30
0.0
 11
120.577871882961
 21
17.820842689254
 31
0.0
  0
MTEXT
  5
2A7A
330
2A6C
100
AcDbEntity
  8
図枠細線
 48
10.0
100
AcDbMText
 10
121.100885670352
 20
16.33785922638
 30
0.0
 40
2.0
 41
17.705978285068
 71
     1
 72
     5
  1
{\Fmonotxt.shx,bigfont.shx|c128;日付 DATE}
  0
MTEXT
  5
2A7B
330
2A6C
100
AcDbEntity
  8
図枠細線
 48
10.0
100
AcDbMText
 10
121.254842273491
 20
31.208993514037
 30
0.0
 40
2.0
 41
18.363799568758
 71
     1
 72
     5
  1
{\Fmonotxt.shx,bigfont.shx|c128;製図　DRAWN}
  0
LINE
  5
2A7C
330
2A6C
100
AcDbEntity
  8
図枠細線
  6
CONTINUOUS
 62
   252
100
AcDbLine
 10
97.577871882961
 20
32.820842689254
 30
0.0
 11
97.577871882961
 21
17.820842689254
 31
0.0
  0
MTEXT
  5
2A7D
330
2A6C
100
AcDbEntity
  8
図枠細線
 48
10.0
100
AcDbMText
 10
98.239734796872
 20
16.467764839281
 30
0.0
 40
2.0
 41
17.757791689903
 71
     1
 72
     5
  1
{\Fmonotxt.shx,bigfont.shx|c128;尺度　SCALE}
  0
MTEXT
  5
2A7E
330
2A6C
100
AcDbEntity
  8
図枠細線
 48
10.0
100
AcDbMText
 10
97.864744625154
 20
31.298433377664
 30
0.0
 40
2.0
 41
23.162655920976
 71
     1
 72
     5
  1
{\Fmonotxt.shx,bigfont.shx|c128;検図  CHECKED}
  0
LINE
  5
2A7F
330
2A6C
100
AcDbEntity
  8
図枠細線
  6
CONTINUOUS
 62
   252
100
AcDbLine
 10
97.577871882961
 20
2.820843367826
 30
0.0
 11
97.577871882961
 21
17.820841367826
 31
0.0
  0
LINE
  5
2A80
330
2A6C
100
AcDbEntity
  8
図枠細線
  6
CONTINUOUS
 62
   252
100
AcDbLine
 10
120.577871882961
 20
2.820844010683
 30
0.0
 11
120.577871882961
 21
17.820842010683
 31
0.0
  0
MTEXT
  5
2A81
330
2A6C
100
AcDbEntity
  8
図枠細線
 48
10.0
100
AcDbMText
 10
81.402399084102
 20
16.316484117426
 30
0.0
 40
2.0
 41
12.920322819369
 71
     1
 72
     5
  1
{\Fmonotxt.shx,bigfont.shx|c128;第三角法}
  0
MTEXT
  5
2A82
330
2A6C
100
AcDbEntity
  8
図枠細線
 48
10.0
100
AcDbMText
 10
75.736576535096
 20
11.080410931319
 30
0.0
 40
2.0
 41
21.072870671471
 71
     1
 72
     5
  1
{\Fmonotxt.shx,bigfont.shx|c128;THIRD ANGLE\PPROJECTION}
  0
LINE
  5
2A83
330
2A6C
100
AcDbEntity
  8
図枠太線
  6
CONTINUOUS
 62
   251
100
AcDbLine
 10
74.577871882961
 20
2.820844689254
 30
0.0
 11
74.577871882961
 21
32.820842689254
 31
0.0
  0
MTEXT
  5
2A84
330
2A6C
100
AcDbEntity
  8
図枠細線
 48
10.0
100
AcDbMText
 10
75.060214781573
 20
31.298434778555
 30
0.0
 40
2.0
 41
22.240928805967
 71
     1
 72
     5
  1
{\Fmonotxt.shx,bigfont.shx|c128;承認 APPROVED}
  0
LINE
  5
2A85
330
2A6C
100
AcDbEntity
  8
図枠細線
  6
CONTINUOUS
100
AcDbLine
 10
3.577871882961
 20
17.820844689254
 30
0.0
 11
74.577871882961
 21
17.820844689254
 31
0.0
  0
LINE
  5
2A86
330
2A6C
100
AcDbEntity
  8
図枠細線
  6
CONTINUOUS
 62
   252
100
AcDbLine
 10
3.577871882961
 20
27.820842689254
 30
0.0
 11
74.577871882961
 21
27.820842689254
 31
0.0
  0
LINE
  5
2A87
330
2A6C
100
AcDbEntity
  8
図枠細線
  6
CONTINUOUS
 62
   252
100
AcDbLine
 10
3.577871882961
 20
22.820842689254
 30
0.0
 11
74.577871882961
 21
22.820842689254
 31
0.0
  0
LINE
  5
2A88
330
2A6C
100
AcDbEntity
  8
図枠細線
  6
CONTINUOUS
 62
   252
100
AcDbLine
 10
3.577871882961
 20
12.820842689254
 30
0.0
 11
74.577871882961
 21
12.820842689254
 31
0.0
  0
LINE
  5
2A89
330
2A6C
100
AcDbEntity
  8
図枠細線
  6
CONTINUOUS
 62
   252
100
AcDbLine
 10
3.577871882961
 20
7.820844689254
 30
0.0
 11
74.577871882961
 21
7.820844689254
 31
0.0
  0
LINE
  5
2A8A
330
2A6C
100
AcDbEntity
  8
図枠細線
  6
CONTINUOUS
100
AcDbLine
 10
74.577871882961
 20
17.820843689254
 30
0.0
 11
143.577871882961
 21
17.820841224969
 31
0.0
  0
LINE
  5
2A8B
330
2A6C
100
AcDbEntity
  8
図枠太線
  6
CONTINUOUS
 62
   251
100
AcDbLine
 10
3.577871882961
 20
2.820844689254
 30
0.0
 11
283.577871882961
 21
2.820844689254
 31
0.0
  0
LINE
  5
2A8C
330
2A6C
100
AcDbEntity
  8
図枠太線
  6
CONTINUOUS
 62
   251
100
AcDbLine
 10
3.577871882961
 20
2.820844689254
 30
0.0
 11
3.577871882961
 21
32.820842689254
 31
0.0
  0
ENDBLK
  5
2A8D
330
2A6C
100
AcDbEntity
  8
0
100
AcDbBlockEnd
  0
BLOCK
  5
2AF8
330
2AF4
100
AcDbEntity
  8
0
 48
10.0
100
AcDbBlockBegin
  2
_OPEN30
 70
     0
 10
0.0
 20
0.0
 30
0.0
  3
_OPEN30
  1

  0
LINE
  5
2AF5
330
2AF4
100
AcDbEntity
  8
0
  6
BYBLOCK
 62
     0
100
AcDbLine
 10
-1.0
 20
0.26794919
 30
0.0
 11
0.0
 21
0.0
 31
0.0
  0
LINE
  5
2AF6
330
2AF4
100
AcDbEntity
  8
0
  6
BYBLOCK
 62
     0
100
AcDbLine
 10
0.0
 20
0.0
 30
0.0
 11
-1.0
 21
-0.26794919
 31
0.0
  0
LINE
  5
2AF7
330
2AF4
100
AcDbEntity
  8
0
  6
BYBLOCK
 62
     0
100
AcDbLine
 10
0.0
 20
0.0
 30
0.0
 11
-1.0
 21
0.0
 31
0.0
  0
ENDBLK
  5
2AF9
330
2AF4
100
AcDbEntity
  8
0
 48
10.0
100
AcDbBlockEnd
  0
BLOCK
  5
300D
330
3003
100
AcDbEntity
  8
0
 48
10.0
100
AcDbBlockBegin
  2
*D6
 70
     1
 10
0.0
 20
0.0
 30
0.0
  3
*D6
  1

  0
LINE
  5
3FA9
330
3003
100
AcDbEntity
  8
寸法線
 62
     0
 48
10.0
100
AcDbLine
 10
469.289081678798
 20
492.330844094271
 30
0.0
 11
489.308988652513
 21
492.330844094271
 31
0.0
  0
LINE
  5
3FAA
330
3003
100
AcDbEntity
  8
寸法線
 62
     0
 48
10.0
100
AcDbLine
 10
426.71651964431
 20
403.330844094271
 30
0.0
 11
489.308988652513
 21
403.330844094271
 31
0.0
  0
LINE
  5
3FAB
330
3003
100
AcDbEntity
  8
寸法線
 62
     0
 48
10.0
100
AcDbLine
 10
488.058988652513
 20
486.330844094271
 30
0.0
 11
488.058988652513
 21
409.330844094271
 31
0.0
  0
INSERT
  5
3FAC
330
3003
100
AcDbEntity
  8
寸法線
 62
     0
100
AcDbBlockReference
  2
_OPEN30
 10
488.058988652513
 20
492.330844094271
 30
0.0
 41
6.0
 42
6.0
 43
6.0
 50
90.0
  0
INSERT
  5
3FAD
330
3003
100
AcDbEntity
  8
寸法線
 62
     0
100
AcDbBlockReference
  2
_OPEN30
 10
488.058988652513
 20
403.330844094271
 30
0.0
 41
6.0
 42
6.0
 43
6.0
 50
270.0
  0
MTEXT
  5
3FAE
330
3003
100
AcDbEntity
  8
寸法線
 62
     0
 48
10.0
100
AcDbMText
 10
483.42565531918
 20
456.936688767787
 30
0.0
 40
8.0
 41
0.0
 71
     5
 72
     1
  1
\A1;89
 11
0.0
 21
1.0
 31
0.0
  0
POINT
  5
3FAF
330
3003
100
AcDbEntity
  8
DEFPOINTS
 62
     0
100
AcDbPoint
 10
468.664081678798
 20
492.330844094271
 30
0.0
  0
POINT
  5
3FB0
330
3003
100
AcDbEntity
  8
DEFPOINTS
 62
     0
100
AcDbPoint
 10
426.09151964431
 20
403.330844094271
 30
0.0
  0
POINT
  5
3FB1
330
3003
100
AcDbEntity
  8
DEFPOINTS
 62
     0
100
AcDbPoint
 10
488.058988652513
 20
403.330844094271
 30
0.0
  0
ENDBLK
  5
300E
330
3003
100
AcDbEntity
  8
0
 48
10.0
100
AcDbBlockEnd
  0
BLOCK
  5
301A
330
3010
100
AcDbEntity
  8
0
 48
10.0
100
AcDbBlockBegin
  2
*D7
 70
     1
 10
0.0
 20
0.0
 30
0.0
  3
*D7
  1

  0
LINE
  5
3677
330
3010
100
AcDbEntity
  8
寸法線
 62
     0
 48
10.0
100
AcDbLine
 10
441.572627995228
 20
441.931603764155
 30
0.0
 11
510.992022482611
 21
441.931603764155
 31
0.0
  0
LINE
  5
3678
330
3010
100
AcDbEntity
  8
寸法線
 62
     0
 48
10.0
100
AcDbLine
 10
441.572627995228
 20
542.499107767979
 30
0.0
 11
510.992022482611
 21
542.499107767979
 31
0.0
  0
LINE
  5
3679
330
3010
100
AcDbEntity
  8
寸法線
 62
     0
 48
10.0
100
AcDbLine
 10
509.742022482611
 20
447.931603764155
 30
0.0
 11
509.742022482611
 21
536.499107767979
 31
0.0
  0
INSERT
  5
367A
330
3010
100
AcDbEntity
  8
寸法線
 62
     0
 48
10.0
100
AcDbBlockReference
  2
_OPEN30
 10
509.742022482611
 20
441.931603764155
 30
0.0
 41
6.0
 42
6.0
 43
6.0
 50
270.0
  0
INSERT
  5
367B
330
3010
100
AcDbEntity
  8
寸法線
 62
     0
 48
10.0
100
AcDbBlockReference
  2
_OPEN30
 10
509.742022482611
 20
542.499107767979
 30
0.0
 41
6.0
 42
6.0
 43
6.0
 50
90.0
  0
MTEXT
  5
367C
330
3010
100
AcDbEntity
  8
寸法線
 62
     0
 48
10.0
100
AcDbMText
 10
505.117022482611
 20
492.215355766067
 30
0.0
 40
8.0
 41
0.0
 71
     5
 72
     1
  1
\A1;φ100
 11
6.123031769111886E-17
 21
1.0
 31
0.0
  0
POINT
  5
367D
330
3010
100
AcDbEntity
  8
DEFPOINTS
 62
     0
 48
10.0
100
AcDbPoint
 10
440.947627995228
 20
441.931603764155
 30
0.0
  0
POINT
  5
367E
330
3010
100
AcDbEntity
  8
DEFPOINTS
 62
     0
 48
10.0
100
AcDbPoint
 10
440.947627995228
 20
542.499107767979
 30
0.0
  0
POINT
  5
367F
330
3010
100
AcDbEntity
  8
DEFPOINTS
 62
     0
 48
10.0
100
AcDbPoint
 10
509.742022482611
 20
542.499107767979
 30
0.0
  0
ENDBLK
  5
301B
330
3010
100
AcDbEntity
  8
0
 48
10.0
100
AcDbBlockEnd
  0
BLOCK
  5
308D
330
3083
100
AcDbEntity
  8
0
 48
10.0
100
AcDbBlockBegin
  2
*D8
 70
     1
 10
0.0
 20
0.0
 30
0.0
  3
*D8
  1

  0
LINE
  5
3F8D
330
3083
100
AcDbEntity
  8
寸法線
 62
     0
 48
10.0
100
AcDbLine
 10
10.258955624965
 20
502.34765081696
 30
0.0
 11
-7.66914893421
 21
502.34765081696
 31
0.0
  0
LINE
  5
3F8E
330
3083
100
AcDbEntity
  8
寸法線
 62
     0
 48
10.0
100
AcDbLine
 10
10.258955624965
 20
482.34765081696
 30
0.0
 11
-7.66914893421
 21
482.34765081696
 31
0.0
  0
LINE
  5
3F8F
330
3083
100
AcDbEntity
  8
寸法線
 62
     0
 48
10.0
100
AcDbLine
 10
-6.41914893421
 20
496.34765081696
 30
0.0
 11
-6.41914893421
 21
488.34765081696
 31
0.0
  0
INSERT
  5
3F90
330
3083
100
AcDbEntity
  8
寸法線
 62
     0
 48
10.0
100
AcDbBlockReference
  2
_OPEN30
 10
-6.41914893421
 20
502.34765081696
 30
0.0
 41
6.0
 42
6.0
 43
6.0
 50
90.0
  0
INSERT
  5
3F91
330
3083
100
AcDbEntity
  8
寸法線
 62
     0
 48
10.0
100
AcDbBlockReference
  2
_OPEN30
 10
-6.41914893421
 20
482.34765081696
 30
0.0
 41
6.0
 42
6.0
 43
6.0
 50
270.0
  0
MTEXT
  5
3F92
330
3083
100
AcDbEntity
  8
寸法線
 62
     0
 48
10.0
100
AcDbMText
 10
-11.044936335785
 20
492.34765081696
 30
0.0
 40
8.0
 41
0.0
 71
     5
 72
     1
  1
\A1;φ20
 11
6.123031769111886E-17
 21
1.0
 31
0.0
  0
POINT
  5
3F93
330
3083
100
AcDbEntity
  8
DEFPOINTS
 62
     0
 48
10.0
100
AcDbPoint
 10
10.883955624965
 20
502.34765081696
 30
0.0
  0
POINT
  5
3F94
330
3083
100
AcDbEntity
  8
DEFPOINTS
 62
     0
 48
10.0
100
AcDbPoint
 10
10.883955624965
 20
482.34765081696
 30
0.0
  0
POINT
  5
3F95
330
3083
100
AcDbEntity
  8
DEFPOINTS
 62
     0
 48
10.0
100
AcDbPoint
 10
-6.41914893421
 20
482.34765081696
 30
0.0
  0
ENDBLK
  5
308E
330
3083
100
AcDbEntity
  8
0
 48
10.0
100
AcDbBlockEnd
  0
BLOCK
  5
30A4
330
309A
100
AcDbEntity
  8
0
 48
10.0
100
AcDbBlockBegin
  2
*D9
 70
     1
 10
0.0
 20
0.0
 30
0.0
  3
*D9
  1

  0
LINE
  5
3FFB
330
309A
100
AcDbEntity
  8
寸法線
 62
     0
 48
10.0
100
AcDbLine
 10
10.883955624965
 20
481.72265081696
 30
0.0
 11
10.883955624965
 21
443.744451318452
 31
0.0
  0
LINE
  5
3FFC
330
309A
100
AcDbEntity
  8
寸法線
 62
     0
 48
10.0
100
AcDbLine
 10
143.883955624965
 20
471.241138211918
 30
0.0
 11
143.883955624965
 21
443.744451318452
 31
0.0
  0
LINE
  5
3FFD
330
309A
100
AcDbEntity
  8
寸法線
 62
     0
 48
10.0
100
AcDbLine
 10
16.883955624965
 20
444.994451318452
 30
0.0
 11
137.883955624965
 21
444.994451318452
 31
0.0
  0
INSERT
  5
3FFE
330
309A
100
AcDbEntity
  8
寸法線
 62
     0
 48
10.0
100
AcDbBlockReference
  2
_OPEN30
 10
10.883955624965
 20
444.994451318452
 30
0.0
 41
6.0
 42
6.0
 43
6.0
 50
180.0
  0
INSERT
  5
3FFF
330
309A
100
AcDbEntity
  8
寸法線
 62
     0
 48
10.0
100
AcDbBlockReference
  2
_OPEN30
 10
143.883955624965
 20
444.994451318452
 30
0.0
 41
6.0
 42
6.0
 43
6.0
  0
MTEXT
  5
4000
330
309A
100
AcDbEntity
  8
寸法線
 62
     0
 48
10.0
100
AcDbMText
 10
77.383955624965
 20
449.619451318452
 30
0.0
 40
8.0
 41
0.0
 71
     5
 72
     1
  1
\A1;133
  0
POINT
  5
4001
330
309A
100
AcDbEntity
  8
DEFPOINTS
 62
     0
 48
10.0
100
AcDbPoint
 10
10.883955624965
 20
482.34765081696
 30
0.0
  0
POINT
  5
4002
330
309A
100
AcDbEntity
  8
DEFPOINTS
 62
     0
 48
10.0
100
AcDbPoint
 10
143.883955624965
 20
471.866138211918
 30
0.0
  0
POINT
  5
4003
330
309A
100
AcDbEntity
  8
DEFPOINTS
 62
     0
 48
10.0
100
AcDbPoint
 10
143.883955624965
 20
444.994451318452
 30
0.0
  0
ENDBLK
  5
30A5
330
309A
100
AcDbEntity
  8
0
 48
10.0
100
AcDbBlockEnd
  0
BLOCK
  5
30DD
330
30D3
100
AcDbEntity
  8
0
 48
10.0
100
AcDbBlockBegin
  2
*D10
 70
     1
 10
0.0
 20
0.0
 30
0.0
  3
*D10
  1

  0
LINE
  5
3665
330
30D3
100
AcDbEntity
  8
寸法線
 62
     0
 48
10.0
100
AcDbLine
 10
468.664835183302
 20
447.173173370621
 30
0.0
 11
468.664835183302
 21
373.580844094271
 31
0.0
  0
LINE
  5
3666
330
30D3
100
AcDbEntity
  8
寸法線
 62
     0
 48
10.0
100
AcDbLine
 10
353.16480518331
 20
464.205844094271
 30
0.0
 11
353.16480518331
 21
373.580844094271
 31
0.0
  0
LINE
  5
3667
330
30D3
100
AcDbEntity
  8
寸法線
 62
     0
 48
10.0
100
AcDbLine
 10
462.664835183302
 20
374.830844094271
 30
0.0
 11
359.16480518331
 21
374.830844094271
 31
0.0
  0
INSERT
  5
3668
330
30D3
100
AcDbEntity
  8
寸法線
 62
     0
100
AcDbBlockReference
  2
_OPEN30
 10
468.664835183302
 20
374.830844094271
 30
0.0
 41
6.0
 42
6.0
 43
6.0
  0
INSERT
  5
3669
330
30D3
100
AcDbEntity
  8
寸法線
 62
     0
100
AcDbBlockReference
  2
_OPEN30
 10
353.16480518331
 20
374.830844094271
 30
0.0
 41
6.0
 42
6.0
 43
6.0
 50
180.0
  0
MTEXT
  5
366A
330
30D3
100
AcDbEntity
  8
寸法線
 62
     0
 48
10.0
100
AcDbMText
 10
410.914820183306
 20
379.460010760938
 30
0.0
 40
8.0
 41
0.0
 71
     5
 72
     1
  1
\A1;120
  0
POINT
  5
366B
330
30D3
100
AcDbEntity
  8
DEFPOINTS
 62
     0
100
AcDbPoint
 10
468.664835183302
 20
447.798173370621
 30
0.0
  0
POINT
  5
366C
330
30D3
100
AcDbEntity
  8
DEFPOINTS
 62
     0
100
AcDbPoint
 10
353.16480518331
 20
464.830844094271
 30
0.0
  0
POINT
  5
366D
330
30D3
100
AcDbEntity
  8
DEFPOINTS
 62
     0
100
AcDbPoint
 10
353.16480518331
 20
374.830844094271
 30
0.0
  0
ENDBLK
  5
30DE
330
30D3
100
AcDbEntity
  8
0
 48
10.0
100
AcDbBlockEnd
  0
BLOCK
  5
34C0
330
3494
100
AcDbEntity
  8
0
 48
10.0
100
AcDbBlockBegin
  2
A$C5338004D
 70
     0
 10
0.0
 20
0.0
 30
0.0
  3
A$C5338004D
  1

  0
LINE
  5
3495
330
3494
100
AcDbEntity
  8
1
  6
DASHED
 62
     7
100
AcDbLine
 10
290.68260249956
 20
-0.000000034179
 30
0.0
 11
290.68260249956
 21
50.999999965821
 31
0.0
  0
LINE
  5
3496
330
3494
100
AcDbEntity
  8
1
  6
CONTINUOUS
 62
     3
100
AcDbLine
 10
361.162525920228
 20
49.959663831367
 30
0.0
 11
361.162525920227
 21
2.040336100275
 31
0.0
  0
LINE
  5
3497
330
3494
100
AcDbEntity
  8
1
 62
     3
100
AcDbLine
 10
359.233017791272
 20
3.985186870746
 30
0.0
 11
361.162525920227
 21
2.040336100275
 31
0.0
  0
LINE
  5
3498
330
3494
100
AcDbEntity
  8
1
 62
     3
100
AcDbLine
 10
284.682602499561
 20
10.799999965821
 30
0.0
 11
240.444435924806
 21
10.799999965821
 31
0.0
  0
LINE
  5
3499
330
3494
100
AcDbEntity
  8
1
 62
     3
100
AcDbLine
 10
352.01785719409
 20
4.152404332875
 30
0.0
 11
345.286028928414
 21
10.799999965821
 31
0.0
  0
LINE
  5
349A
330
3494
100
AcDbEntity
  8
1
 62
     3
100
AcDbLine
 10
345.4249331518
 20
40.799999965821
 30
0.0
 11
345.46850184005
 21
10.799999965821
 31
0.0
  0
LINE
  5
349B
330
3494
100
AcDbEntity
  8
1
 62
     3
100
AcDbLine
 10
234.344435924806
 20
5.035294083468
 30
0.0
 11
226.644435924806
 21
5.035294083468
 31
0.0
  0
LINE
  5
349C
330
3494
100
AcDbEntity
  8
1
 62
     3
100
AcDbLine
 10
221.744435924806
 20
5.035294083468
 30
0.0
 11
162.977209034049
 21
5.035294083468
 31
0.0
  0
ARC
  5
349D
330
3494
100
AcDbEntity
  8
1
 62
     3
100
AcDbCircle
 10
224.194435924806
 20
4.234647024644
 30
0.0
 40
2.577505715377329
100
AcDbArc
 50
18.097118485446
 51
161.902881514554
  0
LINE
  5
349E
330
3494
100
AcDbEntity
  8
1
 62
     3
100
AcDbLine
 10
234.344435924806
 20
5.035294083468
 30
0.0
 11
240.444435924806
 21
10.799999965821
 31
0.0
  0
LINE
  5
349F
330
3494
100
AcDbEntity
  8
1
 62
     3
100
AcDbLine
 10
345.46850184005
 20
10.799999965821
 30
0.0
 11
290.682602499561
 21
10.799999965821
 31
0.0
  0
LINE
  5
34A0
330
3494
100
AcDbEntity
  8
1
 62
     3
100
AcDbLine
 10
240.444435924806
 20
10.799999965821
 30
0.0
 11
240.444435924806
 21
40.799999965821
 31
0.0
  0
LINE
  5
34A1
330
3494
100
AcDbEntity
  8
1
 62
     3
100
AcDbLine
 10
234.344435924806
 20
5.035294083468
 30
0.0
 11
234.344435924806
 21
46.964705848174
 31
0.0
  0
LINE
  5
34A2
330
3494
100
AcDbEntity
  8
1
 62
     3
100
AcDbLine
 10
226.644435924806
 20
46.964705848174
 30
0.0
 11
226.644435924806
 21
5.035294083468
 31
0.0
  0
LINE
  5
34A3
330
3494
100
AcDbEntity
  8
1
 62
     3
100
AcDbLine
 10
221.744435924806
 20
5.035294083468
 30
0.0
 11
221.744435924806
 21
46.964705848174
 31
0.0
  0
LINE
  5
34A4
330
3494
100
AcDbEntity
  8
1
  6
DASHED
 62
     7
100
AcDbLine
 10
284.68260249956
 20
-0.000000034179
 30
0.0
 11
284.68260249956
 21
50.999999965821
 31
0.0
  0
LINE
  5
34A5
330
3494
100
AcDbEntity
  8
1
 62
     3
100
AcDbLine
 10
359.233017791272
 20
3.985186870746
 30
0.0
 11
359.233017791272
 21
48.014813060896
 31
0.0
  0
LINE
  5
34A6
330
3494
100
AcDbEntity
  8
1
100
AcDbLine
 10
359.673847689512
 20
3.65324466901
 30
0.0
 11
377.278185353633
 21
3.65324466901
 31
0.0
  0
LINE
  5
34A7
330
3494
100
AcDbEntity
  8
1
 62
     3
100
AcDbLine
 10
377.144435924806
 20
2.040336100275
 30
0.0
 11
361.162525920227
 21
2.040336100275
 31
0.0
  0
LINE
  5
34A8
330
3494
100
AcDbEntity
  8
1
 62
     3
100
AcDbLine
 10
352.01785719409
 20
4.152404332875
 30
0.0
 11
352.01785719409
 21
47.963025175905
 31
0.0
  0
LINE
  5
34A9
330
3494
100
AcDbEntity
  8
1
 62
     3
100
AcDbLine
 10
359.232796003305
 20
4.152404332875
 30
0.0
 11
352.01785719409
 21
4.152404332875
 31
0.0
  0
LINE
  5
34AA
330
3494
100
AcDbEntity
  8
1
 62
     3
100
AcDbLine
 10
-0.000000543892
 20
16.01680668851
 30
0.0
 11
-0.000000543892
 21
35.983193243132
 31
0.0
  0
LINE
  5
34AB
330
3494
100
AcDbEntity
  8
1
 62
     3
100
AcDbLine
 10
162.477209034049
 20
46.464705848174
 30
0.0
 11
162.477209034049
 21
5.535294083468
 31
0.0
  0
LINE
  5
34AC
330
3494
100
AcDbEntity
  8
1
 62
     3
100
AcDbLine
 10
162.477209034049
 20
16.01680668851
 30
0.0
 11
-0.000000543892
 21
16.01680668851
 31
0.0
  0
ARC
  5
34AD
330
3494
100
AcDbEntity
  8
1
 62
     3
100
AcDbCircle
 10
162.97720903405
 20
5.535294083468
 30
0.0
 40
0.5
100
AcDbArc
 50
180.0
 51
270.0
  0
LINE
  5
34AE
330
3494
100
AcDbEntity
  8
1
 62
     3
100
AcDbLine
 10
377.144435924806
 20
49.959663831367
 30
0.0
 11
361.162525920228
 21
49.959663831367
 31
0.0
  0
LINE
  5
34AF
330
3494
100
AcDbEntity
  8
1
 62
     3
100
AcDbLine
 10
359.233017791272
 20
48.014813060896
 30
0.0
 11
361.162525920228
 21
49.959663831367
 31
0.0
  0
LINE
  5
34B0
330
3494
100
AcDbEntity
  8
1
 62
     3
100
AcDbLine
 10
290.682602499561
 20
40.799999965821
 30
0.0
 11
345.4249331518
 21
40.799999965821
 31
0.0
  0
LINE
  5
34B1
330
3494
100
AcDbEntity
  8
1
 62
     3
100
AcDbLine
 10
352.01785719409
 20
47.963025175905
 30
0.0
 11
345.4249331518
 21
40.799999965821
 31
0.0
  0
LINE
  5
34B2
330
3494
100
AcDbEntity
  8
1
 62
     3
100
AcDbLine
 10
359.233017791272
 20
47.963025175905
 30
0.0
 11
352.01785719409
 21
47.963025175905
 31
0.0
  0
LINE
  5
34B3
330
3494
100
AcDbEntity
  8
1
100
AcDbLine
 10
359.673847689512
 20
48.462184839771
 30
0.0
 11
377.278185353633
 21
48.462184839771
 31
0.0
  0
LINE
  5
34B4
330
3494
100
AcDbEntity
  8
1
 62
     3
100
AcDbLine
 10
234.344435924806
 20
46.964705848174
 30
0.0
 11
226.644435924806
 21
46.964705848174
 31
0.0
  0
LINE
  5
34B5
330
3494
100
AcDbEntity
  8
1
 62
     3
100
AcDbLine
 10
221.744435924806
 20
46.964705848174
 30
0.0
 11
162.977209034049
 21
46.964705848174
 31
0.0
  0
ARC
  5
34B6
330
3494
100
AcDbEntity
  8
1
 62
     3
100
AcDbCircle
 10
224.194435924806
 20
47.254363776563
 30
0.0
 40
2.467063378893744
100
AcDbArc
 50
186.742650169572
 51
353.257349830428
  0
LINE
  5
34B7
330
3494
100
AcDbEntity
  8
1
 62
     3
100
AcDbLine
 10
234.344435924806
 20
46.964705848174
 30
0.0
 11
240.444435924806
 21
40.799999965821
 31
0.0
  0
LINE
  5
34B8
330
3494
100
AcDbEntity
  8
1
 62
     3
100
AcDbLine
 10
240.444435924806
 20
40.799999965821
 30
0.0
 11
284.682602499561
 21
40.799999965821
 31
0.0
  0
LINE
  5
34B9
330
3494
100
AcDbEntity
  8
1
 62
     3
100
AcDbLine
 10
162.477209034049
 20
35.983193243132
 30
0.0
 11
-0.000000543892
 21
35.983193243132
 31
0.0
  0
LINE
  5
34BA
330
3494
100
AcDbEntity
  8
1
 62
     3
100
AcDbLine
 10
377.144435924806
 20
2.040336100275
 30
0.0
 11
377.144435924806
 21
49.959663831367
 31
0.0
  0
ARC
  5
34BB
330
3494
100
AcDbEntity
  8
1
 62
     3
100
AcDbCircle
 10
378.142755252537
 20
48.961344503636
 30
0.0
 40
0.9983193277310926
100
AcDbArc
 50
180.0
 51
270.0
  0
LINE
  5
34BC
330
3494
100
AcDbEntity
  8
1
 62
     3
100
AcDbLine
 10
379.141074580268
 20
47.963025175905
 30
0.0
 11
378.142755252537
 21
47.963025175905
 31
0.0
  0
ARC
  5
34BD
330
3494
100
AcDbEntity
  8
1
 62
     3
100
AcDbCircle
 10
378.142755252537
 20
3.038655428006
 30
0.0
 40
0.9983193277310926
100
AcDbArc
 50
90.0
 51
180.0
  0
LINE
  5
34BE
330
3494
100
AcDbEntity
  8
1
 62
     3
100
AcDbLine
 10
379.141074580268
 20
4.036974755737
 30
0.0
 11
378.142755252537
 21
4.036974755737
 31
0.0
  0
ARC
  5
34BF
330
3494
100
AcDbEntity
  8
1
 62
     3
100
AcDbCircle
 10
379.141074580268
 20
3.038655428006
 30
0.0
 40
0.9983193277310926
100
AcDbArc
 50
0.0
 51
90.0
  0
ENDBLK
  5
34C1
330
3494
100
AcDbEntity
  8
0
 48
10.0
100
AcDbBlockEnd
  0
BLOCK
  5
3596
330
358C
100
AcDbEntity
  8
0
 48
10.0
100
AcDbBlockBegin
  2
*D13
 70
     1
 10
0.0
 20
0.0
 30
0.0
  3
*D13
  1

  0
LINE
  5
368A
330
358C
100
AcDbEntity
  8
寸法線
 62
     0
 48
10.0
100
AcDbLine
 10
162.425039148589
 20
471.366138211918
 30
0.0
 11
163.050039148589
 21
471.366138211918
 31
0.0
  0
LINE
  5
368B
330
358C
100
AcDbEntity
  8
寸法線
 62
     0
 48
10.0
100
AcDbLine
 10
162.425039148589
 20
513.295549976624
 30
0.0
 11
163.050039148589
 21
513.295549976624
 31
0.0
  0
LINE
  5
368C
330
358C
100
AcDbEntity
  8
寸法線
 62
     0
 48
10.0
100
AcDbLine
 10
161.800039148589
 20
477.366138211918
 30
0.0
 11
161.800039148589
 21
507.295549976624
 31
0.0
  0
LINE
  5
368D
330
358C
100
AcDbEntity
  8
寸法線
 62
     0
 48
10.0
100
AcDbLine
 10
161.800039148589
 20
513.295549976624
 30
0.0
 11
161.800039148589
 21
540.145549976624
 31
0.0
  0
INSERT
  5
368E
330
358C
100
AcDbEntity
  8
寸法線
 62
     0
 48
10.0
100
AcDbBlockReference
  2
_OPEN30
 10
161.800039148589
 20
471.366138211918
 30
0.0
 41
6.0
 42
6.0
 43
6.0
 50
270.0
  0
INSERT
  5
368F
330
358C
100
AcDbEntity
  8
寸法線
 62
     0
 48
10.0
100
AcDbBlockReference
  2
_OPEN30
 10
161.800039148589
 20
513.295549976624
 30
0.0
 41
6.0
 42
6.0
 43
6.0
 50
90.0
  0
MTEXT
  5
3690
330
358C
100
AcDbEntity
  8
寸法線
 62
     0
 48
10.0
100
AcDbMText
 10
157.175039148589
 20
529.720549976624
 30
0.0
 40
8.0
 41
0.0
 71
     5
 72
     1
  1
\A1;φ44
 11
6.123031769111886E-17
 21
1.0
 31
0.0
  0
POINT
  5
3691
330
358C
100
AcDbEntity
  8
DEFPOINTS
 62
     0
 48
10.0
100
AcDbPoint
 10
161.800039148589
 20
471.366138211918
 30
0.0
  0
POINT
  5
3692
330
358C
100
AcDbEntity
  8
DEFPOINTS
 62
     0
 48
10.0
100
AcDbPoint
 10
161.800039148589
 20
513.295549976624
 30
0.0
  0
POINT
  5
3693
330
358C
100
AcDbEntity
  8
DEFPOINTS
 62
     0
 48
10.0
100
AcDbPoint
 10
161.800039148589
 20
513.295549976624
 30
0.0
  0
ENDBLK
  5
3597
330
358C
100
AcDbEntity
  8
0
 48
10.0
100
AcDbBlockEnd
  0
BLOCK
  5
36A9
330
369F
100
AcDbEntity
  8
0
 48
10.0
100
AcDbBlockBegin
  2
*D15
 70
     1
 10
0.0
 20
0.0
 30
0.0
  3
*D15
  1

  0
LINE
  5
4016
330
369F
100
AcDbEntity
  8
寸法線
 62
     0
 48
10.0
100
AcDbLine
 10
10.883955624965
 20
444.369451318452
 30
0.0
 11
10.883955624965
 21
373.580844094271
 31
0.0
  0
LINE
  5
4017
330
369F
100
AcDbEntity
  8
寸法線
 62
     0
 48
10.0
100
AcDbLine
 10
353.16480518331
 20
374.205844094271
 30
0.0
 11
353.16480518331
 21
373.580844094271
 31
0.0
  0
LINE
  5
4018
330
369F
100
AcDbEntity
  8
寸法線
 62
     0
 48
10.0
100
AcDbLine
 10
16.883955624965
 20
374.830844094271
 30
0.0
 11
347.16480518331
 21
374.830844094271
 31
0.0
  0
INSERT
  5
4019
330
369F
100
AcDbEntity
  8
寸法線
 62
     0
100
AcDbBlockReference
  2
_OPEN30
 10
10.883955624965
 20
374.830844094271
 30
0.0
 41
6.0
 42
6.0
 43
6.0
 50
180.0
  0
INSERT
  5
401A
330
369F
100
AcDbEntity
  8
寸法線
 62
     0
100
AcDbBlockReference
  2
_OPEN30
 10
353.16480518331
 20
374.830844094271
 30
0.0
 41
6.0
 42
6.0
 43
6.0
  0
POINT
  5
401B
330
369F
100
AcDbEntity
  8
DEFPOINTS
 62
     0
100
AcDbPoint
 10
10.883955624965
 20
444.994451318452
 30
0.0
  0
POINT
  5
401C
330
369F
100
AcDbEntity
  8
DEFPOINTS
 62
     0
100
AcDbPoint
 10
353.16480518331
 20
374.830844094271
 30
0.0
  0
POINT
  5
401D
330
369F
100
AcDbEntity
  8
DEFPOINTS
 62
     0
100
AcDbPoint
 10
353.16480518331
 20
374.830844094271
 30
0.0
  0
ENDBLK
  5
36AA
330
369F
100
AcDbEntity
  8
0
 48
10.0
100
AcDbBlockEnd
  0
BLOCK
  5
3856
330
380B
100
AcDbEntity
  8
0
 48
10.0
100
AcDbBlockBegin
  2
A$C6CF77348
 70
     0
 10
0.0
 20
0.0
 30
0.0
  3
A$C6CF77348
  1

  0
TEXT
  5
380C
330
380B
100
AcDbEntity
  8
寸法線
100
AcDbText
 10
46.814933987079
 20
-262.123153326433
 30
0.0
 40
7.0
  1
(ＮＯ)
 41
1.004408876742
  7
EXCADSTD
 72
     5
 11
73.06348596593
 21
-262.123153326433
 31
0.0
100
AcDbText
  0
TEXT
  5
380D
330
380B
100
AcDbEntity
  8
寸法線
100
AcDbText
 10
-4.843109179304
 20
-262.323153326433
 30
0.0
 40
7.0
  1
(ＮＣ)
 41
0.941824109314
  7
EXCADSTD
 72
     5
 11
19.769894210757
 21
-262.323153326433
 31
0.0
100
AcDbText
  0
TEXT
  5
380E
330
380B
100
AcDbEntity
  8
寸法線
100
AcDbText
 10
-79.743207764812
 20
-278.787091814671
 30
0.0
 40
7.0
  1
ＰＥ：グランド
 41
0.875
  7
EXCADSTD
 72
     5
 11
-30.743207764812
 21
-278.787091814671
 31
0.0
100
AcDbText
  0
TEXT
  5
380F
330
380B
100
AcDbEntity
  8
寸法線
100
AcDbText
 10
-79.743207764812
 20
-287.787091814671
 30
0.0
 40
7.0
  1
 Ｎ ：電源
 41
0.874347749435
  7
EXCADSTD
 72
     5
 11
-44.652718087475
 21
-287.787091814671
 31
0.0
100
AcDbText
  0
TEXT
  5
3810
330
380B
100
AcDbEntity
  8
寸法線
100
AcDbText
 10
-79.743207764812
 20
-296.787091814671
 30
0.0
 40
7.0
  1
Ｌ１：電源
 41
0.877216798635
  7
EXCADSTD
 72
     5
 11
-44.537573579604
 21
-296.787091814671
 31
0.0
100
AcDbText
  0
TEXT
  5
3811
330
380B
100
AcDbEntity
  8
寸法線
100
AcDbText
 10
-79.743207764812
 20
-305.787091814671
 30
0.0
 40
7.0
  1
 Ｃ ：コモン
 41
0.873786407767
  7
EXCADSTD
 72
     5
 11
-37.743207764812
 21
-305.787091814671
 31
0.0
100
AcDbText
  0
TEXT
  5
3812
330
380B
100
AcDbEntity
  8
寸法線
100
AcDbText
 10
-79.743207764812
 20
-324.510800534122
 30
0.0
 40
7.0
  1
ＮＣ：クローズ（オープン）
 41
0.875493548803
  7
EXCADSTD
 72
     5
 11
10.957923891221
 21
-324.510800534122
 31
0.0
100
AcDbText
  0
TEXT
  5
3813
330
380B
100
AcDbEntity
  8
寸法線
100
AcDbText
 10
-79.743207764812
 20
-314.921355410973
 30
0.0
 40
7.0
  1
ＮＯ：オープン（クローズ）
 41
0.87427630648
  7
EXCADSTD
 72
     5
 11
10.831817586514
 21
-314.921355410973
 31
0.0
100
AcDbText
  0
LINE
  5
3814
330
380B
100
AcDbEntity
  8
寸法線
100
AcDbLine
 10
-3.594719550215
 20
-205.316854837469
 30
0.0
 11
-3.594719550215
 21
-213.736854837469
 31
0.0
  0
LINE
  5
3815
330
380B
100
AcDbEntity
  8
寸法線
100
AcDbLine
 10
-3.594719550215
 20
-202.916854837469
 30
0.0
 11
-3.594719550215
 21
-198.916854837469
 31
0.0
  0
LINE
  5
3816
330
380B
100
AcDbEntity
  8
寸法線
100
AcDbLine
 10
-1.594719550215
 20
-200.916854837469
 30
0.0
 11
-5.594719550215
 21
-200.916854837469
 31
0.0
  0
LINE
  5
3817
330
380B
100
AcDbEntity
  8
寸法線
100
AcDbLine
 10
0.805280449785
 20
-205.316854837469
 30
0.0
 11
0.805280449785
 21
-196.516854837469
 31
0.0
  0
LINE
  5
3818
330
380B
100
AcDbEntity
  8
寸法線
100
AcDbLine
 10
-7.994719550215
 20
-205.316854837469
 30
0.0
 11
-7.994719550215
 21
-196.516854837469
 31
0.0
  0
CIRCLE
  5
3819
330
380B
100
AcDbEntity
  8
寸法線
100
AcDbCircle
 10
-3.594719550215
 20
-200.916854837469
 30
0.0
 40
4.40000000000004
  0
POINT
  5
381A
330
380B
100
AcDbEntity
  8
寸法線
100
AcDbPoint
 10
-3.594719550215
 20
-200.916854837469
 30
0.0
  0
LINE
  5
381B
330
380B
100
AcDbEntity
  8
寸法線
100
AcDbLine
 10
-7.994719550215
 20
-196.516854837469
 30
0.0
 11
0.805280449785
 21
-196.516854837469
 31
0.0
  0
LINE
  5
381C
330
380B
100
AcDbEntity
  8
寸法線
100
AcDbLine
 10
-4.494719550215
 20
-220.816854837469
 30
0.0
 11
-2.414719550215
 21
-220.816854837469
 31
0.0
  0
LINE
  5
381D
330
380B
100
AcDbEntity
  8
寸法線
100
AcDbLine
 10
-5.714719550215
 20
-219.076854837469
 30
0.0
 11
-1.294719550215
 21
-219.076854837469
 31
0.0
  0
LINE
  5
381E
330
380B
100
AcDbEntity
  8
寸法線
100
AcDbLine
 10
-7.254719550215
 20
-217.276854837469
 30
0.0
 11
0.265280449785
 21
-217.276854837469
 31
0.0
  0
CIRCLE
  5
381F
330
380B
100
AcDbEntity
  8
寸法線
100
AcDbCircle
 10
-3.594719550215
 20
-218.736854837469
 30
0.0
 40
5.0
  0
LINE
  5
3820
330
380B
100
AcDbEntity
  8
寸法線
100
AcDbLine
 10
-3.594719550215
 20
-213.736854837469
 30
0.0
 11
-3.594719550215
 21
-217.276854837469
 31
0.0
  0
POINT
  5
3821
330
380B
100
AcDbEntity
  8
寸法線
100
AcDbPoint
 10
-3.594719550215
 20
-205.316854837469
 30
0.0
  0
LINE
  5
3822
330
380B
100
AcDbEntity
  8
寸法線
100
AcDbLine
 10
48.685280449785
 20
-162.116854837469
 30
0.0
 11
61.805280449785
 21
-162.116854837469
 31
0.0
  0
LINE
  5
3823
330
380B
100
AcDbEntity
  8
寸法線
100
AcDbLine
 10
35.485790005219
 20
-176.923224280397
 30
0.0
 11
49.845346325867
 21
-160.716854837469
 31
0.0
  0
LINE
  5
3824
330
380B
100
AcDbEntity
  8
寸法線
100
AcDbLine
 10
26.714628035926
 20
-162.116854837469
 30
0.0
 11
9.485280449785
 21
-162.116854837469
 31
0.0
  0
CIRCLE
  5
3825
330
380B
100
AcDbEntity
  8
寸法線
100
AcDbCircle
 10
35.645280449785
 20
-178.916854837469
 30
0.0
 40
2.0
  0
LINE
  5
3826
330
380B
100
AcDbEntity
  8
寸法線
100
AcDbLine
 10
9.485280449785
 20
-190.316854837469
 30
0.0
 11
9.485280449785
 21
-162.116854837469
 31
0.0
  0
LINE
  5
3827
330
380B
100
AcDbEntity
  8
寸法線
100
AcDbLine
 10
35.645280449785
 20
-190.316854837469
 30
0.0
 11
35.645280449785
 21
-180.916854837469
 31
0.0
  0
LINE
  5
3828
330
380B
100
AcDbEntity
  8
寸法線
100
AcDbLine
 10
61.805280449785
 20
-190.516854837469
 30
0.0
 11
61.805280449785
 21
-162.116854837469
 31
0.0
  0
LINE
  5
3829
330
380B
100
AcDbEntity
  8
寸法線
100
AcDbLine
 10
-78.194719550215
 20
-207.316854837469
 30
0.0
 11
71.005280449785
 21
-207.316854837469
 31
0.0
  0
LINE
  5
382A
330
380B
100
AcDbEntity
  8
寸法線
100
AcDbLine
 10
71.005280449785
 20
-207.316854837469
 30
0.0
 11
71.005280449785
 21
-153.316854837469
 31
0.0
  0
LINE
  5
382B
330
380B
100
AcDbEntity
  8
寸法線
100
AcDbLine
 10
-78.194719550215
 20
-153.316854837469
 30
0.0
 11
71.005280449785
 21
-153.316854837469
 31
0.0
  0
LINE
  5
382C
330
380B
100
AcDbEntity
  8
寸法線
100
AcDbLine
 10
-78.194719550215
 20
-207.316854837469
 30
0.0
 11
-78.194719550215
 21
-153.316854837469
 31
0.0
  0
TEXT
  5
382D
330
380B
100
AcDbEntity
  8
寸法線
100
AcDbText
 10
53.68577482571
 20
-253.716854837469
 30
0.0
 40
7.0
  1
ＮＣ
 41
1.04850766672
  7
EXCADSTD
 72
     5
 11
68.364882159786
 21
-253.716854837469
 31
0.0
100
AcDbText
  0
TEXT
  5
382E
330
380B
100
AcDbEntity
  8
寸法線
100
AcDbText
 10
32.605280449785
 20
-253.716854837469
 30
0.0
 40
7.0
  1
Ｃ
 41
1.071428571429
  7
EXCADSTD
 72
     5
 11
38.605280449785
 21
-253.716854837469
 31
0.0
100
AcDbText
  0
TEXT
  5
382F
330
380B
100
AcDbEntity
  8
寸法線
100
AcDbText
 10
1.383893578297
 20
-253.516854837469
 30
0.0
 40
7.0
  1
ＮＯ
 41
1.015055885342
  7
EXCADSTD
 72
     5
 11
16.068368719579
 21
-253.516854837469
 31
0.0
100
AcDbText
  0
TEXT
  5
3830
330
380B
100
AcDbEntity
  8
寸法線
100
AcDbText
 10
-21.693136248829
 20
-253.516854837469
 30
0.0
 40
7.0
  1
Ｌ１
 41
0.724186142201
  7
EXCADSTD
 72
     5
 11
-12.906344390122
 21
-253.516854837469
 31
0.0
100
AcDbText
  0
TEXT
  5
3831
330
380B
100
AcDbEntity
  8
寸法線
100
AcDbText
 10
-45.969475824313
 20
-253.516854837469
 30
0.0
 40
7.0
  1
Ｎ
 41
0.880295194184
  7
EXCADSTD
 72
     5
 11
-40.629018312929
 21
-253.516854837469
 31
0.0
100
AcDbText
  0
TEXT
  5
3832
330
380B
100
AcDbEntity
  8
寸法線
100
AcDbText
 10
-76.394719550215
 20
-253.716854837469
 30
0.0
 40
7.0
  1
ＰＥ
 41
1.034482758621
  7
EXCADSTD
 72
     5
 11
-62.394719550215
 21
-253.716854837469
 31
0.0
100
AcDbText
  0
TEXT
  5
3833
330
380B
100
AcDbEntity
  8
寸法線
100
AcDbText
 10
58.469746544755
 20
-199.852388742499
 30
0.0
 40
7.071067810059
  1
6
 41
1.5
  7
EXCADSTD
 72
     5
 11
65.540814354814
 21
-199.852388742499
 31
0.0
100
AcDbText
  0
CIRCLE
  5
3834
330
380B
100
AcDbEntity
  8
寸法線
100
AcDbCircle
 10
62.005280449785
 20
-196.316854837469
 30
0.0
 40
5.0
  0
TEXT
  5
3835
330
380B
100
AcDbEntity
  8
寸法線
100
AcDbText
 10
32.269746544755
 20
-199.852388742499
 30
0.0
 40
7.071067810059
  1
5
 41
1.5
  7
EXCADSTD
 72
     5
 11
39.340814354814
 21
-199.852388742499
 31
0.0
100
AcDbText
  0
CIRCLE
  5
3836
330
380B
100
AcDbEntity
  8
寸法線
100
AcDbCircle
 10
35.805280449785
 20
-196.316854837469
 30
0.0
 40
5.0
  0
TEXT
  5
3837
330
380B
100
AcDbEntity
  8
寸法線
100
AcDbText
 10
6.069746544755
 20
-199.852388742499
 30
0.0
 40
7.071067810059
  1
4
 41
1.5
  7
EXCADSTD
 72
     5
 11
13.140814354814
 21
-199.852388742499
 31
0.0
100
AcDbText
  0
CIRCLE
  5
3838
330
380B
100
AcDbEntity
  8
寸法線
100
AcDbCircle
 10
9.605280449785
 20
-196.316854837469
 30
0.0
 40
5.0
  0
TEXT
  5
3839
330
380B
100
AcDbEntity
  8
寸法線
100
AcDbText
 10
-20.130253455245
 20
-199.852388742499
 30
0.0
 40
7.071067810059
  1
3
 41
1.5
  7
EXCADSTD
 72
     5
 11
-13.059185645186
 21
-199.852388742499
 31
0.0
100
AcDbText
  0
CIRCLE
  5
383A
330
380B
100
AcDbEntity
  8
寸法線
100
AcDbCircle
 10
-16.594719550215
 20
-196.316854837469
 30
0.0
 40
5.0
  0
TEXT
  5
383B
330
380B
100
AcDbEntity
  8
寸法線
100
AcDbText
 10
-46.330253455245
 20
-199.852388742499
 30
0.0
 40
7.071067810059
  1
2
 41
1.5
  7
EXCADSTD
 72
     5
 11
-39.259185645186
 21
-199.852388742499
 31
0.0
100
AcDbText
  0
CIRCLE
  5
383C
330
380B
100
AcDbEntity
  8
寸法線
100
AcDbCircle
 10
-42.794719550215
 20
-196.316854837469
 30
0.0
 40
5.0
  0
TEXT
  5
383D
330
380B
100
AcDbEntity
  8
寸法線
100
AcDbText
 10
-72.730253455245
 20
-199.852388742499
 30
0.0
 40
7.071067810059
  1
1
 41
2.0
  7
EXCADSTD
 72
     5
 11
-65.659185645186
 21
-199.852388742499
 31
0.0
100
AcDbText
  0
CIRCLE
  5
383E
330
380B
100
AcDbEntity
  8
寸法線
100
AcDbCircle
 10
-69.194719550215
 20
-196.316854837469
 30
0.0
 40
5.0
  0
LINE
  5
383F
330
380B
100
AcDbEntity
  8
寸法線
100
AcDbLine
 10
69.005280449785
 20
-205.316854837469
 30
0.0
 11
63.805280449785
 21
-205.316854837469
 31
0.0
  0
LINE
  5
3840
330
380B
100
AcDbEntity
  8
寸法線
100
AcDbLine
 10
37.645280449785
 20
-205.316854837469
 30
0.0
 11
59.805280449785
 21
-205.316854837469
 31
0.0
  0
LINE
  5
3841
330
380B
100
AcDbEntity
  8
寸法線
100
AcDbLine
 10
11.485280449785
 20
-205.316854837469
 30
0.0
 11
33.645280449785
 21
-205.316854837469
 31
0.0
  0
LINE
  5
3842
330
380B
100
AcDbEntity
  8
寸法線
100
AcDbLine
 10
-14.674719550215
 20
-205.316854837469
 30
0.0
 11
7.485280449785
 21
-205.316854837469
 31
0.0
  0
LINE
  5
3843
330
380B
100
AcDbEntity
  8
寸法線
100
AcDbLine
 10
-40.834719550215
 20
-205.316854837469
 30
0.0
 11
-18.674719550215
 21
-205.316854837469
 31
0.0
  0
LINE
  5
3844
330
380B
100
AcDbEntity
  8
寸法線
100
AcDbLine
 10
-66.994719550215
 20
-205.316854837469
 30
0.0
 11
-44.834719550215
 21
-205.316854837469
 31
0.0
  0
LINE
  5
3845
330
380B
100
AcDbEntity
  8
寸法線
100
AcDbLine
 10
-70.994719550215
 20
-205.316854837469
 30
0.0
 11
-76.194719550215
 21
-205.316854837469
 31
0.0
  0
LINE
  5
3846
330
380B
100
AcDbEntity
  8
寸法線
100
AcDbLine
 10
35.645280449785
 20
-207.316854837469
 30
0.0
 11
35.645280449785
 21
-245.316854837469
 31
0.0
  0
LINE
  5
3847
330
380B
100
AcDbEntity
  8
寸法線
100
AcDbLine
 10
9.485280449785
 20
-207.316854837469
 30
0.0
 11
9.485280449785
 21
-245.316854837469
 31
0.0
  0
LINE
  5
3848
330
380B
100
AcDbEntity
  8
寸法線
100
AcDbLine
 10
-16.674719550215
 20
-207.316854837469
 30
0.0
 11
-16.674719550215
 21
-245.316854837469
 31
0.0
  0
LINE
  5
3849
330
380B
100
AcDbEntity
  8
寸法線
100
AcDbLine
 10
-42.834719550215
 20
-207.316854837469
 30
0.0
 11
-42.834719550215
 21
-245.316854837469
 31
0.0
  0
CIRCLE
  5
384A
330
380B
100
AcDbEntity
  8
寸法線
100
AcDbCircle
 10
61.805280449785
 20
-205.316854837469
 30
0.0
 40
2.0
  0
CIRCLE
  5
384B
330
380B
100
AcDbEntity
  8
寸法線
100
AcDbCircle
 10
35.645280449785
 20
-205.316854837469
 30
0.0
 40
2.0
  0
CIRCLE
  5
384C
330
380B
100
AcDbEntity
  8
寸法線
100
AcDbCircle
 10
9.485280449785
 20
-205.316854837469
 30
0.0
 40
2.0
  0
CIRCLE
  5
384D
330
380B
100
AcDbEntity
  8
寸法線
100
AcDbCircle
 10
-16.674719550215
 20
-205.316854837469
 30
0.0
 40
2.0
  0
CIRCLE
  5
384E
330
380B
100
AcDbEntity
  8
寸法線
100
AcDbCircle
 10
-42.834719550215
 20
-205.316854837469
 30
0.0
 40
2.0
  0
CIRCLE
  5
384F
330
380B
100
AcDbEntity
  8
寸法線
100
AcDbCircle
 10
-68.994719550215
 20
-205.316854837469
 30
0.0
 40
2.0
  0
LINE
  5
3850
330
380B
100
AcDbEntity
  8
寸法線
100
AcDbLine
 10
61.805280449785
 20
-207.316854837469
 30
0.0
 11
61.805280449785
 21
-245.316854837469
 31
0.0
  0
LINE
  5
3851
330
380B
100
AcDbEntity
  8
寸法線
100
AcDbLine
 10
-68.994719550215
 20
-207.316854837469
 30
0.0
 11
-68.994719550215
 21
-245.316854837469
 31
0.0
  0
LINE
  5
3852
330
380B
100
AcDbEntity
  8
寸法線
100
AcDbLine
 10
-76.194719550215
 20
-155.316854837469
 30
0.0
 11
-76.194719550215
 21
-205.316854837469
 31
0.0
  0
LINE
  5
3853
330
380B
100
AcDbEntity
  8
寸法線
100
AcDbLine
 10
69.005280449785
 20
-155.316854837469
 30
0.0
 11
-76.194719550215
 21
-155.316854837469
 31
0.0
  0
LINE
  5
3854
330
380B
100
AcDbEntity
  8
寸法線
100
AcDbLine
 10
69.005280449785
 20
-155.316854837469
 30
0.0
 11
69.005280449785
 21
-205.316854837469
 31
0.0
  0
MTEXT
  5
3855
330
380B
100
AcDbEntity
  8
寸法線
 48
10.0
100
AcDbMText
 10
39.371862693352
 20
95.25299534473
 30
0.0
 40
8.0
 41
0.0
 71
     7
 72
     1
  1
振動部（検知部）\PKO36（SUS316相当）
  0
ENDBLK
  5
3857
330
380B
100
AcDbEntity
  8
0
 48
10.0
100
AcDbBlockEnd
  0
BLOCK
  5
3EAA
330
3EA0
100
AcDbEntity
  8
0
 48
10.0
100
AcDbBlockBegin
  2
*D17
 70
     1
 10
0.0
 20
0.0
 30
0.0
  3
*D17
  1

  0
LINE
  5
401E
330
3EA0
100
AcDbEntity
  8
寸法線
 62
     0
 48
10.0
100
AcDbLine
 10
332.16483518331
 20
469.691030999196
 30
0.0
 11
332.16483518331
 21
443.744451318452
 31
0.0
  0
LINE
  5
401F
330
3EA0
100
AcDbEntity
  8
寸法線
 62
     0
 48
10.0
100
AcDbLine
 10
353.16480518331
 20
464.205844094271
 30
0.0
 11
353.16480518331
 21
443.744451318452
 31
0.0
  0
LINE
  5
4020
330
3EA0
100
AcDbEntity
  8
寸法線
 62
     0
 48
10.0
100
AcDbLine
 10
338.16483518331
 20
444.994451318452
 30
0.0
 11
347.16480518331
 21
444.994451318452
 31
0.0
  0
INSERT
  5
4021
330
3EA0
100
AcDbEntity
  8
寸法線
 62
     0
100
AcDbBlockReference
  2
_OPEN30
 10
332.16483518331
 20
444.994451318452
 30
0.0
 41
6.0
 42
6.0
 43
6.0
 50
180.0
  0
INSERT
  5
4022
330
3EA0
100
AcDbEntity
  8
寸法線
 62
     0
100
AcDbBlockReference
  2
_OPEN30
 10
353.16480518331
 20
444.994451318452
 30
0.0
 41
6.0
 42
6.0
 43
6.0
  0
MTEXT
  5
4023
330
3EA0
100
AcDbEntity
  8
寸法線
 62
     0
 48
10.0
100
AcDbMText
 10
342.66482018331
 20
449.623617985119
 30
0.0
 40
8.0
 41
0.0
 71
     5
 72
     1
  1
\A1;21
  0
POINT
  5
4024
330
3EA0
100
AcDbEntity
  8
DEFPOINTS
 62
     0
100
AcDbPoint
 10
332.16483518331
 20
470.316030999196
 30
0.0
  0
POINT
  5
4025
330
3EA0
100
AcDbEntity
  8
DEFPOINTS
 62
     0
100
AcDbPoint
 10
353.16480518331
 20
464.830844094271
 30
0.0
  0
POINT
  5
4026
330
3EA0
100
AcDbEntity
  8
DEFPOINTS
 62
     0
100
AcDbPoint
 10
353.16480518331
 20
444.994451318452
 30
0.0
  0
ENDBLK
  5
3EAB
330
3EA0
100
AcDbEntity
  8
0
 48
10.0
100
AcDbBlockEnd
  0
ENDSEC
  0
SECTION
  2
ENTITIES
  0
ARC
  5
2D85
330
1A
100
AcDbEntity
  8
外形線
100
AcDbCircle
 10
431.186166974976
 20
539.468238020969
 30
0.0
 40
2.073556783584
100
AcDbArc
 50
90.0
 51
136.091731908436
  0
LINE
  5
2D86
330
1A
100
AcDbEntity
  8
外形線
100
AcDbLine
 10
429.692270828486
 20
540.906261678023
 30
0.0
 11
428.843300479146
 21
540.024305719133
 31
0.0
  0
ARC
  5
2D87
330
1A
100
AcDbEntity
  8
外形線
100
AcDbCircle
 10
427.349404332656
 20
541.462329376189
 30
0.0
 40
2.073556783584
100
AcDbArc
 50
270.0
 51
316.091731908441
  0
LINE
  5
2D88
330
1A
100
AcDbEntity
  8
外形線
100
AcDbLine
 10
435.487926645958
 20
541.541794804553
 30
0.0
 11
431.186166974976
 21
541.541794804553
 31
0.0
  0
ARC
  5
2D89
330
1A
100
AcDbEntity
  8
外形線
100
AcDbCircle
 10
430.921209185104
 20
461.319359690667
 30
0.0
 40
1.2441340701504
100
AcDbArc
 50
217.230967965681
 51
270.0
  0
ARC
  5
2D8A
330
1A
100
AcDbEntity
  8
外形線
100
AcDbCircle
 10
426.92941591772
 20
464.259815921637
 30
0.0
 40
1.2441340701504
100
AcDbArc
 50
37.230967965672
 51
90.0
  0
LINE
  5
2D8B
330
1A
100
AcDbEntity
  8
外形線
100
AcDbLine
 10
435.487926645958
 20
460.075225620515
 30
0.0
 11
430.921209185104
 21
460.075225620515
 31
0.0
  0
LINE
  5
2D8C
330
1A
100
AcDbEntity
  8
細線
100
AcDbLine
 10
427.349404332656
 20
539.388772592603
 30
0.0
 11
427.349404332656
 21
466.173416094271
 31
0.0
  0
LINE
  5
2D8D
330
1A
100
AcDbEntity
  8
外形線
100
AcDbLine
 10
433.037934869316
 20
423.470844094271
 30
0.0
 11
433.037934869316
 21
429.400844094271
 31
0.0
  0
LINE
  5
2D8E
330
1A
100
AcDbEntity
  8
外形線
100
AcDbLine
 10
430.964378085732
 20
429.400844094271
 30
0.0
 11
430.964378085732
 21
431.080844094271
 31
0.0
  0
LINE
  5
2D8F
330
1A
100
AcDbEntity
  8
外形線
100
AcDbLine
 10
424.225318539084
 20
423.470844094271
 30
0.0
 11
424.225318539084
 21
429.400844094271
 31
0.0
  0
LINE
  5
2D90
330
1A
100
AcDbEntity
  8
外形線
100
AcDbLine
 10
426.817264518564
 20
423.470844094271
 30
0.0
 11
426.817264518564
 21
429.400844094271
 31
0.0
  0
LINE
  5
2D91
330
1A
100
AcDbEntity
  8
外形線
100
AcDbLine
 10
428.372432106252
 20
421.502981287313
 30
0.0
 11
429.236091370684
 21
420.670844094271
 31
0.0
  0
LINE
  5
2D92
330
1A
100
AcDbEntity
  8
外形線
100
AcDbLine
 10
428.372432106252
 20
421.502981287313
 30
0.0
 11
428.372432106252
 21
420.670844094271
 31
0.0
  0
LINE
  5
2D93
330
1A
100
AcDbEntity
  8
外形線
100
AcDbLine
 10
428.372432106252
 20
420.670844094271
 30
0.0
 11
428.372432106252
 21
423.470844094271
 31
0.0
  0
LINE
  5
2D94
330
1A
100
AcDbEntity
  8
外形線
100
AcDbLine
 10
410.747199445788
 20
423.470844094271
 30
0.0
 11
410.747199445788
 21
429.400844094271
 31
0.0
  0
LINE
  5
2D95
330
1A
100
AcDbEntity
  8
外形線
100
AcDbLine
 10
408.155253466308
 20
423.470844094271
 30
0.0
 11
408.155253466308
 21
429.400844094271
 31
0.0
  0
LINE
  5
2D96
330
1A
100
AcDbEntity
  8
外形線
100
AcDbLine
 10
406.60008587862
 20
421.502981287313
 30
0.0
 11
406.60008587862
 21
420.670844094271
 31
0.0
  0
LINE
  5
2D97
330
1A
100
AcDbEntity
  8
外形線
100
AcDbLine
 10
406.60008587862
 20
421.502981287313
 30
0.0
 11
405.736426614188
 21
420.670844094271
 31
0.0
  0
LINE
  5
2D98
330
1A
100
AcDbEntity
  8
外形線
100
AcDbLine
 10
406.60008587862
 20
420.670844094271
 30
0.0
 11
406.60008587862
 21
423.470844094271
 31
0.0
  0
LINE
  5
2D99
330
1A
100
AcDbEntity
  8
外形線
100
AcDbLine
 10
401.934583115556
 20
423.470844094271
 30
0.0
 11
401.934583115556
 21
429.400844094271
 31
0.0
  0
LINE
  5
2D9A
330
1A
100
AcDbEntity
  8
外形線
100
AcDbLine
 10
404.00813989914
 20
429.400844094271
 30
0.0
 11
404.00813989914
 21
429.919233290167
 31
0.0
  0
LINE
  5
2D9B
330
1A
100
AcDbEntity
  8
外形線
100
AcDbLine
 10
404.00813989914
 20
429.400844094271
 30
0.0
 11
404.00813989914
 21
431.080844094271
 31
0.0
  0
LINE
  5
2D9C
330
1A
100
AcDbEntity
  8
細線
100
AcDbLine
 10
406.60008587862
 20
421.502981287313
 30
0.0
 11
428.372432106252
 21
421.502981287313
 31
0.0
  0
LINE
  5
2D9D
330
1A
100
AcDbEntity
  8
外形線
100
AcDbLine
 10
433.037934869316
 20
423.470844094271
 30
0.0
 11
401.934583115556
 21
423.470844094271
 31
0.0
  0
LINE
  5
2D9E
330
1A
100
AcDbEntity
  8
外形線
100
AcDbLine
 10
433.037934869316
 20
429.400844094271
 30
0.0
 11
401.934583115556
 21
429.400844094271
 31
0.0
  0
LINE
  5
2D9F
330
1A
100
AcDbEntity
  8
外形線
100
AcDbLine
 10
433.037934869316
 20
420.670844094271
 30
0.0
 11
401.934583115556
 21
420.670844094271
 31
0.0
  0
LINE
  5
2DA0
330
1A
100
AcDbEntity
  8
外形線
100
AcDbLine
 10
431.27541160327
 20
408.120844094271
 30
0.0
 11
433.037934869316
 21
409.779689521139
 31
0.0
  0
LINE
  5
2DA1
330
1A
100
AcDbEntity
  8
外形線
100
AcDbLine
 10
424.225318539084
 20
409.779689521139
 30
0.0
 11
426.817264518564
 21
409.779689521139
 31
0.0
  0
ARC
  5
2DA2
330
1A
100
AcDbEntity
  8
外形線
100
AcDbCircle
 10
429.92759969394
 20
412.706264551391
 30
0.0
 40
4.2707173063642
100
AcDbArc
 50
223.256487111673
 51
316.743512888327
  0
ARC
  5
2DA3
330
1A
100
AcDbEntity
  8
外形線
100
AcDbCircle
 10
426.09151964431
 20
408.514736053231
 30
0.0
 40
5.183891958959999
100
AcDbArc
 50
270.0
 51
355.642247142051
  0
LINE
  5
2DA4
330
1A
100
AcDbEntity
  8
外形線
100
AcDbLine
 10
410.747199445788
 20
409.779689521139
 30
0.0
 11
408.155253466308
 21
409.779689521139
 31
0.0
  0
LINE
  5
2DA5
330
1A
100
AcDbEntity
  8
外形線
100
AcDbLine
 10
403.697106381602
 20
408.120844094271
 30
0.0
 11
401.934583115556
 21
409.779689521139
 31
0.0
  0
ARC
  5
2DA6
330
1A
100
AcDbEntity
  8
外形線
100
AcDbCircle
 10
405.044918290932
 20
412.706264551391
 30
0.0
 40
4.2707173063642
100
AcDbArc
 50
223.25648711167
 51
316.743512888332
  0
ARC
  5
2DA7
330
1A
100
AcDbEntity
  8
外形線
100
AcDbCircle
 10
408.880998340562
 20
408.514736053231
 30
0.0
 40
5.183891958959999
100
AcDbArc
 50
184.357752857949
 51
270.0
  0
LINE
  5
2DA8
330
1A
100
AcDbEntity
  8
外形線
100
AcDbLine
 10
426.09151964431
 20
403.330844094271
 30
0.0
 11
408.880998340562
 21
403.330844094271
 31
0.0
  0
LINE
  5
2DA9
330
1A
100
AcDbEntity
  8
外形線
100
AcDbLine
 10
431.27541160327
 20
408.120844094271
 30
0.0
 11
403.697106381602
 21
408.120844094271
 31
0.0
  0
ARC
  5
2DAA
330
1A
100
AcDbEntity
  8
外形線
100
AcDbCircle
 10
417.486258992436
 20
426.063779224377
 30
0.0
 40
17.62346450152246
100
AcDbArc
 50
247.518115682491
 51
292.481884317508
  0
LINE
  5
2DAB
330
1A
100
AcDbEntity
  8
外形線
100
AcDbLine
 10
401.934583115556
 20
420.670844094271
 30
0.0
 11
401.934583115556
 21
409.779689521135
 31
0.0
  0
LINE
  5
2DAC
330
1A
100
AcDbEntity
  8
外形線
100
AcDbLine
 10
410.747199445788
 20
409.779689521139
 30
0.0
 11
410.747199445788
 21
420.670844094271
 31
0.0
  0
LINE
  5
2DAD
330
1A
100
AcDbEntity
  8
外形線
100
AcDbLine
 10
408.155253466308
 20
409.779689521139
 30
0.0
 11
408.155253466308
 21
420.670844094271
 31
0.0
  0
LINE
  5
2DAE
330
1A
100
AcDbEntity
  8
外形線
100
AcDbLine
 10
424.225318539084
 20
409.779689521139
 30
0.0
 11
424.225318539084
 21
420.670844094271
 31
0.0
  0
LINE
  5
2DAF
330
1A
100
AcDbEntity
  8
外形線
100
AcDbLine
 10
433.037934869316
 20
420.670844094271
 30
0.0
 11
433.037934869316
 21
409.779689521137
 31
0.0
  0
LINE
  5
2DB0
330
1A
100
AcDbEntity
  8
外形線
100
AcDbLine
 10
426.817264518564
 20
409.779689521139
 30
0.0
 11
426.817264518564
 21
420.670844094271
 31
0.0
  0
LINE
  5
2DBE
330
1A
100
AcDbEntity
  8
外形線
100
AcDbLine
 10
367.54835847632
 20
466.374541573263
 30
0.0
 11
367.54835847632
 21
518.287146615279
 31
0.0
  0
ARC
  5
2DD1
330
1A
100
AcDbEntity
  8
外形線
100
AcDbCircle
 10
368.14835847632
 20
459.580844094271
 30
0.0
 40
0.6
100
AcDbArc
 50
180.0
 51
270.0
  0
ARC
  5
2DE3
330
1A
100
AcDbEntity
  8
外形線
100
AcDbCircle
 10
368.14835847632
 20
525.080844094271
 30
0.0
 40
0.6
100
AcDbArc
 50
90.0
 51
180.0
  0
LINE
  5
2DE4
330
1A
100
AcDbEntity
  8
外形線
100
AcDbLine
 10
367.54835847632
 20
525.196869498055
 30
0.0
 11
367.54835847632
 21
459.464818690487
 31
0.0
  0
LINE
  5
2DE5
330
1A
100
AcDbEntity
  8
外形線
100
AcDbLine
 10
398.57359525781
 20
431.991840175377
 30
0.0
 11
385.49508845245
 21
446.023881993605
 31
0.0
  0
LINE
  5
2DE6
330
1A
100
AcDbEntity
  8
外形線
100
AcDbLine
 10
388.045819909408
 20
448.092263123807
 30
0.0
 11
373.04835847631
 21
458.980844094271
 31
0.0
  0
LINE
  5
2DE7
330
1A
100
AcDbEntity
  8
外形線
100
AcDbLine
 10
388.045819909408
 20
536.338448408329
 30
0.0
 11
373.04835847631
 21
525.680844094271
 31
0.0
  0
CIRCLE
  5
2DE8
330
1A
100
AcDbEntity
  8
細線
100
AcDbCircle
 10
417.487926645954
 20
451.352116275777
 30
0.0
 40
13.76127218150634
  0
LINE
  5
2DE9
330
1A
100
AcDbEntity
  8
外形線
100
AcDbLine
 10
421.367485702994
 20
456.389484375899
 30
0.0
 11
422.685501984424
 21
455.013655633089
 31
0.0
  0
LINE
  5
2DEA
330
1A
100
AcDbEntity
  8
外形線
100
AcDbLine
 10
413.605032281876
 20
446.314748175655
 30
0.0
 11
422.685501984424
 21
455.013655633089
 31
0.0
  0
CIRCLE
  5
2DEB
330
1A
100
AcDbEntity
  8
外形線
100
AcDbCircle
 10
417.486258992436
 20
451.352116275777
 30
0.0
 40
10.51872781849356
  0
CIRCLE
  5
2DEC
330
1A
100
AcDbEntity
  8
細線
100
AcDbCircle
 10
417.486258992436
 20
451.352116275777
 30
0.0
 40
9.90742839250458
  0
LINE
  5
2DED
330
1A
100
AcDbEntity
  8
外形線
100
AcDbLine
 10
412.287016000448
 20
447.690576918465
 30
0.0
 11
421.367485702994
 21
456.389484375899
 31
0.0
  0
LINE
  5
2DEE
330
1A
100
AcDbEntity
  8
外形線
100
AcDbLine
 10
412.287016000448
 20
447.690576918465
 30
0.0
 11
413.605032281876
 21
446.314748175655
 31
0.0
  0
LINE
  5
2DEF
330
1A
100
AcDbEntity
  8
外形線
100
AcDbLine
 10
368.14835847632
 20
525.680844094271
 30
0.0
 11
373.04835847631
 21
525.680844094271
 31
0.0
  0
LINE
  5
2DF0
330
1A
100
AcDbEntity
  8
外形線
100
AcDbLine
 10
368.14835847632
 20
458.980844094271
 30
0.0
 11
373.04835847631
 21
458.980844094271
 31
0.0
  0
LINE
  5
2DF1
330
1A
100
AcDbEntity
  8
外形線
100
AcDbLine
 10
373.04835847631
 20
525.680844094271
 30
0.0
 11
373.04835847631
 21
458.980844094271
 31
0.0
  0
LINE
  5
2DF2
330
1A
100
AcDbEntity
  8
外形線
100
AcDbLine
 10
367.54835847632
 20
513.173416094271
 30
0.0
 11
367.54835847632
 21
524.680844094271
 31
0.0
  0
LINE
  5
2DF3
330
1A
100
AcDbEntity
  8
外形線
100
AcDbLine
 10
427.919999221816
 20
465.012553792449
 30
0.0
 11
429.930625881008
 21
460.566621819853
 31
0.0
  0
ARC
  5
2DF5
330
1A
100
AcDbEntity
  8
外形線
100
AcDbCircle
 10
386.909302014824
 20
447.438095555979
 30
0.0
 40
2.0
100
AcDbArc
 50
180.0
 51
225.0
  0
LWPOLYLINE
  5
2DF7
330
1A
100
AcDbEntity
  8
外形線
100
AcDbPolyline
 90
       18
 70
     0
 43
0.0
 10
446.270421920594
 20
521.191426490655
 10
445.317042002852
 20
521.114986228699
 10
444.396128294758
 20
520.888268524271
 10
443.539041408122
 20
520.518993976877
 10
442.77496840891
 20
520.019737788335
 10
442.129928886704
 20
519.407501529353
 10
441.625888888792
 20
518.703134171433
 10
441.280012892776
 20
517.930622100153
 10
441.104079290864
 20
517.116272287577
 10
441.104079290864
 20
516.287816439865
 10
441.280012892776
 20
515.473466627289
 10
441.625888888792
 20
514.700954556009
 10
442.129928886704
 20
513.996587198089
 10
442.77496840891
 20
513.384350939107
 10
443.539041408122
 20
512.885094750563
 10
444.396128294758
 20
512.515820203171
 10
445.317042002852
 20
512.289102498743
 10
446.270421920594
 20
512.212662236787
  0
LWPOLYLINE
  5
2DF8
330
1A
100
AcDbEntity
  8
外形線
100
AcDbPolyline
 90
        8
 70
     0
 43
0.0
 10
446.270421920594
 20
520.625687618303
 10
445.279963247346
 20
520.549218755901
 10
444.323246076096
 20
520.322417198407
 10
443.432862452544
 20
519.953009290609
 10
442.639144667802
 20
519.453579482513
 10
441.969131942124
 20
518.841141620653
 10
441.445649292172
 20
518.136559345181
 10
441.086529961634
 20
517.363835337775
  0
LWPOLYLINE
  5
2DF9
330
1A
100
AcDbEntity
  8
外形線
100
AcDbPolyline
 90
        8
 70
     0
 43
0.0
 10
446.270421920594
 20
536.402311742717
 10
445.261566174252
 20
536.344230038177
 10
444.291216811062
 20
536.172201808757
 10
443.396410488152
 20
535.892793092209
 10
442.611300507656
 20
535.516668464847
 10
441.965853240716
 20
535.058183992009
 10
441.484704359834
 20
534.534839280397
 10
441.186218535306
 20
533.966609546547
  0
LWPOLYLINE
  5
2DFA
330
1A
100
AcDbEntity
  8
外形線
100
AcDbPolyline
 90
       18
 70
     0
 43
0.0
 10
446.270421920594
 20
537.219490505801
 10
445.31699932419
 20
537.167670043089
 10
444.396044390802
 20
537.013973338663
 10
443.538919136124
 20
536.763634349451
 10
442.774811932692
 20
536.425178069483
 10
442.129743534878
 20
536.010130221439
 10
441.625680973294
 20
535.532624761989
 10
441.279789493916
 20
535.008922566851
 10
441.103848016224
 20
534.456857686169
 10
441.103848016224
 20
533.895230027323
 10
441.279789493916
 20
533.343165146641
 10
441.625680973294
 20
532.819462951503
 10
442.129743534878
 20
532.341957492053
 10
442.774811932692
 20
531.926909644011
 10
443.538919136124
 20
531.588453364041
 10
444.396044390802
 20
531.338114374829
 10
445.31699932419
 20
531.184417670403
 10
446.270421920594
 20
531.132597207693
  0
ARC
  5
2DFB
330
1A
100
AcDbEntity
  8
外形線
100
AcDbCircle
 10
465.554500007926
 20
534.109155330425
 30
0.0
 40
3.110335175376
100
AcDbArc
 50
0.0
 51
90.0
  0
ARC
  5
2DFC
330
1A
100
AcDbEntity
  8
外形線
100
AcDbCircle
 10
463.480943224342
 20
534.328754959133
 30
0.0
 40
2.073556783584
100
AcDbArc
 50
0.0
 51
90.0
  0
ARC
  5
2DFD
330
1A
100
AcDbEntity
  8
外形線
100
AcDbCircle
 10
464.517721616134
 20
536.632538161515
 30
0.0
 40
4.147113567168
100
AcDbArc
 50
0.0
 51
87.000000000002
  0
ARC
  5
2DFE
330
1A
100
AcDbEntity
  8
外形線
100
AcDbCircle
 10
440.049751569842
 20
541.980718572083
 30
0.0
 40
1.036778391792
100
AcDbArc
 50
0.0
 51
30.000000000005
  0
LINE
  5
2DFF
330
1A
100
AcDbEntity
  8
外形線
100
AcDbLine
 10
435.487926645958
 20
541.980718572083
 30
0.0
 11
436.006315841854
 21
542.499107767979
 31
0.0
  0
LINE
  5
2E00
330
1A
100
AcDbEntity
  8
外形線
100
AcDbLine
 10
436.006315841854
 20
542.499107767979
 30
0.0
 11
440.947627995228
 21
542.499107767979
 31
0.0
  0
LINE
  5
2E01
330
1A
100
AcDbEntity
  8
外形線
100
AcDbLine
 10
446.270421920594
 20
537.219490505801
 30
0.0
 11
465.554500007926
 21
537.219490505801
 31
0.0
  0
LINE
  5
2E02
330
1A
100
AcDbEntity
  8
外形線
100
AcDbLine
 10
446.270421920594
 20
536.402311742717
 30
0.0
 11
463.480943224342
 21
536.402311742717
 31
0.0
  0
LINE
  5
2E03
330
1A
100
AcDbEntity
  8
外形線
100
AcDbLine
 10
441.086529961634
 20
541.980718572083
 30
0.0
 11
464.734764770318
 21
540.773968253671
 31
0.0
  0
ARC
  5
2E04
330
1A
100
AcDbEntity
  8
外形線
100
AcDbCircle
 10
465.554500007926
 20
528.022262032317
 30
0.0
 40
3.110335175376
100
AcDbArc
 50
0.0
 51
90.0
  0
ARC
  5
2E05
330
1A
100
AcDbEntity
  8
外形線
100
AcDbCircle
 10
463.999332420238
 20
519.070520030615
 30
0.0
 40
1.555167587688
100
AcDbArc
 50
0.0
 51
90.0
  0
LINE
  5
2E06
330
1A
100
AcDbEntity
  8
外形線
100
AcDbLine
 10
468.253961113972
 20
516.182556749165
 30
0.0
 11
465.554500007926
 21
514.138344587399
 31
0.0
  0
ARC
  5
2E07
330
1A
100
AcDbEntity
  8
外形線
100
AcDbCircle
 10
467.62805679151
 20
511.175883844995
 30
0.0
 40
1.036778391792
100
AcDbArc
 50
0.0
 51
90.0
  0
ARC
  5
2E08
330
1A
100
AcDbEntity
  8
外形線
100
AcDbCircle
 10
467.62805679151
 20
517.009087579085
 30
0.0
 40
1.036778391792
100
AcDbArc
 50
307.135436470274
 51
0.0
  0
LINE
  5
2E09
330
1A
100
AcDbEntity
  8
外形線
100
AcDbLine
 10
465.554500007926
 20
519.070520030615
 30
0.0
 11
465.554500007926
 21
512.212662236787
 31
0.0
  0
ARC
  5
2E0A
330
1A
100
AcDbEntity
  8
外形線
100
AcDbCircle
 10
465.554500007926
 20
518.081091315279
 30
0.0
 40
3.110335175376
100
AcDbArc
 50
0.0
 51
90.0
  0
ARC
  5
2E0B
330
1A
100
AcDbEntity
  8
外形線
100
AcDbCircle
 10
467.62805679151
 20
498.436026116819
 30
0.0
 40
1.036778391792
100
AcDbArc
 50
270.0
 51
0.0
  0
LINE
  5
2E0C
330
1A
100
AcDbEntity
  8
外形線
100
AcDbLine
 10
465.554500007926
 20
497.399247725027
 30
0.0
 11
465.554500007926
 21
492.215355766069
 31
0.0
  0
ARC
  5
2E0D
330
1A
100
AcDbEntity
  8
外形線
100
AcDbCircle
 10
467.62805679151
 20
485.994685415317
 30
0.0
 40
1.036778391792
100
AcDbArc
 50
0.0
 51
90.0
  0
LINE
  5
2E0E
330
1A
100
AcDbEntity
  8
外形線
100
AcDbLine
 10
465.554500007926
 20
487.031463807107
 30
0.0
 11
465.554500007926
 21
492.215355766069
 31
0.0
  0
LINE
  5
2E0F
330
1A
100
AcDbEntity
  8
外形線
100
AcDbLine
 10
468.664835183302
 20
511.175883844995
 30
0.0
 11
468.664835183302
 21
498.436026116819
 31
0.0
  0
ARC
  5
2E10
330
1A
100
AcDbEntity
  8
外形線
100
AcDbCircle
 10
446.270421920594
 20
492.215355766069
 30
0.0
 40
5.183891958959999
100
AcDbArc
 50
90.0
 51
180.0
  0
ARC
  5
2E11
330
1A
100
AcDbEntity
  8
外形線
100
AcDbCircle
 10
446.270421920594
 20
492.215355766069
 30
0.0
 40
5.183891958959999
100
AcDbArc
 50
180.0
 51
270.0
  0
LINE
  5
2E12
330
1A
100
AcDbEntity
  8
外形線
100
AcDbLine
 10
446.270421920594
 20
487.031463807107
 30
0.0
 11
467.62805679151
 21
487.031463807107
 31
0.0
  0
LINE
  5
2E13
330
1A
100
AcDbEntity
  8
外形線
100
AcDbLine
 10
446.270421920594
 20
497.399247725027
 30
0.0
 11
467.62805679151
 21
497.399247725027
 31
0.0
  0
LINE
  5
2E14
330
1A
100
AcDbEntity
  8
外形線
100
AcDbLine
 10
446.270421920596
 20
531.132597207693
 30
0.0
 11
465.554500007926
 21
531.132597207693
 31
0.0
  0
LINE
  5
2E15
330
1A
100
AcDbEntity
  8
外形線
100
AcDbLine
 10
446.270421920594
 20
521.191426490655
 30
0.0
 11
465.554500007926
 21
521.191426490655
 31
0.0
  0
LINE
  5
2E16
330
1A
100
AcDbEntity
  8
外形線
100
AcDbLine
 10
446.270421920594
 20
520.625687618303
 30
0.0
 11
463.999332420238
 21
520.625687618303
 31
0.0
  0
LINE
  5
2E17
330
1A
100
AcDbEntity
  8
外形線
100
AcDbLine
 10
446.270421920596
 20
512.212662236787
 30
0.0
 11
467.62805679151
 21
512.212662236787
 31
0.0
  0
LINE
  5
2E19
330
1A
100
AcDbEntity
  8
外形線
100
AcDbLine
 10
441.086529961634
 20
541.980718572083
 30
0.0
 11
441.086529961634
 21
492.215355766069
 31
0.0
  0
LINE
  5
2E1A
330
1A
100
AcDbEntity
  8
外形線
100
AcDbLine
 10
468.664835183302
 20
517.009087579085
 30
0.0
 11
468.664835183302
 21
536.632538161515
 31
0.0
  0
LINE
  5
2E1B
330
1A
100
AcDbEntity
  8
外形線
100
AcDbLine
 10
465.554500007926
 20
534.328754959133
 30
0.0
 11
465.554500007926
 21
531.132597207693
 31
0.0
  0
LINE
  5
2E1C
330
1A
100
AcDbEntity
  8
外形線
100
AcDbLine
 10
388.48792664595
 20
537.187727547439
 30
0.0
 11
388.48792664595
 21
538.351994200811
 31
0.0
  0
LINE
  5
2E1D
330
1A
100
AcDbEntity
  8
外形線
100
AcDbLine
 10
389.524705037742
 20
539.388772592603
 30
0.0
 11
427.349404332656
 21
539.388772592603
 31
0.0
  0
LINE
  5
2E1E
330
1A
100
AcDbEntity
  8
外形線
100
AcDbLine
 10
468.253961113972
 20
468.248154782971
 30
0.0
 11
465.554500007926
 21
470.292366944737
 31
0.0
  0
ARC
  5
2E1F
330
1A
100
AcDbEntity
  8
外形線
100
AcDbCircle
 10
467.62805679151
 20
467.421623953051
 30
0.0
 40
1.036778391792
100
AcDbArc
 50
0.0
 51
52.864563529744
  0
ARC
  5
2E20
330
1A
100
AcDbEntity
  8
外形線
100
AcDbCircle
 10
467.62805679151
 20
473.254827687141
 30
0.0
 40
1.036778391792
100
AcDbArc
 50
270.0
 51
0.0
  0
ARC
  5
2E21
330
1A
100
AcDbEntity
  8
外形線
100
AcDbCircle
 10
465.554500007926
 20
466.349620216857
 30
0.0
 40
3.110335175376
100
AcDbArc
 50
270.0
 51
0.0
  0
LINE
  5
2E22
330
1A
100
AcDbEntity
  8
外形線
100
AcDbLine
 10
465.554500007926
 20
465.360191501521
 30
0.0
 11
465.554500007926
 21
472.218049295349
 31
0.0
  0
ARC
  5
2E23
330
1A
100
AcDbEntity
  8
外形線
100
AcDbCircle
 10
463.999332420238
 20
465.360191501521
 30
0.0
 40
1.555167587688
100
AcDbArc
 50
270.0
 51
0.0
  0
ARC
  5
2E24
330
1A
100
AcDbEntity
  8
外形線
100
AcDbCircle
 10
465.554500007926
 20
456.408449499819
 30
0.0
 40
3.110335175376
100
AcDbArc
 50
270.0
 51
0.0
  0
ARC
  5
2E25
330
1A
100
AcDbEntity
  8
外形線
100
AcDbCircle
 10
465.554500007926
 20
450.321556201711
 30
0.0
 40
3.110335175376
100
AcDbArc
 50
270.0
 51
0.0
  0
LINE
  5
2E26
330
1A
100
AcDbEntity
  8
外形線
100
AcDbLine
 10
465.554500007926
 20
450.101956573003
 30
0.0
 11
465.554500007926
 21
453.298114324443
 31
0.0
  0
ARC
  5
2E27
330
1A
100
AcDbEntity
  8
外形線
100
AcDbCircle
 10
463.480943224342
 20
450.101956573003
 30
0.0
 40
2.073556783584
100
AcDbArc
 50
270.0
 51
0.0
  0
LINE
  5
2E28
330
1A
100
AcDbEntity
  8
外形線
100
AcDbLine
 10
468.664835183302
 20
467.421623953051
 30
0.0
 11
468.664835183302
 21
447.798173370621
 31
0.0
  0
ARC
  5
2E29
330
1A
100
AcDbEntity
  8
外形線
100
AcDbCircle
 10
464.517721616134
 20
447.798173370621
 30
0.0
 40
4.147113567168
100
AcDbArc
 50
272.999999999999
 51
0.0
  0
LWPOLYLINE
  5
2E2A
330
1A
100
AcDbEntity
  8
外形線
100
AcDbPolyline
 90
       18
 70
     0
 43
0.0
 10
446.270421920594
 20
463.239285041481
 10
445.317042002852
 20
463.315725303437
 10
444.396128294758
 20
463.542443007865
 10
443.539041408122
 20
463.911717555259
 10
442.77496840891
 20
464.410973743801
 10
442.129928886704
 20
465.023210002783
 10
441.625888888792
 20
465.727577360703
 10
441.280012892776
 20
466.500089431983
 10
441.104079290864
 20
467.314439244559
 10
441.104079290864
 20
468.142895092271
 10
441.280012892776
 20
468.957244904847
 10
441.625888888792
 20
469.729756976127
 10
442.129928886704
 20
470.434124334047
 10
442.77496840891
 20
471.046360593029
 10
443.539041408122
 20
471.545616781573
 10
444.396128294758
 20
471.914891328965
 10
445.317042002852
 20
472.141609033393
 10
446.270421920594
 20
472.218049295349
  0
LWPOLYLINE
  5
2E2B
330
1A
100
AcDbEntity
  8
外形線
100
AcDbPolyline
 90
        8
 70
     0
 43
0.0
 10
446.270421920594
 20
463.805023913833
 10
445.279963247346
 20
463.881492776235
 10
444.323246076096
 20
464.108294333729
 10
443.432862452544
 20
464.477702241527
 10
442.639144667802
 20
464.977132049623
 10
441.969131942124
 20
465.589569911483
 10
441.445649292172
 20
466.294152186955
 10
441.086529961634
 20
467.066876194361
  0
LWPOLYLINE
  5
2E2C
330
1A
100
AcDbEntity
  8
外形線
100
AcDbPolyline
 90
        8
 70
     0
 43
0.0
 10
446.270421920594
 20
448.028399789419
 10
445.261566174252
 20
448.086481493959
 10
444.291216811062
 20
448.258509723379
 10
443.396410488152
 20
448.537918439927
 10
442.611300507656
 20
448.914043067289
 10
441.965853240716
 20
449.372527540129
 10
441.484704359834
 20
449.895872251739
 10
441.186218535306
 20
450.464101985589
  0
LWPOLYLINE
  5
2E2D
330
1A
100
AcDbEntity
  8
外形線
100
AcDbPolyline
 90
       18
 70
     0
 43
0.0
 10
446.270421920594
 20
447.211221026335
 10
445.31699932419
 20
447.263041489047
 10
444.396044390802
 20
447.416738193473
 10
443.538919136124
 20
447.667077182685
 10
442.774811932692
 20
448.005533462653
 10
442.129743534878
 20
448.420581310697
 10
441.625680973294
 20
448.898086770147
 10
441.279789493916
 20
449.421788965285
 10
441.103848016224
 20
449.973853845967
 10
441.103848016224
 20
450.535481504813
 10
441.279789493916
 20
451.087546385495
 10
441.625680973294
 20
451.611248580633
 10
442.129743534878
 20
452.088754040083
 10
442.774811932692
 20
452.503801888127
 10
443.538919136124
 20
452.842258168095
 10
444.396044390802
 20
453.092597157307
 10
445.31699932419
 20
453.246293861733
 10
446.270421920594
 20
453.298114324443
  0
ARC
  5
2E2E
330
1A
100
AcDbEntity
  8
外形線
100
AcDbCircle
 10
440.049751569842
 20
442.449992960051
 30
0.0
 40
1.036778391792
100
AcDbArc
 50
330.000000000004
 51
0.0
  0
LINE
  5
2E2F
330
1A
100
AcDbEntity
  8
外形線
100
AcDbLine
 10
435.487926645958
 20
442.449992960051
 30
0.0
 11
436.006315841852
 21
441.931603764155
 31
0.0
  0
LINE
  5
2E30
330
1A
100
AcDbEntity
  8
外形線
100
AcDbLine
 10
436.006315841852
 20
441.931603764155
 30
0.0
 11
440.947627995228
 21
441.931603764155
 31
0.0
  0
LINE
  5
2E31
330
1A
100
AcDbEntity
  8
外形線
100
AcDbLine
 10
446.270421920594
 20
463.239285041481
 30
0.0
 11
465.554500007926
 21
463.239285041481
 31
0.0
  0
LINE
  5
2E32
330
1A
100
AcDbEntity
  8
外形線
100
AcDbLine
 10
446.270421920594
 20
463.805023913833
 30
0.0
 11
463.999332420238
 21
463.805023913833
 31
0.0
  0
LINE
  5
2E33
330
1A
100
AcDbEntity
  8
外形線
100
AcDbLine
 10
446.270421920596
 20
453.298114324443
 30
0.0
 11
465.554500007926
 21
453.298114324443
 31
0.0
  0
LINE
  5
2E34
330
1A
100
AcDbEntity
  8
外形線
100
AcDbLine
 10
446.270421920594
 20
447.211221026335
 30
0.0
 11
465.554500007926
 21
447.211221026335
 31
0.0
  0
LINE
  5
2E35
330
1A
100
AcDbEntity
  8
外形線
100
AcDbLine
 10
446.270421920594
 20
448.028399789419
 30
0.0
 11
463.480943224342
 21
448.028399789419
 31
0.0
  0
LINE
  5
2E36
330
1A
100
AcDbEntity
  8
外形線
100
AcDbLine
 10
441.086529961634
 20
442.449992960051
 30
0.0
 11
464.734764770318
 21
443.656743278465
 31
0.0
  0
LINE
  5
2E37
330
1A
100
AcDbEntity
  8
外形線
100
AcDbLine
 10
446.270421920596
 20
472.218049295349
 30
0.0
 11
467.62805679151
 21
472.218049295349
 31
0.0
  0
LINE
  5
2E38
330
1A
100
AcDbEntity
  8
外形線
100
AcDbLine
 10
388.48792664595
 20
447.242983984697
 30
0.0
 11
388.48792664595
 21
446.078717331323
 31
0.0
  0
LINE
  5
2E39
330
1A
100
AcDbEntity
  8
外形線
100
AcDbLine
 10
389.524705037742
 20
445.041938939531
 30
0.0
 11
397.414369862366
 21
445.041938939531
 31
0.0
  0
ARC
  5
2E3A
330
1A
100
AcDbEntity
  8
外形線
100
AcDbCircle
 10
400.772934352082
 20
434.191179269647
 30
0.0
 40
3.110335175376
100
AcDbArc
 50
224.999999999995
 51
259.247872764004
  0
ARC
  5
2E3B
330
1A
100
AcDbEntity
  8
外形線
100
AcDbCircle
 10
400.524705037742
 20
432.117622486063
 30
0.0
 40
1.036778391792
100
AcDbArc
 50
180.0
 51
270.0
  0
LINE
  5
2E3C
330
1A
100
AcDbEntity
  8
外形線
100
AcDbLine
 10
399.48792664595
 20
432.117622486063
 30
0.0
 11
399.48792664595
 21
465.503949991787
 31
0.0
  0
ARC
  5
2E3D
330
1A
100
AcDbEntity
  8
外形線
100
AcDbCircle
 10
397.414369862366
 20
442.968382155947
 30
0.0
 40
2.073556783584
100
AcDbArc
 50
0.0
 51
90.0
  0
LINE
  5
2E3E
330
1A
100
AcDbEntity
  8
外形線
100
AcDbLine
 10
399.48792664595
 20
465.503949991787
 30
0.0
 11
426.92941591772
 21
465.503949991787
 31
0.0
  0
LINE
  5
2E3F
330
1A
100
AcDbEntity
  8
外形線
100
AcDbLine
 10
400.192668630568
 20
431.080844094271
 30
0.0
 11
434.451148254166
 21
431.080844094271
 31
0.0
  0
ARC
  5
2E40
330
1A
100
AcDbEntity
  8
外形線
100
AcDbCircle
 10
434.451148254166
 20
432.117622486063
 30
0.0
 40
1.036778391792
100
AcDbArc
 50
270.0
 51
0.0
  0
LINE
  5
2E42
330
1A
100
AcDbEntity
  8
外形線
100
AcDbLine
 10
435.487926645958
 20
432.117622486063
 30
0.0
 11
435.487926645958
 21
541.541794804553
 31
0.0
  0
LINE
  5
2E43
330
1A
100
AcDbEntity
  8
外形線
100
AcDbLine
 10
430.304034686998
 20
461.340837906657
 30
0.0
 11
430.304034686998
 21
539.909328413165
 31
0.0
  0
LINE
  5
2E44
330
1A
100
AcDbEntity
  8
外形線
100
AcDbLine
 10
388.48792664595
 20
537.187727547439
 30
0.0
 11
388.48792664595
 21
447.242983984697
 31
0.0
  0
LINE
  5
2E46
330
1A
100
AcDbEntity
  8
外形線
100
AcDbLine
 10
441.086529961634
 20
442.449992960051
 30
0.0
 11
441.086529961634
 21
492.215355766069
 31
0.0
  0
LINE
  5
2E47
330
1A
100
AcDbEntity
  8
外形線
100
AcDbLine
 10
468.664835183302
 20
473.254827687141
 30
0.0
 11
468.664835183302
 21
485.994685415317
 31
0.0
  0
LINE
  5
2E48
330
1A
100
AcDbEntity
  8
外形線
100
AcDbLine
 10
384.909302014824
 20
448.669338588853
 30
0.0
 11
384.909302014824
 21
447.438095555979
 31
0.0
  0
ARC
  5
2E49
330
1A
100
AcDbEntity
  8
外形線
100
AcDbCircle
 10
381.798966839448
 20
448.669338588853
 30
0.0
 40
3.110335175376
100
AcDbArc
 50
0.0
 51
54.999999999999
  0
LINE
  5
2E4A
330
1A
100
AcDbEntity
  8
外形線
100
AcDbLine
 10
367.54835847632
 20
525.080844094271
 30
0.0
 11
367.54835847632
 21
459.580844094271
 31
0.0
  0
ARC
  5
2E4B
330
1A
100
AcDbEntity
  8
外形線
100
AcDbCircle
 10
387.451148254158
 20
447.242983984697
 30
0.0
 40
1.036778391792
100
AcDbArc
 50
0.0
 51
54.999999999999
  0
ARC
  5
2E4C
330
1A
100
AcDbEntity
  8
外形線
100
AcDbCircle
 10
389.524705037742
 20
446.078717331323
 30
0.0
 40
1.036778391792
100
AcDbArc
 50
180.0
 51
270.0
  0
ARC
  5
2E4D
330
1A
100
AcDbEntity
  8
外形線
100
AcDbCircle
 10
387.451148254158
 20
537.187727547439
 30
0.0
 40
1.036778391792
100
AcDbArc
 50
305.000000000002
 51
0.0
  0
ARC
  5
2E4E
330
1A
100
AcDbEntity
  8
外形線
100
AcDbCircle
 10
389.524705037742
 20
538.351994200811
 30
0.0
 40
1.036778391792
100
AcDbArc
 50
90.0
 51
180.0
  0
DIMENSION
  5
3002
330
1A
100
AcDbEntity
  8
寸法線
 48
10.0
100
AcDbDimension
  2
*D6
 10
488.058988652513
 20
403.330844094271
 30
0.0
 11
488.058988652513
 21
456.936688767787
 31
0.0
 70
   160
  1
89
  3
ISO-25
100
AcDbAlignedDimension
 13
468.664081678798
 23
492.330844094271
 33
0.0
 14
426.09151964431
 24
403.330844094271
 34
0.0
 50
90.0
100
AcDbRotatedDimension
1001
ACAD
1000
DSTYLE
1002
{
1070
     5
1000
OPEN30
1070
    41
1040
6.0
1070
    47
1040
0.1
1070
    48
1040
0.1
1070
    73
1070
     0
1070
   140
1040
8.0
1070
   271
1070
     1
1070
   272
1070
     1
1070
   341
1005
2AF4
1002
}
  0
DIMENSION
  5
300F
330
1A
100
AcDbEntity
  8
寸法線
 48
10.0
100
AcDbDimension
  2
*D7
 10
509.742022482611
 20
542.499107767979
 30
0.0
 11
505.117022482611
 21
492.215355766067
 31
0.0
 70
    32
  1
φ100
  3
ISO-25
100
AcDbAlignedDimension
 13
440.947627995228
 23
441.931603764155
 33
0.0
 14
440.947627995228
 24
542.499107767979
 34
0.0
 50
90.0
100
AcDbRotatedDimension
1001
ACAD
1000
DSTYLE
1002
{
1070
     5
1000
OPEN30
1070
    41
1040
6.0
1070
    47
1040
0.1
1070
    48
1040
0.1
1070
    73
1070
     0
1070
   140
1040
8.0
1070
   271
1070
     1
1070
   272
1070
     1
1070
   341
1005
2AF4
1002
}
  0
LINE
  5
3042
330
1A
100
AcDbEntity
  8
中心線
 48
10.0
100
AcDbLine
 10
417.487926645954
 20
437.173416094271
 30
0.0
 11
417.487926645954
 21
399.773416094271
 31
0.0
  0
LINE
  5
3081
330
1A
100
AcDbEntity
  8
中心線
 48
10.0
100
AcDbLine
 10
1.4607488955
 20
492.330844094271
 30
0.0
 11
468.664081678798
 21
492.330844094271
 31
0.0
  0
DIMENSION
  5
3082
330
1A
100
AcDbEntity
  8
寸法線
 48
10.0
100
AcDbDimension
  2
*D8
 10
-6.41914893421
 20
482.34765081696
 30
0.0
 11
-11.044936335785
 21
492.34765081696
 31
0.0
 70
    32
  1
φ<>
  3
ISO-25
100
AcDbAlignedDimension
 13
10.883955624965
 23
502.34765081696
 33
0.0
 14
10.883955624965
 24
482.34765081696
 34
0.0
 50
90.0
100
AcDbRotatedDimension
1001
ACAD
1000
DSTYLE
1002
{
1070
     5
1000
OPEN30
1070
    41
1040
6.0
1070
    47
1040
0.1
1070
    48
1040
0.1
1070
    73
1070
     0
1070
   140
1040
8.0
1070
   271
1070
     1
1070
   272
1070
     1
1070
   341
1005
2AF4
1002
}
  0
DIMENSION
  5
3099
330
1A
100
AcDbEntity
  8
寸法線
 48
10.0
100
AcDbDimension
  2
*D9
 10
143.883955624965
 20
444.994451318452
 30
0.0
 11
77.383955624965
 21
444.994451318452
 31
0.0
 70
   160
  3
ISO-25
100
AcDbAlignedDimension
 13
10.883955624965
 23
482.34765081696
 33
0.0
 14
143.883955624965
 24
471.866138211918
 34
0.0
100
AcDbRotatedDimension
1001
ACAD
1000
DSTYLE
1002
{
1070
     5
1000
OPEN30
1070
    41
1040
6.0
1070
    47
1040
0.1
1070
    48
1040
0.1
1070
    73
1070
     0
1070
   140
1040
8.0
1070
   271
1070
     1
1070
   272
1070
     1
1070
   341
1005
2AF4
1002
}
  0
DIMENSION
  5
30D2
330
1A
100
AcDbEntity
  8
寸法線
 48
10.0
100
AcDbDimension
  2
*D10
 10
353.16480518331
 20
374.830844094271
 30
0.0
 11
410.914820183306
 21
379.460010760938
 31
0.0
 70
    32
  1
120
  3
ISO-25
100
AcDbAlignedDimension
 13
468.664835183302
 23
447.798173370621
 33
0.0
 14
353.16480518331
 24
464.830844094271
 34
0.0
100
AcDbRotatedDimension
1001
ACAD
1000
DSTYLE
1002
{
1070
     5
1000
OPEN30
1070
    41
1040
6.0
1070
    47
1040
0.1
1070
    48
1040
0.1
1070
    73
1070
     0
1070
   140
1040
8.0
1070
   271
1070
     1
1070
   272
1070
     1
1070
   341
1005
2AF4
1002
}
  0
MTEXT
  5
30E8
330
1A
100
AcDbEntity
  8
寸法線
 48
10.0
100
AcDbMText
 10
477.28541506953
 20
396.27598995254
 30
0.0
 40
8.0
 41
60.129060420842
 71
     1
 72
     5
  1
コードロック\P2×M20
  0
MTEXT
  5
30ED
330
1A
100
AcDbEntity
  8
寸法線
 48
10.0
100
AcDbMText
 10
386.980249870868
 20
422.81987748168
 30
0.0
 40
8.0
 41
42.299427293917
 71
     3
 72
     5
  1
2×NPT 1/2"
  0
MTEXT
  5
30F0
330
1A
100
AcDbEntity
  8
寸法線
 48
10.0
100
AcDbMText
 10
433.01837073044
 20
586.328873429293
 30
0.0
 40
8.0
 41
49.592740337165
 71
     1
 72
     5
  1
アルミ鋳物
  0
LEADER
  5
30FB
330
1A
100
AcDbEntity
  8
寸法線
 48
10.0
100
AcDbLeader
  3
ISO-25
 76
     3
 10
420.266199174618
 20
539.388772592603
 30
0.0
 10
431.572055950628
 20
575.534428518342
 30
0.0
 10
442.283635373706
 20
575.534428518342
 30
0.0
1001
ACAD
1000
DSTYLE
1002
{
1070
     5
1000
OPEN30
1070
   147
1040
0.625
1070
    77
1070
     0
1070
    41
1040
6.0
1070
    47
1040
0.1
1070
    48
1040
0.1
1070
    73
1070
     0
1070
   140
1040
5.0
1070
   271
1070
     1
1070
   272
1070
     1
1070
   341
1005
2AF4
1070
   342
1005
2AF4
1002
}
  0
LEADER
  5
3104
330
1A
100
AcDbEntity
  8
寸法線
 48
10.0
100
AcDbLeader
  3
ISO-25
 76
     3
 10
88.028943680376
 20
502.330844094271
 30
0.0
 10
78.368898288156
 20
575.534428518342
 30
0.0
 10
66.865144165978
 20
575.534428518342
 30
0.0
1001
ACAD
1000
DSTYLE
1002
{
1070
     5
1000
OPEN30
1070
   147
1040
0.625
1070
    77
1070
     0
1070
    41
1040
6.0
1070
    47
1040
0.1
1070
    48
1040
0.1
1070
    73
1070
     0
1070
   140
1040
5.0
1070
   271
1070
     1
1070
   272
1070
     1
1070
   341
1005
2AF4
1070
   342
1005
2AF4
1002
}
  0
LINE
  5
346A
330
1A
100
AcDbEntity
  8
外形線
100
AcDbLine
 10
334.094343312265
 20
516.290507959817
 30
0.0
 11
334.094343312265
 21
468.371180228725
 31
0.0
  0
LINE
  5
346B
330
1A
100
AcDbEntity
  8
外形線
100
AcDbLine
 10
332.16483518331
 20
470.316030999196
 30
0.0
 11
334.094343312265
 21
468.371180228725
 31
0.0
  0
LINE
  5
346C
330
1A
100
AcDbEntity
  8
外形線
100
AcDbLine
 10
323.338614481669
 20
477.130844094271
 30
0.0
 11
268.123004793058
 21
477.130844094271
 31
0.0
  0
LINE
  5
346D
330
1A
100
AcDbEntity
  8
外形線
100
AcDbLine
 10
329.16483518331
 20
470.425533672756
 30
0.0
 11
323.16483518331
 21
477.330844094271
 31
0.0
  0
LINE
  5
346F
330
1A
100
AcDbEntity
  8
外形線
100
AcDbLine
 10
203.783652593967
 20
471.366138211918
 30
0.0
 11
196.083652593967
 21
471.366138211918
 31
0.0
  0
LINE
  5
3470
330
1A
100
AcDbEntity
  8
外形線
100
AcDbLine
 10
191.183652593967
 20
471.366138211918
 30
0.0
 11
144.383955624966
 21
471.366138211918
 31
0.0
  0
ARC
  5
3471
330
1A
100
AcDbEntity
  8
外形線
100
AcDbCircle
 10
193.633652593967
 20
470.565491153094
 30
0.0
 40
2.577505715377329
100
AcDbArc
 50
18.097118485446
 51
161.902881514554
  0
LINE
  5
3472
330
1A
100
AcDbEntity
  8
外形線
100
AcDbLine
 10
203.783652593967
 20
471.366138211918
 30
0.0
 11
209.883652593967
 21
477.130844094271
 31
0.0
  0
LINE
  5
3474
330
1A
100
AcDbEntity
  8
外形線
100
AcDbLine
 10
209.883652593967
 20
477.130844094271
 30
0.0
 11
209.883652593967
 21
507.130844094271
 31
0.0
  0
LINE
  5
3475
330
1A
100
AcDbEntity
  8
外形線
100
AcDbLine
 10
203.783652593967
 20
471.366138211918
 30
0.0
 11
203.783652593967
 21
513.295549976624
 31
0.0
  0
LINE
  5
3476
330
1A
100
AcDbEntity
  8
外形線
100
AcDbLine
 10
196.083652593967
 20
513.295549976624
 30
0.0
 11
196.083652593967
 21
471.366138211918
 31
0.0
  0
LINE
  5
3477
330
1A
100
AcDbEntity
  8
外形線
100
AcDbLine
 10
191.183652593967
 20
471.366138211918
 30
0.0
 11
191.183652593967
 21
513.295549976624
 31
0.0
  0
LINE
  5
3479
330
1A
100
AcDbEntity
  8
外形線
100
AcDbLine
 10
332.16483518331
 20
470.316030999196
 30
0.0
 11
332.16483518331
 21
514.345657189346
 31
0.0
  0
LINE
  5
347B
330
1A
100
AcDbEntity
  8
外形線
100
AcDbLine
 10
351.16483518331
 20
468.371180228725
 30
0.0
 11
334.094343312265
 21
468.371180228725
 31
0.0
  0
LINE
  5
347C
330
1A
100
AcDbEntity
  8
外形線
100
AcDbLine
 10
329.16483518331
 20
470.425533672756
 30
0.0
 11
329.16483518331
 21
514.236154515786
 31
0.0
  0
LINE
  5
347D
330
1A
100
AcDbEntity
  8
外形線
100
AcDbLine
 10
332.16483518331
 20
470.425533672756
 30
0.0
 11
329.16483518331
 21
470.425533672756
 31
0.0
  0
LINE
  5
347E
330
1A
100
AcDbEntity
  8
外形線
100
AcDbLine
 10
10.883955624965
 20
482.34765081696
 30
0.0
 11
10.883955624965
 21
502.314037371582
 31
0.0
  0
LINE
  5
347F
330
1A
100
AcDbEntity
  8
外形線
100
AcDbLine
 10
143.883955624965
 20
512.795549976624
 30
0.0
 11
143.883955624965
 21
471.866138211918
 31
0.0
  0
LINE
  5
3480
330
1A
100
AcDbEntity
  8
外形線
100
AcDbLine
 10
143.883955624965
 20
482.34765081696
 30
0.0
 11
10.883955624965
 21
482.34765081696
 31
0.0
  0
ARC
  5
3481
330
1A
100
AcDbEntity
  8
外形線
100
AcDbCircle
 10
144.383955624966
 20
471.866138211918
 30
0.0
 40
0.5
100
AcDbArc
 50
180.0
 51
270.0
  0
LINE
  5
3482
330
1A
100
AcDbEntity
  8
外形線
100
AcDbLine
 10
351.16483518331
 20
516.290507959817
 30
0.0
 11
334.094343312265
 21
516.290507959818
 31
0.0
  0
LINE
  5
3483
330
1A
100
AcDbEntity
  8
外形線
100
AcDbLine
 10
332.16483518331
 20
514.345657189346
 30
0.0
 11
334.094343312265
 21
516.290507959817
 31
0.0
  0
LINE
  5
3485
330
1A
100
AcDbEntity
  8
外形線
100
AcDbLine
 10
329.16483518331
 20
514.236154515786
 30
0.0
 11
323.164835183311
 21
507.330844094271
 31
0.0
  0
LINE
  5
3486
330
1A
100
AcDbEntity
  8
外形線
100
AcDbLine
 10
332.16483518331
 20
514.236154515786
 30
0.0
 11
329.16483518331
 21
514.236154515786
 31
0.0
  0
LINE
  5
3487
330
1A
100
AcDbEntity
  8
細線
100
AcDbLine
 10
334.094343312265
 20
514.793028968221
 30
0.0
 11
351.16483518331
 21
514.793028968221
 31
0.0
  0
LINE
  5
3488
330
1A
100
AcDbEntity
  8
外形線
100
AcDbLine
 10
203.783652593967
 20
513.295549976624
 30
0.0
 11
196.083652593967
 21
513.295549976624
 31
0.0
  0
LINE
  5
3489
330
1A
100
AcDbEntity
  8
外形線
100
AcDbLine
 10
191.183652593967
 20
513.295549976624
 30
0.0
 11
144.383955624965
 21
513.295549976624
 31
0.0
  0
ARC
  5
348A
330
1A
100
AcDbEntity
  8
外形線
100
AcDbCircle
 10
193.633652593967
 20
513.585207905013
 30
0.0
 40
2.467063378893744
100
AcDbArc
 50
186.742650169572
 51
353.257349830428
  0
LINE
  5
348B
330
1A
100
AcDbEntity
  8
外形線
100
AcDbLine
 10
203.783652593967
 20
513.295549976624
 30
0.0
 11
209.883652593967
 21
507.130844094271
 31
0.0
  0
LINE
  5
348C
330
1A
100
AcDbEntity
  8
外形線
100
AcDbLine
 10
209.883652593967
 20
507.130844094271
 30
0.0
 11
261.545337672962
 21
507.130844094271
 31
0.0
  0
LINE
  5
348D
330
1A
100
AcDbEntity
  8
外形線
100
AcDbLine
 10
143.883955624965
 20
502.314037371582
 30
0.0
 11
10.883955624965
 21
502.314037371582
 31
0.0
  0
ARC
  5
3516
330
1A
100
AcDbEntity
  8
外形線
100
AcDbCircle
 10
144.383955624965
 20
512.795549976624
 30
0.0
 40
0.5
100
AcDbArc
 50
90.0
 51
180.0
  0
LWPOLYLINE
  5
352F
330
1A
100
AcDbEntity
  8
細線
100
AcDbPolyline
 90
       67
 70
     0
 43
0.0
 10
268.123004793058
 20
477.130844094271
 10
268.083243374214
 20
477.237573699453
 10
267.973378285462
 20
477.540855796889
 10
267.807538278482
 20
478.015330309425
 10
267.599852104954
 20
478.635637159903
 10
267.364448516554
 20
479.376416271161
 10
267.11545626496
 20
480.212307566043
 10
266.86700410185
 20
481.117950967389
 10
266.633220778902
 20
482.067986398045
 10
266.428235047796
 20
483.037053780849
 10
266.266175660206
 20
483.999793038643
 10
266.161171367814
 20
484.930844094271
 10
266.124230713094
 20
485.769910011817
 10
266.146722833896
 20
486.561794185231
 10
266.22342072748
 20
487.311134619569
 10
266.34909739111
 20
488.022569319887
 10
266.518525822048
 20
488.700736291243
 10
266.726479017554
 20
489.350273538689
 10
266.967729974894
 20
489.975819067285
 10
267.237051691326
 20
490.582010882085
 10
267.529217164116
 20
491.173486988147
 10
267.838999390524
 20
491.754885390523
 10
268.161171367814
 20
492.330844094271
 10
268.489855542756
 20
492.905148100765
 10
268.819281124072
 20
493.482864546705
 10
269.143046273732
 20
494.068205382147
 10
269.454749153706
 20
494.665382557143
 10
269.747987925964
 20
495.278608021751
 10
270.016360752478
 20
495.912093726025
 10
270.253465795216
 20
496.570051620017
 10
270.452901216148
 20
497.256693653783
 10
270.608265177246
 20
497.976231777377
 10
270.713155840476
 20
498.732877940855
 10
270.761171367814
 20
499.530844094271
 10
270.745603989424
 20
500.414076767167
 10
270.666409309368
 20
501.325408580649
 10
270.529845365094
 20
502.242651582387
 10
270.342170194054
 20
503.143617820055
 10
270.109641833694
 20
504.006119341327
 10
269.838518321468
 20
504.807968193875
 10
269.535057694822
 20
505.526976425369
 10
269.20551799121
 20
506.140956083483
 10
268.856157248078
 20
506.627719215891
 10
268.493233502878
 20
506.965077870263
 10
268.123004793058
 20
507.130844094271
 10
267.703013208042
 20
507.092763396081
 10
267.29227840128
 20
506.830160641865
 10
266.901400077046
 20
506.367081896843
 10
266.540977939626
 20
505.727573226237
 10
266.221611693294
 20
504.935680695271
 10
265.95390104233
 20
504.015450369163
 10
265.748445691014
 20
502.990928313135
 10
265.615845343626
 20
501.886160592411
 10
265.566699704444
 20
500.725193272211
 10
265.611608477746
 20
499.532072417757
 10
265.761171367814
 20
498.330844094271
 10
265.93148591525
 20
497.497096146087
 10
266.145808207388
 20
496.683643492593
 10
266.391448026166
 20
495.902940595741
 10
266.655715153518
 20
495.167441917483
 10
266.925919371382
 20
494.489601919771
 10
267.189370461696
 20
493.881875064557
 10
267.433378206398
 20
493.356715813793
 10
267.645252387422
 20
492.926578629431
 10
267.812302786708
 20
492.603917973421
 10
267.921839186194
 20
492.401188307717
 10
267.961171367814
 20
492.330844094271
  0
LWPOLYLINE
  5
3530
330
1A
100
AcDbEntity
  8
細線
100
AcDbPolyline
 90
       67
 70
     0
 43
0.0
 10
261.545337672962
 20
507.130844094271
 10
261.585099091808
 20
507.024114489091
 10
261.69496418056
 20
506.720832391653
 10
261.860804187538
 20
506.246357879117
 10
262.068490361068
 20
505.626051028641
 10
262.303893949468
 20
504.885271917383
 10
262.552886201062
 20
504.049380622501
 10
262.801338364172
 20
503.143737221153
 10
263.035121687118
 20
502.193701790497
 10
263.240107418226
 20
501.224634407693
 10
263.402166805816
 20
500.261895149899
 10
263.507171098208
 20
499.330844094271
 10
263.544111752928
 20
498.491778176725
 10
263.521619632126
 20
497.699894003313
 10
263.44492173854
 20
496.950553568973
 10
263.31924507491
 20
496.239118868655
 10
263.149816643974
 20
495.560951897301
 10
262.941863448466
 20
494.911414649853
 10
262.700612491128
 20
494.285869121257
 10
262.431290774694
 20
493.679677306457
 10
262.139125301904
 20
493.088201200397
 10
261.829343075496
 20
492.506802798019
 10
261.507171098208
 20
491.930844094271
 10
261.178486923266
 20
491.356540087777
 10
260.84906134195
 20
490.778823641837
 10
260.52529619229
 20
490.193482806397
 10
260.213593312316
 20
489.596305631399
 10
259.920354540056
 20
488.983080166791
 10
259.651981713544
 20
488.349594462519
 10
259.414876670806
 20
487.691636568527
 10
259.215441249874
 20
487.004994534759
 10
259.060077288776
 20
486.285456411165
 10
258.955186625544
 20
485.528810247687
 10
258.907171098208
 20
484.730844094271
 10
258.922738476596
 20
483.847611421375
 10
259.001933156652
 20
482.936279607895
 10
259.138497100926
 20
482.019036606155
 10
259.326172271968
 20
481.118070368487
 10
259.558700632326
 20
480.255568847215
 10
259.829824144554
 20
479.453719994667
 10
260.133284771198
 20
478.734711763173
 10
260.462824474812
 20
478.120732105059
 10
260.812185217944
 20
477.633968972651
 10
261.175108963144
 20
477.296610318281
 10
261.545337672962
 20
477.130844094271
 10
261.965329257978
 20
477.168924792461
 10
262.376064064742
 20
477.431527546677
 10
262.766942388974
 20
477.894606291699
 10
263.127364526396
 20
478.534114962305
 10
263.446730772728
 20
479.326007493273
 10
263.714441423692
 20
480.246237819379
 10
263.919896775008
 20
481.270759875407
 10
264.052497122396
 20
482.375527596131
 10
264.101642761578
 20
483.536494916331
 10
264.056733988276
 20
484.729615770785
 10
263.907171098208
 20
485.930844094271
 10
263.736856550772
 20
486.764592042455
 10
263.522534258632
 20
487.578044695949
 10
263.276894439856
 20
488.358747592801
 10
263.012627312504
 20
489.094246271059
 10
262.74242309464
 20
489.772086268771
 10
262.478972004326
 20
490.379813123985
 10
262.234964259624
 20
490.904972374749
 10
262.023090078598
 20
491.335109559113
 10
261.856039679312
 20
491.657770215121
 10
261.746503279828
 20
491.860499880825
 10
261.707171098208
 20
491.930844094271
  0
DIMENSION
  5
358B
330
1A
100
AcDbEntity
  8
寸法線
 48
10.0
100
AcDbDimension
  2
*D13
 10
161.800039148589
 20
513.295549976624
 30
0.0
 11
161.800039148589
 21
529.720549976624
 31
0.0
 70
   160
  1
φ44
  3
ISO-25
100
AcDbAlignedDimension
 13
161.800039148589
 23
471.366138211918
 33
0.0
 14
161.800039148589
 24
513.295549976624
 34
0.0
 50
90.0
100
AcDbRotatedDimension
1001
ACAD
1000
DSTYLE
1002
{
1070
     5
1000
OPEN30
1070
    41
1040
6.0
1070
    47
1040
0.1
1070
    48
1040
0.1
1070
    73
1070
     0
1070
   140
1040
8.0
1070
   271
1070
     1
1070
   272
1070
     1
1070
   341
1005
2AF4
1002
}
  0
LINE
  5
35EF
330
1A
100
AcDbEntity
  8
外形線
100
AcDbLine
 10
353.16483518331
 20
466.374541573263
 30
0.0
 11
353.16483518331
 21
518.28714661528
 31
0.0
  0
DIMENSION
  5
369E
330
1A
100
AcDbEntity
  8
寸法線
 48
10.0
100
AcDbDimension
  2
*D15
 10
353.16480518331
 20
374.830844094271
 30
0.0
 11
180.231283101063
 21
374.830844094271
 31
0.0
 70
    32
  1
 
  3
ISO-25
100
AcDbAlignedDimension
 13
10.883955624965
 23
444.994451318452
 33
0.0
 14
353.16480518331
 24
374.830844094271
 34
0.0
100
AcDbRotatedDimension
1001
ACAD
1000
DSTYLE
1002
{
1070
     5
1000
OPEN30
1070
    41
1040
6.0
1070
    47
1040
0.1
1070
    48
1040
0.1
1070
    73
1070
     0
1070
   140
1040
8.0
1070
   271
1070
     1
1070
   272
1070
     1
1070
   341
1005
2AF4
1002
}
  0
LINE
  5
375C
330
1A
100
AcDbEntity
  8
細線
100
AcDbLine
 10
334.094343312265
 20
469.98408879746
 30
0.0
 11
351.16483518331
 21
469.98408879746
 31
0.0
  0
MTEXT
  5
39C1
330
1A
100
AcDbEntity
  8
寸法線
 48
10.0
100
AcDbMText
 10
293.388738117653
 20
601.418077731302
 30
0.0
 40
8.0
 41
39.44464816509
 71
     3
 72
     5
  1
\A1;取付ねじ\PG1 {\H0.7x;\S1#2;}"
  0
LEADER
  5
3AE0
330
1A
100
AcDbEntity
  8
寸法線
 48
10.0
100
AcDbLeader
  3
ISO-25
 76
     3
 10
342.178922197828
 20
516.290507959818
 30
0.0
 10
293.685930857133
 20
575.534428518342
 30
0.0
 10
281.596236589783
 20
575.534428518342
 30
0.0
1001
ACAD
1000
DSTYLE
1002
{
1070
     5
1000
OPEN30
1070
   147
1040
0.625
1070
    77
1070
     0
1070
    41
1040
6.0
1070
    47
1040
0.1
1070
    48
1040
0.1
1070
    73
1070
     0
1070
   140
1040
5.0
1070
   271
1070
     1
1070
   272
1070
     1
1070
   341
1005
2AF4
1070
   342
1005
2AF4
1002
}
  0
MTEXT
  5
3AF2
330
1A
100
AcDbEntity
  8
寸法線
 48
10.0
100
AcDbMText
 10
81.153114419636
 20
578.487065127137
 30
0.0
 40
8.0
 41
0.0
 71
     9
 72
     1
  1
振動部（検知部）\PDIN1.4571（SUS316相当）
  0
LINE
  5
3D50
330
1A
100
AcDbEntity
  8
外形線
100
AcDbLine
 10
351.16483518331
 20
519.830844094271
 30
0.0
 11
351.16483518331
 21
464.830844094271
 31
0.0
  0
LINE
  5
3D51
330
1A
100
AcDbEntity
  8
外形線
100
AcDbLine
 10
351.16483518331
 20
464.830844094271
 30
0.0
 11
353.16480518331
 21
464.830844094271
 31
0.0
  0
LINE
  5
3D52
330
1A
100
AcDbEntity
  8
外形線
100
AcDbLine
 10
351.16483518331
 20
519.830844094271
 30
0.0
 11
353.16480518331
 21
519.830844094271
 31
0.0
  0
LINE
  5
3DCF
330
1A
100
AcDbEntity
  8
外形線
100
AcDbLine
 10
353.16483518331
 20
519.830844094271
 30
0.0
 11
353.16483518331
 21
464.830844094271
 31
0.0
  0
MTEXT
  5
3E97
102
{ACAD_XDICTIONARY
360
4A8D
102
}
330
1A
100
AcDbEntity
  8
寸法線
 48
10.0
100
AcDbMText
 10
385.278526258936
 20
586.328873429293
 30
0.0
 40
8.0
 41
49.592740337165
 71
     1
 72
     5
  1
平径46
1001
ACADANNOTATIVE
1000
AnnotativeData
1002
{
1070
     1
1070
     0
1002
}
  0
LEADER
  5
3E98
330
1A
100
AcDbEntity
  8
寸法線
 48
10.0
100
AcDbLeader
  3
ISO-25
 76
     3
 10
360.356596829814
 20
518.888956476994
 30
0.0
 10
383.249526268992
 20
575.534428518342
 30
0.0
 10
394.232426594217
 20
575.534428518342
 30
0.0
1001
ACAD
1000
DSTYLE
1002
{
1070
     5
1000
OPEN30
1070
   147
1040
0.625
1070
    77
1070
     0
1070
    41
1040
6.0
1070
    47
1040
0.1
1070
    48
1040
0.1
1070
    73
1070
     0
1070
   140
1040
5.0
1070
   271
1070
     1
1070
   272
1070
     1
1070
   341
1005
2AF4
1070
   342
1005
2AF4
1002
}
  0
LEADER
  5
3E9A
330
1A
100
AcDbEntity
  8
寸法線
 48
10.0
100
AcDbLeader
  3
ISO-25
 76
     3
 10
433.121048019812
 20
412.374440479286
 30
0.0
 10
475.792576732806
 20
374.830844094271
 30
0.0
 10
486.154624394511
 20
374.830844094271
 30
0.0
1001
ACAD
1000
DSTYLE
1002
{
1070
     5
1000
OPEN30
1070
   147
1040
0.625
1070
    77
1070
     0
1070
    41
1040
6.0
1070
    47
1040
0.1
1070
    48
1040
0.1
1070
    73
1070
     0
1070
   140
1040
5.0
1070
   271
1070
     1
1070
   272
1070
     1
1070
   341
1005
2AF4
1070
   342
1005
2AF4
1002
}
  0
LEADER
  5
3E9B
330
1A
100
AcDbEntity
  8
寸法線
 48
10.0
100
AcDbLeader
  3
ISO-25
 76
     3
 10
411.234490556672
 20
442.836651567154
 30
0.0
 10
384.733482791796
 20
398.524093367617
 30
0.0
 10
375.118253095762
 20
398.524093367617
 30
0.0
1001
ACAD
1000
DSTYLE
1002
{
1070
     5
1000
OPEN30
1070
   147
1040
0.625
1070
    77
1070
     0
1070
    41
1040
6.0
1070
    47
1040
0.1
1070
    48
1040
0.1
1070
    73
1070
     0
1070
   140
1040
5.0
1070
   271
1070
     1
1070
   272
1070
     1
1070
   341
1005
2AF4
1070
   342
1005
2AF4
1002
}
  0
MTEXT
  5
3E9C
330
1A
100
AcDbEntity
  8
寸法線
 48
10.0
100
AcDbMText
 10
320.63418070442
 20
584.680728605799
 30
0.0
 40
8.0
 41
49.592740337165
 71
     1
 72
     5
  1
ガスケット
  0
LEADER
  5
3E9D
330
1A
100
AcDbEntity
  8
寸法線
 48
10.0
100
AcDbLeader
  3
ISO-25
 76
     3
 10
352.16482018331
 20
519.830844094271
 30
0.0
 10
365.881083067963
 20
575.534428518342
 30
0.0
 10
357.065337714048
 20
575.534428518342
 30
0.0
1001
ACAD
1000
DSTYLE
1002
{
1070
     5
1000
OPEN30
1070
   147
1040
0.625
1070
    77
1070
     0
1070
    41
1040
6.0
1070
    47
1040
0.1
1070
    48
1040
0.1
1070
    73
1070
     0
1070
   140
1040
5.0
1070
   271
1070
     1
1070
   272
1070
     1
1070
   341
1005
2AF4
1070
   342
1005
2AF4
1002
}
  0
DIMENSION
  5
3E9F
330
1A
100
AcDbEntity
  8
寸法線
 48
10.0
100
AcDbDimension
  2
*D17
 10
353.16480518331
 20
444.994451318452
 30
0.0
 11
342.66482018331
 21
449.623617985119
 31
0.0
 70
    32
  3
ISO-25
100
AcDbAlignedDimension
 13
332.16483518331
 23
470.316030999196
 33
0.0
 14
353.16480518331
 24
464.830844094271
 34
0.0
100
AcDbRotatedDimension
1001
ACAD
1000
DSTYLE
1002
{
1070
     5
1000
OPEN30
1070
    41
1040
6.0
1070
    47
1040
0.1
1070
    48
1040
0.1
1070
    73
1070
     0
1070
   140
1040
8.0
1070
   271
1070
     1
1070
   272
1070
     1
1070
   341
1005
2AF4
1002
}
  0
SPLINE
  5
3ECB
330
1A
100
AcDbEntity
  8
寸法線
 48
10.0
100
AcDbSpline
210
0.0
220
0.0
230
1.0
 70
  1064
 71
     3
 72
    13
 73
     9
 74
     7
 42
0.000000001
 43
0.0000000001
 44
0.0000000001
 40
0.0
 40
0.0
 40
0.0
 40
0.0
 40
3.86842211421227
 40
10.12254119268954
 40
15.16331027423529
 40
18.64952359630841
 40
20.50331406220848
 40
21.8476876304271
 40
21.8476876304271
 40
21.8476876304271
 40
21.8476876304271
 10
178.2251183539788
 20
376.3608097907512
 30
0.0
 10
179.375512829337
 20
376.8922229553376
 30
0.0
 10
182.385762259427
 20
378.2827774217437
 30
0.0
 10
183.1111479754563
 20
387.990184919364
 30
0.0
 10
178.8202719545688
 20
381.0082720205182
 30
0.0
 10
179.0081659867886
 20
377.4638892293525
 30
0.0
 10
181.2688369296787
 20
376.0753593273782
 30
0.0
 10
182.2687686513908
 20
376.5755597825086
 30
0.0
 10
182.6890978660126
 20
376.7858230033797
 30
0.0
 11
178.2251183539788
 21
376.3608097907512
 31
0.0
 11
181.3073897353775
 21
378.6983924706018
 31
0.0
 11
181.9982438006948
 21
384.9142372328371
 31
0.0
 11
179.2879713644857
 21
380.6640870878431
 31
0.0
 11
179.7662553497175
 21
377.2108382180871
 31
0.0
 11
181.4136747754203
 21
376.3608097907512
 31
0.0
 11
182.6890978660126
 21
376.7858230033797
 31
0.0
  0
LINE
  5
3ECD
330
1A
100
AcDbEntity
  8
下書線
 48
10.0
100
AcDbLine
 10
536.125980234818
 20
575.534428518342
 30
0.0
 11
-90.356905872954
 21
575.534428518342
 31
0.0
  0
LINE
  5
3FD3
330
1A
100
AcDbEntity
  8
外形線
 48
10.0
100
AcDbLine
 10
323.16483518331
 20
507.330844094271
 30
0.0
 11
323.16483518331
 21
477.330844094271
 31
0.0
  0
LINE
  5
3FD7
330
1A
100
AcDbEntity
  8
外形線
100
AcDbLine
 10
268.123004793058
 20
507.130844094271
 30
0.0
 11
323.16483518331
 21
507.130844094271
 31
0.0
  0
LINE
  5
3FD8
330
1A
100
AcDbEntity
  8
外形線
100
AcDbLine
 10
261.545337672962
 20
477.130844094271
 30
0.0
 11
209.883652593967
 21
477.130844094271
 31
0.0
  0
LINE
  5
41E1
330
1A
100
AcDbEntity
  8
寸法線
100
AcDbLine
 10
28.313064607168
 20
351.805941752289
 30
0.0
 11
28.313064607168
 21
301.805941752289
 31
0.0
  0
LINE
  5
41E2
330
1A
100
AcDbEntity
  8
寸法線
100
AcDbLine
 10
28.313064607168
 20
351.805941752289
 30
0.0
 11
-116.886935392832
 21
351.805941752289
 31
0.0
  0
LINE
  5
41E3
330
1A
100
AcDbEntity
  8
寸法線
100
AcDbLine
 10
-116.886935392832
 20
351.805941752289
 30
0.0
 11
-116.886935392832
 21
301.805941752289
 31
0.0
  0
LINE
  5
41E4
330
1A
100
AcDbEntity
  8
寸法線
100
AcDbLine
 10
-109.686935392832
 20
299.805941752289
 30
0.0
 11
-109.686935392832
 21
261.805941752289
 31
0.0
  0
LINE
  5
41E5
330
1A
100
AcDbEntity
  8
寸法線
100
AcDbLine
 10
21.113064607168
 20
299.805941752289
 30
0.0
 11
21.113064607168
 21
261.805941752289
 31
0.0
  0
CIRCLE
  5
41E6
330
1A
100
AcDbEntity
  8
寸法線
100
AcDbCircle
 10
-109.686935392832
 20
301.805941752289
 30
0.0
 40
2.0
  0
CIRCLE
  5
41E7
330
1A
100
AcDbEntity
  8
寸法線
100
AcDbCircle
 10
-83.526935392832
 20
301.805941752289
 30
0.0
 40
2.0
  0
CIRCLE
  5
41E8
330
1A
100
AcDbEntity
  8
寸法線
100
AcDbCircle
 10
-57.366935392832
 20
301.805941752289
 30
0.0
 40
2.0
  0
CIRCLE
  5
41E9
330
1A
100
AcDbEntity
  8
寸法線
100
AcDbCircle
 10
-31.206935392832
 20
301.805941752289
 30
0.0
 40
2.0
  0
CIRCLE
  5
41EA
330
1A
100
AcDbEntity
  8
寸法線
100
AcDbCircle
 10
-5.046935392832
 20
301.805941752289
 30
0.0
 40
2.0
  0
CIRCLE
  5
41EB
330
1A
100
AcDbEntity
  8
寸法線
100
AcDbCircle
 10
21.113064607168
 20
301.805941752289
 30
0.0
 40
2.0
  0
LINE
  5
41EC
330
1A
100
AcDbEntity
  8
寸法線
100
AcDbLine
 10
-83.526935392832
 20
299.805941752289
 30
0.0
 11
-83.526935392832
 21
261.805941752289
 31
0.0
  0
LINE
  5
41ED
330
1A
100
AcDbEntity
  8
寸法線
100
AcDbLine
 10
-57.366935392832
 20
299.805941752289
 30
0.0
 11
-57.366935392832
 21
261.805941752289
 31
0.0
  0
LINE
  5
41EE
330
1A
100
AcDbEntity
  8
寸法線
100
AcDbLine
 10
-31.206935392832
 20
299.805941752289
 30
0.0
 11
-31.206935392832
 21
261.805941752289
 31
0.0
  0
LINE
  5
41EF
330
1A
100
AcDbEntity
  8
寸法線
100
AcDbLine
 10
-5.046935392832
 20
299.805941752289
 30
0.0
 11
-5.046935392832
 21
261.805941752289
 31
0.0
  0
LINE
  5
41F0
330
1A
100
AcDbEntity
  8
寸法線
100
AcDbLine
 10
-111.686935392832
 20
301.805941752289
 30
0.0
 11
-116.886935392832
 21
301.805941752289
 31
0.0
  0
LINE
  5
41F1
330
1A
100
AcDbEntity
  8
寸法線
100
AcDbLine
 10
-107.686935392832
 20
301.805941752289
 30
0.0
 11
-85.526935392832
 21
301.805941752289
 31
0.0
  0
LINE
  5
41F2
330
1A
100
AcDbEntity
  8
寸法線
100
AcDbLine
 10
-81.526935392832
 20
301.805941752289
 30
0.0
 11
-59.366935392832
 21
301.805941752289
 31
0.0
  0
LINE
  5
41F3
330
1A
100
AcDbEntity
  8
寸法線
100
AcDbLine
 10
-55.366935392832
 20
301.805941752289
 30
0.0
 11
-33.206935392832
 21
301.805941752289
 31
0.0
  0
LINE
  5
41F4
330
1A
100
AcDbEntity
  8
寸法線
100
AcDbLine
 10
-29.206935392832
 20
301.805941752289
 30
0.0
 11
-7.046935392832
 21
301.805941752289
 31
0.0
  0
LINE
  5
41F5
330
1A
100
AcDbEntity
  8
寸法線
100
AcDbLine
 10
-3.046935392832
 20
301.805941752289
 30
0.0
 11
19.113064607168
 21
301.805941752289
 31
0.0
  0
LINE
  5
41F6
330
1A
100
AcDbEntity
  8
寸法線
100
AcDbLine
 10
28.313064607168
 20
301.805941752289
 30
0.0
 11
23.113064607168
 21
301.805941752289
 31
0.0
  0
CIRCLE
  5
41F7
330
1A
100
AcDbEntity
  8
寸法線
100
AcDbCircle
 10
-109.886935392832
 20
310.805941752289
 30
0.0
 40
5.0
  0
CIRCLE
  5
41F8
330
1A
100
AcDbEntity
  8
寸法線
100
AcDbCircle
 10
-83.486935392832
 20
310.805941752289
 30
0.0
 40
5.0
  0
CIRCLE
  5
41F9
330
1A
100
AcDbEntity
  8
寸法線
100
AcDbCircle
 10
-57.286935392832
 20
310.805941752289
 30
0.0
 40
5.0
  0
CIRCLE
  5
41FA
330
1A
100
AcDbEntity
  8
寸法線
100
AcDbCircle
 10
-31.086935392832
 20
310.805941752289
 30
0.0
 40
5.0
  0
CIRCLE
  5
41FB
330
1A
100
AcDbEntity
  8
寸法線
100
AcDbCircle
 10
-4.886935392832
 20
310.805941752289
 30
0.0
 40
5.0
  0
CIRCLE
  5
41FC
330
1A
100
AcDbEntity
  8
寸法線
100
AcDbCircle
 10
21.313064607168
 20
310.805941752289
 30
0.0
 40
5.0
  0
LINE
  5
41FD
330
1A
100
AcDbEntity
  8
寸法線
100
AcDbLine
 10
-118.886935392832
 20
299.805941752289
 30
0.0
 11
-118.886935392832
 21
353.805941752289
 31
0.0
  0
LINE
  5
41FE
330
1A
100
AcDbEntity
  8
寸法線
100
AcDbLine
 10
-118.886935392832
 20
353.805941752289
 30
0.0
 11
30.313064607168
 21
353.805941752289
 31
0.0
  0
LINE
  5
41FF
330
1A
100
AcDbEntity
  8
寸法線
100
AcDbLine
 10
30.313064607168
 20
299.805941752289
 30
0.0
 11
30.313064607168
 21
353.805941752289
 31
0.0
  0
LINE
  5
4200
330
1A
100
AcDbEntity
  8
寸法線
100
AcDbLine
 10
-118.886935392832
 20
299.805941752289
 30
0.0
 11
30.313064607168
 21
299.805941752289
 31
0.0
  0
LINE
  5
4201
330
1A
100
AcDbEntity
  8
寸法線
100
AcDbLine
 10
21.113064607168
 20
316.605941752289
 30
0.0
 11
21.113064607168
 21
345.005941752289
 31
0.0
  0
LINE
  5
4202
330
1A
100
AcDbEntity
  8
寸法線
100
AcDbLine
 10
-5.046935392832
 20
316.805941752289
 30
0.0
 11
-5.046935392832
 21
326.205941752289
 31
0.0
  0
LINE
  5
4203
330
1A
100
AcDbEntity
  8
寸法線
100
AcDbLine
 10
-31.206935392832
 20
316.805941752289
 30
0.0
 11
-31.206935392832
 21
345.005941752289
 31
0.0
  0
CIRCLE
  5
4204
330
1A
100
AcDbEntity
  8
寸法線
100
AcDbCircle
 10
-5.046935392832
 20
328.205941752289
 30
0.0
 40
2.0
  0
LINE
  5
4205
330
1A
100
AcDbEntity
  8
寸法線
100
AcDbLine
 10
-13.977587806691
 20
345.005941752289
 30
0.0
 11
-31.206935392832
 21
345.005941752289
 31
0.0
  0
LINE
  5
4206
330
1A
100
AcDbEntity
  8
寸法線
100
AcDbLine
 10
-5.206425837398
 20
330.199572309361
 30
0.0
 11
9.15313048325
 21
346.405941752289
 31
0.0
  0
LINE
  5
4207
330
1A
100
AcDbEntity
  8
寸法線
100
AcDbLine
 10
7.993064607168
 20
345.005941752289
 30
0.0
 11
21.113064607168
 21
345.005941752289
 31
0.0
  0
POINT
  5
4208
330
1A
100
AcDbEntity
  8
寸法線
100
AcDbPoint
 10
-44.286935392832
 20
301.805941752289
 30
0.0
  0
LINE
  5
4209
330
1A
100
AcDbEntity
  8
寸法線
100
AcDbLine
 10
-44.286935392832
 20
293.385941752289
 30
0.0
 11
-44.286935392832
 21
289.845941752289
 31
0.0
  0
CIRCLE
  5
420A
330
1A
100
AcDbEntity
  8
寸法線
100
AcDbCircle
 10
-44.286935392832
 20
288.385941752289
 30
0.0
 40
5.0
  0
LINE
  5
420B
330
1A
100
AcDbEntity
  8
寸法線
100
AcDbLine
 10
-47.946935392832
 20
289.845941752289
 30
0.0
 11
-40.426935392832
 21
289.845941752289
 31
0.0
  0
LINE
  5
420C
330
1A
100
AcDbEntity
  8
寸法線
100
AcDbLine
 10
-46.406935392832
 20
288.045941752289
 30
0.0
 11
-41.986935392832
 21
288.045941752289
 31
0.0
  0
LINE
  5
420D
330
1A
100
AcDbEntity
  8
寸法線
100
AcDbLine
 10
-45.186935392832
 20
286.305941752289
 30
0.0
 11
-43.106935392832
 21
286.305941752289
 31
0.0
  0
LINE
  5
420E
330
1A
100
AcDbEntity
  8
寸法線
100
AcDbLine
 10
-48.686935392832
 20
310.605941752289
 30
0.0
 11
-39.886935392832
 21
310.605941752289
 31
0.0
  0
POINT
  5
420F
330
1A
100
AcDbEntity
  8
寸法線
100
AcDbPoint
 10
-44.286935392832
 20
306.205941752289
 30
0.0
  0
CIRCLE
  5
4210
330
1A
100
AcDbEntity
  8
寸法線
100
AcDbCircle
 10
-44.286935392832
 20
306.205941752289
 30
0.0
 40
4.40000000000004
  0
LINE
  5
4211
330
1A
100
AcDbEntity
  8
寸法線
100
AcDbLine
 10
-48.686935392832
 20
301.805941752289
 30
0.0
 11
-48.686935392832
 21
310.605941752289
 31
0.0
  0
LINE
  5
4212
330
1A
100
AcDbEntity
  8
寸法線
100
AcDbLine
 10
-39.886935392832
 20
301.805941752289
 30
0.0
 11
-39.886935392832
 21
310.605941752289
 31
0.0
  0
LINE
  5
4213
330
1A
100
AcDbEntity
  8
寸法線
100
AcDbLine
 10
-42.286935392832
 20
306.205941752289
 30
0.0
 11
-46.286935392832
 21
306.205941752289
 31
0.0
  0
LINE
  5
4214
330
1A
100
AcDbEntity
  8
寸法線
100
AcDbLine
 10
-44.286935392832
 20
304.205941752289
 30
0.0
 11
-44.286935392832
 21
308.205941752289
 31
0.0
  0
LINE
  5
4215
330
1A
100
AcDbEntity
  8
寸法線
100
AcDbLine
 10
-44.286935392832
 20
301.805941752289
 30
0.0
 11
-44.286935392832
 21
293.385941752289
 31
0.0
  0
MTEXT
  5
4216
102
{ACAD_XDICTIONARY
360
4217
102
}
330
1A
100
AcDbEntity
  8
寸法線
 48
10.0
100
AcDbMText
 10
-114.30371444212
 20
348.677376197311
 30
0.0
 40
8.0
 41
95.557777777778
 71
     1
 72
     5
  1
\C1;RKR-5□□
1001
ACADANNOTATIVE
1000
AnnotativeData
1002
{
1070
     1
1070
     0
1002
}
  0
MTEXT
  5
421A
330
1A
100
AcDbEntity
  8
寸法線
 48
10.0
100
AcDbMText
 10
-111.086568279924
 20
314.012503440951
 30
0.0
 40
7.0
 41
95.557777777778
 71
     1
 72
     5
  1
{\C1;1}
  0
MTEXT
  5
421B
330
1A
100
AcDbEntity
  8
寸法線
 48
10.0
100
AcDbMText
 10
-85.0668474879
 20
314.012503440951
 30
0.0
 40
7.0
 41
95.557777777778
 71
     1
 72
     5
  1
{\C1;2}
  0
MTEXT
  5
421C
330
1A
100
AcDbEntity
  8
寸法線
 48
10.0
100
AcDbMText
 10
-58.643759302026
 20
314.012503440951
 30
0.0
 40
7.0
 41
95.557777777778
 71
     1
 72
     5
  1
{\C1;3}
  0
MTEXT
  5
421D
330
1A
100
AcDbEntity
  8
寸法線
 48
10.0
100
AcDbMText
 10
-32.658948231059
 20
314.012503440951
 30
0.0
 40
7.0
 41
95.557777777778
 71
     1
 72
     5
  1
{\C1;4}
  0
MTEXT
  5
421E
330
1A
100
AcDbEntity
  8
寸法線
 48
10.0
100
AcDbMText
 10
-6.076612632238
 20
314.012503440951
 30
0.0
 40
7.0
 41
95.557777777778
 71
     1
 72
     5
  1
{\C1;5}
  0
MTEXT
  5
421F
330
1A
100
AcDbEntity
  8
寸法線
 48
10.0
100
AcDbMText
 10
19.524189627813
 20
314.012503440951
 30
0.0
 40
7.0
 41
95.557777777778
 71
     1
 72
     5
  1
{\C1;6}
  0
MTEXT
  5
4220
330
1A
100
AcDbEntity
  8
寸法線
 48
10.0
100
AcDbMText
 10
-113.674170543714
 20
259.160205820742
 30
0.0
 40
8.0
 41
95.557777777778
 71
     1
 72
     5
  1
{\C1;PE}
  0
MTEXT
  5
4221
330
1A
100
AcDbEntity
  8
寸法線
 48
10.0
100
AcDbMText
 10
-85.913329293278
 20
259.160205820742
 30
0.0
 40
8.0
 41
95.557777777778
 71
     1
 72
     5
  1
{\C1;N}
  0
MTEXT
  5
4222
330
1A
100
AcDbEntity
  8
寸法線
 48
10.0
100
AcDbMText
 10
-60.019652589932
 20
259.160205820742
 30
0.0
 40
8.0
 41
95.557777777778
 71
     1
 72
     5
  1
{\C1;L1}
  0
MTEXT
  5
4223
330
1A
100
AcDbEntity
  8
寸法線
 48
10.0
100
AcDbMText
 10
-35.756874012436
 20
259.160205820742
 30
0.0
 40
8.0
 41
95.557777777778
 71
     1
 72
     5
  1
{\C1;NO}
  0
MTEXT
  5
4224
330
1A
100
AcDbEntity
  8
寸法線
 48
10.0
100
AcDbMText
 10
-7.257899635444
 20
259.160205820742
 30
0.0
 40
8.0
 41
95.557777777778
 71
     1
 72
     5
  1
{\C1;C}
  0
MTEXT
  5
4225
330
1A
100
AcDbEntity
  8
寸法線
 48
10.0
100
AcDbMText
 10
15.359801560961
 20
259.160205820742
 30
0.0
 40
8.0
 41
95.557777777778
 71
     1
 72
     5
  1
{\C1;NC}
  0
LINE
  5
4226
330
1A
100
AcDbEntity
  8
寸法線
 48
10.0
100
AcDbLine
 10
313.115316300443
 20
342.935734462666
 30
0.0
 11
313.115316300443
 21
220.83280310479
 31
0.0
  0
LINE
  5
4227
330
1A
100
AcDbEntity
  8
寸法線
 48
10.0
100
AcDbLine
 10
182.883454633852
 20
313.300739964804
 30
0.0
 11
280.243985203272
 21
313.300739964804
 31
0.0
  0
MTEXT
  5
4228
102
{ACAD_XDICTIONARY
360
4229
102
}
330
1A
100
AcDbEntity
  8
寸法線
 48
10.0
100
AcDbMText
 10
220.100193588271
 20
324.121044739234
 30
0.0
 40
8.0
 41
60.143791615001
 71
     1
 72
     5
  1
RKR-504-1
1001
ACADANNOTATIVE
1000
AnnotativeData
1002
{
1070
     1
1070
     0
1002
}
1001
ACAD
1000
MTEXTBEGIN
1070
    44
1040
1.1475
1000
MTEXTEND
  0
MTEXT
  5
422C
330
1A
100
AcDbEntity
  8
寸法線
 48
10.0
100
AcDbMText
 10
239.078902042286
 20
340.053909435172
 30
0.0
 40
8.0
 41
19.77375149039
 71
     1
 72
     5
  1
型式
  0
LINE
  5
422D
330
1A
100
AcDbEntity
  8
寸法線
 48
10.0
100
AcDbLine
 10
182.883454633852
 20
328.734708394811
 30
0.0
 11
280.243985203272
 21
328.734708394811
 31
0.0
  0
LINE
  5
422E
330
1A
100
AcDbEntity
  8
寸法線
 48
10.0
100
AcDbLine
 10
182.883454633852
 20
342.935734462666
 30
0.0
 11
280.243985203272
 21
342.935734462666
 31
0.0
  0
LINE
  5
422F
330
1A
100
AcDbEntity
  8
寸法線
 48
10.0
100
AcDbLine
 10
214.038013728954
 20
342.935734462666
 30
0.0
 11
214.038013728954
 21
220.83280310479
 31
0.0
  0
LINE
  5
4230
330
1A
100
AcDbEntity
  8
寸法線
 48
10.0
100
AcDbLine
 10
280.243985203272
 20
342.935734462666
 30
0.0
 11
280.243985203272
 21
220.83280310479
 31
0.0
  0
LINE
  5
4231
330
1A
100
AcDbEntity
  8
寸法線
 48
10.0
100
AcDbLine
 10
280.243985203272
 20
342.935734462666
 30
0.0
 11
280.243985203272
 21
220.83280310479
 31
0.0
  0
LINE
  5
4232
330
1A
100
AcDbEntity
  8
寸法線
 48
10.0
100
AcDbLine
 10
182.883454633852
 20
342.935734462666
 30
0.0
 11
182.883454633852
 21
220.83280310479
 31
0.0
  0
MTEXT
  5
4233
330
1A
100
AcDbEntity
  8
寸法線
 48
10.0
100
AcDbMText
 10
472.009790573173
 20
228.608682414414
 30
0.0
 40
8.0
 41
165.013333333333
 71
     1
 72
     5
  1
○印が今回の貴社の御仕様です。
  0
SPLINE
  5
4234
330
1A
100
AcDbEntity
  8
寸法線
 48
10.0
100
AcDbSpline
210
0.0
220
0.0
230
1.0
 70
  1064
 71
     3
 72
    13
 73
     9
 74
     7
 42
0.000000001
 43
0.0000000001
 44
0.0000000001
 40
0.0
 40
0.0
 40
0.0
 40
0.0
 40
3.86842211421227
 40
10.12254119268954
 40
15.16331027423529
 40
18.64952359630841
 40
20.50331406220848
 40
21.8476876304271
 40
21.8476876304271
 40
21.8476876304271
 40
21.8476876304271
 10
294.4497710570727
 20
331.3895303563989
 30
0.0
 10
295.6001655324309
 20
331.9209435209852
 30
0.0
 10
298.6104149625208
 20
333.3114979873914
 30
0.0
 10
299.3358006785501
 20
343.0189054850118
 30
0.0
 10
295.0449246576626
 20
336.0369925861658
 30
0.0
 10
295.2328186898825
 20
332.4926097950002
 30
0.0
 10
297.4934896327726
 20
331.104079893026
 30
0.0
 10
298.4934213544846
 20
331.6042803481562
 30
0.0
 10
298.9137505691065
 20
331.8145435690274
 30
0.0
 11
294.4497710570727
 21
331.3895303563989
 31
0.0
 11
297.5320424384713
 21
333.7271130362495
 31
0.0
 11
298.2228965037887
 21
339.9429577984848
 31
0.0
 11
295.5126240675795
 21
335.6928076534908
 31
0.0
 11
295.9909080528114
 21
332.2395587837348
 31
0.0
 11
297.6383274785142
 21
331.3895303563989
 31
0.0
 11
298.9137505691065
 21
331.8145435690274
 31
0.0
  0
LINE
  5
4235
330
1A
100
AcDbEntity
  8
寸法線
 48
10.0
100
AcDbLine
 10
182.883454633852
 20
297.866771534797
 30
0.0
 11
214.038013728954
 21
297.866771534797
 31
0.0
  0
MTEXT
  5
4236
102
{ACAD_XDICTIONARY
360
4237
102
}
330
1A
100
AcDbEntity
  8
寸法線
 48
10.0
100
AcDbMText
 10
288.756444181533
 20
324.651377149372
 30
0.0
 40
8.0
 41
25.186395132728
 71
     1
 72
     5
  1
400\P450\P500\P550\P600\P650\P700
1001
ACADANNOTATIVE
1000
AnnotativeData
1002
{
1070
     1
1070
     0
1002
}
1001
ACAD
1000
MTEXTBEGIN
1070
    44
1040
1.1475
1000
MTEXTEND
  0
LINE
  5
423A
330
1A
100
AcDbEntity
  8
寸法線
 48
10.0
100
AcDbLine
 10
182.883454633852
 20
282.43280310479
 30
0.0
 11
280.243985203272
 21
282.43280310479
 31
0.0
  0
LINE
  5
423B
330
1A
100
AcDbEntity
  8
寸法線
 48
10.0
100
AcDbLine
 10
280.243985203272
 20
313.300739964804
 30
0.0
 11
393.115316300443
 21
313.300739964804
 31
0.0
  0
LINE
  5
423C
330
1A
100
AcDbEntity
  8
寸法線
 48
10.0
100
AcDbLine
 10
280.243985203272
 20
297.866771534797
 30
0.0
 11
393.115316300443
 21
297.866771534797
 31
0.0
  0
MTEXT
  5
423D
330
1A
100
AcDbEntity
  8
寸法線
 48
10.0
100
AcDbMText
 10
11.193439997585
 20
247.248724659364
 30
0.0
 40
8.0
 41
95.557777777778
 71
     1
 72
     5
  1
{\C1;（NO）}
  0
MTEXT
  5
423E
330
1A
100
AcDbEntity
  8
寸法線
 48
10.0
100
AcDbMText
 10
-39.85613922725
 20
247.248724659364
 30
0.0
 40
8.0
 41
95.557777777778
 71
     1
 72
     5
  1
{\C1;（NC）}
  0
MTEXT
  5
423F
330
1A
100
AcDbEntity
  8
寸法線
 48
10.0
100
AcDbMText
 10
61.977319989037
 20
306.862552679708
 30
0.0
 40
7.0
 41
125.633939393939
 71
     1
 72
     5
  1
{\C1;：グランド\P：電源\P：電源\P：コモン\P：オープン（クローズ）\P：クローズ（オープン）}
  0
MTEXT
  5
4240
330
1A
100
AcDbEntity
  8
寸法線
 48
10.0
100
AcDbMText
 10
50.087127189301
 20
306.862552679708
 30
0.0
 40
7.0
 41
125.633939393939
 71
     1
 72
     5
  1
{\C1;PE\PN\PL1\PC\PNO\PNC}
  0
MTEXT
  5
4241
102
{ACAD_XDICTIONARY
360
4242
102
}
330
1A
100
AcDbEntity
  8
寸法線
 48
10.0
100
AcDbMText
 10
47.771337140535
 20
327.676282699705
 30
0.0
 40
8.0
 41
124.815667100994
 71
     1
 72
     5
  1
電源電圧：AC/DC20～255V
1001
ACADANNOTATIVE
1000
AnnotativeData
1002
{
1070
     1
1070
     0
1002
}
  0
LINE
  5
4245
330
1A
100
AcDbEntity
  8
寸法線
 48
10.0
100
AcDbLine
 10
280.243985203272
 20
328.734708394811
 30
0.0
 11
393.115316300443
 21
328.734708394811
 31
0.0
  0
LINE
  5
4246
330
1A
100
AcDbEntity
  8
寸法線
 48
10.0
100
AcDbLine
 10
280.243985203272
 20
342.935734462666
 30
0.0
 11
393.115316300443
 21
342.935734462666
 31
0.0
  0
LINE
  5
4247
330
1A
100
AcDbEntity
  8
寸法線
 48
10.0
100
AcDbLine
 10
280.243985203272
 20
282.43280310479
 30
0.0
 11
393.115316300443
 21
282.43280310479
 31
0.0
  0
MTEXT
  5
4248
102
{ACAD_XDICTIONARY
360
4249
102
}
330
1A
100
AcDbEntity
  8
寸法線
 48
10.0
100
AcDbMText
 10
184.350379499512
 20
339.462004744363
 30
0.0
 40
8.0
 41
32.516763780405
 71
     1
 72
     5
  1
御仕様
1001
ACADANNOTATIVE
1000
AnnotativeData
1002
{
1070
     1
1070
     0
1002
}
  0
LINE
  5
424C
330
1A
100
AcDbEntity
  8
寸法線
 48
10.0
100
AcDbLine
 10
182.883454633852
 20
267.03280310479
 30
0.0
 11
214.038013728954
 21
267.03280310479
 31
0.0
  0
LINE
  5
424D
330
1A
100
AcDbEntity
  8
寸法線
 48
10.0
100
AcDbLine
 10
182.883454633852
 20
251.63280310479
 30
0.0
 11
393.115316300443
 21
251.63280310479
 31
0.0
  0
LINE
  5
424E
330
1A
100
AcDbEntity
  8
寸法線
 48
10.0
100
AcDbLine
 10
182.883454633852
 20
236.23280310479
 30
0.0
 11
214.038013728954
 21
236.23280310479
 31
0.0
  0
LINE
  5
424F
330
1A
100
AcDbEntity
  8
寸法線
 48
10.0
100
AcDbLine
 10
182.883454633852
 20
220.83280310479
 30
0.0
 11
393.115316300443
 21
220.83280310479
 31
0.0
  0
MTEXT
  5
4250
102
{ACAD_XDICTIONARY
360
4251
102
}
330
1A
100
AcDbEntity
  8
寸法線
 48
10.0
100
AcDbMText
 10
369.330651856021
 20
339.709193377425
 30
0.0
 40
8.0
 41
19.77375149039
 71
     1
 72
     5
  1
台数
1001
ACADANNOTATIVE
1000
AnnotativeData
1002
{
1070
     1
1070
     0
1002
}
  0
LINE
  5
4254
330
1A
100
AcDbEntity
  8
寸法線
 48
10.0
100
AcDbLine
 10
394.615316300443
 20
342.935734462666
 30
0.0
 11
394.615316300443
 21
236.23280310479
 31
0.0
  0
LINE
  5
4255
330
1A
100
AcDbEntity
  8
寸法線
 48
10.0
100
AcDbLine
 10
524.847177967033
 20
342.935734462666
 30
0.0
 11
524.847177967033
 21
236.23280310479
 31
0.0
  0
LINE
  5
4256
330
1A
100
AcDbEntity
  8
寸法線
 48
10.0
100
AcDbLine
 10
393.115316300443
 20
313.300739964804
 30
0.0
 11
425.769875395545
 21
313.300739964804
 31
0.0
  0
MTEXT
  5
425B
330
1A
100
AcDbEntity
  8
寸法線
 48
10.0
100
AcDbMText
 10
450.810763708876
 20
340.053909435172
 30
0.0
 40
8.0
 41
19.77375149039
 71
     1
 72
     5
  1
型式
  0
LINE
  5
425C
330
1A
100
AcDbEntity
  8
寸法線
 48
10.0
100
AcDbLine
 10
393.115316300443
 20
328.734708394811
 30
0.0
 11
491.975846869862
 21
328.734708394811
 31
0.0
  0
LINE
  5
425D
330
1A
100
AcDbEntity
  8
寸法線
 48
10.0
100
AcDbLine
 10
393.115316300443
 20
342.935734462666
 30
0.0
 11
491.975846869862
 21
342.935734462666
 31
0.0
  0
LINE
  5
425E
330
1A
100
AcDbEntity
  8
寸法線
 48
10.0
100
AcDbLine
 10
425.769875395545
 20
342.935734462666
 30
0.0
 11
425.769875395545
 21
236.23280310479
 31
0.0
  0
LINE
  5
425F
330
1A
100
AcDbEntity
  8
寸法線
 48
10.0
100
AcDbLine
 10
491.975846869862
 20
342.935734462666
 30
0.0
 11
491.975846869862
 21
236.23280310479
 31
0.0
  0
LINE
  5
4260
330
1A
100
AcDbEntity
  8
寸法線
 48
10.0
100
AcDbLine
 10
491.975846869862
 20
342.935734462666
 30
0.0
 11
491.975846869863
 21
236.23280310479
 31
0.0
  0
LINE
  5
4261
330
1A
100
AcDbEntity
  8
寸法線
 48
10.0
100
AcDbLine
 10
394.615316300443
 20
342.935734462666
 30
0.0
 11
394.615316300443
 21
236.23280310479
 31
0.0
  0
SPLINE
  5
4262
330
1A
100
AcDbEntity
  8
寸法線
 48
10.0
100
AcDbSpline
210
0.0
220
0.0
230
1.0
 70
  1064
 71
     3
 72
    13
 73
     9
 74
     7
 42
0.000000001
 43
0.0000000001
 44
0.0000000001
 40
0.0
 40
0.0
 40
0.0
 40
0.0
 40
3.86842211421227
 40
10.12254119268954
 40
15.16331027423529
 40
18.64952359630841
 40
20.50331406220848
 40
21.8476876304271
 40
21.8476876304271
 40
21.8476876304271
 40
21.8476876304271
 10
506.181632723663
 20
331.3895303563989
 30
0.0
 10
507.3320271990212
 20
331.9209435209852
 30
0.0
 10
510.3422766291111
 20
333.3114979873914
 30
0.0
 10
511.0676623451405
 20
343.0189054850118
 30
0.0
 10
506.7767863242528
 20
336.0369925861658
 30
0.0
 10
506.964680356473
 20
332.4926097950002
 30
0.0
 10
509.2253512993629
 20
331.104079893026
 30
0.0
 10
510.225283021075
 20
331.6042803481562
 30
0.0
 10
510.6456122356968
 20
331.8145435690274
 30
0.0
 11
506.181632723663
 21
331.3895303563989
 31
0.0
 11
509.2639041050617
 21
333.7271130362495
 31
0.0
 11
509.954758170379
 21
339.9429577984848
 31
0.0
 11
507.2444857341699
 21
335.6928076534908
 31
0.0
 11
507.7227697194018
 21
332.2395587837348
 31
0.0
 11
509.3701891451045
 21
331.3895303563989
 31
0.0
 11
510.6456122356968
 21
331.8145435690274
 31
0.0
  0
LINE
  5
4263
330
1A
100
AcDbEntity
  8
寸法線
 48
10.0
100
AcDbLine
 10
393.115316300443
 20
297.866771534797
 30
0.0
 11
491.975846869862
 21
297.866771534797
 31
0.0
  0
MTEXT
  5
4264
102
{ACAD_XDICTIONARY
360
4265
102
}
330
1A
100
AcDbEntity
  8
寸法線
 48
10.0
100
AcDbMText
 10
500.488305848123
 20
324.651377149372
 30
0.0
 40
8.0
 41
25.186395132728
 71
     1
 72
     5
  1
750\P800\P850\P900\P950\P1000\P
1001
ACADANNOTATIVE
1000
AnnotativeData
1002
{
1070
     1
1070
     0
1002
}
1001
ACAD
1000
MTEXTBEGIN
1070
    44
1040
1.1475
1000
MTEXTEND
  0
LINE
  5
4268
330
1A
100
AcDbEntity
  8
寸法線
 48
10.0
100
AcDbLine
 10
393.115316300443
 20
282.43280310479
 30
0.0
 11
425.769875395545
 21
282.43280310479
 31
0.0
  0
LINE
  5
4269
330
1A
100
AcDbEntity
  8
寸法線
 48
10.0
100
AcDbLine
 10
491.975846869862
 20
313.300739964804
 30
0.0
 11
604.847177967033
 21
313.300739964804
 31
0.0
  0
LINE
  5
426A
330
1A
100
AcDbEntity
  8
寸法線
 48
10.0
100
AcDbLine
 10
491.975846869862
 20
297.866771534797
 30
0.0
 11
604.847177967033
 21
297.866771534797
 31
0.0
  0
LINE
  5
426B
330
1A
100
AcDbEntity
  8
寸法線
 48
10.0
100
AcDbLine
 10
491.975846869862
 20
328.734708394811
 30
0.0
 11
604.847177967033
 21
328.734708394811
 31
0.0
  0
LINE
  5
426C
330
1A
100
AcDbEntity
  8
寸法線
 48
10.0
100
AcDbLine
 10
491.975846869862
 20
342.935734462666
 30
0.0
 11
604.847177967033
 21
342.935734462666
 31
0.0
  0
LINE
  5
426D
330
1A
100
AcDbEntity
  8
寸法線
 48
10.0
100
AcDbLine
 10
491.975846869863
 20
282.43280310479
 30
0.0
 11
604.847177967033
 21
282.43280310479
 31
0.0
  0
MTEXT
  5
426E
102
{ACAD_XDICTIONARY
360
426F
102
}
330
1A
100
AcDbEntity
  8
寸法線
 48
10.0
100
AcDbMText
 10
396.082241166102
 20
339.462004744363
 30
0.0
 40
8.0
 41
32.516763780405
 71
     1
 72
     5
  1
御仕様
1001
ACADANNOTATIVE
1000
AnnotativeData
1002
{
1070
     1
1070
     0
1002
}
  0
LINE
  5
4272
330
1A
100
AcDbEntity
  8
寸法線
 48
10.0
100
AcDbLine
 10
393.115316300443
 20
267.03280310479
 30
0.0
 11
604.847177967033
 21
267.03280310479
 31
0.0
  0
LINE
  5
4273
330
1A
100
AcDbEntity
  8
寸法線
 48
10.0
100
AcDbLine
 10
393.115316300443
 20
251.63280310479
 30
0.0
 11
425.769875395545
 21
251.63280310479
 31
0.0
  0
LINE
  5
4274
330
1A
100
AcDbEntity
  8
寸法線
 48
10.0
100
AcDbLine
 10
393.115316300443
 20
236.23280310479
 30
0.0
 11
604.847177967033
 21
236.23280310479
 31
0.0
  0
LINE
  5
4275
330
1A
100
AcDbEntity
  8
寸法線
 48
10.0
100
AcDbLine
 10
363.115316300443
 20
342.935734462666
 30
0.0
 11
363.115316300443
 21
220.83280310479
 31
0.0
  0
LINE
  5
4276
330
1A
100
AcDbEntity
  8
寸法線
 48
10.0
100
AcDbLine
 10
393.115316300443
 20
342.935734462666
 30
0.0
 11
393.115316300443
 21
220.83280310479
 31
0.0
  0
LINE
  5
4277
330
1A
100
AcDbEntity
  8
寸法線
 48
10.0
100
AcDbLine
 10
574.847177967033
 20
342.935734462666
 30
0.0
 11
574.847177967033
 21
236.23280310479
 31
0.0
  0
LINE
  5
4278
330
1A
100
AcDbEntity
  8
寸法線
 48
10.0
100
AcDbLine
 10
604.847177967033
 20
342.935734462666
 30
0.0
 11
604.847177967033
 21
236.23280310479
 31
0.0
  0
MTEXT
  5
4279
102
{ACAD_XDICTIONARY
360
427A
102
}
330
1A
100
AcDbEntity
  8
寸法線
 48
10.0
100
AcDbMText
 10
581.062513522612
 20
339.709193377425
 30
0.0
 40
8.0
 41
19.77375149039
 71
     1
 72
     5
  1
台数
1001
ACADANNOTATIVE
1000
AnnotativeData
1002
{
1070
     1
1070
     0
1002
}
  0
MTEXT
  5
427D
102
{ACAD_XDICTIONARY
360
427E
102
}
330
1A
100
AcDbEntity
  8
寸法線
 48
10.0
100
AcDbMText
 10
330.193104959366
 20
339.867356198257
 30
0.0
 40
8.0
 41
19.77375149039
 71
     1
 72
     5
  1
記事
1001
ACADANNOTATIVE
1000
AnnotativeData
1002
{
1070
     1
1070
     0
1002
}
  0
MTEXT
  5
4281
102
{ACAD_XDICTIONARY
360
4282
102
}
330
1A
100
AcDbEntity
  8
寸法線
 48
10.0
100
AcDbMText
 10
541.924966625957
 20
339.867356198257
 30
0.0
 40
8.0
 41
19.77375149039
 71
     1
 72
     5
  1
記事
1001
ACADANNOTATIVE
1000
AnnotativeData
1002
{
1070
     1
1070
     0
1002
}
  0
LINE
  5
440D
330
1A
100
AcDbEntity
  8
寸法線
 48
10.0
100
AcDbLine
 10
280.243985203272
 20
267.03280310479
 30
0.0
 11
393.115316300443
 21
267.03280310479
 31
0.0
  0
LINE
  5
440E
330
1A
100
AcDbEntity
  8
寸法線
 48
10.0
100
AcDbLine
 10
280.243985203272
 20
236.23280310479
 30
0.0
 11
393.115316300443
 21
236.23280310479
 31
0.0
  0
LINE
  5
440F
330
1A
100
AcDbEntity
  8
寸法線
 48
10.0
100
AcDbLine
 10
491.975846869862
 20
251.63280310479
 30
0.0
 11
604.847177967033
 21
251.63280310479
 31
0.0
  0
MTEXT
  5
4441
102
{ACAD_XDICTIONARY
360
4442
102
}
330
1A
100
AcDbEntity
  8
寸法線
 48
10.0
100
AcDbMText
 10
247.213196550638
 20
297.866771534797
 30
0.0
 40
8.0
 41
66.205971474318
 71
     5
 72
     5
  1
RKR-505-1
1001
ACADANNOTATIVE
1000
AnnotativeData
1002
{
1070
     1
1070
     0
1002
}
1001
ACAD
1000
MTEXTBEGIN
1070
    44
1040
1.1475
1000
MTEXTEND
  0
MTEXT
  5
4546
102
{ACAD_XDICTIONARY
360
4547
102
}
330
1A
100
AcDbEntity
  8
寸法線
 48
10.0
100
AcDbMText
 10
247.213196550638
 20
266.998834674783
 30
0.0
 40
8.0
 41
66.205971474318
 71
     5
 72
     5
  1
RKR-506-1
1001
ACADANNOTATIVE
1000
AnnotativeData
1002
{
1070
     1
1070
     0
1002
}
1001
ACAD
1000
MTEXTBEGIN
1070
    44
1040
1.1475
1000
MTEXTEND
  0
MTEXT
  5
457B
102
{ACAD_XDICTIONARY
360
457C
102
}
330
1A
100
AcDbEntity
  8
寸法線
 48
10.0
100
AcDbMText
 10
247.213196550638
 20
236.198834674783
 30
0.0
 40
8.0
 41
66.205971474318
 71
     5
 72
     5
  1
RKR-507-1
1001
ACADANNOTATIVE
1000
AnnotativeData
1002
{
1070
     1
1070
     0
1002
}
1001
ACAD
1000
MTEXTBEGIN
1070
    44
1040
1.1475
1000
MTEXTEND
  0
MTEXT
  5
45B0
102
{ACAD_XDICTIONARY
360
45B1
102
}
330
1A
100
AcDbEntity
  8
寸法線
 48
10.0
100
AcDbMText
 10
458.945058217228
 20
313.300739964804
 30
0.0
 40
8.0
 41
66.205971474318
 71
     5
 72
     5
  1
RKR-508-1
1001
ACADANNOTATIVE
1000
AnnotativeData
1002
{
1070
     1
1070
     0
1002
}
1001
ACAD
1000
MTEXTBEGIN
1070
    44
1040
1.1475
1000
MTEXTEND
  0
MTEXT
  5
45E5
102
{ACAD_XDICTIONARY
360
45E6
102
}
330
1A
100
AcDbEntity
  8
寸法線
 48
10.0
100
AcDbMText
 10
458.945058217228
 20
282.43280310479
 30
0.0
 40
8.0
 41
66.205971474318
 71
     5
 72
     5
  1
RKR-509-1
1001
ACADANNOTATIVE
1000
AnnotativeData
1002
{
1070
     1
1070
     0
1002
}
1001
ACAD
1000
MTEXTBEGIN
1070
    44
1040
1.1475
1000
MTEXTEND
  0
MTEXT
  5
461A
102
{ACAD_XDICTIONARY
360
461B
102
}
330
1A
100
AcDbEntity
  8
寸法線
 48
10.0
100
AcDbMText
 10
458.945058217228
 20
251.598834674783
 30
0.0
 40
8.0
 41
66.205971474318
 71
     5
 72
     5
  1
RKR-510-1
1001
ACADANNOTATIVE
1000
AnnotativeData
1002
{
1070
     1
1070
     0
1002
}
1001
ACAD
1000
MTEXTBEGIN
1070
    44
1040
1.1475
1000
MTEXTEND
  0
LINE
  5
4A7E
330
1A
100
AcDbEntity
  8
外形線
100
AcDbLine
 10
356.159793166504
 20
518.888956476994
 30
0.0
 11
353.16483518331
 21
513.398200174472
 31
0.0
  0
LINE
  5
4A7F
330
1A
100
AcDbEntity
  8
外形線
100
AcDbLine
 10
355.239031997341
 20
505.609900285633
 30
0.0
 11
365.474161662288
 21
505.609900285633
 31
0.0
  0
ARC
  5
4A80
330
1A
100
AcDbEntity
  8
外形線
100
AcDbCircle
 10
410.45110938523
 20
492.330844094271
 30
0.0
 40
56.78650211819261
100
AcDbArc
 50
166.476641055109
 51
193.523358944891
  0
LINE
  5
4A81
330
1A
100
AcDbEntity
  8
外形線
100
AcDbLine
 10
356.159793166504
 20
465.772731711548
 30
0.0
 11
353.16483518331
 21
471.26348801407
 31
0.0
  0
ARC
  5
4A82
330
1A
100
AcDbEntity
  8
外形線
100
AcDbCircle
 10
364.32326331512
 20
473.209674470776
 30
0.0
 40
10.80062720349224
100
AcDbArc
 50
147.25473150955
 51
201.956277655799
  0
ARC
  5
4A83
330
1A
100
AcDbEntity
  8
外形線
100
AcDbCircle
 10
310.2620842744
 20
492.330844094271
 30
0.0
 40
56.78650211819261
100
AcDbArc
 50
346.476641055109
 51
13.523358944891
  0
LINE
  5
4A84
330
1A
100
AcDbEntity
  8
外形線
100
AcDbLine
 10
355.239031997341
 20
479.05178790291
 30
0.0
 11
365.474161662288
 21
479.05178790291
 31
0.0
  0
LINE
  5
4A85
330
1A
100
AcDbEntity
  8
外形線
100
AcDbLine
 10
364.553400493126
 20
518.888956476994
 30
0.0
 11
356.159793166502
 21
518.888956476994
 31
0.0
  0
LINE
  5
4A86
330
1A
100
AcDbEntity
  8
外形線
100
AcDbLine
 10
367.54835847632
 20
513.398200174472
 30
0.0
 11
364.553400493126
 21
518.888956476994
 31
0.0
  0
LINE
  5
4A87
330
1A
100
AcDbEntity
  8
外形線
100
AcDbLine
 10
364.553400493126
 20
465.772731711548
 30
0.0
 11
367.54835847632
 21
471.26348801407
 31
0.0
  0
LINE
  5
4A88
330
1A
100
AcDbEntity
  8
外形線
100
AcDbLine
 10
364.553400493126
 20
465.772731711548
 30
0.0
 11
356.159793166504
 21
465.772731711548
 31
0.0
  0
ARC
  5
4A89
330
1A
100
AcDbEntity
  8
外形線
100
AcDbCircle
 10
364.32326331512
 20
511.452013717766
 30
0.0
 40
10.80062720349224
100
AcDbArc
 50
158.043722344201
 51
212.74526849045
  0
ARC
  5
4A8A
330
1A
100
AcDbEntity
  8
外形線
100
AcDbCircle
 10
356.38993034451
 20
511.452013717766
 30
0.0
 40
10.80062720349224
100
AcDbArc
 50
327.25473150955
 51
21.956277655792
  0
ARC
  5
4A8B
330
1A
100
AcDbEntity
  8
外形線
100
AcDbCircle
 10
356.38993034451
 20
473.209674470776
 30
0.0
 40
10.80062720349224
100
AcDbArc
 50
338.04372234421
 51
32.74526849045
  0
LINE
  5
4A8C
330
1A
100
AcDbEntity
  8
外形線
 48
10.0
100
AcDbLine
 10
353.16483518331
 20
471.26348801407
 30
0.0
 11
353.16483518331
 21
513.398200174472
 31
0.0
  0
VIEWPORT
  5
2902
330
28FB
100
AcDbEntity
 67
     1
  8
0
 48
10.0
100
AcDbViewport
 10
0.0
 20
0.0
 30
0.0
 40
552.319156214367
 41
300.3
 68
     1
 69
     1
1001
ACAD
1000
MVIEW
1002
{
1070
    16
1010
0.0
1020
0.0
1030
0.0
1010
0.0
1020
0.0
1030
1.0
1040
0.0
1040
300.3
1040
205.756503333333
1040
143.551503333333
1040
50.0
1040
0.0
1040
0.0
1070
    16
1070
   100
1070
     0
1070
     1
1070
     0
1070
     0
1070
     0
1070
     0
1040
0.0
1040
0.0
1040
0.0
1040
10.0
1040
10.0
1040
10.0
1040
10.0
1070
     0
1002
{
1002
}
1002
}
  0
VIEWPORT
  5
2904
330
28FB
100
AcDbEntity
 67
     1
  8
図枠太線
 48
10.0
100
AcDbViewport
 10
204.746305129083
 20
161.396645458131
 30
0.0
 40
400.0
 41
240.0
 68
     2
 69
     2
1001
ACAD
1000
MVIEW
1002
{
1070
    16
1010
0.0
1020
0.0
1030
0.0
1010
0.0
1020
0.0
1030
1.0
1040
0.0
1040
480.0
1040
226.024680619583
1040
410.508474238518
1040
50.0
1040
0.0
1040
0.0
1070
    16
1070
   100
1070
     0
1070
     0
1070
     0
1070
     0
1070
     0
1070
     0
1040
0.0
1040
0.0
1040
0.0
1040
1.0
1040
1.0
1040
0.0
1040
0.0
1070
     0
1002
{
1002
}
1002
}
  0
INSERT
  5
2A59
330
28FB
100
AcDbEntity
 67
     1
  8
図枠太線
100
AcDbBlockReference
  2
A3横用_タイトル
 10
-0.352109406709
 20
-2.129314295396
 30
0.0
  0
MTEXT
  5
2FE3
330
28FB
100
AcDbEntity
 67
     1
  8
寸法線
 48
10.0
100
AcDbMText
 10
149.281561913196
 20
13.738838105692
 30
0.0
 40
7.0
 41
10.579051054442
 71
     1
 72
     5
  1
1:2
  0
MTEXT
  5
2FE8
330
28FB
100
AcDbEntity
 67
     1
  8
寸法線
 48
10.0
100
AcDbMText
 10
363.257693177112
 20
37.807266065601
 30
0.0
 40
6.0
 41
50.761524795071
 71
     1
 72
     5
  1
{\H0.8333x;振動式\Pレベルスイッチ}
  0
MTEXT
  5
3100
330
28FB
100
AcDbEntity
 67
     1
  8
寸法線
 48
10.0
100
AcDbMText
 10
272.300488718679
 20
50.696653557005
 30
0.0
 40
5.0
 41
58.550841599714
 71
     1
 72
     5
  1
A3縮小図
  0
LINE
  5
3101
330
28FB
100
AcDbEntity
 67
     1
  8
寸法線
 48
10.0
100
AcDbLine
 10
272.300488718679
 20
44.82493422937
 30
0.0
 11
296.843718665885
 21
44.82493422937
 31
0.0
  0
MTEXT
  5
36BA
102
{ACAD_XDICTIONARY
360
4286
102
}
330
28FB
100
AcDbEntity
 67
     1
  8
寸法線
 48
10.0
100
AcDbMText
 10
373.753857416705
 20
49.086912928764
 30
0.0
 40
5.0
 41
58.550841599714
 71
     1
 72
     5
  1
台数 　 台
1001
ACADANNOTATIVE
1000
AnnotativeData
1002
{
1070
     1
1070
     0
1002
}
  0
MTEXT
  5
3EF9
102
{ACAD_XDICTIONARY
360
4289
102
}
330
28FB
100
AcDbEntity
 67
     1
  8
寸法線
 48
10.0
100
AcDbMText
 10
310.683642936154
 20
33.060655972016
 30
0.0
 40
6.0
 41
53.647044270833
 71
     1
 72
     5
  1
RKR-5□□-1
1001
ACADANNOTATIVE
1000
AnnotativeData
1002
{
1070
     1
1070
     0
1002
}
  0
MTEXT
  5
3F34
102
{ACAD_XDICTIONARY
360
42CA
102
}
330
28FB
100
AcDbEntity
 67
     1
  8
寸法線
 48
10.0
100
AcDbMText
 10
341.895691376087
 20
14.369549986048
 30
0.0
 40
7.0
 41
68.56
 71
     1
 72
     5
  1
HVR-2006
1001
ACADANNOTATIVE
1000
AnnotativeData
1002
{
1070
     1
1070
     0
1002
}
  0
MTEXT
  5
42C2
102
{ACAD_XDICTIONARY
360
42C3
102
}
330
28FB
100
AcDbEntity
 67
     1
  8
寸法線
 48
10.0
100
AcDbMText
 10
175.506541278264
 20
12.819600893732
 30
0.0
 40
5.0
 41
60.244444444444
 71
     1
 72
     5
  1
2015.8.25
1001
ACADANNOTATIVE
1000
AnnotativeData
1002
{
1070
     1
1070
     0
1002
}
  0
MTEXT
  5
42C6
102
{ACAD_XDICTIONARY
360
42C7
102
}
330
28FB
100
AcDbEntity
 67
     1
  8
寸法線
 48
10.0
100
AcDbMText
 10
173.953401409015
 20
32.625226751426
 30
0.0
 40
5.0
 41
24.595673902063
 71
     1
 72
     5
  1
takahashi
1001
ACADANNOTATIVE
1000
AnnotativeData
1002
{
1070
     1
1070
     0
1002
}
  0
MTEXT
  5
496A
102
{ACAD_XDICTIONARY
360
496B
102
}
330
28FB
100
AcDbEntity
 67
     1
  8
下書線
 48
10.0
100
AcDbMText
 10
50.072805775567
 20
174.117142360671
 30
0.0
 40
10.0
 41
174.128675272846
 71
     5
 72
     5
  1
HP掲載図面\P変更・追記不可
1001
ACADANNOTATIVE
1000
AnnotativeData
1002
{
1070
     1
1070
     0
1002
}
  0
LWPOLYLINE
  5
496E
330
28FB
100
AcDbEntity
 67
     1
  8
下書線
 48
10.0
100
AcDbPolyline
 90
        4
 70
     1
 43
0.0
 10
7.842660521996
 20
192.543747192071
 10
91.676824285751
 20
192.543747192071
 10
91.676824285751
 20
155.421608256091
 10
7.842660521996
 20
155.421608256091
  0
MTEXT
  5
4E80
102
{ACAD_XDICTIONARY
360
4E81
102
}
330
28FB
100
AcDbEntity
 67
     1
  8
寸法線
 48
10.0
100
AcDbMText
 10
154.696305129083
 20
29.396646458131
 30
0.0
 40
4.5
 41
29.906507692735
 71
     5
 72
     5
  1
tahara
1001
ACADANNOTATIVE
1000
AnnotativeData
1002
{
1070
     1
1070
     0
1002
}
  0
MTEXT
  5
4E84
102
{ACAD_XDICTIONARY
360
4E85
102
}
330
28FB
100
AcDbEntity
 67
     1
  8
寸法線
 48
10.0
100
AcDbMText
 10
121.396304528483
 20
29.396646458131
 30
0.0
 40
4.5
 41
16.097226867587
 71
     5
 72
     5
  1
konishi
1001
ACADANNOTATIVE
1000
AnnotativeData
1002
{
1070
     1
1070
     0
1002
}
  0
ENDSEC
  0
SECTION
  2
OBJECTS
  0
DICTIONARY
  5
C
330
0
100
AcDbDictionary
  3
ACAD_COLOR
350
2948
  3
ACAD_GROUP
350
D
  3
ACAD_LAYOUT
350
2816
  3
ACAD_MATERIAL
350
2947
  3
ACAD_MLEADERSTYLE
350
4080
  3
ACAD_MLINESTYLE
350
E
  3
ACAD_PLOTSETTINGS
350
2817
  3
ACAD_SCALELIST
350
4059
  3
ACAD_VISUALSTYLE
350
4040
  3
ACADDIM
350
30EB
  3
ACDBHEADERROUNDTRIPXREC
350
4F5C
  3
ACDBVARIABLEDICTIONARY
350
40C9
  3
DWGPROPS
350
4F81
  0
DICTIONARY
  5
4F82
330
8
100
AcDbDictionary
280
     1
  3
ACAD_XREC_ROUNDTRIP
360
4F83
  0
DICTIONARY
  5
29EA
330
2
100
AcDbDictionary
280
     1
  3
ACAD_LAYERFILTERS
360
2B0C
  3
ACAD_LAYERSTATES
360
29EB
  0
DICTIONARY
  5
4A8D
330
3E97
100
AcDbDictionary
280
     1
  3
ACDBCONTEXTDATAMANAGER
360
4A8E
  0
DICTIONARY
  5
4217
330
4216
100
AcDbDictionary
280
     1
  3
ACDBCONTEXTDATAMANAGER
360
4218
  0
DICTIONARY
  5
4229
330
4228
100
AcDbDictionary
280
     1
  3
ACDBCONTEXTDATAMANAGER
360
422A
  0
DICTIONARY
  5
4237
330
4236
100
AcDbDictionary
280
     1
  3
ACDBCONTEXTDATAMANAGER
360
4238
  0
DICTIONARY
  5
4242
330
4241
100
AcDbDictionary
280
     1
  3
ACDBCONTEXTDATAMANAGER
360
4243
  0
DICTIONARY
  5
4249
330
4248
100
AcDbDictionary
280
     1
  3
ACDBCONTEXTDATAMANAGER
360
424A
  0
DICTIONARY
  5
4251
330
4250
100
AcDbDictionary
280
     1
  3
ACDBCONTEXTDATAMANAGER
360
4252
  0
DICTIONARY
  5
4265
330
4264
100
AcDbDictionary
280
     1
  3
ACDBCONTEXTDATAMANAGER
360
4266
  0
DICTIONARY
  5
426F
330
426E
100
AcDbDictionary
280
     1
  3
ACDBCONTEXTDATAMANAGER
360
4270
  0
DICTIONARY
  5
427A
330
4279
100
AcDbDictionary
280
     1
  3
ACDBCONTEXTDATAMANAGER
360
427B
  0
DICTIONARY
  5
427E
330
427D
100
AcDbDictionary
280
     1
  3
ACDBCONTEXTDATAMANAGER
360
427F
  0
DICTIONARY
  5
4282
330
4281
100
AcDbDictionary
280
     1
  3
ACDBCONTEXTDATAMANAGER
360
4283
  0
DICTIONARY
  5
4442
330
4441
100
AcDbDictionary
280
     1
  3
ACDBCONTEXTDATAMANAGER
360
4443
  0
DICTIONARY
  5
4547
330
4546
100
AcDbDictionary
280
     1
  3
ACDBCONTEXTDATAMANAGER
360
4548
  0
DICTIONARY
  5
457C
330
457B
100
AcDbDictionary
280
     1
  3
ACDBCONTEXTDATAMANAGER
360
457D
  0
DICTIONARY
  5
45B1
330
45B0
100
AcDbDictionary
280
     1
  3
ACDBCONTEXTDATAMANAGER
360
45B2
  0
DICTIONARY
  5
45E6
330
45E5
100
AcDbDictionary
280
     1
  3
ACDBCONTEXTDATAMANAGER
360
45E7
  0
DICTIONARY
  5
461B
330
461A
100
AcDbDictionary
280
     1
  3
ACDBCONTEXTDATAMANAGER
360
461C
  0
DICTIONARY
  5
4286
330
36BA
100
AcDbDictionary
280
     1
  3
ACDBCONTEXTDATAMANAGER
360
4287
  0
DICTIONARY
  5
4289
330
3EF9
100
AcDbDictionary
280
     1
  3
ACDBCONTEXTDATAMANAGER
360
428A
  0
DICTIONARY
  5
42CA
330
3F34
100
AcDbDictionary
280
     1
  3
ACDBCONTEXTDATAMANAGER
360
42CB
  0
DICTIONARY
  5
42C3
330
42C2
100
AcDbDictionary
280
     1
  3
ACDBCONTEXTDATAMANAGER
360
42C4
  0
DICTIONARY
  5
42C7
330
42C6
100
AcDbDictionary
280
     1
  3
ACDBCONTEXTDATAMANAGER
360
42C8
  0
DICTIONARY
  5
496B
330
496A
100
AcDbDictionary
280
     1
  3
ACDBCONTEXTDATAMANAGER
360
496C
  0
DICTIONARY
  5
4E81
330
4E80
100
AcDbDictionary
280
     1
  3
ACDBCONTEXTDATAMANAGER
360
4E82
  0
DICTIONARY
  5
4E85
330
4E84
100
AcDbDictionary
280
     1
  3
ACDBCONTEXTDATAMANAGER
360
4E86
  0
DICTIONARY
  5
2948
102
{ACAD_REACTORS
330
C
102
}
330
C
100
AcDbDictionary
  0
DICTIONARY
  5
D
102
{ACAD_REACTORS
330
C
102
}
330
C
100
AcDbDictionary
  0
DICTIONARY
  5
2816
102
{ACAD_REACTORS
330
C
102
}
330
C
100
AcDbDictionary
  0
DICTIONARY
  5
2947
102
{ACAD_REACTORS
330
C
102
}
330
C
100
AcDbDictionary
  3
BYBLOCK
350
407C
  3
BYLAYER
350
407B
  3
GLOBAL
350
407D
  0
DICTIONARY
  5
4080
102
{ACAD_REACTORS
330
C
102
}
330
C
100
AcDbDictionary
  3
STANDARD
350
4081
  0
DICTIONARY
  5
E
102
{ACAD_REACTORS
330
C
102
}
330
C
100
AcDbDictionary
  3
STANDARD
350
13
  0
DICTIONARY
  5
2817
102
{ACAD_REACTORS
330
C
102
}
330
C
100
AcDbDictionary
  0
DICTIONARY
  5
4059
102
{ACAD_REACTORS
330
C
102
}
330
C
100
AcDbDictionary
  3
A0
350
405A
  3
A1
350
405B
  3
A2
350
405C
  3
A3
350
405D
  3
A4
350
405E
  3
A5
350
405F
  3
A6
350
4060
  3
A7
350
4061
  3
A8
350
4062
  3
A9
350
4063
  3
B0
350
4064
  3
B1
350
4065
  3
B2
350
4066
  3
B3
350
4067
  3
B4
350
4068
  3
B5
350
4069
  3
B6
350
406A
  3
B7
350
406B
  3
B8
350
406C
  3
B9
350
406D
  3
C0
350
406E
  3
C1
350
406F
  3
C2
350
4070
  3
C3
350
4071
  3
C4
350
4072
  3
C5
350
4073
  3
C6
350
4074
  3
C7
350
4075
  3
C8
350
4076
  3
C9
350
4077
  3
D0
350
4078
  3
D1
350
4079
  3
D2
350
407A
  0
DICTIONARY
  5
4040
102
{ACAD_REACTORS
330
C
102
}
330
C
100
AcDbDictionary
  3
2DWIREFRAME
350
4045
  3
BASIC
350
4048
  3
BRIGHTEN
350
404C
  3
COLORCHANGE
350
4050
  3
CONCEPTUAL
350
404A
  3
DIM
350
404B
  3
EDGECOLOROFF
350
4053
  3
FACEPATTERN
350
404F
  3
FLAT
350
4041
  3
FLATWITHEDGES
350
4042
  3
GOURAUD
350
4043
  3
GOURAUDWITHEDGES
350
4044
  3
HIDDEN
350
4047
  3
JITTEROFF
350
4051
  3
LINEPATTERN
350
404E
  3
MODELING
350
410E
  3
OVERHANGOFF
350
4052
  3
REALISTIC
350
4049
  3
SHADED
350
4058
  3
SHADED_WITH_EDGES
350
4057
  3
SHADES_OF_GRAY
350
4054
  3
SKETCHY
350
4055
  3
THICKEN
350
404D
  3
WIREFRAME
350
4046
  3
X-RAY
350
4056
  0
XRECORD
  5
30EB
102
{ACAD_REACTORS
330
C
102
}
330
C
100
AcDbXrecord
 90
   990106
  3

 60
     0
 61
     0
 62
     1
 63
     3
 64
     0
 65
     0
 66
     0
 67
     3
 68
     1
 69
     0
 70
     0
 71
     0
 72
     0
 40
0.0
170
     0
  0
DICTIONARY
  5
4F5C
102
{ACAD_REACTORS
330
C
102
}
330
C
100
AcDbDictionary
  3
CEPSNID
350
4F66
  3
CEPSNTYPE
350
4F65
  3
COLORDICT
350
4F7F
  3
DIMSTYLEDATA
350
4F7C
  3
FINGERPRINTGUID
350
4F67
  3
HYPERLINKBASE
350
4F5F
  3
INSUNITS
350
4F64
  3
LAYOUTDICT
350
4F61
  3
LWETCUNION
350
4F63
  3
MATERIALDICT
350
4F80
  3
PLOTSETDICT
350
4F62
  3
PSVPSCALE
350
4F69
  3
PUCSBASE
350
4F6C
  3
PUCSORGBACK
350
4F72
  3
PUCSORGBOTTOM
350
4F6E
  3
PUCSORGFRONT
350
4F71
  3
PUCSORGLEFT
350
4F6F
  3
PUCSORGRIGHT
350
4F70
  3
PUCSORGTOP
350
4F6D
  3
PUCSORTHOREF
350
4F6A
  3
PUCSORTHOVIEW
350
4F6B
  3
STYLESHEET
350
4F60
  3
TSTACKALIGN
350
4F5D
  3
TSTACKSIZE
350
4F5E
  3
UCSBASE
350
4F75
  3
UCSORGBACK
350
4F7B
  3
UCSORGBOTTOM
350
4F77
  3
UCSORGFRONT
350
4F7A
  3
UCSORGLEFT
350
4F78
  3
UCSORGRIGHT
350
4F79
  3
UCSORGTOP
350
4F76
  3
UCSORTHOREF
350
4F73
  3
UCSORTHOVIEW
350
4F74
  3
VERSIONGUID
350
4F68
  0
DICTIONARY
  5
40C9
102
{ACAD_REACTORS
330
C
102
}
330
C
100
AcDbDictionary
  3
CANNOSCALE
350
40CA
  3
CMLEADERSTYLE
350
4109
  3
CTABLESTYLE
350
4108
  3
DIMASSOC
350
4F7D
  3
HIDETEXT
350
4F7E
  3
MSLTSCALE
350
410A
  3
XCLIPFRAME
350
410B
  0
XRECORD
  5
4F81
102
{ACAD_REACTORS
330
C
102
}
330
C
100
AcDbXrecord
  1
DWGPROPS COOKIE
  2

  3

  4

  6

  7

  8
takahashi
  9

300
=
301
=
302
=
303
=
304
=
305
=
306
=
307
=
308
=
309
=
 40
0.0
 41
2450576.222302431
 42
2457268.997844329
  1

 90
        0
  0
XRECORD
  5
4F83
102
{ACAD_REACTORS
330
4F82
102
}
330
4F82
100
AcDbXrecord
102
VTR_0.000_0.000_1.000_1.000_VISUALSTYLE
340
4045
102
VTR_0.000_0.000_1.000_1.000_GRIDDISPLAY
 70
     3
102
VTR_0.000_0.000_1.000_1.000_GRIDMAJOR
 70
     5
102
VTR_0.000_0.000_1.000_1.000_DEFAULTLIGHTING
280
     1
102
VTR_0.000_0.000_1.000_1.000_DEFAULTLIGHTINGTYPE
 70
     1
102
VTR_0.000_0.000_1.000_1.000_BRIGHTNESS
141
0.0
102
VTR_0.000_0.000_1.000_1.000_CONTRAST
142
0.0
  0
DICTIONARY
  5
2B0C
102
{ACAD_REACTORS
330
29EA
102
}
330
29EA
100
AcDbDictionary
  0
DICTIONARY
  5
29EB
102
{ACAD_REACTORS
330
29EA
102
}
330
29EA
100
AcDbDictionary
  0
DICTIONARY
  5
4A8E
102
{ACAD_REACTORS
330
4A8D
102
}
330
4A8D
100
AcDbDictionary
  3
ACDB_ANNOTATIONSCALES
350
4A8F
  0
DICTIONARY
  5
4218
102
{ACAD_REACTORS
330
4217
102
}
330
4217
100
AcDbDictionary
  3
ACDB_ANNOTATIONSCALES
350
4219
  0
DICTIONARY
  5
422A
102
{ACAD_REACTORS
330
4229
102
}
330
4229
100
AcDbDictionary
  3
ACDB_ANNOTATIONSCALES
350
422B
  0
DICTIONARY
  5
4238
102
{ACAD_REACTORS
330
4237
102
}
330
4237
100
AcDbDictionary
  3
ACDB_ANNOTATIONSCALES
350
4239
  0
DICTIONARY
  5
4243
102
{ACAD_REACTORS
330
4242
102
}
330
4242
100
AcDbDictionary
  3
ACDB_ANNOTATIONSCALES
350
4244
  0
DICTIONARY
  5
424A
102
{ACAD_REACTORS
330
4249
102
}
330
4249
100
AcDbDictionary
  3
ACDB_ANNOTATIONSCALES
350
424B
  0
DICTIONARY
  5
4252
102
{ACAD_REACTORS
330
4251
102
}
330
4251
100
AcDbDictionary
  3
ACDB_ANNOTATIONSCALES
350
4253
  0
DICTIONARY
  5
4266
102
{ACAD_REACTORS
330
4265
102
}
330
4265
100
AcDbDictionary
  3
ACDB_ANNOTATIONSCALES
350
4267
  0
DICTIONARY
  5
4270
102
{ACAD_REACTORS
330
426F
102
}
330
426F
100
AcDbDictionary
  3
ACDB_ANNOTATIONSCALES
350
4271
  0
DICTIONARY
  5
427B
102
{ACAD_REACTORS
330
427A
102
}
330
427A
100
AcDbDictionary
  3
ACDB_ANNOTATIONSCALES
350
427C
  0
DICTIONARY
  5
427F
102
{ACAD_REACTORS
330
427E
102
}
330
427E
100
AcDbDictionary
  3
ACDB_ANNOTATIONSCALES
350
4280
  0
DICTIONARY
  5
4283
102
{ACAD_REACTORS
330
4282
102
}
330
4282
100
AcDbDictionary
  3
ACDB_ANNOTATIONSCALES
350
4284
  0
DICTIONARY
  5
4443
102
{ACAD_REACTORS
330
4442
102
}
330
4442
100
AcDbDictionary
  3
ACDB_ANNOTATIONSCALES
350
4444
  0
DICTIONARY
  5
4548
102
{ACAD_REACTORS
330
4547
102
}
330
4547
100
AcDbDictionary
  3
ACDB_ANNOTATIONSCALES
350
4549
  0
DICTIONARY
  5
457D
102
{ACAD_REACTORS
330
457C
102
}
330
457C
100
AcDbDictionary
  3
ACDB_ANNOTATIONSCALES
350
457E
  0
DICTIONARY
  5
45B2
102
{ACAD_REACTORS
330
45B1
102
}
330
45B1
100
AcDbDictionary
  3
ACDB_ANNOTATIONSCALES
350
45B3
  0
DICTIONARY
  5
45E7
102
{ACAD_REACTORS
330
45E6
102
}
330
45E6
100
AcDbDictionary
  3
ACDB_ANNOTATIONSCALES
350
45E8
  0
DICTIONARY
  5
461C
102
{ACAD_REACTORS
330
461B
102
}
330
461B
100
AcDbDictionary
  3
ACDB_ANNOTATIONSCALES
350
461D
  0
DICTIONARY
  5
4287
102
{ACAD_REACTORS
330
4286
102
}
330
4286
100
AcDbDictionary
  3
ACDB_ANNOTATIONSCALES
350
4288
  0
DICTIONARY
  5
428A
102
{ACAD_REACTORS
330
4289
102
}
330
4289
100
AcDbDictionary
  3
ACDB_ANNOTATIONSCALES
350
428B
  0
DICTIONARY
  5
42CB
102
{ACAD_REACTORS
330
42CA
102
}
330
42CA
100
AcDbDictionary
  3
ACDB_ANNOTATIONSCALES
350
42CC
  0
DICTIONARY
  5
42C4
102
{ACAD_REACTORS
330
42C3
102
}
330
42C3
100
AcDbDictionary
  3
ACDB_ANNOTATIONSCALES
350
42C5
  0
DICTIONARY
  5
42C8
102
{ACAD_REACTORS
330
42C7
102
}
330
42C7
100
AcDbDictionary
  3
ACDB_ANNOTATIONSCALES
350
42C9
  0
DICTIONARY
  5
496C
102
{ACAD_REACTORS
330
496B
102
}
330
496B
100
AcDbDictionary
  3
ACDB_ANNOTATIONSCALES
350
496D
  0
DICTIONARY
  5
4E82
102
{ACAD_REACTORS
330
4E81
102
}
330
4E81
100
AcDbDictionary
  3
ACDB_ANNOTATIONSCALES
350
4E83
  0
DICTIONARY
  5
4E86
102
{ACAD_REACTORS
330
4E85
102
}
330
4E85
100
AcDbDictionary
  3
ACDB_ANNOTATIONSCALES
350
4E87
  0
MATERIAL
  5
407C
102
{ACAD_REACTORS
330
2947
102
}
102
{ACAD_XDICTIONARY
360
4F86
102
}
330
2947
100
AcDbMaterial
  1
BYBLOCK
  0
MATERIAL
  5
407B
102
{ACAD_REACTORS
330
2947
102
}
102
{ACAD_XDICTIONARY
360
4F84
102
}
330
2947
100
AcDbMaterial
  1
BYLAYER
  0
MATERIAL
  5
407D
102
{ACAD_REACTORS
330
2947
102
}
102
{ACAD_XDICTIONARY
360
4F88
102
}
330
2947
100
AcDbMaterial
  1
GLOBAL
  0
ACAD_PROXY_OBJECT
  5
4081
102
{ACAD_REACTORS
330
4080
102
}
330
4080
100
AcDbProxyObject
 90
      499
 91
      507
 93
      610
310
40901902A4063FBFFFFFE0000000000000020400000000000020404214DD185B99185C990000000000000104090141901A00000000000004100000000000000041025764000000000000039000
340
14
340
0
340
10
340
0
 94
        0
1001
ACAD_MLEADERVER
1070
     2
  0
MLINESTYLE
  5
13
102
{ACAD_REACTORS
330
E
102
}
330
E
100
AcDbMlineStyle
  2
STANDARD
 70
     0
  3

 62
     0
 51
90.0
 52
90.0
 71
     2
 49
0.5
 62
   256
  6
BYLAYER
 49
-0.5
 62
   256
  6
BYLAYER
  0
ACAD_PROXY_OBJECT
  5
405A
102
{ACAD_REACTORS
330
4059
102
}
330
4059
100
AcDbProxyObject
 90
      499
 91
      504
 93
       41
310
903313A31580
  0
ACAD_PROXY_OBJECT
  5
405B
102
{ACAD_REACTORS
330
4059
102
}
330
4059
100
AcDbProxyObject
 90
      499
 91
      504
 93
      105
310
903313A324000000000000004000
  0
ACAD_PROXY_OBJECT
  5
405C
102
{ACAD_REACTORS
330
4059
102
}
330
4059
100
AcDbProxyObject
 90
      499
 91
      504
 93
      105
310
903313A344000000000000104000
  0
ACAD_PROXY_OBJECT
  5
405D
102
{ACAD_REACTORS
330
4059
102
}
330
4059
100
AcDbProxyObject
 90
      499
 91
      504
 93
      105
310
903313A354000000000000144000
  0
ACAD_PROXY_OBJECT
  5
405E
102
{ACAD_REACTORS
330
4059
102
}
330
4059
100
AcDbProxyObject
 90
      499
 91
      504
 93
      105
310
903313A384000000000000204000
  0
ACAD_PROXY_OBJECT
  5
405F
102
{ACAD_REACTORS
330
4059
102
}
330
4059
100
AcDbProxyObject
 90
      499
 91
      504
 93
      113
310
904313A31304000000000000244000
  0
ACAD_PROXY_OBJECT
  5
4060
102
{ACAD_REACTORS
330
4059
102
}
330
4059
100
AcDbProxyObject
 90
      499
 91
      504
 93
      113
310
904313A31364000000000000304000
  0
ACAD_PROXY_OBJECT
  5
4061
102
{ACAD_REACTORS
330
4059
102
}
330
4059
100
AcDbProxyObject
 90
      499
 91
      504
 93
      113
310
904313A32304000000000000344000
  0
ACAD_PROXY_OBJECT
  5
4062
102
{ACAD_REACTORS
330
4059
102
}
330
4059
100
AcDbProxyObject
 90
      499
 91
      504
 93
      113
310
904313A333040000000000003E4000
  0
ACAD_PROXY_OBJECT
  5
4063
102
{ACAD_REACTORS
330
4059
102
}
330
4059
100
AcDbProxyObject
 90
      499
 91
      504
 93
      113
310
904313A34304000000000000444000
  0
ACAD_PROXY_OBJECT
  5
4064
102
{ACAD_REACTORS
330
4059
102
}
330
4059
100
AcDbProxyObject
 90
      499
 91
      504
 93
      113
310
904313A35304000000000000494000
  0
ACAD_PROXY_OBJECT
  5
4065
102
{ACAD_REACTORS
330
4059
102
}
330
4059
100
AcDbProxyObject
 90
      499
 91
      504
 93
      121
310
905313A3130304000000000000594000
  0
ACAD_PROXY_OBJECT
  5
4066
102
{ACAD_REACTORS
330
4059
102
}
330
4059
100
AcDbProxyObject
 90
      499
 91
      504
 93
      105
310
903323A310000000000000010100
  0
ACAD_PROXY_OBJECT
  5
4067
102
{ACAD_REACTORS
330
4059
102
}
330
4059
100
AcDbProxyObject
 90
      499
 91
      504
 93
      105
310
903343A310000000000000410100
  0
ACAD_PROXY_OBJECT
  5
4068
102
{ACAD_REACTORS
330
4059
102
}
330
4059
100
AcDbProxyObject
 90
      499
 91
      504
 93
      105
310
903383A310000000000000810100
  0
ACAD_PROXY_OBJECT
  5
4069
102
{ACAD_REACTORS
330
4059
102
}
330
4059
100
AcDbProxyObject
 90
      499
 91
      504
 93
      113
310
90431303A310000000000000910100
  0
ACAD_PROXY_OBJECT
  5
406A
102
{ACAD_REACTORS
330
4059
102
}
330
4059
100
AcDbProxyObject
 90
      499
 91
      504
 93
      121
310
9053130303A310000000000001650100
  0
ACAD_PROXY_OBJECT
  5
406B
102
{ACAD_REACTORS
330
4059
102
}
330
4059
100
AcDbProxyObject
 90
      499
 91
      504
 93
      257
310
90E312F31323822203D2031272D3022000000000000200FC000000000000284000
  0
ACAD_PROXY_OBJECT
  5
406C
102
{ACAD_REACTORS
330
4059
102
}
330
4059
100
AcDbProxyObject
 90
      499
 91
      504
 93
      249
310
90D312F363422203D2031272D3022000000000000240FC000000000000284000
  0
ACAD_PROXY_OBJECT
  5
406D
102
{ACAD_REACTORS
330
4059
102
}
330
4059
100
AcDbProxyObject
 90
      499
 91
      504
 93
      249
310
90D312F333222203D2031272D3022000000000000280FC000000000000284000
  0
ACAD_PROXY_OBJECT
  5
406E
102
{ACAD_REACTORS
330
4059
102
}
330
4059
100
AcDbProxyObject
 90
      499
 91
      504
 93
      249
310
90D312F313622203D2031272D30220000000000002C0FC000000000000284000
  0
ACAD_PROXY_OBJECT
  5
406F
102
{ACAD_REACTORS
330
4059
102
}
330
4059
100
AcDbProxyObject
 90
      499
 91
      504
 93
      249
310
90D332F333222203D2031272D30220000000000002E0FC000000000000284000
  0
ACAD_PROXY_OBJECT
  5
4070
102
{ACAD_REACTORS
330
4059
102
}
330
4059
100
AcDbProxyObject
 90
      499
 91
      504
 93
      241
310
90C312F3822203D2031272D3022000000000000300FC000000000000284000
  0
ACAD_PROXY_OBJECT
  5
4071
102
{ACAD_REACTORS
330
4059
102
}
330
4059
100
AcDbProxyObject
 90
      499
 91
      504
 93
      249
310
90D332F313622203D2031272D3022000000000000320FC000000000000284000
  0
ACAD_PROXY_OBJECT
  5
4072
102
{ACAD_REACTORS
330
4059
102
}
330
4059
100
AcDbProxyObject
 90
      499
 91
      504
 93
      241
310
90C312F3422203D2031272D3022000000000000340FC000000000000284000
  0
ACAD_PROXY_OBJECT
  5
4073
102
{ACAD_REACTORS
330
4059
102
}
330
4059
100
AcDbProxyObject
 90
      499
 91
      504
 93
      241
310
90C332F3822203D2031272D3022000000000000360FC000000000000284000
  0
ACAD_PROXY_OBJECT
  5
4074
102
{ACAD_REACTORS
330
4059
102
}
330
4059
100
AcDbProxyObject
 90
      499
 91
      504
 93
      241
310
90C312F3222203D2031272D3022000000000000380FC000000000000284000
  0
ACAD_PROXY_OBJECT
  5
4075
102
{ACAD_REACTORS
330
4059
102
}
330
4059
100
AcDbProxyObject
 90
      499
 91
      504
 93
      241
310
90C332F3422203D2031272D30220000000000003A0FC000000000000284000
  0
ACAD_PROXY_OBJECT
  5
4076
102
{ACAD_REACTORS
330
4059
102
}
330
4059
100
AcDbProxyObject
 90
      499
 91
      504
 93
      161
310
90A3122203D2031272D30224000000000000284000
  0
ACAD_PROXY_OBJECT
  5
4077
102
{ACAD_REACTORS
330
4059
102
}
330
4059
100
AcDbProxyObject
 90
      499
 91
      504
 93
      257
310
90E312D312F3222203D2031272D30220000000000003E0FC000000000000284000
  0
ACAD_PROXY_OBJECT
  5
4078
102
{ACAD_REACTORS
330
4059
102
}
330
4059
100
AcDbProxyObject
 90
      499
 91
      504
 93
      225
310
90A3322203D2031272D302200000000000002100000000000000284000
  0
ACAD_PROXY_OBJECT
  5
4079
102
{ACAD_REACTORS
330
4059
102
}
330
4059
100
AcDbProxyObject
 90
      499
 91
      504
 93
      225
310
90A3622203D2031272D302200000000000006100000000000000284000
  0
ACAD_PROXY_OBJECT
  5
407A
102
{ACAD_REACTORS
330
4059
102
}
330
4059
100
AcDbProxyObject
 90
      499
 91
      504
 93
      249
310
90D31272D3022203D2031272D30220000000000000A100000000000000284000
  0
ACAD_PROXY_OBJECT
  5
4045
102
{ACAD_REACTORS
330
4040
102
}
330
4040
100
AcDbProxyObject
 90
      499
 91
      503
 93
      436
310
42CC9915DA5C99599C985B595049028333333333333E33F0000000000000F90107901411070040501600405405064090741402480A0340
1001
ACAD
1000
AcDbSavedByObjectVersion
1070
     0
  0
ACAD_PROXY_OBJECT
  5
4048
102
{ACAD_REACTORS
330
4040
102
}
330
4040
100
AcDbProxyObject
 90
      499
 91
      503
 93
      388
310
4150985CDA58D07406404333333333333E33F0000000000000F90107A41107004050150841D405064090741402480A0350
1001
ACAD
1000
AcDbSavedByObjectVersion
1070
     0
  0
ACAD_PROXY_OBJECT
  5
404C
102
{ACAD_REACTORS
330
4040
102
}
330
4040
100
AcDbProxyObject
 90
      499
 91
      503
 93
      428
310
42109C9A59DA1D195B90C409028333333333333E33F0000000000000F9010790141107004050150841D405064090741402480A029950
1001
ACAD
1000
AcDbSavedByObjectVersion
1070
     0
  0
ACAD_PROXY_OBJECT
  5
4050
102
{ACAD_REACTORS
330
4040
102
}
330
4040
100
AcDbProxyObject
 90
      499
 91
      503
 93
      452
310
42D0DBDB1BDC90DA185B99D95104090240C333333333333E33F0000000000000F90108901411070040501508421405064090741402480A0350
1001
ACAD
1000
AcDbSavedByObjectVersion
1070
     0
  0
ACAD_PROXY_OBJECT
  5
404A
102
{ACAD_REACTORS
330
4040
102
}
330
4040
100
AcDbProxyObject
 90
      499
 91
      503
 93
      500
310
4290DBDB98D95C1D1D585B10940D028333333333333E33F0000000000000F90107902409070040501000000000018199010841D405064090740C02480A0340
1001
ACAD
1000
AcDbSavedByObjectVersion
1070
     0
  0
ACAD_PROXY_OBJECT
  5
404B
102
{ACAD_REACTORS
330
4040
102
}
330
4040
100
AcDbProxyObject
 90
      499
 91
      503
 93
      412
310
40D11A5B50B409028333333333333E33F0000000000000F9010790141107004050150841D405064090741402480A02677FFFFFD0
1001
ACAD
1000
AcDbSavedByObjectVersion
1070
     0
  0
ACAD_PROXY_OBJECT
  5
4053
102
{ACAD_REACTORS
330
4040
102
}
330
4040
100
AcDbProxyObject
 90
      499
 91
      503
 93
      452
310
43115919D950DBDB1BDC93D999916409028333333333333E33F0000000000000F9010790141107004050150841D405064090741402480A0350
1001
ACAD
1000
AcDbSavedByObjectVersion
1070
     0
  0
ACAD_PROXY_OBJECT
  5
404F
102
{ACAD_REACTORS
330
4040
102
}
330
4040
100
AcDbProxyObject
 90
      499
 91
      503
 93
      444
310
42D19858D95C185D1D195C9B90F409028333333333333E33F0000000000000F9010790141107004050150841D405064090741402480A0350
1001
ACAD
1000
AcDbSavedByObjectVersion
1070
     0
  0
ACAD_PROXY_OBJECT
  5
4041
102
{ACAD_REACTORS
330
4040
102
}
330
4040
100
AcDbProxyObject
 90
      499
 91
      503
 93
      380
310
41119B185D240901404333333333333E33F0000000000000F9010740A907004050150841D405064090741402480A1B50
1001
ACAD
1000
AcDbSavedByObjectVersion
1070
     0
  0
ACAD_PROXY_OBJECT
  5
4042
102
{ACAD_REACTORS
330
4040
102
}
330
4040
100
AcDbProxyObject
 90
      499
 91
      503
 93
      468
310
43519B185D15DA5D1A115919D95CD0140901404333333333333E33F0000000000000F90107409019070040501600405405064090741402480A1B50
1001
ACAD
1000
AcDbSavedByObjectVersion
1070
     0
  0
ACAD_PROXY_OBJECT
  5
4043
102
{ACAD_REACTORS
330
4040
102
}
330
4040
100
AcDbProxyObject
 90
      499
 91
      503
 93
      404
310
41D1DBDD5C985D5910240902404333333333333E33F0000000000000F9010740A9070040501641D405064090741402480A1B50
1001
ACAD
1000
AcDbSavedByObjectVersion
1070
     0
  0
ACAD_PROXY_OBJECT
  5
4044
102
{ACAD_REACTORS
330
4040
102
}
330
4040
100
AcDbProxyObject
 90
      499
 91
      503
 93
      492
310
4411DBDD5C985D5915DA5D1A115919D95CD0340902404333333333333E33F0000000000000F90107409019070040501600405405064090741402480A1B50
1001
ACAD
1000
AcDbSavedByObjectVersion
1070
     0
  0
ACAD_PROXY_OBJECT
  5
4047
102
{ACAD_REACTORS
330
4040
102
}
330
4040
100
AcDbProxyObject
 90
      499
 91
      503
 93
      476
310
41921A5919195B90640502408333333333333E33F0000000000000F901079024090700405020000000000001110200405405064090740C02480A0340
1001
ACAD
1000
AcDbSavedByObjectVersion
1070
     0
  0
ACAD_PROXY_OBJECT
  5
4051
102
{ACAD_REACTORS
330
4040
102
}
330
4040
100
AcDbProxyObject
 90
      499
 91
      503
 93
      428
310
42529A5D1D195C93D999914409028333333333333E33F0000000000000F9010790141107004050150A41D405064090741402480A0350
1001
ACAD
1000
AcDbSavedByObjectVersion
1070
     0
  0
ACAD_PROXY_OBJECT
  5
404E
102
{ACAD_REACTORS
330
4040
102
}
330
4040
100
AcDbProxyObject
 90
      499
 91
      503
 93
      444
310
42D31A5B995C185D1D195C9B90E409028333333333333E33F0000000000000F9010790141107004050750841D405064090741402483A0350
1001
ACAD
1000
AcDbSavedByObjectVersion
1070
     0
  0
ACAD_PROXY_OBJECT
  5
410E
102
{ACAD_REACTORS
330
4040
102
}
330
4040
100
AcDbProxyObject
 90
      499
 91
      503
 93
      412
310
90A409038333333333333E33F0000000000000F901074090290700405010000000000201990108421405064090741402480A1B40
1001
ACAD
1000
AcDbSavedByObjectVersion
1070
     0
  0
ACAD_PROXY_OBJECT
  5
4052
102
{ACAD_REACTORS
330
4040
102
}
330
4040
100
AcDbProxyObject
 90
      499
 91
      503
 93
      444
310
42D3DD995C9A185B99D3D999915409028333333333333E33F0000000000000F9010790141107004050150941D405064090741402480A0350
1001
ACAD
1000
AcDbSavedByObjectVersion
1070
     0
  0
ACAD_PROXY_OBJECT
  5
4049
102
{ACAD_REACTORS
330
4040
102
}
330
4040
100
AcDbProxyObject
 90
      499
 91
      503
 93
      428
310
425499585B1A5CDD1A58D08409038333333333333E33F0000000000000F9010740A907004050150800405405064090740C02480A1B40
1001
ACAD
1000
AcDbSavedByObjectVersion
1070
     0
  0
ACAD_PROXY_OBJECT
  5
4058
102
{ACAD_REACTORS
330
4040
102
}
330
4040
100
AcDbProxyObject
 90
      499
 91
      503
 93
      420
310
4194DA1859195911B40902404333333333333E33F0000000000000F9010740A41107004050150800405405064090840C02480A0B40
1001
ACAD
1000
AcDbSavedByObjectVersion
1070
     0
  0
ACAD_PROXY_OBJECT
  5
4057
102
{ACAD_REACTORS
330
4040
102
}
330
4040
100
AcDbProxyObject
 90
      499
 91
      503
 93
      516
310
4454DA18591959081DDA5D1A08195919D95CD1A40902404333333333333E33F0000000000000F901074090142907004050250800405405064090740C02480A0B40
1001
ACAD
1000
AcDbSavedByObjectVersion
1070
     0
  0
ACAD_PROXY_OBJECT
  5
4054
102
{ACAD_REACTORS
330
4040
102
}
330
4040
100
AcDbProxyObject
 90
      499
 91
      503
 93
      532
310
4394DA1859195CC81BD98811DC985E5174090240C333333333333E33F0000000000000F901079024090741D01000000000000111010841D405064090740C02480A0340
1001
ACAD
1000
AcDbSavedByObjectVersion
1070
     0
  0
ACAD_PROXY_OBJECT
  5
4055
102
{ACAD_REACTORS
330
4040
102
}
330
4040
100
AcDbProxyObject
 90
      499
 91
      503
 93
      476
310
41D4DAD95D18DA1E51840502408333333333333E33F0000000000000F901079024090741D01000000000000111010B41D405064090741802480A0340
1001
ACAD
1000
AcDbSavedByObjectVersion
1070
     0
  0
ACAD_PROXY_OBJECT
  5
404D
102
{ACAD_REACTORS
330
4040
102
}
330
4040
100
AcDbProxyObject
 90
      499
 91
      503
 93
      412
310
41D51A1A58DAD95B90D409028333333333333E33F0000000000000F9010790141107004050150C41D405064090741402480A0350
1001
ACAD
1000
AcDbSavedByObjectVersion
1070
     0
  0
ACAD_PROXY_OBJECT
  5
4046
102
{ACAD_REACTORS
330
4040
102
}
330
4040
100
AcDbProxyObject
 90
      499
 91
      503
 93
      420
310
4255DA5C99599C985B595059028333333333333E33F0000000000000F90107901411070040501600405405064090740C02480A0340
1001
ACAD
1000
AcDbSavedByObjectVersion
1070
     0
  0
ACAD_PROXY_OBJECT
  5
4056
102
{ACAD_REACTORS
330
4040
102
}
330
4040
100
AcDbProxyObject
 90
      499
 91
      503
 93
      404
310
41560B54985E51940902404000000000000E03F0000000000000F9010740501907004050150841D405064090740C02480A1B40
1001
ACAD
1000
AcDbSavedByObjectVersion
1070
     0
  0
XRECORD
  5
4F66
102
{ACAD_REACTORS
330
4F5C
102
}
330
4F5C
100
AcDbXrecord
340
0
  0
XRECORD
  5
4F65
102
{ACAD_REACTORS
330
4F5C
102
}
330
4F5C
100
AcDbXrecord
 90
        0
  0
XRECORD
  5
4F7F
102
{ACAD_REACTORS
330
4F5C
102
}
330
4F5C
100
AcDbXrecord
340
2948
  0
XRECORD
  5
4F7C
102
{ACAD_REACTORS
330
4F5C
102
}
330
4F5C
100
AcDbXrecord
1000
DSTYLE
1002
{
1070
   171
 70
     2
1070
   143
 40
0.0394
1070
   274
 70
     2
1070
    41
 40
6.0
1070
   342
340
2AF4
1070
   271
 70
     1
1070
   278
 70
    46
1070
   341
340
2AF4
1070
   272
 70
     1
1070
    48
 40
0.1
1070
   283
 70
     1
1070
    47
 40
0.1
1070
   145
 40
1.0
1070
   340
340
10
1070
   140
 40
5.0
1070
   284
 70
     0
1002
}
  0
XRECORD
  5
4F67
102
{ACAD_REACTORS
330
4F5C
102
}
330
4F5C
100
AcDbXrecord
  1
{23698909-1D67-4744-B0E2-8DE11E3ED422}
  0
XRECORD
  5
4F5F
102
{ACAD_REACTORS
330
4F5C
102
}
330
4F5C
100
AcDbXrecord
  1

  0
XRECORD
  5
4F64
102
{ACAD_REACTORS
330
4F5C
102
}
330
4F5C
100
AcDbXrecord
 90
        0
  0
XRECORD
  5
4F61
102
{ACAD_REACTORS
330
4F5C
102
}
330
4F5C
100
AcDbXrecord
340
2816
  0
XRECORD
  5
4F63
102
{ACAD_REACTORS
330
4F5C
102
}
330
4F5C
100
AcDbXrecord
 90
    10781
  0
XRECORD
  5
4F80
102
{ACAD_REACTORS
330
4F5C
102
}
330
4F5C
100
AcDbXrecord
340
2947
  0
XRECORD
  5
4F62
102
{ACAD_REACTORS
330
4F5C
102
}
330
4F5C
100
AcDbXrecord
340
2817
  0
XRECORD
  5
4F69
102
{ACAD_REACTORS
330
4F5C
102
}
330
4F5C
100
AcDbXrecord
 40
0.25
  0
XRECORD
  5
4F6C
102
{ACAD_REACTORS
330
4F5C
102
}
330
4F5C
100
AcDbXrecord
340
0
  0
XRECORD
  5
4F72
102
{ACAD_REACTORS
330
4F5C
102
}
330
4F5C
100
AcDbXrecord
 10
0.0
 20
0.0
 30
0.0
  0
XRECORD
  5
4F6E
102
{ACAD_REACTORS
330
4F5C
102
}
330
4F5C
100
AcDbXrecord
 10
0.0
 20
0.0
 30
0.0
  0
XRECORD
  5
4F71
102
{ACAD_REACTORS
330
4F5C
102
}
330
4F5C
100
AcDbXrecord
 10
0.0
 20
0.0
 30
0.0
  0
XRECORD
  5
4F6F
102
{ACAD_REACTORS
330
4F5C
102
}
330
4F5C
100
AcDbXrecord
 10
0.0
 20
0.0
 30
0.0
  0
XRECORD
  5
4F70
102
{ACAD_REACTORS
330
4F5C
102
}
330
4F5C
100
AcDbXrecord
 10
0.0
 20
0.0
 30
0.0
  0
XRECORD
  5
4F6D
102
{ACAD_REACTORS
330
4F5C
102
}
330
4F5C
100
AcDbXrecord
 10
0.0
 20
0.0
 30
0.0
  0
XRECORD
  5
4F6A
102
{ACAD_REACTORS
330
4F5C
102
}
330
4F5C
100
AcDbXrecord
340
0
  0
XRECORD
  5
4F6B
102
{ACAD_REACTORS
330
4F5C
102
}
330
4F5C
100
AcDbXrecord
 70
     0
  0
XRECORD
  5
4F60
102
{ACAD_REACTORS
330
4F5C
102
}
330
4F5C
100
AcDbXrecord
  1

  0
XRECORD
  5
4F5D
102
{ACAD_REACTORS
330
4F5C
102
}
330
4F5C
100
AcDbXrecord
 90
        1
  0
XRECORD
  5
4F5E
102
{ACAD_REACTORS
330
4F5C
102
}
330
4F5C
100
AcDbXrecord
 90
       70
  0
XRECORD
  5
4F75
102
{ACAD_REACTORS
330
4F5C
102
}
330
4F5C
100
AcDbXrecord
340
0
  0
XRECORD
  5
4F7B
102
{ACAD_REACTORS
330
4F5C
102
}
330
4F5C
100
AcDbXrecord
 10
0.0
 20
0.0
 30
0.0
  0
XRECORD
  5
4F77
102
{ACAD_REACTORS
330
4F5C
102
}
330
4F5C
100
AcDbXrecord
 10
0.0
 20
0.0
 30
0.0
  0
XRECORD
  5
4F7A
102
{ACAD_REACTORS
330
4F5C
102
}
330
4F5C
100
AcDbXrecord
 10
0.0
 20
0.0
 30
0.0
  0
XRECORD
  5
4F78
102
{ACAD_REACTORS
330
4F5C
102
}
330
4F5C
100
AcDbXrecord
 10
0.0
 20
0.0
 30
0.0
  0
XRECORD
  5
4F79
102
{ACAD_REACTORS
330
4F5C
102
}
330
4F5C
100
AcDbXrecord
 10
0.0
 20
0.0
 30
0.0
  0
XRECORD
  5
4F76
102
{ACAD_REACTORS
330
4F5C
102
}
330
4F5C
100
AcDbXrecord
 10
0.0
 20
0.0
 30
0.0
  0
XRECORD
  5
4F73
102
{ACAD_REACTORS
330
4F5C
102
}
330
4F5C
100
AcDbXrecord
340
0
  0
XRECORD
  5
4F74
102
{ACAD_REACTORS
330
4F5C
102
}
330
4F5C
100
AcDbXrecord
 70
     0
  0
XRECORD
  5
4F68
102
{ACAD_REACTORS
330
4F5C
102
}
330
4F5C
100
AcDbXrecord
  1
{05FFF951-2CCD-47D9-AE37-2092D810C805}
  0
DICTIONARYVAR
  5
40CA
102
{ACAD_REACTORS
330
40C9
102
}
330
40C9
100
DictionaryVariables
280
     0
  1
1:1
  0
DICTIONARYVAR
  5
4109
102
{ACAD_REACTORS
330
40C9
102
}
330
40C9
100
DictionaryVariables
280
     0
  1
Standard
  0
DICTIONARYVAR
  5
4108
102
{ACAD_REACTORS
330
40C9
102
}
330
40C9
100
DictionaryVariables
280
     0
  1
Standard
  0
DICTIONARYVAR
  5
4F7D
102
{ACAD_REACTORS
330
40C9
102
}
330
40C9
100
DictionaryVariables
280
     0
  1
1
  0
DICTIONARYVAR
  5
4F7E
102
{ACAD_REACTORS
330
40C9
102
}
330
40C9
100
DictionaryVariables
280
     0
  1
0
  0
DICTIONARYVAR
  5
410A
102
{ACAD_REACTORS
330
40C9
102
}
330
40C9
100
DictionaryVariables
280
     0
  1
0
  0
DICTIONARYVAR
  5
410B
102
{ACAD_REACTORS
330
40C9
102
}
330
40C9
100
DictionaryVariables
280
     0
  1
0
  0
DICTIONARY
  5
4A8F
102
{ACAD_REACTORS
330
4A8E
102
}
330
4A8E
100
AcDbDictionary
  0
DICTIONARY
  5
4219
102
{ACAD_REACTORS
330
4218
102
}
330
4218
100
AcDbDictionary
  0
DICTIONARY
  5
422B
102
{ACAD_REACTORS
330
422A
102
}
330
422A
100
AcDbDictionary
  0
DICTIONARY
  5
4239
102
{ACAD_REACTORS
330
4238
102
}
330
4238
100
AcDbDictionary
  0
DICTIONARY
  5
4244
102
{ACAD_REACTORS
330
4243
102
}
330
4243
100
AcDbDictionary
  0
DICTIONARY
  5
424B
102
{ACAD_REACTORS
330
424A
102
}
330
424A
100
AcDbDictionary
  0
DICTIONARY
  5
4253
102
{ACAD_REACTORS
330
4252
102
}
330
4252
100
AcDbDictionary
  0
DICTIONARY
  5
4267
102
{ACAD_REACTORS
330
4266
102
}
330
4266
100
AcDbDictionary
  0
DICTIONARY
  5
4271
102
{ACAD_REACTORS
330
4270
102
}
330
4270
100
AcDbDictionary
  0
DICTIONARY
  5
427C
102
{ACAD_REACTORS
330
427B
102
}
330
427B
100
AcDbDictionary
  0
DICTIONARY
  5
4280
102
{ACAD_REACTORS
330
427F
102
}
330
427F
100
AcDbDictionary
  0
DICTIONARY
  5
4284
102
{ACAD_REACTORS
330
4283
102
}
330
4283
100
AcDbDictionary
  0
DICTIONARY
  5
4444
102
{ACAD_REACTORS
330
4443
102
}
330
4443
100
AcDbDictionary
  0
DICTIONARY
  5
4549
102
{ACAD_REACTORS
330
4548
102
}
330
4548
100
AcDbDictionary
  0
DICTIONARY
  5
457E
102
{ACAD_REACTORS
330
457D
102
}
330
457D
100
AcDbDictionary
  0
DICTIONARY
  5
45B3
102
{ACAD_REACTORS
330
45B2
102
}
330
45B2
100
AcDbDictionary
  0
DICTIONARY
  5
45E8
102
{ACAD_REACTORS
330
45E7
102
}
330
45E7
100
AcDbDictionary
  0
DICTIONARY
  5
461D
102
{ACAD_REACTORS
330
461C
102
}
330
461C
100
AcDbDictionary
  0
DICTIONARY
  5
4288
102
{ACAD_REACTORS
330
4287
102
}
330
4287
100
AcDbDictionary
  0
DICTIONARY
  5
428B
102
{ACAD_REACTORS
330
428A
102
}
330
428A
100
AcDbDictionary
  0
DICTIONARY
  5
42CC
102
{ACAD_REACTORS
330
42CB
102
}
330
42CB
100
AcDbDictionary
  0
DICTIONARY
  5
42C5
102
{ACAD_REACTORS
330
42C4
102
}
330
42C4
100
AcDbDictionary
  0
DICTIONARY
  5
42C9
102
{ACAD_REACTORS
330
42C8
102
}
330
42C8
100
AcDbDictionary
  0
DICTIONARY
  5
496D
102
{ACAD_REACTORS
330
496C
102
}
330
496C
100
AcDbDictionary
  0
DICTIONARY
  5
4E83
102
{ACAD_REACTORS
330
4E82
102
}
330
4E82
100
AcDbDictionary
  0
DICTIONARY
  5
4E87
102
{ACAD_REACTORS
330
4E86
102
}
330
4E86
100
AcDbDictionary
  0
DICTIONARY
  5
4F86
330
407C
100
AcDbDictionary
280
     1
  3
ACAD_XREC_ROUNDTRIP
360
4F87
  0
DICTIONARY
  5
4F84
330
407B
100
AcDbDictionary
280
     1
  3
ACAD_XREC_ROUNDTRIP
360
4F85
  0
DICTIONARY
  5
4F88
330
407D
100
AcDbDictionary
280
     1
  3
ACAD_XREC_ROUNDTRIP
360
4F89
  0
XRECORD
  5
4F87
102
{ACAD_REACTORS
330
4F86
102
}
330
4F86
100
AcDbXrecord
102
MATERIAL
148
0.0
149
0.0
149
0.0
 93
        0
 94
      127
282
     0
 72
     1
 77
     1
171
     1
175
     1
179
     1
273
     0
  0
XRECORD
  5
4F85
102
{ACAD_REACTORS
330
4F84
102
}
330
4F84
100
AcDbXrecord
102
MATERIAL
148
0.0
149
0.0
149
0.0
 93
        0
 94
      127
282
     0
 72
     1
 77
     1
171
     1
175
     1
179
     1
273
     0
  0
XRECORD
  5
4F89
102
{ACAD_REACTORS
330
4F88
102
}
330
4F88
100
AcDbXrecord
102
MATERIAL
148
0.0
149
0.0
149
0.0
 93
        0
 94
      127
282
     0
 72
     1
 77
     1
171
     1
175
     1
179
     1
273
     0
  0
ENDSEC
  0
EOF
