  0
SECTION
  2
HEADER
  9
$ACADVER
  1
AC1014
  9
$ACADMAINTVER
 70
     9
  9
$DWGCODEPAGE
  3
ANSI_932
  9
$INSBASE
 10
0.0
 20
0.0
 30
0.0
  9
$EXTMIN
 10
135.790248421043
 20
792.181154423359
 30
0.0
  9
$EXTMAX
 10
858.727761779227
 20
1193.497800838767
 30
0.0
  9
$LIMMIN
 10
-360.747566795242
 20
4.457354754526
  9
$LIMMAX
 10
-162.153696144267
 20
287.675440264018
  9
$ORTHOMODE
 70
     0
  9
$REGENMODE
 70
     1
  9
$FILLMODE
 70
     1
  9
$QTEXTMODE
 70
     0
  9
$MIRRTEXT
 70
     1
  9
$DRAGMODE
 70
     2
  9
$LTSCALE
 40
1.0
  9
$OSMODE
 70
   935
  9
$ATTMODE
 70
     1
  9
$TEXTSIZE
 40
2.333873885063
  9
$TRACEWID
 40
1.0
  9
$TEXTSTYLE
  7
STANDARD
  9
$CLAYER
  8
外形線
  9
$CELTYPE
  6
BYLAYER
  9
$CECOLOR
 62
   256
  9
$CELTSCALE
 40
10.0
  9
$DELOBJ
 70
     1
  9
$DISPSILH
 70
     0
  9
$DIMSCALE
 40
1.0
  9
$DIMASZ
 40
6.0
  9
$DIMEXO
 40
0.625
  9
$DIMDLI
 40
3.75
  9
$DIMRND
 40
0.0
  9
$DIMDLE
 40
0.0
  9
$DIMEXE
 40
1.25
  9
$DIMTP
 40
0.1
  9
$DIMTM
 40
0.1
  9
$DIMTXT
 40
5.0
  9
$DIMCEN
 40
2.5
  9
$DIMTSZ
 40
0.0
  9
$DIMTOL
 70
     0
  9
$DIMLIM
 70
     0
  9
$DIMTIH
 70
     0
  9
$DIMTOH
 70
     0
  9
$DIMSE1
 70
     0
  9
$DIMSE2
 70
     0
  9
$DIMTAD
 70
     1
  9
$DIMZIN
 70
     8
  9
$DIMBLK
  1
OPEN30
  9
$DIMASO
 70
     1
  9
$DIMSHO
 70
     1
  9
$DIMPOST
  1

  9
$DIMAPOST
  1

  9
$DIMALT
 70
     0
  9
$DIMALTD
 70
     2
  9
$DIMALTF
 40
0.0394
  9
$DIMLFAC
 40
1.0
  9
$DIMTOFL
 70
     1
  9
$DIMTVP
 40
1.0
  9
$DIMTIX
 70
     0
  9
$DIMSOXD
 70
     0
  9
$DIMSAH
 70
     0
  9
$DIMBLK1
  1

  9
$DIMBLK2
  1

  9
$DIMSTYLE
  2
ISO-25
  9
$DIMCLRD
 70
     0
  9
$DIMCLRE
 70
     0
  9
$DIMCLRT
 70
     0
  9
$DIMTFAC
 40
1.0
  9
$DIMGAP
 40
0.625
  9
$DIMJUST
 70
     0
  9
$DIMSD1
 70
     0
  9
$DIMSD2
 70
     0
  9
$DIMTOLJ
 70
     1
  9
$DIMTZIN
 70
     0
  9
$DIMALTZ
 70
     0
  9
$DIMALTTZ
 70
     0
  9
$DIMFIT
 70
     3
  9
$DIMUPT
 70
     0
  9
$DIMUNIT
 70
     2
  9
$DIMDEC
 70
     1
  9
$DIMTDEC
 70
     1
  9
$DIMALTU
 70
     2
  9
$DIMALTTD
 70
     2
  9
$DIMTXSTY
  7
STANDARD
  9
$DIMAUNIT
 70
     0
  9
$LUNITS
 70
     2
  9
$LUPREC
 70
     4
  9
$SKETCHINC
 40
1.0
  9
$FILLETRAD
 40
6.5
  9
$AUNITS
 70
     0
  9
$AUPREC
 70
     0
  9
$MENU
  1
.
  9
$ELEVATION
 40
0.0
  9
$PELEVATION
 40
0.0
  9
$THICKNESS
 40
0.0
  9
$LIMCHECK
 70
     0
  9
$CHAMFERA
 40
10.0
  9
$CHAMFERB
 40
10.0
  9
$CHAMFERC
 40
20.0
  9
$CHAMFERD
 40
0.0
  9
$SKPOLY
 70
     0
  9
$TDCREATE
 40
2450576.597302431
  9
$TDUPDATE
 40
2457269.372625336
  9
$TDINDWG
 40
1.2706401157
  9
$TDUSRTIMER
 40
1.2706401157
  9
$USRTIMER
 70
     1
  9
$ANGBASE
 50
0.0
  9
$ANGDIR
 70
     0
  9
$PDMODE
 70
     0
  9
$PDSIZE
 40
0.0
  9
$PLINEWID
 40
0.0
  9
$COORDS
 70
     0
  9
$SPLFRAME
 70
     0
  9
$SPLINETYPE
 70
     6
  9
$SPLINESEGS
 70
     8
  9
$ATTDIA
 70
     0
  9
$ATTREQ
 70
     1
  9
$HANDLING
 70
     1
  9
$HANDSEED
  5
5444
  9
$SURFTAB1
 70
     6
  9
$SURFTAB2
 70
     6
  9
$SURFTYPE
 70
     6
  9
$SURFU
 70
     6
  9
$SURFV
 70
     6
  9
$UCSNAME
  2

  9
$UCSORG
 10
0.0
 20
0.0
 30
0.0
  9
$UCSXDIR
 10
1.0
 20
0.0
 30
0.0
  9
$UCSYDIR
 10
0.0
 20
1.0
 30
0.0
  9
$PUCSNAME
  2

  9
$PUCSORG
 10
0.0
 20
0.0
 30
0.0
  9
$PUCSXDIR
 10
1.0
 20
0.0
 30
0.0
  9
$PUCSYDIR
 10
0.0
 20
1.0
 30
0.0
  9
$USERI1
 70
     0
  9
$USERI2
 70
     0
  9
$USERI3
 70
     0
  9
$USERI4
 70
     0
  9
$USERI5
 70
     0
  9
$USERR1
 40
0.0
  9
$USERR2
 40
0.0
  9
$USERR3
 40
0.0
  9
$USERR4
 40
0.0
  9
$USERR5
 40
0.0
  9
$WORLDVIEW
 70
     1
  9
$SHADEDGE
 70
     3
  9
$SHADEDIF
 70
    70
  9
$TILEMODE
 70
     0
  9
$MAXACTVP
 70
    16
  9
$PINSBASE
 10
0.0
 20
0.0
 30
0.0
  9
$PLIMCHECK
 70
     0
  9
$PEXTMIN
 10
4.746305129083
 20
1.396645458131
 30
0.0
  9
$PEXTMAX
 10
404.746305129083
 20
281.396645458131
 30
0.0
  9
$PLIMMIN
 10
-6.946593322754
 20
-6.94658241272
  9
$PLIMMAX
 10
417.718108215332
 20
293.315276107788
  9
$UNITMODE
 70
     0
  9
$VISRETAIN
 70
     0
  9
$PLINEGEN
 70
     0
  9
$PSLTSCALE
 70
     1
  9
$TREEDEPTH
 70
  3020
  9
$PICKSTYLE
 70
     1
  9
$CMLSTYLE
  2
STANDARD
  9
$CMLJUST
 70
     0
  9
$CMLSCALE
 40
1.0
  9
$PROXYGRAPHICS
 70
     1
  9
$MEASUREMENT
 70
     1
  0
ENDSEC
  0
SECTION
  2
CLASSES
  0
CLASS
  1
ACDBDICTIONARYWDFLT
  2
AcDbDictionaryWithDefault
  3
ObjectDBX Classes
 90
        0
280
     0
281
     0
  0
CLASS
  1
ACDBPLACEHOLDER
  2
AcDbPlaceHolder
  3
ObjectDBX Classes
 90
        0
280
     0
281
     0
  0
CLASS
  1
LAYOUT
  2
AcDbLayout
  3
ObjectDBX Classes
 90
        0
280
     0
281
     0
  0
CLASS
  1
SORTENTSTABLE
  2
AcDbSortentsTable
  3
ObjectDBX Classes
 90
        0
280
     0
281
     0
  0
CLASS
  1
VISUALSTYLE
  2
AcDbVisualStyle
  3
ObjectDBX Classes
 90
     4095
280
     0
281
     0
  0
CLASS
  1
SCALE
  2
AcDbScale
  3
ObjectDBX Classes
 90
     1153
280
     0
281
     0
  0
CLASS
  1
MATERIAL
  2
AcDbMaterial
  3
ObjectDBX Classes
 90
     1153
280
     0
281
     0
  0
CLASS
  1
TABLESTYLE
  2
AcDbTableStyle
  3
ObjectDBX Classes
 90
     4095
280
     0
281
     0
  0
CLASS
  1
MLEADERSTYLE
  2
AcDbMLeaderStyle
  3
ACDB_MLEADERSTYLE_CLASS
 90
     4095
280
     0
281
     0
  0
CLASS
  1
SUN
  2
AcDbSun
  3
SCENEOE
 90
     1153
280
     0
281
     0
  0
CLASS
  1
DICTIONARYVAR
  2
AcDbDictionaryVar
  3
ObjectDBX Classes
 90
        0
280
     0
281
     0
  0
CLASS
  1
CELLSTYLEMAP
  2
AcDbCellStyleMap
  3
ObjectDBX Classes
 90
     1152
280
     0
281
     0
  0
CLASS
  1
XRECORD
  2
AcDbXrecord
  3
ObjectDBX Classes
 90
        0
280
     0
281
     0
  0
CLASS
  1
LWPOLYLINE
  2
AcDbPolyline
  3
ObjectDBX Classes
 90
        0
280
     0
281
     1
  0
CLASS
  1
HATCH
  2
AcDbHatch
  3
ObjectDBX Classes
 90
        0
280
     0
281
     1
  0
ENDSEC
  0
SECTION
  2
TABLES
  0
TABLE
  2
VPORT
  5
8
102
{ACAD_XDICTIONARY
360
543C
102
}
330
0
100
AcDbSymbolTable
 70
     1
  0
VPORT
  5
4649
330
8
100
AcDbSymbolTableRecord
100
AcDbViewportTableRecord
  2
*ACTIVE
 70
     0
 10
0.0
 20
0.0
 11
1.0
 21
1.0
 12
497.259005100135
 22
992.839477631063
 13
0.0
 23
0.0
 14
1.0
 24
1.0
 15
0.0
 25
0.0
 16
0.0
 26
0.0
 36
1.0
 17
0.0
 27
0.0
 37
0.0
 40
409.342979343716
 41
1.839224629418
 42
50.0
 43
0.0
 44
0.0
 50
0.0
 51
0.0
 71
    16
 72
   100
 73
     1
 74
     0
 75
     0
 76
     0
 77
     0
 78
     0
  0
ENDTAB
  0
TABLE
  2
LTYPE
  5
5
330
0
100
AcDbSymbolTable
 70
     4
  0
LTYPE
  5
14
330
5
100
AcDbSymbolTableRecord
100
AcDbLinetypeTableRecord
  2
BYBLOCK
 70
     0
  3

 72
    65
 73
     0
 40
0.0
  0
LTYPE
  5
15
330
5
100
AcDbSymbolTableRecord
100
AcDbLinetypeTableRecord
  2
BYLAYER
 70
     0
  3

 72
    65
 73
     0
 40
0.0
  0
LTYPE
  5
16
330
5
100
AcDbSymbolTableRecord
100
AcDbLinetypeTableRecord
  2
CONTINUOUS
 70
     0
  3
Solid line
 72
    65
 73
     0
 40
0.0
  0
LTYPE
  5
1EC
330
5
100
AcDbSymbolTableRecord
100
AcDbLinetypeTableRecord
  2
CENTER
 70
     0
  3
____ _ ____ _ ____ _ ____ _ ____ _ ____ _ ____ 
 72
    65
 73
     4
 40
2.0
 49
1.25
 74
     0
 49
-0.25
 74
     0
 49
0.25
 74
     0
 49
-0.25
 74
     0
  0
LTYPE
  5
1ED
330
5
100
AcDbSymbolTableRecord
100
AcDbLinetypeTableRecord
  2
DASHED
 70
     0
  3
__ __ __ __ __ __ __ __ __ __ __ __ __ __ __ __
 72
    65
 73
     2
 40
0.75
 49
0.5
 74
     0
 49
-0.25
 74
     0
  0
LTYPE
  5
2B1F
330
5
100
AcDbSymbolTableRecord
100
AcDbLinetypeTableRecord
  2
DASHDOT
 70
     0
  3
一点鎖線
 72
    65
 73
     4
 40
25.6
 49
20.0
 74
     0
 49
-2.0
 74
     0
 49
1.6
 74
     0
 49
-2.0
 74
     0
  0
ENDTAB
  0
TABLE
  2
LAYER
  5
2
102
{ACAD_XDICTIONARY
360
29EA
102
}
330
0
100
AcDbSymbolTable
 70
    16
  0
LAYER
  5
F
330
2
100
AcDbSymbolTableRecord
100
AcDbLayerTableRecord
  2
0
 70
     0
 62
     7
  6
CONTINUOUS
  0
LAYER
  5
61
330
2
100
AcDbSymbolTableRecord
100
AcDbLayerTableRecord
  2
図枠太線
 70
     0
 62
   251
  6
CONTINUOUS
  0
LAYER
  5
62
330
2
100
AcDbSymbolTableRecord
100
AcDbLayerTableRecord
  2
図枠細線
 70
     0
 62
   252
  6
CONTINUOUS
  0
LAYER
  5
63
330
2
100
AcDbSymbolTableRecord
100
AcDbLayerTableRecord
  2
図枠ロゴマーク
 70
     0
 62
   253
  6
CONTINUOUS
  0
LAYER
  5
1EF
330
2
100
AcDbSymbolTableRecord
100
AcDbLayerTableRecord
  2
外形線
 70
     0
 62
     7
  6
CONTINUOUS
  0
LAYER
  5
1F0
330
2
100
AcDbSymbolTableRecord
100
AcDbLayerTableRecord
  2
寸法線
 70
     0
 62
     1
  6
CONTINUOUS
  0
LAYER
  5
1F1
330
2
100
AcDbSymbolTableRecord
100
AcDbLayerTableRecord
  2
中心線
 70
     0
 62
     4
  6
CENTER
  0
LAYER
  5
1F4
330
2
100
AcDbSymbolTableRecord
100
AcDbLayerTableRecord
  2
DEFPOINTS
 70
     0
 62
     7
  6
CONTINUOUS
  0
LAYER
  5
2AA2
330
2
100
AcDbSymbolTableRecord
100
AcDbLayerTableRecord
  2
下書線
 70
     0
 62
     2
  6
CONTINUOUS
  0
LAYER
  5
2AA3
330
2
100
AcDbSymbolTableRecord
100
AcDbLayerTableRecord
  2
隠れ線
 70
     0
 62
     3
  6
DASHED
  0
LAYER
  5
2AA4
330
2
100
AcDbSymbolTableRecord
100
AcDbLayerTableRecord
  2
細線
 70
     0
 62
     6
  6
CONTINUOUS
  0
LAYER
  5
2AA5
330
2
100
AcDbSymbolTableRecord
100
AcDbLayerTableRecord
  2
太線
 70
     0
 62
   190
  6
CONTINUOUS
  0
LAYER
  5
2B20
330
2
100
AcDbSymbolTableRecord
100
AcDbLayerTableRecord
  2
LAY-1
 70
     0
 62
     7
  6
CONTINUOUS
  0
LAYER
  5
2B21
330
2
100
AcDbSymbolTableRecord
100
AcDbLayerTableRecord
  2
LAY-2
 70
     0
 62
     7
  6
CONTINUOUS
  0
LAYER
  5
2B22
330
2
100
AcDbSymbolTableRecord
100
AcDbLayerTableRecord
  2
LAY-5
 70
     0
 62
     7
  6
CONTINUOUS
  0
LAYER
  5
2B23
330
2
100
AcDbSymbolTableRecord
100
AcDbLayerTableRecord
  2
LAY-6
 70
     0
 62
     7
  6
CONTINUOUS
  0
ENDTAB
  0
TABLE
  2
STYLE
  5
3
330
0
100
AcDbSymbolTable
 70
     2
  0
STYLE
  5
10
330
3
100
AcDbSymbolTableRecord
100
AcDbTextStyleTableRecord
  2
STANDARD
 70
     0
 40
0.0
 41
1.0
 50
0.0
 71
     0
 42
2.333873885063
  3
ISOCP
  4
bigfont.shx
  0
STYLE
  5
64
330
3
100
AcDbSymbolTableRecord
100
AcDbTextStyleTableRecord
  2
EXCADSTD
 70
     0
 40
0.0
 41
1.0
 50
0.0
 71
     0
 42
0.2
  3
monotxt
  4
bigfont
  0
ENDTAB
  0
TABLE
  2
VIEW
  5
6
330
0
100
AcDbSymbolTable
 70
     0
  0
ENDTAB
  0
TABLE
  2
UCS
  5
7
330
0
100
AcDbSymbolTable
 70
     0
  0
ENDTAB
  0
TABLE
  2
APPID
  5
9
330
0
100
AcDbSymbolTable
 70
     3
  0
APPID
  5
11
330
9
100
AcDbSymbolTableRecord
100
AcDbRegAppTableRecord
  2
ACAD
 70
     0
  0
APPID
  5
46A3
330
9
100
AcDbSymbolTableRecord
100
AcDbRegAppTableRecord
  2
ACADANNOTATIVE
 70
     0
  0
APPID
  5
495C
330
9
100
AcDbSymbolTableRecord
100
AcDbRegAppTableRecord
  2
ACAD_MLEADERVER
 70
     0
  0
ENDTAB
  0
TABLE
  2
DIMSTYLE
  5
A
330
0
100
AcDbSymbolTable
 70
     2
  0
DIMSTYLE
105
1D
330
A
100
AcDbSymbolTableRecord
100
AcDbDimStyleTableRecord
  2
STANDARD
 70
     0
  3

  4

  5

  6

  7

 40
1.0
 41
0.18
 42
0.0625
 43
0.38
 44
0.18
 45
0.0
 46
0.0
 47
0.0
 48
0.0
140
0.18
141
0.09
142
0.0
143
25.4
144
1.0
145
0.0
146
1.0
147
0.09
 71
     0
 72
     0
 73
     1
 74
     1
 75
     0
 76
     0
 77
     0
 78
     0
170
     0
171
     2
172
     0
173
     0
174
     0
175
     0
176
     0
177
     0
178
     0
270
     2
271
     4
272
     4
273
     2
274
     2
340
10
275
     0
280
     0
281
     0
282
     0
283
     1
284
     0
285
     0
286
     0
287
     3
288
     0
  0
DIMSTYLE
105
24
102
{ACAD_REACTORS
330
415D
330
419A
330
419F
330
41A0
102
}
330
A
100
AcDbSymbolTableRecord
100
AcDbDimStyleTableRecord
  2
ISO-25
 70
     0
  3

  4

  5

  6

  7

 40
1.0
 41
2.5
 42
0.625
 43
3.75
 44
1.25
 45
0.0
 46
0.0
 47
0.0
 48
0.0
140
2.5
141
2.5
142
0.0
143
0.0394
144
1.0
145
1.0
146
1.0
147
0.625
 71
     0
 72
     0
 73
     1
 74
     0
 75
     0
 76
     0
 77
     1
 78
     8
170
     0
171
     2
172
     1
173
     0
174
     0
175
     0
176
     0
177
     0
178
     0
270
     2
271
     4
272
     4
273
     2
274
     2
340
10
275
     0
280
     0
281
     0
282
     0
283
     1
284
     0
285
     0
286
     0
287
     3
288
     0
  0
ENDTAB
  0
TABLE
  2
BLOCK_RECORD
  5
1
330
0
100
AcDbSymbolTable
 70
    10
  0
BLOCK_RECORD
  5
1A
330
1
100
AcDbSymbolTableRecord
100
AcDbBlockTableRecord
  2
*MODEL_SPACE
  0
BLOCK_RECORD
  5
28FB
330
1
100
AcDbSymbolTableRecord
100
AcDbBlockTableRecord
  2
*PAPER_SPACE
  0
BLOCK_RECORD
  5
65
330
1
100
AcDbSymbolTableRecord
100
AcDbBlockTableRecord
  2
A$C3392
  0
BLOCK_RECORD
  5
29BF
330
1
100
AcDbSymbolTableRecord
100
AcDbBlockTableRecord
  2
A4横用_タイトル
1001
ACAD
1000
DesignCenter Data
1002
{
1070
     1
1070
     4
1002
}
  0
BLOCK_RECORD
  5
29F4
330
1
100
AcDbSymbolTableRecord
100
AcDbBlockTableRecord
  2
A4縦用_タイトル
1001
ACAD
1000
DesignCenter Data
1002
{
1070
     1
1070
     4
1002
}
  0
BLOCK_RECORD
  5
2A32
330
1
100
AcDbSymbolTableRecord
100
AcDbBlockTableRecord
  2
A3横用_タイトル
1001
ACAD
1000
DesignCenter Data
1002
{
1070
     1
1070
     4
1002
}
  0
BLOCK_RECORD
  5
2A6C
330
1
100
AcDbSymbolTableRecord
100
AcDbBlockTableRecord
  2
A3縦用_タイトル
1001
ACAD
1000
DesignCenter Data
1002
{
1070
     1
1070
     4
1002
}
  0
BLOCK_RECORD
  5
2AF4
330
1
100
AcDbSymbolTableRecord
100
AcDbBlockTableRecord
  2
_OPEN30
  0
BLOCK_RECORD
  5
4242
330
1
100
AcDbSymbolTableRecord
100
AcDbBlockTableRecord
  2
*D6
  0
BLOCK_RECORD
  5
4273
330
1
100
AcDbSymbolTableRecord
100
AcDbBlockTableRecord
  2
*D7
  0
BLOCK_RECORD
  5
4297
330
1
100
AcDbSymbolTableRecord
100
AcDbBlockTableRecord
  2
*D8
  0
BLOCK_RECORD
  5
42A3
330
1
100
AcDbSymbolTableRecord
100
AcDbBlockTableRecord
  2
*D9
  0
ENDTAB
  0
ENDSEC
  0
SECTION
  2
BLOCKS
  0
BLOCK
  5
1B
330
1A
100
AcDbEntity
  8
0
100
AcDbBlockBegin
  2
*MODEL_SPACE
 70
     0
 10
0.0
 20
0.0
 30
0.0
  3
*MODEL_SPACE
  1

  0
ENDBLK
  5
1C
330
1A
100
AcDbEntity
  8
0
100
AcDbBlockEnd
  0
BLOCK
  5
28FD
330
28FB
100
AcDbEntity
 67
     1
  8
0
 48
10.0
100
AcDbBlockBegin
  2
*PAPER_SPACE
 70
     0
 10
0.0
 20
0.0
 30
0.0
  3
*PAPER_SPACE
  1

  0
ENDBLK
  5
28FE
330
28FB
100
AcDbEntity
 67
     1
  8
0
 48
10.0
100
AcDbBlockEnd
  0
BLOCK
  5
93
330
65
100
AcDbEntity
  8
0
100
AcDbBlockBegin
  2
A$C3392
 70
     0
 10
0.0
 20
0.0
 30
0.0
  3
A$C3392
  1

  0
LINE
  5
66
330
65
100
AcDbEntity
  8
図枠太線
  6
CONTINUOUS
100
AcDbLine
 10
211.858584505185
 20
30.927375675439
 30
0.0
 11
211.858584505185
 21
0.927375675439
 31
0.0
  0
LINE
  5
67
330
65
100
AcDbEntity
  8
図枠細線
  6
CONTINUOUS
100
AcDbLine
 10
231.858592505185
 20
15.927377675439
 30
0.0
 11
287.858592505185
 21
15.927375675439
 31
0.0
  0
LINE
  5
68
330
65
100
AcDbEntity
  8
図枠細線
  6
CONTINUOUS
100
AcDbLine
 10
211.858592505185
 20
15.927377675439
 30
0.0
 11
231.858592505185
 21
15.927377675439
 31
0.0
  0
LINE
  5
69
330
65
100
AcDbEntity
  8
図枠太線
  6
CONTINUOUS
 62
   251
100
AcDbLine
 10
1.858584505185
 20
0.927375675439
 30
0.0
 11
1.858584505185
 21
275.927375675439
 31
0.0
  0
TEXT
  5
6A
330
65
100
AcDbEntity
  8
図枠細線
  6
CONTINUOUS
 62
   252
100
AcDbText
 10
351.358592505185
 20
28.427377675439
 30
0.0
 40
2.0
  1
ＴＩＴＬＥ
 41
0.903614457831
  7
EXCADSTD
 72
     5
 11
361.358592505185
 21
28.427377675439
 31
0.0
100
AcDbText
  0
TEXT
  5
6B
330
65
100
AcDbEntity
  8
図枠細線
  6
CONTINUOUS
 62
   252
100
AcDbText
 10
345.358592505185
 20
28.427377675439
 30
0.0
 40
2.0
  1
名称
 41
1.171875
  7
EXCADSTD
 72
     5
 11
350.358592505185
 21
28.427377675439
 31
0.0
100
AcDbText
  0
TEXT
  5
6C
330
65
100
AcDbEntity
  8
図枠細線
  6
CONTINUOUS
 62
   252
100
AcDbText
 10
274.358592505185
 20
25.927377675439
 30
0.0
 40
2.0
  1
ＤＲＡＷＮ
 41
0.882352941176
  7
EXCADSTD
 72
     5
 11
284.358592505185
 21
25.927377675439
 31
0.0
100
AcDbText
  0
TEXT
  5
6D
330
65
100
AcDbEntity
  8
図枠細線
  6
CONTINUOUS
 62
   252
100
AcDbText
 10
260.358592505185
 20
25.927377675439
 30
0.0
 40
2.0
  1
ＤＥＳＩＧＮＥＤ
 41
0.713043472041
  7
EXCADSTD
 72
     5
 11
273.478592390744
 21
25.927377675439
 31
0.0
100
AcDbText
  0
TEXT
  5
6E
330
65
100
AcDbEntity
  8
図枠細線
  6
CONTINUOUS
 62
   252
100
AcDbText
 10
246.358592505185
 20
25.927377675439
 30
0.0
 40
2.0
  1
ＣＨＥＣＫＥＤ
 41
0.831249989569
  7
EXCADSTD
 72
     5
 11
259.658592338292
 21
25.927377675439
 31
0.0
100
AcDbText
  0
TEXT
  5
6F
330
65
100
AcDbEntity
  8
図枠細線
  6
CONTINUOUS
 62
   252
100
AcDbText
 10
274.358592505185
 20
28.427377675439
 30
0.0
 40
2.0
  1
製図
 41
1.209677419355
  7
EXCADSTD
 72
     5
 11
279.358592505185
 21
28.427377675439
 31
0.0
100
AcDbText
  0
TEXT
  5
70
330
65
100
AcDbEntity
  8
図枠細線
  6
CONTINUOUS
 62
   252
100
AcDbText
 10
260.358592505185
 20
28.427377675439
 30
0.0
 40
2.0
  1
設計
 41
1.171875
  7
EXCADSTD
 72
     5
 11
265.358592505185
 21
28.427377675439
 31
0.0
100
AcDbText
  0
TEXT
  5
71
330
65
100
AcDbEntity
  8
図枠細線
  6
CONTINUOUS
 62
   252
100
AcDbText
 10
246.358592505185
 20
28.427377675439
 30
0.0
 40
2.0
  1
検図
 41
1.209677419355
  7
EXCADSTD
 72
     5
 11
251.358592505185
 21
28.427377675439
 31
0.0
100
AcDbText
  0
TEXT
  5
72
330
65
100
AcDbEntity
  8
図枠細線
  6
CONTINUOUS
 62
   252
100
AcDbText
 10
232.358592505185
 20
25.927377675439
 30
0.0
 40
2.0
  1
ＡＰＰＲＯＶＥＤ
 41
0.695652184279
  7
EXCADSTD
 72
     5
 11
245.15859269592
 21
25.927377675439
 31
0.0
100
AcDbText
  0
TEXT
  5
73
330
65
100
AcDbEntity
  8
図枠細線
  6
CONTINUOUS
 62
   252
100
AcDbText
 10
232.358592505185
 20
28.427377675439
 30
0.0
 40
2.0
  1
承認
 41
1.171875
  7
EXCADSTD
 72
     5
 11
237.358592505185
 21
28.427377675439
 31
0.0
100
AcDbText
  0
TEXT
  5
74
330
65
100
AcDbEntity
  8
図枠細線
  6
CONTINUOUS
 62
   252
100
AcDbText
 10
290.069888505185
 20
2.574868675439
 30
0.0
 40
3.5
  1
ＴＯＷＡ　ＳＥＩＤＥＮ　ＩＮＤＵＳＴＲＩＡＬ　ＣＯ．，ＬＴＤ．
 41
0.414568012377
  7
EXCADSTD
 72
     5
 11
342.692388209546
 21
2.574868675439
 31
0.0
100
AcDbText
  0
TEXT
  5
75
330
65
100
AcDbEntity
  8
図枠ロゴマーク
  6
CONTINUOUS
 62
   253
100
AcDbText
 10
290.107348505185
 20
7.519769675439
 30
0.0
 40
7.0
  1
東和制電工業株式会社
 41
0.639204545455
  7
EXCADSTD
 72
     5
 11
342.607348505185
 21
7.519769675439
 31
0.0
100
AcDbText
  0
TEXT
  5
76
330
65
100
AcDbEntity
  8
図枠細線
  6
CONTINUOUS
 62
   252
100
AcDbText
 10
232.499705505185
 20
5.759088675439
 30
0.0
 40
2.0
  1
ＰＲＯＪＥＣＴＩＯＮ
 41
0.754285710199
  7
EXCADSTD
 72
     5
 11
250.099705409817
 21
5.759088675439
 31
0.0
100
AcDbText
  0
TEXT
  5
77
330
65
100
AcDbEntity
  8
図枠細線
  6
CONTINUOUS
 62
   252
100
AcDbText
 10
232.574629505185
 20
8.681077675439
 30
0.0
 40
2.0
  1
ＴＨＩＲＤ　ＡＮＧＬＥ
 41
0.691099486738
  7
EXCADSTD
 72
     5
 11
250.174629767445
 21
8.681077675439
 31
0.0
100
AcDbText
  0
TEXT
  5
78
330
65
100
AcDbEntity
  8
図枠細線
  6
CONTINUOUS
 62
   252
100
AcDbText
 10
256.823999505185
 20
13.427377675439
 30
0.0
 40
2.0
  1
ＳＣＡＬＥ
 41
0.903614457831
  7
EXCADSTD
 72
     5
 11
266.823999505185
 21
13.427377675439
 31
0.0
100
AcDbText
  0
TEXT
  5
79
330
65
100
AcDbEntity
  8
図枠細線
  6
CONTINUOUS
 62
   252
100
AcDbText
 10
274.858592505185
 20
13.427377675439
 30
0.0
 40
2.0
  1
ＤＡＴＥ
 41
0.923076923077
  7
EXCADSTD
 72
     5
 11
282.858592505185
 21
13.427377675439
 31
0.0
100
AcDbText
  0
TEXT
  5
7A
330
65
100
AcDbEntity
  8
図枠細線
  6
CONTINUOUS
 62
   252
100
AcDbText
 10
356.358592505185
 20
13.427377675439
 30
0.0
 40
2.0
  1
ＤＲＧ．ＮＯ．
 41
0.9375
  7
EXCADSTD
 72
     5
 11
370.358592505185
 21
13.427377675439
 31
0.0
100
AcDbText
  0
TEXT
  5
7B
330
65
100
AcDbEntity
  8
図枠細線
  6
CONTINUOUS
 62
   252
100
AcDbText
 10
345.358592505185
 20
13.427377675439
 30
0.0
 40
2.0
  1
図面番号
 41
1.102941176471
  7
EXCADSTD
 72
     5
 11
355.358592505185
 21
13.427377675439
 31
0.0
100
AcDbText
  0
TEXT
  5
7C
330
65
100
AcDbEntity
  8
図枠細線
  6
CONTINUOUS
 62
   252
100
AcDbText
 10
269.358592505185
 20
13.427377675439
 30
0.0
 40
2.0
  1
日付
 41
1.171875
  7
EXCADSTD
 72
     5
 11
274.358592505185
 21
13.427377675439
 31
0.0
100
AcDbText
  0
TEXT
  5
7D
330
65
100
AcDbEntity
  8
図枠細線
  6
CONTINUOUS
 62
   252
100
AcDbText
 10
251.451512505185
 20
13.427377675439
 30
0.0
 40
2.0
  1
尺度
 41
1.171875
  7
EXCADSTD
 72
     5
 11
256.451512505185
 21
13.427377675439
 31
0.0
100
AcDbText
  0
TEXT
  5
7E
330
65
100
AcDbEntity
  8
図枠細線
  6
CONTINUOUS
 62
   252
100
AcDbText
 10
232.358592505185
 20
13.427377675439
 30
0.0
 40
2.0
  1
第三角法
 41
1.102941176471
  7
EXCADSTD
 72
     5
 11
242.358592505185
 21
13.427377675439
 31
0.0
100
AcDbText
  0
TEXT
  5
7F
330
65
100
AcDbEntity
  8
図枠細線
  6
CONTINUOUS
 62
   252
100
AcDbText
 10
212.358592505185
 20
28.427377675439
 30
0.0
 40
2.0
  1
ＮＯＴＥ
 41
0.923076923077
  7
EXCADSTD
 72
     5
 11
220.358592505185
 21
28.427377675439
 31
0.0
100
AcDbText
  0
LINE
  5
80
330
65
100
AcDbEntity
  8
図枠細線
  6
CONTINUOUS
 62
   252
100
AcDbLine
 10
287.858592505185
 20
23.427375675439
 30
0.0
 11
344.858592505185
 21
23.427375675439
 31
0.0
  0
LINE
  5
81
330
65
100
AcDbEntity
  8
図枠太線
  6
CONTINUOUS
 62
   251
100
AcDbLine
 10
287.858584505185
 20
15.927375675439
 30
0.0
 11
344.858592505185
 21
15.927375675439
 31
0.0
  0
LINE
  5
82
330
65
100
AcDbEntity
  8
図枠細線
  6
CONTINUOUS
 62
   252
100
AcDbLine
 10
344.858592505185
 20
15.927375675439
 30
0.0
 11
401.858584505185
 21
15.927375675439
 31
0.0
  0
LINE
  5
83
330
65
100
AcDbEntity
  8
図枠太線
  6
CONTINUOUS
 62
   251
100
AcDbLine
 10
344.858592505185
 20
0.927377675439
 30
0.0
 11
344.858592505185
 21
30.927375675439
 31
0.0
  0
LINE
  5
84
330
65
100
AcDbEntity
  8
図枠太線
  6
CONTINUOUS
 62
   251
100
AcDbLine
 10
287.858592505185
 20
0.927377675439
 30
0.0
 11
287.858592505185
 21
30.927375675439
 31
0.0
  0
LINE
  5
85
330
65
100
AcDbEntity
  8
図枠細線
  6
CONTINUOUS
 62
   252
100
AcDbLine
 10
268.858592505185
 20
0.927377675439
 30
0.0
 11
268.858592505185
 21
15.927375675439
 31
0.0
  0
LINE
  5
86
330
65
100
AcDbEntity
  8
図枠細線
  6
CONTINUOUS
 62
   252
100
AcDbLine
 10
250.858592505185
 20
0.927377675439
 30
0.0
 11
250.858592505185
 21
15.927375675439
 31
0.0
  0
LINE
  5
87
330
65
100
AcDbEntity
  8
図枠細線
  6
CONTINUOUS
 62
   252
100
AcDbLine
 10
273.858592505185
 20
30.927375675439
 30
0.0
 11
273.858592505185
 21
15.927375675439
 31
0.0
  0
LINE
  5
88
330
65
100
AcDbEntity
  8
図枠細線
  6
CONTINUOUS
 62
   252
100
AcDbLine
 10
259.858592505185
 20
30.927375675439
 30
0.0
 11
259.858592505185
 21
15.927375675439
 31
0.0
  0
LINE
  5
89
330
65
100
AcDbEntity
  8
図枠細線
  6
CONTINUOUS
 62
   252
100
AcDbLine
 10
245.858592505185
 20
30.927375675439
 30
0.0
 11
245.858592505185
 21
15.927375675439
 31
0.0
  0
LINE
  5
8A
330
65
100
AcDbEntity
  8
図枠太線
  6
CONTINUOUS
 62
   251
100
AcDbLine
 10
231.858592505185
 20
0.927377675439
 30
0.0
 11
231.858592505185
 21
30.927375675439
 31
0.0
  0
LINE
  5
8B
330
65
100
AcDbEntity
  8
図枠細線
  6
CONTINUOUS
 62
   252
100
AcDbLine
 10
211.858592505185
 20
25.927375675439
 30
0.0
 11
231.858592505185
 21
25.927375675439
 31
0.0
  0
LINE
  5
8C
330
65
100
AcDbEntity
  8
図枠細線
  6
CONTINUOUS
 62
   252
100
AcDbLine
 10
211.858592505185
 20
20.927375675439
 30
0.0
 11
231.858592505185
 21
20.927375675439
 31
0.0
  0
LINE
  5
8D
330
65
100
AcDbEntity
  8
図枠細線
  6
CONTINUOUS
 62
   252
100
AcDbLine
 10
211.858592505185
 20
10.927375675439
 30
0.0
 11
231.858592505185
 21
10.927375675439
 31
0.0
  0
LINE
  5
8E
330
65
100
AcDbEntity
  8
図枠細線
  6
CONTINUOUS
 62
   252
100
AcDbLine
 10
211.858592505185
 20
5.927377675439
 30
0.0
 11
231.858592505185
 21
5.927377675439
 31
0.0
  0
LINE
  5
8F
330
65
100
AcDbEntity
  8
図枠太線
  6
CONTINUOUS
 62
   251
100
AcDbLine
 10
211.858592505185
 20
30.927375675439
 30
0.0
 11
401.858584505185
 21
30.927375675439
 31
0.0
  0
LINE
  5
90
330
65
100
AcDbEntity
  8
図枠太線
  6
CONTINUOUS
 62
   251
100
AcDbLine
 10
1.858584505185
 20
275.927375675439
 30
0.0
 11
401.858584505185
 21
275.927375675439
 31
0.0
  0
LINE
  5
91
330
65
100
AcDbEntity
  8
図枠太線
  6
CONTINUOUS
 62
   251
100
AcDbLine
 10
401.858584505185
 20
0.927375675439
 30
0.0
 11
401.858584505185
 21
275.927375675439
 31
0.0
  0
LINE
  5
92
330
65
100
AcDbEntity
  8
図枠太線
  6
CONTINUOUS
 62
   251
100
AcDbLine
 10
1.858584505185
 20
0.927375675439
 30
0.0
 11
401.858584505185
 21
0.927375675439
 31
0.0
  0
ENDBLK
  5
94
330
65
100
AcDbEntity
  8
0
100
AcDbBlockEnd
  0
BLOCK
  5
29C0
330
29BF
100
AcDbEntity
  8
0
100
AcDbBlockBegin
  2
A4横用_タイトル
 70
     0
 10
0.0
 20
0.0
 30
0.0
  3
A4横用_タイトル
  1

  0
LINE
  5
29C1
330
29BF
100
AcDbEntity
  8
図枠細線
  6
CONTINUOUS
100
AcDbLine
 10
75.061011071051
 20
16.806607253358
 30
0.0
 11
144.061011071051
 21
16.806604789072
 31
0.0
  0
LINE
  5
29C2
330
29BF
100
AcDbEntity
  8
図枠細線
  6
CONTINUOUS
 62
   252
100
AcDbLine
 10
4.061011071051
 20
11.806606253358
 30
0.0
 11
75.061011071051
 21
11.806606253358
 31
0.0
  0
LINE
  5
29C3
330
29BF
100
AcDbEntity
  8
図枠細線
  6
CONTINUOUS
 62
   252
100
AcDbLine
 10
4.061011071051
 20
21.806606253358
 30
0.0
 11
75.061011071051
 21
21.806606253358
 31
0.0
  0
LINE
  5
29C4
330
29BF
100
AcDbEntity
  8
図枠細線
  6
CONTINUOUS
 62
   252
100
AcDbLine
 10
4.061011071051
 20
26.806606253358
 30
0.0
 11
75.061011071051
 21
26.806606253358
 31
0.0
  0
LINE
  5
29C5
330
29BF
100
AcDbEntity
  8
図枠細線
  6
CONTINUOUS
100
AcDbLine
 10
4.061011071051
 20
16.806608253358
 30
0.0
 11
75.061011071051
 21
16.806608253358
 31
0.0
  0
TEXT
  5
29C6
330
29BF
100
AcDbEntity
  8
図枠細線
  6
CONTINUOUS
 62
   252
100
AcDbText
 10
76.405475827713
 20
9.560308253358
 30
0.0
 40
2.0
  1
ＴＨＩＲＤ　ＡＮＧＬＥ
 41
0.691099486738
  7
EXCADSTD
 72
     5
 11
94.005476089973
 21
9.560308253358
 31
0.0
100
AcDbText
  0
TEXT
  5
29C7
330
29BF
100
AcDbEntity
  8
図枠細線
  6
CONTINUOUS
 62
   252
100
AcDbText
 10
76.705775880921
 20
14.306608253358
 30
0.0
 40
2.0
  1
第三角法
 41
1.102941176471
  7
EXCADSTD
 72
     5
 11
86.705775880921
 21
14.306608253358
 31
0.0
100
AcDbText
  0
TEXT
  5
29C8
330
29BF
100
AcDbEntity
  8
図枠細線
  6
CONTINUOUS
 62
   252
100
AcDbText
 10
76.705775880921
 20
26.806608253358
 30
0.0
 40
2.0
  1
ＡＰＰＲＯＶＥＤ
 41
0.695652184279
  7
EXCADSTD
 72
     5
 11
89.505776071656
 21
26.806608253358
 31
0.0
100
AcDbText
  0
TEXT
  5
29C9
330
29BF
100
AcDbEntity
  8
図枠細線
  6
CONTINUOUS
 62
   252
100
AcDbText
 10
76.705775880921
 20
29.306608253358
 30
0.0
 40
2.0
  1
承認
 41
1.171875
  7
EXCADSTD
 72
     5
 11
81.705775880921
 21
29.306608253358
 31
0.0
100
AcDbText
  0
LINE
  5
29CA
330
29BF
100
AcDbEntity
  8
図枠細線
  6
CONTINUOUS
 62
   252
100
AcDbLine
 10
98.061011071051
 20
31.806606253358
 30
0.0
 11
98.061011071051
 21
16.806606253358
 31
0.0
  0
TEXT
  5
29CB
330
29BF
100
AcDbEntity
  8
図枠細線
  6
CONTINUOUS
 62
   252
100
AcDbText
 10
104.216531119804
 20
14.306608253358
 30
0.0
 40
2.0
  1
ＳＣＡＬＥ
 41
0.903614457831
  7
EXCADSTD
 72
     5
 11
114.216531119804
 21
14.306608253358
 31
0.0
100
AcDbText
  0
TEXT
  5
29CC
330
29BF
100
AcDbEntity
  8
図枠細線
  6
CONTINUOUS
 62
   252
100
AcDbText
 10
98.844044119804
 20
14.306608253358
 30
0.0
 40
2.0
  1
尺度
 41
1.171875
  7
EXCADSTD
 72
     5
 11
103.844044119804
 21
14.306608253358
 31
0.0
100
AcDbText
  0
TEXT
  5
29CD
330
29BF
100
AcDbEntity
  8
図枠細線
  6
CONTINUOUS
 62
   252
100
AcDbText
 10
98.968727707497
 20
26.806608253358
 30
0.0
 40
2.0
  1
ＣＨＥＣＫＥＤ
 41
0.831249989569
  7
EXCADSTD
 72
     5
 11
112.268727540604
 21
26.806608253358
 31
0.0
100
AcDbText
  0
TEXT
  5
29CE
330
29BF
100
AcDbEntity
  8
図枠細線
  6
CONTINUOUS
 62
   252
100
AcDbText
 10
98.968727707497
 20
29.306608253358
 30
0.0
 40
2.0
  1
検図
 41
1.209677419355
  7
EXCADSTD
 72
     5
 11
103.968727707497
 21
29.306608253358
 31
0.0
100
AcDbText
  0
LINE
  5
29CF
330
29BF
100
AcDbEntity
  8
図枠細線
  6
CONTINUOUS
 62
   252
100
AcDbLine
 10
121.061011071051
 20
31.806606253358
 30
0.0
 11
121.061011071051
 21
16.806606253358
 31
0.0
  0
TEXT
  5
29D0
330
29BF
100
AcDbEntity
  8
図枠細線
  6
CONTINUOUS
 62
   252
100
AcDbText
 10
128.001465247253
 20
14.306608253358
 30
0.0
 40
2.0
  1
ＤＡＴＥ
 41
0.923076923077
  7
EXCADSTD
 72
     5
 11
136.001465247253
 21
14.306608253358
 31
0.0
100
AcDbText
  0
TEXT
  5
29D1
330
29BF
100
AcDbEntity
  8
図枠細線
  6
CONTINUOUS
 62
   252
100
AcDbText
 10
122.066415498841
 20
14.306608253358
 30
0.0
 40
2.0
  1
日付
 41
1.171875
  7
EXCADSTD
 72
     5
 11
127.066415498841
 21
14.306608253358
 31
0.0
100
AcDbText
  0
TEXT
  5
29D2
330
29BF
100
AcDbEntity
  8
図枠細線
  6
CONTINUOUS
 62
   252
100
AcDbText
 10
121.59429406571
 20
29.306608253358
 30
0.0
 40
2.0
  1
製図
 41
1.209677419355
  7
EXCADSTD
 72
     5
 11
126.59429406571
 21
29.306608253358
 31
0.0
100
AcDbText
  0
TEXT
  5
29D3
330
29BF
100
AcDbEntity
  8
図枠細線
  6
CONTINUOUS
 62
   252
100
AcDbText
 10
121.59429406571
 20
26.806608253358
 30
0.0
 40
2.0
  1
ＤＲＡＷＮ
 41
0.882352941176
  7
EXCADSTD
 72
     5
 11
131.59429406571
 21
26.806608253358
 31
0.0
100
AcDbText
  0
TEXT
  5
29D4
330
29BF
100
AcDbEntity
  8
図枠細線
  6
CONTINUOUS
 62
   252
100
AcDbText
 10
226.591229661348
 20
14.306608253358
 30
0.0
 40
2.0
  1
ＤＲＧ．ＮＯ．
 41
0.9375
  7
EXCADSTD
 72
     5
 11
240.591229661348
 21
14.306608253358
 31
0.0
100
AcDbText
  0
LINE
  5
29D5
330
29BF
100
AcDbEntity
  8
図枠太線
  6
CONTINUOUS
 62
   251
100
AcDbLine
 10
144.061003071051
 20
16.806606253358
 30
0.0
 11
214.061011071051
 21
16.806606253358
 31
0.0
  0
LINE
  5
29D6
330
29BF
100
AcDbEntity
  8
図枠細線
  6
CONTINUOUS
 62
   252
100
AcDbLine
 10
144.061011071051
 20
24.306606253358
 30
0.0
 11
214.061011071051
 21
24.306606253358
 31
0.0
  0
TEXT
  5
29D7
330
29BF
100
AcDbEntity
  8
図枠ロゴマーク
  6
CONTINUOUS
 62
   253
100
AcDbText
 10
146.433776781596
 20
8.399000253358
 30
0.0
 40
7.0
  1
東和制電工業株式会社
 41
0.80361088462
  7
EXCADSTD
 72
     5
 11
212.437017438349
 21
8.399000253358
 31
0.0
100
AcDbText
  0
TEXT
  5
29D8
330
29BF
100
AcDbEntity
  8
図枠細線
  6
CONTINUOUS
 62
   252
100
AcDbText
 10
215.156179912936
 20
14.306608253358
 30
0.0
 40
2.0
  1
図面番号
 41
1.102941176471
  7
EXCADSTD
 72
     5
 11
225.156179912936
 21
14.306608253358
 31
0.0
100
AcDbText
  0
TEXT
  5
29D9
330
29BF
100
AcDbEntity
  8
図枠細線
  6
CONTINUOUS
 62
   252
100
AcDbText
 10
221.591229661348
 20
29.306608253358
 30
0.0
 40
2.0
  1
ＴＩＴＬＥ
 41
0.903614457831
  7
EXCADSTD
 72
     5
 11
231.591229661348
 21
29.306608253358
 31
0.0
100
AcDbText
  0
TEXT
  5
29DA
330
29BF
100
AcDbEntity
  8
図枠細線
  6
CONTINUOUS
 62
   252
100
AcDbText
 10
215.156179912936
 20
29.306608253358
 30
0.0
 40
2.0
  1
名称
 41
1.171875
  7
EXCADSTD
 72
     5
 11
220.156179912936
 21
29.306608253358
 31
0.0
100
AcDbText
  0
LINE
  5
29DB
330
29BF
100
AcDbEntity
  8
図枠太線
  6
CONTINUOUS
 62
   251
100
AcDbLine
 10
4.061011071051
 20
1.806608253358
 30
0.0
 11
284.061011071051
 21
1.806608253358
 31
0.0
  0
LINE
  5
29DC
330
29BF
100
AcDbEntity
  8
図枠細線
  6
CONTINUOUS
 62
   252
100
AcDbLine
 10
4.061011071051
 20
6.806608253358
 30
0.0
 11
75.061011071051
 21
6.806608253358
 31
0.0
  0
LINE
  5
29DD
330
29BF
100
AcDbEntity
  8
図枠太線
  6
CONTINUOUS
 62
   251
100
AcDbLine
 10
75.061011071051
 20
1.806608253358
 30
0.0
 11
75.061011071051
 21
31.806606253358
 31
0.0
  0
TEXT
  5
29DE
330
29BF
100
AcDbEntity
  8
図枠細線
  6
CONTINUOUS
 62
   252
100
AcDbText
 10
76.330551827713
 20
6.638319253358
 30
0.0
 40
2.0
  1
ＰＲＯＪＥＣＴＩＯＮ
 41
0.754285710199
  7
EXCADSTD
 72
     5
 11
93.930551732346
 21
6.638319253358
 31
0.0
100
AcDbText
  0
LINE
  5
29DF
330
29BF
100
AcDbEntity
  8
図枠細線
  6
CONTINUOUS
 62
   252
100
AcDbLine
 10
98.061011071051
 20
1.806606931929
 30
0.0
 11
98.061011071051
 21
16.806604931929
 31
0.0
  0
LINE
  5
29E0
330
29BF
100
AcDbEntity
  8
図枠細線
  6
CONTINUOUS
 62
   252
100
AcDbLine
 10
121.061011071051
 20
1.806607574787
 30
0.0
 11
121.061011071051
 21
16.806605574787
 31
0.0
  0
LINE
  5
29E1
330
29BF
100
AcDbEntity
  8
図枠太線
  6
CONTINUOUS
 62
   251
100
AcDbLine
 10
284.061011071051
 20
1.806608253358
 30
0.0
 11
284.061011071051
 21
31.806606253358
 31
0.0
  0
LINE
  5
29E2
330
29BF
100
AcDbEntity
  8
図枠細線
  6
CONTINUOUS
 62
   252
100
AcDbLine
 10
214.061011071051
 20
16.806606253358
 30
0.0
 11
284.061011071051
 21
16.806606253358
 31
0.0
  0
TEXT
  5
29E3
330
29BF
100
AcDbEntity
  8
図枠細線
  6
CONTINUOUS
 62
   252
100
AcDbText
 10
146.199593676182
 20
3.454099253358
 30
0.0
 40
3.5
  1
ＴＯＷＡ　ＳＥＩＤＥＮ　ＩＮＤＵＳＴＲＩＡＬ　ＣＯ．，ＬＴＤ．
 41
0.528937826907
  7
EXCADSTD
 72
     5
 11
213.339435171588
 21
3.454099253358
 31
0.0
100
AcDbText
  0
LINE
  5
29E4
330
29BF
100
AcDbEntity
  8
図枠太線
  6
CONTINUOUS
 62
   251
100
AcDbLine
 10
144.061011071051
 20
1.806608253358
 30
0.0
 11
144.061011071051
 21
31.806606253358
 31
0.0
  0
LINE
  5
29E5
330
29BF
100
AcDbEntity
  8
図枠太線
  6
CONTINUOUS
 62
   251
100
AcDbLine
 10
214.061011071051
 20
1.806608253358
 30
0.0
 11
214.061011071051
 21
31.806606253358
 31
0.0
  0
MTEXT
  5
29E6
330
29BF
100
AcDbEntity
  8
図枠太線
100
AcDbMText
 10
5.064337346478
 20
31.010982137407
 30
0.0
 40
2.5
 41
8.67856098472
 71
     1
 72
     5
  1
{\Fmonotxt.shx,bigfont.shx|c128;図暦}
  0
LINE
  5
29E7
330
29BF
100
AcDbEntity
  8
図枠太線
  6
CONTINUOUS
 62
   251
100
AcDbLine
 10
4.061011071051
 20
1.806608253358
 30
0.0
 11
4.061011071051
 21
31.806606253358
 31
0.0
  0
TEXT
  5
29E8
330
29BF
100
AcDbEntity
  8
図枠細線
 48
10.0
100
AcDbText
 10
12.260817420402
 20
28.625419626495
 30
0.0
 40
2.0
  1
CHANGE NOTICE
100
AcDbText
  0
ENDBLK
  5
29E9
330
29BF
100
AcDbEntity
  8
0
100
AcDbBlockEnd
  0
BLOCK
  5
29F5
330
29F4
100
AcDbEntity
  8
0
100
AcDbBlockBegin
  2
A4縦用_タイトル
 70
     0
 10
0.0
 20
0.0
 30
0.0
  3
A4縦用_タイトル
  1

  0
LINE
  5
29F6
330
29F4
100
AcDbEntity
  8
図枠太線
  6
CONTINUOUS
 62
   251
100
AcDbLine
 10
2.368253864267
 20
4.525433224584
 30
0.0
 11
192.368245864267
 21
4.525433224584
 31
0.0
  0
LINE
  5
29F7
330
29F4
100
AcDbEntity
  8
図枠太線
  6
CONTINUOUS
 62
   251
100
AcDbLine
 10
78.368245864267
 20
19.525431224584
 30
0.0
 11
135.368253864267
 21
19.525431224584
 31
0.0
  0
LINE
  5
29F8
330
29F4
100
AcDbEntity
  8
図枠細線
  6
CONTINUOUS
 62
   252
100
AcDbLine
 10
78.368253864267
 20
27.025431224584
 30
0.0
 11
135.368253864267
 21
27.025431224584
 31
0.0
  0
TEXT
  5
29F9
330
29F4
100
AcDbEntity
  8
図枠ロゴマーク
  6
CONTINUOUS
 62
   253
100
AcDbText
 10
80.617009864267
 20
11.117825224584
 30
0.0
 40
7.0
  1
東和制電工業株式会社
 41
0.639204545455
  7
EXCADSTD
 72
     5
 11
133.117009864267
 21
11.117825224584
 31
0.0
100
AcDbText
  0
TEXT
  5
29FA
330
29F4
100
AcDbEntity
  8
図枠細線
  6
CONTINUOUS
 62
   252
100
AcDbText
 10
80.579549864267
 20
6.172924224584
 30
0.0
 40
3.5
  1
ＴＯＷＡ　ＳＥＩＤＥＮ　ＩＮＤＵＳＴＲＩＡＬ　ＣＯ．，ＬＴＤ．
 41
0.414568012377
  7
EXCADSTD
 72
     5
 11
133.202049568628
 21
6.172924224584
 31
0.0
100
AcDbText
  0
LINE
  5
29FB
330
29F4
100
AcDbEntity
  8
図枠太線
  6
CONTINUOUS
 62
   251
100
AcDbLine
 10
2.368253864267
 20
4.525433224584
 30
0.0
 11
2.368253864267
 21
34.525431224584
 31
0.0
  0
TEXT
  5
29FC
330
29F4
100
AcDbEntity
  8
図枠細線
  6
CONTINUOUS
 62
   252
100
AcDbText
 10
22.504308136501
 20
12.279133224584
 30
0.0
 40
2.0
  1
ＴＨＩＲＤ　ＡＮＧＬＥ
 41
0.691099486738
  7
EXCADSTD
 72
     5
 11
40.104308398762
 21
12.279133224584
 31
0.0
100
AcDbText
  0
TEXT
  5
29FD
330
29F4
100
AcDbEntity
  8
図枠細線
  6
CONTINUOUS
 62
   252
100
AcDbText
 10
22.429384136501
 20
9.357144224584
 30
0.0
 40
2.0
  1
ＰＲＯＪＥＣＴＩＯＮ
 41
0.754285710199
  7
EXCADSTD
 72
     5
 11
40.029384041134
 21
9.357144224584
 31
0.0
100
AcDbText
  0
LINE
  5
29FE
330
29F4
100
AcDbEntity
  8
図枠細線
  6
CONTINUOUS
100
AcDbLine
 10
22.368253864267
 20
19.525433224584
 30
0.0
 11
78.368253864267
 21
19.525431224584
 31
0.0
  0
TEXT
  5
29FF
330
29F4
100
AcDbEntity
  8
図枠細線
  6
CONTINUOUS
 62
   252
100
AcDbText
 10
22.868253864267
 20
17.025433224584
 30
0.0
 40
2.0
  1
第三角法
 41
1.102941176471
  7
EXCADSTD
 72
     5
 11
32.868253864267
 21
17.025433224584
 31
0.0
100
AcDbText
  0
TEXT
  5
2A00
330
29F4
100
AcDbEntity
  8
図枠細線
  6
CONTINUOUS
 62
   252
100
AcDbText
 10
22.868253864267
 20
29.525433224584
 30
0.0
 40
2.0
  1
ＡＰＰＲＯＶＥＤ
 41
0.695652184279
  7
EXCADSTD
 72
     5
 11
35.668254055002
 21
29.525433224584
 31
0.0
100
AcDbText
  0
LINE
  5
2A01
330
29F4
100
AcDbEntity
  8
図枠細線
  6
CONTINUOUS
 62
   252
100
AcDbLine
 10
2.368253864267
 20
9.525433224584
 30
0.0
 11
22.368253864267
 21
9.525433224584
 31
0.0
  0
LINE
  5
2A02
330
29F4
100
AcDbEntity
  8
図枠細線
  6
CONTINUOUS
 62
   252
100
AcDbLine
 10
2.368253864267
 20
14.525431224584
 30
0.0
 11
22.368253864267
 21
14.525431224584
 31
0.0
  0
LINE
  5
2A03
330
29F4
100
AcDbEntity
  8
図枠細線
  6
CONTINUOUS
 62
   252
100
AcDbLine
 10
2.368253864267
 20
24.525431224584
 30
0.0
 11
22.368253864267
 21
24.525431224584
 31
0.0
  0
LINE
  5
2A04
330
29F4
100
AcDbEntity
  8
図枠細線
  6
CONTINUOUS
 62
   252
100
AcDbLine
 10
2.368253864267
 20
29.525431224584
 30
0.0
 11
22.368253864267
 21
29.525431224584
 31
0.0
  0
LINE
  5
2A05
330
29F4
100
AcDbEntity
  8
図枠細線
  6
CONTINUOUS
100
AcDbLine
 10
2.368253864267
 20
19.525433224584
 30
0.0
 11
22.368253864267
 21
19.525433224584
 31
0.0
  0
TEXT
  5
2A06
330
29F4
100
AcDbEntity
  8
図枠細線
  6
CONTINUOUS
 62
   252
100
AcDbText
 10
2.868253864267
 20
32.025433224584
 30
0.0
 40
2.0
  1
ＮＯＴＥ
 41
0.923076923077
  7
EXCADSTD
 72
     5
 11
10.868253864267
 21
32.025433224584
 31
0.0
100
AcDbText
  0
LINE
  5
2A07
330
29F4
100
AcDbEntity
  8
図枠太線
  6
CONTINUOUS
 62
   251
100
AcDbLine
 10
22.368253864267
 20
4.525433224584
 30
0.0
 11
22.368253864267
 21
34.525431224584
 31
0.0
  0
TEXT
  5
2A08
330
29F4
100
AcDbEntity
  8
図枠細線
  6
CONTINUOUS
 62
   252
100
AcDbText
 10
22.868253864267
 20
32.025433224584
 30
0.0
 40
2.0
  1
承認
 41
1.171875
  7
EXCADSTD
 72
     5
 11
27.868253864267
 21
32.025433224584
 31
0.0
100
AcDbText
  0
TEXT
  5
2A09
330
29F4
100
AcDbEntity
  8
図枠細線
  6
CONTINUOUS
 62
   252
100
AcDbText
 10
60.711709035982
 20
32.025433224584
 30
0.0
 40
2.0
  1
製図
 41
1.209677419355
  7
EXCADSTD
 72
     5
 11
65.711709035982
 21
32.025433224584
 31
0.0
100
AcDbText
  0
TEXT
  5
2A0A
330
29F4
100
AcDbEntity
  8
図枠細線
  6
CONTINUOUS
 62
   252
100
AcDbText
 10
60.711709035982
 20
29.525433224584
 30
0.0
 40
2.0
  1
ＤＲＡＷＮ
 41
0.882352941176
  7
EXCADSTD
 72
     5
 11
70.711709035982
 21
29.525433224584
 31
0.0
100
AcDbText
  0
TEXT
  5
2A0B
330
29F4
100
AcDbEntity
  8
図枠細線
  6
CONTINUOUS
 62
   252
100
AcDbText
 10
60.834891743877
 20
17.025433224584
 30
0.0
 40
2.0
  1
日付
 41
1.171875
  7
EXCADSTD
 72
     5
 11
65.834891743877
 21
17.025433224584
 31
0.0
100
AcDbText
  0
TEXT
  5
2A0C
330
29F4
100
AcDbEntity
  8
図枠細線
  6
CONTINUOUS
 62
   252
100
AcDbText
 10
47.333660864267
 20
17.025433224584
 30
0.0
 40
2.0
  1
ＳＣＡＬＥ
 41
0.903614457831
  7
EXCADSTD
 72
     5
 11
57.333660864267
 21
17.025433224584
 31
0.0
100
AcDbText
  0
TEXT
  5
2A0D
330
29F4
100
AcDbEntity
  8
図枠細線
  6
CONTINUOUS
 62
   252
100
AcDbText
 10
42.281425990082
 20
29.525433224584
 30
0.0
 40
2.0
  1
ＣＨＥＣＫＥＤ
 41
0.831249989569
  7
EXCADSTD
 72
     5
 11
55.581425823189
 21
29.525433224584
 31
0.0
100
AcDbText
  0
LINE
  5
2A0E
330
29F4
100
AcDbEntity
  8
図枠細線
  6
CONTINUOUS
 62
   252
100
AcDbLine
 10
40.968253864267
 20
34.525431224584
 30
0.0
 11
40.968253864267
 21
19.525431224584
 31
0.0
  0
LINE
  5
2A0F
330
29F4
100
AcDbEntity
  8
図枠細線
  6
CONTINUOUS
 62
   252
100
AcDbLine
 10
40.968253864267
 20
4.525433224584
 30
0.0
 11
40.968253864267
 21
19.525431224584
 31
0.0
  0
TEXT
  5
2A10
330
29F4
100
AcDbEntity
  8
図枠細線
  6
CONTINUOUS
 62
   252
100
AcDbText
 10
41.961173864267
 20
17.025433224584
 30
0.0
 40
2.0
  1
尺度
 41
1.171875
  7
EXCADSTD
 72
     5
 11
46.961173864267
 21
17.025433224584
 31
0.0
100
AcDbText
  0
TEXT
  5
2A11
330
29F4
100
AcDbEntity
  8
図枠細線
  6
CONTINUOUS
 62
   252
100
AcDbText
 10
42.281425990082
 20
32.025433224584
 30
0.0
 40
2.0
  1
検図
 41
1.209677419355
  7
EXCADSTD
 72
     5
 11
47.281425990082
 21
32.025433224584
 31
0.0
100
AcDbText
  0
LINE
  5
2A12
330
29F4
100
AcDbEntity
  8
図枠細線
  6
CONTINUOUS
 62
   252
100
AcDbLine
 10
59.768253864267
 20
34.525431224584
 30
0.0
 11
59.768253864267
 21
19.525431224584
 31
0.0
  0
LINE
  5
2A13
330
29F4
100
AcDbEntity
  8
図枠細線
  6
CONTINUOUS
 62
   252
100
AcDbLine
 10
59.768253864267
 20
4.525433224584
 30
0.0
 11
59.768253864267
 21
19.525431224584
 31
0.0
  0
LINE
  5
2A14
330
29F4
100
AcDbEntity
  8
図枠太線
  6
CONTINUOUS
 62
   251
100
AcDbLine
 10
78.368253864267
 20
4.525433224584
 30
0.0
 11
78.368253864267
 21
34.525431224584
 31
0.0
  0
TEXT
  5
2A15
330
29F4
100
AcDbEntity
  8
図枠細線
  6
CONTINUOUS
 62
   252
100
AcDbText
 10
66.334891743877
 20
17.025433224584
 30
0.0
 40
2.0
  1
ＤＡＴＥ
 41
0.923076923077
  7
EXCADSTD
 72
     5
 11
74.334891743877
 21
17.025433224584
 31
0.0
100
AcDbText
  0
LINE
  5
2A16
330
29F4
100
AcDbEntity
  8
図枠細線
  6
CONTINUOUS
 62
   252
100
AcDbLine
 10
135.368253864267
 20
19.525431224584
 30
0.0
 11
192.368245864267
 21
19.525431224584
 31
0.0
  0
TEXT
  5
2A17
330
29F4
100
AcDbEntity
  8
図枠細線
  6
CONTINUOUS
 62
   252
100
AcDbText
 10
141.868253864267
 20
32.025433224584
 30
0.0
 40
2.0
  1
ＴＩＴＬＥ
 41
0.903614457831
  7
EXCADSTD
 72
     5
 11
151.868253864267
 21
32.025433224584
 31
0.0
100
AcDbText
  0
LINE
  5
2A18
330
29F4
100
AcDbEntity
  8
図枠太線
  6
CONTINUOUS
 62
   251
100
AcDbLine
 10
135.368253864267
 20
4.525433224584
 30
0.0
 11
135.368253864267
 21
34.525431224584
 31
0.0
  0
TEXT
  5
2A19
330
29F4
100
AcDbEntity
  8
図枠細線
  6
CONTINUOUS
 62
   252
100
AcDbText
 10
135.868253864267
 20
17.025433224584
 30
0.0
 40
2.0
  1
図面番号
 41
1.102941176471
  7
EXCADSTD
 72
     5
 11
145.868253864267
 21
17.025433224584
 31
0.0
100
AcDbText
  0
TEXT
  5
2A1A
330
29F4
100
AcDbEntity
  8
図枠細線
  6
CONTINUOUS
 62
   252
100
AcDbText
 10
135.868253864267
 20
32.025433224584
 30
0.0
 40
2.0
  1
名称
 41
1.171875
  7
EXCADSTD
 72
     5
 11
140.868253864267
 21
32.025433224584
 31
0.0
100
AcDbText
  0
TEXT
  5
2A1B
330
29F4
100
AcDbEntity
  8
図枠細線
  6
CONTINUOUS
 62
   252
100
AcDbText
 10
146.868253864267
 20
17.025433224584
 30
0.0
 40
2.0
  1
ＤＲＧ．ＮＯ．
 41
0.9375
  7
EXCADSTD
 72
     5
 11
160.868253864267
 21
17.025433224584
 31
0.0
100
AcDbText
  0
LINE
  5
2A1C
330
29F4
100
AcDbEntity
  8
図枠太線
  6
CONTINUOUS
 62
   251
100
AcDbLine
 10
192.368245864267
 20
4.525433224584
 30
0.0
 11
192.368245864267
 21
34.525431224584
 31
0.0
  0
ENDBLK
  5
2A1D
330
29F4
100
AcDbEntity
  8
0
100
AcDbBlockEnd
  0
BLOCK
  5
2A33
330
2A32
100
AcDbEntity
  8
0
100
AcDbBlockBegin
  2
A3横用_タイトル
 70
     0
 10
0.0
 20
0.0
 30
0.0
  3
A3横用_タイトル
  1

  0
LINE
  5
2A34
330
2A32
100
AcDbEntity
  8
図枠細線
  6
CONTINUOUS
 62
   252
100
AcDbLine
 10
205.098414535793
 20
33.525959753527
 30
0.0
 11
305.098414535793
 21
33.525959753527
 31
0.0
  0
LINE
  5
2A35
330
2A32
100
AcDbEntity
  8
図枠太線
  6
CONTINUOUS
 62
   251
100
AcDbLine
 10
205.098414535793
 20
23.525959753527
 30
0.0
 11
305.098414535793
 21
23.525959753527
 31
0.0
  0
LINE
  5
2A36
330
2A32
100
AcDbEntity
  8
図枠細線
  6
CONTINUOUS
100
AcDbLine
 10
5.098414535793
 20
23.525959753527
 30
0.0
 11
105.098414535793
 21
23.525959753527
 31
0.0
  0
LINE
  5
2A37
330
2A32
100
AcDbEntity
  8
図枠細線
  6
CONTINUOUS
 62
   252
100
AcDbLine
 10
5.098414535793
 20
36.725957753527
 30
0.0
 11
105.098414535793
 21
36.725957753527
 31
0.0
  0
LINE
  5
2A38
330
2A32
100
AcDbEntity
  8
図枠細線
  6
CONTINUOUS
 62
   252
100
AcDbLine
 10
5.098414535793
 20
30.125957753527
 30
0.0
 11
105.098414535793
 21
30.125957753527
 31
0.0
  0
LINE
  5
2A39
330
2A32
100
AcDbEntity
  8
図枠細線
  6
CONTINUOUS
 62
   252
100
AcDbLine
 10
5.098414535793
 20
16.725959753527
 30
0.0
 11
105.098414535793
 21
16.725959753527
 31
0.0
  0
LINE
  5
2A3A
330
2A32
100
AcDbEntity
  8
図枠細線
  6
CONTINUOUS
 62
   252
100
AcDbLine
 10
5.098414535793
 20
10.125959753527
 30
0.0
 11
105.098414535793
 21
10.125959753527
 31
0.0
  0
LINE
  5
2A3B
330
2A32
100
AcDbEntity
  8
図枠細線
  6
CONTINUOUS
100
AcDbLine
 10
105.098414535793
 20
23.525961753527
 30
0.0
 11
205.098414535793
 21
23.525959753527
 31
0.0
  0
LINE
  5
2A3C
330
2A32
100
AcDbEntity
  8
図枠細線
  6
CONTINUOUS
 62
   252
100
AcDbLine
 10
138.398414535793
 20
43.525959753527
 30
0.0
 11
138.398414535793
 21
18.525957753527
 31
0.0
  0
LINE
  5
2A3D
330
2A32
100
AcDbEntity
  8
図枠細線
  6
CONTINUOUS
 62
   252
100
AcDbLine
 10
171.698414535793
 20
43.525959753527
 30
0.0
 11
171.698414535793
 21
18.525957753527
 31
0.0
  0
LINE
  5
2A3E
330
2A32
100
AcDbEntity
  8
図枠細線
  6
CONTINUOUS
 62
   252
100
AcDbLine
 10
305.098414535793
 20
23.525959753527
 30
0.0
 11
405.098414535793
 21
23.525959753527
 31
0.0
  0
TEXT
  5
2A3F
330
2A32
100
AcDbEntity
  8
図枠ロゴマーク
  6
CONTINUOUS
 62
   253
100
AcDbText
 10
206.102509212755
 20
13.294257570546
 30
0.0
 40
7.0
  1
東和制電工業株式会社
 50
0.016555220185
 41
1.186384129432
  7
EXCADSTD
 72
     5
 11
303.544188309143
 21
13.322412672217
 31
0.0
100
AcDbText
  0
MTEXT
  5
2A40
330
2A32
100
AcDbEntity
  8
図枠細線
100
AcDbMText
 10
6.356764112375
 20
41.976594175478
 30
0.0
 40
2.5
 41
49.938282706292
 71
     1
 72
     5
  1
{\Fmonotxt.shx,bigfont.shx|c128;図暦　CHANGE　NOTICE}
  0
MTEXT
  5
2A41
330
2A32
100
AcDbEntity
  8
図枠細線
 48
10.0
100
AcDbMText
 10
306.544114926828
 20
41.701835800934
 30
0.0
 40
2.5
 41
28.002809618823
 71
     1
 72
     5
  1
{\Fmonotxt.shx,bigfont.shx|c128;名称　TITLE}
  0
MTEXT
  5
2A42
330
2A32
100
AcDbEntity
  8
図枠細線
 48
10.0
100
AcDbMText
 10
307.329617114284
 20
21.606206797226
 30
0.0
 40
2.5
 41
24.385612216707
 71
     1
 72
     5
  1
{\Fmonotxt.shx,bigfont.shx|c128;図面番号\PDRG.　No.}
  0
MTEXT
  5
2A43
330
2A32
100
AcDbEntity
  8
図枠細線
 48
10.0
100
AcDbMText
 10
173.726349404609
 20
21.73680662198
 30
0.0
 40
2.5
 41
25.735090160813
 71
     1
 72
     5
  1
{\Fmonotxt.shx,bigfont.shx|c128;日付 DATE}
  0
MTEXT
  5
2A44
330
2A32
100
AcDbEntity
  8
図枠細線
 48
10.0
100
AcDbMText
 10
173.48708833982
 20
41.621592044998
 30
0.0
 40
2.5
 41
24.983741184205
 71
     1
 72
     5
  1
{\Fmonotxt.shx,bigfont.shx|c128;製図　DRAWN}
  0
MTEXT
  5
2A45
330
2A32
100
AcDbEntity
  8
図枠細線
 48
10.0
100
AcDbMText
 10
139.28009927741
 20
21.866713069868
 30
0.0
 40
2.5
 41
22.629632913243
 71
     1
 72
     5
  1
{\Fmonotxt.shx,bigfont.shx|c128;尺度　SCALE}
  0
MTEXT
  5
2A46
330
2A32
100
AcDbEntity
  8
図枠細線
 48
10.0
100
AcDbMText
 10
139.910091179835
 20
41.311840415554
 30
0.0
 40
2.5
 41
28.998753428368
 71
     1
 72
     5
  1
{\Fmonotxt.shx,bigfont.shx|c128;検図  CHECKED}
  0
MTEXT
  5
2A47
330
2A32
100
AcDbEntity
  8
図枠細線
 48
10.0
100
AcDbMText
 10
114.253294667728
 20
21.916124850174
 30
0.0
 40
3.0
 41
19.692400475383
 71
     1
 72
     5
  1
{\Fmonotxt.shx,bigfont.shx|c128;第三角法}
  0
MTEXT
  5
2A48
330
2A32
100
AcDbEntity
  8
図枠細線
 48
10.0
100
AcDbMText
 10
108.986959929915
 20
15.282880185837
 30
0.0
 40
2.5
 41
27.954882823547
 71
     1
 72
     5
  1
{\Fmonotxt.shx,bigfont.shx|c128;THIRD ANGLE\PPROJECTION}
  0
MTEXT
  5
2A49
330
2A32
100
AcDbEntity
  8
図枠細線
 48
10.0
100
AcDbMText
 10
106.319432640184
 20
41.511437145487
 30
0.0
 40
2.5
 41
28.233595265074
 71
     1
 72
     5
  1
{\Fmonotxt.shx,bigfont.shx|c128;承認 APPROVED}
  0
LINE
  5
2A4A
330
2A32
100
AcDbEntity
  8
図枠太線
  6
CONTINUOUS
 62
   251
100
AcDbLine
 10
5.098414535793
 20
3.525959753527
 30
0.0
 11
405.098414535793
 21
3.525959753527
 31
0.0
  0
LINE
  5
2A4B
330
2A32
100
AcDbEntity
  8
図枠太線
 48
10.0
100
AcDbLine
 10
5.098414535793
 20
3.525959753527
 30
0.0
 11
5.098414535793
 21
43.525959753527
 31
0.0
  0
LINE
  5
2A4C
330
2A32
100
AcDbEntity
  8
図枠太線
  6
CONTINUOUS
 62
   251
100
AcDbLine
 10
105.098414535793
 20
3.525959753527
 30
0.0
 11
105.098414535793
 21
43.525959753527
 31
0.0
  0
LINE
  5
2A4D
330
2A32
100
AcDbEntity
  8
図枠細線
  6
CONTINUOUS
 62
   252
100
AcDbLine
 10
138.398414535793
 20
3.525959753527
 30
0.0
 11
138.398414535793
 21
18.525957753527
 31
0.0
  0
LINE
  5
2A4E
330
2A32
100
AcDbEntity
  8
図枠細線
  6
CONTINUOUS
 62
   252
100
AcDbLine
 10
171.698414535793
 20
3.525959753527
 30
0.0
 11
171.698414535793
 21
18.525957753527
 31
0.0
  0
LINE
  5
2A4F
330
2A32
100
AcDbEntity
  8
図枠太線
  6
CONTINUOUS
 62
   251
100
AcDbLine
 10
205.098414535793
 20
3.525959753527
 30
0.0
 11
205.098414535793
 21
43.525959753527
 31
0.0
  0
LINE
  5
2A50
330
2A32
100
AcDbEntity
  8
図枠太線
 48
10.0
100
AcDbLine
 10
405.098414535793
 20
43.525959753527
 30
0.0
 11
405.098414535793
 21
3.525959753527
 31
0.0
  0
TEXT
  5
2A51
330
2A32
100
AcDbEntity
  8
図枠細線
  6
CONTINUOUS
 62
   252
100
AcDbText
 10
208.519754474572
 20
6.482358407285
 30
0.0
 40
3.5
  1
ＴＯＷＡ　ＳＥＩＤＥＮ　ＩＮＤＵＳＴＲＩＡＬ　ＣＯ．，ＬＴＤ．
 41
0.746656297509
  7
EXCADSTD
 72
     5
 11
303.295327171727
 21
6.482358407285
 31
0.0
100
AcDbText
  0
LINE
  5
2A52
330
2A32
100
AcDbEntity
  8
図枠太線
  6
CONTINUOUS
 62
   251
100
AcDbLine
 10
305.098414535793
 20
3.525959753527
 30
0.0
 11
305.098414535793
 21
43.525959753527
 31
0.0
  0
ENDBLK
  5
2A53
330
2A32
100
AcDbEntity
  8
0
100
AcDbBlockEnd
  0
BLOCK
  5
2A6D
330
2A6C
100
AcDbEntity
  8
0
100
AcDbBlockBegin
  2
A3縦用_タイトル
 70
     0
 10
0.0
 20
0.0
 30
0.0
  3
A3縦用_タイトル
  1

  0
MTEXT
  5
2A6E
330
2A6C
100
AcDbEntity
  8
図枠細線
100
AcDbMText
 10
5.040804501593
 20
31.626098649005
 30
0.0
 40
2.5
 41
49.938282706292
 71
     1
 72
     5
  1
{\Fmonotxt.shx,bigfont.shx|c128;図暦　CHANGE　NOTICE}
  0
LINE
  5
2A6F
330
2A6C
100
AcDbEntity
  8
図枠太線
  6
CONTINUOUS
 62
   251
100
AcDbLine
 10
283.577871882961
 20
2.820844689254
 30
0.0
 11
283.577871882961
 21
32.820842689254
 31
0.0
  0
MTEXT
  5
2A70
330
2A6C
100
AcDbEntity
  8
図枠細線
 48
10.0
100
AcDbMText
 10
214.912458947454
 20
31.621488632308
 30
0.0
 40
2.5
 41
28.002809618823
 71
     1
 72
     5
  1
{\Fmonotxt.shx,bigfont.shx|c128;名称　TITLE}
  0
MTEXT
  5
2A71
330
2A6C
100
AcDbEntity
  8
図枠細線
 48
10.0
100
AcDbMText
 10
214.740030458938
 20
16.310225796722
 30
0.0
 40
2.5
 41
24.385612216707
 71
     1
 72
     5
  1
{\Fmonotxt.shx,bigfont.shx|c128;図面番号\PDRG.　No.}
  0
LINE
  5
2A72
330
2A6C
100
AcDbEntity
  8
図枠太線
  6
CONTINUOUS
 62
   251
100
AcDbLine
 10
213.577871882961
 20
2.820844689254
 30
0.0
 11
213.577871882961
 21
32.820842689254
 31
0.0
  0
LINE
  5
2A73
330
2A6C
100
AcDbEntity
  8
図枠太線
  6
CONTINUOUS
 62
   251
100
AcDbLine
 10
143.577871882961
 20
2.820844689254
 30
0.0
 11
143.577871882961
 21
32.820842689254
 31
0.0
  0
TEXT
  5
2A74
330
2A6C
100
AcDbEntity
  8
図枠細線
  6
CONTINUOUS
 62
   252
100
AcDbText
 10
145.716454488093
 20
4.468335689254
 30
0.0
 40
3.5
  1
ＴＯＷＡ　ＳＥＩＤＥＮ　ＩＮＤＵＳＴＲＩＡＬ　ＣＯ．，ＬＴＤ．
 41
0.528937826907
  7
EXCADSTD
 72
     5
 11
212.856295983498
 21
4.468335689254
 31
0.0
100
AcDbText
  0
TEXT
  5
2A75
330
2A6C
100
AcDbEntity
  8
図枠ロゴマーク
  6
CONTINUOUS
 62
   253
100
AcDbText
 10
145.950637593507
 20
9.413236689254
 30
0.0
 40
7.0
  1
東和制電工業株式会社
 41
0.80361088462
  7
EXCADSTD
 72
     5
 11
211.953878250259
 21
9.413236689254
 31
0.0
100
AcDbText
  0
LINE
  5
2A76
330
2A6C
100
AcDbEntity
  8
図枠細線
  6
CONTINUOUS
 62
   252
100
AcDbLine
 10
143.577871882961
 20
25.320842689254
 30
0.0
 11
213.577871882961
 21
25.320842689254
 31
0.0
  0
LINE
  5
2A77
330
2A6C
100
AcDbEntity
  8
図枠太線
  6
CONTINUOUS
 62
   251
100
AcDbLine
 10
143.577863882961
 20
17.820842689254
 30
0.0
 11
213.577871882961
 21
17.820842689254
 31
0.0
  0
LINE
  5
2A78
330
2A6C
100
AcDbEntity
  8
図枠細線
  6
CONTINUOUS
 62
   252
100
AcDbLine
 10
213.577871882961
 20
17.820842689254
 30
0.0
 11
283.577871882961
 21
17.820842689254
 31
0.0
  0
LINE
  5
2A79
330
2A6C
100
AcDbEntity
  8
図枠細線
  6
CONTINUOUS
 62
   252
100
AcDbLine
 10
120.577871882961
 20
32.820842689254
 30
0.0
 11
120.577871882961
 21
17.820842689254
 31
0.0
  0
MTEXT
  5
2A7A
330
2A6C
100
AcDbEntity
  8
図枠細線
 48
10.0
100
AcDbMText
 10
121.100885670352
 20
16.33785922638
 30
0.0
 40
2.0
 41
17.705978285068
 71
     1
 72
     5
  1
{\Fmonotxt.shx,bigfont.shx|c128;日付 DATE}
  0
MTEXT
  5
2A7B
330
2A6C
100
AcDbEntity
  8
図枠細線
 48
10.0
100
AcDbMText
 10
121.254842273491
 20
31.208993514037
 30
0.0
 40
2.0
 41
18.363799568758
 71
     1
 72
     5
  1
{\Fmonotxt.shx,bigfont.shx|c128;製図　DRAWN}
  0
LINE
  5
2A7C
330
2A6C
100
AcDbEntity
  8
図枠細線
  6
CONTINUOUS
 62
   252
100
AcDbLine
 10
97.577871882961
 20
32.820842689254
 30
0.0
 11
97.577871882961
 21
17.820842689254
 31
0.0
  0
MTEXT
  5
2A7D
330
2A6C
100
AcDbEntity
  8
図枠細線
 48
10.0
100
AcDbMText
 10
98.239734796872
 20
16.467764839281
 30
0.0
 40
2.0
 41
17.757791689903
 71
     1
 72
     5
  1
{\Fmonotxt.shx,bigfont.shx|c128;尺度　SCALE}
  0
MTEXT
  5
2A7E
330
2A6C
100
AcDbEntity
  8
図枠細線
 48
10.0
100
AcDbMText
 10
97.864744625154
 20
31.298433377664
 30
0.0
 40
2.0
 41
23.162655920976
 71
     1
 72
     5
  1
{\Fmonotxt.shx,bigfont.shx|c128;検図  CHECKED}
  0
LINE
  5
2A7F
330
2A6C
100
AcDbEntity
  8
図枠細線
  6
CONTINUOUS
 62
   252
100
AcDbLine
 10
97.577871882961
 20
2.820843367826
 30
0.0
 11
97.577871882961
 21
17.820841367826
 31
0.0
  0
LINE
  5
2A80
330
2A6C
100
AcDbEntity
  8
図枠細線
  6
CONTINUOUS
 62
   252
100
AcDbLine
 10
120.577871882961
 20
2.820844010683
 30
0.0
 11
120.577871882961
 21
17.820842010683
 31
0.0
  0
MTEXT
  5
2A81
330
2A6C
100
AcDbEntity
  8
図枠細線
 48
10.0
100
AcDbMText
 10
81.402399084102
 20
16.316484117426
 30
0.0
 40
2.0
 41
12.920322819369
 71
     1
 72
     5
  1
{\Fmonotxt.shx,bigfont.shx|c128;第三角法}
  0
MTEXT
  5
2A82
330
2A6C
100
AcDbEntity
  8
図枠細線
 48
10.0
100
AcDbMText
 10
75.736576535096
 20
11.080410931319
 30
0.0
 40
2.0
 41
21.072870671471
 71
     1
 72
     5
  1
{\Fmonotxt.shx,bigfont.shx|c128;THIRD ANGLE\PPROJECTION}
  0
LINE
  5
2A83
330
2A6C
100
AcDbEntity
  8
図枠太線
  6
CONTINUOUS
 62
   251
100
AcDbLine
 10
74.577871882961
 20
2.820844689254
 30
0.0
 11
74.577871882961
 21
32.820842689254
 31
0.0
  0
MTEXT
  5
2A84
330
2A6C
100
AcDbEntity
  8
図枠細線
 48
10.0
100
AcDbMText
 10
75.060214781573
 20
31.298434778555
 30
0.0
 40
2.0
 41
22.240928805967
 71
     1
 72
     5
  1
{\Fmonotxt.shx,bigfont.shx|c128;承認 APPROVED}
  0
LINE
  5
2A85
330
2A6C
100
AcDbEntity
  8
図枠細線
  6
CONTINUOUS
100
AcDbLine
 10
3.577871882961
 20
17.820844689254
 30
0.0
 11
74.577871882961
 21
17.820844689254
 31
0.0
  0
LINE
  5
2A86
330
2A6C
100
AcDbEntity
  8
図枠細線
  6
CONTINUOUS
 62
   252
100
AcDbLine
 10
3.577871882961
 20
27.820842689254
 30
0.0
 11
74.577871882961
 21
27.820842689254
 31
0.0
  0
LINE
  5
2A87
330
2A6C
100
AcDbEntity
  8
図枠細線
  6
CONTINUOUS
 62
   252
100
AcDbLine
 10
3.577871882961
 20
22.820842689254
 30
0.0
 11
74.577871882961
 21
22.820842689254
 31
0.0
  0
LINE
  5
2A88
330
2A6C
100
AcDbEntity
  8
図枠細線
  6
CONTINUOUS
 62
   252
100
AcDbLine
 10
3.577871882961
 20
12.820842689254
 30
0.0
 11
74.577871882961
 21
12.820842689254
 31
0.0
  0
LINE
  5
2A89
330
2A6C
100
AcDbEntity
  8
図枠細線
  6
CONTINUOUS
 62
   252
100
AcDbLine
 10
3.577871882961
 20
7.820844689254
 30
0.0
 11
74.577871882961
 21
7.820844689254
 31
0.0
  0
LINE
  5
2A8A
330
2A6C
100
AcDbEntity
  8
図枠細線
  6
CONTINUOUS
100
AcDbLine
 10
74.577871882961
 20
17.820843689254
 30
0.0
 11
143.577871882961
 21
17.820841224969
 31
0.0
  0
LINE
  5
2A8B
330
2A6C
100
AcDbEntity
  8
図枠太線
  6
CONTINUOUS
 62
   251
100
AcDbLine
 10
3.577871882961
 20
2.820844689254
 30
0.0
 11
283.577871882961
 21
2.820844689254
 31
0.0
  0
LINE
  5
2A8C
330
2A6C
100
AcDbEntity
  8
図枠太線
  6
CONTINUOUS
 62
   251
100
AcDbLine
 10
3.577871882961
 20
2.820844689254
 30
0.0
 11
3.577871882961
 21
32.820842689254
 31
0.0
  0
ENDBLK
  5
2A8D
330
2A6C
100
AcDbEntity
  8
0
100
AcDbBlockEnd
  0
BLOCK
  5
2AF8
330
2AF4
100
AcDbEntity
  8
0
 48
10.0
100
AcDbBlockBegin
  2
_OPEN30
 70
     0
 10
0.0
 20
0.0
 30
0.0
  3
_OPEN30
  1

  0
LINE
  5
2AF5
330
2AF4
100
AcDbEntity
  8
0
  6
BYBLOCK
 62
     0
100
AcDbLine
 10
-1.0
 20
0.26794919
 30
0.0
 11
0.0
 21
0.0
 31
0.0
  0
LINE
  5
2AF6
330
2AF4
100
AcDbEntity
  8
0
  6
BYBLOCK
 62
     0
100
AcDbLine
 10
0.0
 20
0.0
 30
0.0
 11
-1.0
 21
-0.26794919
 31
0.0
  0
LINE
  5
2AF7
330
2AF4
100
AcDbEntity
  8
0
  6
BYBLOCK
 62
     0
100
AcDbLine
 10
0.0
 20
0.0
 30
0.0
 11
-1.0
 21
0.0
 31
0.0
  0
ENDBLK
  5
2AF9
330
2AF4
100
AcDbEntity
  8
0
 48
10.0
100
AcDbBlockEnd
  0
BLOCK
  5
424B
330
4242
100
AcDbEntity
  8
0
 48
10.0
100
AcDbBlockBegin
  2
*D6
 70
     1
 10
0.0
 20
0.0
 30
0.0
  3
*D6
  1

  0
LINE
  5
460B
330
4242
100
AcDbEntity
  8
寸法線
 62
     0
 48
10.0
100
AcDbLine
 10
255.559579180367
 20
1068.897615741336
 30
0.0
 11
255.559579180367
 21
965.660567201736
 31
0.0
  0
LINE
  5
460C
330
4242
100
AcDbEntity
  8
寸法線
 62
     0
 48
10.0
100
AcDbLine
 10
576.770925453221
 20
966.285567201736
 30
0.0
 11
576.770925453221
 21
965.660567201736
 31
0.0
  0
LINE
  5
460D
330
4242
100
AcDbEntity
  8
寸法線
 62
     0
 48
10.0
100
AcDbLine
 10
261.559579180367
 20
966.910567201736
 30
0.0
 11
570.770925453221
 21
966.910567201736
 31
0.0
  0
INSERT
  5
460E
330
4242
100
AcDbEntity
  8
寸法線
 62
     0
100
AcDbBlockReference
  2
_OPEN30
 10
255.559579180367
 20
966.910567201736
 30
0.0
 41
6.0
 42
6.0
 43
6.0
 50
180.0
  0
INSERT
  5
460F
330
4242
100
AcDbEntity
  8
寸法線
 62
     0
100
AcDbBlockReference
  2
_OPEN30
 10
576.770925453221
 20
966.910567201736
 30
0.0
 41
6.0
 42
6.0
 43
6.0
  0
POINT
  5
4610
330
4242
100
AcDbEntity
  8
DEFPOINTS
 62
     0
100
AcDbPoint
 10
255.559579180367
 20
1069.522615741336
 30
0.0
  0
POINT
  5
4611
330
4242
100
AcDbEntity
  8
DEFPOINTS
 62
     0
100
AcDbPoint
 10
576.770925453221
 20
966.910567201736
 30
0.0
  0
POINT
  5
4612
330
4242
100
AcDbEntity
  8
DEFPOINTS
 62
     0
100
AcDbPoint
 10
576.770925453221
 20
966.910567201736
 30
0.0
  0
ENDBLK
  5
424C
330
4242
100
AcDbEntity
  8
0
 48
10.0
100
AcDbBlockEnd
  0
BLOCK
  5
427D
330
4273
100
AcDbEntity
  8
0
 48
10.0
100
AcDbBlockBegin
  2
*D7
 70
     1
 10
0.0
 20
0.0
 30
0.0
  3
*D7
  1

  0
LINE
  5
461C
330
4273
100
AcDbEntity
  8
寸法線
 62
     0
 48
10.0
100
AcDbLine
 10
692.270955453213
 20
1039.252896478086
 30
0.0
 11
692.270955453213
 21
965.660567201736
 31
0.0
  0
LINE
  5
461D
330
4273
100
AcDbEntity
  8
寸法線
 62
     0
 48
10.0
100
AcDbLine
 10
576.770925453221
 20
1056.285567201736
 30
0.0
 11
576.770925453221
 21
965.660567201736
 31
0.0
  0
LINE
  5
461E
330
4273
100
AcDbEntity
  8
寸法線
 62
     0
 48
10.0
100
AcDbLine
 10
686.270955453213
 20
966.910567201736
 30
0.0
 11
582.770925453221
 21
966.910567201736
 31
0.0
  0
INSERT
  5
461F
330
4273
100
AcDbEntity
  8
寸法線
 62
     0
100
AcDbBlockReference
  2
_OPEN30
 10
692.270955453213
 20
966.910567201736
 30
0.0
 41
6.0
 42
6.0
 43
6.0
  0
INSERT
  5
4620
330
4273
100
AcDbEntity
  8
寸法線
 62
     0
100
AcDbBlockReference
  2
_OPEN30
 10
576.770925453221
 20
966.910567201736
 30
0.0
 41
6.0
 42
6.0
 43
6.0
 50
180.0
  0
MTEXT
  5
4621
330
4273
100
AcDbEntity
  8
寸法線
 62
     0
 48
10.0
100
AcDbMText
 10
634.520940453217
 20
971.543900535069
 30
0.0
 40
8.0
 41
0.0
 71
     5
 72
     1
  1
\A1;118
  0
POINT
  5
4622
330
4273
100
AcDbEntity
  8
DEFPOINTS
 62
     0
100
AcDbPoint
 10
692.270955453213
 20
1039.877896478086
 30
0.0
  0
POINT
  5
4623
330
4273
100
AcDbEntity
  8
DEFPOINTS
 62
     0
100
AcDbPoint
 10
576.770925453221
 20
1056.910567201736
 30
0.0
  0
POINT
  5
4624
330
4273
100
AcDbEntity
  8
DEFPOINTS
 62
     0
100
AcDbPoint
 10
576.770925453221
 20
966.910567201736
 30
0.0
  0
ENDBLK
  5
427E
330
4273
100
AcDbEntity
  8
0
 48
10.0
100
AcDbBlockEnd
  0
BLOCK
  5
42A1
330
4297
100
AcDbEntity
  8
0
 48
10.0
100
AcDbBlockBegin
  2
*D8
 70
     1
 10
0.0
 20
0.0
 30
0.0
  3
*D8
  1

  0
LINE
  5
42F8
330
4297
100
AcDbEntity
  8
寸法線
 62
     0
 48
10.0
100
AcDbLine
 10
665.178748265139
 20
1034.01132687162
 30
0.0
 11
734.598142752522
 21
1034.01132687162
 31
0.0
  0
LINE
  5
42F9
330
4297
100
AcDbEntity
  8
寸法線
 62
     0
 48
10.0
100
AcDbLine
 10
665.178748265139
 20
1134.578830875444
 30
0.0
 11
734.598142752522
 21
1134.578830875444
 31
0.0
  0
LINE
  5
42FA
330
4297
100
AcDbEntity
  8
寸法線
 62
     0
 48
10.0
100
AcDbLine
 10
733.348142752522
 20
1040.01132687162
 30
0.0
 11
733.348142752522
 21
1128.578830875444
 31
0.0
  0
INSERT
  5
42FB
330
4297
100
AcDbEntity
  8
寸法線
 62
     0
 48
10.0
100
AcDbBlockReference
  2
_OPEN30
 10
733.348142752522
 20
1034.01132687162
 30
0.0
 41
6.0
 42
6.0
 43
6.0
 50
270.0
  0
INSERT
  5
42FC
330
4297
100
AcDbEntity
  8
寸法線
 62
     0
 48
10.0
100
AcDbBlockReference
  2
_OPEN30
 10
733.348142752522
 20
1134.578830875444
 30
0.0
 41
6.0
 42
6.0
 43
6.0
 50
90.0
  0
MTEXT
  5
42FD
330
4297
100
AcDbEntity
  8
寸法線
 62
     0
 48
10.0
100
AcDbMText
 10
728.723142752522
 20
1084.295078873532
 30
0.0
 40
8.0
 41
0.0
 71
     5
 72
     1
  1
\A1;φ100
 11
6.123031769111886E-17
 21
1.0
 31
0.0
  0
POINT
  5
42FE
330
4297
100
AcDbEntity
  8
DEFPOINTS
 62
     0
 48
10.0
100
AcDbPoint
 10
664.553748265139
 20
1034.01132687162
 30
0.0
  0
POINT
  5
42FF
330
4297
100
AcDbEntity
  8
DEFPOINTS
 62
     0
 48
10.0
100
AcDbPoint
 10
664.553748265139
 20
1134.578830875444
 30
0.0
  0
POINT
  5
4300
330
4297
100
AcDbEntity
  8
DEFPOINTS
 62
     0
 48
10.0
100
AcDbPoint
 10
733.348142752522
 20
1134.578830875444
 30
0.0
  0
ENDBLK
  5
42A2
330
4297
100
AcDbEntity
  8
0
 48
10.0
100
AcDbBlockEnd
  0
BLOCK
  5
42AD
330
42A3
100
AcDbEntity
  8
0
 48
10.0
100
AcDbBlockBegin
  2
*D9
 70
     1
 10
0.0
 20
0.0
 30
0.0
  3
*D9
  1

  0
LINE
  5
4301
330
42A3
100
AcDbEntity
  8
寸法線
 62
     0
 48
10.0
100
AcDbLine
 10
692.895201948709
 20
1084.410567201736
 30
0.0
 11
712.915108922424
 21
1084.410567201736
 31
0.0
  0
LINE
  5
4302
330
42A3
100
AcDbEntity
  8
寸法線
 62
     0
 48
10.0
100
AcDbLine
 10
650.322639914221
 20
995.410567201736
 30
0.0
 11
712.915108922424
 21
995.410567201736
 31
0.0
  0
LINE
  5
4303
330
42A3
100
AcDbEntity
  8
寸法線
 62
     0
 48
10.0
100
AcDbLine
 10
711.665108922424
 20
1078.410567201736
 30
0.0
 11
711.665108922424
 21
1001.410567201736
 31
0.0
  0
INSERT
  5
4304
330
42A3
100
AcDbEntity
  8
寸法線
 62
     0
100
AcDbBlockReference
  2
_OPEN30
 10
711.665108922424
 20
1084.410567201736
 30
0.0
 41
6.0
 42
6.0
 43
6.0
 50
90.0
  0
INSERT
  5
4305
330
42A3
100
AcDbEntity
  8
寸法線
 62
     0
100
AcDbBlockReference
  2
_OPEN30
 10
711.665108922424
 20
995.410567201736
 30
0.0
 41
6.0
 42
6.0
 43
6.0
 50
270.0
  0
MTEXT
  5
4306
330
42A3
100
AcDbEntity
  8
寸法線
 62
     0
 48
10.0
100
AcDbMText
 10
707.031775589091
 20
1045.108597018115
 30
0.0
 40
8.0
 41
0.0
 71
     5
 72
     1
  1
\A1;89
 11
0.0
 21
1.0
 31
0.0
  0
POINT
  5
4307
330
42A3
100
AcDbEntity
  8
DEFPOINTS
 62
     0
100
AcDbPoint
 10
692.270201948709
 20
1084.410567201736
 30
0.0
  0
POINT
  5
4308
330
42A3
100
AcDbEntity
  8
DEFPOINTS
 62
     0
100
AcDbPoint
 10
649.697639914221
 20
995.410567201736
 30
0.0
  0
POINT
  5
4309
330
42A3
100
AcDbEntity
  8
DEFPOINTS
 62
     0
100
AcDbPoint
 10
711.665108922424
 20
995.410567201736
 30
0.0
  0
ENDBLK
  5
42AE
330
42A3
100
AcDbEntity
  8
0
 48
10.0
100
AcDbBlockEnd
  0
ENDSEC
  0
SECTION
  2
ENTITIES
  0
LINE
  5
33A8
330
1A
100
AcDbEntity
  8
寸法線
100
AcDbLine
 10
282.990248421043
 20
944.577733895096
 30
0.0
 11
282.990248421043
 21
894.577733895096
 31
0.0
  0
LINE
  5
33A9
330
1A
100
AcDbEntity
  8
寸法線
100
AcDbLine
 10
282.990248421043
 20
944.577733895096
 30
0.0
 11
137.790248421043
 21
944.577733895096
 31
0.0
  0
LINE
  5
33AA
330
1A
100
AcDbEntity
  8
寸法線
100
AcDbLine
 10
137.790248421043
 20
944.577733895096
 30
0.0
 11
137.790248421043
 21
894.577733895096
 31
0.0
  0
LINE
  5
33AB
330
1A
100
AcDbEntity
  8
寸法線
100
AcDbLine
 10
144.990248421043
 20
892.577733895096
 30
0.0
 11
144.990248421043
 21
854.577733895096
 31
0.0
  0
LINE
  5
33AC
330
1A
100
AcDbEntity
  8
寸法線
100
AcDbLine
 10
275.790248421043
 20
892.577733895096
 30
0.0
 11
275.790248421043
 21
854.577733895096
 31
0.0
  0
CIRCLE
  5
33AD
330
1A
100
AcDbEntity
  8
寸法線
100
AcDbCircle
 10
144.990248421043
 20
894.577733895096
 30
0.0
 40
2.0
  0
CIRCLE
  5
33AE
330
1A
100
AcDbEntity
  8
寸法線
100
AcDbCircle
 10
171.150248421043
 20
894.577733895096
 30
0.0
 40
2.0
  0
CIRCLE
  5
33AF
330
1A
100
AcDbEntity
  8
寸法線
100
AcDbCircle
 10
197.310248421043
 20
894.577733895096
 30
0.0
 40
2.0
  0
CIRCLE
  5
33B0
330
1A
100
AcDbEntity
  8
寸法線
100
AcDbCircle
 10
223.470248421043
 20
894.577733895096
 30
0.0
 40
2.0
  0
CIRCLE
  5
33B1
330
1A
100
AcDbEntity
  8
寸法線
100
AcDbCircle
 10
249.630248421043
 20
894.577733895096
 30
0.0
 40
2.0
  0
CIRCLE
  5
33B2
330
1A
100
AcDbEntity
  8
寸法線
100
AcDbCircle
 10
275.790248421043
 20
894.577733895096
 30
0.0
 40
2.0
  0
LINE
  5
33B3
330
1A
100
AcDbEntity
  8
寸法線
100
AcDbLine
 10
171.150248421043
 20
892.577733895096
 30
0.0
 11
171.150248421043
 21
854.577733895096
 31
0.0
  0
LINE
  5
33B4
330
1A
100
AcDbEntity
  8
寸法線
100
AcDbLine
 10
197.310248421043
 20
892.577733895096
 30
0.0
 11
197.310248421043
 21
854.577733895096
 31
0.0
  0
LINE
  5
33B5
330
1A
100
AcDbEntity
  8
寸法線
100
AcDbLine
 10
223.470248421043
 20
892.577733895096
 30
0.0
 11
223.470248421043
 21
854.577733895096
 31
0.0
  0
LINE
  5
33B6
330
1A
100
AcDbEntity
  8
寸法線
100
AcDbLine
 10
249.630248421043
 20
892.577733895096
 30
0.0
 11
249.630248421043
 21
854.577733895096
 31
0.0
  0
LINE
  5
33B7
330
1A
100
AcDbEntity
  8
寸法線
100
AcDbLine
 10
142.990248421043
 20
894.577733895096
 30
0.0
 11
137.790248421043
 21
894.577733895096
 31
0.0
  0
LINE
  5
33B8
330
1A
100
AcDbEntity
  8
寸法線
100
AcDbLine
 10
146.990248421043
 20
894.577733895096
 30
0.0
 11
169.150248421043
 21
894.577733895096
 31
0.0
  0
LINE
  5
33B9
330
1A
100
AcDbEntity
  8
寸法線
100
AcDbLine
 10
173.150248421043
 20
894.577733895096
 30
0.0
 11
195.310248421043
 21
894.577733895096
 31
0.0
  0
LINE
  5
33BA
330
1A
100
AcDbEntity
  8
寸法線
100
AcDbLine
 10
199.310248421043
 20
894.577733895096
 30
0.0
 11
221.470248421043
 21
894.577733895096
 31
0.0
  0
LINE
  5
33BB
330
1A
100
AcDbEntity
  8
寸法線
100
AcDbLine
 10
225.470248421043
 20
894.577733895096
 30
0.0
 11
247.630248421043
 21
894.577733895096
 31
0.0
  0
LINE
  5
33BC
330
1A
100
AcDbEntity
  8
寸法線
100
AcDbLine
 10
251.630248421043
 20
894.577733895096
 30
0.0
 11
273.790248421043
 21
894.577733895096
 31
0.0
  0
LINE
  5
33BD
330
1A
100
AcDbEntity
  8
寸法線
100
AcDbLine
 10
282.990248421043
 20
894.577733895096
 30
0.0
 11
277.790248421043
 21
894.577733895096
 31
0.0
  0
CIRCLE
  5
33BE
330
1A
100
AcDbEntity
  8
寸法線
100
AcDbCircle
 10
144.790248421043
 20
903.577733895096
 30
0.0
 40
5.0
  0
CIRCLE
  5
33C0
330
1A
100
AcDbEntity
  8
寸法線
100
AcDbCircle
 10
171.190248421043
 20
903.577733895096
 30
0.0
 40
5.0
  0
CIRCLE
  5
33C2
330
1A
100
AcDbEntity
  8
寸法線
100
AcDbCircle
 10
197.390248421043
 20
903.577733895096
 30
0.0
 40
5.0
  0
CIRCLE
  5
33C4
330
1A
100
AcDbEntity
  8
寸法線
100
AcDbCircle
 10
223.590248421043
 20
903.577733895096
 30
0.0
 40
5.0
  0
CIRCLE
  5
33C6
330
1A
100
AcDbEntity
  8
寸法線
100
AcDbCircle
 10
249.790248421043
 20
903.577733895096
 30
0.0
 40
5.0
  0
CIRCLE
  5
33C8
330
1A
100
AcDbEntity
  8
寸法線
100
AcDbCircle
 10
275.990248421043
 20
903.577733895096
 30
0.0
 40
5.0
  0
LINE
  5
33D0
330
1A
100
AcDbEntity
  8
寸法線
100
AcDbLine
 10
135.790248421043
 20
892.577733895096
 30
0.0
 11
135.790248421043
 21
946.577733895096
 31
0.0
  0
LINE
  5
33D1
330
1A
100
AcDbEntity
  8
寸法線
100
AcDbLine
 10
135.790248421043
 20
946.577733895096
 30
0.0
 11
284.990248421043
 21
946.577733895096
 31
0.0
  0
LINE
  5
33D2
330
1A
100
AcDbEntity
  8
寸法線
100
AcDbLine
 10
284.990248421043
 20
892.577733895096
 30
0.0
 11
284.990248421043
 21
946.577733895096
 31
0.0
  0
LINE
  5
33D3
330
1A
100
AcDbEntity
  8
寸法線
100
AcDbLine
 10
135.790248421043
 20
892.577733895096
 30
0.0
 11
284.990248421043
 21
892.577733895096
 31
0.0
  0
LINE
  5
33D4
330
1A
100
AcDbEntity
  8
寸法線
100
AcDbLine
 10
275.790248421043
 20
909.377733895096
 30
0.0
 11
275.790248421043
 21
937.777733895096
 31
0.0
  0
LINE
  5
33D5
330
1A
100
AcDbEntity
  8
寸法線
100
AcDbLine
 10
249.630248421043
 20
909.577733895096
 30
0.0
 11
249.630248421043
 21
918.977733895096
 31
0.0
  0
LINE
  5
33D6
330
1A
100
AcDbEntity
  8
寸法線
100
AcDbLine
 10
223.470248421043
 20
909.577733895096
 30
0.0
 11
223.470248421043
 21
937.777733895096
 31
0.0
  0
CIRCLE
  5
33D7
330
1A
100
AcDbEntity
  8
寸法線
100
AcDbCircle
 10
249.630248421043
 20
920.977733895096
 30
0.0
 40
2.0
  0
LINE
  5
33D8
330
1A
100
AcDbEntity
  8
寸法線
100
AcDbLine
 10
240.699596007184
 20
937.777733895096
 30
0.0
 11
223.470248421043
 21
937.777733895096
 31
0.0
  0
LINE
  5
33D9
330
1A
100
AcDbEntity
  8
寸法線
100
AcDbLine
 10
249.470757976477
 20
922.971364452168
 30
0.0
 11
263.830314297124
 21
939.177733895096
 31
0.0
  0
LINE
  5
33DB
330
1A
100
AcDbEntity
  8
寸法線
100
AcDbLine
 10
262.670248421043
 20
937.777733895096
 30
0.0
 11
275.790248421043
 21
937.777733895096
 31
0.0
  0
POINT
  5
33DC
330
1A
100
AcDbEntity
  8
寸法線
100
AcDbPoint
 10
210.390248421043
 20
894.577733895096
 30
0.0
  0
LINE
  5
33DD
330
1A
100
AcDbEntity
  8
寸法線
100
AcDbLine
 10
210.390248421043
 20
886.157733895096
 30
0.0
 11
210.390248421043
 21
882.617733895096
 31
0.0
  0
CIRCLE
  5
33DE
330
1A
100
AcDbEntity
  8
寸法線
100
AcDbCircle
 10
210.390248421043
 20
881.157733895096
 30
0.0
 40
5.0
  0
LINE
  5
33DF
330
1A
100
AcDbEntity
  8
寸法線
100
AcDbLine
 10
206.730248421043
 20
882.617733895096
 30
0.0
 11
214.250248421043
 21
882.617733895096
 31
0.0
  0
LINE
  5
33E0
330
1A
100
AcDbEntity
  8
寸法線
100
AcDbLine
 10
208.270248421043
 20
880.817733895096
 30
0.0
 11
212.690248421043
 21
880.817733895096
 31
0.0
  0
LINE
  5
33E1
330
1A
100
AcDbEntity
  8
寸法線
100
AcDbLine
 10
209.490248421043
 20
879.077733895096
 30
0.0
 11
211.570248421043
 21
879.077733895096
 31
0.0
  0
LINE
  5
33E2
330
1A
100
AcDbEntity
  8
寸法線
100
AcDbLine
 10
205.990248421043
 20
903.377733895096
 30
0.0
 11
214.790248421043
 21
903.377733895096
 31
0.0
  0
POINT
  5
33E3
330
1A
100
AcDbEntity
  8
寸法線
100
AcDbPoint
 10
210.390248421043
 20
898.977733895096
 30
0.0
  0
CIRCLE
  5
33E4
330
1A
100
AcDbEntity
  8
寸法線
100
AcDbCircle
 10
210.390248421043
 20
898.977733895096
 30
0.0
 40
4.40000000000004
  0
LINE
  5
33E5
330
1A
100
AcDbEntity
  8
寸法線
100
AcDbLine
 10
205.990248421043
 20
894.577733895096
 30
0.0
 11
205.990248421043
 21
903.377733895096
 31
0.0
  0
LINE
  5
33E6
330
1A
100
AcDbEntity
  8
寸法線
100
AcDbLine
 10
214.790248421043
 20
894.577733895096
 30
0.0
 11
214.790248421043
 21
903.377733895096
 31
0.0
  0
LINE
  5
33E7
330
1A
100
AcDbEntity
  8
寸法線
100
AcDbLine
 10
212.390248421043
 20
898.977733895096
 30
0.0
 11
208.390248421043
 21
898.977733895096
 31
0.0
  0
LINE
  5
33E8
330
1A
100
AcDbEntity
  8
寸法線
100
AcDbLine
 10
210.390248421043
 20
896.977733895096
 30
0.0
 11
210.390248421043
 21
900.977733895096
 31
0.0
  0
LINE
  5
33E9
330
1A
100
AcDbEntity
  8
寸法線
100
AcDbLine
 10
210.390248421043
 20
894.577733895096
 30
0.0
 11
210.390248421043
 21
886.157733895096
 31
0.0
  0
MTEXT
  5
3454
330
1A
100
AcDbEntity
  8
寸法線
 48
10.0
100
AcDbMText
 10
140.373469371754
 20
941.449168340119
 30
0.0
 40
8.0
 41
95.557777777778
 71
     1
 72
     5
  1
{\C1;RRH-3□□}
  0
MTEXT
  5
3455
330
1A
100
AcDbEntity
  8
寸法線
 48
10.0
100
AcDbMText
 10
143.590615533951
 20
906.784295583758
 30
0.0
 40
7.0
 41
95.557777777778
 71
     1
 72
     5
  1
{\C1;1}
  0
MTEXT
  5
3456
330
1A
100
AcDbEntity
  8
寸法線
 48
10.0
100
AcDbMText
 10
169.610336325974
 20
906.784295583758
 30
0.0
 40
7.0
 41
95.557777777778
 71
     1
 72
     5
  1
{\C1;2}
  0
MTEXT
  5
3457
330
1A
100
AcDbEntity
  8
寸法線
 48
10.0
100
AcDbMText
 10
196.033424511849
 20
906.784295583758
 30
0.0
 40
7.0
 41
95.557777777778
 71
     1
 72
     5
  1
{\C1;3}
  0
MTEXT
  5
3458
330
1A
100
AcDbEntity
  8
寸法線
 48
10.0
100
AcDbMText
 10
222.018235582815
 20
906.784295583758
 30
0.0
 40
7.0
 41
95.557777777778
 71
     1
 72
     5
  1
{\C1;7}
  0
MTEXT
  5
3459
330
1A
100
AcDbEntity
  8
寸法線
 48
10.0
100
AcDbMText
 10
248.600571181636
 20
906.784295583758
 30
0.0
 40
7.0
 41
95.557777777778
 71
     1
 72
     5
  1
{\C1;8}
  0
MTEXT
  5
345A
330
1A
100
AcDbEntity
  8
寸法線
 48
10.0
100
AcDbMText
 10
274.201373441687
 20
906.784295583758
 30
0.0
 40
7.0
 41
95.557777777778
 71
     1
 72
     5
  1
{\C1;9}
  0
MTEXT
  5
345B
330
1A
100
AcDbEntity
  8
寸法線
 48
10.0
100
AcDbMText
 10
141.00301327016
 20
851.931997963549
 30
0.0
 40
8.0
 41
95.557777777778
 71
     1
 72
     5
  1
{\C1;PE}
  0
MTEXT
  5
345C
330
1A
100
AcDbEntity
  8
寸法線
 48
10.0
100
AcDbMText
 10
168.763854520596
 20
851.931997963549
 30
0.0
 40
8.0
 41
95.557777777778
 71
     1
 72
     5
  1
{\C1;N}
  0
MTEXT
  5
345D
330
1A
100
AcDbEntity
  8
寸法線
 48
10.0
100
AcDbMText
 10
194.657531223942
 20
851.931997963549
 30
0.0
 40
8.0
 41
95.557777777778
 71
     1
 72
     5
  1
{\C1;L1}
  0
MTEXT
  5
345E
330
1A
100
AcDbEntity
  8
寸法線
 48
10.0
100
AcDbMText
 10
218.920309801439
 20
851.931997963549
 30
0.0
 40
8.0
 41
95.557777777778
 71
     1
 72
     5
  1
{\C1;NO}
  0
MTEXT
  5
345F
330
1A
100
AcDbEntity
  8
寸法線
 48
10.0
100
AcDbMText
 10
247.41928417843
 20
851.931997963549
 30
0.0
 40
8.0
 41
95.557777777778
 71
     1
 72
     5
  1
{\C1;C}
  0
MTEXT
  5
3460
330
1A
100
AcDbEntity
  8
寸法線
 48
10.0
100
AcDbMText
 10
270.036985374835
 20
851.931997963549
 30
0.0
 40
8.0
 41
95.557777777778
 71
     1
 72
     5
  1
{\C1;NC}
  0
LINE
  5
40F4
330
1A
100
AcDbEntity
  8
下書線
 48
10.0
100
AcDbLine
 10
759.732100504729
 20
1167.614151625807
 30
0.0
 11
252.407526672891
 21
1167.614151625807
 31
0.0
  0
SPLINE
  5
40F5
330
1A
100
AcDbEntity
  8
寸法線
 48
10.0
100
AcDbSpline
210
0.0
220
0.0
230
1.0
 70
  1064
 71
     3
 72
    13
 73
     9
 74
     7
 42
0.000000001
 43
0.0000000001
 44
0.0000000001
 40
0.0
 40
0.0
 40
0.0
 40
0.0
 40
3.86842211421227
 40
10.12254119268954
 40
15.16331027423529
 40
18.64952359630841
 40
20.50331406220848
 40
21.8476876304271
 40
21.8476876304271
 40
21.8476876304271
 40
21.8476876304271
 10
411.7542521122443
 20
968.440532898216
 30
0.0
 10
412.9046465876025
 20
968.9719460628023
 30
0.0
 10
415.9148960176925
 20
970.3625005292083
 30
0.0
 10
416.6402817337218
 20
980.0699080268291
 30
0.0
 10
412.3494057128341
 20
973.0879951279827
 30
0.0
 10
412.5372997450543
 20
969.5436123368174
 30
0.0
 10
414.7979706879442
 20
968.155082434843
 30
0.0
 10
415.7979024096563
 20
968.6552828899736
 30
0.0
 10
416.2182316242781
 20
968.8655461108445
 30
0.0
 11
411.7542521122443
 21
968.440532898216
 31
0.0
 11
414.836523493643
 21
970.7781155780666
 31
0.0
 11
415.5273775589603
 21
976.9939603403019
 31
0.0
 11
412.8171051227512
 21
972.7438101953079
 31
0.0
 11
413.2953891079831
 21
969.290561325552
 31
0.0
 11
414.9428085336858
 21
968.440532898216
 31
0.0
 11
416.2182316242781
 21
968.8655461108445
 31
0.0
  0
LEADER
  5
40F8
330
1A
100
AcDbEntity
  8
寸法線
 48
10.0
100
AcDbLeader
  3
ISO-25
 76
     3
 10
575.770940453221
 20
1111.910567201736
 30
0.0
 10
589.487203337874
 20
1167.614151625807
 30
0.0
 10
576.921521773552
 20
1167.614151625807
 30
0.0
213
33.33267573159458
223
0.0
233
0.0
1001
ACAD
1000
DSTYLE
1002
{
1070
     5
1000
OPEN30
1070
   147
1040
0.625
1070
    77
1070
     0
1070
    41
1040
6.0
1070
    47
1040
0.1
1070
    48
1040
0.1
1070
    73
1070
     0
1070
   140
1040
5.0
1070
   271
1070
     1
1070
   272
1070
     1
1070
   341
1005
2AF4
1070
   342
1005
2AF4
1002
}
  0
MTEXT
  5
40F9
330
1A
100
AcDbEntity
  8
寸法線
 48
10.0
100
AcDbMText
 10
544.494293657755
 20
1177.048905895989
 30
0.0
 40
8.0
 41
49.459506993344
 71
     1
 72
     5
  1
ガスケット
  0
LEADER
  5
40FA
330
1A
100
AcDbEntity
  8
寸法線
 48
10.0
100
AcDbLeader
  3
ISO-25
 76
     3
 10
631.879667765509
 20
1038.355464515721
 30
0.0
 10
612.232148208905
 20
990.603816475082
 30
0.0
 10
601.530617369773
 20
990.603816475082
 30
0.0
213
19.18300149742902
223
0.0
233
0.0
1001
ACAD
1000
DSTYLE
1002
{
1070
     5
1000
OPEN30
1070
   147
1040
0.625
1070
    77
1070
     0
1070
    41
1040
6.0
1070
    47
1040
0.1
1070
    48
1040
0.1
1070
    73
1070
     0
1070
   140
1040
5.0
1070
   271
1070
     1
1070
   272
1070
     1
1070
   341
1005
2AF4
1070
   342
1005
2AF4
1002
}
  0
LEADER
  5
40FB
330
1A
100
AcDbEntity
  8
寸法線
 48
10.0
100
AcDbLeader
  3
ISO-25
 76
     3
 10
641.094046915865
 20
995.410567201736
 30
0.0
 10
699.398697002717
 20
966.910567201736
 30
0.0
 10
709.424527371229
 20
966.910567201736
 30
0.0
213
-48.77302777535886
223
0.0
233
0.0
1001
ACAD
1000
DSTYLE
1002
{
1070
     5
1000
OPEN30
1070
   147
1040
0.625
1070
    77
1070
     0
1070
    41
1040
6.0
1070
    47
1040
0.1
1070
    48
1040
0.1
1070
    73
1070
     0
1070
   140
1040
5.0
1070
   271
1070
     1
1070
   272
1070
     1
1070
   341
1005
2AF4
1070
   342
1005
2AF4
1002
}
  0
LEADER
  5
40FC
330
1A
100
AcDbEntity
  8
寸法線
 48
10.0
100
AcDbLeader
  3
ISO-25
 76
     3
 10
583.962717099724
 20
1110.968679584459
 30
0.0
 10
606.855646538903
 20
1167.614151625807
 30
0.0
 10
623.180894532727
 20
1167.614151625807
 30
0.0
213
-16.32524799382441
223
0.0
233
0.0
1001
ACAD
1000
DSTYLE
1002
{
1070
     5
1000
OPEN30
1070
   147
1040
0.625
1070
    77
1070
     0
1070
    41
1040
6.0
1070
    47
1040
0.1
1070
    48
1040
0.1
1070
    73
1070
     0
1070
   140
1040
5.0
1070
   271
1070
     1
1070
   272
1070
     1
1070
   341
1005
2AF4
1070
   342
1005
2AF4
1002
}
  0
MTEXT
  5
40FD
102
{ACAD_XDICTIONARY
360
50B5
102
}
330
1A
100
AcDbEntity
  8
寸法線
 48
10.0
100
AcDbMText
 10
608.884646528847
 20
1176.37682402525
 30
0.0
 40
8.0
 41
49.592740337165
 71
     1
 72
     5
  1
平径46
1001
ACADANNOTATIVE
1000
AnnotativeData
1002
{
1070
     1
1070
     0
1002
}
  0
LINE
  5
40FE
330
1A
100
AcDbEntity
  8
外形線
100
AcDbLine
 10
576.77095545322
 20
1111.910567201736
 30
0.0
 11
576.77095545322
 21
1056.910567201736
 31
0.0
  0
LINE
  5
40FF
330
1A
100
AcDbEntity
  8
外形線
100
AcDbLine
 10
574.77095545322
 20
1111.910567201736
 30
0.0
 11
576.770925453221
 21
1111.910567201736
 31
0.0
  0
LINE
  5
4100
330
1A
100
AcDbEntity
  8
外形線
100
AcDbLine
 10
574.77095545322
 20
1056.910567201736
 30
0.0
 11
576.770925453221
 21
1056.910567201736
 31
0.0
  0
LINE
  5
4101
330
1A
100
AcDbEntity
  8
外形線
100
AcDbLine
 10
574.77095545322
 20
1111.910567201736
 30
0.0
 11
574.77095545322
 21
1056.910567201736
 31
0.0
  0
MTEXT
  5
4158
330
1A
100
AcDbEntity
  8
寸法線
 48
10.0
100
AcDbMText
 10
325.175271277592
 20
1170.432892765631
 30
0.0
 40
8.0
 41
0.0
 71
     9
 72
     1
  1
振動部（検知部）\PDIN1.4571（SUS316相当）
  0
LEADER
  5
4159
330
1A
100
AcDbEntity
  8
寸法線
 48
10.0
100
AcDbLeader
  3
ISO-25
 76
     3
 10
566.282521459335
 20
1108.370231067282
 30
0.0
 10
517.368471217361
 20
1167.614151625807
 30
0.0
 10
502.291813137784
 20
1167.614151625807
 30
0.0
213
15.0766580795771
223
0.0
233
0.0
1001
ACAD
1000
DSTYLE
1002
{
1070
     5
1000
OPEN30
1070
   147
1040
0.625
1070
    77
1070
     0
1070
    41
1040
6.0
1070
    47
1040
0.1
1070
    48
1040
0.1
1070
    73
1070
     0
1070
   140
1040
5.0
1070
   271
1070
     1
1070
   272
1070
     1
1070
   341
1005
2AF4
1070
   342
1005
2AF4
1002
}
  0
MTEXT
  5
415A
102
{ACAD_XDICTIONARY
360
4E01
102
}
330
1A
100
AcDbEntity
  8
寸法線
 48
10.0
100
AcDbMText
 10
516.931822435179
 20
1193.497800838767
 30
0.0
 40
8.0
 41
39.44464816509
 71
     3
 72
     5
  1
\A1;取付ねじ\PG1 {\H0.7x;\S1#2;}"
1001
ACADANNOTATIVE
1000
AnnotativeData
1002
{
1070
     1
1070
     0
1002
}
  0
LINE
  5
415B
330
1A
100
AcDbEntity
  8
細線
100
AcDbLine
 10
557.794087465449
 20
1062.063811904925
 30
0.0
 11
574.770955453221
 21
1062.063811904924
 31
0.0
  0
DIMENSION
  5
415D
330
1A
100
AcDbEntity
  8
寸法線
 48
10.0
100
AcDbDimension
  2
*D6
 10
576.770925453221
 20
966.910567201736
 30
0.0
 11
414.372155013719
 21
966.910567201736
 31
0.0
 70
    32
  1
 
  3
ISO-25
100
AcDbAlignedDimension
 13
255.559579180367
 23
1069.522615741336
 33
0.0
 14
576.770925453221
 24
966.910567201736
 34
0.0
100
AcDbRotatedDimension
1001
ACAD
1000
DSTYLE
1002
{
1070
     5
1000
OPEN30
1070
    41
1040
6.0
1070
    47
1040
0.1
1070
    48
1040
0.1
1070
    73
1070
     0
1070
   140
1040
8.0
1070
   271
1070
     1
1070
   272
1070
     1
1070
   341
1005
2AF4
1002
}
  0
LINE
  5
415E
330
1A
100
AcDbEntity
  8
外形線
100
AcDbLine
 10
576.77095545322
 20
1058.454264680727
 30
0.0
 11
576.77095545322
 21
1110.366869722744
 31
0.0
  0
LWPOLYLINE
  5
4170
330
1A
100
AcDbEntity
  8
細線
100
AcDbPolyline
 90
       67
 70
     0
 43
0.0
 10
483.855109206393
 20
1099.210567201736
 10
483.894870625239
 20
1099.103837596556
 10
484.004735713991
 20
1098.800555499118
 10
484.170575720969
 20
1098.326080986582
 10
484.378261894499
 20
1097.705774136106
 10
484.613665482899
 20
1096.964995024848
 10
484.862657734493
 20
1096.129103729966
 10
485.111109897603
 20
1095.223460328618
 10
485.344893220549
 20
1094.273424897962
 10
485.549878951657
 20
1093.304357515158
 10
485.711938339247
 20
1092.341618257364
 10
485.816942631639
 20
1091.410567201736
 10
485.853883286359
 20
1090.57150128419
 10
485.831391165557
 20
1089.779617110778
 10
485.754693271971
 20
1089.030276676438
 10
485.629016608341
 20
1088.31884197612
 10
485.459588177405
 20
1087.640675004766
 10
485.251634981897
 20
1086.991137757318
 10
485.010384024559
 20
1086.365592228722
 10
484.741062308125
 20
1085.759400413922
 10
484.448896835335
 20
1085.167924307862
 10
484.139114608927
 20
1084.586525905484
 10
483.816942631639
 20
1084.010567201736
 10
483.488258456697
 20
1083.436263195242
 10
483.158832875381
 20
1082.858546749302
 10
482.835067725721
 20
1082.273205913862
 10
482.523364845747
 20
1081.676028738864
 10
482.230126073487
 20
1081.062803274256
 10
481.961753246975
 20
1080.429317569984
 10
481.724648204237
 20
1079.771359675992
 10
481.525212783305
 20
1079.084717642224
 10
481.369848822207
 20
1078.36517951863
 10
481.264958158975
 20
1077.608533355152
 10
481.216942631639
 20
1076.810567201736
 10
481.232510010027
 20
1075.92733452884
 10
481.311704690083
 20
1075.01600271536
 10
481.448268634357
 20
1074.09875971362
 10
481.635943805399
 20
1073.197793475952
 10
481.868472165757
 20
1072.33529195468
 10
482.139595677985
 20
1071.533443102132
 10
482.44305630463
 20
1070.814434870638
 10
482.772596008243
 20
1070.200455212524
 10
483.121956751375
 20
1069.713692080116
 10
483.484880496575
 20
1069.376333425746
 10
483.855109206393
 20
1069.210567201736
 10
484.275100791409
 20
1069.248647899926
 10
484.685835598173
 20
1069.511250654142
 10
485.076713922405
 20
1069.974329399164
 10
485.437136059827
 20
1070.61383806977
 10
485.756502306159
 20
1071.405730600738
 10
486.024212957123
 20
1072.325960926844
 10
486.229668308439
 20
1073.350482982872
 10
486.362268655828
 20
1074.455250703596
 10
486.411414295009
 20
1075.616218023796
 10
486.366505521707
 20
1076.80933887825
 10
486.216942631639
 20
1078.010567201736
 10
486.046628084203
 20
1078.84431514992
 10
485.832305792063
 20
1079.657767803414
 10
485.586665973287
 20
1080.438470700266
 10
485.322398845935
 20
1081.173969378524
 10
485.052194628071
 20
1081.851809376236
 10
484.788743537757
 20
1082.45953623145
 10
484.544735793055
 20
1082.984695482214
 10
484.332861612029
 20
1083.414832666578
 10
484.165811212743
 20
1083.737493322586
 10
484.056274813259
 20
1083.94022298829
 10
484.016942631639
 20
1084.010567201736
  0
LWPOLYLINE
  5
4171
330
1A
100
AcDbEntity
  8
細線
100
AcDbPolyline
 90
       67
 70
     0
 43
0.0
 10
490.432776326489
 20
1069.210567201736
 10
490.393014907645
 20
1069.317296806918
 10
490.283149818893
 20
1069.620578904354
 10
490.117309811913
 20
1070.09505341689
 10
489.909623638385
 20
1070.715360267368
 10
489.674220049985
 20
1071.456139378626
 10
489.425227798391
 20
1072.292030673508
 10
489.176775635281
 20
1073.197674074854
 10
488.942992312333
 20
1074.14770950551
 10
488.738006581228
 20
1075.116776888314
 10
488.575947193637
 20
1076.079516146108
 10
488.470942901245
 20
1077.010567201736
 10
488.434002246525
 20
1077.849633119282
 10
488.456494367327
 20
1078.641517292696
 10
488.533192260912
 20
1079.390857727034
 10
488.658868924541
 20
1080.102292427352
 10
488.828297355479
 20
1080.780459398708
 10
489.036250550985
 20
1081.429996646154
 10
489.277501508325
 20
1082.05554217475
 10
489.546823224757
 20
1082.66173398955
 10
489.838988697547
 20
1083.253210095612
 10
490.148770923955
 20
1083.834608497988
 10
490.470942901245
 20
1084.410567201736
 10
490.799627076187
 20
1084.98487120823
 10
491.129052657503
 20
1085.56258765417
 10
491.452817807163
 20
1086.147928489612
 10
491.764520687137
 20
1086.745105664608
 10
492.057759459395
 20
1087.358331129216
 10
492.326132285909
 20
1087.99181683349
 10
492.563237328647
 20
1088.649774727482
 10
492.762672749579
 20
1089.336416761248
 10
492.918036710677
 20
1090.055954884842
 10
493.022927373907
 20
1090.81260104832
 10
493.070942901245
 20
1091.610567201736
 10
493.055375522855
 20
1092.493799874632
 10
492.976180842799
 20
1093.405131688114
 10
492.839616898525
 20
1094.322374689852
 10
492.651941727485
 20
1095.22334092752
 10
492.419413367125
 20
1096.085842448792
 10
492.148289854899
 20
1096.88769130134
 10
491.844829228253
 20
1097.606699532834
 10
491.515289524641
 20
1098.220679190948
 10
491.165928781509
 20
1098.707442323356
 10
490.803005036309
 20
1099.044800977728
 10
490.432776326489
 20
1099.210567201736
 10
490.012784741473
 20
1099.172486503546
 10
489.602049934711
 20
1098.90988374933
 10
489.211171610477
 20
1098.446805004308
 10
488.850749473057
 20
1097.807296333702
 10
488.531383226725
 20
1097.015403802736
 10
488.263672575761
 20
1096.095173476628
 10
488.058217224445
 20
1095.0706514206
 10
487.925616877057
 20
1093.965883699876
 10
487.876471237875
 20
1092.804916379676
 10
487.921380011177
 20
1091.611795525222
 10
488.070942901245
 20
1090.410567201736
 10
488.241257448681
 20
1089.576819253552
 10
488.455579740819
 20
1088.763366600058
 10
488.701219559597
 20
1087.982663703206
 10
488.965486686949
 20
1087.247165024948
 10
489.235690904813
 20
1086.569325027236
 10
489.499141995127
 20
1085.961598172022
 10
489.743149739829
 20
1085.436438921258
 10
489.955023920853
 20
1085.006301736896
 10
490.122074320139
 20
1084.683641080886
 10
490.231610719625
 20
1084.480911415182
 10
490.270942901245
 20
1084.410567201736
  0
ARC
  5
4172
330
1A
100
AcDbEntity
  8
外形線
100
AcDbCircle
 10
356.022545973121
 20
1104.875273084089
 30
0.0
 40
0.5
100
AcDbArc
 50
90.0
 51
180.0
  0
LINE
  5
4174
330
1A
100
AcDbEntity
  8
外形線
100
AcDbLine
 10
433.489772863878
 20
1099.210567201736
 30
0.0
 11
483.855109206393
 21
1099.210567201736
 31
0.0
  0
LINE
  5
4175
330
1A
100
AcDbEntity
  8
外形線
100
AcDbLine
 10
427.389772863878
 20
1105.375273084089
 30
0.0
 11
433.489772863878
 21
1099.210567201736
 31
0.0
  0
ARC
  5
4176
330
1A
100
AcDbEntity
  8
外形線
100
AcDbCircle
 10
417.239772863878
 20
1105.664931012478
 30
0.0
 40
2.467063378893744
100
AcDbArc
 50
186.742650169572
 51
353.257349830428
  0
LINE
  5
4177
330
1A
100
AcDbEntity
  8
外形線
100
AcDbLine
 10
414.789772863878
 20
1105.375273084089
 30
0.0
 11
356.022545973121
 21
1105.375273084089
 31
0.0
  0
LINE
  5
4178
330
1A
100
AcDbEntity
  8
外形線
100
AcDbLine
 10
427.389772863878
 20
1105.375273084089
 30
0.0
 11
419.689772863878
 21
1105.375273084089
 31
0.0
  0
LINE
  5
4179
330
1A
100
AcDbEntity
  8
細線
100
AcDbLine
 10
557.79408746545
 20
1106.872752075686
 30
0.0
 11
574.770955453221
 21
1106.872752075686
 31
0.0
  0
LINE
  5
417A
330
1A
100
AcDbEntity
  8
外形線
100
AcDbLine
 10
555.864579336494
 20
1106.37359241182
 30
0.0
 11
548.649418739312
 21
1106.37359241182
 31
0.0
  0
LINE
  5
417B
330
1A
100
AcDbEntity
  8
外形線
100
AcDbLine
 10
548.649418739312
 20
1106.37359241182
 30
0.0
 11
542.056494697022
 21
1099.210567201736
 31
0.0
  0
LINE
  5
417C
330
1A
100
AcDbEntity
  8
外形線
100
AcDbLine
 10
490.432776326489
 20
1099.210567201736
 30
0.0
 11
542.056494697022
 21
1099.210567201736
 31
0.0
  0
LINE
  5
417D
330
1A
100
AcDbEntity
  8
外形線
100
AcDbLine
 10
555.864579336494
 20
1106.425380296811
 30
0.0
 11
557.794087465449
 21
1108.370231067282
 31
0.0
  0
LINE
  5
417E
330
1A
100
AcDbEntity
  8
外形線
100
AcDbLine
 10
574.770955453221
 20
1108.370231067282
 30
0.0
 11
557.79408746545
 21
1108.370231067282
 31
0.0
  0
ARC
  5
417F
330
1A
100
AcDbEntity
  8
外形線
100
AcDbCircle
 10
356.022545973122
 20
1063.945861319383
 30
0.0
 40
0.5
100
AcDbArc
 50
180.0
 51
270.0
  0
LINE
  5
4181
330
1A
100
AcDbEntity
  8
外形線
100
AcDbLine
 10
355.522545973121
 20
1104.875273084089
 30
0.0
 11
355.522545973121
 21
1063.945861319383
 31
0.0
  0
LINE
  5
4183
330
1A
100
AcDbEntity
  8
外形線
100
AcDbLine
 10
555.864357548527
 20
1062.56297156879
 30
0.0
 11
548.649418739312
 21
1062.56297156879
 31
0.0
  0
LINE
  5
4184
330
1A
100
AcDbEntity
  8
外形線
100
AcDbLine
 10
548.649418739312
 20
1062.56297156879
 30
0.0
 11
548.649418739312
 21
1106.37359241182
 31
0.0
  0
LINE
  5
4185
330
1A
100
AcDbEntity
  8
外形線
100
AcDbLine
 10
574.770955453221
 20
1060.45090333619
 30
0.0
 11
557.794087465449
 21
1060.45090333619
 31
0.0
  0
LINE
  5
4186
330
1A
100
AcDbEntity
  8
外形線
100
AcDbLine
 10
555.864579336494
 20
1062.395754106661
 30
0.0
 11
555.864579336494
 21
1106.425380296811
 31
0.0
  0
LINE
  5
4187
330
1A
100
AcDbEntity
  8
外形線
100
AcDbLine
 10
414.789772863878
 20
1063.445861319383
 30
0.0
 11
414.789772863878
 21
1105.375273084089
 31
0.0
  0
LINE
  5
4188
330
1A
100
AcDbEntity
  8
外形線
100
AcDbLine
 10
419.689772863878
 20
1105.375273084089
 30
0.0
 11
419.689772863878
 21
1063.445861319383
 31
0.0
  0
LINE
  5
4189
330
1A
100
AcDbEntity
  8
外形線
100
AcDbLine
 10
427.389772863878
 20
1063.445861319383
 30
0.0
 11
427.389772863878
 21
1105.375273084089
 31
0.0
  0
LINE
  5
418A
330
1A
100
AcDbEntity
  8
外形線
100
AcDbLine
 10
433.489772863878
 20
1069.210567201736
 30
0.0
 11
433.489772863878
 21
1099.210567201736
 31
0.0
  0
LINE
  5
418B
330
1A
100
AcDbEntity
  8
外形線
100
AcDbLine
 10
541.917590473636
 20
1069.210567201736
 30
0.0
 11
490.432776326489
 21
1069.210567201736
 31
0.0
  0
LINE
  5
418C
330
1A
100
AcDbEntity
  8
外形線
100
AcDbLine
 10
427.389772863878
 20
1063.445861319383
 30
0.0
 11
433.489772863878
 21
1069.210567201736
 31
0.0
  0
ARC
  5
418D
330
1A
100
AcDbEntity
  8
外形線
100
AcDbCircle
 10
417.239772863878
 20
1062.645214260559
 30
0.0
 40
2.577505715377329
100
AcDbArc
 50
18.097118485446
 51
161.902881514554
  0
LINE
  5
418E
330
1A
100
AcDbEntity
  8
外形線
100
AcDbLine
 10
414.789772863878
 20
1063.445861319383
 30
0.0
 11
356.022545973121
 21
1063.445861319383
 31
0.0
  0
LINE
  5
418F
330
1A
100
AcDbEntity
  8
外形線
100
AcDbLine
 10
427.389772863878
 20
1063.445861319383
 30
0.0
 11
419.689772863878
 21
1063.445861319383
 31
0.0
  0
LINE
  5
4190
330
1A
100
AcDbEntity
  8
外形線
100
AcDbLine
 10
542.056494697022
 20
1099.210567201736
 30
0.0
 11
542.100063385272
 21
1069.210567201736
 31
0.0
  0
LINE
  5
4191
330
1A
100
AcDbEntity
  8
外形線
100
AcDbLine
 10
548.649418739312
 20
1062.56297156879
 30
0.0
 11
541.917590473636
 21
1069.210567201736
 31
0.0
  0
LINE
  5
4192
330
1A
100
AcDbEntity
  8
外形線
100
AcDbLine
 10
483.855109206393
 20
1069.210567201736
 30
0.0
 11
433.489772863878
 21
1069.210567201736
 31
0.0
  0
LINE
  5
4193
330
1A
100
AcDbEntity
  8
外形線
100
AcDbLine
 10
555.864579336494
 20
1062.395754106661
 30
0.0
 11
557.794087465449
 21
1060.45090333619
 31
0.0
  0
LINE
  5
4194
330
1A
100
AcDbEntity
  8
外形線
100
AcDbLine
 10
557.794087465449
 20
1108.370231067282
 30
0.0
 11
557.794087465449
 21
1060.45090333619
 31
0.0
  0
LEADER
  5
4195
330
1A
100
AcDbEntity
  8
寸法線
 48
10.0
100
AcDbLeader
  3
ISO-25
 76
     3
 10
328.180748902398
 20
1098.991079294889
 30
0.0
 10
326.151133078268
 20
1167.614151625807
 30
0.0
 10
308.625612201854
 20
1167.614151625807
 30
0.0
213
104.9546210522834
223
0.0
233
0.0
1001
ACAD
1000
DSTYLE
1002
{
1070
     5
1000
OPEN30
1070
   147
1040
0.625
1070
    77
1070
     0
1070
    41
1040
6.0
1070
    47
1040
0.1
1070
    48
1040
0.1
1070
    73
1070
     0
1070
   140
1040
5.0
1070
   271
1070
     1
1070
   272
1070
     1
1070
   341
1005
2AF4
1070
   342
1005
2AF4
1002
}
  0
LEADER
  5
4196
330
1A
100
AcDbEntity
  8
寸法線
 48
10.0
100
AcDbLeader
  3
ISO-25
 76
     3
 10
632.04317495511
 20
1131.468495700068
 30
0.0
 10
677.162291491113
 20
1167.614151625807
 30
0.0
 10
691.067288440218
 20
1167.614151625807
 30
0.0
213
-33.60962898741411
223
0.0
233
0.0
1001
ACAD
1000
DSTYLE
1002
{
1070
     5
1000
OPEN30
1070
   147
1040
0.625
1070
    77
1070
     0
1070
    41
1040
6.0
1070
    47
1040
0.1
1070
    48
1040
0.1
1070
    73
1070
     0
1070
   140
1040
5.0
1070
   271
1070
     1
1070
   272
1070
     1
1070
   341
1005
2AF4
1070
   342
1005
2AF4
1002
}
  0
MTEXT
  5
4197
330
1A
100
AcDbEntity
  8
寸法線
 48
10.0
100
AcDbMText
 10
678.608606270925
 20
1177.382214755375
 30
0.0
 40
8.0
 41
49.592740337165
 71
     1
 72
     5
  1
アルミ鋳物
  0
MTEXT
  5
4198
102
{ACAD_XDICTIONARY
360
4E68
102
}
330
1A
100
AcDbEntity
  8
寸法線
 48
10.0
100
AcDbMText
 10
614.370728005354
 20
1014.899600589145
 30
0.0
 40
8.0
 41
42.299427293917
 71
     3
 72
     5
  1
2×NPT 1/2"
1001
ACADANNOTATIVE
1000
AnnotativeData
1002
{
1070
     1
1070
     0
1002
}
  0
MTEXT
  5
4199
330
1A
100
AcDbEntity
  8
寸法線
 48
10.0
100
AcDbMText
 10
700.891535339441
 20
988.355713060005
 30
0.0
 40
8.0
 41
60.129060420842
 71
     1
 72
     5
  1
コードロック\P2×M20
  0
DIMENSION
  5
419A
330
1A
100
AcDbEntity
  8
寸法線
 48
10.0
100
AcDbDimension
  2
*D7
 10
576.770925453221
 20
966.910567201736
 30
0.0
 11
634.520940453217
 21
971.543900535069
 31
0.0
 70
    32
  1
118
  3
ISO-25
100
AcDbAlignedDimension
 13
692.270955453213
 23
1039.877896478086
 33
0.0
 14
576.770925453221
 24
1056.910567201736
 34
0.0
100
AcDbRotatedDimension
1001
ACAD
1000
DSTYLE
1002
{
1070
     5
1000
OPEN30
1070
    41
1040
6.0
1070
    47
1040
0.1
1070
    48
1040
0.1
1070
    73
1070
     0
1070
   140
1040
8.0
1070
   271
1070
     1
1070
   272
1070
     1
1070
   341
1005
2AF4
1002
}
  0
LINE
  5
419D
330
1A
100
AcDbEntity
  8
中心線
 48
10.0
100
AcDbLine
 10
243.655620372837
 20
1084.410567201736
 30
0.0
 11
692.270201948709
 21
1084.410567201736
 31
0.0
  0
LINE
  5
419E
330
1A
100
AcDbEntity
  8
中心線
 48
10.0
100
AcDbLine
 10
641.094046915865
 20
1029.253139201736
 30
0.0
 11
641.094046915865
 21
991.853139201736
 31
0.0
  0
DIMENSION
  5
419F
330
1A
100
AcDbEntity
  8
寸法線
 48
10.0
100
AcDbDimension
  2
*D8
 10
733.348142752522
 20
1134.578830875444
 30
0.0
 11
728.723142752522
 21
1084.295078873532
 31
0.0
 70
    32
  1
φ100
  3
ISO-25
100
AcDbAlignedDimension
 13
664.553748265139
 23
1034.01132687162
 33
0.0
 14
664.553748265139
 24
1134.578830875444
 34
0.0
 50
90.0
100
AcDbRotatedDimension
1001
ACAD
1000
DSTYLE
1002
{
1070
     5
1000
OPEN30
1070
    41
1040
6.0
1070
    47
1040
0.1
1070
    48
1040
0.1
1070
    73
1070
     0
1070
   140
1040
8.0
1070
   271
1070
     1
1070
   272
1070
     1
1070
   341
1005
2AF4
1002
}
  0
DIMENSION
  5
41A0
330
1A
100
AcDbEntity
  8
寸法線
 48
10.0
100
AcDbDimension
  2
*D9
 10
711.665108922424
 20
995.410567201736
 30
0.0
 11
711.665108922424
 21
1045.108597018115
 31
0.0
 70
   160
  3
ISO-25
100
AcDbAlignedDimension
 13
692.270201948709
 23
1084.410567201736
 33
0.0
 14
649.697639914221
 24
995.410567201736
 34
0.0
 50
90.0
100
AcDbRotatedDimension
1001
ACAD
1000
DSTYLE
1002
{
1070
     5
1000
OPEN30
1070
    41
1040
6.0
1070
    47
1040
0.1
1070
    48
1040
0.1
1070
    73
1070
     0
1070
   140
1040
8.0
1070
   271
1070
     1
1070
   272
1070
     1
1070
   341
1005
2AF4
1002
}
  0
ARC
  5
41A1
330
1A
100
AcDbEntity
  8
外形線
100
AcDbCircle
 10
613.130825307653
 20
1130.431717308276
 30
0.0
 40
1.036778391792
100
AcDbArc
 50
90.0
 51
180.0
  0
ARC
  5
41A2
330
1A
100
AcDbEntity
  8
外形線
100
AcDbCircle
 10
611.057268524069
 20
1129.267450654904
 30
0.0
 40
1.036778391792
100
AcDbArc
 50
305.0
 51
0.0
  0
ARC
  5
41A3
330
1A
100
AcDbEntity
  8
外形線
100
AcDbCircle
 10
613.130825307653
 20
1038.158440438788
 30
0.0
 40
1.036778391792
100
AcDbArc
 50
180.0
 51
270.0
  0
ARC
  5
41A4
330
1A
100
AcDbEntity
  8
外形線
100
AcDbCircle
 10
611.057268524069
 20
1039.322707092162
 30
0.0
 40
1.036778391792
100
AcDbArc
 50
0.0
 51
55.0
  0
LINE
  5
41A5
330
1A
100
AcDbEntity
  8
外形線
100
AcDbLine
 10
591.154478746231
 20
1117.160567201736
 30
0.0
 11
591.154478746231
 21
1051.660567201736
 31
0.0
  0
ARC
  5
41A6
330
1A
100
AcDbEntity
  8
外形線
100
AcDbCircle
 10
605.405087109359
 20
1040.749061696318
 30
0.0
 40
3.110335175376
100
AcDbArc
 50
0.0
 51
55.0
  0
LINE
  5
41A7
330
1A
100
AcDbEntity
  8
外形線
100
AcDbLine
 10
608.515422284735
 20
1040.749061696318
 30
0.0
 11
608.515422284735
 21
1039.517818663444
 31
0.0
  0
LINE
  5
41A8
330
1A
100
AcDbEntity
  8
外形線
100
AcDbLine
 10
692.270955453213
 20
1065.334550794606
 30
0.0
 11
692.270955453213
 21
1078.074408522782
 31
0.0
  0
LINE
  5
41A9
330
1A
100
AcDbEntity
  8
外形線
100
AcDbLine
 10
664.692650231545
 20
1034.529716067516
 30
0.0
 11
664.692650231545
 21
1084.295078873534
 31
0.0
  0
LINE
  5
41AA
330
1A
100
AcDbEntity
  8
外形線
100
AcDbLine
 10
612.094046915861
 20
1129.267450654904
 30
0.0
 11
612.094046915861
 21
1039.322707092162
 31
0.0
  0
LINE
  5
41AB
330
1A
100
AcDbEntity
  8
外形線
100
AcDbLine
 10
653.910154956909
 20
1053.420561014122
 30
0.0
 11
653.910154956909
 21
1131.98905152063
 31
0.0
  0
LINE
  5
41AC
330
1A
100
AcDbEntity
  8
外形線
100
AcDbLine
 10
659.094046915869
 20
1024.197345593528
 30
0.0
 11
659.094046915869
 21
1133.621517912018
 31
0.0
  0
ARC
  5
41AD
330
1A
100
AcDbEntity
  8
外形線
100
AcDbCircle
 10
658.057268524077
 20
1024.197345593528
 30
0.0
 40
1.036778391792
100
AcDbArc
 50
270.0
 51
0.0
  0
LINE
  5
41AE
330
1A
100
AcDbEntity
  8
外形線
100
AcDbLine
 10
623.798788900479
 20
1023.160567201736
 30
0.0
 11
658.057268524077
 21
1023.160567201736
 31
0.0
  0
LINE
  5
41AF
330
1A
100
AcDbEntity
  8
外形線
100
AcDbLine
 10
623.094046915861
 20
1057.583673099252
 30
0.0
 11
650.535536187631
 21
1057.583673099252
 31
0.0
  0
ARC
  5
41B0
330
1A
100
AcDbEntity
  8
外形線
100
AcDbCircle
 10
621.020490132277
 20
1035.048105263412
 30
0.0
 40
2.073556783584
100
AcDbArc
 50
0.0
 51
90.0
  0
LINE
  5
41B1
330
1A
100
AcDbEntity
  8
外形線
100
AcDbLine
 10
623.094046915861
 20
1024.197345593528
 30
0.0
 11
623.094046915861
 21
1057.583673099252
 31
0.0
  0
ARC
  5
41B2
330
1A
100
AcDbEntity
  8
外形線
100
AcDbCircle
 10
624.130825307653
 20
1024.197345593528
 30
0.0
 40
1.036778391792
100
AcDbArc
 50
180.0
 51
270.0
  0
ARC
  5
41B3
330
1A
100
AcDbEntity
  8
外形線
100
AcDbCircle
 10
624.379054621993
 20
1026.270902377112
 30
0.0
 40
3.110335175376
100
AcDbArc
 50
224.999999999993
 51
259.247872764005
  0
LINE
  5
41B4
330
1A
100
AcDbEntity
  8
外形線
100
AcDbLine
 10
613.130825307653
 20
1037.121662046996
 30
0.0
 11
621.020490132277
 21
1037.121662046996
 31
0.0
  0
LINE
  5
41B5
330
1A
100
AcDbEntity
  8
外形線
100
AcDbLine
 10
612.094046915861
 20
1039.322707092162
 30
0.0
 11
612.094046915861
 21
1038.158440438788
 31
0.0
  0
LINE
  5
41B6
330
1A
100
AcDbEntity
  8
外形線
100
AcDbLine
 10
669.876542190507
 20
1064.297772402814
 30
0.0
 11
691.234177061421
 21
1064.297772402814
 31
0.0
  0
LINE
  5
41B7
330
1A
100
AcDbEntity
  8
外形線
100
AcDbLine
 10
664.692650231545
 20
1034.529716067516
 30
0.0
 11
688.340885040229
 21
1035.73646638593
 31
0.0
  0
LINE
  5
41B8
330
1A
100
AcDbEntity
  8
外形線
100
AcDbLine
 10
669.876542190505
 20
1040.108122896884
 30
0.0
 11
687.087063494253
 21
1040.108122896884
 31
0.0
  0
LINE
  5
41B9
330
1A
100
AcDbEntity
  8
外形線
100
AcDbLine
 10
669.876542190505
 20
1039.2909441338
 30
0.0
 11
689.160620277837
 21
1039.2909441338
 31
0.0
  0
LINE
  5
41BA
330
1A
100
AcDbEntity
  8
外形線
100
AcDbLine
 10
669.876542190507
 20
1045.377837431908
 30
0.0
 11
689.160620277837
 21
1045.377837431908
 31
0.0
  0
LINE
  5
41BB
330
1A
100
AcDbEntity
  8
外形線
100
AcDbLine
 10
669.876542190505
 20
1055.884747021298
 30
0.0
 11
687.605452690149
 21
1055.884747021298
 31
0.0
  0
LINE
  5
41BC
330
1A
100
AcDbEntity
  8
外形線
100
AcDbLine
 10
669.876542190505
 20
1055.319008148946
 30
0.0
 11
689.160620277837
 21
1055.319008148946
 31
0.0
  0
LINE
  5
41BD
330
1A
100
AcDbEntity
  8
外形線
100
AcDbLine
 10
659.612436111763
 20
1034.01132687162
 30
0.0
 11
664.553748265139
 21
1034.01132687162
 31
0.0
  0
LINE
  5
41BE
330
1A
100
AcDbEntity
  8
外形線
100
AcDbLine
 10
659.094046915869
 20
1034.529716067516
 30
0.0
 11
659.612436111763
 21
1034.01132687162
 31
0.0
  0
ARC
  5
41BF
330
1A
100
AcDbEntity
  8
外形線
100
AcDbCircle
 10
663.655871839753
 20
1034.529716067516
 30
0.0
 40
1.036778391792
100
AcDbArc
 50
330.000000000007
 51
0.0
  0
LWPOLYLINE
  5
41C0
330
1A
100
AcDbEntity
  8
外形線
100
AcDbPolyline
 90
       18
 70
     0
 43
0.0
 10
669.876542190505
 20
1039.2909441338
 10
668.923119594101
 20
1039.342764596512
 10
668.002164660713
 20
1039.496461300938
 10
667.145039406035
 20
1039.74680029015
 10
666.380932202603
 20
1040.085256570118
 10
665.735863804789
 20
1040.500304418162
 10
665.231801243205
 20
1040.977809877612
 10
664.885909763827
 20
1041.50151207275
 10
664.709968286135
 20
1042.053576953432
 10
664.709968286135
 20
1042.615204612278
 10
664.885909763827
 20
1043.16726949296
 10
665.231801243205
 20
1043.690971688098
 10
665.735863804789
 20
1044.168477147548
 10
666.380932202603
 20
1044.583524995592
 10
667.145039406035
 20
1044.92198127556
 10
668.002164660713
 20
1045.172320264772
 10
668.923119594101
 20
1045.326016969198
 10
669.876542190505
 20
1045.377837431908
  0
LWPOLYLINE
  5
41C1
330
1A
100
AcDbEntity
  8
外形線
100
AcDbPolyline
 90
        8
 70
     0
 43
0.0
 10
669.876542190505
 20
1040.108122896884
 10
668.867686444163
 20
1040.166204601424
 10
667.897337080973
 20
1040.338232830844
 10
667.002530758063
 20
1040.617641547392
 10
666.217420777567
 20
1040.993766174754
 10
665.571973510627
 20
1041.452250647594
 10
665.090824629745
 20
1041.975595359204
 10
664.792338805217
 20
1042.543825093054
  0
LWPOLYLINE
  5
41C2
330
1A
100
AcDbEntity
  8
外形線
100
AcDbPolyline
 90
        8
 70
     0
 43
0.0
 10
669.876542190505
 20
1055.884747021298
 10
668.886083517257
 20
1055.9612158837
 10
667.929366346007
 20
1056.188017441194
 10
667.038982722455
 20
1056.557425348992
 10
666.245264937713
 20
1057.056855157088
 10
665.575252212035
 20
1057.669293018948
 10
665.051769562083
 20
1058.37387529442
 10
664.692650231545
 20
1059.146599301826
  0
LWPOLYLINE
  5
41C3
330
1A
100
AcDbEntity
  8
外形線
100
AcDbPolyline
 90
       18
 70
     0
 43
0.0
 10
669.876542190505
 20
1055.319008148946
 10
668.923162272763
 20
1055.395448410902
 10
668.002248564669
 20
1055.62216611533
 10
667.145161678033
 20
1055.991440662724
 10
666.381088678821
 20
1056.490696851266
 10
665.736049156615
 20
1057.102933110248
 10
665.232009158703
 20
1057.807300468168
 10
664.886133162687
 20
1058.579812539448
 10
664.710199560775
 20
1059.394162352024
 10
664.710199560775
 20
1060.222618199736
 10
664.886133162687
 20
1061.036968012312
 10
665.232009158703
 20
1061.809480083592
 10
665.736049156615
 20
1062.513847441512
 10
666.381088678821
 20
1063.126083700494
 10
667.145161678033
 20
1063.625339889038
 10
668.002248564669
 20
1063.99461443643
 10
668.923162272763
 20
1064.221332140858
 10
669.876542190505
 20
1064.297772402814
  0
ARC
  5
41C4
330
1A
100
AcDbEntity
  8
外形線
100
AcDbCircle
 10
688.123841886045
 20
1039.877896478086
 30
0.0
 40
4.147113567168
100
AcDbArc
 50
272.999999999999
 51
0.0
  0
LINE
  5
41C5
330
1A
100
AcDbEntity
  8
外形線
100
AcDbLine
 10
692.270955453213
 20
1059.501347060516
 30
0.0
 11
692.270955453213
 21
1039.877896478086
 31
0.0
  0
ARC
  5
41C6
330
1A
100
AcDbEntity
  8
外形線
100
AcDbCircle
 10
687.087063494253
 20
1042.181679680468
 30
0.0
 40
2.073556783584
100
AcDbArc
 50
270.0
 51
0.0
  0
LINE
  5
41C7
330
1A
100
AcDbEntity
  8
外形線
100
AcDbLine
 10
689.160620277837
 20
1042.181679680468
 30
0.0
 11
689.160620277837
 21
1045.377837431908
 31
0.0
  0
ARC
  5
41C8
330
1A
100
AcDbEntity
  8
外形線
100
AcDbCircle
 10
689.160620277837
 20
1042.401279309176
 30
0.0
 40
3.110335175376
100
AcDbArc
 50
270.0
 51
0.0
  0
ARC
  5
41C9
330
1A
100
AcDbEntity
  8
外形線
100
AcDbCircle
 10
689.160620277837
 20
1048.488172607284
 30
0.0
 40
3.110335175376
100
AcDbArc
 50
270.0
 51
0.0
  0
ARC
  5
41CA
330
1A
100
AcDbEntity
  8
外形線
100
AcDbCircle
 10
687.605452690149
 20
1057.439914608986
 30
0.0
 40
1.555167587688
100
AcDbArc
 50
270.0
 51
0.0
  0
LINE
  5
41CB
330
1A
100
AcDbEntity
  8
外形線
100
AcDbLine
 10
689.160620277837
 20
1057.439914608986
 30
0.0
 11
689.160620277837
 21
1064.297772402814
 31
0.0
  0
ARC
  5
41CC
330
1A
100
AcDbEntity
  8
外形線
100
AcDbCircle
 10
689.160620277837
 20
1058.429343324322
 30
0.0
 40
3.110335175376
100
AcDbArc
 50
270.0
 51
0.0
  0
ARC
  5
41CD
330
1A
100
AcDbEntity
  8
外形線
100
AcDbCircle
 10
691.234177061421
 20
1065.334550794606
 30
0.0
 40
1.036778391792
100
AcDbArc
 50
270.0
 51
0.0
  0
ARC
  5
41CE
330
1A
100
AcDbEntity
  8
外形線
100
AcDbCircle
 10
691.234177061421
 20
1059.501347060516
 30
0.0
 40
1.036778391792
100
AcDbArc
 50
0.0
 51
52.864563529744
  0
LINE
  5
41CF
330
1A
100
AcDbEntity
  8
外形線
100
AcDbLine
 10
691.860081383883
 20
1060.327877890436
 30
0.0
 11
689.160620277837
 21
1062.372090052202
 31
0.0
  0
LINE
  5
41D0
330
1A
100
AcDbEntity
  8
外形線
100
AcDbLine
 10
613.130825307653
 20
1131.468495700068
 30
0.0
 11
650.955524602567
 21
1131.468495700068
 31
0.0
  0
LINE
  5
41D1
330
1A
100
AcDbEntity
  8
外形線
100
AcDbLine
 10
612.094046915861
 20
1129.267450654904
 30
0.0
 11
612.094046915861
 21
1130.431717308276
 31
0.0
  0
LINE
  5
41D2
330
1A
100
AcDbEntity
  8
外形線
100
AcDbLine
 10
689.160620277837
 20
1126.408478066598
 30
0.0
 11
689.160620277837
 21
1123.212320315158
 31
0.0
  0
LINE
  5
41D3
330
1A
100
AcDbEntity
  8
外形線
100
AcDbLine
 10
692.270955453213
 20
1109.08881068655
 30
0.0
 11
692.270955453213
 21
1128.71226126898
 31
0.0
  0
LINE
  5
41D4
330
1A
100
AcDbEntity
  8
外形線
100
AcDbLine
 10
664.692650231545
 20
1134.060441679548
 30
0.0
 11
664.692650231545
 21
1084.295078873534
 31
0.0
  0
LINE
  5
41D5
330
1A
100
AcDbEntity
  8
外形線
100
AcDbLine
 10
669.876542190507
 20
1104.292385344252
 30
0.0
 11
691.234177061421
 21
1104.292385344252
 31
0.0
  0
LINE
  5
41D6
330
1A
100
AcDbEntity
  8
外形線
100
AcDbLine
 10
669.876542190505
 20
1112.705410725768
 30
0.0
 11
687.605452690149
 21
1112.705410725768
 31
0.0
  0
LINE
  5
41D7
330
1A
100
AcDbEntity
  8
外形線
100
AcDbLine
 10
669.876542190505
 20
1113.27114959812
 30
0.0
 11
689.160620277837
 21
1113.27114959812
 31
0.0
  0
LINE
  5
41D8
330
1A
100
AcDbEntity
  8
外形線
100
AcDbLine
 10
669.876542190507
 20
1123.212320315158
 30
0.0
 11
689.160620277837
 21
1123.212320315158
 31
0.0
  0
LINE
  5
41D9
330
1A
100
AcDbEntity
  8
外形線
100
AcDbLine
 10
669.876542190505
 20
1089.478970832492
 30
0.0
 11
691.234177061421
 21
1089.478970832492
 31
0.0
  0
LINE
  5
41DA
330
1A
100
AcDbEntity
  8
外形線
100
AcDbLine
 10
669.876542190505
 20
1079.111186914572
 30
0.0
 11
691.234177061421
 21
1079.111186914572
 31
0.0
  0
ARC
  5
41DB
330
1A
100
AcDbEntity
  8
外形線
100
AcDbCircle
 10
669.876542190505
 20
1084.295078873534
 30
0.0
 40
5.183891958959999
100
AcDbArc
 50
180.0
 51
270.0
  0
ARC
  5
41DC
330
1A
100
AcDbEntity
  8
外形線
100
AcDbCircle
 10
669.876542190505
 20
1084.295078873534
 30
0.0
 40
5.183891958959999
100
AcDbArc
 50
90.0
 51
180.0
  0
LINE
  5
41DD
330
1A
100
AcDbEntity
  8
外形線
100
AcDbLine
 10
692.270955453213
 20
1103.25560695246
 30
0.0
 11
692.270955453213
 21
1090.515749224284
 31
0.0
  0
LINE
  5
41DE
330
1A
100
AcDbEntity
  8
外形線
100
AcDbLine
 10
689.160620277837
 20
1079.111186914572
 30
0.0
 11
689.160620277837
 21
1084.295078873534
 31
0.0
  0
ARC
  5
41DF
330
1A
100
AcDbEntity
  8
外形線
100
AcDbCircle
 10
691.234177061421
 20
1078.074408522782
 30
0.0
 40
1.036778391792
100
AcDbArc
 50
0.0
 51
90.0
  0
LINE
  5
41E0
330
1A
100
AcDbEntity
  8
外形線
100
AcDbLine
 10
689.160620277837
 20
1089.478970832492
 30
0.0
 11
689.160620277837
 21
1084.295078873534
 31
0.0
  0
ARC
  5
41E1
330
1A
100
AcDbEntity
  8
外形線
100
AcDbCircle
 10
691.234177061421
 20
1090.515749224284
 30
0.0
 40
1.036778391792
100
AcDbArc
 50
270.0
 51
0.0
  0
ARC
  5
41E2
330
1A
100
AcDbEntity
  8
外形線
100
AcDbCircle
 10
689.160620277837
 20
1110.160814422744
 30
0.0
 40
3.110335175376
100
AcDbArc
 50
0.0
 51
90.0
  0
LINE
  5
41E3
330
1A
100
AcDbEntity
  8
外形線
100
AcDbLine
 10
689.160620277837
 20
1111.15024313808
 30
0.0
 11
689.160620277837
 21
1104.292385344252
 31
0.0
  0
ARC
  5
41E4
330
1A
100
AcDbEntity
  8
外形線
100
AcDbCircle
 10
691.234177061421
 20
1109.08881068655
 30
0.0
 40
1.036778391792
100
AcDbArc
 50
307.135436470276
 51
0.0
  0
ARC
  5
41E5
330
1A
100
AcDbEntity
  8
外形線
100
AcDbCircle
 10
691.234177061421
 20
1103.25560695246
 30
0.0
 40
1.036778391792
100
AcDbArc
 50
0.0
 51
90.0
  0
LINE
  5
41E6
330
1A
100
AcDbEntity
  8
外形線
100
AcDbLine
 10
691.860081383883
 20
1108.26227985663
 30
0.0
 11
689.160620277837
 21
1106.218067694864
 31
0.0
  0
ARC
  5
41E7
330
1A
100
AcDbEntity
  8
外形線
100
AcDbCircle
 10
687.605452690149
 20
1111.15024313808
 30
0.0
 40
1.555167587688
100
AcDbArc
 50
0.0
 51
90.0
  0
ARC
  5
41E8
330
1A
100
AcDbEntity
  8
外形線
100
AcDbCircle
 10
689.160620277837
 20
1120.101985139782
 30
0.0
 40
3.110335175376
100
AcDbArc
 50
0.0
 51
90.0
  0
LINE
  5
41E9
330
1A
100
AcDbEntity
  8
外形線
100
AcDbLine
 10
664.692650231545
 20
1134.060441679548
 30
0.0
 11
688.340885040229
 21
1132.853691361136
 31
0.0
  0
LINE
  5
41EA
330
1A
100
AcDbEntity
  8
外形線
100
AcDbLine
 10
669.876542190505
 20
1128.482034850182
 30
0.0
 11
687.087063494253
 21
1128.482034850182
 31
0.0
  0
LINE
  5
41EB
330
1A
100
AcDbEntity
  8
外形線
100
AcDbLine
 10
669.876542190505
 20
1129.299213613266
 30
0.0
 11
689.160620277837
 21
1129.299213613266
 31
0.0
  0
LINE
  5
41EC
330
1A
100
AcDbEntity
  8
外形線
100
AcDbLine
 10
659.612436111765
 20
1134.578830875444
 30
0.0
 11
664.553748265139
 21
1134.578830875444
 31
0.0
  0
LINE
  5
41ED
330
1A
100
AcDbEntity
  8
外形線
100
AcDbLine
 10
659.094046915869
 20
1134.060441679548
 30
0.0
 11
659.612436111765
 21
1134.578830875444
 31
0.0
  0
ARC
  5
41EE
330
1A
100
AcDbEntity
  8
外形線
100
AcDbCircle
 10
663.655871839753
 20
1134.060441679548
 30
0.0
 40
1.036778391792
100
AcDbArc
 50
0.0
 51
30.000000000007
  0
ARC
  5
41EF
330
1A
100
AcDbEntity
  8
外形線
100
AcDbCircle
 10
688.123841886045
 20
1128.71226126898
 30
0.0
 40
4.147113567168
100
AcDbArc
 50
0.0
 51
87.000000000001
  0
ARC
  5
41F0
330
1A
100
AcDbEntity
  8
外形線
100
AcDbCircle
 10
687.087063494253
 20
1126.408478066598
 30
0.0
 40
2.073556783584
100
AcDbArc
 50
0.0
 51
90.0
  0
ARC
  5
41F1
330
1A
100
AcDbEntity
  8
外形線
100
AcDbCircle
 10
689.160620277837
 20
1126.18887843789
 30
0.0
 40
3.110335175376
100
AcDbArc
 50
0.0
 51
90.0
  0
LWPOLYLINE
  5
41F2
330
1A
100
AcDbEntity
  8
外形線
100
AcDbPolyline
 90
       18
 70
     0
 43
0.0
 10
669.876542190505
 20
1129.299213613266
 10
668.923119594101
 20
1129.247393150554
 10
668.002164660713
 20
1129.093696446128
 10
667.145039406035
 20
1128.843357456916
 10
666.380932202603
 20
1128.504901176948
 10
665.735863804789
 20
1128.089853328904
 10
665.231801243205
 20
1127.612347869454
 10
664.885909763827
 20
1127.088645674316
 10
664.709968286135
 20
1126.536580793634
 10
664.709968286135
 20
1125.974953134788
 10
664.885909763827
 20
1125.422888254106
 10
665.231801243205
 20
1124.899186058968
 10
665.735863804789
 20
1124.421680599518
 10
666.380932202603
 20
1124.006632751476
 10
667.145039406035
 20
1123.668176471506
 10
668.002164660713
 20
1123.417837482294
 10
668.923119594101
 20
1123.264140777868
 10
669.876542190505
 20
1123.212320315158
  0
LWPOLYLINE
  5
41F3
330
1A
100
AcDbEntity
  8
外形線
100
AcDbPolyline
 90
        8
 70
     0
 43
0.0
 10
669.876542190505
 20
1128.482034850182
 10
668.867686444163
 20
1128.423953145642
 10
667.897337080973
 20
1128.251924916222
 10
667.002530758063
 20
1127.972516199674
 10
666.217420777567
 20
1127.596391572312
 10
665.571973510627
 20
1127.137907099474
 10
665.090824629745
 20
1126.614562387862
 10
664.792338805217
 20
1126.046332654012
  0
LWPOLYLINE
  5
41F4
330
1A
100
AcDbEntity
  8
外形線
100
AcDbPolyline
 90
        8
 70
     0
 43
0.0
 10
669.876542190505
 20
1112.705410725768
 10
668.886083517257
 20
1112.628941863366
 10
667.929366346007
 20
1112.402140305872
 10
667.038982722455
 20
1112.032732398074
 10
666.245264937713
 20
1111.533302589978
 10
665.575252212035
 20
1110.920864728118
 10
665.051769562083
 20
1110.216282452646
 10
664.692650231545
 20
1109.44355844524
  0
LWPOLYLINE
  5
41F5
330
1A
100
AcDbEntity
  8
外形線
100
AcDbPolyline
 90
       18
 70
     0
 43
0.0
 10
669.876542190505
 20
1113.27114959812
 10
668.923162272763
 20
1113.194709336164
 10
668.002248564669
 20
1112.967991631736
 10
667.145161678033
 20
1112.598717084342
 10
666.381088678821
 20
1112.0994608958
 10
665.736049156615
 20
1111.487224636818
 10
665.232009158703
 20
1110.782857278898
 10
664.886133162687
 20
1110.010345207618
 10
664.710199560775
 20
1109.195995395042
 10
664.710199560775
 20
1108.36753954733
 10
664.886133162687
 20
1107.553189734754
 10
665.232009158703
 20
1106.780677663474
 10
665.736049156615
 20
1106.076310305554
 10
666.381088678821
 20
1105.464074046572
 10
667.145161678033
 20
1104.964817858028
 10
668.002248564669
 20
1104.595543310636
 10
668.923162272763
 20
1104.368825606208
 10
669.876542190505
 20
1104.292385344252
  0
ARC
  5
41F6
330
1A
100
AcDbEntity
  8
外形線
100
AcDbCircle
 10
610.515422284735
 20
1039.517818663444
 30
0.0
 40
2.0
100
AcDbArc
 50
180.0
 51
225.0
  0
LINE
  5
41F7
330
1A
100
AcDbEntity
  8
外形線
100
AcDbLine
 10
651.526119491727
 20
1057.092276899914
 30
0.0
 11
653.536746150919
 21
1052.646344927318
 31
0.0
  0
LINE
  5
41F8
330
1A
100
AcDbEntity
  8
外形線
100
AcDbLine
 10
591.154478746231
 20
1105.253139201736
 30
0.0
 11
591.154478746231
 21
1116.760567201736
 31
0.0
  0
LINE
  5
41F9
330
1A
100
AcDbEntity
  8
外形線
100
AcDbLine
 10
596.654478746221
 20
1117.760567201736
 30
0.0
 11
596.654478746221
 21
1051.060567201736
 31
0.0
  0
LINE
  5
41FA
330
1A
100
AcDbEntity
  8
外形線
100
AcDbLine
 10
591.754478746231
 20
1051.060567201736
 30
0.0
 11
596.654478746221
 21
1051.060567201736
 31
0.0
  0
LINE
  5
41FB
330
1A
100
AcDbEntity
  8
外形線
100
AcDbLine
 10
591.754478746231
 20
1117.760567201736
 30
0.0
 11
596.654478746221
 21
1117.760567201736
 31
0.0
  0
LINE
  5
41FC
330
1A
100
AcDbEntity
  8
外形線
100
AcDbLine
 10
635.893136270359
 20
1039.77030002593
 30
0.0
 11
637.211152551787
 21
1038.39447128312
 31
0.0
  0
LINE
  5
41FD
330
1A
100
AcDbEntity
  8
外形線
100
AcDbLine
 10
635.893136270359
 20
1039.77030002593
 30
0.0
 11
644.973605972905
 21
1048.469207483364
 31
0.0
  0
CIRCLE
  5
41FE
330
1A
100
AcDbEntity
  8
細線
100
AcDbCircle
 10
641.092379262347
 20
1043.431839383242
 30
0.0
 40
9.90742839250458
  0
CIRCLE
  5
41FF
330
1A
100
AcDbEntity
  8
外形線
100
AcDbCircle
 10
641.092379262347
 20
1043.431839383242
 30
0.0
 40
10.51872781849356
  0
LINE
  5
4200
330
1A
100
AcDbEntity
  8
外形線
100
AcDbLine
 10
637.211152551787
 20
1038.39447128312
 30
0.0
 11
646.291622254335
 21
1047.093378740554
 31
0.0
  0
LINE
  5
4201
330
1A
100
AcDbEntity
  8
外形線
100
AcDbLine
 10
644.973605972905
 20
1048.469207483364
 30
0.0
 11
646.291622254335
 21
1047.093378740554
 31
0.0
  0
CIRCLE
  5
4202
330
1A
100
AcDbEntity
  8
細線
100
AcDbCircle
 10
641.094046915865
 20
1043.431839383242
 30
0.0
 40
13.76127218150634
  0
LINE
  5
4203
330
1A
100
AcDbEntity
  8
外形線
100
AcDbLine
 10
611.651940179319
 20
1128.418171515794
 30
0.0
 11
596.654478746221
 21
1117.760567201736
 31
0.0
  0
LINE
  5
4204
330
1A
100
AcDbEntity
  8
外形線
100
AcDbLine
 10
611.651940179319
 20
1040.171986231272
 30
0.0
 11
596.654478746221
 21
1051.060567201736
 31
0.0
  0
LINE
  5
4205
330
1A
100
AcDbEntity
  8
外形線
100
AcDbLine
 10
622.179715527721
 20
1024.071563282842
 30
0.0
 11
609.101208722361
 21
1038.10360510107
 31
0.0
  0
LINE
  5
4206
330
1A
100
AcDbEntity
  8
外形線
100
AcDbLine
 10
591.154478746231
 20
1117.27659260552
 30
0.0
 11
591.154478746231
 21
1051.544541797952
 31
0.0
  0
ARC
  5
4207
330
1A
100
AcDbEntity
  8
外形線
100
AcDbCircle
 10
591.754478746231
 20
1117.160567201736
 30
0.0
 40
0.6
100
AcDbArc
 50
90.0
 51
180.0
  0
ARC
  5
4208
330
1A
100
AcDbEntity
  8
外形線
100
AcDbCircle
 10
591.754478746231
 20
1051.660567201736
 30
0.0
 40
0.6
100
AcDbArc
 50
180.0
 51
270.0
  0
LINE
  5
4209
330
1A
100
AcDbEntity
  8
外形線
100
AcDbLine
 10
591.154478746231
 20
1058.454264680728
 30
0.0
 11
591.154478746231
 21
1110.366869722744
 31
0.0
  0
LINE
  5
420A
330
1A
100
AcDbEntity
  8
外形線
100
AcDbLine
 10
650.423384788475
 20
1001.859412628604
 30
0.0
 11
650.423384788475
 21
1012.750567201736
 31
0.0
  0
LINE
  5
420B
330
1A
100
AcDbEntity
  8
外形線
100
AcDbLine
 10
656.644055139227
 20
1012.750567201736
 30
0.0
 11
656.644055139227
 21
1001.859412628602
 31
0.0
  0
LINE
  5
420C
330
1A
100
AcDbEntity
  8
外形線
100
AcDbLine
 10
647.831438808995
 20
1001.859412628604
 30
0.0
 11
647.831438808995
 21
1012.750567201736
 31
0.0
  0
LINE
  5
420D
330
1A
100
AcDbEntity
  8
外形線
100
AcDbLine
 10
631.761373736219
 20
1001.859412628604
 30
0.0
 11
631.761373736219
 21
1012.750567201736
 31
0.0
  0
LINE
  5
420E
330
1A
100
AcDbEntity
  8
外形線
100
AcDbLine
 10
634.353319715699
 20
1001.859412628604
 30
0.0
 11
634.353319715699
 21
1012.750567201736
 31
0.0
  0
LINE
  5
420F
330
1A
100
AcDbEntity
  8
外形線
100
AcDbLine
 10
625.540703385467
 20
1012.750567201736
 30
0.0
 11
625.540703385467
 21
1001.8594126286
 31
0.0
  0
ARC
  5
4210
330
1A
100
AcDbEntity
  8
外形線
100
AcDbCircle
 10
641.092379262347
 20
1018.143502331842
 30
0.0
 40
17.62346450152246
100
AcDbArc
 50
247.51811568249
 51
292.481884317509
  0
LINE
  5
4211
330
1A
100
AcDbEntity
  8
外形線
100
AcDbLine
 10
654.881531873181
 20
1000.200567201736
 30
0.0
 11
627.303226651513
 21
1000.200567201736
 31
0.0
  0
LINE
  5
4212
330
1A
100
AcDbEntity
  8
外形線
100
AcDbLine
 10
649.697639914221
 20
995.410567201736
 30
0.0
 11
632.487118610473
 21
995.410567201736
 31
0.0
  0
ARC
  5
4213
330
1A
100
AcDbEntity
  8
外形線
100
AcDbCircle
 10
632.487118610473
 20
1000.594459160696
 30
0.0
 40
5.183891958959999
100
AcDbArc
 50
184.357752857945
 51
270.0
  0
ARC
  5
4214
330
1A
100
AcDbEntity
  8
外形線
100
AcDbCircle
 10
628.651038560843
 20
1004.785987658856
 30
0.0
 40
4.2707173063642
100
AcDbArc
 50
223.256487111673
 51
316.743512888333
  0
LINE
  5
4215
330
1A
100
AcDbEntity
  8
外形線
100
AcDbLine
 10
627.303226651513
 20
1000.200567201736
 30
0.0
 11
625.540703385467
 21
1001.859412628604
 31
0.0
  0
LINE
  5
4216
330
1A
100
AcDbEntity
  8
外形線
100
AcDbLine
 10
634.353319715699
 20
1001.859412628604
 30
0.0
 11
631.761373736219
 21
1001.859412628604
 31
0.0
  0
ARC
  5
4217
330
1A
100
AcDbEntity
  8
外形線
100
AcDbCircle
 10
649.697639914221
 20
1000.594459160696
 30
0.0
 40
5.183891958959999
100
AcDbArc
 50
270.0
 51
355.642247142048
  0
ARC
  5
4218
330
1A
100
AcDbEntity
  8
外形線
100
AcDbCircle
 10
653.533719963851
 20
1004.785987658856
 30
0.0
 40
4.2707173063642
100
AcDbArc
 50
223.256487111674
 51
316.743512888326
  0
LINE
  5
4219
330
1A
100
AcDbEntity
  8
外形線
100
AcDbLine
 10
647.831438808995
 20
1001.859412628604
 30
0.0
 11
650.423384788475
 21
1001.859412628604
 31
0.0
  0
LINE
  5
421A
330
1A
100
AcDbEntity
  8
外形線
100
AcDbLine
 10
654.881531873181
 20
1000.200567201736
 30
0.0
 11
656.644055139227
 21
1001.859412628604
 31
0.0
  0
LINE
  5
421B
330
1A
100
AcDbEntity
  8
外形線
100
AcDbLine
 10
656.644055139227
 20
1012.750567201736
 30
0.0
 11
625.540703385467
 21
1012.750567201736
 31
0.0
  0
LINE
  5
421C
330
1A
100
AcDbEntity
  8
外形線
100
AcDbLine
 10
656.644055139227
 20
1021.480567201736
 30
0.0
 11
625.540703385467
 21
1021.480567201736
 31
0.0
  0
LINE
  5
421D
330
1A
100
AcDbEntity
  8
外形線
100
AcDbLine
 10
656.644055139227
 20
1015.550567201736
 30
0.0
 11
625.540703385467
 21
1015.550567201736
 31
0.0
  0
LINE
  5
421E
330
1A
100
AcDbEntity
  8
細線
100
AcDbLine
 10
630.206206148531
 20
1013.582704394778
 30
0.0
 11
651.978552376162
 21
1013.582704394778
 31
0.0
  0
LINE
  5
421F
330
1A
100
AcDbEntity
  8
外形線
100
AcDbLine
 10
627.614260169051
 20
1021.480567201736
 30
0.0
 11
627.614260169051
 21
1023.160567201736
 31
0.0
  0
LINE
  5
4220
330
1A
100
AcDbEntity
  8
外形線
100
AcDbLine
 10
627.614260169051
 20
1021.480567201736
 30
0.0
 11
627.614260169051
 21
1021.998956397632
 31
0.0
  0
LINE
  5
4221
330
1A
100
AcDbEntity
  8
外形線
100
AcDbLine
 10
625.540703385467
 20
1015.550567201736
 30
0.0
 11
625.540703385467
 21
1021.480567201736
 31
0.0
  0
LINE
  5
4222
330
1A
100
AcDbEntity
  8
外形線
100
AcDbLine
 10
630.206206148531
 20
1012.750567201736
 30
0.0
 11
630.206206148531
 21
1015.550567201736
 31
0.0
  0
LINE
  5
4223
330
1A
100
AcDbEntity
  8
外形線
100
AcDbLine
 10
630.206206148531
 20
1013.582704394778
 30
0.0
 11
629.342546884099
 21
1012.750567201736
 31
0.0
  0
LINE
  5
4224
330
1A
100
AcDbEntity
  8
外形線
100
AcDbLine
 10
630.206206148531
 20
1013.582704394778
 30
0.0
 11
630.206206148531
 21
1012.750567201736
 31
0.0
  0
LINE
  5
4225
330
1A
100
AcDbEntity
  8
外形線
100
AcDbLine
 10
631.761373736219
 20
1015.550567201736
 30
0.0
 11
631.761373736219
 21
1021.480567201736
 31
0.0
  0
LINE
  5
4226
330
1A
100
AcDbEntity
  8
外形線
100
AcDbLine
 10
634.353319715699
 20
1015.550567201736
 30
0.0
 11
634.353319715699
 21
1021.480567201736
 31
0.0
  0
LINE
  5
4227
330
1A
100
AcDbEntity
  8
外形線
100
AcDbLine
 10
651.978552376162
 20
1012.750567201736
 30
0.0
 11
651.978552376162
 21
1015.550567201736
 31
0.0
  0
LINE
  5
4228
330
1A
100
AcDbEntity
  8
外形線
100
AcDbLine
 10
651.978552376162
 20
1013.582704394778
 30
0.0
 11
651.978552376162
 21
1012.750567201736
 31
0.0
  0
LINE
  5
4229
330
1A
100
AcDbEntity
  8
外形線
100
AcDbLine
 10
651.978552376162
 20
1013.582704394778
 30
0.0
 11
652.842211640595
 21
1012.750567201736
 31
0.0
  0
LINE
  5
422A
330
1A
100
AcDbEntity
  8
外形線
100
AcDbLine
 10
650.423384788475
 20
1015.550567201736
 30
0.0
 11
650.423384788475
 21
1021.480567201736
 31
0.0
  0
LINE
  5
422B
330
1A
100
AcDbEntity
  8
外形線
100
AcDbLine
 10
647.831438808995
 20
1015.550567201736
 30
0.0
 11
647.831438808995
 21
1021.480567201736
 31
0.0
  0
LINE
  5
422C
330
1A
100
AcDbEntity
  8
外形線
100
AcDbLine
 10
654.570498355643
 20
1021.480567201736
 30
0.0
 11
654.570498355643
 21
1023.160567201736
 31
0.0
  0
LINE
  5
422D
330
1A
100
AcDbEntity
  8
外形線
100
AcDbLine
 10
656.644055139227
 20
1015.550567201736
 30
0.0
 11
656.644055139227
 21
1021.480567201736
 31
0.0
  0
LINE
  5
422E
330
1A
100
AcDbEntity
  8
細線
100
AcDbLine
 10
650.955524602567
 20
1131.468495700068
 30
0.0
 11
650.955524602567
 21
1058.253139201736
 31
0.0
  0
LINE
  5
422F
330
1A
100
AcDbEntity
  8
外形線
100
AcDbLine
 10
659.094046915869
 20
1052.15494872798
 30
0.0
 11
654.527329455015
 21
1052.15494872798
 31
0.0
  0
ARC
  5
4230
330
1A
100
AcDbEntity
  8
外形線
100
AcDbCircle
 10
650.535536187631
 20
1056.339539029102
 30
0.0
 40
1.2441340701504
100
AcDbArc
 50
37.23096796567
 51
90.0
  0
ARC
  5
4231
330
1A
100
AcDbEntity
  8
外形線
100
AcDbCircle
 10
654.527329455015
 20
1053.399082798132
 30
0.0
 40
1.2441340701504
100
AcDbArc
 50
217.230967965679
 51
270.0
  0
LINE
  5
4232
330
1A
100
AcDbEntity
  8
外形線
100
AcDbLine
 10
659.094046915869
 20
1133.621517912018
 30
0.0
 11
654.792287244887
 21
1133.621517912018
 31
0.0
  0
ARC
  5
4233
330
1A
100
AcDbEntity
  8
外形線
100
AcDbCircle
 10
650.955524602567
 20
1133.542052483654
 30
0.0
 40
2.073556783584
100
AcDbArc
 50
270.0
 51
316.091731908441
  0
LINE
  5
4234
330
1A
100
AcDbEntity
  8
外形線
100
AcDbLine
 10
653.298391098397
 20
1132.985984785488
 30
0.0
 11
652.449420749057
 21
1132.104028826598
 31
0.0
  0
ARC
  5
4235
330
1A
100
AcDbEntity
  8
外形線
100
AcDbCircle
 10
654.792287244887
 20
1131.547961128434
 30
0.0
 40
2.073556783584
100
AcDbArc
 50
90.0
 51
136.091731908439
  0
LINE
  5
44AA
330
1A
100
AcDbEntity
  8
外形線
 62
     7
100
AcDbLine
 10
354.922545973121
 20
1072.584882982386
 30
0.0
 11
352.126948069314
 21
1070.741525802249
 31
0.0
  0
LINE
  5
44AB
330
1A
100
AcDbEntity
  8
外形線
 62
     7
100
AcDbLine
 10
349.51614841143
 20
1070.741525802249
 30
0.0
 11
355.522545973121
 21
1075.910567201736
 31
0.0
  0
ARC
  5
44AC
330
1A
100
AcDbEntity
  8
外形線
 62
     7
100
AcDbCircle
 10
349.69985427373
 20
1080.452206503536
 30
0.0
 40
5.847829662311536
100
AcDbArc
 50
276.801009626327
 51
354.685517133898
  0
LINE
  5
44AD
330
1A
100
AcDbEntity
  8
外形線
 62
     7
100
AcDbLine
 10
355.522545973122
 20
1063.945861319383
 30
0.0
 11
355.522545973121
 21
1072.238472820872
 31
0.0
  0
ARC
  5
44AE
330
1A
100
AcDbEntity
  8
外形線
 62
     7
100
AcDbCircle
 10
355.122545973121
 20
1072.238472820872
 30
0.0
 40
0.4
100
AcDbArc
 50
0.0
 51
120.000000000001
  0
LINE
  5
44AF
330
1A
100
AcDbEntity
  8
外形線
 62
     7
100
AcDbLine
 10
354.922545973121
 20
1072.584882982386
 30
0.0
 11
354.922545973121
 21
1075.394213629093
 31
0.0
  0
LINE
  5
44B1
330
1A
100
AcDbEntity
  8
外形線
 62
     7
100
AcDbLine
 10
354.922545973121
 20
1096.236251421086
 30
0.0
 11
352.126948069314
 21
1098.079608601222
 31
0.0
  0
LINE
  5
44B2
330
1A
100
AcDbEntity
  8
外形線
 62
     7
100
AcDbLine
 10
349.51614841143
 20
1098.079608601222
 30
0.0
 11
355.522545973121
 21
1092.910567201736
 31
0.0
  0
ARC
  5
44B3
330
1A
100
AcDbEntity
  8
外形線
 62
     7
100
AcDbCircle
 10
349.69985427373
 20
1088.368927899936
 30
0.0
 40
5.847829662311536
100
AcDbArc
 50
5.314482866102
 51
83.198990373673
  0
LINE
  5
44B4
330
1A
100
AcDbEntity
  8
外形線
 62
     7
100
AcDbLine
 10
355.522545973121
 20
1096.5826615826
 30
0.0
 11
355.522545973121
 21
1084.410567201736
 31
0.0
  0
LINE
  5
44B5
330
1A
100
AcDbEntity
  8
外形線
 62
     7
100
AcDbLine
 10
355.522545973121
 20
1088.910567201736
 30
0.0
 11
355.522545973121
 21
1084.410567201736
 31
0.0
  0
LINE
  5
44B6
330
1A
100
AcDbEntity
  8
外形線
 62
     7
100
AcDbLine
 10
354.922545973121
 20
1096.236251421086
 30
0.0
 11
354.922545973121
 21
1093.426920774379
 31
0.0
  0
ARC
  5
44B7
330
1A
100
AcDbEntity
  8
外形線
 62
     7
100
AcDbCircle
 10
355.122545973121
 20
1096.5826615826
 30
0.0
 40
0.4
100
AcDbArc
 50
239.999999999999
 51
0.0
  0
ARC
  5
44B8
330
1A
100
AcDbEntity
  8
外形線
 62
     7
100
AcDbCircle
 10
355.122545973121
 20
1096.5826615826
 30
0.0
 40
0.4
100
AcDbArc
 50
239.999999999999
 51
0.0
  0
LINE
  5
44B9
330
1A
100
AcDbEntity
  8
外形線
 62
     7
100
AcDbLine
 10
355.522545973121
 20
1072.238472820872
 30
0.0
 11
355.522545973121
 21
1084.410567201736
 31
0.0
  0
LINE
  5
44BA
330
1A
100
AcDbEntity
  8
外形線
 62
     7
100
AcDbLine
 10
355.522545973121
 20
1079.910567201736
 30
0.0
 11
355.522545973121
 21
1084.410567201736
 31
0.0
  0
LINE
  5
44BB
330
1A
100
AcDbEntity
  8
外形線
 62
     7
100
AcDbLine
 10
343.522545973121
 20
1070.74152580225
 30
0.0
 11
343.522545973121
 21
1074.74857890523
 31
0.0
  0
LINE
  5
44BC
330
1A
100
AcDbEntity
  8
外形線
 62
     7
100
AcDbLine
 10
343.522545973121
 20
1098.079608601222
 30
0.0
 11
343.522545973121
 21
1094.072555498243
 31
0.0
  0
LINE
  5
44BD
330
1A
100
AcDbEntity
  8
外形線
 62
     7
100
AcDbLine
 10
352.126948069314
 20
1098.079608601222
 30
0.0
 11
343.522545973121
 21
1098.079608601222
 31
0.0
  0
LINE
  5
44BE
330
1A
100
AcDbEntity
  8
外形線
 62
     7
100
AcDbLine
 10
343.522545973121
 20
1095.074318773985
 30
0.0
 11
353.008278594847
 21
1095.074318773985
 31
0.0
  0
LINE
  5
44BF
330
1A
100
AcDbEntity
  8
外形線
 62
     7
100
AcDbLine
 10
350.392362833124
 20
1094.175608849891
 30
0.0
 11
343.522545973121
 21
1094.175608849891
 31
0.0
  0
LINE
  5
44C0
330
1A
100
AcDbEntity
  8
外形線
 62
     7
100
AcDbLine
 10
343.522545973121
 20
1073.746815629485
 30
0.0
 11
353.008278594847
 21
1073.746815629485
 31
0.0
  0
LINE
  5
44C1
330
1A
100
AcDbEntity
  8
外形線
 62
     7
100
AcDbLine
 10
352.126948069314
 20
1070.741525802249
 30
0.0
 11
343.522545973121
 21
1070.74152580225
 31
0.0
  0
LINE
  5
44C2
330
1A
100
AcDbEntity
  8
外形線
 62
     7
100
AcDbLine
 10
350.392362833124
 20
1074.645525553581
 30
0.0
 11
343.522545973121
 21
1074.645525553581
 31
0.0
  0
LINE
  5
44C5
330
1A
100
AcDbEntity
  8
外形線
 62
     7
100
AcDbLine
 10
355.522545973121
 20
1104.875273084089
 30
0.0
 11
355.522545973121
 21
1096.5826615826
 31
0.0
  0
LINE
  5
44C8
330
1A
100
AcDbEntity
  8
外形線
 62
     7
100
AcDbLine
 10
255.79680467467
 20
1065.529656429641
 30
0.0
 11
255.559579180367
 21
1069.522615741336
 31
0.0
  0
LINE
  5
44C9
330
1A
100
AcDbEntity
  8
外形線
 62
     7
100
AcDbLine
 10
255.796804674671
 20
1103.291477973831
 30
0.0
 11
255.559579180367
 21
1099.298518662136
 31
0.0
  0
LINE
  5
44CA
330
1A
100
AcDbEntity
  8
外形線
 62
     7
100
AcDbLine
 10
255.618885553943
 20
1100.296758490058
 30
0.0
 11
343.522545973121
 21
1095.074318773985
 31
0.0
  0
LINE
  5
44CB
330
1A
100
AcDbEntity
  8
外形線
 62
     7
100
AcDbLine
 10
255.79680467467
 20
1065.529656429641
 30
0.0
 11
343.522545973121
 21
1070.741525802249
 31
0.0
  0
LINE
  5
44CC
330
1A
100
AcDbEntity
  8
外形線
 62
     7
100
AcDbLine
 10
255.559579180367
 20
1099.298518662136
 30
0.0
 11
343.522545973121
 21
1094.072555498243
 31
0.0
  0
LINE
  5
44CD
330
1A
100
AcDbEntity
  8
外形線
 62
     7
100
AcDbLine
 10
255.796804674671
 20
1103.291477973831
 30
0.0
 11
343.522545973121
 21
1098.079608601222
 31
0.0
  0
LINE
  5
44CE
330
1A
100
AcDbEntity
  8
外形線
 62
     7
100
AcDbLine
 10
255.559579180367
 20
1069.522615741336
 30
0.0
 11
343.522545973121
 21
1074.74857890523
 31
0.0
  0
LINE
  5
44CF
330
1A
100
AcDbEntity
  8
外形線
 62
     7
100
AcDbLine
 10
255.618885553943
 20
1068.524375913412
 30
0.0
 11
343.522545973121
 21
1073.746815629485
 31
0.0
  0
MTEXT
  5
46D3
330
1A
100
AcDbEntity
  8
寸法線
 48
10.0
100
AcDbMText
 10
316.654503802911
 20
899.634344822515
 30
0.0
 40
7.0
 41
125.633939393939
 71
     1
 72
     5
  1
{\C1;：グランド\P：電源\P：電源\P：コモン\P：オープン（クローズ）\P：クローズ（オープン）}
  0
MTEXT
  5
46D4
330
1A
100
AcDbEntity
  8
寸法線
 48
10.0
100
AcDbMText
 10
304.764311003175
 20
899.634344822515
 30
0.0
 40
7.0
 41
125.633939393939
 71
     1
 72
     5
  1
{\C1;PE\PN\PL1\PC\PNO\PNC}
  0
MTEXT
  5
46D5
102
{ACAD_XDICTIONARY
360
46D6
102
}
330
1A
100
AcDbEntity
  8
寸法線
 48
10.0
100
AcDbMText
 10
302.448520954409
 20
932.138208475258
 30
0.0
 40
8.0
 41
124.815667100994
 71
     1
 72
     5
  1
電源電圧：AC20～255V　　　　　　：DC20～60V
1001
ACADANNOTATIVE
1000
AnnotativeData
1002
{
1070
     1
1070
     0
1002
}
  0
MTEXT
  5
46D9
330
1A
100
AcDbEntity
  8
寸法線
 48
10.0
100
AcDbMText
 10
265.870623811459
 20
840.020516802172
 30
0.0
 40
8.0
 41
95.557777777778
 71
     1
 72
     5
  1
{\C1;（NO）}
  0
MTEXT
  5
46DA
330
1A
100
AcDbEntity
  8
寸法線
 48
10.0
100
AcDbMText
 10
214.821044586625
 20
840.020516802172
 30
0.0
 40
8.0
 41
95.557777777778
 71
     1
 72
     5
  1
{\C1;（NC）}
  0
LINE
  5
4764
330
1A
100
AcDbEntity
  8
寸法線
 48
10.0
100
AcDbLine
 10
563.833287506497
 20
941.849731341853
 30
0.0
 11
563.833287506497
 21
819.746799983976
 31
0.0
  0
LINE
  5
4765
330
1A
100
AcDbEntity
  8
寸法線
 48
10.0
100
AcDbLine
 10
433.601425839906
 20
912.21473684399
 30
0.0
 11
530.961956409326
 21
912.21473684399
 31
0.0
  0
MTEXT
  5
4766
102
{ACAD_XDICTIONARY
360
4767
102
}
330
1A
100
AcDbEntity
  8
寸法線
 48
10.0
100
AcDbMText
 10
497.858970672168
 20
923.035041618421
 30
0.0
 40
8.0
 41
66.205971474318
 71
     2
 72
     5
  1
RRH-303-0
1001
ACADANNOTATIVE
1000
AnnotativeData
1002
{
1070
     1
1070
     0
1002
}
1001
ACAD
1000
MTEXTBEGIN
1070
    44
1040
1.1475
1000
MTEXTEND
  0
MTEXT
  5
476A
330
1A
100
AcDbEntity
  8
寸法線
 48
10.0
100
AcDbMText
 10
489.79687324834
 20
938.967906314359
 30
0.0
 40
8.0
 41
19.77375149039
 71
     1
 72
     5
  1
型式
  0
LINE
  5
476B
330
1A
100
AcDbEntity
  8
寸法線
 48
10.0
100
AcDbLine
 10
433.601425839906
 20
927.648705273997
 30
0.0
 11
530.961956409326
 21
927.648705273997
 31
0.0
  0
LINE
  5
476C
330
1A
100
AcDbEntity
  8
寸法線
 48
10.0
100
AcDbLine
 10
433.601425839906
 20
941.849731341853
 30
0.0
 11
530.961956409326
 21
941.849731341853
 31
0.0
  0
LINE
  5
476D
330
1A
100
AcDbEntity
  8
寸法線
 48
10.0
100
AcDbLine
 10
464.755984935009
 20
941.849731341853
 30
0.0
 11
464.755984935009
 21
819.746799983976
 31
0.0
  0
LINE
  5
476E
330
1A
100
AcDbEntity
  8
寸法線
 48
10.0
100
AcDbLine
 10
530.961956409326
 20
941.849731341853
 30
0.0
 11
530.961956409326
 21
819.746799983976
 31
0.0
  0
LINE
  5
476F
330
1A
100
AcDbEntity
  8
寸法線
 48
10.0
100
AcDbLine
 10
530.961956409326
 20
941.849731341853
 30
0.0
 11
530.961956409327
 21
819.746799983976
 31
0.0
  0
LINE
  5
4770
330
1A
100
AcDbEntity
  8
寸法線
 48
10.0
100
AcDbLine
 10
433.601425839906
 20
941.849731341853
 30
0.0
 11
433.601425839906
 21
819.746799983976
 31
0.0
  0
MTEXT
  5
4771
330
1A
100
AcDbEntity
  8
寸法線
 48
10.0
100
AcDbMText
 10
722.727761779227
 20
800.447821090026
 30
0.0
 40
8.0
 41
165.013333333333
 71
     1
 72
     5
  1
○印が今回の貴社の御仕様です。
  0
SPLINE
  5
4772
330
1A
100
AcDbEntity
  8
寸法線
 48
10.0
100
AcDbSpline
210
0.0
220
0.0
230
1.0
 70
  1064
 71
     3
 72
    13
 73
     9
 74
     7
 42
0.000000001
 43
0.0000000001
 44
0.0000000001
 40
0.0
 40
0.0
 40
0.0
 40
0.0
 40
3.86842211421227
 40
10.12254119268954
 40
15.16331027423529
 40
18.64952359630841
 40
20.50331406220848
 40
21.8476876304271
 40
21.8476876304271
 40
21.8476876304271
 40
21.8476876304271
 10
545.1677422631269
 20
930.3035272355851
 30
0.0
 10
546.3181367384851
 20
930.8349404001715
 30
0.0
 10
549.328386168575
 20
932.2254948665773
 30
0.0
 10
550.0537718846044
 20
941.9329023641981
 30
0.0
 10
545.7628958637167
 20
934.9509894653518
 30
0.0
 10
545.9507898959369
 20
931.4066066741865
 30
0.0
 10
548.2114608388267
 20
930.0180767722121
 30
0.0
 10
549.2113925605389
 20
930.5182772273425
 30
0.0
 10
549.6317217751607
 20
930.7285404482136
 30
0.0
 11
545.1677422631269
 21
930.3035272355851
 31
0.0
 11
548.2500136445256
 21
932.6411099154357
 31
0.0
 11
548.9408677098429
 21
938.856954677671
 31
0.0
 11
546.2305952736338
 21
934.606804532677
 31
0.0
 11
546.7088792588656
 21
931.153555662921
 31
0.0
 11
548.3562986845684
 21
930.3035272355851
 31
0.0
 11
549.6317217751607
 21
930.7285404482136
 31
0.0
  0
LINE
  5
4773
330
1A
100
AcDbEntity
  8
寸法線
 48
10.0
100
AcDbLine
 10
433.601425839906
 20
896.780768413983
 30
0.0
 11
464.755984935009
 21
896.780768413983
 31
0.0
  0
MTEXT
  5
4774
102
{ACAD_XDICTIONARY
360
4775
102
}
330
1A
100
AcDbEntity
  8
寸法線
 48
10.0
100
AcDbMText
 10
539.474415387587
 20
923.565374028558
 30
0.0
 40
8.0
 41
25.186395132728
 71
     1
 72
     5
  1
300\P350\P400\P450\P500\P550\P600
1001
ACADANNOTATIVE
1000
AnnotativeData
1002
{
1070
     1
1070
     0
1002
}
1001
ACAD
1000
MTEXTBEGIN
1070
    44
1040
1.1475
1000
MTEXTEND
  0
LINE
  5
4778
330
1A
100
AcDbEntity
  8
寸法線
 48
10.0
100
AcDbLine
 10
433.601425839906
 20
881.346799983976
 30
0.0
 11
530.961956409326
 21
881.346799983976
 31
0.0
  0
LINE
  5
4779
330
1A
100
AcDbEntity
  8
寸法線
 48
10.0
100
AcDbLine
 10
530.961956409326
 20
912.21473684399
 30
0.0
 11
643.833287506497
 21
912.21473684399
 31
0.0
  0
LINE
  5
477A
330
1A
100
AcDbEntity
  8
寸法線
 48
10.0
100
AcDbLine
 10
530.961956409326
 20
896.780768413983
 30
0.0
 11
643.833287506497
 21
896.780768413983
 31
0.0
  0
LINE
  5
477B
330
1A
100
AcDbEntity
  8
寸法線
 48
10.0
100
AcDbLine
 10
530.961956409326
 20
927.648705273997
 30
0.0
 11
643.833287506497
 21
927.648705273997
 31
0.0
  0
LINE
  5
477C
330
1A
100
AcDbEntity
  8
寸法線
 48
10.0
100
AcDbLine
 10
530.961956409326
 20
941.849731341853
 30
0.0
 11
643.833287506497
 21
941.849731341853
 31
0.0
  0
LINE
  5
477D
330
1A
100
AcDbEntity
  8
寸法線
 48
10.0
100
AcDbLine
 10
530.961956409326
 20
881.346799983976
 30
0.0
 11
643.833287506497
 21
881.346799983976
 31
0.0
  0
MTEXT
  5
477E
102
{ACAD_XDICTIONARY
360
477F
102
}
330
1A
100
AcDbEntity
  8
寸法線
 48
10.0
100
AcDbMText
 10
435.068350705566
 20
938.376001623549
 30
0.0
 40
8.0
 41
32.516763780405
 71
     1
 72
     5
  1
御仕様
1001
ACADANNOTATIVE
1000
AnnotativeData
1002
{
1070
     1
1070
     0
1002
}
  0
LINE
  5
4782
330
1A
100
AcDbEntity
  8
寸法線
 48
10.0
100
AcDbLine
 10
433.601425839906
 20
865.946799983976
 30
0.0
 11
464.755984935009
 21
865.946799983976
 31
0.0
  0
LINE
  5
4783
330
1A
100
AcDbEntity
  8
寸法線
 48
10.0
100
AcDbLine
 10
433.601425839906
 20
850.546799983976
 30
0.0
 11
643.833287506497
 21
850.546799983976
 31
0.0
  0
LINE
  5
4784
330
1A
100
AcDbEntity
  8
寸法線
 48
10.0
100
AcDbLine
 10
433.601425839906
 20
835.146799983976
 30
0.0
 11
464.755984935009
 21
835.146799983976
 31
0.0
  0
LINE
  5
4785
330
1A
100
AcDbEntity
  8
寸法線
 48
10.0
100
AcDbLine
 10
433.601425839906
 20
819.746799983976
 30
0.0
 11
643.833287506497
 21
819.746799983976
 31
0.0
  0
MTEXT
  5
4786
102
{ACAD_XDICTIONARY
360
4787
102
}
330
1A
100
AcDbEntity
  8
寸法線
 48
10.0
100
AcDbMText
 10
620.048623062076
 20
938.623190256611
 30
0.0
 40
8.0
 41
19.77375149039
 71
     1
 72
     5
  1
台数
1001
ACADANNOTATIVE
1000
AnnotativeData
1002
{
1070
     1
1070
     0
1002
}
  0
LINE
  5
478A
330
1A
100
AcDbEntity
  8
寸法線
 48
10.0
100
AcDbLine
 10
645.333287506497
 20
941.849731341853
 30
0.0
 11
645.333287506497
 21
804.346799983976
 31
0.0
  0
LINE
  5
478B
330
1A
100
AcDbEntity
  8
寸法線
 48
10.0
100
AcDbLine
 10
775.565149173087
 20
941.849731341853
 30
0.0
 11
775.565149173087
 21
804.346799983976
 31
0.0
  0
LINE
  5
478C
330
1A
100
AcDbEntity
  8
寸法線
 48
10.0
100
AcDbLine
 10
643.833287506497
 20
912.21473684399
 30
0.0
 11
676.487846601599
 21
912.21473684399
 31
0.0
  0
MTEXT
  5
478D
102
{ACAD_XDICTIONARY
360
478E
102
}
330
1A
100
AcDbEntity
  8
寸法線
 48
10.0
100
AcDbMText
 10
709.590832338758
 20
938.967906314359
 30
0.0
 40
8.0
 41
66.205971474318
 71
     2
 72
     5
  1
型式
1001
ACADANNOTATIVE
1000
AnnotativeData
1002
{
1070
     1
1070
     0
1002
}
  0
LINE
  5
4791
330
1A
100
AcDbEntity
  8
寸法線
 48
10.0
100
AcDbLine
 10
643.833287506497
 20
927.648705273997
 30
0.0
 11
742.693818075917
 21
927.648705273997
 31
0.0
  0
LINE
  5
4792
330
1A
100
AcDbEntity
  8
寸法線
 48
10.0
100
AcDbLine
 10
643.833287506497
 20
941.849731341853
 30
0.0
 11
742.693818075917
 21
941.849731341853
 31
0.0
  0
LINE
  5
4793
330
1A
100
AcDbEntity
  8
寸法線
 48
10.0
100
AcDbLine
 10
676.487846601599
 20
941.849731341853
 30
0.0
 11
676.487846601599
 21
804.346799983976
 31
0.0
  0
LINE
  5
4794
330
1A
100
AcDbEntity
  8
寸法線
 48
10.0
100
AcDbLine
 10
742.693818075917
 20
941.849731341853
 30
0.0
 11
742.693818075917
 21
804.346799983976
 31
0.0
  0
LINE
  5
4795
330
1A
100
AcDbEntity
  8
寸法線
 48
10.0
100
AcDbLine
 10
742.693818075917
 20
941.849731341853
 30
0.0
 11
742.693818075917
 21
804.346799983976
 31
0.0
  0
LINE
  5
4796
330
1A
100
AcDbEntity
  8
寸法線
 48
10.0
100
AcDbLine
 10
645.333287506497
 20
941.849731341853
 30
0.0
 11
645.333287506497
 21
804.346799983976
 31
0.0
  0
SPLINE
  5
4797
330
1A
100
AcDbEntity
  8
寸法線
 48
10.0
100
AcDbSpline
210
0.0
220
0.0
230
1.0
 70
  1064
 71
     3
 72
    13
 73
     9
 74
     7
 42
0.000000001
 43
0.0000000001
 44
0.0000000001
 40
0.0
 40
0.0
 40
0.0
 40
0.0
 40
3.86842211421227
 40
10.12254119268954
 40
15.16331027423529
 40
18.64952359630841
 40
20.50331406220848
 40
21.8476876304271
 40
21.8476876304271
 40
21.8476876304271
 40
21.8476876304271
 10
756.8996039297173
 20
930.3035272355851
 30
0.0
 10
758.0499984050755
 20
930.8349404001715
 30
0.0
 10
761.0602478351653
 20
932.2254948665773
 30
0.0
 10
761.7856335511949
 20
941.9329023641981
 30
0.0
 10
757.4947575303071
 20
934.9509894653518
 30
0.0
 10
757.6826515625273
 20
931.4066066741865
 30
0.0
 10
759.9433225054171
 20
930.0180767722121
 30
0.0
 10
760.9432542271292
 20
930.5182772273425
 30
0.0
 10
761.3635834417511
 20
930.7285404482136
 30
0.0
 11
756.8996039297173
 21
930.3035272355851
 31
0.0
 11
759.9818753111159
 21
932.6411099154357
 31
0.0
 11
760.6727293764333
 21
938.856954677671
 31
0.0
 11
757.9624569402241
 21
934.606804532677
 31
0.0
 11
758.440740925456
 21
931.153555662921
 31
0.0
 11
760.0881603511588
 21
930.3035272355851
 31
0.0
 11
761.3635834417511
 21
930.7285404482136
 31
0.0
  0
LINE
  5
4798
330
1A
100
AcDbEntity
  8
寸法線
 48
10.0
100
AcDbLine
 10
643.833287506497
 20
896.780768413983
 30
0.0
 11
742.693818075917
 21
896.780768413983
 31
0.0
  0
MTEXT
  5
4799
102
{ACAD_XDICTIONARY
360
479A
102
}
330
1A
100
AcDbEntity
  8
寸法線
 48
10.0
100
AcDbMText
 10
751.206277054177
 20
923.565374028558
 30
0.0
 40
8.0
 41
25.186395132728
 71
     1
 72
     5
  1
650\P700\P750\P800\P850\P900\P950\P1000\P
1001
ACADANNOTATIVE
1000
AnnotativeData
1002
{
1070
     1
1070
     0
1002
}
1001
ACAD
1000
MTEXTBEGIN
1070
    44
1040
1.1475
1000
MTEXTEND
  0
LINE
  5
479D
330
1A
100
AcDbEntity
  8
寸法線
 48
10.0
100
AcDbLine
 10
643.833287506497
 20
881.346799983976
 30
0.0
 11
676.487846601599
 21
881.346799983976
 31
0.0
  0
LINE
  5
479E
330
1A
100
AcDbEntity
  8
寸法線
 48
10.0
100
AcDbLine
 10
742.693818075917
 20
912.21473684399
 30
0.0
 11
855.565149173087
 21
912.21473684399
 31
0.0
  0
LINE
  5
479F
330
1A
100
AcDbEntity
  8
寸法線
 48
10.0
100
AcDbLine
 10
742.693818075917
 20
896.780768413983
 30
0.0
 11
855.565149173087
 21
896.780768413983
 31
0.0
  0
LINE
  5
47A0
330
1A
100
AcDbEntity
  8
寸法線
 48
10.0
100
AcDbLine
 10
742.693818075917
 20
927.648705273997
 30
0.0
 11
855.565149173087
 21
927.648705273997
 31
0.0
  0
LINE
  5
47A1
330
1A
100
AcDbEntity
  8
寸法線
 48
10.0
100
AcDbLine
 10
742.693818075917
 20
941.849731341853
 30
0.0
 11
855.565149173087
 21
941.849731341853
 31
0.0
  0
LINE
  5
47A2
330
1A
100
AcDbEntity
  8
寸法線
 48
10.0
100
AcDbLine
 10
742.693818075917
 20
881.346799983976
 30
0.0
 11
855.565149173087
 21
881.346799983976
 31
0.0
  0
MTEXT
  5
47A3
102
{ACAD_XDICTIONARY
360
47A4
102
}
330
1A
100
AcDbEntity
  8
寸法線
 48
10.0
100
AcDbMText
 10
646.800212372156
 20
938.376001623549
 30
0.0
 40
8.0
 41
32.516763780405
 71
     1
 72
     5
  1
御仕様
1001
ACADANNOTATIVE
1000
AnnotativeData
1002
{
1070
     1
1070
     0
1002
}
  0
LINE
  5
47A7
330
1A
100
AcDbEntity
  8
寸法線
 48
10.0
100
AcDbLine
 10
643.833287506497
 20
865.946799983976
 30
0.0
 11
855.565149173087
 21
865.946799983976
 31
0.0
  0
LINE
  5
47A8
330
1A
100
AcDbEntity
  8
寸法線
 48
10.0
100
AcDbLine
 10
643.833287506497
 20
850.546799983976
 30
0.0
 11
676.487846601599
 21
850.546799983976
 31
0.0
  0
LINE
  5
47A9
330
1A
100
AcDbEntity
  8
寸法線
 48
10.0
100
AcDbLine
 10
643.833287506497
 20
835.146799983976
 30
0.0
 11
855.565149173087
 21
835.146799983976
 31
0.0
  0
LINE
  5
47AA
330
1A
100
AcDbEntity
  8
寸法線
 48
10.0
100
AcDbLine
 10
613.833287506497
 20
941.849731341853
 30
0.0
 11
613.833287506497
 21
819.746799983976
 31
0.0
  0
LINE
  5
47AB
330
1A
100
AcDbEntity
  8
寸法線
 48
10.0
100
AcDbLine
 10
643.833287506497
 20
941.849731341853
 30
0.0
 11
643.833287506497
 21
819.746799983976
 31
0.0
  0
LINE
  5
47AC
330
1A
100
AcDbEntity
  8
寸法線
 48
10.0
100
AcDbLine
 10
825.565149173087
 20
941.849731341853
 30
0.0
 11
825.565149173087
 21
804.346799983976
 31
0.0
  0
LINE
  5
47AD
330
1A
100
AcDbEntity
  8
寸法線
 48
10.0
100
AcDbLine
 10
855.565149173087
 20
941.849731341853
 30
0.0
 11
855.565149173087
 21
804.346799983976
 31
0.0
  0
MTEXT
  5
47AE
102
{ACAD_XDICTIONARY
360
47AF
102
}
330
1A
100
AcDbEntity
  8
寸法線
 48
10.0
100
AcDbMText
 10
831.780484728666
 20
938.623190256611
 30
0.0
 40
8.0
 41
19.77375149039
 71
     1
 72
     5
  1
台数
1001
ACADANNOTATIVE
1000
AnnotativeData
1002
{
1070
     1
1070
     0
1002
}
  0
MTEXT
  5
47B2
102
{ACAD_XDICTIONARY
360
47B3
102
}
330
1A
100
AcDbEntity
  8
寸法線
 48
10.0
100
AcDbMText
 10
580.911076165421
 20
938.781353077443
 30
0.0
 40
8.0
 41
19.77375149039
 71
     1
 72
     5
  1
記事
1001
ACADANNOTATIVE
1000
AnnotativeData
1002
{
1070
     1
1070
     0
1002
}
  0
MTEXT
  5
47B6
102
{ACAD_XDICTIONARY
360
47B7
102
}
330
1A
100
AcDbEntity
  8
寸法線
 48
10.0
100
AcDbMText
 10
792.642937832011
 20
938.781353077443
 30
0.0
 40
8.0
 41
19.77375149039
 71
     1
 72
     5
  1
記事
1001
ACADANNOTATIVE
1000
AnnotativeData
1002
{
1070
     1
1070
     0
1002
}
  0
LINE
  5
47BE
330
1A
100
AcDbEntity
  8
寸法線
 48
10.0
100
AcDbLine
 10
643.833287506497
 20
819.746799983976
 30
0.0
 11
676.487846601599
 21
819.746799983976
 31
0.0
  0
LINE
  5
47BF
330
1A
100
AcDbEntity
  8
寸法線
 48
10.0
100
AcDbLine
 10
645.333287506497
 20
804.346799983976
 30
0.0
 11
855.565149173087
 21
804.346799983976
 31
0.0
  0
LINE
  5
4B2D
330
1A
100
AcDbEntity
  8
寸法線
 48
10.0
100
AcDbLine
 10
530.961956409326
 20
865.946799983976
 30
0.0
 11
643.833287506497
 21
865.946799983976
 31
0.0
  0
LINE
  5
4B2E
330
1A
100
AcDbEntity
  8
寸法線
 48
10.0
100
AcDbLine
 10
530.961956409326
 20
835.146799983976
 30
0.0
 11
643.833287506497
 21
835.146799983976
 31
0.0
  0
LINE
  5
4B2F
330
1A
100
AcDbEntity
  8
寸法線
 48
10.0
100
AcDbLine
 10
742.693818075917
 20
850.546799983976
 30
0.0
 11
855.565149173087
 21
850.546799983976
 31
0.0
  0
LINE
  5
4B30
330
1A
100
AcDbEntity
  8
寸法線
 48
10.0
100
AcDbLine
 10
742.693818075917
 20
819.746799983976
 30
0.0
 11
855.565149173087
 21
819.746799983976
 31
0.0
  0
MTEXT
  5
4B93
102
{ACAD_XDICTIONARY
360
4B94
102
}
330
1A
100
AcDbEntity
  8
寸法線
 48
10.0
100
AcDbMText
 10
498.362835855953
 20
897.006499000575
 30
0.0
 40
8.0
 41
66.205971474318
 71
     5
 72
     5
  1
RRH-304-0
1001
ACADANNOTATIVE
1000
AnnotativeData
1002
{
1070
     1
1070
     0
1002
}
1001
ACAD
1000
MTEXTBEGIN
1070
    44
1040
1.1475
1000
MTEXTEND
  0
MTEXT
  5
4BC8
102
{ACAD_XDICTIONARY
360
4BC9
102
}
330
1A
100
AcDbEntity
  8
寸法線
 48
10.0
100
AcDbMText
 10
498.362835855953
 20
866.138562140561
 30
0.0
 40
8.0
 41
66.205971474318
 71
     5
 72
     5
  1
RRH-305-0
1001
ACADANNOTATIVE
1000
AnnotativeData
1002
{
1070
     1
1070
     0
1002
}
1001
ACAD
1000
MTEXTBEGIN
1070
    44
1040
1.1475
1000
MTEXTEND
  0
MTEXT
  5
4BFD
102
{ACAD_XDICTIONARY
360
4BFE
102
}
330
1A
100
AcDbEntity
  8
寸法線
 48
10.0
100
AcDbMText
 10
498.362835855953
 20
835.338562140561
 30
0.0
 40
8.0
 41
66.205971474318
 71
     5
 72
     5
  1
RRH-306-0
1001
ACADANNOTATIVE
1000
AnnotativeData
1002
{
1070
     1
1070
     0
1002
}
1001
ACAD
1000
MTEXTBEGIN
1070
    44
1040
1.1475
1000
MTEXTEND
  0
MTEXT
  5
4C32
102
{ACAD_XDICTIONARY
360
4C33
102
}
330
1A
100
AcDbEntity
  8
寸法線
 48
10.0
100
AcDbMText
 10
710.094697522543
 20
912.440467430582
 30
0.0
 40
8.0
 41
66.205971474318
 71
     5
 72
     5
  1
RRH-307-0
1001
ACADANNOTATIVE
1000
AnnotativeData
1002
{
1070
     1
1070
     0
1002
}
1001
ACAD
1000
MTEXTBEGIN
1070
    44
1040
1.1475
1000
MTEXTEND
  0
MTEXT
  5
4C67
102
{ACAD_XDICTIONARY
360
4C68
102
}
330
1A
100
AcDbEntity
  8
寸法線
 48
10.0
100
AcDbMText
 10
710.094697522543
 20
881.572530570568
 30
0.0
 40
8.0
 41
66.205971474318
 71
     5
 72
     5
  1
RRH-308-0
1001
ACADANNOTATIVE
1000
AnnotativeData
1002
{
1070
     1
1070
     0
1002
}
1001
ACAD
1000
MTEXTBEGIN
1070
    44
1040
1.1475
1000
MTEXTEND
  0
MTEXT
  5
4C9C
102
{ACAD_XDICTIONARY
360
4C9D
102
}
330
1A
100
AcDbEntity
  8
寸法線
 48
10.0
100
AcDbMText
 10
710.094697522543
 20
850.738562140561
 30
0.0
 40
8.0
 41
66.205971474318
 71
     5
 72
     5
  1
RRH-309-0
1001
ACADANNOTATIVE
1000
AnnotativeData
1002
{
1070
     1
1070
     0
1002
}
1001
ACAD
1000
MTEXTBEGIN
1070
    44
1040
1.1475
1000
MTEXTEND
  0
MTEXT
  5
4CD1
102
{ACAD_XDICTIONARY
360
4CD2
102
}
330
1A
100
AcDbEntity
  8
寸法線
 48
10.0
100
AcDbMText
 10
710.094697522543
 20
819.938562140561
 30
0.0
 40
8.0
 41
66.205971474318
 71
     5
 72
     5
  1
RRH-310-0
1001
ACADANNOTATIVE
1000
AnnotativeData
1002
{
1070
     1
1070
     0
1002
}
1001
ACAD
1000
MTEXTBEGIN
1070
    44
1040
1.1475
1000
MTEXTEND
  0
LINE
  5
50A6
330
1A
100
AcDbEntity
  8
外形線
100
AcDbLine
 10
579.765913436414
 20
1110.968679584459
 30
0.0
 11
576.77095545322
 21
1105.477923281937
 31
0.0
  0
LINE
  5
50A7
330
1A
100
AcDbEntity
  8
外形線
100
AcDbLine
 10
578.845152267252
 20
1097.689623393097
 30
0.0
 11
589.080281932199
 21
1097.689623393097
 31
0.0
  0
ARC
  5
50A8
330
1A
100
AcDbEntity
  8
外形線
100
AcDbCircle
 10
634.057229655141
 20
1084.410567201736
 30
0.0
 40
56.78650211819261
100
AcDbArc
 50
166.476641055109
 51
193.523358944891
  0
LINE
  5
50A9
330
1A
100
AcDbEntity
  8
外形線
100
AcDbLine
 10
579.765913436414
 20
1057.852454819013
 30
0.0
 11
576.77095545322
 21
1063.343211121535
 31
0.0
  0
ARC
  5
50AA
330
1A
100
AcDbEntity
  8
外形線
100
AcDbCircle
 10
587.929383585031
 20
1065.289397578241
 30
0.0
 40
10.80062720349224
100
AcDbArc
 50
147.25473150955
 51
201.956277655798
  0
ARC
  5
50AB
330
1A
100
AcDbEntity
  8
外形線
100
AcDbCircle
 10
533.868204544311
 20
1084.410567201736
 30
0.0
 40
56.78650211819261
100
AcDbArc
 50
346.476641055109
 51
13.523358944891
  0
LINE
  5
50AC
330
1A
100
AcDbEntity
  8
外形線
100
AcDbLine
 10
578.845152267252
 20
1071.131511010375
 30
0.0
 11
589.080281932199
 21
1071.131511010375
 31
0.0
  0
LINE
  5
50AD
330
1A
100
AcDbEntity
  8
外形線
100
AcDbLine
 10
588.159520763036
 20
1110.968679584459
 30
0.0
 11
579.765913436412
 21
1110.968679584459
 31
0.0
  0
LINE
  5
50AE
330
1A
100
AcDbEntity
  8
外形線
100
AcDbLine
 10
591.154478746231
 20
1105.477923281937
 30
0.0
 11
588.159520763036
 21
1110.968679584459
 31
0.0
  0
LINE
  5
50AF
330
1A
100
AcDbEntity
  8
外形線
100
AcDbLine
 10
588.159520763036
 20
1057.852454819013
 30
0.0
 11
591.154478746231
 21
1063.343211121535
 31
0.0
  0
LINE
  5
50B0
330
1A
100
AcDbEntity
  8
外形線
100
AcDbLine
 10
588.159520763036
 20
1057.852454819013
 30
0.0
 11
579.765913436414
 21
1057.852454819013
 31
0.0
  0
ARC
  5
50B1
330
1A
100
AcDbEntity
  8
外形線
100
AcDbCircle
 10
587.929383585031
 20
1103.531736825231
 30
0.0
 40
10.80062720349224
100
AcDbArc
 50
158.043722344202
 51
212.74526849045
  0
ARC
  5
50B2
330
1A
100
AcDbEntity
  8
外形線
100
AcDbCircle
 10
579.99605061442
 20
1103.531736825231
 30
0.0
 40
10.80062720349224
100
AcDbArc
 50
327.25473150955
 51
21.956277655792
  0
ARC
  5
50B3
330
1A
100
AcDbEntity
  8
外形線
100
AcDbCircle
 10
579.99605061442
 20
1065.289397578241
 30
0.0
 40
10.80062720349224
100
AcDbArc
 50
338.04372234421
 51
32.74526849045
  0
LINE
  5
50B4
330
1A
100
AcDbEntity
  8
外形線
 48
10.0
100
AcDbLine
 10
576.77095545322
 20
1105.477923281937
 30
0.0
 11
576.77095545322
 21
1063.343211121535
 31
0.0
  0
VIEWPORT
  5
2902
330
28FB
100
AcDbEntity
 67
     1
  8
0
 48
10.0
100
AcDbViewport
 10
0.0
 20
0.0
 30
0.0
 40
552.319156214367
 41
300.3
 68
     1
 69
     1
1001
ACAD
1000
MVIEW
1002
{
1070
    16
1010
0.0
1020
0.0
1030
0.0
1010
0.0
1020
0.0
1030
1.0
1040
0.0
1040
300.3
1040
205.756503333333
1040
143.551503333333
1040
50.0
1040
0.0
1040
0.0
1070
    16
1070
   100
1070
     0
1070
     1
1070
     0
1070
     0
1070
     0
1070
     0
1040
0.0
1040
0.0
1040
0.0
1040
10.0
1040
10.0
1040
10.0
1040
10.0
1070
     0
1002
{
1002
}
1002
}
  0
VIEWPORT
  5
2904
330
28FB
100
AcDbEntity
 67
     1
  8
図枠太線
 48
10.0
100
AcDbViewport
 10
204.746305129083
 20
161.396645458131
 30
0.0
 40
400.0
 41
240.0
 68
     2
 69
     2
1001
ACAD
1000
MVIEW
1002
{
1070
    16
1010
0.0
1020
0.0
1030
0.0
1010
0.0
1020
0.0
1030
1.0
1040
0.0
1040
480.0
1040
491.461302299248
1040
996.597975912386
1040
50.0
1040
0.0
1040
0.0
1070
    16
1070
   100
1070
     0
1070
     0
1070
     0
1070
     0
1070
     0
1070
     0
1040
0.0
1040
0.0
1040
0.0
1040
1.0
1040
1.0
1040
0.0
1040
0.0
1070
     0
1002
{
1002
}
1002
}
  0
INSERT
  5
2A59
330
28FB
100
AcDbEntity
 67
     1
  8
図枠太線
100
AcDbBlockReference
  2
A3横用_タイトル
 10
-0.352109406709
 20
-2.129314295396
 30
0.0
  0
MTEXT
  5
2FE3
330
28FB
100
AcDbEntity
 67
     1
  8
寸法線
 48
10.0
100
AcDbMText
 10
149.281561913196
 20
13.738838105692
 30
0.0
 40
7.0
 41
10.579051054442
 71
     1
 72
     5
  1
1:2
  0
MTEXT
  5
2FE7
330
28FB
100
AcDbEntity
 67
     1
  8
寸法線
 48
10.0
100
AcDbMText
 10
312.502621362913
 20
33.107736922225
 30
0.0
 40
6.0
 41
53.647044270833
 71
     1
 72
     5
  1
RRH-3□□-0
  0
MTEXT
  5
2FE8
330
28FB
100
AcDbEntity
 67
     1
  8
寸法線
 48
10.0
100
AcDbMText
 10
363.257693177112
 20
37.807266065601
 30
0.0
 40
6.0
 41
50.761524795071
 71
     1
 72
     5
  1
{\H0.8333x;振動式\Pレベルスイッチ}
  0
MTEXT
  5
3100
330
28FB
100
AcDbEntity
 67
     1
  8
寸法線
 48
10.0
100
AcDbMText
 10
272.300488718679
 20
48.787921847374
 30
0.0
 40
5.0
 41
58.550841599714
 71
     1
 72
     5
  1
A3縮小図
  0
LINE
  5
3101
330
28FB
100
AcDbEntity
 67
     1
  8
寸法線
 48
10.0
100
AcDbLine
 10
272.300488718679
 20
42.916202519738
 30
0.0
 11
296.843718665885
 21
42.916202519738
 31
0.0
  0
MTEXT
  5
342E
330
28FB
100
AcDbEntity
 67
     1
  8
寸法線
 48
10.0
100
AcDbMText
 10
376.730127672352
 20
48.224963581677
 30
0.0
 40
5.0
 41
54.683098362957
 71
     1
 72
     5
  1
{\C1;台数   台}
  0
MTEXT
  5
4658
102
{ACAD_XDICTIONARY
360
48F8
102
}
330
28FB
100
AcDbEntity
 67
     1
  8
寸法線
 48
10.0
100
AcDbMText
 10
341.501322232846
 20
14.051009769554
 30
0.0
 40
7.0
 41
68.56
 71
     1
 72
     5
  1
HVR-2009
1001
ACADANNOTATIVE
1000
AnnotativeData
1002
{
1070
     1
1070
     0
1002
}
  0
MTEXT
  5
4995
102
{ACAD_XDICTIONARY
360
4996
102
}
330
28FB
100
AcDbEntity
 67
     1
  8
寸法線
 48
10.0
100
AcDbMText
 10
175.506541278264
 20
12.819600893732
 30
0.0
 40
5.0
 41
60.244444444444
 71
     1
 72
     5
  1
2015.8.25
1001
ACADANNOTATIVE
1000
AnnotativeData
1002
{
1070
     1
1070
     0
1002
}
  0
MTEXT
  5
4999
102
{ACAD_XDICTIONARY
360
499A
102
}
330
28FB
100
AcDbEntity
 67
     1
  8
寸法線
 48
10.0
100
AcDbMText
 10
173.953401409015
 20
32.625226751426
 30
0.0
 40
5.0
 41
24.595673902063
 71
     1
 72
     5
  1
takahashi
1001
ACADANNOTATIVE
1000
AnnotativeData
1002
{
1070
     1
1070
     0
1002
}
  0
MTEXT
  5
5002
102
{ACAD_XDICTIONARY
360
5003
102
}
330
28FB
100
AcDbEntity
 67
     1
  8
下書線
 48
10.0
100
AcDbMText
 10
53.934712179586
 20
175.338947329008
 30
0.0
 40
10.0
 41
174.128675272846
 71
     5
 72
     5
  1
HP掲載図面\P変更・追記不可
1001
ACADANNOTATIVE
1000
AnnotativeData
1002
{
1070
     1
1070
     0
1002
}
  0
LWPOLYLINE
  5
5006
330
28FB
100
AcDbEntity
 67
     1
  8
下書線
 48
10.0
100
AcDbPolyline
 90
        4
 70
     1
 43
0.0
 10
11.704566926014
 20
193.765552160408
 10
95.53873068977
 20
193.765552160408
 10
95.53873068977
 20
156.643413224428
 10
11.704566926014
 20
156.643413224428
  0
MTEXT
  5
5346
102
{ACAD_XDICTIONARY
360
5347
102
}
330
28FB
100
AcDbEntity
 67
     1
  8
寸法線
 48
10.0
100
AcDbMText
 10
154.696305129083
 20
29.396646458131
 30
0.0
 40
4.5
 41
29.906507692735
 71
     5
 72
     5
  1
tahara
1001
ACADANNOTATIVE
1000
AnnotativeData
1002
{
1070
     1
1070
     0
1002
}
  0
MTEXT
  5
534A
102
{ACAD_XDICTIONARY
360
534B
102
}
330
28FB
100
AcDbEntity
 67
     1
  8
寸法線
 48
10.0
100
AcDbMText
 10
121.396304528483
 20
29.396646458131
 30
0.0
 40
4.5
 41
16.097226867587
 71
     5
 72
     5
  1
konishi
1001
ACADANNOTATIVE
1000
AnnotativeData
1002
{
1070
     1
1070
     0
1002
}
  0
ENDSEC
  0
SECTION
  2
OBJECTS
  0
DICTIONARY
  5
C
330
0
100
AcDbDictionary
  3
ACAD_COLOR
350
2948
  3
ACAD_GROUP
350
D
  3
ACAD_LAYOUT
350
2816
  3
ACAD_MATERIAL
350
2947
  3
ACAD_MLEADERSTYLE
350
4699
  3
ACAD_MLINESTYLE
350
E
  3
ACAD_PLOTSETTINGS
350
2817
  3
ACAD_SCALELIST
350
4672
  3
ACAD_VISUALSTYLE
350
4659
  3
ACADDIM
350
30EB
  3
ACDBHEADERROUNDTRIPXREC
350
5416
  3
ACDBVARIABLEDICTIONARY
350
47E7
  3
DWGPROPS
350
543B
  0
DICTIONARY
  5
543C
330
8
100
AcDbDictionary
280
     1
  3
ACAD_XREC_ROUNDTRIP
360
543D
  0
DICTIONARY
  5
29EA
330
2
100
AcDbDictionary
280
     1
  3
ACAD_LAYERFILTERS
360
2B0C
  3
ACAD_LAYERSTATES
360
29EB
  0
DICTIONARY
  5
50B5
330
40FD
100
AcDbDictionary
280
     1
  3
ACDBCONTEXTDATAMANAGER
360
50B6
  0
DICTIONARY
  5
4E01
330
415A
100
AcDbDictionary
280
     1
  3
ACDBCONTEXTDATAMANAGER
360
4E02
  0
DICTIONARY
  5
4E68
330
4198
100
AcDbDictionary
280
     1
  3
ACDBCONTEXTDATAMANAGER
360
4E69
  0
DICTIONARY
  5
46D6
330
46D5
100
AcDbDictionary
280
     1
  3
ACDBCONTEXTDATAMANAGER
360
46D7
  0
DICTIONARY
  5
4767
330
4766
100
AcDbDictionary
280
     1
  3
ACDBCONTEXTDATAMANAGER
360
4768
  0
DICTIONARY
  5
4775
330
4774
100
AcDbDictionary
280
     1
  3
ACDBCONTEXTDATAMANAGER
360
4776
  0
DICTIONARY
  5
477F
330
477E
100
AcDbDictionary
280
     1
  3
ACDBCONTEXTDATAMANAGER
360
4780
  0
DICTIONARY
  5
4787
330
4786
100
AcDbDictionary
280
     1
  3
ACDBCONTEXTDATAMANAGER
360
4788
  0
DICTIONARY
  5
478E
330
478D
100
AcDbDictionary
280
     1
  3
ACDBCONTEXTDATAMANAGER
360
478F
  0
DICTIONARY
  5
479A
330
4799
100
AcDbDictionary
280
     1
  3
ACDBCONTEXTDATAMANAGER
360
479B
  0
DICTIONARY
  5
47A4
330
47A3
100
AcDbDictionary
280
     1
  3
ACDBCONTEXTDATAMANAGER
360
47A5
  0
DICTIONARY
  5
47AF
330
47AE
100
AcDbDictionary
280
     1
  3
ACDBCONTEXTDATAMANAGER
360
47B0
  0
DICTIONARY
  5
47B3
330
47B2
100
AcDbDictionary
280
     1
  3
ACDBCONTEXTDATAMANAGER
360
47B4
  0
DICTIONARY
  5
47B7
330
47B6
100
AcDbDictionary
280
     1
  3
ACDBCONTEXTDATAMANAGER
360
47B8
  0
DICTIONARY
  5
4B94
330
4B93
100
AcDbDictionary
280
     1
  3
ACDBCONTEXTDATAMANAGER
360
4B95
  0
DICTIONARY
  5
4BC9
330
4BC8
100
AcDbDictionary
280
     1
  3
ACDBCONTEXTDATAMANAGER
360
4BCA
  0
DICTIONARY
  5
4BFE
330
4BFD
100
AcDbDictionary
280
     1
  3
ACDBCONTEXTDATAMANAGER
360
4BFF
  0
DICTIONARY
  5
4C33
330
4C32
100
AcDbDictionary
280
     1
  3
ACDBCONTEXTDATAMANAGER
360
4C34
  0
DICTIONARY
  5
4C68
330
4C67
100
AcDbDictionary
280
     1
  3
ACDBCONTEXTDATAMANAGER
360
4C69
  0
DICTIONARY
  5
4C9D
330
4C9C
100
AcDbDictionary
280
     1
  3
ACDBCONTEXTDATAMANAGER
360
4C9E
  0
DICTIONARY
  5
4CD2
330
4CD1
100
AcDbDictionary
280
     1
  3
ACDBCONTEXTDATAMANAGER
360
4CD3
  0
DICTIONARY
  5
48F8
330
4658
100
AcDbDictionary
280
     1
  3
ACDBCONTEXTDATAMANAGER
360
48F9
  0
DICTIONARY
  5
4996
330
4995
100
AcDbDictionary
280
     1
  3
ACDBCONTEXTDATAMANAGER
360
4997
  0
DICTIONARY
  5
499A
330
4999
100
AcDbDictionary
280
     1
  3
ACDBCONTEXTDATAMANAGER
360
499B
  0
DICTIONARY
  5
5003
330
5002
100
AcDbDictionary
280
     1
  3
ACDBCONTEXTDATAMANAGER
360
5004
  0
DICTIONARY
  5
5347
330
5346
100
AcDbDictionary
280
     1
  3
ACDBCONTEXTDATAMANAGER
360
5348
  0
DICTIONARY
  5
534B
330
534A
100
AcDbDictionary
280
     1
  3
ACDBCONTEXTDATAMANAGER
360
534C
  0
DICTIONARY
  5
2948
102
{ACAD_REACTORS
330
C
102
}
330
C
100
AcDbDictionary
  0
DICTIONARY
  5
D
102
{ACAD_REACTORS
330
C
102
}
330
C
100
AcDbDictionary
  0
DICTIONARY
  5
2816
102
{ACAD_REACTORS
330
C
102
}
330
C
100
AcDbDictionary
  0
DICTIONARY
  5
2947
102
{ACAD_REACTORS
330
C
102
}
330
C
100
AcDbDictionary
  3
BYBLOCK
350
4695
  3
BYLAYER
350
4694
  3
GLOBAL
350
4696
  0
DICTIONARY
  5
4699
102
{ACAD_REACTORS
330
C
102
}
330
C
100
AcDbDictionary
  3
STANDARD
350
469A
  0
DICTIONARY
  5
E
102
{ACAD_REACTORS
330
C
102
}
330
C
100
AcDbDictionary
  3
STANDARD
350
13
  0
DICTIONARY
  5
2817
102
{ACAD_REACTORS
330
C
102
}
330
C
100
AcDbDictionary
  0
DICTIONARY
  5
4672
102
{ACAD_REACTORS
330
C
102
}
330
C
100
AcDbDictionary
  3
A0
350
4673
  3
A1
350
4674
  3
A2
350
4675
  3
A3
350
4676
  3
A4
350
4677
  3
A5
350
4678
  3
A6
350
4679
  3
A7
350
467A
  3
A8
350
467B
  3
A9
350
467C
  3
B0
350
467D
  3
B1
350
467E
  3
B2
350
467F
  3
B3
350
4680
  3
B4
350
4681
  3
B5
350
4682
  3
B6
350
4683
  3
B7
350
4684
  3
B8
350
4685
  3
B9
350
4686
  3
C0
350
4687
  3
C1
350
4688
  3
C2
350
4689
  3
C3
350
468A
  3
C4
350
468B
  3
C5
350
468C
  3
C6
350
468D
  3
C7
350
468E
  3
C8
350
468F
  3
C9
350
4690
  3
D0
350
4691
  3
D1
350
4692
  3
D2
350
4693
  0
DICTIONARY
  5
4659
102
{ACAD_REACTORS
330
C
102
}
330
C
100
AcDbDictionary
  3
2DWIREFRAME
350
465E
  3
BASIC
350
4661
  3
BRIGHTEN
350
4665
  3
COLORCHANGE
350
4669
  3
CONCEPTUAL
350
4663
  3
DIM
350
4664
  3
EDGECOLOROFF
350
466C
  3
FACEPATTERN
350
4668
  3
FLAT
350
465A
  3
FLATWITHEDGES
350
465B
  3
GOURAUD
350
465C
  3
GOURAUDWITHEDGES
350
465D
  3
HIDDEN
350
4660
  3
JITTEROFF
350
466A
  3
LINEPATTERN
350
4667
  3
MODELING
350
469B
  3
OVERHANGOFF
350
466B
  3
REALISTIC
350
4662
  3
SHADED
350
4671
  3
SHADED_WITH_EDGES
350
4670
  3
SHADES_OF_GRAY
350
466D
  3
SKETCHY
350
466E
  3
THICKEN
350
4666
  3
WIREFRAME
350
465F
  3
X-RAY
350
466F
  0
XRECORD
  5
30EB
102
{ACAD_REACTORS
330
C
102
}
330
C
100
AcDbXrecord
 90
   990106
  3

 60
     0
 61
     0
 62
     1
 63
     3
 64
     0
 65
     0
 66
     0
 67
     3
 68
     1
 69
     0
 70
     0
 71
     0
 72
     0
 40
0.0
170
     0
  0
DICTIONARY
  5
5416
102
{ACAD_REACTORS
330
C
102
}
330
C
100
AcDbDictionary
  3
CEPSNID
350
5420
  3
CEPSNTYPE
350
541F
  3
COLORDICT
350
5439
  3
DIMSTYLEDATA
350
5436
  3
FINGERPRINTGUID
350
5421
  3
HYPERLINKBASE
350
5419
  3
INSUNITS
350
541E
  3
LAYOUTDICT
350
541B
  3
LWETCUNION
350
541D
  3
MATERIALDICT
350
543A
  3
PLOTSETDICT
350
541C
  3
PSVPSCALE
350
5423
  3
PUCSBASE
350
5426
  3
PUCSORGBACK
350
542C
  3
PUCSORGBOTTOM
350
5428
  3
PUCSORGFRONT
350
542B
  3
PUCSORGLEFT
350
5429
  3
PUCSORGRIGHT
350
542A
  3
PUCSORGTOP
350
5427
  3
PUCSORTHOREF
350
5424
  3
PUCSORTHOVIEW
350
5425
  3
STYLESHEET
350
541A
  3
TSTACKALIGN
350
5417
  3
TSTACKSIZE
350
5418
  3
UCSBASE
350
542F
  3
UCSORGBACK
350
5435
  3
UCSORGBOTTOM
350
5431
  3
UCSORGFRONT
350
5434
  3
UCSORGLEFT
350
5432
  3
UCSORGRIGHT
350
5433
  3
UCSORGTOP
350
5430
  3
UCSORTHOREF
350
542D
  3
UCSORTHOVIEW
350
542E
  3
VERSIONGUID
350
5422
  0
DICTIONARY
  5
47E7
102
{ACAD_REACTORS
330
C
102
}
330
C
100
AcDbDictionary
  3
CANNOSCALE
350
47E8
  3
CMLEADERSTYLE
350
4829
  3
CTABLESTYLE
350
4828
  3
DIMASSOC
350
5437
  3
HIDETEXT
350
5438
  3
MSLTSCALE
350
482A
  3
XCLIPFRAME
350
482B
  0
XRECORD
  5
543B
102
{ACAD_REACTORS
330
C
102
}
330
C
100
AcDbXrecord
  1
DWGPROPS COOKIE
  2

  3

  4

  6

  7

  8
takahashi
  9

300
=
301
=
302
=
303
=
304
=
305
=
306
=
307
=
308
=
309
=
 40
0.0
 41
2450576.222302431
 42
2457268.997625336
  1

 90
        0
  0
XRECORD
  5
543D
102
{ACAD_REACTORS
330
543C
102
}
330
543C
100
AcDbXrecord
102
VTR_0.000_0.000_1.000_1.000_VISUALSTYLE
340
465E
102
VTR_0.000_0.000_1.000_1.000_GRIDDISPLAY
 70
     3
102
VTR_0.000_0.000_1.000_1.000_GRIDMAJOR
 70
     5
102
VTR_0.000_0.000_1.000_1.000_DEFAULTLIGHTING
280
     1
102
VTR_0.000_0.000_1.000_1.000_DEFAULTLIGHTINGTYPE
 70
     1
102
VTR_0.000_0.000_1.000_1.000_BRIGHTNESS
141
0.0
102
VTR_0.000_0.000_1.000_1.000_CONTRAST
142
0.0
  0
DICTIONARY
  5
2B0C
102
{ACAD_REACTORS
330
29EA
102
}
330
29EA
100
AcDbDictionary
  0
DICTIONARY
  5
29EB
102
{ACAD_REACTORS
330
29EA
102
}
330
29EA
100
AcDbDictionary
  0
DICTIONARY
  5
50B6
102
{ACAD_REACTORS
330
50B5
102
}
330
50B5
100
AcDbDictionary
  3
ACDB_ANNOTATIONSCALES
350
50B7
  0
DICTIONARY
  5
4E02
102
{ACAD_REACTORS
330
4E01
102
}
330
4E01
100
AcDbDictionary
  3
ACDB_ANNOTATIONSCALES
350
4E03
  0
DICTIONARY
  5
4E69
102
{ACAD_REACTORS
330
4E68
102
}
330
4E68
100
AcDbDictionary
  3
ACDB_ANNOTATIONSCALES
350
4E6A
  0
DICTIONARY
  5
46D7
102
{ACAD_REACTORS
330
46D6
102
}
330
46D6
100
AcDbDictionary
  3
ACDB_ANNOTATIONSCALES
350
46D8
  0
DICTIONARY
  5
4768
102
{ACAD_REACTORS
330
4767
102
}
330
4767
100
AcDbDictionary
  3
ACDB_ANNOTATIONSCALES
350
4769
  0
DICTIONARY
  5
4776
102
{ACAD_REACTORS
330
4775
102
}
330
4775
100
AcDbDictionary
  3
ACDB_ANNOTATIONSCALES
350
4777
  0
DICTIONARY
  5
4780
102
{ACAD_REACTORS
330
477F
102
}
330
477F
100
AcDbDictionary
  3
ACDB_ANNOTATIONSCALES
350
4781
  0
DICTIONARY
  5
4788
102
{ACAD_REACTORS
330
4787
102
}
330
4787
100
AcDbDictionary
  3
ACDB_ANNOTATIONSCALES
350
4789
  0
DICTIONARY
  5
478F
102
{ACAD_REACTORS
330
478E
102
}
330
478E
100
AcDbDictionary
  3
ACDB_ANNOTATIONSCALES
350
4790
  0
DICTIONARY
  5
479B
102
{ACAD_REACTORS
330
479A
102
}
330
479A
100
AcDbDictionary
  3
ACDB_ANNOTATIONSCALES
350
479C
  0
DICTIONARY
  5
47A5
102
{ACAD_REACTORS
330
47A4
102
}
330
47A4
100
AcDbDictionary
  3
ACDB_ANNOTATIONSCALES
350
47A6
  0
DICTIONARY
  5
47B0
102
{ACAD_REACTORS
330
47AF
102
}
330
47AF
100
AcDbDictionary
  3
ACDB_ANNOTATIONSCALES
350
47B1
  0
DICTIONARY
  5
47B4
102
{ACAD_REACTORS
330
47B3
102
}
330
47B3
100
AcDbDictionary
  3
ACDB_ANNOTATIONSCALES
350
47B5
  0
DICTIONARY
  5
47B8
102
{ACAD_REACTORS
330
47B7
102
}
330
47B7
100
AcDbDictionary
  3
ACDB_ANNOTATIONSCALES
350
47B9
  0
DICTIONARY
  5
4B95
102
{ACAD_REACTORS
330
4B94
102
}
330
4B94
100
AcDbDictionary
  3
ACDB_ANNOTATIONSCALES
350
4B96
  0
DICTIONARY
  5
4BCA
102
{ACAD_REACTORS
330
4BC9
102
}
330
4BC9
100
AcDbDictionary
  3
ACDB_ANNOTATIONSCALES
350
4BCB
  0
DICTIONARY
  5
4BFF
102
{ACAD_REACTORS
330
4BFE
102
}
330
4BFE
100
AcDbDictionary
  3
ACDB_ANNOTATIONSCALES
350
4C00
  0
DICTIONARY
  5
4C34
102
{ACAD_REACTORS
330
4C33
102
}
330
4C33
100
AcDbDictionary
  3
ACDB_ANNOTATIONSCALES
350
4C35
  0
DICTIONARY
  5
4C69
102
{ACAD_REACTORS
330
4C68
102
}
330
4C68
100
AcDbDictionary
  3
ACDB_ANNOTATIONSCALES
350
4C6A
  0
DICTIONARY
  5
4C9E
102
{ACAD_REACTORS
330
4C9D
102
}
330
4C9D
100
AcDbDictionary
  3
ACDB_ANNOTATIONSCALES
350
4C9F
  0
DICTIONARY
  5
4CD3
102
{ACAD_REACTORS
330
4CD2
102
}
330
4CD2
100
AcDbDictionary
  3
ACDB_ANNOTATIONSCALES
350
4CD4
  0
DICTIONARY
  5
48F9
102
{ACAD_REACTORS
330
48F8
102
}
330
48F8
100
AcDbDictionary
  3
ACDB_ANNOTATIONSCALES
350
48FA
  0
DICTIONARY
  5
4997
102
{ACAD_REACTORS
330
4996
102
}
330
4996
100
AcDbDictionary
  3
ACDB_ANNOTATIONSCALES
350
4998
  0
DICTIONARY
  5
499B
102
{ACAD_REACTORS
330
499A
102
}
330
499A
100
AcDbDictionary
  3
ACDB_ANNOTATIONSCALES
350
499C
  0
DICTIONARY
  5
5004
102
{ACAD_REACTORS
330
5003
102
}
330
5003
100
AcDbDictionary
  3
ACDB_ANNOTATIONSCALES
350
5005
  0
DICTIONARY
  5
5348
102
{ACAD_REACTORS
330
5347
102
}
330
5347
100
AcDbDictionary
  3
ACDB_ANNOTATIONSCALES
350
5349
  0
DICTIONARY
  5
534C
102
{ACAD_REACTORS
330
534B
102
}
330
534B
100
AcDbDictionary
  3
ACDB_ANNOTATIONSCALES
350
534D
  0
MATERIAL
  5
4695
102
{ACAD_REACTORS
330
2947
102
}
102
{ACAD_XDICTIONARY
360
5440
102
}
330
2947
100
AcDbMaterial
  1
BYBLOCK
  0
MATERIAL
  5
4694
102
{ACAD_REACTORS
330
2947
102
}
102
{ACAD_XDICTIONARY
360
543E
102
}
330
2947
100
AcDbMaterial
  1
BYLAYER
  0
MATERIAL
  5
4696
102
{ACAD_REACTORS
330
2947
102
}
102
{ACAD_XDICTIONARY
360
5442
102
}
330
2947
100
AcDbMaterial
  1
GLOBAL
  0
ACAD_PROXY_OBJECT
  5
469A
102
{ACAD_REACTORS
330
4699
102
}
330
4699
100
AcDbProxyObject
 90
      499
 91
      508
 93
      610
310
40901902A4063FBFFFFFE0000000000000020400000000000020404214DD185B99185C990000000000000104090141901A00000000000004100000000000000041025764000000000000039000
340
14
340
0
340
10
340
0
 94
        0
1001
ACAD_MLEADERVER
1070
     2
  0
MLINESTYLE
  5
13
102
{ACAD_REACTORS
330
E
102
}
330
E
100
AcDbMlineStyle
  2
STANDARD
 70
     0
  3

 62
     0
 51
90.0
 52
90.0
 71
     2
 49
0.5
 62
   256
  6
BYLAYER
 49
-0.5
 62
   256
  6
BYLAYER
  0
ACAD_PROXY_OBJECT
  5
4673
102
{ACAD_REACTORS
330
4672
102
}
330
4672
100
AcDbProxyObject
 90
      499
 91
      505
 93
       41
310
903313A31580
  0
ACAD_PROXY_OBJECT
  5
4674
102
{ACAD_REACTORS
330
4672
102
}
330
4672
100
AcDbProxyObject
 90
      499
 91
      505
 93
      105
310
903313A324000000000000004000
  0
ACAD_PROXY_OBJECT
  5
4675
102
{ACAD_REACTORS
330
4672
102
}
330
4672
100
AcDbProxyObject
 90
      499
 91
      505
 93
      105
310
903313A344000000000000104000
  0
ACAD_PROXY_OBJECT
  5
4676
102
{ACAD_REACTORS
330
4672
102
}
330
4672
100
AcDbProxyObject
 90
      499
 91
      505
 93
      105
310
903313A354000000000000144000
  0
ACAD_PROXY_OBJECT
  5
4677
102
{ACAD_REACTORS
330
4672
102
}
330
4672
100
AcDbProxyObject
 90
      499
 91
      505
 93
      105
310
903313A384000000000000204000
  0
ACAD_PROXY_OBJECT
  5
4678
102
{ACAD_REACTORS
330
4672
102
}
330
4672
100
AcDbProxyObject
 90
      499
 91
      505
 93
      113
310
904313A31304000000000000244000
  0
ACAD_PROXY_OBJECT
  5
4679
102
{ACAD_REACTORS
330
4672
102
}
330
4672
100
AcDbProxyObject
 90
      499
 91
      505
 93
      113
310
904313A31364000000000000304000
  0
ACAD_PROXY_OBJECT
  5
467A
102
{ACAD_REACTORS
330
4672
102
}
330
4672
100
AcDbProxyObject
 90
      499
 91
      505
 93
      113
310
904313A32304000000000000344000
  0
ACAD_PROXY_OBJECT
  5
467B
102
{ACAD_REACTORS
330
4672
102
}
330
4672
100
AcDbProxyObject
 90
      499
 91
      505
 93
      113
310
904313A333040000000000003E4000
  0
ACAD_PROXY_OBJECT
  5
467C
102
{ACAD_REACTORS
330
4672
102
}
330
4672
100
AcDbProxyObject
 90
      499
 91
      505
 93
      113
310
904313A34304000000000000444000
  0
ACAD_PROXY_OBJECT
  5
467D
102
{ACAD_REACTORS
330
4672
102
}
330
4672
100
AcDbProxyObject
 90
      499
 91
      505
 93
      113
310
904313A35304000000000000494000
  0
ACAD_PROXY_OBJECT
  5
467E
102
{ACAD_REACTORS
330
4672
102
}
330
4672
100
AcDbProxyObject
 90
      499
 91
      505
 93
      121
310
905313A3130304000000000000594000
  0
ACAD_PROXY_OBJECT
  5
467F
102
{ACAD_REACTORS
330
4672
102
}
330
4672
100
AcDbProxyObject
 90
      499
 91
      505
 93
      105
310
903323A310000000000000010100
  0
ACAD_PROXY_OBJECT
  5
4680
102
{ACAD_REACTORS
330
4672
102
}
330
4672
100
AcDbProxyObject
 90
      499
 91
      505
 93
      105
310
903343A310000000000000410100
  0
ACAD_PROXY_OBJECT
  5
4681
102
{ACAD_REACTORS
330
4672
102
}
330
4672
100
AcDbProxyObject
 90
      499
 91
      505
 93
      105
310
903383A310000000000000810100
  0
ACAD_PROXY_OBJECT
  5
4682
102
{ACAD_REACTORS
330
4672
102
}
330
4672
100
AcDbProxyObject
 90
      499
 91
      505
 93
      113
310
90431303A310000000000000910100
  0
ACAD_PROXY_OBJECT
  5
4683
102
{ACAD_REACTORS
330
4672
102
}
330
4672
100
AcDbProxyObject
 90
      499
 91
      505
 93
      121
310
9053130303A310000000000001650100
  0
ACAD_PROXY_OBJECT
  5
4684
102
{ACAD_REACTORS
330
4672
102
}
330
4672
100
AcDbProxyObject
 90
      499
 91
      505
 93
      257
310
90E312F31323822203D2031272D3022000000000000200FC000000000000284000
  0
ACAD_PROXY_OBJECT
  5
4685
102
{ACAD_REACTORS
330
4672
102
}
330
4672
100
AcDbProxyObject
 90
      499
 91
      505
 93
      249
310
90D312F363422203D2031272D3022000000000000240FC000000000000284000
  0
ACAD_PROXY_OBJECT
  5
4686
102
{ACAD_REACTORS
330
4672
102
}
330
4672
100
AcDbProxyObject
 90
      499
 91
      505
 93
      249
310
90D312F333222203D2031272D3022000000000000280FC000000000000284000
  0
ACAD_PROXY_OBJECT
  5
4687
102
{ACAD_REACTORS
330
4672
102
}
330
4672
100
AcDbProxyObject
 90
      499
 91
      505
 93
      249
310
90D312F313622203D2031272D30220000000000002C0FC000000000000284000
  0
ACAD_PROXY_OBJECT
  5
4688
102
{ACAD_REACTORS
330
4672
102
}
330
4672
100
AcDbProxyObject
 90
      499
 91
      505
 93
      249
310
90D332F333222203D2031272D30220000000000002E0FC000000000000284000
  0
ACAD_PROXY_OBJECT
  5
4689
102
{ACAD_REACTORS
330
4672
102
}
330
4672
100
AcDbProxyObject
 90
      499
 91
      505
 93
      241
310
90C312F3822203D2031272D3022000000000000300FC000000000000284000
  0
ACAD_PROXY_OBJECT
  5
468A
102
{ACAD_REACTORS
330
4672
102
}
330
4672
100
AcDbProxyObject
 90
      499
 91
      505
 93
      249
310
90D332F313622203D2031272D3022000000000000320FC000000000000284000
  0
ACAD_PROXY_OBJECT
  5
468B
102
{ACAD_REACTORS
330
4672
102
}
330
4672
100
AcDbProxyObject
 90
      499
 91
      505
 93
      241
310
90C312F3422203D2031272D3022000000000000340FC000000000000284000
  0
ACAD_PROXY_OBJECT
  5
468C
102
{ACAD_REACTORS
330
4672
102
}
330
4672
100
AcDbProxyObject
 90
      499
 91
      505
 93
      241
310
90C332F3822203D2031272D3022000000000000360FC000000000000284000
  0
ACAD_PROXY_OBJECT
  5
468D
102
{ACAD_REACTORS
330
4672
102
}
330
4672
100
AcDbProxyObject
 90
      499
 91
      505
 93
      241
310
90C312F3222203D2031272D3022000000000000380FC000000000000284000
  0
ACAD_PROXY_OBJECT
  5
468E
102
{ACAD_REACTORS
330
4672
102
}
330
4672
100
AcDbProxyObject
 90
      499
 91
      505
 93
      241
310
90C332F3422203D2031272D30220000000000003A0FC000000000000284000
  0
ACAD_PROXY_OBJECT
  5
468F
102
{ACAD_REACTORS
330
4672
102
}
330
4672
100
AcDbProxyObject
 90
      499
 91
      505
 93
      161
310
90A3122203D2031272D30224000000000000284000
  0
ACAD_PROXY_OBJECT
  5
4690
102
{ACAD_REACTORS
330
4672
102
}
330
4672
100
AcDbProxyObject
 90
      499
 91
      505
 93
      257
310
90E312D312F3222203D2031272D30220000000000003E0FC000000000000284000
  0
ACAD_PROXY_OBJECT
  5
4691
102
{ACAD_REACTORS
330
4672
102
}
330
4672
100
AcDbProxyObject
 90
      499
 91
      505
 93
      225
310
90A3322203D2031272D302200000000000002100000000000000284000
  0
ACAD_PROXY_OBJECT
  5
4692
102
{ACAD_REACTORS
330
4672
102
}
330
4672
100
AcDbProxyObject
 90
      499
 91
      505
 93
      225
310
90A3622203D2031272D302200000000000006100000000000000284000
  0
ACAD_PROXY_OBJECT
  5
4693
102
{ACAD_REACTORS
330
4672
102
}
330
4672
100
AcDbProxyObject
 90
      499
 91
      505
 93
      249
310
90D31272D3022203D2031272D30220000000000000A100000000000000284000
  0
ACAD_PROXY_OBJECT
  5
465E
102
{ACAD_REACTORS
330
4659
102
}
330
4659
100
AcDbProxyObject
 90
      499
 91
      504
 93
      436
310
42CC9915DA5C99599C985B595049028333333333333E33F0000000000000F90107901411070040501600405405064090741402480A0340
1001
ACAD
1000
AcDbSavedByObjectVersion
1070
     0
  0
ACAD_PROXY_OBJECT
  5
4661
102
{ACAD_REACTORS
330
4659
102
}
330
4659
100
AcDbProxyObject
 90
      499
 91
      504
 93
      388
310
4150985CDA58D07406404333333333333E33F0000000000000F90107A41107004050150841D405064090741402480A0350
1001
ACAD
1000
AcDbSavedByObjectVersion
1070
     0
  0
ACAD_PROXY_OBJECT
  5
4665
102
{ACAD_REACTORS
330
4659
102
}
330
4659
100
AcDbProxyObject
 90
      499
 91
      504
 93
      428
310
42109C9A59DA1D195B90C409028333333333333E33F0000000000000F9010790141107004050150841D405064090741402480A029950
1001
ACAD
1000
AcDbSavedByObjectVersion
1070
     0
  0
ACAD_PROXY_OBJECT
  5
4669
102
{ACAD_REACTORS
330
4659
102
}
330
4659
100
AcDbProxyObject
 90
      499
 91
      504
 93
      452
310
42D0DBDB1BDC90DA185B99D95104090240C333333333333E33F0000000000000F90108901411070040501508421405064090741402480A0350
1001
ACAD
1000
AcDbSavedByObjectVersion
1070
     0
  0
ACAD_PROXY_OBJECT
  5
4663
102
{ACAD_REACTORS
330
4659
102
}
330
4659
100
AcDbProxyObject
 90
      499
 91
      504
 93
      500
310
4290DBDB98D95C1D1D585B10940D028333333333333E33F0000000000000F90107902409070040501000000000018199010841D405064090740C02480A0340
1001
ACAD
1000
AcDbSavedByObjectVersion
1070
     0
  0
ACAD_PROXY_OBJECT
  5
4664
102
{ACAD_REACTORS
330
4659
102
}
330
4659
100
AcDbProxyObject
 90
      499
 91
      504
 93
      412
310
40D11A5B50B409028333333333333E33F0000000000000F9010790141107004050150841D405064090741402480A02677FFFFFD0
1001
ACAD
1000
AcDbSavedByObjectVersion
1070
     0
  0
ACAD_PROXY_OBJECT
  5
466C
102
{ACAD_REACTORS
330
4659
102
}
330
4659
100
AcDbProxyObject
 90
      499
 91
      504
 93
      452
310
43115919D950DBDB1BDC93D999916409028333333333333E33F0000000000000F9010790141107004050150841D405064090741402480A0350
1001
ACAD
1000
AcDbSavedByObjectVersion
1070
     0
  0
ACAD_PROXY_OBJECT
  5
4668
102
{ACAD_REACTORS
330
4659
102
}
330
4659
100
AcDbProxyObject
 90
      499
 91
      504
 93
      444
310
42D19858D95C185D1D195C9B90F409028333333333333E33F0000000000000F9010790141107004050150841D405064090741402480A0350
1001
ACAD
1000
AcDbSavedByObjectVersion
1070
     0
  0
ACAD_PROXY_OBJECT
  5
465A
102
{ACAD_REACTORS
330
4659
102
}
330
4659
100
AcDbProxyObject
 90
      499
 91
      504
 93
      380
310
41119B185D240901404333333333333E33F0000000000000F9010740A907004050150841D405064090741402480A1B50
1001
ACAD
1000
AcDbSavedByObjectVersion
1070
     0
  0
ACAD_PROXY_OBJECT
  5
465B
102
{ACAD_REACTORS
330
4659
102
}
330
4659
100
AcDbProxyObject
 90
      499
 91
      504
 93
      468
310
43519B185D15DA5D1A115919D95CD0140901404333333333333E33F0000000000000F90107409019070040501600405405064090741402480A1B50
1001
ACAD
1000
AcDbSavedByObjectVersion
1070
     0
  0
ACAD_PROXY_OBJECT
  5
465C
102
{ACAD_REACTORS
330
4659
102
}
330
4659
100
AcDbProxyObject
 90
      499
 91
      504
 93
      404
310
41D1DBDD5C985D5910240902404333333333333E33F0000000000000F9010740A9070040501641D405064090741402480A1B50
1001
ACAD
1000
AcDbSavedByObjectVersion
1070
     0
  0
ACAD_PROXY_OBJECT
  5
465D
102
{ACAD_REACTORS
330
4659
102
}
330
4659
100
AcDbProxyObject
 90
      499
 91
      504
 93
      492
310
4411DBDD5C985D5915DA5D1A115919D95CD0340902404333333333333E33F0000000000000F90107409019070040501600405405064090741402480A1B50
1001
ACAD
1000
AcDbSavedByObjectVersion
1070
     0
  0
ACAD_PROXY_OBJECT
  5
4660
102
{ACAD_REACTORS
330
4659
102
}
330
4659
100
AcDbProxyObject
 90
      499
 91
      504
 93
      476
310
41921A5919195B90640502408333333333333E33F0000000000000F901079024090700405020000000000001110200405405064090740C02480A0340
1001
ACAD
1000
AcDbSavedByObjectVersion
1070
     0
  0
ACAD_PROXY_OBJECT
  5
466A
102
{ACAD_REACTORS
330
4659
102
}
330
4659
100
AcDbProxyObject
 90
      499
 91
      504
 93
      428
310
42529A5D1D195C93D999914409028333333333333E33F0000000000000F9010790141107004050150A41D405064090741402480A0350
1001
ACAD
1000
AcDbSavedByObjectVersion
1070
     0
  0
ACAD_PROXY_OBJECT
  5
4667
102
{ACAD_REACTORS
330
4659
102
}
330
4659
100
AcDbProxyObject
 90
      499
 91
      504
 93
      444
310
42D31A5B995C185D1D195C9B90E409028333333333333E33F0000000000000F9010790141107004050750841D405064090741402483A0350
1001
ACAD
1000
AcDbSavedByObjectVersion
1070
     0
  0
ACAD_PROXY_OBJECT
  5
469B
102
{ACAD_REACTORS
330
4659
102
}
330
4659
100
AcDbProxyObject
 90
      499
 91
      504
 93
      412
310
90A409038333333333333E33F0000000000000F901074090290700405010000000000201990108421405064090741402480A1B40
1001
ACAD
1000
AcDbSavedByObjectVersion
1070
     0
  0
ACAD_PROXY_OBJECT
  5
466B
102
{ACAD_REACTORS
330
4659
102
}
330
4659
100
AcDbProxyObject
 90
      499
 91
      504
 93
      444
310
42D3DD995C9A185B99D3D999915409028333333333333E33F0000000000000F9010790141107004050150941D405064090741402480A0350
1001
ACAD
1000
AcDbSavedByObjectVersion
1070
     0
  0
ACAD_PROXY_OBJECT
  5
4662
102
{ACAD_REACTORS
330
4659
102
}
330
4659
100
AcDbProxyObject
 90
      499
 91
      504
 93
      428
310
425499585B1A5CDD1A58D08409038333333333333E33F0000000000000F9010740A907004050150800405405064090740C02480A1B40
1001
ACAD
1000
AcDbSavedByObjectVersion
1070
     0
  0
ACAD_PROXY_OBJECT
  5
4671
102
{ACAD_REACTORS
330
4659
102
}
330
4659
100
AcDbProxyObject
 90
      499
 91
      504
 93
      420
310
4194DA1859195911B40902404333333333333E33F0000000000000F9010740A41107004050150800405405064090840C02480A0B40
1001
ACAD
1000
AcDbSavedByObjectVersion
1070
     0
  0
ACAD_PROXY_OBJECT
  5
4670
102
{ACAD_REACTORS
330
4659
102
}
330
4659
100
AcDbProxyObject
 90
      499
 91
      504
 93
      516
310
4454DA18591959081DDA5D1A08195919D95CD1A40902404333333333333E33F0000000000000F901074090142907004050250800405405064090740C02480A0B40
1001
ACAD
1000
AcDbSavedByObjectVersion
1070
     0
  0
ACAD_PROXY_OBJECT
  5
466D
102
{ACAD_REACTORS
330
4659
102
}
330
4659
100
AcDbProxyObject
 90
      499
 91
      504
 93
      532
310
4394DA1859195CC81BD98811DC985E5174090240C333333333333E33F0000000000000F901079024090741D01000000000000111010841D405064090740C02480A0340
1001
ACAD
1000
AcDbSavedByObjectVersion
1070
     0
  0
ACAD_PROXY_OBJECT
  5
466E
102
{ACAD_REACTORS
330
4659
102
}
330
4659
100
AcDbProxyObject
 90
      499
 91
      504
 93
      476
310
41D4DAD95D18DA1E51840502408333333333333E33F0000000000000F901079024090741D01000000000000111010B41D405064090741802480A0340
1001
ACAD
1000
AcDbSavedByObjectVersion
1070
     0
  0
ACAD_PROXY_OBJECT
  5
4666
102
{ACAD_REACTORS
330
4659
102
}
330
4659
100
AcDbProxyObject
 90
      499
 91
      504
 93
      412
310
41D51A1A58DAD95B90D409028333333333333E33F0000000000000F9010790141107004050150C41D405064090741402480A0350
1001
ACAD
1000
AcDbSavedByObjectVersion
1070
     0
  0
ACAD_PROXY_OBJECT
  5
465F
102
{ACAD_REACTORS
330
4659
102
}
330
4659
100
AcDbProxyObject
 90
      499
 91
      504
 93
      420
310
4255DA5C99599C985B595059028333333333333E33F0000000000000F90107901411070040501600405405064090740C02480A0340
1001
ACAD
1000
AcDbSavedByObjectVersion
1070
     0
  0
ACAD_PROXY_OBJECT
  5
466F
102
{ACAD_REACTORS
330
4659
102
}
330
4659
100
AcDbProxyObject
 90
      499
 91
      504
 93
      404
310
41560B54985E51940902404000000000000E03F0000000000000F9010740501907004050150841D405064090740C02480A1B40
1001
ACAD
1000
AcDbSavedByObjectVersion
1070
     0
  0
XRECORD
  5
5420
102
{ACAD_REACTORS
330
5416
102
}
330
5416
100
AcDbXrecord
340
0
  0
XRECORD
  5
541F
102
{ACAD_REACTORS
330
5416
102
}
330
5416
100
AcDbXrecord
 90
        0
  0
XRECORD
  5
5439
102
{ACAD_REACTORS
330
5416
102
}
330
5416
100
AcDbXrecord
340
2948
  0
XRECORD
  5
5436
102
{ACAD_REACTORS
330
5416
102
}
330
5416
100
AcDbXrecord
1000
DSTYLE
1002
{
1070
   171
 70
     2
1070
   143
 40
0.0394
1070
   274
 70
     2
1070
    41
 40
6.0
1070
   342
340
2AF4
1070
   271
 70
     1
1070
   278
 70
    46
1070
   341
340
2AF4
1070
   272
 70
     1
1070
    48
 40
0.1
1070
   283
 70
     1
1070
    47
 40
0.1
1070
   145
 40
1.0
1070
   340
340
10
1070
   140
 40
5.0
1070
   284
 70
     0
1002
}
  0
XRECORD
  5
5421
102
{ACAD_REACTORS
330
5416
102
}
330
5416
100
AcDbXrecord
  1
{23698909-1D67-4744-B0E2-8DE11E3ED422}
  0
XRECORD
  5
5419
102
{ACAD_REACTORS
330
5416
102
}
330
5416
100
AcDbXrecord
  1

  0
XRECORD
  5
541E
102
{ACAD_REACTORS
330
5416
102
}
330
5416
100
AcDbXrecord
 90
        0
  0
XRECORD
  5
541B
102
{ACAD_REACTORS
330
5416
102
}
330
5416
100
AcDbXrecord
340
2816
  0
XRECORD
  5
541D
102
{ACAD_REACTORS
330
5416
102
}
330
5416
100
AcDbXrecord
 90
    10781
  0
XRECORD
  5
543A
102
{ACAD_REACTORS
330
5416
102
}
330
5416
100
AcDbXrecord
340
2947
  0
XRECORD
  5
541C
102
{ACAD_REACTORS
330
5416
102
}
330
5416
100
AcDbXrecord
340
2817
  0
XRECORD
  5
5423
102
{ACAD_REACTORS
330
5416
102
}
330
5416
100
AcDbXrecord
 40
0.25
  0
XRECORD
  5
5426
102
{ACAD_REACTORS
330
5416
102
}
330
5416
100
AcDbXrecord
340
0
  0
XRECORD
  5
542C
102
{ACAD_REACTORS
330
5416
102
}
330
5416
100
AcDbXrecord
 10
0.0
 20
0.0
 30
0.0
  0
XRECORD
  5
5428
102
{ACAD_REACTORS
330
5416
102
}
330
5416
100
AcDbXrecord
 10
0.0
 20
0.0
 30
0.0
  0
XRECORD
  5
542B
102
{ACAD_REACTORS
330
5416
102
}
330
5416
100
AcDbXrecord
 10
0.0
 20
0.0
 30
0.0
  0
XRECORD
  5
5429
102
{ACAD_REACTORS
330
5416
102
}
330
5416
100
AcDbXrecord
 10
0.0
 20
0.0
 30
0.0
  0
XRECORD
  5
542A
102
{ACAD_REACTORS
330
5416
102
}
330
5416
100
AcDbXrecord
 10
0.0
 20
0.0
 30
0.0
  0
XRECORD
  5
5427
102
{ACAD_REACTORS
330
5416
102
}
330
5416
100
AcDbXrecord
 10
0.0
 20
0.0
 30
0.0
  0
XRECORD
  5
5424
102
{ACAD_REACTORS
330
5416
102
}
330
5416
100
AcDbXrecord
340
0
  0
XRECORD
  5
5425
102
{ACAD_REACTORS
330
5416
102
}
330
5416
100
AcDbXrecord
 70
     0
  0
XRECORD
  5
541A
102
{ACAD_REACTORS
330
5416
102
}
330
5416
100
AcDbXrecord
  1

  0
XRECORD
  5
5417
102
{ACAD_REACTORS
330
5416
102
}
330
5416
100
AcDbXrecord
 90
        1
  0
XRECORD
  5
5418
102
{ACAD_REACTORS
330
5416
102
}
330
5416
100
AcDbXrecord
 90
       70
  0
XRECORD
  5
542F
102
{ACAD_REACTORS
330
5416
102
}
330
5416
100
AcDbXrecord
340
0
  0
XRECORD
  5
5435
102
{ACAD_REACTORS
330
5416
102
}
330
5416
100
AcDbXrecord
 10
0.0
 20
0.0
 30
0.0
  0
XRECORD
  5
5431
102
{ACAD_REACTORS
330
5416
102
}
330
5416
100
AcDbXrecord
 10
0.0
 20
0.0
 30
0.0
  0
XRECORD
  5
5434
102
{ACAD_REACTORS
330
5416
102
}
330
5416
100
AcDbXrecord
 10
0.0
 20
0.0
 30
0.0
  0
XRECORD
  5
5432
102
{ACAD_REACTORS
330
5416
102
}
330
5416
100
AcDbXrecord
 10
0.0
 20
0.0
 30
0.0
  0
XRECORD
  5
5433
102
{ACAD_REACTORS
330
5416
102
}
330
5416
100
AcDbXrecord
 10
0.0
 20
0.0
 30
0.0
  0
XRECORD
  5
5430
102
{ACAD_REACTORS
330
5416
102
}
330
5416
100
AcDbXrecord
 10
0.0
 20
0.0
 30
0.0
  0
XRECORD
  5
542D
102
{ACAD_REACTORS
330
5416
102
}
330
5416
100
AcDbXrecord
340
0
  0
XRECORD
  5
542E
102
{ACAD_REACTORS
330
5416
102
}
330
5416
100
AcDbXrecord
 70
     0
  0
XRECORD
  5
5422
102
{ACAD_REACTORS
330
5416
102
}
330
5416
100
AcDbXrecord
  1
{5BBC2397-997A-4192-A26B-1D916DB5A0D5}
  0
DICTIONARYVAR
  5
47E8
102
{ACAD_REACTORS
330
47E7
102
}
330
47E7
100
DictionaryVariables
280
     0
  1
1:1
  0
DICTIONARYVAR
  5
4829
102
{ACAD_REACTORS
330
47E7
102
}
330
47E7
100
DictionaryVariables
280
     0
  1
Standard
  0
DICTIONARYVAR
  5
4828
102
{ACAD_REACTORS
330
47E7
102
}
330
47E7
100
DictionaryVariables
280
     0
  1
Standard
  0
DICTIONARYVAR
  5
5437
102
{ACAD_REACTORS
330
47E7
102
}
330
47E7
100
DictionaryVariables
280
     0
  1
1
  0
DICTIONARYVAR
  5
5438
102
{ACAD_REACTORS
330
47E7
102
}
330
47E7
100
DictionaryVariables
280
     0
  1
0
  0
DICTIONARYVAR
  5
482A
102
{ACAD_REACTORS
330
47E7
102
}
330
47E7
100
DictionaryVariables
280
     0
  1
0
  0
DICTIONARYVAR
  5
482B
102
{ACAD_REACTORS
330
47E7
102
}
330
47E7
100
DictionaryVariables
280
     0
  1
0
  0
DICTIONARY
  5
50B7
102
{ACAD_REACTORS
330
50B6
102
}
330
50B6
100
AcDbDictionary
  0
DICTIONARY
  5
4E03
102
{ACAD_REACTORS
330
4E02
102
}
330
4E02
100
AcDbDictionary
  0
DICTIONARY
  5
4E6A
102
{ACAD_REACTORS
330
4E69
102
}
330
4E69
100
AcDbDictionary
  0
DICTIONARY
  5
46D8
102
{ACAD_REACTORS
330
46D7
102
}
330
46D7
100
AcDbDictionary
  0
DICTIONARY
  5
4769
102
{ACAD_REACTORS
330
4768
102
}
330
4768
100
AcDbDictionary
  0
DICTIONARY
  5
4777
102
{ACAD_REACTORS
330
4776
102
}
330
4776
100
AcDbDictionary
  0
DICTIONARY
  5
4781
102
{ACAD_REACTORS
330
4780
102
}
330
4780
100
AcDbDictionary
  0
DICTIONARY
  5
4789
102
{ACAD_REACTORS
330
4788
102
}
330
4788
100
AcDbDictionary
  0
DICTIONARY
  5
4790
102
{ACAD_REACTORS
330
478F
102
}
330
478F
100
AcDbDictionary
  0
DICTIONARY
  5
479C
102
{ACAD_REACTORS
330
479B
102
}
330
479B
100
AcDbDictionary
  0
DICTIONARY
  5
47A6
102
{ACAD_REACTORS
330
47A5
102
}
330
47A5
100
AcDbDictionary
  0
DICTIONARY
  5
47B1
102
{ACAD_REACTORS
330
47B0
102
}
330
47B0
100
AcDbDictionary
  0
DICTIONARY
  5
47B5
102
{ACAD_REACTORS
330
47B4
102
}
330
47B4
100
AcDbDictionary
  0
DICTIONARY
  5
47B9
102
{ACAD_REACTORS
330
47B8
102
}
330
47B8
100
AcDbDictionary
  0
DICTIONARY
  5
4B96
102
{ACAD_REACTORS
330
4B95
102
}
330
4B95
100
AcDbDictionary
  0
DICTIONARY
  5
4BCB
102
{ACAD_REACTORS
330
4BCA
102
}
330
4BCA
100
AcDbDictionary
  0
DICTIONARY
  5
4C00
102
{ACAD_REACTORS
330
4BFF
102
}
330
4BFF
100
AcDbDictionary
  0
DICTIONARY
  5
4C35
102
{ACAD_REACTORS
330
4C34
102
}
330
4C34
100
AcDbDictionary
  0
DICTIONARY
  5
4C6A
102
{ACAD_REACTORS
330
4C69
102
}
330
4C69
100
AcDbDictionary
  0
DICTIONARY
  5
4C9F
102
{ACAD_REACTORS
330
4C9E
102
}
330
4C9E
100
AcDbDictionary
  0
DICTIONARY
  5
4CD4
102
{ACAD_REACTORS
330
4CD3
102
}
330
4CD3
100
AcDbDictionary
  0
DICTIONARY
  5
48FA
102
{ACAD_REACTORS
330
48F9
102
}
330
48F9
100
AcDbDictionary
  0
DICTIONARY
  5
4998
102
{ACAD_REACTORS
330
4997
102
}
330
4997
100
AcDbDictionary
  0
DICTIONARY
  5
499C
102
{ACAD_REACTORS
330
499B
102
}
330
499B
100
AcDbDictionary
  0
DICTIONARY
  5
5005
102
{ACAD_REACTORS
330
5004
102
}
330
5004
100
AcDbDictionary
  0
DICTIONARY
  5
5349
102
{ACAD_REACTORS
330
5348
102
}
330
5348
100
AcDbDictionary
  0
DICTIONARY
  5
534D
102
{ACAD_REACTORS
330
534C
102
}
330
534C
100
AcDbDictionary
  0
DICTIONARY
  5
5440
330
4695
100
AcDbDictionary
280
     1
  3
ACAD_XREC_ROUNDTRIP
360
5441
  0
DICTIONARY
  5
543E
330
4694
100
AcDbDictionary
280
     1
  3
ACAD_XREC_ROUNDTRIP
360
543F
  0
DICTIONARY
  5
5442
330
4696
100
AcDbDictionary
280
     1
  3
ACAD_XREC_ROUNDTRIP
360
5443
  0
XRECORD
  5
5441
102
{ACAD_REACTORS
330
5440
102
}
330
5440
100
AcDbXrecord
102
MATERIAL
148
0.0
149
0.0
149
0.0
 93
        0
 94
      127
282
     0
 72
     1
 77
     1
171
     1
175
     1
179
     1
273
     0
  0
XRECORD
  5
543F
102
{ACAD_REACTORS
330
543E
102
}
330
543E
100
AcDbXrecord
102
MATERIAL
148
0.0
149
0.0
149
0.0
 93
        0
 94
      127
282
     0
 72
     1
 77
     1
171
     1
175
     1
179
     1
273
     0
  0
XRECORD
  5
5443
102
{ACAD_REACTORS
330
5442
102
}
330
5442
100
AcDbXrecord
102
MATERIAL
148
0.0
149
0.0
149
0.0
 93
        0
 94
      127
282
     0
 72
     1
 77
     1
171
     1
175
     1
179
     1
273
     0
  0
ENDSEC
  0
EOF
